osu file format v14

[General]
AudioFilename: audio.mp3
AudioLeadIn: 0
PreviewTime: 62139
Countdown: 0
SampleSet: Normal
StackLeniency: 0.7
Mode: 1
LetterboxInBreaks: 0
WidescreenStoryboard: 1

[Editor]
DistanceSpacing: 1.5
BeatDivisor: 4
GridSize: 32
TimelineZoom: 1

[Metadata]
Title:Boot
TitleUnicode:ブート
Artist:paraoka feat. haru*nya
ArtistUnicode:paraoka feat. haru*nya
Creator:mintong89
Version:Futsuu
Source:
Tags:麹町養蚕館 Koujimachi Yousankan リゾルヴ Resolve Pop Japanese
BeatmapID:2372484
BeatmapSetID:1115403

[Difficulty]
HPDrainRate:6
CircleSize:5
OverallDifficulty:4
ApproachRate:5
SliderMultiplier:1.2
SliderTickRate:1

[Events]
//Background and Video events
0,0,"Idoko.full.697440.jpg",0,5
//Break Periods
//Storyboard Layer 0 (Background)
//Storyboard Layer 1 (Fail)
//Storyboard Layer 2 (Pass)
//Storyboard Layer 3 (Foreground)
//Storyboard Layer 4 (Overlay)
//Storyboard Sound Samples

[TimingPoints]
890,625,4,1,0,25,1,0
13390,254.237288135593,4,1,0,75,1,0
14406,254.237288135593,4,1,0,75,1,0
63219,-100,4,1,0,75,0,1
85592,-100,4,1,0,75,0,1
87626,-100,4,1,0,75,0,0
128050,-133.333333333333,4,1,0,75,0,0
132372,-100,4,1,0,75,0,0
136439,-100,4,1,0,75,0,1
176100,-100,4,1,0,75,0,0
177117,-100,4,1,0,75,0,1
185253,-100,4,1,0,75,0,0

[HitObjects]
324,257,890,5,0,0:0:0:0:
324,257,2140,1,8,0:0:0:0:
324,257,2765,1,0,0:0:0:0:
324,257,3390,1,0,0:0:0:0:
324,257,4640,1,0,0:0:0:0:
324,257,5265,1,8,0:0:0:0:
202,249,5890,2,0,B|566:245|566:245|545:243,1,360
256,192,8390,12,0,13390,0:0:0:0:
212,237,14406,5,4,0:0:0:0:
212,237,14914,1,8,0:0:0:0:
219,206,15295,1,0,0:0:0:0:
285,136,15550,1,8,0:0:0:0:
285,136,15804,1,8,0:0:0:0:
285,136,16185,1,8,0:0:0:0:
285,136,16439,1,0,0:0:0:0:
285,136,16694,1,8,0:0:0:0:
285,136,16948,1,0,0:0:0:0:
236,209,17329,1,8,0:0:0:0:
249,206,17711,1,8,0:0:0:0:
271,229,17965,1,8,0:0:0:0:
152,235,18473,1,4,0:0:0:0:
219,235,18728,1,8,0:0:0:0:
219,235,18982,1,0,0:0:0:0:
219,235,19363,1,8,0:0:0:0:
221,198,19617,1,0,0:0:0:0:
221,198,19872,1,8,0:0:0:0:
221,198,20253,1,8,0:0:0:0:
285,237,20507,1,0,0:0:0:0:
285,237,20761,1,8,0:0:0:0:
285,237,21016,1,8,0:0:0:0:
206,228,21524,1,0,0:0:0:0:
206,228,21778,1,0,0:0:0:0:
206,228,22033,1,0,0:0:0:0:
206,228,22160,1,0,0:0:0:0:
243,222,22287,1,0,0:0:0:0:
212,237,22541,1,4,0:0:0:0:
212,237,23050,1,8,0:0:0:0:
219,206,23431,1,0,0:0:0:0:
285,136,23685,1,8,0:0:0:0:
285,136,23939,1,8,0:0:0:0:
285,136,24321,1,8,0:0:0:0:
285,136,24575,1,0,0:0:0:0:
285,136,24829,1,8,0:0:0:0:
285,136,25083,1,0,0:0:0:0:
236,209,25465,1,8,0:0:0:0:
249,206,25846,1,8,0:0:0:0:
271,229,26100,1,8,0:0:0:0:
152,235,26609,1,4,0:0:0:0:
219,235,26863,1,8,0:0:0:0:
219,235,27117,1,0,0:0:0:0:
219,235,27499,1,8,0:0:0:0:
221,198,27753,1,0,0:0:0:0:
221,198,28007,1,8,0:0:0:0:
264,251,28261,1,8,0:0:0:0:
273,220,28643,1,0,0:0:0:0:
273,220,28897,1,8,0:0:0:0:
273,220,29151,1,0,0:0:0:0:
273,220,29405,1,8,0:0:0:0:
273,220,29660,1,4,0:0:0:0:
273,220,30041,1,6,0:0:0:0:
262,233,30677,1,4,0:0:0:0:
262,233,31185,1,8,0:0:0:0:
262,233,31694,1,0,0:0:0:0:
262,233,31948,1,0,0:0:0:0:
262,233,32202,1,8,0:0:0:0:
176,203,32711,1,0,0:0:0:0:
192,201,32965,1,8,0:0:0:0:
179,154,33219,1,0,0:0:0:0:
176,203,33473,1,8,0:0:0:0:
179,154,33728,1,0,0:0:0:0:
179,154,34236,1,8,0:0:0:0:
152,123,34744,1,8,0:0:0:0:
152,123,35253,1,0,0:0:0:0:
152,129,35761,1,8,0:0:0:0:
152,129,36016,1,8,0:0:0:0:
152,129,36270,1,0,0:0:0:0:
229,227,36778,1,8,0:0:0:0:
229,227,37033,1,0,0:0:0:0:
229,227,37287,1,8,0:0:0:0:
229,227,37541,1,0,0:0:0:0:
229,227,37795,1,8,0:0:0:0:
178,215,38050,1,8,0:0:0:0:
178,215,38177,1,8,0:0:0:0:
229,227,38304,1,8,0:0:0:0:
213,136,38812,1,4,0:0:0:0:
213,136,39321,1,8,0:0:0:0:
272,163,39829,1,0,0:0:0:0:
272,163,40083,1,0,0:0:0:0:
272,163,40338,1,8,0:0:0:0:
272,163,40846,1,0,0:0:0:0:
272,163,41100,1,8,0:0:0:0:
272,163,41355,1,0,0:0:0:0:
272,163,41609,1,8,0:0:0:0:
272,163,41863,1,0,0:0:0:0:
131,128,42372,1,8,0:0:0:0:
131,128,42880,1,8,0:0:0:0:
131,128,43389,1,0,0:0:0:0:
131,128,43897,1,8,0:0:0:0:
131,128,44151,1,8,0:0:0:0:
131,128,44405,1,0,0:0:0:0:
131,128,44914,1,8,0:0:0:0:
131,128,45168,1,0,0:0:0:0:
205,150,45422,1,8,0:0:0:0:
205,150,45677,1,0,0:0:0:0:
205,150,45931,1,8,0:0:0:0:
205,150,46185,1,8,0:0:0:0:
205,150,46312,1,8,0:0:0:0:
205,150,46439,1,8,0:0:0:0:
240,202,46948,1,4,0:0:0:0:
240,202,47456,1,8,0:0:0:0:
248,155,47965,1,0,0:0:0:0:
248,155,48219,1,0,0:0:0:0:
248,155,48346,1,0,0:0:0:0:
248,155,48473,1,0,0:0:0:0:
248,155,48728,1,8,0:0:0:0:
256,91,48982,1,0,0:0:0:0:
256,91,49490,1,0,0:0:0:0:
256,91,49999,1,8,0:0:0:0:
256,91,51016,1,8,0:0:0:0:
256,91,51524,1,0,0:0:0:0:
256,91,52033,1,8,0:0:0:0:
256,91,52287,1,8,0:0:0:0:
256,91,52414,1,8,0:0:0:0:
256,91,52541,1,8,0:0:0:0:
241,213,52795,1,8,0:0:0:0:
241,213,53050,1,0,0:0:0:0:
241,213,53558,1,8,0:0:0:0:
241,213,53812,1,0,0:0:0:0:
241,213,54067,1,4,0:0:0:0:
254,150,55083,1,4,0:0:0:0:
217,142,55465,1,8,0:0:0:0:
217,142,55719,1,8,0:0:0:0:
217,142,55973,1,8,0:0:0:0:
189,180,56228,1,8,0:0:0:0:
189,180,56482,1,8,0:0:0:0:
244,206,57117,1,4,0:0:0:0:
244,206,57499,1,8,0:0:0:0:
244,206,57753,1,8,0:0:0:0:
244,206,58007,1,8,0:0:0:0:
244,206,58261,1,8,0:0:0:0:
244,206,58516,1,8,0:0:0:0:
283,96,59151,1,6,0:0:0:0:
283,96,59533,1,6,0:0:0:0:
283,96,59914,1,6,0:0:0:0:
283,96,60677,1,6,0:0:0:0:
355,225,61185,1,6,0:0:0:0:
355,225,61567,1,6,0:0:0:0:
355,225,61948,1,6,0:0:0:0:
260,278,63219,1,4,0:0:0:0:
260,278,63473,1,8,0:0:0:0:
260,278,63728,1,0,0:0:0:0:
260,278,64109,1,0,0:0:0:0:
278,210,64363,1,8,0:0:0:0:
278,210,64617,1,8,0:0:0:0:
179,217,64999,1,8,0:0:0:0:
242,197,65253,1,8,0:0:0:0:
242,197,65507,1,0,0:0:0:0:
242,197,65761,1,8,0:0:0:0:
266,181,66143,1,0,0:0:0:0:
266,181,66778,1,0,0:0:0:0:
275,120,66905,1,0,0:0:0:0:
266,181,67033,1,0,0:0:0:0:
195,209,67287,1,4,0:0:0:0:
195,209,67541,1,8,0:0:0:0:
195,209,67795,1,0,0:0:0:0:
195,209,68177,1,0,0:0:0:0:
199,194,68431,1,0,0:0:0:0:
199,194,68685,1,8,0:0:0:0:
199,194,69067,1,8,0:0:0:0:
205,213,69321,1,8,0:0:0:0:
205,213,69575,1,0,0:0:0:0:
205,213,69829,1,8,0:0:0:0:
205,213,70211,1,8,0:0:0:0:
205,213,70846,1,8,0:0:0:0:
348,156,70973,1,8,0:0:0:0:
348,156,71100,1,8,0:0:0:0:
260,278,71355,1,4,0:0:0:0:
260,278,71609,1,8,0:0:0:0:
260,278,71863,1,0,0:0:0:0:
260,278,72244,1,0,0:0:0:0:
278,210,72499,1,8,0:0:0:0:
278,210,72753,1,8,0:0:0:0:
179,217,73134,1,8,0:0:0:0:
242,197,73389,1,8,0:0:0:0:
242,197,73643,1,0,0:0:0:0:
242,197,73897,1,8,0:0:0:0:
266,181,74278,1,0,0:0:0:0:
266,181,74914,1,0,0:0:0:0:
348,202,75041,1,0,0:0:0:0:
266,181,75168,1,0,0:0:0:0:
195,209,75422,1,4,0:0:0:0:
195,209,75677,1,8,0:0:0:0:
195,209,75931,1,0,0:0:0:0:
195,209,76312,1,0,0:0:0:0:
199,194,76567,1,0,0:0:0:0:
199,194,76821,1,8,0:0:0:0:
199,194,77075,1,8,0:0:0:0:
267,174,77456,1,0,0:0:0:0:
267,174,77965,1,8,0:0:0:0:
267,174,78473,1,6,0:0:0:0:
267,174,78855,1,6,0:0:0:0:
267,174,79109,1,6,0:0:0:0:
267,174,79490,1,4,0:0:0:0:
267,152,79999,1,8,0:0:0:0:
244,148,80507,1,0,0:0:0:0:
244,148,80761,1,0,0:0:0:0:
244,148,80889,1,0,0:0:0:0:
246,148,81016,1,0,0:0:0:0:
135,200,81270,1,8,0:0:0:0:
135,200,81524,1,0,0:0:0:0:
182,183,81778,1,8,0:0:0:0:
182,183,82033,1,0,0:0:0:0:
182,183,82287,1,8,0:0:0:0:
182,183,82541,1,0,0:0:0:0:
343,240,83558,1,0,0:0:0:0:
343,240,83812,1,0,0:0:0:0:
343,240,84067,1,8,0:0:0:0:
343,240,84321,1,0,0:0:0:0:
343,240,84575,1,8,0:0:0:0:
152,178,84829,1,8,0:0:0:0:
152,178,84956,1,8,0:0:0:0:
152,178,85083,1,8,0:0:0:0:
249,168,85592,1,6,0:0:0:0:
249,168,86100,1,6,0:0:0:0:
249,168,86609,1,4,0:0:0:0:
203,229,87626,1,4,0:0:0:0:
287,266,88134,1,8,0:0:0:0:
287,266,88516,1,8,0:0:0:0:
200,219,88897,1,8,0:0:0:0:
200,219,89151,1,0,0:0:0:0:
200,219,89405,1,8,0:0:0:0:
219,214,89660,1,0,0:0:0:0:
219,214,90168,1,8,0:0:0:0:
206,212,90550,1,8,0:0:0:0:
206,212,90931,1,0,0:0:0:0:
206,212,91185,1,8,0:0:0:0:
206,212,91439,1,8,0:0:0:0:
161,223,91694,1,4,0:0:0:0:
206,237,92202,1,8,0:0:0:0:
206,237,92711,1,0,0:0:0:0:
206,237,93092,1,8,0:0:0:0:
211,256,93473,1,8,0:0:0:0:
211,255,93728,1,0,0:0:0:0:
211,256,94236,1,8,0:0:0:0:
211,255,94744,1,8,0:0:0:0:
211,256,94999,1,0,0:0:0:0:
211,256,95253,1,8,0:0:0:0:
211,255,95761,1,4,0:0:0:0:
289,186,96270,1,8,0:0:0:0:
246,217,96651,1,8,0:0:0:0:
246,217,97033,1,8,0:0:0:0:
199,293,97287,1,0,0:0:0:0:
246,217,97541,1,8,0:0:0:0:
297,197,97795,1,0,0:0:0:0:
297,197,98304,1,0,0:0:0:0:
321,188,98812,1,0,0:0:0:0:
345,186,99321,1,0,0:0:0:0:
345,186,99575,1,8,0:0:0:0:
345,186,99829,1,4,0:0:0:0:
257,204,100338,1,8,0:0:0:0:
257,204,100846,1,0,0:0:0:0:
257,204,101100,1,8,0:0:0:0:
237,217,101355,1,0,0:0:0:0:
273,220,101863,1,0,0:0:0:0:
273,220,102117,1,8,0:0:0:0:
273,220,102372,1,0,0:0:0:0:
273,220,102626,1,8,0:0:0:0:
273,220,102880,1,4,0:0:0:0:
273,220,103261,1,6,0:0:0:0:
262,233,103897,1,4,0:0:0:0:
262,233,104405,1,8,0:0:0:0:
262,233,104914,1,0,0:0:0:0:
262,233,105168,1,0,0:0:0:0:
262,233,105422,1,8,0:0:0:0:
176,203,105931,1,0,0:0:0:0:
192,201,106185,1,8,0:0:0:0:
179,154,106439,1,0,0:0:0:0:
176,203,106694,1,8,0:0:0:0:
179,154,106948,1,0,0:0:0:0:
179,154,107456,1,8,0:0:0:0:
152,123,107965,1,8,0:0:0:0:
152,123,108473,1,0,0:0:0:0:
152,129,108982,1,8,0:0:0:0:
152,129,109236,1,8,0:0:0:0:
152,129,109490,1,0,0:0:0:0:
229,227,109999,1,8,0:0:0:0:
229,227,110253,1,0,0:0:0:0:
229,227,110507,1,8,0:0:0:0:
229,227,110761,1,0,0:0:0:0:
229,227,111016,1,8,0:0:0:0:
178,215,111270,1,8,0:0:0:0:
178,215,111397,1,8,0:0:0:0:
229,227,111524,1,8,0:0:0:0:
213,136,112033,1,4,0:0:0:0:
213,136,112541,1,8,0:0:0:0:
272,163,113050,1,0,0:0:0:0:
272,163,113304,1,0,0:0:0:0:
272,163,113558,1,8,0:0:0:0:
272,163,114067,1,0,0:0:0:0:
272,163,114321,1,8,0:0:0:0:
272,163,114575,1,0,0:0:0:0:
272,163,114829,1,8,0:0:0:0:
272,163,115083,1,0,0:0:0:0:
131,128,115592,1,8,0:0:0:0:
131,128,116100,1,8,0:0:0:0:
131,128,116609,1,0,0:0:0:0:
131,128,117117,1,8,0:0:0:0:
131,128,117372,1,8,0:0:0:0:
131,128,117626,1,0,0:0:0:0:
131,128,118134,1,8,0:0:0:0:
131,128,118389,1,0,0:0:0:0:
205,150,118643,1,8,0:0:0:0:
205,150,118897,1,0,0:0:0:0:
205,150,119151,1,8,0:0:0:0:
205,150,119405,1,8,0:0:0:0:
205,150,119533,1,8,0:0:0:0:
205,150,119660,1,8,0:0:0:0:
240,202,120168,1,4,0:0:0:0:
240,202,120677,1,8,0:0:0:0:
248,155,121185,1,0,0:0:0:0:
248,155,121439,1,0,0:0:0:0:
248,155,121567,1,0,0:0:0:0:
248,155,121694,1,0,0:0:0:0:
248,155,121948,1,8,0:0:0:0:
256,91,122202,1,0,0:0:0:0:
256,91,122711,1,0,0:0:0:0:
256,91,123219,1,8,0:0:0:0:
256,91,124236,1,8,0:0:0:0:
256,91,124744,1,0,0:0:0:0:
256,91,125253,1,8,0:0:0:0:
256,91,125507,1,8,0:0:0:0:
256,91,125634,1,8,0:0:0:0:
256,91,125761,1,8,0:0:0:0:
241,213,126016,1,8,0:0:0:0:
241,213,126270,1,0,0:0:0:0:
241,213,126778,1,8,0:0:0:0:
241,213,127033,1,0,0:0:0:0:
241,213,127287,1,4,0:0:0:0:
254,150,128304,1,4,0:0:0:0:
217,142,128685,1,8,0:0:0:0:
217,142,128939,1,8,0:0:0:0:
217,142,129194,1,8,0:0:0:0:
189,180,129448,1,8,0:0:0:0:
189,180,129702,1,8,0:0:0:0:
244,206,130338,1,4,0:0:0:0:
244,206,130719,1,8,0:0:0:0:
244,206,130973,1,8,0:0:0:0:
244,206,131228,1,8,0:0:0:0:
244,206,131482,1,8,0:0:0:0:
244,206,131736,1,8,0:0:0:0:
283,96,132372,1,6,0:0:0:0:
283,96,132753,1,6,0:0:0:0:
283,96,133134,1,6,0:0:0:0:
283,96,133897,1,6,0:0:0:0:
355,225,134405,1,6,0:0:0:0:
355,225,134787,1,6,0:0:0:0:
355,225,135168,1,6,0:0:0:0:
260,278,136439,1,4,0:0:0:0:
260,278,136694,1,8,0:0:0:0:
260,278,136948,1,0,0:0:0:0:
260,278,137329,1,0,0:0:0:0:
278,210,137583,1,8,0:0:0:0:
278,210,137838,1,8,0:0:0:0:
179,217,138219,1,8,0:0:0:0:
242,197,138473,1,8,0:0:0:0:
242,197,138728,1,0,0:0:0:0:
242,197,138982,1,8,0:0:0:0:
266,181,139363,1,0,0:0:0:0:
266,181,139999,1,0,0:0:0:0:
275,120,140126,1,0,0:0:0:0:
266,181,140253,1,0,0:0:0:0:
195,209,140507,1,4,0:0:0:0:
195,209,140761,1,8,0:0:0:0:
195,209,141016,1,0,0:0:0:0:
195,209,141397,1,0,0:0:0:0:
199,194,141651,1,0,0:0:0:0:
199,194,141905,1,8,0:0:0:0:
199,194,142287,1,8,0:0:0:0:
205,213,142541,1,8,0:0:0:0:
205,213,142795,1,0,0:0:0:0:
205,213,143050,1,8,0:0:0:0:
205,213,143431,1,8,0:0:0:0:
205,213,144067,1,8,0:0:0:0:
348,156,144194,1,8,0:0:0:0:
348,156,144321,1,8,0:0:0:0:
260,278,144575,1,4,0:0:0:0:
260,278,144829,1,8,0:0:0:0:
260,278,145083,1,0,0:0:0:0:
260,278,145465,1,0,0:0:0:0:
278,210,145719,1,8,0:0:0:0:
278,210,145973,1,8,0:0:0:0:
179,217,146355,1,8,0:0:0:0:
242,197,146609,1,8,0:0:0:0:
242,197,146863,1,0,0:0:0:0:
242,197,147117,1,8,0:0:0:0:
266,181,147499,1,0,0:0:0:0:
267,142,148134,1,8,0:0:0:0:
184,199,148261,1,8,0:0:0:0:
267,142,148389,1,8,0:0:0:0:
267,142,148643,1,0,0:0:0:0:
267,142,148897,1,8,0:0:0:0:
267,142,149151,1,0,0:0:0:0:
211,175,149533,1,8,0:0:0:0:
211,175,149787,1,8,0:0:0:0:
211,175,150041,1,0,0:0:0:0:
279,184,150422,1,8,0:0:0:0:
279,184,150677,1,0,0:0:0:0:
279,184,150931,1,0,0:0:0:0:
279,184,151185,1,8,0:0:0:0:
161,140,151567,1,0,0:0:0:0:
161,140,152202,1,8,0:0:0:0:
161,140,152456,1,8,0:0:0:0:
289,169,152711,1,4,0:0:0:0:
289,169,152965,1,8,0:0:0:0:
289,169,153219,1,0,0:0:0:0:
289,169,153473,1,8,0:0:0:0:
289,169,153728,1,0,0:0:0:0:
289,161,154236,1,0,0:0:0:0:
289,161,154744,1,8,0:0:0:0:
289,161,154999,1,0,0:0:0:0:
289,161,155253,1,8,0:0:0:0:
176,208,155761,1,8,0:0:0:0:
270,272,156016,1,8,0:0:0:0:
270,272,156143,1,8,0:0:0:0:
176,208,156270,1,8,0:0:0:0:
176,208,156778,1,4,0:0:0:0:
176,208,157033,1,8,0:0:0:0:
176,208,157287,1,0,0:0:0:0:
176,208,157541,1,8,0:0:0:0:
176,208,157795,1,0,0:0:0:0:
281,192,158304,1,8,0:0:0:0:
281,192,158812,1,8,0:0:0:0:
281,192,159067,1,0,0:0:0:0:
281,192,159321,1,8,0:0:0:0:
281,192,159829,1,8,0:0:0:0:
281,192,160083,1,8,0:0:0:0:
281,192,160338,1,8,0:0:0:0:
252,173,160846,1,4,0:0:0:0:
252,173,161100,1,8,0:0:0:0:
252,173,161355,1,0,0:0:0:0:
252,173,161609,1,8,0:0:0:0:
252,173,161863,1,0,0:0:0:0:
207,195,162372,1,8,0:0:0:0:
207,195,162880,1,8,0:0:0:0:
207,195,163134,1,0,0:0:0:0:
207,195,163389,1,8,0:0:0:0:
258,140,163897,1,0,0:0:0:0:
179,184,164024,1,0,0:0:0:0:
207,195,164151,1,0,0:0:0:0:
207,195,164405,1,8,0:0:0:0:
204,187,164914,1,4,0:0:0:0:
204,187,165168,1,8,0:0:0:0:
204,187,165422,1,0,0:0:0:0:
204,187,165677,1,8,0:0:0:0:
204,187,165931,1,0,0:0:0:0:
258,140,166439,1,8,0:0:0:0:
258,140,166948,1,4,0:0:0:0:
258,140,167456,1,8,0:0:0:0:
258,140,167965,1,6,0:0:0:0:
273,255,168346,1,6,0:0:0:0:
273,255,168600,1,6,0:0:0:0:
311,225,168982,1,4,0:0:0:0:
311,225,169490,1,8,0:0:0:0:
311,225,169999,1,0,0:0:0:0:
311,225,170253,1,0,0:0:0:0:
311,225,170380,1,0,0:0:0:0:
311,225,170507,1,0,0:0:0:0:
311,225,170761,1,8,0:0:0:0:
311,225,171016,1,0,0:0:0:0:
155,129,171524,1,8,0:0:0:0:
155,129,171778,1,0,0:0:0:0:
155,129,172033,1,8,0:0:0:0:
308,167,172541,1,8,0:0:0:0:
308,167,173050,1,4,0:0:0:0:
308,167,173558,1,8,0:0:0:0:
308,167,174067,1,0,0:0:0:0:
308,167,174321,1,0,0:0:0:0:
308,167,174448,1,0,0:0:0:0:
308,167,174575,1,0,0:0:0:0:
178,171,174829,1,8,0:0:0:0:
302,210,175083,1,6,0:0:0:0:
302,210,175592,1,6,0:0:0:0:
302,210,176100,1,4,0:0:0:0:
302,210,177117,1,4,0:0:0:0:
302,210,177626,1,8,0:0:0:0:
302,210,178134,1,0,0:0:0:0:
302,210,178389,1,0,0:0:0:0:
302,210,178516,1,0,0:0:0:0:
302,210,178643,1,0,0:0:0:0:
200,250,178897,1,8,0:0:0:0:
220,214,179151,1,6,0:0:0:0:
220,214,179660,1,6,0:0:0:0:
225,212,180168,1,4,0:0:0:0:
204,163,181185,1,6,0:0:0:0:
204,163,181694,1,6,0:0:0:0:
204,163,182202,1,4,0:0:0:0:
248,185,183219,1,6,0:0:0:0:
248,185,183728,1,4,0:0:0:0:
248,185,184236,1,6,0:0:0:0:
248,185,185253,1,4,0:0:0:0:
248,185,186524,1,8,0:0:0:0:
248,185,186778,1,0,0:0:0:0:
248,185,187033,1,8,0:0:0:0:
248,185,188558,1,0,0:0:0:0:
262,217,189067,1,0,0:0:0:0:
262,217,189321,1,8,0:0:0:0:
262,217,190592,1,0,0:0:0:0:
262,217,191100,1,8,0:0:0:0:
237,231,191863,1,8,0:0:0:0:
237,231,192244,1,8,0:0:0:0:
237,231,192626,1,8,0:0:0:0:
237,231,192880,1,8,0:0:0:0:
269,192,193389,1,0,0:0:0:0:
269,192,194151,1,8,0:0:0:0:
236,233,194914,1,0,0:0:0:0:
236,233,195422,1,8,0:0:0:0:
236,233,196185,1,0,0:0:0:0:
236,233,196948,1,8,0:0:0:0:
256,192,197456,12,0,202541,0:0:0:0:
