osu file format v14

[General]
AudioFilename: audio.mp3
AudioLeadIn: 0
PreviewTime: 39138
Countdown: 0
SampleSet: Soft
StackLeniency: 0.4
Mode: 0
LetterboxInBreaks: 0
WidescreenStoryboard: 1

[Editor]
DistanceSpacing: 0.9
BeatDivisor: 4
GridSize: 4
TimelineZoom: 1

[Metadata]
Title:petal-go-round (demo)
TitleUnicode:petal-go-round (demo)
Artist:paraoka
ArtistUnicode:paraoka
Creator:ayel
Version:PaRaDogi's Hard
Source:
Tags:japanese pop vocaloid maidloid maid flowers opening op acme iku akume paradogi fsjallink celektus zenmashi training diary ぜんまし 阿久女イク調教日記 SS|EX Compilation Album Volume. 1 Konei Teara C79 Comiket SS|EX SS-EX SSEX Compelation Vol.01 Rock J-Rock j-pop pop-rock
BeatmapID:3409949
BeatmapSetID:1666308

[Difficulty]
HPDrainRate:5
CircleSize:3.8
OverallDifficulty:6.5
ApproachRate:7.5
SliderMultiplier:1.5
SliderTickRate:1

[Events]
//Background and Video events
0,0,"Acme.Iku.full.1061023.v4.jpg",0,0
//Break Periods
//Storyboard Layer 0 (Background)
//Storyboard Layer 1 (Fail)
//Storyboard Layer 2 (Pass)
//Storyboard Layer 3 (Foreground)
//Storyboard Layer 4 (Overlay)
//Storyboard Sound Samples

[TimingPoints]
600,334.261838440111,4,2,1,35,1,0
600,-133.333333333333,4,2,1,35,0,0
767,-133.333333333333,4,2,1,76,0,0
934,-133.333333333333,4,2,1,35,0,0
1101,-133.333333333333,4,2,1,76,0,0
1268,-133.333333333333,4,2,1,35,0,0
1435,-133.333333333333,4,2,1,76,0,0
1602,-133.333333333333,4,2,1,35,0,0
1769,-133.333333333333,4,2,1,76,0,0
1937,-133.333333333333,4,2,1,35,0,0
2772,-133.333333333333,4,2,1,76,0,0
2939,-133.333333333333,4,2,1,35,0,0
3106,-133.333333333333,4,2,1,76,0,0
3274,-133.333333333333,4,2,1,35,0,0
4109,-133.333333333333,4,2,1,76,0,0
4276,-133.333333333333,4,2,1,35,0,0
4443,-133.333333333333,4,2,1,76,0,0
4611,-133.333333333333,4,2,1,35,0,0
5279,-285.714285714284,4,2,1,35,0,0
6281,-285.714285714284,4,2,1,76,0,0
6783,-285.714285714284,4,2,1,50,0,0
7118,-100,4,2,1,70,0,0
9290,-100,4,2,1,76,0,0
9457,-100,4,2,1,70,0,0
9624,-100,4,2,1,76,0,0
12633,-100,4,2,2,60,0,0
12800,-100,4,2,2,76,0,0
12967,-100,4,2,2,60,0,0
13134,-100,4,2,2,76,0,0
13301,-100,4,2,2,60,0,0
13970,-100,4,2,2,76,0,0
14137,-100,4,2,2,60,0,0
17312,-100,4,2,2,76,0,0
17480,-100,4,2,2,60,0,0
19987,-100,4,2,2,76,0,0
20154,-100,4,2,2,60,0,0
21491,-100,4,2,2,76,0,0
21658,-100,4,2,2,60,0,0
21825,-100,4,2,2,76,0,0
21992,-100,4,2,2,60,0,0
22159,-100,4,2,2,76,0,0
22326,-100,4,2,2,60,0,0
23162,-100,4,2,1,60,0,0
24666,-100,4,2,1,76,0,0
24833,-100,4,2,1,60,0,0
27340,-100,4,2,1,76,0,0
27508,-100,4,2,1,60,0,0
27842,-100,4,2,2,60,0,0
28510,-100,4,2,1,60,0,0
31853,-100,4,2,1,76,0,0
32020,-100,4,2,1,60,0,0
34026,-100,4,2,1,50,0,0
34360,-133.333333333333,4,2,1,50,0,0
38037,-133.333333333333,4,2,1,76,0,0
38204,-133.333333333333,4,2,1,50,0,0
38538,-133.333333333333,4,2,1,76,0,0
38705,-133.333333333333,4,2,1,50,0,0
39374,-100,4,2,2,80,0,0
40544,-100,4,2,2,76,0,0
40711,-100,4,2,2,80,0,0
41881,-100,4,2,2,76,0,0
42048,-100,4,2,2,80,0,0
43218,-100,4,2,2,76,0,0
43385,-100,4,2,2,80,0,0
43970,-100,4,2,2,76,0,0
44054,-100,4,2,2,80,0,0
44555,-100,4,2,2,76,0,0
44722,-100,4,2,2,80,0,0
46560,-100,4,2,2,76,0,0
46728,-100,4,2,2,80,0,0
47229,-100,4,2,2,76,0,0
47396,-100,4,2,2,80,0,0
48650,-100,4,2,2,76,0,0
48733,-100,4,2,2,80,0,0
50070,-100,4,2,1,80,0,0
50404,-100,4,2,3,80,0,0
52577,-100,4,2,0,76,0,0
52744,-100,4,2,3,80,0,0
54750,-100,4,2,1,80,0,0
56087,-100,4,2,1,76,0,0
56254,-100,4,2,1,80,0,0
57090,-100,4,2,1,76,0,0
57257,-100,4,2,1,80,0,0
58677,-100,4,2,1,40,0,0
58761,-100,4,2,1,80,0,0
59597,-100,4,2,2,80,0,0
60599,-100,4,2,1,60,0,0
62104,-100,4,2,1,76,0,0
62271,-100,4,2,1,60,0,0
63441,-100,4,2,2,60,0,0
64778,-100,4,2,2,76,0,0
64945,-100,4,2,2,60,0,0
65446,-100,4,2,2,70,0,0
66115,-90.9090909090909,4,2,1,80,0,0
66449,-90.9090909090909,4,2,3,80,0,0
66616,-90.9090909090909,4,2,0,76,0,0
66783,-90.9090909090909,4,2,3,80,0,0
67953,-90.9090909090909,4,2,0,76,0,0
68120,-90.9090909090909,4,2,3,80,0,0
68622,-90.9090909090909,4,2,0,76,0,0
68789,-90.9090909090909,4,2,3,80,0,0
69290,-90.9090909090909,4,2,0,76,0,0
69457,-90.9090909090909,4,2,3,80,0,0
69959,-90.9090909090909,4,2,0,76,0,0
70126,-90.9090909090909,4,2,3,80,0,0
70460,-90.9090909090909,4,2,2,80,0,0
71964,-90.9090909090909,4,2,2,76,0,0
72132,-90.9090909090909,4,2,2,80,0,0
72633,-90.9090909090909,4,2,2,76,0,0
72800,-90.9090909090909,4,2,2,80,0,0
73468,-90.9090909090909,4,2,2,76,0,0
73636,-90.9090909090909,4,2,2,80,0,0
73970,-90.9090909090909,4,2,2,76,0,0
74137,-90.9090909090909,4,2,2,80,0,0
75223,-90.9090909090909,4,2,2,76,0,0
75390,-90.9090909090909,4,2,2,80,0,0
75808,-90.9090909090909,4,2,2,30,0,0
75976,-90.9090909090909,4,2,2,80,0,0
76143,-90.9090909090909,4,2,2,76,0,0
76310,-90.9090909090909,4,2,2,80,0,0
76560,-90.9090909090909,4,2,2,76,0,0
76644,-90.9090909090909,4,2,2,80,0,0
76811,-83.3333333333333,4,2,2,80,0,0
81574,-83.3333333333333,4,2,2,76,0,0
81658,-83.3333333333333,4,2,2,80,0,0
82159,-100,4,2,2,80,0,0
82493,-100,4,2,2,65,0,0
83329,-100,4,2,2,76,0,0
83496,-100,4,2,2,65,0,0
85919,-100,4,2,2,76,0,0
86003,-100,4,2,2,65,0,0
86086,-100,4,2,2,76,0,0
86171,-100,4,2,2,65,0,0
87090,-100,4,2,2,76,0,0
87173,-100,4,2,2,65,0,0
87508,-100,4,2,3,65,0,0
87591,-100,4,2,0,76,0,0
87842,-100,4,2,3,65,0,0
87925,-100,4,2,0,76,0,0
88176,-100,4,2,3,65,0,0
88343,-100,4,2,2,65,0,0
88427,-100,4,2,2,76,0,0
88510,-100,4,2,2,65,0,0

[Colours]
Combo1 : 253,205,43
Combo2 : 238,57,57
Combo3 : 252,117,58

[HitObjects]
25,44,600,6,0,P|61:33|124:85,1,112.500004291535,2|0,0:3|0:0,0:0:0:0:
220,152,1268,2,0,L|285:137,1,56.2500021457673
351,120,1602,1,0,0:0:0:0:
458,202,1937,6,0,P|494:199|510:127,2,112.500004291535,2|2|2,0:3|0:2|0:2,0:0:0:0:
390,242,2773,1,0,0:0:0:0:
390,242,2940,1,0,0:0:0:0:
293,334,3274,6,0,L|180:361,2,112.500004291535,2|2|2,0:3|0:2|0:3,0:0:0:0:
373,319,4110,1,0,0:0:0:0:
373,319,4277,1,0,0:0:0:0:
280,232,4611,2,0,P|270:224|268:128,1,112.500004291535,2|2,0:3|0:2,0:0:0:0:
323,80,5112,1,2,0:3:0:0:
338,85,5196,1,2,0:3:0:0:
353,90,5280,6,0,B|405:84|432:112|430:121|428:130|453:155|502:146,1,157.499995193482,6|0,0:2|0:0,0:0:0:0:
239,363,6617,5,0,0:0:0:0:
294,309,6784,1,2,3:2:0:0:
260,239,6951,1,2,3:2:0:0:
324,190,7118,6,0,P|369:191|402:277,1,150,6|2,3:2|0:2,0:0:0:0:
465,319,7619,1,2,1:2:0:0:
507,256,7787,2,0,B|492:193|492:193|500:181|500:181|483:98,1,150,6|2,3:2|0:2,0:0:0:0:
432,57,8288,1,2,1:2:0:0:
359,91,8455,6,0,B|332:66|285:68|283:75|281:82|234:97|194:49,1,150,6|2,3:2|0:2,0:0:0:0:
163,10,8956,1,2,1:2:0:0:
95,54,9124,2,0,P|75:92|82:129,1,75,6|0,3:2|0:0,0:0:0:0:
20,176,9458,2,0,P|42:221|31:255,1,75,2|0,3:2|0:0,0:0:0:0:
74,312,9792,6,0,B|97:344|97:344|209:320,1,150,6|2,3:2|3:3,0:0:0:0:
261,268,10294,2,0,L|344:289,1,75,0|2,1:2|0:3,0:0:0:0:
385,345,10628,2,0,L|458:328,1,75,0|2,3:2|0:3,0:0:0:0:
508,268,10962,1,0,1:2:0:0:
465,202,11129,1,2,3:3:0:0:
501,78,11463,5,2,3:3:0:0:
445,20,11631,2,0,P|395:18|373:48,1,75,0|2,1:2|0:3,0:0:0:0:
325,89,11965,1,4,0:3:0:0:
259,45,12132,1,0,1:2:0:0:
237,40,12216,1,0,1:2:0:0:
215,32,12299,2,0,L|155:13,3,37.5,0|0|0|0,1:2|1:2|1:2|1:2,0:0:0:0:
130,24,12633,6,0,P|99:64|111:102,1,75,4|0,3:2|0:0,0:0:0:0:
58,147,12968,2,0,P|66:189|50:227,1,75,2|0,1:2|0:0,0:0:0:0:
91,288,13302,2,0,P|143:306|220:259,1,150,2|2,3:2|1:2,0:0:0:0:
258,193,13803,6,0,P|283:158|328:153,1,75,2|0,3:2|0:0,0:0:0:0:
382,109,14138,1,2,3:2:0:0:
443,158,14305,2,0,L|454:235,1,75,0|2,1:2|0:2,0:0:0:0:
437,310,14639,2,0,L|515:324,2,75,0|2|2,3:2|0:2|1:3,0:0:0:0:
377,360,15140,6,0,B|312:371|312:371|296:368|296:368|226:378,1,150,6|0,3:2|3:2,0:0:0:0:
161,338,15642,2,0,P|139:295|163:259,1,75,2|2,1:2|0:2,0:0:0:0:
201,216,15976,1,2,3:2:0:0:
164,147,16143,1,2,3:2:0:0:
208,81,16310,1,0,1:2:0:0:
158,20,16477,6,0,B|117:4|117:4|21:80,1,150,2|2,3:2|3:2,0:0:0:0:
1,140,16979,1,0,1:2:0:0:
54,198,17146,2,0,L|45:280,1,75,2|0,3:2|0:0,0:0:0:0:
81,340,17480,1,2,3:2:0:0:
150,369,17647,2,0,L|247:357,1,75,0|2,1:2|0:3,0:0:0:0:
270,295,17982,5,0,3:2:0:0:
234,224,18149,1,0,3:2:0:0:
272,153,18316,2,0,P|310:137|350:162,1,75,2|2,1:2|0:2,0:0:0:0:
399,201,18650,2,0,L|403:280,2,75,2|2|0,3:2|0:2|1:2,0:0:0:0:
453,148,19151,6,0,B|475:114|475:114|434:8,1,150,2|2,3:2|3:2,0:0:0:0:
359,38,19653,1,0,1:2:0:0:
291,0,19820,2,0,L|211:13,1,75,2|0,3:2|0:0,0:0:0:0:
169,71,20154,2,0,L|90:58,1,75,2|2,3:2|1:3,0:0:0:0:
29,100,20489,6,0,B|14:166|14:166|20:180|20:180|2:250,1,150,6|0,3:2|3:2,0:0:0:0:
28,320,20990,1,2,1:2:0:0:
90,371,21157,1,2,0:2:0:0:
161,339,21324,2,0,L|248:367,1,75,2|0,3:2|0:0,0:0:0:0:
301,326,21658,2,0,L|381:309,1,75,2|0,1:2|0:0,0:0:0:0:
428,255,21993,6,0,L|505:278,2,75,6|0|2,3:2|0:0|1:3,0:0:0:0:
388,188,22494,1,2,3:3:0:0:
268,233,22828,1,2,3:3:0:0:
221,169,22995,1,2,1:2:0:0:
276,111,23163,6,0,P|295:69|220:18,1,150,6|2,3:2|3:3,0:0:0:0:
155,56,23664,2,0,L|81:39,1,75,0|2,1:2|0:3,0:0:0:0:
18,85,23998,2,0,B|-9:115|-9:115|28:223,1,150,2|0,3:2|1:2,0:0:0:0:
86,271,24500,6,0,B|122:292|122:292|167:271,1,75,2|0,3:3|0:0,0:0:0:0:
209,225,24834,2,0,B|241:203|241:203|300:222,1,75,2|0,3:3|1:2,0:0:0:0:
337,264,25168,2,0,B|371:282|371:282|421:267,1,75,2|0,0:3|3:2,0:0:0:0:
470,224,25502,2,0,L|479:145,1,75,2|0,0:3|1:2,0:0:0:0:
435,83,25837,6,0,B|408:58|365:63|361:68|357:75|320:82|285:50,1,150,6|2,3:2|3:3,0:0:0:0:
231,9,26338,2,0,P|181:26|168:57,1,75,2|2,1:2|0:3,0:0:0:0:
114,95,26672,2,0,L|26:75,2,75,2|2|2,3:2|3:3|1:2,0:0:0:0:
157,162,27174,6,0,P|157:209|121:240,1,75,6|0,3:2|0:0,0:0:0:0:
81,282,27508,1,0,1:2:0:0:
113,355,27675,1,0,1:2:0:0:
190,340,27842,1,2,3:3:0:0:
291,268,28177,2,0,L|372:282,1,75,2|0,3:3|1:2,0:0:0:0:
437,253,28511,6,0,P|465:216|414:133,1,150,4|2,3:2|3:3,0:0:0:0:
369,77,29012,2,0,B|372:40|372:40|417:22,2,75,0|2|2,1:2|3:3|0:2,0:0:0:0:
296,106,29514,2,0,L|303:187,1,75,2|0,1:3|3:2,0:0:0:0:
263,251,29848,6,0,B|206:280|206:280|183:275|183:275|119:309,1,150,6|2,3:2|3:3,0:0:0:0:
79,368,30349,1,0,1:2:0:0:
17,325,30516,1,6,3:2:0:0:
65,263,30683,1,0,1:2:0:0:
68,240,30767,1,0,1:2:0:0:
70,217,30851,2,0,L|81:133,1,75,8|4,0:3|0:3,0:0:0:0:
143,97,31185,6,0,B|205:84|205:84|218:87|218:87|295:74,1,150,6|0,3:2|3:2,0:0:0:0:
347,19,31686,2,0,L|433:48,1,75,0|0,1:2|0:0,0:0:0:0:
488,86,32021,2,0,B|510:54|510:54|498:19,2,75,0|0|0,3:2|3:2|1:2,0:0:0:0:
417,119,32522,6,0,B|435:186|435:186|428:204|428:204|450:284,1,150,2|0,3:2|3:2,0:0:0:0:
405,329,33023,2,0,P|361:357|334:345,1,75,6|0,1:2|3:2,0:0:0:0:
269,375,33358,1,4,3:3:0:0:
211,319,33525,2,0,L|157:331,2,37.5,2|0|2,1:2|1:2|1:2,0:0:0:0:
261,260,33859,1,2,1:2:0:0:
267,238,33943,1,0,1:2:0:0:
275,217,34026,6,0,L|296:131,1,75,6|2,3:2|3:2,0:0:0:0:
255,76,34360,1,0,1:3:0:0:
126,101,34695,2,0,L|112:40,2,56.2500021457673,2|2|2,3:3|0:2|1:3,0:0:0:0:
77,162,35196,1,2,3:2:0:0:
37,288,35530,6,0,L|-30:275,2,56.2500021457673,2|2|2,3:2|1:3|0:2,0:0:0:0:
88,346,36032,1,2,3:3:0:0:
145,291,36199,1,2,1:2:0:0:
161,289,36282,1,0,1:2:0:0:
177,286,36366,2,0,L|229:275,3,28.1250010728836,10|8|6|4,0:3|0:3|0:3|0:3,0:0:0:0:
245,271,36700,6,0,L|316:289,1,56.2500021457673,6|2,3:2|3:2,0:0:0:0:
349,349,37034,2,0,L|416:333,1,56.2500021457673,2|2,1:2|0:2,0:0:0:0:
457,279,37369,1,2,3:3:0:0:
414,214,37536,1,2,1:2:0:0:
461,150,37703,1,2,1:2:0:0:
409,88,37870,6,0,L|327:78,1,56.2500021457673,6|0,3:2|0:0,0:0:0:0:
295,29,38204,1,2,1:2:0:0:
278,34,38288,1,0,1:2:0:0:
261,36,38372,2,0,L|193:47,1,56.2500021457673,6|0,3:2|0:0,0:0:0:0:
140,94,38706,2,0,L|112:53,2,28.1250010728836,8|8|0,0:3|0:3|3:2,0:0:0:0:
113,165,39040,1,0,1:2:0:0:
201,264,39374,6,0,P|174:309|84:302,1,150,6|2,3:2|1:3,0:0:0:0:
15,268,39876,1,2,0:2:0:0:
32,192,40043,2,0,L|18:113,1,75,2|0,3:2|3:2,0:0:0:0:
64,55,40377,2,0,P|110:34|148:43,1,75,2|0,1:3|0:0,0:0:0:0:
202,2,40711,6,0,P|249:35|336:13,1,150,2|2,3:2|1:3,0:0:0:0:
412,28,41213,1,2,0:2:0:0:
464,89,41380,2,0,L|446:165,1,75,2|0,3:2|3:2,0:0:0:0:
383,206,41714,2,0,L|391:286,1,75,2|0,1:3|0:0,0:0:0:0:
353,348,42048,6,0,B|325:378|325:378|213:350,1,150,2|2,3:2|1:3,0:0:0:0:
175,288,42550,1,2,0:2:0:0:
180,266,42633,1,2,1:2:0:0:
185,244,42717,2,0,L|201:165,1,75,2|0,3:2|3:2,0:0:0:0:
255,115,43051,1,2,1:3:0:0:
235,40,43218,1,0,0:0:0:0:
157,14,43385,6,0,B|90:31|90:31|82:44|82:44|9:62,1,150,2|2,3:2|1:3,0:0:0:0:
1,137,43887,1,2,0:2:0:0:
6,158,43970,1,0,0:0:0:0:
11,180,44054,2,0,L|35:264,1,75,2|0,3:2|3:2,0:0:0:0:
94,303,44388,2,0,P|152:310|170:286,1,75,2|0,1:3|0:0,0:0:0:0:
228,259,44722,6,0,B|242:203|242:203|236:180|236:180|250:106,2,150,6|2|2,3:2|1:3|3:2,0:0:0:0:
261,329,45558,1,0,3:2:0:0:
336,300,45725,2,0,L|425:325,1,75,2|2,1:3|0:2,0:0:0:0:
471,273,46060,6,0,P|493:233|481:194,1,75,2|0,3:2|3:2,0:0:0:0:
431,149,46394,2,0,P|409:110|422:80,1,75,2|0,1:3|0:0,0:0:0:0:
374,20,46728,2,0,L|295:4,1,75,2|0,3:2|3:2,0:0:0:0:
234,48,47062,2,0,L|151:61,1,75,2|0,1:3|0:0,0:0:0:0:
97,14,47397,5,2,3:2:0:0:
27,54,47564,1,0,3:2:0:0:
42,132,47731,2,0,L|22:209,1,75,6|2,1:2|0:2,0:0:0:0:
66,269,48065,5,2,3:2:0:0:
141,239,48232,1,0,3:2:0:0:
195,297,48399,1,6,1:2:0:0:
265,260,48567,1,2,0:2:0:0:
286,265,48650,1,0,0:0:0:0:
308,268,48734,6,0,L|394:281,1,75,6|0,1:2|3:2,0:0:0:0:
452,246,49068,2,0,P|471:202|457:174,1,75,2|2,1:3|3:2,0:0:0:0:
503,113,49402,1,2,1:3:0:0:
445,59,49569,1,4,1:2:0:0:
422,62,49653,1,0,1:3:0:0:
399,65,49736,2,0,L|354:72,3,37.5,10|8|4|4,0:3|0:3|0:3|0:3,0:0:0:0:
324,107,50071,6,0,P|274:64|190:81,1,150,6|0,3:2|1:2,0:0:0:0:
138,133,50572,1,2,0:2:0:0:
176,203,50739,2,0,L|157:284,1,75,2|0,3:2|3:2,0:0:0:0:
101,328,51073,2,0,P|57:323|35:293,1,75,2|0,1:2|3:2,0:0:0:0:
1,235,51408,6,0,B|14:175|14:175|5:156|5:156|19:87,1,150,2|0,0:2|1:2,0:0:0:0:
66,26,51909,1,2,0:2:0:0:
136,64,52076,2,0,P|179:40|217:43,1,75,2|0,3:2|3:2,0:0:0:0:
270,2,52411,2,0,P|305:23|345:19,1,75,2|0,1:2|0:0,0:0:0:0:
414,43,52745,6,0,B|453:66|453:66|420:174,1,150,2|0,3:2|1:2,0:0:0:0:
458,236,53246,1,2,0:2:0:0:
426,308,53413,2,0,L|350:321,1,75,2|0,3:2|3:2,0:0:0:0:
298,377,53748,2,0,L|219:358,1,75,2|0,1:2|3:2,0:0:0:0:
163,309,54082,6,0,P|164:268|199:246,1,75,6|0,1:2|3:2,0:0:0:0:
251,199,54416,2,0,P|270:161|261:124,1,75,0|2,1:2|3:2,0:0:0:0:
207,80,54750,1,4,0:3:0:0:
148,134,54917,1,0,1:2:0:0:
125,132,55001,1,0,1:2:0:0:
102,130,55085,2,0,L|51:126,3,37.5,0|0|0|0,1:2|1:2|1:2|1:2,0:0:0:0:
21,140,55419,6,0,B|8:208|8:208|13:218|13:218|0:292,1,150,6|0,3:2|1:2,0:0:0:0:
48,346,55920,2,0,P|88:361|122:348,1,75,6|0,3:2|0:0,0:0:0:0:
177,302,56255,1,0,1:2:0:0:
239,351,56422,2,0,P|290:369|359:309,1,150,6|0,3:2|1:2,0:0:0:0:
431,280,56923,2,0,L|417:195,1,75,6|0,3:2|0:0,0:0:0:0:
359,155,57257,1,0,1:2:0:0:
406,89,57424,6,0,L|458:75,2,50,2|0|8,3:2|1:2|0:3,0:0:0:0:
355,24,57759,2,0,L|415:6,2,50,6|8|8,3:3|0:3|0:3,0:0:0:0:
279,1,58093,6,0,L|232:11,3,37.5,6|0|0|0,3:2|1:2|1:2|1:2,0:0:0:0:
215,15,58427,1,0,3:2:0:0:
172,80,58594,1,6,1:2:0:0:
179,101,58678,1,0,1:2:0:0:
185,122,58761,1,0,1:2:0:0:
239,177,58929,1,0,3:2:0:0:
208,249,59096,2,0,P|167:269|132:253,1,75,6|8,1:2|0:3,0:0:0:0:
84,207,59430,5,4,0:3:0:0:
16,251,59597,1,2,1:3:0:0:
82,365,59931,1,2,1:3:0:0:
213,342,60266,1,2,1:3:0:0:
339,375,60600,6,0,B|372:356|372:356|353:240,1,150,6|0,3:2|3:2,0:0:0:0:
385,173,61101,2,0,P|431:143|510:193,2,150,0|0|0,1:2|3:2|1:2,0:0:0:0:
319,130,61937,2,0,P|278:113|265:71,1,75,2|0,3:2|0:0,0:0:0:0:
221,22,62271,5,0,3:2:0:0:
156,65,62438,2,0,L|78:55,1,75,0|2,1:2|3:2,0:0:0:0:
13,94,62773,1,0,3:2:0:0:
57,159,62940,1,2,1:2:0:0:
64,180,63023,1,0,1:2:0:0:
71,200,63107,2,0,L|87:240,3,37.5,8|8|4|4,0:3|0:3|0:3|0:3,0:0:0:0:
83,283,63441,5,6,3:2:0:0:
225,360,63943,1,6,3:2:0:0:
362,276,64444,1,0,1:2:0:0:
437,265,64611,2,0,P|464:238|463:196,1,75,6|0,3:2|0:0,0:0:0:0:
410,148,64945,5,0,1:2:0:0:
412,125,65029,1,0,1:2:0:0:
416,102,65112,2,0,L|422:47,2,37.5,0|8|4,1:2|0:3|0:3,0:0:0:0:
330,120,65447,2,0,L|337:65,2,37.5,2|0|0,1:3|1:2|3:2,0:0:0:0:
273,170,65781,2,0,P|226:166|215:138,1,75,2|2,1:3|0:2,0:0:0:0:
164,66,66115,6,0,P|112:53|79:78,1,82.5000025177003,6|0,3:2|3:2,0:0:0:0:
17,135,66450,2,0,L|34:227,1,82.5000025177003,2|0,1:2|0:0,0:0:0:0:
3,310,66784,1,2,3:2:0:0:
82,367,66951,1,0,3:2:0:0:
146,296,67118,2,0,L|246:289,1,82.5000025177003,2|2,1:2|0:2,0:0:0:0:
306,346,67452,6,0,L|398:364,1,82.5000025177003,2|0,3:2|3:2,0:0:0:0:
468,304,67787,2,0,P|478:253|435:208,1,82.5000025177003,2|0,1:2|0:0,0:0:0:0:
401,159,68121,1,2,3:2:0:0:
452,78,68288,1,0,3:2:0:0:
388,13,68455,2,0,L|298:25,1,82.5000025177003,2|0,1:2|0:0,0:0:0:0:
256,102,68789,6,0,B|186:90|186:90|176:75|176:75|87:60,1,165.000005035401,2|2,3:2|1:2,0:0:0:0:
15,112,69291,1,0,0:0:0:0:
74,191,69458,2,0,L|59:273,1,82.5000025177003,2|0,3:2|3:2,0:0:0:0:
124,355,69792,2,0,P|163:371|199:352,1,82.5000025177003,2|0,1:2|0:0,0:0:0:0:
266,286,70126,6,0,B|290:251|290:211|279:209|268:206|260:166|294:114,1,165.000005035401,2|2,3:2|1:3,0:0:0:0:
357,62,70628,1,2,3:2:0:0:
432,122,70795,2,0,L|480:111,2,41.2500012588501,2|0|0,3:2|1:2|3:2,0:0:0:0:
388,207,71129,2,0,L|399:300,1,82.5000025177003,2|0,1:3|1:2,0:0:0:0:
336,367,71463,6,0,B|265:354|265:354|254:343|254:343|170:329,1,165.000005035401,2|0,3:3|1:2,0:0:0:0:
110,260,71965,1,0,0:0:0:0:
181,193,72132,2,0,P|201:146|179:110,1,82.5000025177003,0|0,3:2|3:2,0:0:0:0:
124,48,72466,2,0,L|32:66,1,82.5000025177003,0|0,1:2|0:0,0:0:0:0:
4,154,72800,6,0,B|-15:195|-15:195|21:313,1,165.000005035401,2|0,3:2|1:2,0:0:0:0:
102,366,73302,2,0,P|150:360|173:316,1,82.5000025177003,2|0,3:2|0:0,0:0:0:0:
232,260,73636,1,0,3:2:0:0:
306,201,73803,2,0,P|361:222|375:273,1,82.5000025177003,2|0,1:2|0:0,0:0:0:0:
457,291,74138,5,2,3:3:0:0:
505,209,74305,1,0,3:2:0:0:
434,147,74472,2,0,L|451:62,1,82.5000025177003,2|0,1:3|3:2,0:0:0:0:
379,3,74806,2,0,P|320:0|296:44,1,82.5000025177003,2|0,1:3|3:2,0:0:0:0:
245,87,75140,2,0,L|253:140,3,41.2500012588501,2|0|0|0,1:3|0:0|0:0|1:2,0:0:0:0:
281,160,75475,5,0,1:2:0:0:
232,242,75642,2,0,P|192:275|140:256,1,82.5000025177003,2|0,3:3|1:2,0:0:0:0:
88,337,75976,2,0,P|52:317|36:270,1,82.5000025177003,2|0,3:3|0:0,0:0:0:0:
1,193,76310,1,2,3:3:0:0:
67,126,76477,2,0,L|71:82,3,41.2500012588501,0|0|0|0,1:2|1:0|1:2|1:2,0:0:0:0:
101,46,76812,6,0,B|177:31|177:31|192:40|192:40|279:23,1,179.999994506836,6|6,3:2|3:2,0:0:0:0:
357,77,77313,1,0,1:0:0:0:
288,142,77480,2,0,L|305:234,1,89.9999972534181,6|0,3:2|1:0,0:0:0:0:
370,301,77814,2,0,P|417:298|446:259,1,89.9999972534181,6|0,3:2|1:0,0:0:0:0:
495,189,78149,6,0,B|476:120|476:120|492:97|492:97|463:12,1,179.999994506836,6|6,3:2|3:2,0:0:0:0:
370,8,78650,1,0,1:0:0:0:
302,76,78817,2,0,P|247:71|232:37,1,89.9999972534181,6|0,3:2|1:0,0:0:0:0:
143,10,79151,2,0,P|82:13|61:48,1,89.9999972534181,6|0,3:2|1:0,0:0:0:0:
9,113,79486,6,0,B|46:155|39:199|30:202|19:207|2:251|50:295,1,179.999994506836,6|6,3:2|3:2,0:0:0:0:
106,349,79987,1,0,1:0:0:0:
190,303,80154,2,0,P|217:255|200:215,1,89.9999972534181,6|0,3:2|1:0,0:0:0:0:
243,133,80489,2,0,P|279:115|328:137,1,89.9999972534181,6|0,3:2|1:0,0:0:0:0:
357,221,80823,6,0,P|327:277|414:341,1,179.999994506836,2|2,3:3|1:3,0:0:0:0:
485,286,81324,1,2,1:3:0:0:
448,200,81491,2,0,L|455:151,3,44.999998626709,6|0|8|8,3:2|0:0|0:3|0:3,0:0:0:0:
470,132,81826,2,0,L|463:83,3,44.999998626709,8|8|4|4,0:3|0:3|0:3|0:3,0:0:0:0:
441,51,82160,6,0,P|383:30|322:90,1,150,6|0,3:2|1:0,0:0:0:0:
281,151,82661,2,0,P|251:172|159:120,1,150,6|4,3:2|0:3,0:0:0:0:
87,106,83163,2,0,P|49:129|43:162,1,75,6|0,3:2|0:0,0:0:0:0:
1,226,83497,5,0,1:0:0:0:
44,293,83664,2,0,L|24:385,2,75,6|8|4,3:2|0:3|0:3,0:0:0:0:
115,253,84165,1,2,1:3:0:0:
205,350,84500,1,2,1:3:0:0:
310,273,84834,6,0,L|399:289,2,75,6|0|0,3:2|3:0|3:0,0:0:0:0:
264,211,85335,2,0,L|190:224,2,75,6|8|4,3:2|0:3|0:3,0:0:0:0:
321,158,85837,2,0,L|330:120,3,37.5,6|0|0|0,3:2|3:0|3:0|3:0,0:0:0:0:
337,92,86171,5,0,1:0:0:0:
405,50,86338,1,2,3:2:0:0:
474,87,86505,2,0,P|504:136|452:205,1,150,6|0,3:2|3:0,0:0:0:0:
397,253,87007,1,8,3:3:0:0:
401,275,87090,1,4,0:3:0:0:
404,297,87174,2,0,B|388:334|388:334|343:336,1,75,2|2,0:2|0:2,0:0:0:0:
286,375,87508,6,0,L|246:364,3,37.5,6|0|0|0,3:2|0:0|0:0|0:0,0:0:0:0:
217,342,87842,2,0,L|177:353,3,37.5,0|0|0|0,3:0|0:0|0:0|0:0,0:0:0:0:
137,378,88177,1,0,3:0:0:0:
70,332,88344,1,8,3:3:0:0:
67,309,88427,1,4,0:3:0:0:
63,287,88511,1,2,1:3:0:0:
100,220,88678,1,6,0:2:0:0:
