osu file format v14

[General]
AudioFilename: paraoka - summerghost.mp3
AudioLeadIn: 0
PreviewTime: 1177
Countdown: 0
SampleSet: Soft
StackLeniency: 0.3
Mode: 0
LetterboxInBreaks: 1
WidescreenStoryboard: 1

[Editor]
Bookmarks: 1166,7974,14783,28400,42017,55634,69251,76059,82868,93080,98187,104144
DistanceSpacing: 1.8
BeatDivisor: 4
GridSize: 8
TimelineZoom: 1

[Metadata]
Title:Summer Ghost
TitleUnicode:Summer Ghost
Artist:paraoka
ArtistUnicode:paraoka
Creator:Naitoshi
Version:Damnae
Source:
Tags:
BeatmapID:1305098
BeatmapSetID:619169

[Difficulty]
HPDrainRate:7
CircleSize:4
OverallDifficulty:7
ApproachRate:9
SliderMultiplier:1.4
SliderTickRate:1

[Events]
//Background and Video events
0,0,"1920x1080_precious_night-1229788.jpg",0,0
//Break Periods
//Storyboard Layer 0 (Background)
//Storyboard Layer 1 (Fail)
//Storyboard Layer 2 (Pass)
//Storyboard Layer 3 (Foreground)
//Storyboard Sound Samples

[TimingPoints]
1166,425.531914893617,4,2,2,45,1,0
19889,-66.6666666666667,4,1,2,45,0,0
21591,-100,4,2,2,45,0,0
26697,-66.6666666666667,4,1,2,45,0,0
28400,-100,4,2,2,45,0,0
33506,-66.6666666666667,4,2,2,45,0,0
35208,-100,4,2,2,45,0,0
40314,-66.6666666666667,4,2,2,45,0,0
42017,-100,4,2,2,45,0,0
55634,-100,4,2,2,45,0,1
69251,-100,4,2,2,45,0,0
82868,-100,4,2,2,45,0,1
93080,-100,4,2,2,45,0,0

[Colours]
Combo1 : 254,197,197
Combo2 : 128,255,255
Combo3 : 117,109,252
Combo4 : 170,244,172

[HitObjects]
73,220,14783,6,0,L|81:148,1,70,4|0,1:2|0:0,0:0:0:0:
156,31,15102,2,0,L|149:101,1,70,0|0,1:0|0:0,0:0:0:0:
203,195,15421,2,0,L|207:161,1,35,8|0,0:0|1:0,0:0:0:0:
293,99,15634,2,0,L|365:91,2,70,0|0|8,1:0|1:0|0:0,0:0:0:0:
286,181,16165,2,0,L|358:173,1,70,0|0,1:0|0:0,0:0:0:0:
437,128,16485,6,0,L|429:200,1,70,0|0,1:0|0:0,0:0:0:0:
354,317,16804,2,0,L|361:247,1,70,0|0,1:0|0:0,0:0:0:0:
307,153,17123,2,0,L|303:187,1,35,8|0,2:0|1:0,0:0:0:0:
242,246,17336,1,8,0:0:0:0:
242,246,17442,2,0,L|170:254,1,70,0|0,1:0|1:0,0:0:0:0:
437,128,17868,1,0,1:0:0:0:
437,128,17974,2,0,L|509:120,1,70,8|0,0:0|1:0,0:0:0:0:
238,145,18400,5,0,0:0:0:0:
238,145,18506,2,0,L|307:152,1,70,0|0,1:0|1:0,0:0:0:0:
374,204,18825,2,0,L|378:238,1,35,8|0,0:0|1:0,0:0:0:0:
327,305,19038,1,0,1:0:0:0:
202,284,19251,1,0,1:0:0:0:
77,263,19464,1,8,0:0:0:0:
77,263,19570,2,0,L|7:270,1,70,0|0,1:0|0:0,0:0:0:0:
187,147,19889,6,0,L|83:159,1,105.000004005432,2|0,1:0|2:0,0:0:0:0:
187,147,20208,2,2,L|330:131,1,105.000004005432,2|8,1:0|2:0,0:0:0:0:
344,169,20527,5,0,1:0:0:0:
344,169,20634,1,0,1:0:0:0:
344,169,20740,2,0,L|239:180,1,105.000004005432,2|0,1:0|2:0,0:0:0:0:
343,168,21059,2,2,L|486:152,1,105.000004005432,2|0,1:0|1:0,0:0:0:0:
500,190,21378,1,4,2:0:0:0:
500,190,21591,6,0,L|430:182,1,70,4|0,1:2|0:0,0:0:0:0:
315,246,21910,2,0,L|385:253,1,70,0|0,1:0|0:0,0:0:0:0:
258,183,22229,2,0,L|224:179,1,35,8|0,0:0|1:0,0:0:0:0:
153,225,22442,2,0,L|145:294,2,70,0|0|8,1:0|1:0|0:0,0:0:0:0:
97,161,22974,2,0,L|89:91,1,70,0|0,1:0|0:0,0:0:0:0:
236,37,23293,6,0,L|228:109,1,70,0|0,1:0|0:0,0:0:0:0:
153,226,23612,2,0,L|160:156,1,70,0|0,1:0|0:0,0:0:0:0:
258,183,23931,2,0,L|262:217,1,35,8|0,2:0|1:0,0:0:0:0:
323,276,24144,1,8,0:0:0:0:
323,276,24250,2,0,L|395:284,1,70,0|0,1:0|1:0,0:0:0:0:
401,107,24676,1,0,1:0:0:0:
401,107,24782,2,0,L|473:99,1,70,8|0,0:0|1:0,0:0:0:0:
258,183,25208,5,0,0:0:0:0:
258,183,25314,2,0,L|189:190,1,70,0|0,1:0|1:0,0:0:0:0:
308,114,25633,2,0,L|312:80,1,35,8|0,0:0|1:0,0:0:0:0:
443,220,25846,1,0,1:0:0:0:
318,241,26059,1,0,1:0:0:0:
193,262,26272,1,8,0:0:0:0:
193,262,26378,2,0,L|123:255,1,70,0|0,1:0|0:0,0:0:0:0:
41,158,26697,6,0,L|53:262,1,105.000004005432,2|0,1:0|2:0,0:0:0:0:
41,158,27016,2,2,L|25:15,1,105.000004005432,2|8,1:0|2:0,0:0:0:0:
135,159,27335,5,0,1:0:0:0:
155,179,27442,1,0,1:0:0:0:
175,199,27548,2,0,L|186:304,1,105.000004005432,2|0,1:0|2:0,0:0:0:0:
174,200,27867,2,2,L|158:57,1,105.000004005432,2|0,1:0|1:0,0:0:0:0:
188,28,28186,1,4,2:0:0:0:
439,164,28400,6,0,L|431:236,1,70,4|2,1:2|1:0,0:0:0:0:
361,319,28719,1,0,1:0:0:0:
361,319,28825,2,0,L|365:285,1,35,2|0,1:0|2:0,2:0:0:0:
309,189,29038,2,0,L|305:223,1,35,10|0,1:0|1:0,0:0:0:0:
219,285,29251,2,0,L|147:293,2,70,2|0|8,1:0|1:0|0:0,0:0:0:0:
226,203,29782,2,0,L|154:211,1,70,0|0,1:0|0:0,0:0:0:0:
75,256,30102,6,0,L|83:184,1,70,0|2,1:0|1:0,0:0:0:0:
158,67,30421,2,0,L|151:137,1,70,0|0,1:0|0:0,0:0:0:0:
205,231,30740,2,0,L|209:197,1,35,10|0,1:0|1:0,0:0:0:0:
270,138,30953,1,8,0:0:0:0:
270,138,31059,2,0,L|342:130,1,70,2|0,1:0|1:0,0:0:0:0:
75,256,31378,1,2,1:0:0:0:
75,256,31485,1,0,1:0:0:0:
75,256,31591,2,0,L|3:264,1,70,8|0,0:0|1:0,0:0:0:0:
274,239,32017,5,2,1:0:0:0:
274,239,32123,2,0,L|205:232,1,70,0|0,1:0|1:0,0:0:0:0:
138,180,32442,2,0,L|134:146,1,35,10|0,1:0|1:0,0:0:0:0:
185,79,32655,1,2,1:0:0:0:
246,89,32761,1,2,1:0:0:0:
310,100,32868,1,0,1:0:0:0:
435,121,33081,1,8,0:0:0:0:
435,121,33187,2,0,L|505:114,1,70,0|0,1:0|0:0,0:0:0:0:
325,237,33506,6,0,L|429:225,1,105.000004005432,2|2,1:0|1:0,0:0:0:0:
325,237,33825,2,2,L|182:253,1,105.000004005432,2|8,1:0|2:0,0:0:0:0:
168,215,34144,5,2,1:0:0:0:
168,215,34251,1,0,1:0:0:0:
168,215,34357,2,0,L|273:204,1,105.000004005432,2|2,1:0|1:0,0:0:0:0:
169,216,34676,2,2,L|26:232,1,105.000004005432,0|0,1:0|1:0,0:0:0:0:
12,194,34995,1,4,2:0:0:0:
12,194,35208,6,0,L|82:202,1,70,4|2,1:2|1:0,0:0:0:0:
197,138,35527,2,0,L|127:131,1,70,0|0,1:0|0:0,0:0:0:0:
254,201,35846,2,0,L|288:205,1,35,8|0,0:0|1:0,0:0:0:0:
359,159,36059,2,0,L|367:90,2,70,0|0|8,1:0|1:0|0:0,0:0:0:0:
415,223,36591,2,0,L|423:293,1,70,0|0,1:0|0:0,0:0:0:0:
276,347,36910,6,0,L|284:275,1,70,0|2,1:0|1:0,0:0:0:0:
359,158,37229,2,0,L|352:228,1,70,0|0,1:0|0:0,0:0:0:0:
254,201,37548,2,0,L|250:167,1,35,10|0,1:0|1:0,0:0:0:0:
189,108,37761,1,8,0:0:0:0:
189,108,37867,2,0,L|117:100,1,70,0|0,1:0|1:0,0:0:0:0:
111,277,38187,1,2,1:0:0:0:
111,277,38293,1,0,1:0:0:0:
111,277,38399,2,0,L|39:285,1,70,8|0,0:0|1:0,0:0:0:0:
254,201,38825,5,2,1:0:0:0:
254,201,38931,2,0,L|323:194,1,70,0|0,1:0|1:0,0:0:0:0:
204,270,39250,2,0,L|200:304,1,35,10|0,1:0|1:0,0:0:0:0:
69,164,39463,1,2,1:0:0:0:
194,143,39676,1,0,1:0:0:0:
256,132,39783,1,2,1:0:0:0:
319,122,39889,1,8,0:0:0:0:
319,122,39995,2,0,L|389:129,1,70,0|0,1:0|0:0,0:0:0:0:
471,226,40314,6,0,L|459:122,1,105.000004005432,2|2,1:0|1:0,0:0:0:0:
471,226,40633,2,2,L|487:369,1,105.000004005432,2|8,1:0|2:0,0:0:0:0:
377,225,40952,5,2,1:0:0:0:
357,205,41059,1,0,1:0:0:0:
337,185,41165,2,0,L|326:80,1,105.000004005432,2|2,1:0|1:0,0:0:0:0:
338,184,41484,2,2,L|354:327,1,105.000004005432,2|0,1:0|1:0,0:0:0:0:
324,356,41803,1,2,1:0:0:0:
324,356,41910,1,0,1:0:0:0:
324,356,42017,5,4,1:0:0:0:
