osu file format v14

[General]
AudioFilename: L9.ogg
AudioLeadIn: 0
PreviewTime: 53367
Countdown: 0
SampleSet: Soft
StackLeniency: 0.7
Mode: 3
LetterboxInBreaks: 0
SpecialStyle: 0
WidescreenStoryboard: 0

[Editor]
DistanceSpacing: 1
BeatDivisor: 4
GridSize: 8
TimelineZoom: 1.6

[Metadata]
Title:L9
TitleUnicode:L9
Artist:paraoka
ArtistUnicode:paraoka
Creator:Jesuren
Version:7K Normal
Source:B-1 ClimaX System-C
Tags:ぱらおか パラノイド正岡 Paranoid Masaoka BMS Club Stubborn Side-c. Diverse System DVSP-0007 C60 psycho-function =original_soundtrack= Silly Walker 麹町音源 Koujimachi Ongen KOCD-0001 C66 Comiket CHUNITHM VARIETY maimai ORANGE PLUS SOUND VOLTEX VIVID WAVE SDVX Progressive Electronic Instrumental Video Game JesusMD24
BeatmapID:3246076
BeatmapSetID:1565681

[Difficulty]
HPDrainRate:6.5
CircleSize:7
OverallDifficulty:6.5
ApproachRate:5
SliderMultiplier:1.4
SliderTickRate:1

[Events]
//Background and Video events
0,0,"L9 - Background.jpg",0,0
//Break Periods
//Storyboard Layer 0 (Background)
//Storyboard Layer 1 (Fail)
//Storyboard Layer 2 (Pass)
//Storyboard Layer 3 (Foreground)
//Storyboard Sound Samples

[TimingPoints]
990,476.190476190476,3,2,9,50,1,0
6704,476.190476190476,4,2,9,50,1,0
31227,476.190476190476,4,2,9,50,1,0
32893,476.190476190476,3,2,9,50,1,0
35750,476.190476190476,4,2,9,50,1,0
45035,476.190476190476,4,2,9,50,1,0
46701,476.190476190476,3,2,9,50,1,0
49558,476.190476190476,4,2,9,50,1,0
53367,-100,4,2,9,50,0,1
68605,-100,4,2,9,50,0,0
72415,476.190476190476,3,2,9,50,1,0
80986,476.190476190476,4,2,9,50,1,0

[HitObjects]
36,192,990,5,0,0:0:0:0:
475,192,990,1,0,0:0:0:0:
256,192,1228,1,0,0:0:0:0:
109,192,1347,1,0,0:0:0:0:
256,192,1704,1,0,0:0:0:0:
475,192,1704,1,0,0:0:0:0:
109,192,1942,1,0,0:0:0:0:
256,192,2061,1,0,0:0:0:0:
36,192,2418,1,0,0:0:0:0:
329,192,2418,1,0,0:0:0:0:
182,192,2656,1,0,0:0:0:0:
402,192,2775,1,0,0:0:0:0:
256,192,2894,1,0,0:0:0:0:
329,192,3132,1,0,0:0:0:0:
109,192,3251,1,0,0:0:0:0:
256,192,3370,1,0,0:0:0:0:
475,192,3370,1,0,0:0:0:0:
182,192,3609,1,0,0:0:0:0:
109,192,3847,1,0,0:0:0:0:
329,192,4085,1,0,0:0:0:0:
475,192,4085,1,0,0:0:0:0:
36,192,4323,1,0,0:0:0:0:
182,192,4323,1,0,0:0:0:0:
402,192,4561,1,0,0:0:0:0:
36,192,4799,1,0,0:0:0:0:
182,192,4799,1,0,0:0:0:0:
329,192,5037,1,0,0:0:0:0:
475,192,5037,1,0,0:0:0:0:
109,192,5275,1,0,0:0:0:0:
402,192,5275,1,0,0:0:0:0:
36,192,5989,1,0,0:0:0:0:
475,192,5989,1,0,0:0:0:0:
182,192,6109,1,0,0:0:0:0:
402,192,6347,1,0,0:0:0:0:
109,192,6466,1,0,0:0:0:0:
36,192,6704,1,0,0:0:0:0:
256,192,6704,1,0,0:0:0:0:
475,192,6942,1,0,0:0:0:0:
329,192,6942,1,0,0:0:0:0:
475,192,7180,1,0,0:0:0:0:
329,192,7180,1,0,0:0:0:0:
36,192,7537,1,0,0:0:0:0:
182,192,7537,1,0,0:0:0:0:
475,192,7656,1,0,0:0:0:0:
182,192,7775,1,0,0:0:0:0:
36,192,7775,1,0,0:0:0:0:
402,192,8132,1,0,0:0:0:0:
109,192,8251,1,0,0:0:0:0:
329,192,8370,1,0,0:0:0:0:
182,192,8489,1,0,0:0:0:0:
256,192,8608,1,0,0:0:0:0:
475,192,8846,1,0,0:0:0:0:
402,192,8846,1,0,0:0:0:0:
475,192,9084,1,0,0:0:0:0:
402,192,9084,1,0,0:0:0:0:
109,192,9442,1,0,0:0:0:0:
36,192,9442,1,0,0:0:0:0:
402,192,9561,1,0,0:0:0:0:
109,192,9680,1,0,0:0:0:0:
36,192,9680,1,0,0:0:0:0:
182,192,10037,1,0,0:0:0:0:
329,192,10156,1,0,0:0:0:0:
109,192,10275,1,0,0:0:0:0:
402,192,10394,1,0,0:0:0:0:
36,192,10513,1,0,0:0:0:0:
329,192,10751,1,0,0:0:0:0:
475,192,10751,1,0,0:0:0:0:
329,192,10989,1,0,0:0:0:0:
475,192,10989,1,0,0:0:0:0:
36,192,11346,1,0,0:0:0:0:
182,192,11346,1,0,0:0:0:0:
475,192,11465,1,0,0:0:0:0:
182,192,11584,1,0,0:0:0:0:
36,192,11584,1,0,0:0:0:0:
402,192,11942,1,0,0:0:0:0:
109,192,12061,1,0,0:0:0:0:
329,192,12180,1,0,0:0:0:0:
182,192,12299,1,0,0:0:0:0:
256,192,12418,1,0,0:0:0:0:
475,192,12656,1,0,0:0:0:0:
402,192,12656,1,0,0:0:0:0:
402,192,12894,1,0,0:0:0:0:
475,192,12894,1,0,0:0:0:0:
256,192,13132,1,0,0:0:0:0:
36,192,13370,1,0,0:0:0:0:
475,192,13370,1,0,0:0:0:0:
329,192,13489,1,0,0:0:0:0:
182,192,13608,1,0,0:0:0:0:
402,192,13846,1,0,0:0:0:0:
475,192,13846,1,0,0:0:0:0:
256,192,13965,1,0,0:0:0:0:
109,192,14084,1,0,0:0:0:0:
36,192,14323,1,0,0:0:0:0:
256,192,14323,1,0,0:0:0:0:
475,192,14561,1,0,0:0:0:0:
329,192,14561,1,0,0:0:0:0:
329,192,14799,1,0,0:0:0:0:
475,192,14799,1,0,0:0:0:0:
36,192,15156,1,0,0:0:0:0:
182,192,15156,1,0,0:0:0:0:
475,192,15275,1,0,0:0:0:0:
182,192,15394,1,0,0:0:0:0:
36,192,15394,1,0,0:0:0:0:
402,192,15751,1,0,0:0:0:0:
109,192,15870,1,0,0:0:0:0:
329,192,15989,1,0,0:0:0:0:
182,192,16108,1,0,0:0:0:0:
256,192,16227,1,0,0:0:0:0:
475,192,16465,1,0,0:0:0:0:
402,192,16465,1,0,0:0:0:0:
402,192,16703,1,0,0:0:0:0:
475,192,16703,1,0,0:0:0:0:
36,192,17061,1,0,0:0:0:0:
109,192,17061,1,0,0:0:0:0:
402,192,17180,1,0,0:0:0:0:
109,192,17299,1,0,0:0:0:0:
36,192,17299,1,0,0:0:0:0:
182,192,17656,1,0,0:0:0:0:
329,192,17775,1,0,0:0:0:0:
109,192,17894,1,0,0:0:0:0:
402,192,18013,1,0,0:0:0:0:
36,192,18132,1,0,0:0:0:0:
475,192,18370,1,0,0:0:0:0:
329,192,18370,1,0,0:0:0:0:
329,192,18608,1,0,0:0:0:0:
475,192,18608,1,0,0:0:0:0:
36,192,18965,1,0,0:0:0:0:
182,192,18965,1,0,0:0:0:0:
475,192,19084,1,0,0:0:0:0:
182,192,19203,1,0,0:0:0:0:
36,192,19203,1,0,0:0:0:0:
402,192,19561,1,0,0:0:0:0:
109,192,19680,1,0,0:0:0:0:
329,192,19799,1,0,0:0:0:0:
182,192,19918,1,0,0:0:0:0:
256,192,20037,1,0,0:0:0:0:
475,192,20275,1,0,0:0:0:0:
402,192,20275,1,0,0:0:0:0:
402,192,20513,1,0,0:0:0:0:
475,192,20513,1,0,0:0:0:0:
182,192,20751,1,0,0:0:0:0:
109,192,20989,1,0,0:0:0:0:
475,192,20989,1,0,0:0:0:0:
256,192,21108,1,0,0:0:0:0:
402,192,21227,1,0,0:0:0:0:
36,192,21465,1,0,0:0:0:0:
182,192,21465,1,0,0:0:0:0:
329,192,21584,1,0,0:0:0:0:
475,192,21703,1,0,0:0:0:0:
256,192,21823,1,0,0:0:0:0:
109,192,21942,1,0,0:0:0:0:
36,192,21942,1,0,0:0:0:0:
475,192,22180,1,0,0:0:0:0:
329,192,22299,1,0,0:0:0:0:
182,192,22418,1,0,0:0:0:0:
182,192,22656,1,0,0:0:0:0:
36,192,22894,1,0,0:0:0:0:
402,192,22894,1,0,0:0:0:0:
256,192,23013,1,0,0:0:0:0:
109,192,23132,1,0,0:0:0:0:
109,192,23370,1,0,0:0:0:0:
475,192,23608,1,0,0:0:0:0:
329,192,23727,1,0,0:0:0:0:
36,192,23846,1,0,0:0:0:0:
256,192,23846,1,0,0:0:0:0:
109,192,24084,1,0,0:0:0:0:
256,192,24203,1,0,0:0:0:0:
402,192,24323,1,0,0:0:0:0:
402,192,24561,1,0,0:0:0:0:
329,192,24799,1,0,0:0:0:0:
475,192,24799,1,0,0:0:0:0:
36,192,25037,1,0,0:0:0:0:
475,192,25156,1,0,0:0:0:0:
329,192,25156,1,0,0:0:0:0:
36,192,25394,1,0,0:0:0:0:
475,192,25513,1,0,0:0:0:0:
329,192,25513,1,0,0:0:0:0:
109,192,25751,1,0,0:0:0:0:
402,192,25751,1,0,0:0:0:0:
36,192,25989,1,0,0:0:0:0:
182,192,26108,1,0,0:0:0:0:
329,192,26227,1,0,0:0:0:0:
329,192,26465,1,0,0:0:0:0:
36,192,26703,1,0,0:0:0:0:
109,192,26703,1,0,0:0:0:0:
256,192,26823,1,0,0:0:0:0:
402,192,26942,1,0,0:0:0:0:
402,192,27180,1,0,0:0:0:0:
36,192,27418,1,0,0:0:0:0:
329,192,27537,1,0,0:0:0:0:
182,192,27656,1,0,0:0:0:0:
109,192,27775,1,0,0:0:0:0:
402,192,27775,1,0,0:0:0:0:
109,192,28132,1,0,0:0:0:0:
402,192,28132,1,0,0:0:0:0:
109,192,28489,1,0,0:0:0:0:
402,192,28489,1,0,0:0:0:0:
109,192,28846,1,0,0:0:0:0:
402,192,28846,1,0,0:0:0:0:
109,192,29203,1,0,0:0:0:0:
402,192,29442,1,0,0:0:0:0:
36,192,29561,1,0,0:0:0:0:
182,192,29561,1,0,0:0:0:0:
475,192,29799,1,0,0:0:0:0:
329,192,29918,1,0,0:0:0:0:
182,192,30037,1,0,0:0:0:0:
182,192,30275,1,0,0:0:0:0:
36,192,30513,1,0,0:0:0:0:
402,192,30513,1,0,0:0:0:0:
256,192,30632,1,0,0:0:0:0:
109,192,30751,1,0,0:0:0:0:
109,192,30989,1,0,0:0:0:0:
329,192,31227,1,0,0:0:0:0:
475,192,31227,1,0,0:0:0:0:
36,192,31465,1,0,0:0:0:0:
182,192,31584,1,0,0:0:0:0:
329,192,31703,1,0,0:0:0:0:
329,192,31941,1,0,0:0:0:0:
36,192,32179,1,0,0:0:0:0:
109,192,32179,1,0,0:0:0:0:
256,192,32298,1,0,0:0:0:0:
402,192,32417,1,0,0:0:0:0:
402,192,32655,1,0,0:0:0:0:
109,192,32893,1,0,0:0:0:0:
182,192,33131,1,0,0:0:0:0:
36,192,33250,1,0,0:0:0:0:
475,192,33250,1,0,0:0:0:0:
109,192,33488,1,0,0:0:0:0:
402,192,33607,1,0,0:0:0:0:
329,192,33845,1,0,0:0:0:0:
36,192,33964,1,0,0:0:0:0:
475,192,33964,1,0,0:0:0:0:
402,192,34202,1,0,0:0:0:0:
109,192,34321,1,0,0:0:0:0:
256,192,34440,1,0,0:0:0:0:
475,192,34559,1,0,0:0:0:0:
256,192,34678,1,0,0:0:0:0:
36,192,34797,1,0,0:0:0:0:
475,192,35035,1,0,0:0:0:0:
182,192,35154,1,0,0:0:0:0:
329,192,35273,1,0,0:0:0:0:
36,192,35393,1,0,0:0:0:0:
329,192,35512,1,0,0:0:0:0:
182,192,35631,1,0,0:0:0:0:
109,192,35750,1,0,0:0:0:0:
36,192,35750,1,0,0:0:0:0:
475,192,35988,1,0,0:0:0:0:
329,192,36107,1,0,0:0:0:0:
182,192,36226,1,0,0:0:0:0:
182,192,36464,1,0,0:0:0:0:
36,192,36702,1,0,0:0:0:0:
402,192,36702,1,0,0:0:0:0:
256,192,36821,1,0,0:0:0:0:
109,192,36940,1,0,0:0:0:0:
109,192,37178,1,0,0:0:0:0:
475,192,37416,1,0,0:0:0:0:
329,192,37535,1,0,0:0:0:0:
36,192,37654,1,0,0:0:0:0:
256,192,37654,1,0,0:0:0:0:
109,192,37892,1,0,0:0:0:0:
256,192,38011,1,0,0:0:0:0:
402,192,38130,1,0,0:0:0:0:
402,192,38369,1,0,0:0:0:0:
329,192,38607,1,0,0:0:0:0:
475,192,38607,1,0,0:0:0:0:
36,192,38845,1,0,0:0:0:0:
475,192,38964,1,0,0:0:0:0:
329,192,38964,1,0,0:0:0:0:
36,192,39202,1,0,0:0:0:0:
475,192,39321,1,0,0:0:0:0:
329,192,39321,1,0,0:0:0:0:
109,192,39559,1,0,0:0:0:0:
402,192,39559,1,0,0:0:0:0:
36,192,39797,1,0,0:0:0:0:
182,192,39916,1,0,0:0:0:0:
329,192,40035,1,0,0:0:0:0:
329,192,40273,1,0,0:0:0:0:
36,192,40511,1,0,0:0:0:0:
109,192,40511,1,0,0:0:0:0:
256,192,40630,1,0,0:0:0:0:
402,192,40750,1,0,0:0:0:0:
402,192,40988,1,0,0:0:0:0:
36,192,41226,1,0,0:0:0:0:
329,192,41345,1,0,0:0:0:0:
182,192,41464,1,0,0:0:0:0:
109,192,41583,1,0,0:0:0:0:
402,192,41583,1,0,0:0:0:0:
109,192,41940,1,0,0:0:0:0:
402,192,41940,1,0,0:0:0:0:
109,192,42297,1,0,0:0:0:0:
402,192,42297,1,0,0:0:0:0:
109,192,42654,1,0,0:0:0:0:
402,192,42654,1,0,0:0:0:0:
109,192,43011,1,0,0:0:0:0:
402,192,43250,1,0,0:0:0:0:
36,192,43369,1,0,0:0:0:0:
182,192,43369,1,0,0:0:0:0:
402,192,44321,1,0,0:0:0:0:
475,192,44321,1,0,0:0:0:0:
36,192,44559,1,0,0:0:0:0:
109,192,44559,1,0,0:0:0:0:
329,192,44797,1,0,0:0:0:0:
402,192,44797,1,0,0:0:0:0:
109,192,45035,1,0,0:0:0:0:
182,192,45035,1,0,0:0:0:0:
329,192,46106,1,0,0:0:0:0:
402,192,46106,1,0,0:0:0:0:
109,192,46344,1,0,0:0:0:0:
182,192,46344,1,0,0:0:0:0:
475,192,46582,1,0,0:0:0:0:
402,192,46582,1,0,0:0:0:0:
36,192,46701,1,0,0:0:0:0:
109,192,46701,1,0,0:0:0:0:
329,192,46939,1,0,0:0:0:0:
182,192,47058,1,0,0:0:0:0:
475,192,47177,1,0,0:0:0:0:
402,192,47177,1,0,0:0:0:0:
109,192,47415,1,0,0:0:0:0:
329,192,47534,1,0,0:0:0:0:
36,192,47653,1,0,0:0:0:0:
182,192,47653,1,0,0:0:0:0:
256,192,47891,1,0,0:0:0:0:
109,192,48010,1,0,0:0:0:0:
329,192,48129,1,0,0:0:0:0:
475,192,48129,1,0,0:0:0:0:
182,192,48367,1,0,0:0:0:0:
329,192,48486,1,0,0:0:0:0:
109,192,48605,1,0,0:0:0:0:
36,192,48605,1,0,0:0:0:0:
256,192,48843,1,0,0:0:0:0:
182,192,48962,1,0,0:0:0:0:
109,192,49081,1,0,0:0:0:0:
475,192,49081,1,0,0:0:0:0:
256,192,49320,1,0,0:0:0:0:
329,192,49439,1,0,0:0:0:0:
36,192,49558,1,0,0:0:0:0:
402,192,49558,1,0,0:0:0:0:
36,192,49796,1,0,0:0:0:0:
475,192,49915,1,0,0:0:0:0:
329,192,50034,1,0,0:0:0:0:
329,192,50272,1,0,0:0:0:0:
36,192,50391,1,0,0:0:0:0:
182,192,50510,1,0,0:0:0:0:
475,192,50510,1,0,0:0:0:0:
182,192,50748,1,0,0:0:0:0:
402,192,50867,1,0,0:0:0:0:
36,192,50986,1,0,0:0:0:0:
36,192,51224,1,0,0:0:0:0:
329,192,51343,1,0,0:0:0:0:
109,192,51462,1,0,0:0:0:0:
475,192,51462,1,0,0:0:0:0:
475,192,51700,1,0,0:0:0:0:
36,192,51819,1,0,0:0:0:0:
182,192,51938,1,0,0:0:0:0:
182,192,52177,1,0,0:0:0:0:
329,192,52296,1,0,0:0:0:0:
36,192,52415,1,0,0:0:0:0:
475,192,52415,1,0,0:0:0:0:
402,192,52653,1,0,0:0:0:0:
109,192,52772,1,0,0:0:0:0:
402,192,52891,1,0,0:0:0:0:
36,192,53129,1,0,0:0:0:0:
182,192,53248,1,0,0:0:0:0:
329,192,53367,1,0,0:0:0:0:
475,192,53367,1,0,0:0:0:0:
329,192,53843,1,0,0:0:0:0:
475,192,53843,1,0,0:0:0:0:
36,192,54319,1,0,0:0:0:0:
329,192,54319,1,0,0:0:0:0:
36,192,54796,1,0,0:0:0:0:
329,192,54796,1,0,0:0:0:0:
109,192,55272,1,0,0:0:0:0:
402,192,55272,1,0,0:0:0:0:
182,192,55748,1,0,0:0:0:0:
329,192,55748,1,0,0:0:0:0:
36,192,55986,1,0,0:0:0:0:
256,192,56105,1,0,0:0:0:0:
402,192,56224,1,0,0:0:0:0:
475,192,56224,1,0,0:0:0:0:
182,192,56700,1,0,0:0:0:0:
256,192,56819,1,0,0:0:0:0:
329,192,56938,1,0,0:0:0:0:
402,192,57058,1,0,0:0:0:0:
36,192,57177,1,0,0:0:0:0:
475,192,57177,1,0,0:0:0:0:
109,192,57415,1,0,0:0:0:0:
402,192,57653,1,0,0:0:0:0:
109,192,57772,1,0,0:0:0:0:
402,192,57891,1,0,0:0:0:0:
109,192,58010,1,0,0:0:0:0:
329,192,58129,1,0,0:0:0:0:
182,192,58367,1,0,0:0:0:0:
329,192,58605,1,0,0:0:0:0:
182,192,58724,1,0,0:0:0:0:
329,192,58843,1,0,0:0:0:0:
182,192,58962,1,0,0:0:0:0:
256,192,59081,1,0,0:0:0:0:
109,192,59319,1,0,0:0:0:0:
36,192,59558,1,0,0:0:0:0:
182,192,59677,1,0,0:0:0:0:
329,192,59796,1,0,0:0:0:0:
475,192,59915,1,0,0:0:0:0:
256,192,60034,1,0,0:0:0:0:
109,192,60272,1,0,0:0:0:0:
402,192,60510,1,0,0:0:0:0:
256,192,60748,1,0,0:0:0:0:
182,192,60867,1,0,0:0:0:0:
329,192,60986,1,0,0:0:0:0:
475,192,60986,1,0,0:0:0:0:
329,192,61462,1,0,0:0:0:0:
475,192,61462,1,0,0:0:0:0:
36,192,61938,1,0,0:0:0:0:
329,192,61938,1,0,0:0:0:0:
36,192,62415,1,0,0:0:0:0:
329,192,62415,1,0,0:0:0:0:
109,192,62891,1,0,0:0:0:0:
402,192,62891,1,0,0:0:0:0:
182,192,63367,1,0,0:0:0:0:
329,192,63367,1,0,0:0:0:0:
36,192,63605,1,0,0:0:0:0:
256,192,63724,1,0,0:0:0:0:
402,192,63843,1,0,0:0:0:0:
475,192,63843,1,0,0:0:0:0:
402,192,64081,1,0,0:0:0:0:
475,192,64081,1,0,0:0:0:0:
182,192,64319,1,0,0:0:0:0:
256,192,64438,1,0,0:0:0:0:
329,192,64557,1,0,0:0:0:0:
402,192,64677,1,0,0:0:0:0:
36,192,64796,1,0,0:0:0:0:
475,192,64796,1,0,0:0:0:0:
182,192,65034,1,0,0:0:0:0:
329,192,65272,1,0,0:0:0:0:
182,192,65391,1,0,0:0:0:0:
329,192,65510,1,0,0:0:0:0:
182,192,65629,1,0,0:0:0:0:
402,192,65748,1,0,0:0:0:0:
109,192,65986,1,0,0:0:0:0:
402,192,66224,1,0,0:0:0:0:
109,192,66343,1,0,0:0:0:0:
402,192,66462,1,0,0:0:0:0:
109,192,66581,1,0,0:0:0:0:
329,192,66700,1,0,0:0:0:0:
256,192,66938,1,0,0:0:0:0:
36,192,67177,1,0,0:0:0:0:
182,192,67296,1,0,0:0:0:0:
329,192,67415,1,0,0:0:0:0:
475,192,67534,1,0,0:0:0:0:
256,192,67653,1,0,0:0:0:0:
109,192,67891,1,0,0:0:0:0:
402,192,68129,1,0,0:0:0:0:
182,192,68367,1,0,0:0:0:0:
36,192,68605,1,0,0:0:0:0:
256,192,68605,1,0,0:0:0:0:
256,192,68843,1,0,0:0:0:0:
109,192,69081,1,0,0:0:0:0:
256,192,69200,1,0,0:0:0:0:
182,192,69438,1,0,0:0:0:0:
36,192,69558,1,0,0:0:0:0:
329,192,69558,1,0,0:0:0:0:
329,192,69796,1,0,0:0:0:0:
182,192,70034,1,0,0:0:0:0:
329,192,70153,1,0,0:0:0:0:
256,192,70391,1,0,0:0:0:0:
36,192,70510,1,0,0:0:0:0:
109,192,70510,1,0,0:0:0:0:
329,192,70748,1,0,0:0:0:0:
475,192,70867,1,0,0:0:0:0:
256,192,70986,1,0,0:0:0:0:
109,192,71105,1,0,0:0:0:0:
329,192,71224,1,0,0:0:0:0:
182,192,71462,1,0,0:0:0:0:
475,192,71462,1,0,0:0:0:0:
36,192,71700,1,0,0:0:0:0:
256,192,71819,1,0,0:0:0:0:
475,192,71938,1,0,0:0:0:0:
109,192,72057,1,0,0:0:0:0:
329,192,72177,1,0,0:0:0:0:
36,192,72415,1,0,0:0:0:0:
475,192,72415,1,0,0:0:0:0:
109,192,72653,1,0,0:0:0:0:
402,192,72772,1,0,0:0:0:0:
182,192,73010,1,0,0:0:0:0:
475,192,73129,1,0,0:0:0:0:
329,192,73129,1,0,0:0:0:0:
182,192,73367,1,0,0:0:0:0:
329,192,73486,1,0,0:0:0:0:
182,192,73605,1,0,0:0:0:0:
36,192,73843,1,0,0:0:0:0:
475,192,73843,1,0,0:0:0:0:
329,192,74081,1,0,0:0:0:0:
182,192,74081,1,0,0:0:0:0:
256,192,74319,1,0,0:0:0:0:
109,192,74319,1,0,0:0:0:0:
402,192,74557,1,0,0:0:0:0:
329,192,74557,1,0,0:0:0:0:
329,192,74795,1,0,0:0:0:0:
402,192,74795,1,0,0:0:0:0:
182,192,75034,1,0,0:0:0:0:
109,192,75034,1,0,0:0:0:0:
36,192,75272,1,0,0:0:0:0:
475,192,75272,1,0,0:0:0:0:
256,192,75510,1,0,0:0:0:0:
109,192,75629,1,0,0:0:0:0:
256,192,75986,1,0,0:0:0:0:
475,192,75986,1,0,0:0:0:0:
109,192,76224,1,0,0:0:0:0:
256,192,76343,1,0,0:0:0:0:
36,192,76700,1,0,0:0:0:0:
329,192,76700,1,0,0:0:0:0:
182,192,76938,1,0,0:0:0:0:
402,192,77057,1,0,0:0:0:0:
256,192,77176,1,0,0:0:0:0:
329,192,77415,1,0,0:0:0:0:
109,192,77534,1,0,0:0:0:0:
256,192,77653,1,0,0:0:0:0:
475,192,77653,1,0,0:0:0:0:
182,192,77891,1,0,0:0:0:0:
109,192,78129,1,0,0:0:0:0:
329,192,78367,1,0,0:0:0:0:
475,192,78367,1,0,0:0:0:0:
36,192,78605,1,0,0:0:0:0:
182,192,78605,1,0,0:0:0:0:
402,192,78843,1,0,0:0:0:0:
36,192,79081,1,0,0:0:0:0:
182,192,79081,1,0,0:0:0:0:
329,192,79319,1,0,0:0:0:0:
475,192,79319,1,0,0:0:0:0:
109,192,79557,1,0,0:0:0:0:
402,192,79557,1,0,0:0:0:0:
36,192,80272,1,0,0:0:0:0:
475,192,80272,1,0,0:0:0:0:
182,192,80391,1,0,0:0:0:0:
402,192,80629,1,0,0:0:0:0:
109,192,80748,1,0,0:0:0:0:
36,192,80986,1,0,0:0:0:0:
182,192,81105,1,0,0:0:0:0:
329,192,81224,1,0,0:0:0:0:
475,192,81224,1,0,0:0:0:0:
109,192,81462,1,0,0:0:0:0:
256,192,81462,1,0,0:0:0:0:
475,192,81700,1,0,0:0:0:0:
329,192,81819,1,0,0:0:0:0:
36,192,81938,1,0,0:0:0:0:
182,192,81938,1,0,0:0:0:0:
256,192,82176,1,0,0:0:0:0:
402,192,82176,1,0,0:0:0:0:
182,192,82414,1,0,0:0:0:0:
36,192,82533,1,0,0:0:0:0:
475,192,82533,1,0,0:0:0:0:
109,192,82771,1,0,0:0:0:0:
402,192,82771,1,0,0:0:0:0:
