osu file format v14

[General]
AudioFilename: audio.mp3
AudioLeadIn: 0
PreviewTime: -1
Countdown: 1
SampleSet: Normal
StackLeniency: 0.7
Mode: 1
LetterboxInBreaks: 0
WidescreenStoryboard: 1

[Editor]
Bookmarks: 10601,40446,80239,115057
DistanceSpacing: 0.8
BeatDivisor: 4
GridSize: 8
TimelineZoom: 1.7

[Metadata]
Title:Yamiyo no Nagoshisai ~for 2015 edition~
TitleUnicode:闇夜之夏越祭 ~for 2015 edition~
Artist:pan
ArtistUnicode:pan
Creator:nyanmi-1828
Version:Oni
Source:
Tags:
BeatmapID:1589362
BeatmapSetID:755014

[Difficulty]
HPDrainRate:5
CircleSize:5
OverallDifficulty:5
ApproachRate:5
SliderMultiplier:1.4
SliderTickRate:1

[Events]
//Background and Video events
0,0,"37273954_p0 (1).jpg",0,0
//Break Periods
//Storyboard Layer 0 (Background)
//Storyboard Layer 1 (Fail)
//Storyboard Layer 2 (Pass)
//Storyboard Layer 3 (Foreground)
//Storyboard Sound Samples

[TimingPoints]
-590,310.880829015544,4,1,0,100,1,0
97648,-100,4,1,0,100,0,1
124694,-100,4,1,0,100,0,0

[HitObjects]
280,168,653,5,4,0:0:0:0:
320,176,964,1,0,0:0:0:0:
320,176,1119,1,8,0:0:0:0:
320,176,1275,1,0,0:0:0:0:
344,200,1586,1,8,0:0:0:0:
344,200,1897,1,0,0:0:0:0:
360,208,2052,1,8,0:0:0:0:
352,200,2363,1,8,0:0:0:0:
352,200,2518,1,0,0:0:0:0:
352,200,2674,1,0,0:0:0:0:
352,200,2829,1,8,0:0:0:0:
360,224,3140,1,0,0:0:0:0:
384,208,3451,1,8,0:0:0:0:
384,208,3606,1,8,0:0:0:0:
360,216,3917,1,0,0:0:0:0:
360,216,4073,1,8,0:0:0:0:
360,216,4228,1,8,0:0:0:0:
360,208,4539,1,0,0:0:0:0:
360,208,4694,1,8,0:0:0:0:
360,208,4850,1,8,0:0:0:0:
344,208,5005,1,0,0:0:0:0:
344,208,5316,1,8,0:0:0:0:
344,208,5627,1,8,0:0:0:0:
352,208,5938,1,8,0:0:0:0:
352,208,6249,1,8,0:0:0:0:
352,208,6560,1,8,0:0:0:0:
384,224,6715,1,0,0:0:0:0:
344,216,6871,1,8,0:0:0:0:
360,216,7182,1,8,0:0:0:0:
360,216,7492,1,8,0:0:0:0:
384,224,7726,1,8,0:0:0:0:
384,224,7803,1,8,0:0:0:0:
384,224,7959,1,0,0:0:0:0:
384,224,8114,1,8,0:0:0:0:
384,224,8270,1,8,0:0:0:0:
384,224,8425,1,8,0:0:0:0:
384,232,8580,1,0,0:0:0:0:
400,240,8736,1,8,0:0:0:0:
400,240,8814,1,8,0:0:0:0:
392,256,8891,1,0,0:0:0:0:
392,240,8969,1,8,0:0:0:0:
392,240,9047,1,0,0:0:0:0:
392,240,9202,1,0,0:0:0:0:
392,240,9358,1,8,0:0:0:0:
376,240,9513,1,0,0:0:0:0:
376,240,9591,1,0,0:0:0:0:
376,240,9669,1,8,0:0:0:0:
376,240,9824,1,0,0:0:0:0:
376,240,9902,1,8,0:0:0:0:
384,248,10057,1,8,0:0:0:0:
384,248,10135,1,0,0:0:0:0:
376,232,10290,1,12,0:0:0:0:
360,240,10601,1,4,0:0:0:0:
376,240,10757,1,8,0:0:0:0:
376,240,10912,1,8,0:0:0:0:
376,240,11068,1,0,0:0:0:0:
384,240,11223,1,8,0:0:0:0:
384,240,11378,1,0,0:0:0:0:
384,240,11456,1,8,0:0:0:0:
384,240,11612,1,0,0:0:0:0:
384,240,11689,1,8,0:0:0:0:
384,240,11845,1,0,0:0:0:0:
384,240,12000,1,8,0:0:0:0:
384,240,12156,1,8,0:0:0:0:
384,240,12233,1,8,0:0:0:0:
384,240,12311,1,0,0:0:0:0:
384,240,12466,1,8,0:0:0:0:
384,248,12622,1,0,0:0:0:0:
384,248,12700,1,8,0:0:0:0:
384,248,12855,1,0,0:0:0:0:
384,248,12933,1,8,0:0:0:0:
384,248,13088,1,0,0:0:0:0:
384,248,13244,1,8,0:0:0:0:
384,248,13399,1,8,0:0:0:0:
384,248,13555,1,0,0:0:0:0:
376,240,13710,1,8,0:0:0:0:
384,240,13865,1,0,0:0:0:0:
384,240,13943,1,8,0:0:0:0:
384,240,14021,1,0,0:0:0:0:
384,240,14176,1,8,0:0:0:0:
400,248,14332,1,0,0:0:0:0:
400,248,14487,1,8,0:0:0:0:
400,248,14565,1,8,0:0:0:0:
400,248,14643,1,8,0:0:0:0:
400,248,14798,1,0,0:0:0:0:
392,256,14954,1,8,0:0:0:0:
400,280,15109,1,0,0:0:0:0:
400,280,15187,1,8,0:0:0:0:
344,272,15264,1,0,0:0:0:0:
400,280,15575,1,0,0:0:0:0:
408,288,15731,1,8,0:0:0:0:
408,288,15886,1,8,0:0:0:0:
408,288,16042,1,0,0:0:0:0:
408,288,16197,1,8,0:0:0:0:
416,296,16353,1,0,0:0:0:0:
416,296,16430,1,8,0:0:0:0:
416,296,16586,1,0,0:0:0:0:
416,296,16663,1,8,0:0:0:0:
416,296,16819,1,0,0:0:0:0:
416,296,16974,1,8,0:0:0:0:
416,296,17130,1,8,0:0:0:0:
416,296,17285,1,0,0:0:0:0:
416,296,17363,1,0,0:0:0:0:
416,296,17441,1,8,0:0:0:0:
416,296,17596,1,0,0:0:0:0:
416,296,17674,1,8,0:0:0:0:
416,296,17751,1,0,0:0:0:0:
416,296,17907,1,8,0:0:0:0:
416,296,18062,1,0,0:0:0:0:
416,296,18218,1,8,0:0:0:0:
416,296,18373,1,12,0:0:0:0:
416,296,18684,1,8,0:0:0:0:
416,296,18840,1,0,0:0:0:0:
416,296,18995,1,12,0:0:0:0:
432,296,19150,1,8,0:0:0:0:
432,296,19306,1,0,0:0:0:0:
408,264,19461,1,8,0:0:0:0:
424,288,19539,1,0,0:0:0:0:
408,264,19617,1,8,0:0:0:0:
408,272,19772,1,0,0:0:0:0:
408,272,19928,1,12,0:0:0:0:
392,264,20083,1,8,0:0:0:0:
392,264,20239,1,4,0:0:0:0:
392,264,20394,1,0,0:0:0:0:
392,264,20549,1,0,0:0:0:0:
408,272,20705,1,0,0:0:0:0:
408,272,20860,1,8,0:0:0:0:
392,264,21171,1,0,0:0:0:0:
392,264,21327,1,0,0:0:0:0:
392,264,21482,1,8,0:0:0:0:
400,248,21793,1,0,0:0:0:0:
400,248,21948,1,0,0:0:0:0:
400,248,22104,1,8,0:0:0:0:
400,248,22259,1,0,0:0:0:0:
400,248,22337,1,0,0:0:0:0:
400,248,22415,1,8,0:0:0:0:
400,248,22570,1,0,0:0:0:0:
400,248,22726,1,8,0:0:0:0:
400,248,23036,1,0,0:0:0:0:
376,256,23192,1,0,0:0:0:0:
376,256,23347,1,8,0:0:0:0:
376,256,23503,1,8,0:0:0:0:
376,256,23580,1,8,0:0:0:0:
376,256,23658,1,0,0:0:0:0:
376,256,23814,1,0,0:0:0:0:
376,256,23969,1,8,0:0:0:0:
384,264,24125,1,0,0:0:0:0:
384,264,24280,1,8,0:0:0:0:
384,264,24358,1,8,0:0:0:0:
384,264,24435,1,0,0:0:0:0:
384,264,24591,1,8,0:0:0:0:
384,264,24746,1,0,0:0:0:0:
408,272,24902,1,0,0:0:0:0:
408,272,24979,1,0,0:0:0:0:
408,272,25057,1,0,0:0:0:0:
416,272,25213,1,8,0:0:0:0:
416,272,25523,1,4,0:0:0:0:
416,272,25679,1,0,0:0:0:0:
416,272,25834,1,8,0:0:0:0:
416,272,26145,1,0,0:0:0:0:
416,272,26301,1,0,0:0:0:0:
416,272,26456,1,8,0:0:0:0:
416,280,26767,1,4,0:0:0:0:
416,280,26922,1,0,0:0:0:0:
416,280,27078,1,8,0:0:0:0:
416,280,27233,1,0,0:0:0:0:
400,280,27311,1,0,0:0:0:0:
416,280,27389,1,8,0:0:0:0:
416,280,27544,1,0,0:0:0:0:
384,272,27700,1,8,0:0:0:0:
384,272,27855,1,8,0:0:0:0:
384,272,28011,1,4,0:0:0:0:
392,264,28166,1,0,0:0:0:0:
392,264,28244,1,0,0:0:0:0:
392,264,28321,1,8,0:0:0:0:
392,264,28477,1,8,0:0:0:0:
392,272,28632,1,4,0:0:0:0:
400,304,28788,1,0,0:0:0:0:
392,272,28943,1,8,0:0:0:0:
392,272,29099,1,0,0:0:0:0:
392,272,29254,1,4,0:0:0:0:
392,272,29409,1,0,0:0:0:0:
392,272,29565,1,8,0:0:0:0:
392,256,29720,1,0,0:0:0:0:
392,256,29798,1,8,0:0:0:0:
392,256,29954,1,8,0:0:0:0:
392,256,30031,1,0,0:0:0:0:
384,256,30187,1,0,0:0:0:0:
384,264,30498,1,0,0:0:0:0:
400,256,30808,1,0,0:0:0:0:
400,256,30964,1,8,0:0:0:0:
400,256,31119,1,0,0:0:0:0:
400,248,31275,1,0,0:0:0:0:
400,248,31430,1,8,0:0:0:0:
400,248,31586,1,8,0:0:0:0:
400,248,31741,1,0,0:0:0:0:
384,240,32052,1,0,0:0:0:0:
392,240,32363,1,0,0:0:0:0:
392,240,32674,1,8,0:0:0:0:
400,264,32985,1,0,0:0:0:0:
408,256,33296,1,8,0:0:0:0:
408,256,33606,1,8,0:0:0:0:
408,256,33762,1,8,0:0:0:0:
408,256,33840,1,8,0:0:0:0:
408,256,33917,1,0,0:0:0:0:
408,256,34073,1,8,0:0:0:0:
408,256,34228,1,0,0:0:0:0:
400,248,34539,1,0,0:0:0:0:
400,248,34850,1,0,0:0:0:0:
400,248,35161,1,8,0:0:0:0:
400,264,35472,1,0,0:0:0:0:
400,248,35783,1,0,0:0:0:0:
400,248,35938,1,8,0:0:0:0:
400,248,36093,1,0,0:0:0:0:
392,248,36249,1,0,0:0:0:0:
392,248,36404,1,8,0:0:0:0:
392,264,36715,1,8,0:0:0:0:
416,272,36871,1,0,0:0:0:0:
416,272,37026,1,0,0:0:0:0:
416,272,37182,1,0,0:0:0:0:
416,272,37337,1,8,0:0:0:0:
416,272,37648,1,0,0:0:0:0:
400,256,37803,1,8,0:0:0:0:
408,272,37959,1,8,0:0:0:0:
400,264,38036,1,8,0:0:0:0:
400,264,38114,1,0,0:0:0:0:
400,264,38270,1,8,0:0:0:0:
408,272,38425,1,8,0:0:0:0:
408,272,38580,1,8,0:0:0:0:
408,272,38736,1,0,0:0:0:0:
408,272,38814,1,0,0:0:0:0:
408,272,38891,1,8,0:0:0:0:
408,288,39047,1,0,0:0:0:0:
408,288,39202,1,8,0:0:0:0:
416,280,39358,1,8,0:0:0:0:
416,280,39513,1,0,0:0:0:0:
400,272,39669,1,0,0:0:0:0:
408,272,39824,1,8,0:0:0:0:
408,272,39979,1,0,0:0:0:0:
416,280,40057,1,0,0:0:0:0:
408,280,40135,1,8,0:0:0:0:
408,280,40213,1,8,0:0:0:0:
408,280,40290,1,0,0:0:0:0:
432,264,40446,1,8,0:0:0:0:
424,256,40679,1,0,0:0:0:0:
416,248,40757,1,8,0:0:0:0:
416,248,40912,1,0,0:0:0:0:
416,248,41068,1,8,0:0:0:0:
416,248,41223,1,0,0:0:0:0:
416,248,41378,1,8,0:0:0:0:
416,248,41534,1,8,0:0:0:0:
416,248,41689,1,0,0:0:0:0:
408,264,42000,1,8,0:0:0:0:
416,264,42156,1,0,0:0:0:0:
416,264,42233,1,0,0:0:0:0:
416,264,42311,1,8,0:0:0:0:
408,304,42466,1,8,0:0:0:0:
416,264,42622,1,0,0:0:0:0:
376,272,42777,1,8,0:0:0:0:
400,280,42933,1,0,0:0:0:0:
400,280,43166,1,0,0:0:0:0:
400,280,43244,1,8,0:0:0:0:
400,280,43399,1,0,0:0:0:0:
400,280,43555,1,8,0:0:0:0:
408,288,43710,1,8,0:0:0:0:
408,288,43788,1,8,0:0:0:0:
408,288,43865,1,0,0:0:0:0:
416,304,44021,1,8,0:0:0:0:
400,280,44176,1,0,0:0:0:0:
400,280,44487,1,0,0:0:0:0:
384,256,44643,1,0,0:0:0:0:
384,256,44798,1,8,0:0:0:0:
384,256,44954,1,0,0:0:0:0:
384,256,45031,1,0,0:0:0:0:
384,256,45109,1,8,0:0:0:0:
400,264,45420,1,0,0:0:0:0:
408,256,45731,1,8,0:0:0:0:
408,256,45886,1,0,0:0:0:0:
408,256,46042,1,0,0:0:0:0:
400,256,46197,1,8,0:0:0:0:
400,256,46275,1,8,0:0:0:0:
400,256,46353,1,0,0:0:0:0:
400,256,46508,1,0,0:0:0:0:
400,256,46663,1,8,0:0:0:0:
416,256,46819,1,0,0:0:0:0:
416,256,46974,1,0,0:0:0:0:
416,256,47130,1,8,0:0:0:0:
416,256,47285,1,8,0:0:0:0:
408,232,47596,1,8,0:0:0:0:
416,256,47907,1,0,0:0:0:0:
416,272,48218,1,8,0:0:0:0:
416,272,48529,1,0,0:0:0:0:
416,256,48684,1,0,0:0:0:0:
416,256,48840,1,8,0:0:0:0:
408,264,48995,1,0,0:0:0:0:
408,264,49150,1,8,0:0:0:0:
408,264,49228,1,8,0:0:0:0:
408,264,49306,1,0,0:0:0:0:
408,264,49461,1,8,0:0:0:0:
400,248,49617,1,0,0:0:0:0:
408,256,49694,1,8,0:0:0:0:
408,256,49772,1,0,0:0:0:0:
400,280,49928,1,0,0:0:0:0:
408,256,50083,1,8,0:0:0:0:
408,256,50239,1,8,0:0:0:0:
400,256,50394,1,4,0:0:0:0:
400,264,50705,1,8,0:0:0:0:
400,264,50860,1,8,0:0:0:0:
400,264,51016,1,0,0:0:0:0:
400,256,51171,1,8,0:0:0:0:
400,256,51249,1,8,0:0:0:0:
400,256,51327,1,0,0:0:0:0:
392,264,51482,1,8,0:0:0:0:
400,264,51637,1,0,0:0:0:0:
376,248,51948,1,0,0:0:0:0:
384,256,52104,1,8,0:0:0:0:
384,256,52259,1,0,0:0:0:0:
400,256,52415,1,0,0:0:0:0:
384,256,52570,1,8,0:0:0:0:
368,240,52881,1,8,0:0:0:0:
368,256,53036,1,0,0:0:0:0:
368,256,53192,1,0,0:0:0:0:
368,256,53347,1,8,0:0:0:0:
368,256,53503,1,8,0:0:0:0:
392,264,53658,1,8,0:0:0:0:
392,264,53736,1,8,0:0:0:0:
392,264,53814,1,0,0:0:0:0:
416,296,53969,1,0,0:0:0:0:
416,296,54125,1,8,0:0:0:0:
376,248,54435,1,0,0:0:0:0:
376,256,54591,1,0,0:0:0:0:
376,256,54746,1,8,0:0:0:0:
376,256,54902,1,0,0:0:0:0:
376,256,54979,1,8,0:0:0:0:
376,256,55135,1,8,0:0:0:0:
376,256,55213,1,0,0:0:0:0:
400,272,55368,1,4,0:0:0:0:
400,280,55601,1,0,0:0:0:0:
384,248,55679,1,0,0:0:0:0:
400,280,55834,1,8,0:0:0:0:
400,272,55990,1,4,0:0:0:0:
384,272,56223,1,8,0:0:0:0:
384,248,56301,1,0,0:0:0:0:
424,280,56456,1,0,0:0:0:0:
400,272,56612,1,12,0:0:0:0:
400,280,56845,1,8,0:0:0:0:
384,248,56922,1,0,0:0:0:0:
376,256,57078,1,0,0:0:0:0:
400,272,57233,1,12,0:0:0:0:
392,264,57389,1,8,0:0:0:0:
392,264,57544,1,0,0:0:0:0:
392,264,57622,1,8,0:0:0:0:
392,264,57700,1,0,0:0:0:0:
368,272,57855,1,0,0:0:0:0:
368,272,58011,1,0,0:0:0:0:
368,272,58166,1,12,0:0:0:0:
376,280,58321,1,0,0:0:0:0:
424,296,58477,1,0,0:0:0:0:
376,288,58632,1,0,0:0:0:0:
384,288,58788,1,12,0:0:0:0:
384,288,58943,1,0,0:0:0:0:
384,288,59099,1,12,0:0:0:0:
408,288,59254,1,0,0:0:0:0:
408,288,59332,1,0,0:0:0:0:
408,288,59409,1,8,0:0:0:0:
392,280,59565,1,0,0:0:0:0:
392,280,59720,1,8,0:0:0:0:
392,280,59876,1,0,0:0:0:0:
392,280,59954,1,8,0:0:0:0:
392,280,60031,1,0,0:0:0:0:
392,280,60187,1,8,0:0:0:0:
392,280,60342,1,0,0:0:0:0:
360,256,60446,1,0,0:0:0:0:
360,256,60549,1,0,0:0:0:0:
360,256,60653,1,8,0:0:0:0:
392,280,60860,1,8,0:0:0:0:
392,256,60964,1,0,0:0:0:0:
392,256,61171,1,8,0:0:0:0:
392,256,61275,1,8,0:0:0:0:
392,256,61378,1,0,0:0:0:0:
392,256,61482,1,0,0:0:0:0:
384,256,61586,1,0,0:0:0:0:
392,264,61793,1,8,0:0:0:0:
392,264,61897,1,8,0:0:0:0:
392,264,62104,1,8,0:0:0:0:
392,264,62207,1,0,0:0:0:0:
376,280,62518,1,8,0:0:0:0:
376,280,62622,1,8,0:0:0:0:
376,280,62726,1,8,0:0:0:0:
376,280,62829,1,0,0:0:0:0:
408,272,63140,1,8,0:0:0:0:
408,272,63451,1,0,0:0:0:0:
408,272,63762,1,8,0:0:0:0:
392,256,64073,1,0,0:0:0:0:
392,256,64280,1,8,0:0:0:0:
392,256,64384,1,0,0:0:0:0:
416,288,64591,1,0,0:0:0:0:
416,288,64694,1,0,0:0:0:0:
416,288,64902,1,0,0:0:0:0:
416,288,65005,1,8,0:0:0:0:
416,288,65109,1,8,0:0:0:0:
416,288,65213,1,8,0:0:0:0:
416,288,65316,1,0,0:0:0:0:
400,288,65627,1,8,0:0:0:0:
400,288,65731,1,8,0:0:0:0:
408,288,65834,1,8,0:0:0:0:
400,288,65938,1,0,0:0:0:0:
392,272,66249,1,8,0:0:0:0:
392,272,66353,1,8,0:0:0:0:
408,288,66456,1,0,0:0:0:0:
392,272,66560,1,0,0:0:0:0:
400,272,66767,1,0,0:0:0:0:
376,256,66871,1,8,0:0:0:0:
376,256,66974,1,8,0:0:0:0:
376,256,67078,1,8,0:0:0:0:
384,256,67182,1,0,0:0:0:0:
384,256,67389,1,8,0:0:0:0:
384,256,67492,1,8,0:0:0:0:
384,256,67596,1,0,0:0:0:0:
384,264,67700,1,0,0:0:0:0:
384,256,67803,1,0,0:0:0:0:
376,264,68114,1,8,0:0:0:0:
376,264,68192,1,8,0:0:0:0:
384,264,68270,1,8,0:0:0:0:
376,264,68425,1,0,0:0:0:0:
384,240,68736,1,8,0:0:0:0:
384,240,68840,1,8,0:0:0:0:
384,240,68943,1,8,0:0:0:0:
384,240,69047,1,0,0:0:0:0:
400,248,69358,1,8,0:0:0:0:
400,240,69669,1,8,0:0:0:0:
400,240,69746,1,8,0:0:0:0:
400,240,69824,1,0,0:0:0:0:
400,240,69902,1,0,0:0:0:0:
400,240,69979,1,8,0:0:0:0:
400,240,70057,1,8,0:0:0:0:
400,248,70135,1,0,0:0:0:0:
400,248,70290,1,0,0:0:0:0:
424,272,70523,1,8,0:0:0:0:
392,240,70601,1,0,0:0:0:0:
392,240,70757,1,0,0:0:0:0:
392,240,70912,1,8,0:0:0:0:
400,256,71068,1,0,0:0:0:0:
400,256,71145,1,8,0:0:0:0:
400,264,71301,1,8,0:0:0:0:
400,264,71378,1,0,0:0:0:0:
416,280,71534,1,0,0:0:0:0:
416,280,71689,1,8,0:0:0:0:
416,280,71845,1,0,0:0:0:0:
416,280,72000,1,8,0:0:0:0:
416,280,72156,1,0,0:0:0:0:
432,288,72233,1,0,0:0:0:0:
432,288,72311,1,0,0:0:0:0:
432,288,72466,1,8,0:0:0:0:
432,288,72622,1,8,0:0:0:0:
416,288,72777,1,4,0:0:0:0:
456,296,73011,1,8,0:0:0:0:
416,280,73088,1,0,0:0:0:0:
448,296,73244,1,12,0:0:0:0:
392,272,73399,1,4,0:0:0:0:
392,272,73632,1,8,0:0:0:0:
416,280,73710,1,8,0:0:0:0:
392,272,73865,1,8,0:0:0:0:
392,272,74021,1,4,0:0:0:0:
424,280,74176,1,8,0:0:0:0:
424,280,74332,1,8,0:0:0:0:
416,280,74487,1,0,0:0:0:0:
416,280,74565,1,0,0:0:0:0:
416,280,74643,1,8,0:0:0:0:
400,272,74798,1,0,0:0:0:0:
408,272,74954,1,8,0:0:0:0:
392,264,75109,1,8,0:0:0:0:
408,288,75264,1,0,0:0:0:0:
408,272,75498,1,0,0:0:0:0:
408,272,75575,1,8,0:0:0:0:
400,256,75731,1,0,0:0:0:0:
400,256,75886,1,8,0:0:0:0:
400,256,76042,1,0,0:0:0:0:
400,256,76197,1,8,0:0:0:0:
400,256,76353,1,0,0:0:0:0:
400,256,76508,1,0,0:0:0:0:
400,256,76663,1,8,0:0:0:0:
432,264,76974,1,8,0:0:0:0:
432,264,77130,1,0,0:0:0:0:
432,264,77285,1,0,0:0:0:0:
432,264,77441,1,8,0:0:0:0:
432,264,77596,1,0,0:0:0:0:
416,256,77751,1,12,0:0:0:0:
416,256,77907,1,8,0:0:0:0:
416,256,78062,1,0,0:0:0:0:
408,264,78373,1,12,0:0:0:0:
408,264,78529,1,8,0:0:0:0:
408,264,78684,1,0,0:0:0:0:
408,264,78840,1,8,0:0:0:0:
432,280,78995,1,4,0:0:0:0:
432,280,79150,1,0,0:0:0:0:
432,280,79228,1,0,0:0:0:0:
432,280,79306,1,8,0:0:0:0:
416,264,79461,1,0,0:0:0:0:
416,264,79617,1,8,0:0:0:0:
440,296,79772,1,8,0:0:0:0:
440,296,79850,1,0,0:0:0:0:
440,296,79928,1,8,0:0:0:0:
440,296,80083,1,8,0:0:0:0:
440,288,80239,1,0,0:0:0:0:
424,304,80472,1,8,0:0:0:0:
440,304,80549,1,0,0:0:0:0:
440,304,80705,1,8,0:0:0:0:
432,296,80860,1,0,0:0:0:0:
432,296,81016,1,0,0:0:0:0:
432,296,81093,1,0,0:0:0:0:
432,296,81171,1,8,0:0:0:0:
432,296,81327,1,8,0:0:0:0:
432,296,81482,1,0,0:0:0:0:
440,296,81715,1,8,0:0:0:0:
440,296,81793,1,0,0:0:0:0:
440,296,81948,1,8,0:0:0:0:
424,272,82104,1,0,0:0:0:0:
424,272,82259,1,8,0:0:0:0:
424,272,82337,1,0,0:0:0:0:
424,272,82415,1,8,0:0:0:0:
432,272,82570,1,8,0:0:0:0:
424,280,82726,1,4,0:0:0:0:
424,280,82881,1,0,0:0:0:0:
424,280,82959,1,0,0:0:0:0:
424,280,83036,1,8,0:0:0:0:
416,288,83192,1,8,0:0:0:0:
416,288,83347,1,0,0:0:0:0:
440,288,83503,1,0,0:0:0:0:
440,288,83580,1,0,0:0:0:0:
440,288,83658,1,8,0:0:0:0:
448,304,83969,1,0,0:0:0:0:
448,304,84125,1,0,0:0:0:0:
448,320,84202,1,8,0:0:0:0:
448,320,84280,1,0,0:0:0:0:
432,312,84435,1,0,0:0:0:0:
440,304,84591,1,8,0:0:0:0:
432,320,84746,1,0,0:0:0:0:
432,304,84824,1,0,0:0:0:0:
432,304,84902,1,8,0:0:0:0:
432,304,84979,1,8,0:0:0:0:
432,304,85057,1,0,0:0:0:0:
440,296,85213,1,8,0:0:0:0:
400,264,85368,1,0,0:0:0:0:
400,272,85523,1,8,0:0:0:0:
408,288,85834,1,8,0:0:0:0:
408,288,85990,1,0,0:0:0:0:
408,288,86068,1,0,0:0:0:0:
408,288,86145,1,8,0:0:0:0:
416,296,86301,1,8,0:0:0:0:
416,296,86456,1,0,0:0:0:0:
400,264,86767,1,8,0:0:0:0:
400,264,86922,1,8,0:0:0:0:
416,280,87078,1,0,0:0:0:0:
384,264,87233,1,0,0:0:0:0:
384,264,87311,1,0,0:0:0:0:
384,264,87389,1,8,0:0:0:0:
400,280,87700,1,8,0:0:0:0:
408,264,87855,1,0,0:0:0:0:
408,264,88011,1,12,0:0:0:0:
432,288,88321,1,0,0:0:0:0:
432,288,88477,1,0,0:0:0:0:
432,288,88632,1,12,0:0:0:0:
432,288,88788,1,8,0:0:0:0:
432,288,88943,1,0,0:0:0:0:
432,288,89099,1,12,0:0:0:0:
424,288,89409,1,12,0:0:0:0:
424,288,89565,1,0,0:0:0:0:
440,272,89720,1,0,0:0:0:0:
440,272,89798,1,0,0:0:0:0:
440,272,89876,1,8,0:0:0:0:
440,280,90031,1,8,0:0:0:0:
424,272,90187,1,0,0:0:0:0:
424,272,90342,1,0,0:0:0:0:
424,272,90420,1,8,0:0:0:0:
424,272,90498,1,0,0:0:0:0:
440,296,90653,1,8,0:0:0:0:
440,296,90808,1,8,0:0:0:0:
440,296,90964,1,0,0:0:0:0:
440,296,91042,1,0,0:0:0:0:
440,304,91119,1,8,0:0:0:0:
440,304,91430,1,12,0:0:0:0:
416,296,91586,1,0,0:0:0:0:
416,280,91741,1,8,0:0:0:0:
408,272,91897,1,0,0:0:0:0:
408,272,91974,1,0,0:0:0:0:
408,272,92052,1,8,0:0:0:0:
408,272,92130,1,0,0:0:0:0:
416,304,92207,1,8,0:0:0:0:
408,272,92285,1,8,0:0:0:0:
408,272,92363,1,0,0:0:0:0:
408,272,92518,1,8,0:0:0:0:
408,272,92674,1,4,0:0:0:0:
400,264,92829,1,0,0:0:0:0:
400,264,92985,1,8,0:0:0:0:
408,264,93140,1,8,0:0:0:0:
408,264,93296,1,4,0:0:0:0:
416,264,93451,1,0,0:0:0:0:
416,264,93606,1,8,0:0:0:0:
416,264,93762,1,8,0:0:0:0:
416,264,93917,1,4,0:0:0:0:
416,272,94073,1,0,0:0:0:0:
416,272,94228,1,12,0:0:0:0:
416,272,94384,1,8,0:0:0:0:
432,264,94539,1,0,0:0:0:0:
432,264,94694,1,0,0:0:0:0:
432,264,94772,1,0,0:0:0:0:
432,264,94850,1,8,0:0:0:0:
416,256,95161,1,8,0:0:0:0:
416,256,95316,1,0,0:0:0:0:
416,256,95472,1,0,0:0:0:0:
416,256,95627,1,8,0:0:0:0:
416,256,95783,1,8,0:0:0:0:
416,256,95938,1,0,0:0:0:0:
416,256,96093,1,8,0:0:0:0:
416,256,96249,1,0,0:0:0:0:
408,280,96560,1,0,0:0:0:0:
408,280,96715,1,0,0:0:0:0:
408,280,96871,1,0,0:0:0:0:
416,280,97026,1,0,0:0:0:0:
416,280,97104,1,0,0:0:0:0:
416,280,97182,1,0,0:0:0:0:
416,280,97337,1,12,0:0:0:0:
416,248,97648,1,12,0:0:0:0:
416,264,97803,1,8,0:0:0:0:
416,264,97959,1,0,0:0:0:0:
416,264,98114,1,0,0:0:0:0:
416,264,98270,1,12,0:0:0:0:
416,272,98425,1,0,0:0:0:0:
416,272,98503,1,0,0:0:0:0:
416,272,98580,1,8,0:0:0:0:
416,272,98736,1,8,0:0:0:0:
424,288,98891,1,4,0:0:0:0:
424,288,99047,1,0,0:0:0:0:
424,288,99202,1,12,0:0:0:0:
424,288,99358,1,8,0:0:0:0:
424,296,99513,1,8,0:0:0:0:
424,296,99591,1,8,0:0:0:0:
424,296,99669,1,0,0:0:0:0:
424,296,99746,1,0,0:0:0:0:
424,296,99824,1,8,0:0:0:0:
424,296,99979,1,8,0:0:0:0:
424,296,100135,1,0,0:0:0:0:
424,280,100368,1,8,0:0:0:0:
424,288,100446,1,0,0:0:0:0:
424,280,100601,1,8,0:0:0:0:
424,280,100757,1,0,0:0:0:0:
440,288,100834,1,0,0:0:0:0:
440,288,100912,1,0,0:0:0:0:
440,288,100990,1,0,0:0:0:0:
440,288,101068,1,8,0:0:0:0:
440,288,101223,1,8,0:0:0:0:
440,288,101378,1,0,0:0:0:0:
440,288,101612,1,8,0:0:0:0:
440,288,101689,1,8,0:0:0:0:
440,288,101845,1,8,0:0:0:0:
408,264,102000,1,0,0:0:0:0:
408,264,102078,1,0,0:0:0:0:
408,264,102156,1,8,0:0:0:0:
408,264,102233,1,0,0:0:0:0:
408,264,102311,1,8,0:0:0:0:
408,264,102466,1,8,0:0:0:0:
408,264,102622,1,4,0:0:0:0:
408,264,102777,1,0,0:0:0:0:
384,272,102933,1,8,0:0:0:0:
408,264,103088,1,8,0:0:0:0:
416,272,103244,1,4,0:0:0:0:
416,272,103399,1,8,0:0:0:0:
416,272,103477,1,0,0:0:0:0:
416,272,103555,1,8,0:0:0:0:
416,272,103710,1,8,0:0:0:0:
424,288,103865,1,0,0:0:0:0:
424,288,103943,1,0,0:0:0:0:
424,288,104021,1,0,0:0:0:0:
424,288,104099,1,0,0:0:0:0:
424,288,104176,1,8,0:0:0:0:
424,288,104332,1,8,0:0:0:0:
400,288,104487,1,0,0:0:0:0:
408,288,104643,1,8,0:0:0:0:
408,264,104720,1,0,0:0:0:0:
416,256,104798,1,8,0:0:0:0:
416,256,104954,1,0,0:0:0:0:
440,256,105109,1,8,0:0:0:0:
392,288,105264,1,0,0:0:0:0:
400,280,105342,1,0,0:0:0:0:
448,288,105420,1,8,0:0:0:0:
384,248,105575,1,0,0:0:0:0:
448,288,105731,1,8,0:0:0:0:
448,288,105886,1,0,0:0:0:0:
448,288,106042,1,8,0:0:0:0:
432,288,106197,1,0,0:0:0:0:
432,296,106353,1,0,0:0:0:0:
432,296,106508,1,8,0:0:0:0:
440,272,106819,1,8,0:0:0:0:
440,272,106974,1,0,0:0:0:0:
440,272,107130,1,0,0:0:0:0:
440,272,107285,1,8,0:0:0:0:
440,288,107441,1,8,0:0:0:0:
440,304,107596,1,0,0:0:0:0:
440,304,107751,1,0,0:0:0:0:
440,304,107907,1,12,0:0:0:0:
416,256,108218,1,0,0:0:0:0:
416,256,108373,1,0,0:0:0:0:
416,256,108529,1,12,0:0:0:0:
416,256,108684,1,8,0:0:0:0:
424,272,108840,1,0,0:0:0:0:
424,272,108995,1,12,0:0:0:0:
424,272,109306,1,12,0:0:0:0:
424,280,109461,1,0,0:0:0:0:
424,288,109617,1,0,0:0:0:0:
424,288,109694,1,0,0:0:0:0:
424,288,109772,1,8,0:0:0:0:
424,288,109928,1,8,0:0:0:0:
424,288,110083,1,0,0:0:0:0:
416,296,110161,1,0,0:0:0:0:
416,280,110239,1,8,0:0:0:0:
416,272,110394,1,8,0:0:0:0:
416,272,110549,1,0,0:0:0:0:
416,272,110705,1,8,0:0:0:0:
416,272,110783,1,8,0:0:0:0:
416,272,110860,1,0,0:0:0:0:
416,272,111016,1,8,0:0:0:0:
416,272,111171,1,0,0:0:0:0:
432,296,111327,1,8,0:0:0:0:
440,304,111404,1,0,0:0:0:0:
432,296,111482,1,0,0:0:0:0:
440,304,111637,1,8,0:0:0:0:
440,304,111793,1,0,0:0:0:0:
432,296,111871,1,0,0:0:0:0:
432,296,111948,1,8,0:0:0:0:
432,296,112104,1,0,0:0:0:0:
432,296,112259,1,8,0:0:0:0:
432,296,112415,1,8,0:0:0:0:
432,304,112570,1,8,0:0:0:0:
432,304,112648,1,8,0:0:0:0:
432,304,112726,1,0,0:0:0:0:
432,304,112803,1,0,0:0:0:0:
432,304,112881,1,8,0:0:0:0:
432,304,113036,1,0,0:0:0:0:
432,312,113192,1,12,0:0:0:0:
432,312,113347,1,8,0:0:0:0:
432,312,113503,1,0,0:0:0:0:
432,312,113658,1,0,0:0:0:0:
448,296,113814,1,8,0:0:0:0:
432,296,113891,1,0,0:0:0:0:
432,296,113969,1,0,0:0:0:0:
432,296,114125,1,8,0:0:0:0:
432,296,114280,1,8,0:0:0:0:
432,296,114435,1,8,0:0:0:0:
432,296,114513,1,0,0:0:0:0:
432,296,114591,1,0,0:0:0:0:
432,296,114669,1,0,0:0:0:0:
432,296,114746,1,8,0:0:0:0:
448,312,114902,1,8,0:0:0:0:
448,312,115057,1,4,0:0:0:0:
408,296,115290,1,8,0:0:0:0:
400,272,115368,1,0,0:0:0:0:
408,296,115523,1,8,0:0:0:0:
424,280,115679,1,8,0:0:0:0:
416,296,115834,1,0,0:0:0:0:
416,296,115912,1,8,0:0:0:0:
424,312,116068,1,0,0:0:0:0:
424,312,116145,1,8,0:0:0:0:
408,280,116301,1,0,0:0:0:0:
408,280,116378,1,0,0:0:0:0:
408,280,116456,1,8,0:0:0:0:
408,280,116612,1,0,0:0:0:0:
408,280,116767,1,8,0:0:0:0:
408,280,116922,1,8,0:0:0:0:
408,280,117078,1,0,0:0:0:0:
408,280,117156,1,0,0:0:0:0:
408,280,117233,1,8,0:0:0:0:
440,296,117544,1,8,0:0:0:0:
432,296,117777,1,0,0:0:0:0:
432,296,117855,1,0,0:0:0:0:
432,320,118011,1,8,0:0:0:0:
432,312,118166,1,8,0:0:0:0:
432,312,118244,1,0,0:0:0:0:
432,312,118321,1,8,0:0:0:0:
432,312,118477,1,8,0:0:0:0:
432,312,118632,1,0,0:0:0:0:
440,328,118788,1,8,0:0:0:0:
448,304,118943,1,0,0:0:0:0:
448,304,119021,1,8,0:0:0:0:
448,304,119176,1,8,0:0:0:0:
448,304,119254,1,0,0:0:0:0:
448,304,119409,1,8,0:0:0:0:
440,336,119487,1,8,0:0:0:0:
440,336,119565,1,0,0:0:0:0:
440,336,119720,1,8,0:0:0:0:
440,336,119876,1,0,0:0:0:0:
456,320,120031,1,4,0:0:0:0:
440,304,120187,1,0,0:0:0:0:
440,304,120342,1,8,0:0:0:0:
424,296,120498,1,0,0:0:0:0:
424,296,120653,1,8,0:0:0:0:
424,296,120731,1,8,0:0:0:0:
424,296,120808,1,0,0:0:0:0:
424,296,120964,1,8,0:0:0:0:
424,296,121119,1,0,0:0:0:0:
416,288,121275,1,4,0:0:0:0:
440,296,121430,1,0,0:0:0:0:
440,296,121508,1,8,0:0:0:0:
440,296,121663,1,0,0:0:0:0:
440,296,121741,1,8,0:0:0:0:
440,296,121897,1,8,0:0:0:0:
432,304,121974,1,0,0:0:0:0:
432,304,122052,1,8,0:0:0:0:
432,304,122130,1,0,0:0:0:0:
440,296,122207,1,8,0:0:0:0:
440,296,122363,1,8,0:0:0:0:
408,280,122518,1,0,0:0:0:0:
408,280,122674,1,8,0:0:0:0:
408,280,122829,1,8,0:0:0:0:
408,280,122985,1,0,0:0:0:0:
408,280,123062,1,8,0:0:0:0:
400,288,123140,1,0,0:0:0:0:
400,288,123296,1,8,0:0:0:0:
400,272,123451,1,0,0:0:0:0:
400,272,123529,1,8,0:0:0:0:
400,272,123606,1,8,0:0:0:0:
400,272,123684,1,8,0:0:0:0:
400,272,123762,1,0,0:0:0:0:
392,256,123917,1,0,0:0:0:0:
392,264,124073,1,8,0:0:0:0:
392,264,124228,1,0,0:0:0:0:
392,264,124306,1,8,0:0:0:0:
392,264,124461,1,8,0:0:0:0:
392,264,124539,1,0,0:0:0:0:
392,264,124694,1,8,0:0:0:0:
