osu file format v14

[General]
AudioFilename: audio.mp3
AudioLeadIn: 0
PreviewTime: 69669
Countdown: 0
SampleSet: Soft
StackLeniency: 0.7
Mode: 3
LetterboxInBreaks: 0
SpecialStyle: 0
WidescreenStoryboard: 1

[Editor]
DistanceSpacing: 0.8
BeatDivisor: 4
GridSize: 8
TimelineZoom: 1.6

[Metadata]
Title:Yamiyo no Nagoshisai ~for 2015 edition~
TitleUnicode:闇夜之夏越祭 ~for 2015 edition~
Artist:pan
ArtistUnicode:pan
Creator:DoNotMess
Version:Advanced
Source:
Tags:SF2015 Japanese Hardcore K-Shoot MANIA KSM
BeatmapID:1278386
BeatmapSetID:599978

[Difficulty]
HPDrainRate:7.5
CircleSize:4
OverallDifficulty:7.5
ApproachRate:5
SliderMultiplier:1.4
SliderTickRate:1

[Events]
//Background and Video events
0,0,"Geisha-Anime-1920x1080.jpg",0,0
//Break Periods
//Storyboard Layer 0 (Background)
//Storyboard Layer 1 (Fail)
//Storyboard Layer 2 (Pass)
//Storyboard Layer 3 (Foreground)
//Storyboard Sound Samples

[TimingPoints]
-590,310.880829015544,4,2,1,60,1,0
40446,-100,4,2,1,60,0,1
50394,-100,4,2,1,60,0,0
60342,-100,4,3,1,60,0,0
70290,-100,4,2,1,60,0,0
73244,-100,4,2,1,60,0,0
90187,-100,4,2,1,60,0,1
95161,-100,4,2,1,60,0,0
110083,-100,4,2,1,60,0,1
114902,-100,4,2,1,60,0,0
115057,-100,4,2,1,60,0,1
124694,-100,4,2,1,60,0,0

[HitObjects]
64,192,653,5,4,0:0:0:0:
448,192,653,1,2,0:0:0:0:
192,192,964,1,0,0:0:0:0:
448,192,1275,1,0,0:0:0:0:
320,192,1586,1,0,0:0:0:0:
64,192,1897,1,0,0:0:0:0:
320,192,2207,1,0,0:0:0:0:
448,192,2518,1,0,0:0:0:0:
192,192,2829,1,0,0:0:0:0:
64,192,3140,1,0,0:0:0:0:
320,192,3451,1,0,0:0:0:0:
192,192,3762,1,0,0:0:0:0:
448,192,4073,1,0,0:0:0:0:
320,192,4384,1,0,0:0:0:0:
64,192,4694,1,0,0:0:0:0:
192,192,5005,1,0,0:0:0:0:
448,192,5316,1,0,0:0:0:0:
64,192,5627,1,8,0:0:0:0:
64,192,5938,1,8,0:0:0:0:
64,192,6249,1,8,0:0:0:0:
64,192,6560,1,8,0:0:0:0:
192,192,6715,1,8,0:0:0:0:
448,192,6871,1,8,0:0:0:0:
448,192,7182,1,8,0:0:0:0:
448,192,7492,1,8,0:0:0:0:
192,192,7726,1,8,0:0:0:0:
448,192,7803,1,8,0:0:0:0:
320,192,7959,1,8,0:0:0:0:
64,192,8114,1,8,0:0:0:0:
448,192,8270,1,8,0:0:0:0:
64,192,8425,1,8,0:0:0:0:
448,192,8580,1,8,0:0:0:0:
192,192,8736,1,8,0:0:0:0:
320,192,8891,1,8,0:0:0:0:
192,192,9047,1,8,0:0:0:0:
320,192,9202,1,8,0:0:0:0:
448,192,9358,1,2,0:0:0:0:
64,192,9513,1,2,0:0:0:0:
192,192,9591,1,2,0:0:0:0:
320,192,9669,1,8,0:0:0:0:
448,192,9669,1,0,0:0:0:0:
64,192,9824,1,2,0:0:0:0:
448,192,9979,1,2,0:0:0:0:
64,192,10135,1,2,0:0:0:0:
192,192,10290,1,2,0:0:0:0:
320,192,10290,1,0,0:0:0:60:wou.wav
64,192,10601,1,2,0:0:0:0:
192,192,10601,1,4,0:0:0:0:
448,192,10757,1,0,0:0:0:0:
448,192,10912,1,8,0:0:0:0:
64,192,11068,1,0,0:0:0:0:
320,192,11223,1,2,0:0:0:0:
320,192,11456,1,0,0:0:0:0:
192,192,11534,1,8,0:0:0:0:
320,192,11689,1,0,0:0:0:0:
448,192,11845,1,2,0:0:0:0:
192,192,12000,1,0,0:0:0:0:
192,192,12156,1,8,0:0:0:0:
448,192,12311,1,0,0:0:0:0:
64,192,12466,1,2,0:0:0:0:
64,192,12700,1,0,0:0:0:0:
320,192,12777,1,8,0:0:0:0:
64,192,12933,1,2,0:0:0:0:
192,192,13088,1,2,0:0:0:0:
448,192,13244,1,2,0:0:0:0:
448,192,13399,1,8,0:0:0:0:
320,192,13555,1,0,0:0:0:0:
64,192,13710,1,2,0:0:0:0:
64,192,13943,1,0,0:0:0:0:
448,192,14021,1,8,0:0:0:0:
64,192,14176,1,0,0:0:0:0:
192,192,14332,1,2,0:0:0:0:
320,192,14565,1,2,0:0:0:0:
192,192,14643,1,2,0:0:0:0:
448,192,14798,1,2,0:0:0:0:
64,192,14954,1,2,0:0:0:0:
320,192,15109,1,0,0:0:0:0:
192,192,15264,1,2,0:0:0:0:
64,192,15420,1,2,0:0:0:0:
448,192,15575,1,2,0:0:0:0:
192,192,15731,1,2,0:0:0:0:
192,192,15886,1,8,0:0:0:0:
64,192,16042,1,0,0:0:0:0:
320,192,16197,1,2,0:0:0:0:
320,192,16430,1,0,0:0:0:0:
192,192,16508,1,8,0:0:0:0:
320,192,16663,1,0,0:0:0:0:
64,192,16819,1,2,0:0:0:0:
192,192,16974,1,0,0:0:0:0:
192,192,17130,1,8,0:0:0:0:
448,192,17285,1,0,0:0:0:0:
320,192,17441,1,2,0:0:0:0:
320,192,17674,1,0,0:0:0:0:
64,192,17751,1,8,0:0:0:0:
320,192,17907,1,0,0:0:0:0:
192,192,18218,1,0,0:0:0:0:
64,192,18373,1,4,0:0:0:0:
448,192,18373,1,8,0:0:0:0:
320,192,18684,1,0,0:0:0:0:
320,192,18917,1,0,0:0:0:0:
64,192,18995,1,4,0:0:0:0:
192,192,18995,1,8,0:0:0:0:
320,192,19150,1,0,0:0:0:0:
64,192,19306,1,2,0:0:0:0:
448,192,19461,1,2,0:0:0:0:
64,192,19617,1,8,0:0:0:0:
448,192,19772,1,2,0:0:0:0:
192,192,19928,128,6,20083:0:0:0:0:
320,192,20083,128,0,20239:0:0:0:0:
192,192,20239,128,10,20394:0:0:0:0:
320,192,20394,128,0,20549:0:0:0:0:
64,192,20549,1,2,0:0:0:0:
192,192,20549,1,4,0:0:0:0:
320,192,20705,1,2,0:0:0:0:
448,192,20860,1,8,0:0:0:0:
64,192,21171,1,2,0:0:0:0:
192,192,21171,1,0,0:0:0:0:
320,192,21327,1,0,0:0:0:0:
448,192,21482,1,8,0:0:0:0:
64,192,21793,1,2,0:0:0:0:
320,192,21793,1,0,0:0:0:0:
192,192,21948,1,0,0:0:0:0:
448,192,22104,1,8,0:0:0:0:
320,192,22259,1,0,0:0:0:0:
64,192,22415,1,2,0:0:0:0:
448,192,22415,1,0,0:0:0:0:
192,192,22570,1,0,0:0:0:0:
448,192,22881,1,2,0:0:0:0:
64,192,23036,1,2,0:0:0:0:
320,192,23036,1,0,0:0:0:0:
192,192,23192,1,2,0:0:0:0:
448,192,23503,1,0,0:0:0:0:
64,192,23658,1,2,0:0:0:0:
320,192,23658,1,0,0:0:0:0:
192,192,23814,1,0,0:0:0:0:
320,192,23969,1,8,0:0:0:0:
64,192,24280,1,2,0:0:0:0:
448,192,24280,1,0,0:0:0:0:
320,192,24591,1,8,0:0:0:0:
448,192,24591,1,0,0:0:0:0:
64,192,24902,1,2,0:0:0:0:
192,192,24902,1,0,0:0:0:0:
320,192,25057,1,0,0:0:0:0:
448,192,25213,1,8,0:0:0:0:
64,192,25523,1,6,0:0:0:0:
192,192,25523,1,0,0:0:0:0:
448,192,25679,1,2,0:0:0:0:
64,192,25834,1,8,0:0:0:0:
320,192,25990,1,2,0:0:0:0:
192,192,26145,1,2,0:0:0:0:
448,192,26301,1,2,0:0:0:0:
64,192,26456,1,8,0:0:0:0:
192,192,26612,1,2,0:0:0:0:
320,192,26767,1,2,0:0:0:0:
448,192,26767,1,4,0:0:0:0:
64,192,26922,1,2,0:0:0:0:
320,192,27078,1,8,0:0:0:0:
192,192,27233,1,2,0:0:0:0:
448,192,27389,1,2,0:0:0:0:
320,192,27544,1,2,0:0:0:0:
64,192,27700,1,8,0:0:0:0:
192,192,27855,1,2,0:0:0:0:
320,192,28011,1,4,0:0:0:0:
448,192,28011,1,2,0:0:0:0:
192,192,28166,1,2,0:0:0:0:
64,192,28321,1,2,0:0:0:0:
320,192,28477,1,2,0:0:0:0:
64,192,28632,1,4,0:0:0:0:
448,192,28632,1,2,0:0:0:0:
192,192,28788,1,2,0:0:0:0:
320,192,28943,1,2,0:0:0:0:
64,192,29099,1,2,0:0:0:0:
320,192,29254,1,2,0:0:0:0:
448,192,29254,1,4,0:0:0:0:
192,192,29409,1,8,0:0:0:0:
64,192,29565,1,2,0:0:0:0:
320,192,29720,1,8,0:0:0:0:
192,192,29798,1,8,0:0:0:0:
320,192,29954,1,8,0:0:0:0:
192,192,30031,1,8,0:0:0:0:
448,192,30187,128,2,30498:0:0:0:0:
64,192,30498,128,2,30964:0:0:0:0:
192,192,30498,1,0,0:0:0:0:
320,192,30808,1,2,0:0:0:0:
448,192,30964,128,0,31119:0:0:0:0:
320,192,31119,128,2,31275:0:0:0:0:
192,192,31275,128,0,31430:0:0:0:0:
320,192,31430,128,2,31586:0:0:0:0:
192,192,31586,128,0,31741:0:0:0:0:
64,192,31741,128,2,32207:0:0:0:0:
448,192,32052,1,2,0:0:0:0:
64,192,32363,128,2,32674:0:0:0:0:
320,192,32674,128,2,32985:0:0:0:0:
192,192,32985,128,2,33296:0:0:0:0:
448,192,33296,128,2,33606:0:0:0:0:
320,192,33606,1,2,0:0:0:0:
64,192,33762,128,0,33917:0:0:0:0:
448,192,33917,128,2,34073:0:0:0:0:
192,192,34073,128,0,34228:0:0:0:0:
320,192,34228,128,2,34850:0:0:0:0:
192,192,34539,1,2,0:0:0:0:
64,192,34850,128,2,35161:0:0:0:0:
320,192,35161,128,2,35472:0:0:0:0:
192,192,35472,128,2,35627:0:0:0:0:
192,192,35783,128,2,35938:0:0:0:0:
64,192,35938,128,0,36093:0:0:0:0:
448,192,36093,128,2,36249:0:0:0:0:
320,192,36249,128,0,36404:0:0:0:0:
192,192,36404,128,2,36560:0:0:0:0:
64,192,36560,128,0,36715:0:0:0:0:
320,192,36715,128,2,36871:0:0:0:0:
192,192,36871,128,0,37026:0:0:0:0:
448,192,37026,128,2,37182:0:0:0:0:
320,192,37182,128,0,37337:0:0:0:0:
192,192,37337,128,2,37492:0:0:0:0:
192,192,37648,128,2,37803:0:0:0:0:
320,192,37803,128,0,37959:0:0:0:0:
448,192,37959,128,2,38114:0:0:0:0:
64,192,38114,128,0,38270:0:0:0:0:
448,192,38270,128,2,38425:0:0:0:0:
64,192,38425,128,0,38580:0:0:0:0:
320,192,38580,128,2,38736:0:0:0:0:
192,192,38736,128,0,38891:0:0:0:0:
448,192,38891,128,2,39047:0:0:0:0:
320,192,39047,128,0,39202:0:0:0:0:
192,192,39202,1,2,0:0:0:0:
64,192,39358,1,2,0:0:0:0:
320,192,39513,1,2,0:0:0:0:
192,192,39669,1,2,0:0:0:0:
448,192,39824,128,2,39979:0:0:0:0:
64,192,39979,128,2,40135:0:0:0:0:
320,192,40135,128,2,40446:0:0:0:0:
192,192,40290,128,2,40446:0:0:0:0:
64,192,40446,1,2,0:0:0:0:
448,192,40446,1,0,0:0:0:0:
64,192,40601,1,2,0:0:0:0:
320,192,40757,1,8,0:0:0:0:
448,192,40757,1,0,0:0:0:0:
192,192,40912,1,0,0:0:0:0:
64,192,41068,1,2,0:0:0:0:
320,192,41223,1,0,0:0:0:0:
192,192,41378,1,8,0:0:0:0:
448,192,41378,1,0,0:0:0:0:
64,192,41534,1,0,0:0:0:0:
192,192,41689,1,2,0:0:0:0:
320,192,41689,128,0,42000:0:0:0:0:
64,192,42000,1,8,0:0:0:0:
448,192,42000,1,0,0:0:0:0:
320,192,42156,1,0,0:0:0:0:
320,192,42466,1,0,0:0:0:0:
64,192,42622,1,8,0:0:0:0:
192,192,42622,1,0,0:0:0:0:
448,192,42777,1,0,0:0:0:0:
320,192,42933,1,2,0:0:0:0:
64,192,43244,1,8,0:0:0:0:
448,192,43244,1,0,0:0:0:0:
320,192,43555,1,2,0:0:0:0:
64,192,43710,128,0,43865:0:0:0:0:
320,192,43865,1,8,0:0:0:0:
448,192,43865,1,0,0:0:0:0:
192,192,44021,1,0,0:0:0:0:
64,192,44176,1,2,0:0:0:0:
320,192,44176,128,0,44798:0:0:0:0:
448,192,44487,1,8,0:0:0:0:
192,192,44798,128,2,45109:0:0:0:0:
320,192,45109,128,8,45420:0:0:0:0:
448,192,45109,1,0,0:0:0:0:
64,192,45420,1,2,0:0:0:0:
192,192,45731,1,8,0:0:0:0:
448,192,45731,1,0,0:0:0:0:
320,192,45886,1,0,0:0:0:0:
64,192,46042,1,2,0:0:0:0:
192,192,46197,1,0,0:0:0:0:
320,192,46353,1,8,0:0:0:0:
448,192,46353,1,0,0:0:0:0:
64,192,46508,1,0,0:0:0:0:
448,192,46663,1,2,0:0:0:0:
320,192,46819,1,0,0:0:0:0:
64,192,46974,1,8,0:0:0:0:
192,192,46974,1,0,0:0:0:0:
448,192,47130,1,0,0:0:0:0:
320,192,47285,128,2,47596:0:0:0:0:
192,192,47596,128,8,47907:0:0:0:0:
448,192,47596,1,0,0:0:0:0:
320,192,47907,1,2,0:0:0:0:
64,192,48218,1,8,0:0:0:0:
192,192,48218,1,0,0:0:0:0:
320,192,48529,1,2,0:0:0:0:
64,192,48840,1,8,0:0:0:0:
448,192,48840,1,0,0:0:0:0:
192,192,49150,1,2,0:0:0:0:
448,192,49306,1,0,0:0:0:0:
64,192,49461,1,8,0:0:0:0:
320,192,49461,1,0,0:0:0:0:
192,192,49617,1,0,0:0:0:0:
448,192,49772,1,2,0:0:0:0:
320,192,49928,1,0,0:0:0:0:
192,192,50083,1,8,0:0:0:0:
448,192,50083,1,0,0:0:0:0:
64,192,50239,1,0,0:0:0:0:
320,192,50394,1,6,0:0:0:0:
448,192,50394,1,0,0:0:0:0:
192,192,50549,1,0,0:0:0:0:
64,192,50705,1,8,0:0:0:0:
320,192,50705,1,0,0:0:0:0:
448,192,50860,1,0,0:0:0:0:
320,192,51016,1,2,0:0:0:0:
192,192,51171,128,0,51327:0:0:0:0:
64,192,51327,1,8,0:0:0:0:
448,192,51327,1,0,0:0:0:0:
192,192,51482,1,0,0:0:0:0:
320,192,51637,128,2,51948:0:0:0:0:
64,192,51948,1,8,0:0:0:0:
192,192,51948,1,0,0:0:0:0:
448,192,52104,1,0,0:0:0:0:
320,192,52259,1,2,0:0:0:0:
192,192,52415,1,0,0:0:0:0:
64,192,52570,1,8,0:0:0:0:
448,192,52570,128,0,52881:0:0:0:0:
192,192,52881,1,2,0:0:0:0:
320,192,53036,1,0,0:0:0:0:
64,192,53192,1,8,0:0:0:0:
192,192,53192,1,0,0:0:0:0:
448,192,53347,1,0,0:0:0:0:
320,192,53503,1,2,0:0:0:0:
192,192,53658,128,0,53814:0:0:0:0:
64,192,53814,1,8,0:0:0:0:
448,192,53814,1,0,0:0:0:0:
320,192,53969,1,0,0:0:0:0:
448,192,54125,128,2,54591:0:0:0:0:
192,192,54435,1,8,0:0:0:0:
320,192,54435,1,0,0:0:0:0:
64,192,54591,1,0,0:0:0:0:
192,192,54746,1,2,0:0:0:0:
448,192,54979,1,0,0:0:0:0:
320,192,55213,1,0,0:0:0:0:
64,192,55368,1,2,0:0:0:0:
192,192,55368,1,4,0:0:0:0:
320,192,55601,1,2,0:0:0:0:
448,192,55601,1,4,0:0:0:0:
64,192,55834,1,2,0:0:0:0:
192,192,55834,1,4,0:0:0:0:
320,192,55990,1,2,0:0:0:0:
448,192,55990,1,4,0:0:0:0:
192,192,56301,1,8,0:0:0:0:
320,192,56301,1,2,0:0:0:0:
320,192,56612,1,2,0:0:0:0:
448,192,56612,1,4,0:0:0:0:
64,192,56845,1,2,0:0:0:0:
192,192,56845,1,4,0:0:0:0:
320,192,57078,1,2,0:0:0:0:
448,192,57078,1,4,0:0:0:0:
64,192,57233,1,2,0:0:0:0:
192,192,57233,1,4,0:0:0:0:
192,192,57544,1,2,0:0:0:0:
320,192,57544,1,8,0:0:0:0:
192,192,57855,1,8,0:0:0:0:
320,192,58011,1,8,0:0:0:0:
64,192,58166,1,8,0:0:0:0:
448,192,58166,1,4,0:0:0:0:
192,192,58321,1,8,0:0:0:0:
320,192,58477,1,8,0:0:0:0:
192,192,58632,1,8,0:0:0:0:
320,192,58788,1,12,0:0:0:0:
192,192,58943,1,8,0:0:0:0:
64,192,59099,1,2,0:0:0:0:
448,192,59099,1,4,0:0:0:0:
192,192,59332,1,2,0:0:0:0:
320,192,59409,1,8,0:0:0:0:
448,192,59565,1,2,0:0:0:0:
192,192,59643,1,2,0:0:0:0:
320,192,59720,1,0,0:0:0:0:
64,192,59798,1,2,0:0:0:0:
192,192,59876,1,2,0:0:0:0:
320,192,60031,1,2,0:0:0:0:
448,192,60031,1,0,0:0:0:60:pssh.wav
192,192,60187,1,0,0:0:0:0:
64,192,60342,1,2,0:0:0:0:
448,192,60342,1,4,0:0:0:0:
320,192,60549,1,0,0:0:0:0:
192,192,60653,1,10,0:0:0:0:
448,192,60757,1,0,0:0:0:0:
320,192,60860,1,0,0:0:0:0:
192,192,60964,1,2,0:0:0:0:
64,192,61068,1,0,0:0:0:0:
320,192,61171,1,0,0:0:0:0:
192,192,61275,1,10,0:0:0:0:
448,192,61378,1,0,0:0:0:0:
320,192,61482,1,0,0:0:0:0:
64,192,61586,1,2,0:0:0:0:
192,192,61586,1,0,0:0:0:0:
320,192,61793,1,0,0:0:0:0:
448,192,61897,1,10,0:0:0:0:
192,192,62000,1,0,0:0:0:0:
320,192,62104,1,0,0:0:0:0:
64,192,62207,1,2,0:0:0:0:
192,192,62207,1,0,0:0:0:0:
320,192,62518,1,8,0:0:0:0:
192,192,62622,1,8,0:0:0:0:
64,192,62726,1,8,0:0:0:0:
320,192,62829,1,2,0:0:0:0:
448,192,62829,1,0,0:0:0:0:
192,192,62933,1,0,0:0:0:0:
320,192,63036,1,0,0:0:0:0:
448,192,63140,1,10,0:0:0:0:
192,192,63244,1,0,0:0:0:0:
320,192,63347,1,0,0:0:0:0:
64,192,63451,1,2,0:0:0:0:
448,192,63451,1,0,0:0:0:0:
192,192,63555,1,0,0:0:0:0:
320,192,63658,1,0,0:0:0:0:
64,192,63762,1,10,0:0:0:0:
192,192,63865,1,0,0:0:0:0:
320,192,63969,1,0,0:0:0:0:
64,192,64073,128,2,64384:0:0:0:0:
448,192,64073,1,0,0:0:0:0:
192,192,64384,128,2,64694:0:0:0:0:
320,192,64384,1,8,0:0:0:0:
64,192,64694,1,2,0:0:0:0:
320,192,64694,128,0,65005:0:0:0:0:
192,192,65005,1,2,0:0:0:0:
448,192,65005,128,8,65316:0:0:0:0:
64,192,65316,1,2,0:0:0:0:
320,192,65316,1,0,0:0:0:0:
192,192,65420,1,0,0:0:0:0:
448,192,65523,1,0,0:0:0:0:
320,192,65627,1,10,0:0:0:0:
64,192,65731,1,0,0:0:0:0:
192,192,65834,1,0,0:0:0:0:
320,192,65938,1,2,0:0:0:0:
448,192,65938,1,0,0:0:0:0:
64,192,66042,1,0,0:0:0:0:
192,192,66145,1,0,0:0:0:0:
448,192,66249,1,10,0:0:0:0:
320,192,66353,1,0,0:0:0:0:
192,192,66456,1,0,0:0:0:0:
64,192,66560,1,2,0:0:0:0:
448,192,66560,1,0,0:0:0:0:
320,192,66663,1,0,0:0:0:0:
192,192,66767,1,0,0:0:0:0:
64,192,66871,1,10,0:0:0:0:
320,192,67078,1,0,0:0:0:0:
64,192,67182,1,2,0:0:0:0:
448,192,67182,1,0,0:0:0:0:
192,192,67285,1,0,0:0:0:0:
320,192,67389,1,0,0:0:0:0:
448,192,67492,1,10,0:0:0:0:
64,192,67596,1,0,0:0:0:0:
192,192,67700,1,0,0:0:0:0:
320,192,67803,1,2,0:0:0:0:
448,192,67803,1,0,0:0:0:0:
64,192,68114,1,8,0:0:0:0:
192,192,68218,1,8,0:0:0:0:
320,192,68321,1,8,0:0:0:0:
64,192,68425,1,2,0:0:0:0:
448,192,68425,1,0,0:0:0:0:
448,192,68736,1,8,0:0:0:0:
320,192,68840,1,8,0:0:0:0:
192,192,68943,1,8,0:0:0:0:
64,192,69047,1,2,0:0:0:0:
448,192,69047,1,0,0:0:0:0:
64,192,69358,1,2,0:0:0:0:
192,192,69358,1,8,0:0:0:0:
448,192,69669,128,6,70290:0:0:0:0:
64,192,69979,128,6,70290:0:0:0:0:
192,192,70290,1,2,0:0:0:0:
320,192,70290,1,4,0:0:0:0:
448,192,70523,1,0,0:0:0:0:
320,192,70757,1,0,0:0:0:0:
64,192,70912,1,2,0:0:0:0:
192,192,70912,1,0,0:0:0:0:
320,192,71145,1,0,0:0:0:0:
192,192,71378,1,0,0:0:0:0:
64,192,71534,1,2,0:0:0:0:
448,192,71534,1,0,0:0:0:0:
192,192,71689,1,0,0:0:0:0:
320,192,71845,1,8,0:0:0:0:
64,192,72000,1,0,0:0:0:0:
320,192,72156,1,2,0:0:0:0:
448,192,72156,1,0,0:0:0:0:
192,192,72311,1,0,0:0:0:0:
448,192,72466,1,8,0:0:0:0:
320,192,72622,1,0,0:0:0:0:
64,192,72777,1,2,0:0:0:0:
192,192,72777,1,4,0:0:0:0:
320,192,73011,1,2,0:0:0:0:
448,192,73011,1,4,0:0:0:0:
192,192,73244,1,6,0:0:0:0:
64,192,73399,1,2,0:0:0:0:
448,192,73399,1,4,0:0:0:0:
192,192,73632,1,2,0:0:0:0:
320,192,73632,1,4,0:0:0:0:
64,192,73865,1,6,0:0:0:0:
320,192,74021,1,2,0:0:0:0:
448,192,74021,1,4,0:0:0:0:
192,192,74176,1,6,0:0:0:0:
64,192,74332,1,2,0:0:0:0:
448,192,74332,1,4,0:0:0:0:
320,192,74487,1,6,0:0:0:0:
64,192,74643,1,2,0:0:0:0:
192,192,74643,1,4,0:0:0:0:
64,192,74954,1,2,0:0:0:0:
448,192,74954,1,0,0:0:0:60:wou.wav
320,192,75264,1,4,0:0:0:0:
448,192,75264,1,2,0:0:0:0:
64,192,75420,1,0,0:0:0:0:
192,192,75575,1,8,0:0:0:0:
320,192,75731,1,0,0:0:0:0:
192,192,75886,1,2,0:0:0:0:
448,192,75886,1,0,0:0:0:0:
64,192,76042,1,0,0:0:0:0:
320,192,76197,1,8,0:0:0:0:
192,192,76353,1,0,0:0:0:0:
64,192,76508,1,2,0:0:0:0:
448,192,76508,1,0,0:0:0:0:
192,192,76663,1,0,0:0:0:0:
320,192,76819,1,8,0:0:0:0:
448,192,76974,1,0,0:0:0:0:
64,192,77130,1,2,0:0:0:0:
320,192,77130,1,0,0:0:0:0:
192,192,77285,1,0,0:0:0:0:
448,192,77441,1,8,0:0:0:0:
320,192,77596,1,0,0:0:0:0:
64,192,77751,1,2,0:0:0:0:
448,192,77751,1,4,0:0:0:0:
192,192,77907,1,0,0:0:0:0:
320,192,78062,1,8,0:0:0:0:
64,192,78373,1,2,0:0:0:0:
448,192,78373,1,4,0:0:0:0:
320,192,78529,1,0,0:0:0:0:
192,192,78684,1,8,0:0:0:0:
64,192,78840,1,0,0:0:0:0:
192,192,78995,1,2,0:0:0:0:
448,192,78995,1,4,0:0:0:0:
320,192,79150,1,0,0:0:0:0:
64,192,79306,1,2,0:0:0:0:
448,192,79306,1,4,0:0:0:0:
192,192,79461,1,0,0:0:0:0:
64,192,79617,1,2,0:0:0:0:
320,192,79617,128,4,80239:0:0:0:0:
192,192,79928,128,2,80239:0:0:0:0:
448,192,79928,1,0,0:0:0:0:
64,192,80239,1,2,0:0:0:0:
448,192,80239,1,4,0:0:0:0:
320,192,80472,1,0,0:0:0:0:
192,192,80705,1,0,0:0:0:0:
320,192,80860,1,2,0:0:0:0:
448,192,80860,1,0,0:0:0:0:
192,192,81016,1,0,0:0:0:0:
64,192,81171,1,8,0:0:0:0:
448,192,81171,1,0,0:0:0:0:
320,192,81327,1,0,0:0:0:0:
64,192,81482,1,4,0:0:0:0:
192,192,81482,1,2,0:0:0:0:
320,192,81715,1,0,0:0:0:0:
448,192,81948,1,0,0:0:0:0:
192,192,82104,1,2,0:0:0:0:
320,192,82104,1,0,0:0:0:0:
64,192,82259,1,0,0:0:0:0:
192,192,82415,1,8,0:0:0:0:
448,192,82415,1,0,0:0:0:0:
320,192,82570,1,0,0:0:0:0:
64,192,82726,1,4,0:0:0:0:
192,192,82726,1,2,0:0:0:0:
448,192,82881,1,2,0:0:0:0:
192,192,83036,1,2,0:0:0:0:
320,192,83192,1,2,0:0:0:0:
64,192,83347,1,2,0:0:0:0:
448,192,83347,1,4,0:0:0:0:
192,192,83503,1,0,0:0:0:0:
320,192,83658,1,8,0:0:0:0:
64,192,83814,1,2,0:0:0:0:
320,192,83969,1,2,0:0:0:0:
448,192,83969,1,4,0:0:0:0:
64,192,84202,1,2,0:0:0:0:
192,192,84202,1,4,0:0:0:0:
320,192,84435,1,6,0:0:0:0:
192,192,84513,1,0,0:0:0:0:
448,192,84591,1,6,0:0:0:0:
192,192,84746,1,6,0:0:0:0:
320,192,84824,1,0,0:0:0:0:
64,192,84902,1,4,0:0:0:0:
448,192,84902,128,0,85213:0:0:0:0:
64,192,85213,1,4,0:0:0:0:
192,192,85213,1,2,0:0:0:0:
320,192,85368,1,2,0:0:0:0:
448,192,85523,1,8,0:0:0:0:
64,192,85834,1,2,0:0:0:0:
192,192,85834,1,0,0:0:0:0:
320,192,85990,1,0,0:0:0:0:
448,192,86145,1,8,0:0:0:0:
192,192,86301,1,2,0:0:0:0:
64,192,86456,1,2,0:0:0:0:
320,192,86456,1,0,0:0:0:0:
448,192,86612,1,2,0:0:0:0:
192,192,86767,1,8,0:0:0:0:
64,192,86922,1,0,0:0:0:0:
320,192,87078,1,2,0:0:0:0:
448,192,87078,1,0,0:0:0:0:
64,192,87233,1,0,0:0:0:0:
320,192,87389,1,8,0:0:0:0:
192,192,87544,1,2,0:0:0:0:
64,192,87700,128,0,87855:0:0:0:0:
192,192,87855,128,0,88011:0:0:0:0:
320,192,88011,128,6,88321:0:0:0:0:
448,192,88011,1,0,0:0:0:0:
64,192,88321,128,0,88477:0:0:0:0:
192,192,88477,128,0,88632:0:0:0:0:
320,192,88632,1,6,0:0:0:0:
448,192,88632,128,0,88788:0:0:0:0:
64,192,88788,128,0,88943:0:0:0:0:
192,192,88943,128,0,89099:0:0:0:0:
320,192,89099,128,4,89254:0:0:0:0:
448,192,89099,1,2,0:0:0:0:
192,192,89254,128,0,89409:0:0:0:0:
320,192,89409,128,4,89565:0:0:0:0:
448,192,89409,1,2,0:0:0:0:
192,192,89565,1,4,0:0:0:0:
64,192,89565,128,2,89720:0:0:0:0:
448,192,89720,1,2,0:0:0:0:
192,192,89798,1,2,0:0:0:0:
64,192,90031,1,2,0:0:0:0:
192,192,90187,1,4,0:0:0:0:
320,192,90187,1,2,0:0:0:0:
64,192,90342,1,0,0:0:0:0:
192,192,90420,1,0,0:0:0:0:
320,192,90498,1,8,0:0:0:0:
192,192,90653,1,0,0:0:0:0:
320,192,90731,1,0,0:0:0:0:
448,192,90808,1,2,0:0:0:0:
64,192,90964,1,0,0:0:0:0:
320,192,91042,1,0,0:0:0:0:
192,192,91119,1,8,0:0:0:0:
320,192,91275,1,2,0:0:0:0:
448,192,91275,1,4,0:0:0:0:
64,192,91430,1,2,0:0:0:0:
192,192,91430,1,4,0:0:0:0:
320,192,91586,1,0,0:0:0:0:
192,192,91663,1,0,0:0:0:0:
448,192,91741,1,8,0:0:0:0:
320,192,91897,1,0,0:0:0:0:
192,192,91974,1,0,0:0:0:0:
64,192,92052,1,2,0:0:0:0:
320,192,92207,1,0,0:0:0:0:
192,192,92285,1,0,0:0:0:0:
448,192,92363,1,8,0:0:0:0:
320,192,92518,1,0,0:0:0:0:
192,192,92596,1,0,0:0:0:0:
64,192,92674,1,2,0:0:0:0:
448,192,92674,1,4,0:0:0:0:
320,192,92829,1,0,0:0:0:0:
192,192,92907,1,0,0:0:0:0:
64,192,92985,1,8,0:0:0:0:
192,192,93062,1,0,0:0:0:0:
320,192,93140,1,0,0:0:0:0:
64,192,93296,1,4,0:0:0:0:
448,192,93296,1,2,0:0:0:0:
192,192,93451,1,0,0:0:0:0:
320,192,93529,1,0,0:0:0:0:
448,192,93606,1,8,0:0:0:0:
320,192,93684,1,0,0:0:0:0:
192,192,93762,1,0,0:0:0:0:
64,192,93917,1,2,0:0:0:0:
448,192,93917,1,4,0:0:0:0:
192,192,94228,1,8,0:0:0:0:
448,192,94228,1,4,0:0:0:0:
64,192,94539,1,2,0:0:0:0:
320,192,94539,1,4,0:0:0:0:
320,192,94850,1,0,0:0:0:0:
448,192,94850,1,0,0:0:0:60:pssh.wav
192,192,95005,1,0,0:0:0:0:
64,192,95161,1,2,0:0:0:0:
448,192,95161,1,4,0:0:0:0:
320,192,95316,1,0,0:0:0:0:
320,192,95472,1,0,0:0:0:0:
448,192,95627,1,0,0:0:0:0:
64,192,95783,1,0,0:0:0:0:
192,192,95938,1,0,0:0:0:0:
320,192,96093,1,0,0:0:0:0:
448,192,96249,1,0,0:0:0:0:
64,192,96404,1,0,0:0:0:0:
320,192,96560,1,2,0:0:0:0:
192,192,96715,1,2,0:0:0:0:
320,192,96871,1,2,0:0:0:0:
192,192,97026,1,2,0:0:0:0:
320,192,97182,1,2,0:0:0:0:
64,192,97337,1,2,0:0:0:0:
448,192,97337,1,0,0:0:0:60:wou.wav
192,192,97492,1,0,0:0:0:0:
320,192,97648,1,2,0:0:0:0:
448,192,97648,128,4,97803:0:0:0:0:
192,192,97803,128,0,97959:0:0:0:0:
64,192,97959,128,8,98270:0:0:0:0:
320,192,98270,128,2,98425:0:0:0:0:
448,192,98270,1,4,0:0:0:0:
192,192,98425,128,0,98580:0:0:0:0:
448,192,98580,128,0,98736:0:0:0:0:
320,192,98736,128,0,98891:0:0:0:0:
64,192,98891,1,2,0:0:0:0:
192,192,98891,128,4,99047:0:0:0:0:
448,192,99047,128,0,99202:0:0:0:0:
64,192,99202,128,2,99358:0:0:0:0:
192,192,99202,1,4,0:0:0:0:
320,192,99358,128,0,99513:0:0:0:0:
64,192,99513,1,2,0:0:0:0:
448,192,99513,128,4,99669:0:0:0:0:
192,192,99669,1,0,0:0:0:0:
320,192,99824,1,8,0:0:0:0:
448,192,99979,1,0,0:0:0:0:
64,192,100135,1,2,0:0:0:0:
192,192,100135,1,4,0:0:0:0:
320,192,100368,1,0,0:0:0:0:
448,192,100601,1,0,0:0:0:0:
64,192,100757,1,2,0:0:0:0:
320,192,100757,1,0,0:0:0:0:
192,192,100912,1,0,0:0:0:0:
448,192,101068,1,8,0:0:0:0:
320,192,101223,1,0,0:0:0:0:
64,192,101378,1,2,0:0:0:0:
192,192,101378,1,4,0:0:0:0:
320,192,101612,1,0,0:0:0:0:
448,192,101845,1,0,0:0:0:0:
64,192,102000,1,2,0:0:0:0:
192,192,102000,1,0,0:0:0:0:
320,192,102156,1,0,0:0:0:0:
192,192,102311,1,8,0:0:0:0:
448,192,102466,1,0,0:0:0:0:
64,192,102622,1,2,0:0:0:0:
192,192,102622,1,4,0:0:0:0:
320,192,102777,1,2,0:0:0:0:
448,192,102933,1,2,0:0:0:0:
192,192,103088,1,2,0:0:0:0:
64,192,103244,1,2,0:0:0:0:
320,192,103244,1,4,0:0:0:0:
448,192,103399,1,0,0:0:0:0:
320,192,103555,1,8,0:0:0:0:
192,192,103710,1,2,0:0:0:0:
64,192,103865,1,2,0:0:0:0:
448,192,103865,1,4,0:0:0:0:
320,192,104021,1,2,0:0:0:0:
448,192,104176,1,2,0:0:0:0:
192,192,104332,1,2,0:0:0:0:
64,192,104487,1,2,0:0:0:0:
448,192,104487,128,0,104798:0:0:0:0:
64,192,104798,1,2,0:0:0:0:
192,192,104798,1,0,0:0:0:0:
320,192,104954,1,0,0:0:0:0:
64,192,105109,1,2,0:0:0:0:
448,192,105109,1,4,0:0:0:0:
320,192,105264,1,2,0:0:0:0:
448,192,105420,1,2,0:0:0:0:
192,192,105575,1,0,0:0:0:0:
64,192,105731,1,2,0:0:0:0:
320,192,105731,1,0,0:0:0:0:
448,192,105886,1,0,0:0:0:0:
320,192,106042,1,2,0:0:0:0:
192,192,106197,1,2,0:0:0:0:
64,192,106353,1,2,0:0:0:0:
448,192,106353,1,0,0:0:0:0:
320,192,106508,1,2,0:0:0:0:
192,192,106663,1,2,0:0:0:0:
448,192,106819,1,0,0:0:0:0:
64,192,106974,1,2,0:0:0:0:
192,192,106974,1,0,0:0:0:0:
320,192,107130,1,0,0:0:0:0:
64,192,107285,1,2,0:0:0:0:
192,192,107441,1,2,0:0:0:0:
448,192,107596,128,0,107751:0:0:0:0:
320,192,107751,128,0,107907:0:0:0:0:
64,192,107907,1,2,0:0:0:0:
192,192,107907,128,4,108218:0:0:0:0:
448,192,108218,128,0,108373:0:0:0:0:
320,192,108373,128,0,108529:0:0:0:0:
64,192,108529,128,2,108684:0:0:0:0:
192,192,108529,1,4,0:0:0:0:
448,192,108684,128,0,108840:0:0:0:0:
320,192,108840,128,0,108995:0:0:0:0:
64,192,108995,1,2,0:0:0:0:
192,192,108995,128,4,109150:0:0:0:0:
320,192,109150,128,0,109306:0:0:0:0:
64,192,109306,1,2,0:0:0:0:
192,192,109306,128,4,109461:0:0:0:0:
320,192,109461,1,2,0:0:0:0:
448,192,109461,128,4,109617:0:0:0:0:
64,192,109617,1,2,0:0:0:0:
320,192,109694,1,2,0:0:0:0:
448,192,109928,1,2,0:0:0:0:
192,192,110083,1,4,0:0:0:0:
320,192,110083,1,2,0:0:0:0:
64,192,110239,1,0,0:0:0:0:
192,192,110316,1,0,0:0:0:0:
320,192,110394,1,8,0:0:0:0:
192,192,110549,1,0,0:0:0:0:
320,192,110627,1,0,0:0:0:0:
448,192,110705,1,2,0:0:0:0:
192,192,110860,1,0,0:0:0:0:
320,192,110938,1,0,0:0:0:0:
64,192,111016,1,8,0:0:0:0:
320,192,111171,1,2,0:0:0:0:
448,192,111171,1,4,0:0:0:0:
64,192,111327,1,4,0:0:0:0:
192,192,111327,1,2,0:0:0:0:
320,192,111482,1,0,0:0:0:0:
192,192,111560,1,0,0:0:0:0:
448,192,111637,1,8,0:0:0:0:
320,192,111793,1,0,0:0:0:0:
192,192,111871,1,0,0:0:0:0:
64,192,111948,1,2,0:0:0:0:
448,192,112104,1,0,0:0:0:0:
320,192,112182,1,0,0:0:0:0:
192,192,112259,1,8,0:0:0:0:
320,192,112415,1,0,0:0:0:0:
192,192,112492,1,0,0:0:0:0:
64,192,112570,1,4,0:0:0:0:
448,192,112570,1,2,0:0:0:0:
320,192,112726,1,0,0:0:0:0:
192,192,112803,1,0,0:0:0:0:
64,192,112881,1,8,0:0:0:0:
192,192,112959,1,0,0:0:0:0:
320,192,113036,1,0,0:0:0:0:
64,192,113192,1,4,0:0:0:0:
448,192,113192,1,2,0:0:0:0:
192,192,113347,1,0,0:0:0:0:
320,192,113425,1,0,0:0:0:0:
448,192,113503,1,8,0:0:0:0:
320,192,113580,1,0,0:0:0:0:
192,192,113658,1,0,0:0:0:0:
320,192,113814,1,2,0:0:0:0:
448,192,113814,1,4,0:0:0:0:
64,192,113969,1,4,0:0:0:0:
192,192,113969,1,2,0:0:0:0:
320,192,114125,1,8,0:0:0:0:
192,192,114280,1,0,0:0:0:0:
64,192,114435,1,2,0:0:0:0:
448,192,114435,1,4,0:0:0:0:
320,192,114591,1,0,0:0:0:0:
64,192,114746,1,0,0:0:0:60:pssh.wav
192,192,114746,1,0,0:0:0:0:
448,192,114902,1,0,0:0:0:0:
192,192,115057,1,2,0:0:0:0:
320,192,115057,1,4,0:0:0:0:
192,192,115290,1,0,0:0:0:0:
320,192,115290,1,0,0:0:0:0:
448,192,115523,1,0,0:0:0:0:
64,192,115679,1,2,0:0:0:0:
320,192,115679,1,0,0:0:0:0:
192,192,115912,1,0,0:0:0:0:
448,192,115912,1,0,0:0:0:0:
64,192,116145,1,0,0:0:0:0:
448,192,116301,1,2,0:0:0:0:
320,192,116378,1,0,0:0:0:0:
192,192,116456,1,0,0:0:0:0:
64,192,116534,1,0,0:0:0:0:
448,192,116612,1,8,0:0:0:0:
192,192,116767,1,0,0:0:0:0:
64,192,116922,1,2,0:0:0:0:
320,192,116922,1,0,0:0:0:0:
448,192,117233,1,8,0:0:0:0:
192,192,117389,1,0,0:0:0:0:
64,192,117544,1,2,0:0:0:0:
448,192,117544,1,0,0:0:0:0:
192,192,117777,1,0,0:0:0:0:
320,192,117777,1,0,0:0:0:0:
448,192,118011,1,0,0:0:0:0:
64,192,118166,1,2,0:0:0:0:
192,192,118244,1,0,0:0:0:0:
320,192,118321,1,0,0:0:0:0:
448,192,118477,1,8,0:0:0:0:
192,192,118632,1,0,0:0:0:0:
320,192,118710,1,0,0:0:0:0:
64,192,118788,1,2,0:0:0:0:
320,192,119021,1,0,0:0:0:0:
448,192,119021,1,0,0:0:0:0:
192,192,119254,1,0,0:0:0:0:
320,192,119254,1,0,0:0:0:0:
64,192,119409,1,2,0:0:0:0:
192,192,119487,1,0,0:0:0:0:
320,192,119565,1,0,0:0:0:0:
64,192,119720,1,8,0:0:0:0:
448,192,119876,1,0,0:0:0:0:
192,192,120031,1,2,0:0:0:0:
320,192,120031,1,4,0:0:0:0:
448,192,120187,1,2,0:0:0:0:
64,192,120342,1,8,0:0:0:0:
192,192,120498,1,2,0:0:0:0:
320,192,120575,1,0,0:0:0:0:
64,192,120653,1,2,0:0:0:0:
448,192,120731,1,0,0:0:0:0:
192,192,120808,1,2,0:0:0:0:
320,192,120964,1,8,0:0:0:0:
192,192,121119,1,2,0:0:0:0:
320,192,121197,1,2,0:0:0:0:
64,192,121275,1,2,0:0:0:0:
448,192,121275,1,4,0:0:0:0:
192,192,121430,1,2,0:0:0:0:
320,192,121508,1,0,0:0:0:0:
64,192,121586,1,8,0:0:0:0:
320,192,121741,1,2,0:0:0:0:
192,192,121819,1,0,0:0:0:0:
448,192,121897,1,2,0:0:0:0:
192,192,122052,1,2,0:0:0:0:
320,192,122130,1,0,0:0:0:0:
64,192,122207,1,8,0:0:0:0:
320,192,122363,1,2,0:0:0:0:
448,192,122441,1,2,0:0:0:0:
64,192,122518,1,4,0:0:0:0:
192,192,122518,1,2,0:0:0:0:
192,192,122674,1,2,0:0:0:0:
192,192,122829,1,2,0:0:0:0:
192,192,122985,1,2,0:0:0:0:
320,192,123140,1,2,0:0:0:0:
448,192,123140,1,4,0:0:0:0:
320,192,123296,1,2,0:0:0:0:
320,192,123451,1,2,0:0:0:0:
320,192,123606,1,2,0:0:0:0:
64,192,123762,1,2,0:0:0:0:
192,192,123762,1,4,0:0:0:0:
64,192,123917,1,2,0:0:0:0:
320,192,124073,1,8,0:0:0:0:
192,192,124306,1,8,0:0:0:0:
192,192,124461,1,8,0:0:0:0:
320,192,124539,1,2,0:0:0:0:
64,192,124694,1,4,0:0:0:0:
448,192,124694,1,0,0:0:0:0:
