osu file format v14

[General]
AudioFilename: audio.ogg
AudioLeadIn: 0
PreviewTime: 59245
Countdown: 0
SampleSet: Soft
StackLeniency: 0.5
Mode: 0
LetterboxInBreaks: 0
WidescreenStoryboard: 1

[Editor]
Bookmarks: 3947,18275,30812,45141,59469,73797,88126,108612,124731,139059
DistanceSpacing: 1
BeatDivisor: 4
GridSize: 4
TimelineZoom: 1

[Metadata]
Title:Pastel Sprinkles
TitleUnicode:Pastel Sprinkles
Artist:pan
ArtistUnicode:pan
Creator:ktgster
Version:Normal
Source:オンゲキ R.E.D PLUS
Tags:ongeki red rhythm game instrumental electronic happy trance Sound Collection 06 six Transcend Lights
BeatmapID:4296500
BeatmapSetID:2043616

[Difficulty]
HPDrainRate:3
CircleSize:3
OverallDifficulty:5
ApproachRate:5
SliderMultiplier:1.2
SliderTickRate:1

[Events]
//Background and Video events
0,0,"Picture1.jpg",0,0
//Break Periods
2,83655,86342
2,108811,114576
//Storyboard Layer 0 (Background)
//Storyboard Layer 1 (Fail)
//Storyboard Layer 2 (Pass)
//Storyboard Layer 3 (Foreground)
//Storyboard Layer 4 (Overlay)
//Storyboard Sound Samples

[TimingPoints]
365,447.761194029851,4,2,1,70,1,0
59469,-100,4,2,1,80,0,1
83648,-100,4,2,1,60,0,0
88126,-100,4,2,1,70,0,0
104806,447.761194029851,4,2,1,70,1,0
108612,447.761194029851,4,2,1,60,1,0
115776,-100,4,2,1,70,0,0
125179,-100,4,2,1,80,0,1
138612,-100,4,2,1,70,0,0
139059,-100,4,2,1,80,0,1
146112,-100,4,2,1,70,0,0

[Colours]
Combo1 : 255,201,36
Combo2 : 255,98,176
Combo3 : 183,183,255
Combo4 : 255,151,47

[HitObjects]
118,337,3947,6,0,L|140:207,1,120,2|0,1:2|1:2,0:0:0:0:
160,100,4842,1,2,1:2:0:0:
264,158,5290,2,0,L|253:217,1,60,2|0,1:2|0:2,0:0:0:0:
245,276,5738,5,0,1:2:0:0:
362,297,6185,1,2,1:2:0:0:
389,180,6633,1,2,1:2:0:0:
506,201,7081,1,2,1:2:0:0:
466,90,7529,6,0,L|336:68,1,120,2|2,1:2|1:2,0:0:0:0:
229,48,8424,1,0,1:2:0:0:
247,166,8872,2,0,L|188:177,1,60,0|0,1:2|0:2,0:0:0:0:
129,185,9320,2,0,L|151:55,2,120,0|0|6,1:2|1:2|1:2,0:0:0:0:
105,302,10663,1,2,0:2:0:0:
283,269,11223,6,0,L|294:328,1,60,14|14,1:2|1:2,0:0:0:0:
443,340,12006,2,0,L|425:234,1,90,14|14,1:2|0:2,0:0:0:0:
416,182,12603,1,12,1:2:0:0:
339,156,12902,2,0,L|316:20,2,120,2|10|10,0:2|0:2|0:2,0:0:0:0:
184,338,14693,5,8,1:2:0:0:
123,327,14917,2,0,L|105:221,1,90,12|12,1:2|1:2,0:0:0:0:
171,174,15588,2,0,L|150:55,1,120,12|12,1:2|1:2,0:0:0:0:
99,23,16260,1,2,1:2:0:0:
48,56,16484,5,14,1:2:0:0:
69,175,16932,1,14,0:2:0:0:
90,294,17379,1,12,1:2:0:0:
313,349,18163,6,0,L|425:329,1,90,14|0,1:2|1:2,0:0:0:0:
460,322,18723,1,10,1:2:0:0:
464,232,19059,2,0,L|397:243,1,60,14|14,1:2|1:2,0:0:0:0:
198,193,20066,6,0,L|302:174,2,90,14|14|14,1:2|1:2|1:2,0:0:0:0:
155,150,20962,1,8,1:2:0:0:
239,65,21409,1,14,1:2:0:0:
358,52,21857,6,0,L|417:41,2,60,2|2|2,1:2|0:2|0:2,0:0:0:0:
423,153,22753,2,0,L|482:164,2,60,2|2|2,0:2|0:2|0:2,0:0:0:0:
305,176,23648,1,2,0:2:0:0:
404,242,24096,1,2,0:2:0:0:
297,294,24544,2,0,L|286:353,2,60,2|2|2,0:2|0:2|0:2,0:0:0:0:
201,220,25439,5,2,0:2:0:0:
116,135,25887,2,0,L|105:76,2,60,2|2|2,0:2|0:2|0:2,0:0:0:0:
31,219,26782,1,2,0:2:0:0:
100,316,27230,6,0,L|300:278,1,180,6|2,1:2|1:2,0:0:0:0:
362,197,28350,1,2,0:2:0:0:
319,154,28573,2,0,L|260:165,1,60,2|2,1:2|0:2,0:0:0:0:
217,122,29021,2,0,L|234:24,2,90,2|0|2,1:2|1:2|1:2,0:0:0:0:
153,185,30029,1,2,1:2:0:0:
216,248,30365,1,2,1:2:0:0:
369,221,30812,6,0,L|403:37,1,180,10|8,1:2|1:2,0:0:0:0:
462,44,31708,2,0,L|473:103,1,60,10|10,1:2|1:2,0:0:0:0:
481,162,32156,1,8,1:2:0:0:
455,248,32491,6,0,L|466:307,2,60,10|10|10,1:2|1:2|1:2,0:0:0:0:
367,226,33275,1,10,1:2:0:0:
356,285,33499,2,0,L|258:302,1,90,10|10,1:2|1:2,0:0:0:0:
217,350,34096,6,0,L|119:367,1,80,10|10,1:2|1:2,0:0:0:0:
107,312,34618,1,2,0:2:0:0:
117,252,34842,2,0,L|214:234,1,90,2|10,0:2|1:2,0:0:0:0:
230,181,35402,6,0,L|327:163,1,90,10|8,1:2|1:2,0:0:0:0:
437,145,36185,1,10,1:2:0:0:
487,36,36633,1,10,1:2:0:0:
369,57,37081,2,0,L|242:79,1,120,10|10,1:2|1:2,0:0:0:0:
193,97,37753,1,2,0:2:0:0:
163,148,37976,5,4,1:2:0:0:
87,239,38424,2,0,L|28:228,2,60,10|2|2,1:2|0:2|1:2,0:0:0:0:
204,259,39320,1,8,1:2:0:0:
281,167,39767,5,0,1:2:0:0:
381,233,40215,2,0,L|440:222,1,60,10|2,1:2|0:2,0:0:0:0:
498,210,40663,1,2,1:2:0:0:
462,324,41111,1,10,1:2:0:0:
350,368,41559,5,2,1:2:0:0:
330,250,42006,1,8,1:2:0:0:
209,250,42454,1,2,1:2:0:0:
189,368,42902,2,0,L|130:357,1,60,10|2,1:2|0:2,0:0:0:0:
70,344,43350,5,12,1:2:0:0:
49,225,43797,1,12,1:2:0:0:
28,106,44245,1,14,1:2:0:0:
230,279,45141,5,6,1:2:0:0:
348,261,45588,2,0,L|407:250,1,60,8|2,0:2|0:2,0:0:0:0:
467,240,46036,1,2,1:2:0:0:
467,119,46484,2,0,L|408:108,1,60,8|2,0:2|0:2,0:0:0:0:
348,98,46932,2,0,L|331:0,2,90,2|2|2,1:2|0:2|0:2,0:0:0:0:
305,140,47827,1,2,1:2:0:0:
247,245,48275,6,0,L|236:304,1,60,8|0,1:2|0:2,0:0:0:0:
227,363,48723,2,0,L|325:346,2,90,2|2|2,1:2|0:2|0:2,0:0:0:0:
168,375,49618,1,2,1:2:0:0:
121,264,50066,5,8,0:2:0:0:
94,210,50290,1,2,0:2:0:0:
35,197,50514,2,0,L|18:295,2,90,2|2|2,1:2|0:2|0:2,0:0:0:0:
46,138,51409,1,2,1:2:0:0:
161,103,51857,1,8,1:2:0:0:
270,152,52305,5,10,1:2:0:0:
312,194,52529,2,0,L|291:312,1,120,0|2,1:2|1:2,0:0:0:0:
333,354,53200,1,10,1:2:0:0:
443,307,53648,1,2,1:2:0:0:
398,195,54096,5,10,1:2:0:0:
356,153,54320,2,0,L|237:173,1,120,0|0,1:2|1:2,0:0:0:0:
196,132,54991,1,10,1:2:0:0:
243,22,55439,1,2,1:2:0:0:
361,39,55887,5,10,1:2:0:0:
403,81,56111,2,0,L|462:70,2,60,2|2|2,1:2|1:2|1:2,0:0:0:0:
360,123,56782,1,10,1:2:0:0:
429,220,57230,1,10,1:2:0:0:
357,316,57678,2,0,L|475:336,2,120,10|2|2,3:2|3:2|3:2,0:0:0:0:
238,295,59021,1,8,1:2:0:0:
119,274,59469,6,0,L|86:85,1,180,6|2,1:2|0:2,0:0:0:0:
147,107,60365,2,0,L|129:4,2,90,2|2|2,1:2|0:2|0:2,0:0:0:0:
204,123,61260,1,2,1:2:0:0:
224,241,61708,1,10,0:2:0:0:
244,359,62156,1,2,1:2:0:0:
300,340,62379,1,2,0:2:0:0:
330,288,62603,1,10,0:2:0:0:
351,169,63051,6,0,L|371:50,1,120,2|10,1:2|0:2,0:0:0:0:
423,21,63723,1,2,0:2:0:0:
474,50,63947,2,0,L|494:168,1,120,2|10,1:2|0:2,0:0:0:0:
477,287,64842,1,2,1:2:0:0:
362,250,65290,1,10,0:2:0:0:
267,324,65738,2,0,L|256:383,2,60,2|2|10,1:2|0:2|0:2,0:0:0:0:
241,269,66409,1,2,0:2:0:0:
184,250,66633,5,2,1:2:0:0:
184,129,67081,1,10,0:2:0:0:
239,103,67305,1,2,0:2:0:0:
255,46,67529,2,0,L|357:63,2,90,2|2|2,1:2|0:2|0:2,0:0:0:0:
196,32,68424,1,2,1:2:0:0:
99,103,68872,1,10,0:2:0:0:
91,222,69320,1,2,1:2:0:0:
121,274,69544,1,2,0:2:0:0:
177,293,69767,1,10,0:2:0:0:
294,268,70215,6,0,L|305:200,1,60,2|2,1:2|0:2,0:0:0:0:
315,149,70663,1,10,0:2:0:0:
431,179,71111,2,0,L|442:111,1,60,2|2,1:2|0:2,0:0:0:0:
452,60,71559,1,10,0:2:0:0:
339,17,72006,1,2,1:2:0:0:
224,51,72454,2,0,L|212:118,2,60,10|0|2,0:2|0:2|1:2,0:0:0:0:
321,122,73350,5,10,0:2:0:0:
302,178,73573,1,2,0:2:0:0:
250,208,73797,2,0,L|115:184,1,120,6|8,1:2|0:2,0:0:0:0:
79,217,74469,1,2,0:2:0:0:
60,273,74693,2,0,L|77:375,2,90,2|2|2,1:2|0:2|0:2,0:0:0:0:
9,240,75588,1,2,1:2:0:0:
51,127,76036,1,10,0:2:0:0:
152,191,76484,2,0,L|163:259,1,60,2|2,1:2|0:2,0:0:0:0:
173,310,76932,1,10,0:2:0:0:
283,356,77379,6,0,L|402:336,1,120,2|10,1:2|0:2,0:0:0:0:
431,284,78051,1,2,0:2:0:0:
402,233,78275,2,0,L|284:213,1,120,2|10,1:2|0:2,0:0:0:0:
254,161,78947,1,2,0:2:0:0:
283,110,79170,2,0,L|401:90,2,120,2|10|2,1:2|0:2|1:2,0:0:0:0:
198,25,80514,5,10,0:2:0:0:
145,53,80738,1,2,0:2:0:0:
125,109,80962,1,2,1:2:0:0:
206,196,81409,1,8,0:2:0:0:
186,252,81633,1,2,0:2:0:0:
133,280,81857,2,0,L|31:263,2,90,2|2|2,1:2|0:2|0:2,0:0:0:0:
172,325,82753,1,2,1:2:0:0:
280,274,83200,1,10,0:2:0:0:
334,246,88126,5,6,1:2:0:0:
219,282,88573,2,0,L|208:350,1,60,2|2,1:2|1:2,0:0:0:0:
152,360,89021,1,6,1:2:0:0:
67,275,89469,1,10,1:2:0:0:
44,219,89693,1,2,1:2:0:0:
67,163,89917,5,6,1:2:0:0:
182,127,90365,2,0,L|193:59,1,60,2|2,1:2|1:2,0:0:0:0:
249,49,90812,1,6,1:2:0:0:
334,134,91260,1,8,1:2:0:0:
357,190,91484,1,10,1:2:0:0:
334,246,91708,5,6,1:2:0:0:
219,210,92156,2,0,L|208:142,1,60,10|2,0:2|1:2,0:0:0:0:
198,91,92603,1,4,1:2:0:0:
92,148,93051,2,0,L|103:216,1,60,10|0,1:2|1:2,0:0:0:0:
113,267,93499,1,6,1:2:0:0:
204,344,93947,1,10,1:2:0:0:
314,296,94394,1,14,1:2:0:0:
449,82,95290,5,4,1:2:0:0:
332,53,95738,1,10,0:2:0:0:
238,128,96185,1,0,1:2:0:0:
121,99,96633,1,10,3:2:0:0:
36,183,97081,2,0,L|56:306,1,120,2|10,1:2|0:2,0:0:0:0:
67,360,97753,1,2,0:2:0:0:
179,319,98200,5,2,0:2:0:0:
191,261,98424,2,0,L|210:142,1,120,10|2,0:2|1:2,0:0:0:0:
210,142,100663,1,2,1:2:0:0:
210,142,102454,5,2,1:2:0:0:
95,179,102902,1,0,1:2:0:0:
95,299,103350,1,0,1:2:0:0:
210,336,103797,1,0,1:2:0:0:
280,239,104245,1,0,1:2:0:0:
256,192,104805,12,2,108611,0:2:0:0:
60,326,115776,6,0,L|249:293,1,180,10|2,1:2|0:2,0:0:0:0:
279,252,116671,2,0,L|382:234,2,90,10|2|2,0:2|0:2|0:2,0:0:0:0:
236,209,117567,1,10,1:2:0:0:
118,188,118014,1,10,0:2:0:0:
97,70,118462,1,10,0:2:0:0:
215,91,118910,1,10,0:2:0:0:
334,105,119358,6,0,L|346:172,2,60,10|10|10,0:2|0:2|0:2,0:0:0:0:
447,65,120253,2,0,L|459:-2,2,60,10|10|10,0:2|0:2|0:2,0:0:0:0:
497,98,120925,1,10,0:2:0:0:
500,157,121149,2,0,L|482:260,2,90,10|10|10,1:2|1:2|1:2,0:0:0:0:
410,166,122156,1,10,1:2:0:0:
362,242,122492,2,0,L|350:309,1,60,10|10,1:2|1:2,0:0:0:0:
342,360,122940,5,10,1:2:0:0:
262,317,123276,1,10,0:2:0:0:
182,359,123612,2,0,L|79:341,2,90,10|10|10,1:2|1:2|1:2,0:0:0:0:
415,304,125179,6,0,L|438:169,1,120,12|2,1:2|1:2,0:0:0:0:
381,78,126074,1,10,0:2:0:0:
337,190,126522,2,0,L|210:167,1,120,2|10,1:2|0:2,0:0:0:0:
176,126,127194,1,0,0:2:0:0:
133,83,127417,2,0,L|6:105,1,120,2|10,1:2|0:2,0:0:0:0:
14,224,128313,5,2,1:2:0:0:
132,203,128761,1,8,1:2:0:0:
216,287,129209,2,0,L|204:354,2,60,0|2|10,1:2|0:2|0:2,0:0:0:0:
280,185,130104,5,0,1:2:0:0:
315,233,130328,1,2,0:2:0:0:
373,245,130552,1,8,0:2:0:0:
487,208,131000,2,0,L|499:141,2,60,0|2|10,1:2|0:2|0:2,0:0:0:0:
393,132,131895,6,0,L|258:109,1,120,2|8,1:2|0:2,0:0:0:0:
167,166,132791,1,2,1:2:0:0:
174,46,133238,1,10,0:2:0:0:
66,101,133686,6,0,L|89:236,1,120,0|10,1:2|0:2,0:0:0:0:
97,278,134358,1,2,0:2:0:0:
149,306,134582,2,0,L|161:380,2,60,2|2|10,1:2|0:2|0:2,0:0:0:0:
196,195,135477,5,2,1:2:0:0:
311,228,135925,2,0,L|322:296,1,60,10|2,0:2|0:2,0:0:0:0:
330,346,136373,1,2,1:2:0:0:
444,309,136820,1,8,0:2:0:0:
444,189,137268,1,2,1:2:0:0:
330,152,137716,1,10,0:2:0:0:
259,249,138164,1,2,1:2:0:0:
55,122,139059,6,0,L|37:19,2,90,10|10|10,1:2|1:2|1:2,0:0:0:0:
118,185,140067,1,10,1:2:0:0:
54,248,140403,1,10,1:2:0:0:
198,291,140850,6,0,L|180:394,2,90,10|10|10,1:2|1:2|1:2,0:0:0:0:
261,228,141858,1,10,1:2:0:0:
197,165,142194,1,10,1:2:0:0:
346,105,142641,6,0,L|328:2,2,90,10|10|10,1:2|1:2|1:2,0:0:0:0:
409,168,143649,1,10,0:2:0:0:
345,231,143985,1,10,1:2:0:0:
457,339,144432,6,0,L|270:370,1,180,2|10,1:2|1:2,0:0:0:0:
215,305,145440,1,10,1:2:0:0:
151,241,145776,2,0,L|99:250,2,45,10|10|10,1:2|1:2|1:2,0:0:0:0:
