osu file format v14

[General]
AudioFilename: audio.ogg
AudioLeadIn: 0
PreviewTime: 59245
Countdown: 0
SampleSet: Soft
StackLeniency: 0.5
Mode: 0
LetterboxInBreaks: 0
WidescreenStoryboard: 1

[Editor]
Bookmarks: 3947,18275,30812,45141,59469,73797,88126,108612,124731,139059
DistanceSpacing: 1
BeatDivisor: 6
GridSize: 4
TimelineZoom: 1

[Metadata]
Title:Pastel Sprinkles
TitleUnicode:Pastel Sprinkles
Artist:pan
ArtistUnicode:pan
Creator:ktgster
Version:Insane
Source:オンゲキ R.E.D PLUS
Tags:ongeki red rhythm game instrumental electronic happy trance Sound Collection 06 six Transcend Lights
BeatmapID:4289455
BeatmapSetID:2043616

[Difficulty]
HPDrainRate:5
CircleSize:4.5
OverallDifficulty:8
ApproachRate:8.5
SliderMultiplier:1.6
SliderTickRate:1

[Events]
//Background and Video events
0,0,"Picture1.jpg",0,0
//Break Periods
//Storyboard Layer 0 (Background)
//Storyboard Layer 1 (Fail)
//Storyboard Layer 2 (Pass)
//Storyboard Layer 3 (Foreground)
//Storyboard Layer 4 (Overlay)
//Storyboard Sound Samples

[TimingPoints]
365,447.761194029851,4,2,1,70,1,0
59469,-100,4,2,1,80,0,1
83648,-100,4,2,1,60,0,0
88126,-100,4,2,1,70,0,0
104806,447.761194029851,4,2,1,70,1,0
108164,-100,4,2,1,5,0,0
108388,-100,4,2,1,70,0,0
108612,447.761194029851,4,2,1,60,1,0
115776,-100,4,2,1,70,0,0
125179,-50,4,2,1,80,0,1
126522,-100,4,2,1,80,0,1
138612,-100,4,2,1,70,0,0
139059,-100,4,2,1,80,0,1
146112,-100,4,2,1,70,0,0

[Colours]
Combo1 : 255,201,36
Combo2 : 255,98,176
Combo3 : 183,183,255
Combo4 : 255,151,47

[HitObjects]
127,16,3499,6,0,L|135:64,3,40,0|0|0|0,0:2|0:2|0:2|0:2,0:0:0:0:
201,89,3947,1,2,1:2:0:0:
97,146,4282,1,2,0:2:0:0:
97,146,4394,2,0,L|89:194,1,40,0|0,1:2|0:2,0:0:0:0:
33,242,4618,5,0,0:2:0:0:
36,255,4693,1,0,0:2:0:0:
38,267,4767,1,0,0:2:0:0:
40,280,4842,1,2,1:2:0:0:
192,327,5066,5,0,0:2:0:0:
195,314,5141,1,0,0:2:0:0:
197,302,5215,1,0,0:2:0:0:
199,289,5290,1,2,1:2:0:0:
255,232,5514,1,0,0:2:0:0:
311,288,5738,5,0,1:2:0:0:
201,96,6185,1,2,1:2:0:0:
160,247,6633,5,2,1:2:0:0:
352,137,7081,1,2,1:2:0:0:
470,353,7529,5,2,1:2:0:0:
413,296,7753,1,0,0:2:0:0:
416,283,7827,1,0,0:2:0:0:
418,271,7902,1,0,0:2:0:0:
420,258,7976,1,2,1:2:0:0:
363,201,8200,1,0,0:2:0:0:
504,163,8424,5,0,1:2:0:0:
469,90,8648,1,2,0:2:0:0:
389,79,8872,1,0,1:2:0:0:
316,113,9096,1,0,0:2:0:0:
232,225,9320,5,0,1:2:0:0:
193,232,9432,1,2,0:2:0:0:
155,221,9544,1,0,0:2:0:0:
133,189,9656,1,0,0:2:0:0:
128,150,9767,1,0,1:2:0:0:
167,157,9879,1,2,0:2:0:0:
205,146,9991,1,0,0:2:0:0:
227,114,10103,1,0,0:2:0:0:
232,75,10215,5,6,1:2:0:0:
47,27,10551,1,0,1:2:0:0:
47,27,10663,2,0,L|95:19,5,26.6666666666667,2|2|2|2|2|2,0:2|0:2|0:2|0:2|0:2|0:2,0:0:0:0:
116,111,11223,5,14,1:2:0:0:
29,148,11447,1,14,1:2:0:0:
29,148,11559,1,2,0:2:0:0:
114,190,11782,1,0,1:2:0:0:
127,193,11857,1,0,1:2:0:0:
139,195,11932,1,0,1:2:0:0:
152,197,12006,1,14,1:2:0:0:
223,268,12230,1,0,0:2:0:0:
223,268,12342,1,14,0:2:0:0:
135,337,12603,6,0,L|82:345,2,53.3333333333333,12|14|2,1:2|0:2|0:2,0:0:0:0:
212,359,13051,1,8,0:2:0:0:
289,381,13200,1,8,0:2:0:0:
345,324,13350,6,0,L|398:316,1,53.3333333333333,10|10,0:2|0:2,0:0:0:0:
454,259,13648,1,10,0:2:0:0:
397,202,13797,1,10,0:2:0:0:
274,237,14021,5,2,0:2:0:0:
238,220,14133,1,2,0:2:0:0:
198,224,14245,1,0,1:2:0:0:
169,253,14357,1,0,1:2:0:0:
140,282,14469,1,2,1:2:0:0:
100,286,14581,1,2,1:2:0:0:
64,269,14693,1,8,1:2:0:0:
19,174,14917,5,12,1:2:0:0:
27,125,15029,1,8,1:2:0:0:
127,152,15253,1,12,1:2:0:0:
135,103,15365,1,8,1:2:0:0:
235,130,15588,1,12,1:2:0:0:
243,81,15700,1,8,1:2:0:0:
343,108,15924,2,0,L|348:74,2,20,0|0|12,1:2|1:2|1:2,0:0:0:0:
338,212,16260,5,2,1:2:0:0:
351,209,16335,1,2,1:2:0:0:
363,207,16409,1,2,1:2:0:0:
376,205,16484,1,14,1:2:0:0:
470,188,16708,1,0,0:2:0:0:
498,279,16932,1,14,0:2:0:0:
451,268,17044,1,2,0:2:0:0:
404,279,17156,1,2,0:2:0:0:
367,309,17267,1,2,0:2:0:0:
351,354,17379,1,12,1:2:0:0:
351,354,17715,6,0,L|400:361,2,40,0|2|0,0:2|0:2|0:2,0:0:0:0:
293,296,18051,1,0,0:2:0:0:
293,296,18163,1,14,1:2:0:0:
410,151,18499,5,0,1:2:0:0:
407,164,18573,1,0,1:2:0:0:
405,176,18648,1,0,1:2:0:0:
403,189,18723,2,0,L|353:196,1,40,10|0,1:2|1:2,0:0:0:0:
203,94,19059,6,0,L|211:45,1,40,14|0,1:2|0:2,0:0:0:0:
291,44,19282,1,14,1:2:0:0:
291,44,19394,2,0,L|285:87,8,26.6666666666667,0|0|0|0|0|2|2|2|2,0:2|0:2|0:2|0:2|0:2|0:2|0:2|0:2|0:2,0:0:0:0:
311,93,20066,6,0,L|261:100,1,40,14|0,1:2|0:2,0:0:0:0:
287,181,20290,1,8,1:2:0:0:
287,181,20402,2,0,L|237:188,1,40,14|0,1:2|0:2,0:0:0:0:
263,269,20626,1,8,1:2:0:0:
263,269,20738,2,0,L|213:276,1,40,14|0,1:2|0:2,0:0:0:0:
147,293,20962,5,8,1:2:0:0:
147,293,21073,2,0,L|141:336,3,26.6666666666667,8|0|0|0,1:2|1:2|1:2|1:2,0:0:0:0:
86,376,21409,1,14,1:2:0:0:
18,276,21633,5,2,0:2:0:0:
21,263,21708,1,0,0:2:0:0:
23,251,21782,1,0,0:2:0:0:
25,238,21857,1,2,1:2:0:0:
107,186,22081,1,2,0:2:0:0:
107,186,22305,1,2,0:2:0:0:
3,141,22529,5,2,0:2:0:0:
39,124,22641,1,0,0:2:0:0:
51,86,22753,2,0,L|44:36,1,40,2|0,0:2|0:2,0:0:0:0:
124,60,22976,2,0,L|131:110,1,40,2|0,0:2|0:2,0:0:0:0:
207,112,23200,2,0,L|202:73,1,40,2|0,0:2|0:2,0:0:0:0:
269,28,23424,5,2,0:2:0:0:
305,45,23536,1,0,0:2:0:0:
318,87,23648,1,2,0:2:0:0:
318,87,23872,1,0,0:2:0:0:
318,183,24096,1,2,0:2:0:0:
331,225,24208,1,0,0:2:0:0:
367,242,24320,1,0,0:2:0:0:
406,245,24432,1,0,0:2:0:0:
440,225,24544,1,2,0:2:0:0:
485,144,24767,1,2,0:2:0:0:
485,144,24879,1,0,0:2:0:0:
485,144,24991,1,2,0:2:0:0:
443,20,25215,5,2,0:2:0:0:
440,33,25290,1,0,0:2:0:0:
438,45,25365,1,0,0:2:0:0:
436,58,25439,2,0,L|386:65,1,40,2|0,0:2|0:2,0:0:0:0:
344,114,25663,2,0,L|294:121,3,40,2|0|2|0,0:2|0:2|0:2|0:2,0:0:0:0:
252,170,26111,5,2,0:2:0:0:
249,183,26185,1,2,0:2:0:0:
247,195,26260,1,2,0:2:0:0:
245,208,26335,2,0,L|217:13,1,160,2|2,0:2|0:2,0:0:0:0:
46,138,27230,6,0,L|3:144,8,26.6666666666667,6|0|0|0|0|0|0|0|0,1:2|0:2|0:2|0:2|0:2|0:2|0:2|0:2|0:2,0:0:0:0:
74,166,27902,2,0,L|117:172,5,26.6666666666667,2|0|0|0|0|0,1:2|0:2|0:2|0:2|0:2|0:2,0:0:0:0:
128,198,28350,5,2,0:2:0:0:
131,211,28424,1,2,0:2:0:0:
133,223,28499,1,2,0:2:0:0:
135,236,28573,1,2,1:2:0:0:
67,303,28797,1,2,0:2:0:0:
201,351,29021,5,2,1:2:0:0:
231,325,29133,1,0,0:2:0:0:
270,322,29245,1,0,0:2:0:0:
305,339,29357,1,0,1:2:0:0:
340,356,29469,1,0,0:2:0:0:
379,353,29581,1,0,0:2:0:0:
409,327,29693,2,0,L|415:284,3,26.6666666666667,2|2|2|2,1:2|0:2|0:2|0:2,0:0:0:0:
441,272,30029,2,0,L|434:222,2,40,2|0|0,1:2|0:2|0:2,0:0:0:0:
506,318,30365,1,2,1:2:0:0:
342,252,30588,5,0,0:2:0:0:
345,239,30663,1,0,0:2:0:0:
347,227,30738,1,0,0:2:0:0:
349,214,30812,1,10,1:2:0:0:
420,143,31036,5,0,0:2:0:0:
389,117,31148,1,0,0:2:0:0:
349,109,31260,1,2,0:2:0:0:
309,115,31372,1,0,0:2:0:0:
276,138,31484,2,0,L|269:188,1,40,8|8,1:2|1:2,0:0:0:0:
259,252,31708,5,10,1:2:0:0:
259,252,31932,1,10,1:2:0:0:
171,225,32156,1,8,1:2:0:0:
171,225,32267,1,8,1:2:0:0:
116,304,32491,5,10,1:2:0:0:
28,277,32715,1,10,1:2:0:0:
86,201,32939,1,10,1:2:0:0:
86,201,33051,2,0,L|82:176,4,20,2|0|0|0|10,1:2|1:2|1:2|1:2|1:2,0:0:0:0:
153,103,33499,5,10,1:2:0:0:
19,78,33723,2,0,L|-6:81,2,20,2|0|10,0:2|0:2|1:2,0:0:0:0:
70,26,33947,1,2,0:2:0:0:
82,181,34096,5,10,1:2:0:0:
82,181,34394,1,10,1:2:0:0:
82,181,34618,2,0,L|96:278,1,80,2|2,0:2|0:2,0:0:0:0:
42,311,34954,1,10,1:2:0:0:
183,337,35178,5,10,1:2:0:0:
250,269,35402,1,10,1:2:0:0:
250,269,35514,2,0,L|244:226,2,26.6666666666667,0|0|0,0:2|1:2|1:2,0:0:0:0:
272,291,35738,5,8,1:2:0:0:
280,340,35850,1,2,1:2:0:0:
349,259,36185,5,10,1:2:0:0:
341,210,36297,1,2,1:2:0:0:
410,129,36633,5,10,1:2:0:0:
418,178,36745,1,2,1:2:0:0:
479,48,37081,5,10,1:2:0:0:
445,26,37193,1,2,0:2:0:0:
405,22,37305,1,2,0:2:0:0:
366,32,37417,1,2,0:2:0:0:
340,62,37529,2,0,L|333:112,1,40,10|0,1:2|0:2,0:0:0:0:
283,153,37753,2,0,L|280:178,2,20,2|2|2,0:2|0:2|0:2,0:0:0:0:
229,99,37976,5,4,1:2:0:0:
195,121,38088,1,0,0:2:0:0:
155,125,38200,1,2,0:2:0:0:
116,115,38312,1,2,0:2:0:0:
90,85,38424,2,0,L|83:35,1,40,10|0,1:2|0:2,0:0:0:0:
13,74,38648,2,0,L|20:124,1,40,2|0,0:2|0:2,0:0:0:0:
34,188,38872,6,0,L|117:199,1,80,2|0,1:2|0:2,0:0:0:0:
167,252,39208,1,2,0:2:0:0:
167,252,39320,2,0,L|160:302,1,40,8|0,1:2|0:2,0:0:0:0:
215,345,39544,2,0,L|220:381,2,20,2|0|0,0:2|0:2|0:2,0:0:0:0:
268,291,39767,5,0,1:2:0:0:
302,269,39879,1,0,0:2:0:0:
342,265,39991,1,2,0:2:0:0:
381,275,40103,1,2,0:2:0:0:
407,305,40215,2,0,L|414:355,1,40,10|0,1:2|0:2,0:0:0:0:
484,316,40439,2,0,L|477:266,1,40,2|2,0:2|0:2,0:0:0:0:
469,200,40663,5,2,1:2:0:0:
319,173,40887,2,0,L|282:167,2,20,2|2|2,0:2|0:2|0:2,0:0:0:0:
373,118,41111,2,0,L|380:68,1,40,10|0,1:2|0:2,0:0:0:0:
442,35,41335,1,2,0:2:0:0:
292,8,41559,6,0,L|285:58,1,40,2|0,1:2|0:2,0:0:0:0:
213,26,41782,2,0,L|206:76,1,40,2|0,0:2|0:2,0:0:0:0:
256,124,42006,6,0,L|249:74,1,40,8|0,1:2|0:2,0:0:0:0:
177,106,42230,2,0,L|170:56,1,40,2|0,0:2|0:2,0:0:0:0:
100,98,42454,6,0,L|93:148,1,40,2|0,1:2|0:2,0:0:0:0:
19,153,42678,2,0,L|26:103,2,40,2|0|10,0:2|0:2|1:2,0:0:0:0:
60,217,43014,1,2,0:2:0:0:
99,208,43126,1,2,0:2:0:0:
138,215,43238,1,2,0:2:0:0:
166,242,43350,5,12,1:2:0:0:
198,332,43573,2,0,L|204:375,3,26.6666666666667,2|0|0|12,3:2|0:2|0:2|1:2,0:0:0:0:
260,260,44021,1,2,3:2:0:0:
329,354,44245,6,0,L|276:346,2,53.3333333333333,14|2|0,1:2|0:2|0:2,0:0:0:0:
395,307,44693,1,2,0:2:0:0:
495,343,44917,6,0,L|502:293,1,40,2|0,0:2|0:2,0:0:0:0:
511,223,45141,1,6,1:2:0:0:
477,201,45253,1,0,0:2:0:0:
437,197,45365,1,0,0:2:0:0:
398,207,45476,1,0,0:2:0:0:
372,237,45588,1,8,0:2:0:0:
280,187,45812,6,0,L|287:237,1,40,2|2,0:2|0:2,0:0:0:0:
296,307,46036,1,2,1:2:0:0:
262,329,46148,1,0,0:2:0:0:
222,333,46260,1,0,0:2:0:0:
183,323,46372,1,0,0:2:0:0:
157,293,46484,1,8,0:2:0:0:
123,212,46708,5,2,0:2:0:0:
102,177,46820,1,2,0:2:0:0:
63,164,46932,1,2,1:2:0:0:
8,90,47156,1,0,0:2:0:0:
8,90,47267,1,2,0:2:0:0:
68,16,47491,1,0,0:2:0:0:
68,16,47603,1,2,0:2:0:0:
160,40,47827,1,2,1:2:0:0:
190,66,47939,1,0,0:2:0:0:
200,105,48051,1,0,0:2:0:0:
196,145,48163,1,0,0:2:0:0:
174,179,48275,1,8,1:2:0:0:
39,246,48499,6,0,L|45:289,3,26.6666666666667,0|0|0|2,0:2|0:2|0:2|1:2,0:0:0:0:
112,345,48947,1,0,0:2:0:0:
112,345,49059,1,2,0:2:0:0:
200,304,49282,1,0,0:2:0:0:
200,304,49394,1,2,0:2:0:0:
277,360,49618,1,2,1:2:0:0:
307,334,49730,1,0,0:2:0:0:
317,295,49842,1,0,0:2:0:0:
313,255,49954,1,0,0:2:0:0:
291,221,50066,1,8,0:2:0:0:
203,179,50290,1,2,0:2:0:0:
122,231,50514,5,2,1:2:0:0:
45,181,50738,1,0,0:2:0:0:
45,181,50850,1,2,0:2:0:0:
73,91,51073,1,0,0:2:0:0:
73,91,51185,1,2,0:2:0:0:
166,68,51409,5,2,1:2:0:0:
197,92,51521,1,2,0:2:0:0:
236,95,51633,1,2,0:2:0:0:
273,81,51745,1,2,0:2:0:0:
299,51,51857,1,8,1:2:0:0:
325,21,51969,1,0,0:2:0:0:
362,7,52081,1,2,0:2:0:0:
401,10,52193,1,2,0:2:0:0:
432,34,52305,6,0,L|439:84,1,40,10|0,1:2|0:2,0:0:0:0:
380,130,52529,1,0,1:2:0:0:
380,130,52641,2,0,L|373:180,1,40,2|0,0:2|1:2,0:0:0:0:
431,226,52865,1,0,0:2:0:0:
431,226,52976,1,2,1:2:0:0:
355,349,53200,6,0,L|361:386,2,20,10|0|0,1:2|0:2|0:2,0:0:0:0:
297,291,53424,1,2,1:2:0:0:
213,377,53648,1,2,1:2:0:0:
173,370,53760,1,0,0:2:0:0:
132,363,53872,1,2,1:2:0:0:
21,276,54096,6,0,L|14:226,1,40,10|0,1:2|0:2,0:0:0:0:
73,180,54320,1,0,1:2:0:0:
73,180,54432,2,0,L|80:130,1,40,2|0,0:2|1:2,0:0:0:0:
22,84,54656,1,0,0:2:0:0:
22,84,54767,1,0,1:2:0:0:
157,35,54991,6,0,L|151:-2,2,20,10|0|0,1:2|0:2|0:2,0:0:0:0:
215,93,55215,1,2,1:2:0:0:
180,230,55439,5,2,1:2:0:0:
193,233,55514,1,2,0:2:0:0:
205,235,55588,1,2,0:2:0:0:
218,237,55663,2,0,L|224:274,2,26.6666666666667,2|2|2,1:2|0:2|0:2,0:0:0:0:
240,214,55887,6,0,L|247:164,1,40,10|0,1:2|0:2,0:0:0:0:
321,201,56111,2,0,L|327:164,2,26.6666666666667,2|2|2,1:2|0:2|0:2,0:0:0:0:
316,232,56335,2,0,L|323:282,1,40,2|0,1:2|0:2,0:0:0:0:
396,255,56559,2,0,L|403:305,1,40,2|0,1:2|0:2,0:0:0:0:
476,278,56782,6,0,L|484:331,2,53.3333333333333,10|10|10,1:2|0:2|0:2,0:0:0:0:
496,157,57230,2,0,L|504:210,2,53.3333333333333,10|10|10,1:2|0:2|0:2,0:0:0:0:
387,191,57678,5,10,3:2:0:0:
400,188,57753,1,2,3:2:0:0:
412,186,57827,1,2,3:2:0:0:
425,184,57902,2,0,L|431:147,2,26.6666666666667,2|2|2,3:2|3:2|3:2,0:0:0:0:
414,134,58126,2,0,L|420:97,5,26.6666666666667,2|2|2|2|2|2,3:2|3:2|3:2|3:2|3:2|3:2,0:0:0:0:
395,85,58573,5,2,3:2:0:0:
315,71,58723,1,10,0:2:0:0:
255,125,58872,1,8,0:2:0:0:
176,111,59021,1,8,1:2:0:0:
191,246,59245,6,0,L|198:296,1,40,2|2,0:2|0:2,0:0:0:0:
142,339,59469,2,0,L|105:333,6,26.6666666666667,6|0|0|0|0|0|8,1:2|0:2|0:2|0:2|0:2|0:2|0:2,0:0:0:0:
260,359,60141,5,2,0:2:0:0:
267,319,60253,1,2,0:2:0:0:
274,278,60365,1,2,1:2:0:0:
368,252,60588,1,0,0:2:0:0:
368,252,60700,2,0,L|375:302,1,40,2|8,0:2|0:2,0:0:0:0:
444,332,60924,1,0,0:2:0:0:
444,332,61036,1,2,0:2:0:0:
489,201,61260,6,0,L|476:112,1,80,2|0,1:2|0:2,0:0:0:0:
329,83,61708,2,0,L|316:-6,1,80,10|0,0:2|0:2,0:0:0:0:
397,171,62156,5,2,1:2:0:0:
304,217,62379,1,2,0:2:0:0:
297,257,62491,1,0,0:2:0:0:
290,298,62603,1,10,0:2:0:0:
197,344,62827,1,0,0:2:0:0:
383,357,63051,5,2,1:2:0:0:
337,264,63275,1,2,0:2:0:0:
297,257,63387,1,0,0:2:0:0:
256,250,63499,1,10,0:2:0:0:
210,157,63723,1,2,0:2:0:0:
156,337,63947,5,2,1:2:0:0:
249,291,64170,1,2,0:2:0:0:
256,250,64282,1,2,0:2:0:0:
263,210,64394,1,10,0:2:0:0:
356,164,64618,1,2,0:2:0:0:
179,118,64842,6,0,L|90:131,1,80,2|0,1:2|0:2,0:0:0:0:
58,136,65178,1,0,0:2:0:0:
18,143,65290,1,10,0:2:0:0:
58,47,65514,1,0,0:2:0:0:
97,243,65738,5,2,1:2:0:0:
85,282,65850,1,2,0:2:0:0:
45,282,65962,1,2,0:2:0:0:
33,243,66073,1,2,0:2:0:0:
65,220,66185,1,10,0:2:0:0:
187,280,66409,5,2,0:2:0:0:
194,320,66521,1,2,0:2:0:0:
201,361,66633,1,2,1:2:0:0:
270,288,66857,2,0,L|277:338,2,40,2|2|10,0:2|0:2|0:2,0:0:0:0:
148,203,67305,6,0,L|155:153,1,40,2|2,0:2|0:2,0:0:0:0:
208,108,67529,1,2,1:2:0:0:
208,108,67641,2,0,L|258:101,1,40,2|0,0:2|0:2,0:0:0:0:
127,75,67865,2,0,L|77:68,1,40,2|8,0:2|0:2,0:0:0:0:
182,20,68088,1,0,0:2:0:0:
182,20,68200,1,2,0:2:0:0:
241,181,68424,6,0,L|254:270,1,80,2|0,1:2|0:2,0:0:0:0:
401,299,68872,2,0,L|414:388,1,80,10|0,0:2|0:2,0:0:0:0:
500,201,69320,5,2,1:2:0:0:
355,140,69544,1,2,0:2:0:0:
348,180,69656,1,2,0:2:0:0:
341,221,69767,1,10,0:2:0:0:
451,96,69991,1,0,0:2:0:0:
279,55,70215,6,0,L|272:105,1,40,2|0,1:2|0:2,0:0:0:0:
193,103,70439,1,2,0:2:0:0:
200,63,70551,1,0,0:2:0:0:
207,22,70663,1,10,0:2:0:0:
90,49,70887,1,2,0:2:0:0:
144,177,71111,5,2,1:2:0:0:
105,167,71223,1,0,0:2:0:0:
67,179,71335,1,2,0:2:0:0:
38,206,71447,1,0,0:0:0:0:
29,244,71559,1,10,0:2:0:0:
45,338,71782,1,2,0:2:0:0:
134,303,72006,5,2,1:2:0:0:
220,345,72230,1,2,0:2:0:0:
223,332,72305,1,2,0:2:0:0:
225,320,72379,1,2,0:2:0:0:
227,307,72454,1,10,0:2:0:0:
313,265,72678,1,0,0:2:0:0:
366,355,72902,5,2,1:2:0:0:
366,355,73126,1,0,0:2:0:0:
366,355,73350,1,10,0:2:0:0:
475,246,73573,6,0,L|482:196,1,40,2|2,0:2|0:2,0:0:0:0:
485,133,73797,1,6,1:2:0:0:
446,123,73909,1,2,0:2:0:0:
408,135,74021,1,0,0:2:0:0:
388,170,74133,1,0,0:2:0:0:
368,205,74245,1,8,0:2:0:0:
330,217,74357,1,0,0:2:0:0:
291,207,74469,2,0,L|284:157,1,40,2|2,0:2|0:2,0:0:0:0:
276,95,74693,5,2,1:2:0:0:
191,60,74917,1,0,0:2:0:0:
191,60,75029,2,0,L|184:110,1,40,2|8,0:2|0:2,0:0:0:0:
116,78,75253,1,0,0:2:0:0:
116,78,75365,2,0,L|109:128,1,40,2|0,0:2|0:2,0:0:0:0:
34,117,75588,6,0,L|47:28,1,80,2|0,1:2|0:2,0:0:0:0:
200,352,76036,2,0,L|213:263,1,80,10|0,0:2|0:2,0:0:0:0:
78,280,76484,5,2,1:2:0:0:
158,191,76708,1,2,0:2:0:0:
171,188,76782,1,2,0:2:0:0:
183,186,76857,1,2,0:2:0:0:
196,184,76932,1,10,0:2:0:0:
276,95,77156,1,2,0:2:0:0:
316,242,77379,5,2,1:2:0:0:
360,142,77603,1,2,0:2:0:0:
360,142,77715,1,0,0:2:0:0:
360,142,77827,1,10,0:2:0:0:
415,326,78051,1,2,0:2:0:0:
227,274,78275,5,2,1:2:0:0:
271,174,78499,1,2,0:2:0:0:
271,174,78611,1,0,0:2:0:0:
271,174,78723,1,10,0:2:0:0:
326,358,78947,1,2,0:2:0:0:
458,219,79170,5,2,1:2:0:0:
390,151,79394,1,2,0:2:0:0:
393,138,79469,1,2,0:2:0:0:
395,126,79544,1,2,0:2:0:0:
397,113,79618,1,10,0:2:0:0:
478,62,79842,1,2,0:2:0:0:
326,11,80066,5,2,1:2:0:0:
285,98,80290,1,0,0:2:0:0:
257,127,80402,1,0,0:2:0:0:
218,139,80514,1,10,0:2:0:0:
178,133,80626,1,0,0:2:0:0:
145,109,80738,2,0,L|138:59,1,40,2|2,0:2|0:2,0:0:0:0:
75,34,80962,5,2,1:2:0:0:
75,34,81073,1,2,0:2:0:0:
75,34,81185,1,0,0:2:0:0:
22,114,81409,1,8,0:2:0:0:
84,187,81633,2,0,L|77:237,1,40,2|2,0:2|0:2,0:0:0:0:
24,280,81857,5,2,1:2:0:0:
132,341,82081,1,0,0:2:0:0:
132,341,82193,2,0,L|139:291,1,40,2|8,0:2|0:2,0:0:0:0:
192,246,82417,1,0,0:2:0:0:
230,236,82529,1,2,0:2:0:0:
268,248,82641,1,0,0:2:0:0:
287,282,82753,6,0,L|300:371,1,80,2|0,1:2|0:2,0:0:0:0:
479,167,83200,2,0,L|492:256,1,80,10|0,0:2|0:2,0:0:0:0:
346,149,83648,5,2,0:2:0:0:
287,107,83872,1,2,0:2:0:0:
214,106,84096,1,2,0:2:0:0:
154,146,84320,1,2,0:2:0:0:
132,214,84544,1,2,0:2:0:0:
203,200,84767,1,2,0:2:0:0:
269,230,84991,1,2,0:2:0:0:
283,244,85103,1,2,0:2:0:0:
292,261,85215,1,2,0:2:0:0:
297,280,85327,1,2,0:2:0:0:
297,299,85439,6,0,L|247:292,2,40,2|2|2,0:2|0:2|0:2,0:0:0:0:
369,302,85887,1,2,0:2:0:0:
436,277,86111,1,2,0:2:0:0:
469,213,86335,5,2,0:2:0:0:
396,214,86559,1,2,0:2:0:0:
329,188,86782,1,2,0:2:0:0:
315,173,86894,1,2,0:2:0:0:
306,154,87006,1,2,0:2:0:0:
303,134,87118,1,2,0:2:0:0:
307,114,87230,1,2,0:2:0:0:
341,50,87454,1,0,0:2:0:0:
210,66,87678,6,0,L|217:116,1,40,2|0,1:2|0:2,0:0:0:0:
161,165,87902,1,2,0:2:0:0:
161,165,88014,1,0,0:2:0:0:
161,165,88126,2,0,L|58:150,1,80,6|0,1:2|0:2,0:0:0:0:
27,208,88462,2,0,L|1:204,2,20,0|0|2,1:2|1:2|1:2,0:0:0:0:
94,275,88797,1,2,1:2:0:0:
26,342,89021,1,6,1:2:0:0:
172,372,89245,5,0,0:2:0:0:
175,359,89320,1,0,0:2:0:0:
177,347,89394,1,0,0:2:0:0:
179,334,89469,1,10,1:2:0:0:
275,257,89693,5,2,1:2:0:0:
275,257,89805,1,2,1:2:0:0:
275,257,89917,2,0,L|378:272,1,80,6|0,1:2|0:2,0:0:0:0:
409,214,90253,2,0,L|435:218,2,20,0|0|2,1:2|1:2|1:2,0:0:0:0:
342,147,90588,1,2,1:2:0:0:
410,80,90812,1,6,1:2:0:0:
276,36,91036,5,0,1:2:0:0:
273,49,91111,1,0,1:2:0:0:
271,61,91185,1,0,1:2:0:0:
269,74,91260,1,8,1:2:0:0:
181,162,91484,5,10,1:2:0:0:
181,162,91596,1,0,1:2:0:0:
181,162,91708,2,0,L|78:147,1,80,6|0,1:2|0:2,0:0:0:0:
47,205,92044,1,0,1:2:0:0:
47,205,92156,2,0,L|54:255,1,40,10|0,0:2|0:2,0:0:0:0:
127,234,92379,2,0,L|134:284,1,40,2|0,1:2|0:2,0:0:0:0:
235,247,92603,6,0,L|338:232,1,80,4|0,1:2|0:2,0:0:0:0:
369,290,92939,1,0,1:2:0:0:
369,290,93051,2,0,L|362:340,1,40,10|0,1:2|0:2,0:0:0:0:
289,319,93275,2,0,L|282:369,1,40,0|0,1:2|0:2,0:0:0:0:
210,383,93499,5,6,1:2:0:0:
72,329,93723,1,2,0:2:0:0:
72,329,93835,2,0,L|38:334,2,20,0|0|10,1:2|1:2|1:2,0:0:0:0:
151,320,94096,1,10,1:2:0:0:
151,240,94282,6,0,L|201:233,1,40,10|14,1:2|1:2,0:0:0:0:
171,135,94544,2,0,L|166:169,4,26.6666666666667,2|2|2|2|2,1:2|0:2|1:2|0:2|1:2,0:0:0:0:
275,211,95066,5,2,0:2:0:0:
275,211,95178,1,2,0:2:0:0:
275,211,95290,2,0,L|268:161,1,40,4|0,1:2|0:2,0:0:0:0:
323,117,95514,2,0,L|316:67,1,40,2|0,0:2|0:2,0:0:0:0:
242,62,95738,2,0,L|249:112,1,40,10|0,0:2|0:2,0:0:0:0:
194,156,95962,2,0,L|201:206,1,40,2|0,0:2|0:2,0:0:0:0:
145,249,96185,5,0,1:2:0:0:
59,204,96409,1,2,3:2:0:0:
56,191,96484,1,2,3:2:0:0:
54,179,96559,1,2,3:2:0:0:
52,166,96633,1,10,3:2:0:0:
33,71,96857,1,2,0:2:0:0:
132,147,97081,6,0,L|125:95,1,53.3333333333333,2|2,1:2|0:2,0:0:0:0:
195,24,97417,1,2,0:2:0:0:
233,13,97529,1,10,0:2:0:0:
272,19,97641,1,0,0:2:0:0:
315,39,97753,1,2,0:2:0:0:
331,68,97865,1,2,0:2:0:0:
337,107,97976,6,0,L|330:157,1,40,0|2,1:2|0:2,0:0:0:0:
285,213,98200,1,2,0:2:0:0:
322,227,98312,1,2,0:2:0:0:
361,224,98424,1,10,0:2:0:0:
348,261,98536,1,2,0:2:0:0:
323,292,98648,1,2,0:2:0:0:
283,298,98760,1,2,0:2:0:0:
243,290,98872,6,0,L|250:340,3,40,2|0|0|0,1:2|0:2|0:2|0:2,0:0:0:0:
197,381,99320,1,2,0:2:0:0:
197,381,99544,1,2,0:2:0:0:
22,261,99879,6,0,L|29:211,2,40,0|2|2,0:2|0:2|0:2,0:0:0:0:
93,297,100215,2,0,L|100:247,3,40,2|2|2|2,0:2|0:2|0:2|0:2,0:0:0:0:
155,200,100663,6,0,L|148:150,3,40,2|0|0|0,1:2|0:2|0:2|0:2,0:0:0:0:
206,103,101111,1,2,0:2:0:0:
206,103,101335,1,2,0:2:0:0:
256,229,101670,5,0,0:2:0:0:
256,229,101782,2,0,L|261:263,9,26.6666666666667,0|0|0|2|2|2|2|2|2|2,0:2|0:2|0:2|0:2|0:2|0:2|0:2|0:2|0:2|1:2,0:0:0:0:
304,61,102678,6,0,L|311:111,2,40,0|0|0,1:2|1:2|1:2,0:0:0:0:
380,35,103014,1,0,1:2:0:0:
383,48,103088,1,0,1:2:0:0:
385,60,103163,1,0,1:2:0:0:
387,73,103238,2,0,L|394:123,1,40,0|0,1:2|1:2,0:0:0:0:
473,115,103462,2,0,L|466:65,2,26.6666666666667,0|0|0,1:2|1:2|1:2,0:0:0:0:
458,144,103704,6,0,L|464:179,1,33.3333333333333,0|0,1:2|1:2,0:0:0:0:
406,233,103947,1,0,1:2:0:0:
420,310,104096,1,0,1:2:0:0:
348,345,104245,6,0,L|343:311,4,30,0|0|0|0|0,1:2|1:2|1:2|1:2|1:2,0:0:0:0:
256,236,104806,1,4,1:2:0:0:
256,192,104917,12,0,108164,0:2:0:0:
181,127,108388,5,0,0:2:0:0:
181,127,108612,1,2,0:2:0:0:
34,192,109059,1,2,0:2:0:0:
97,255,109283,5,0,0:2:0:0:
97,255,109395,1,0,0:2:0:0:
97,255,109507,1,2,0:2:0:0:
171,226,109731,1,0,0:2:0:0:
171,226,109843,1,2,0:2:0:0:
224,291,110067,1,0,0:2:0:0:
224,291,110179,1,2,0:2:0:0:
298,262,110403,6,0,L|313:155,1,80,2|0,0:2|0:2,0:0:0:0:
387,165,110850,2,0,L|402:58,1,80,2|0,0:2|0:2,0:0:0:0:
476,68,111298,1,2,0:2:0:0:
464,147,111522,2,0,L|457:197,3,26.6666666666667,0|2|2|2,0:2|0:2|0:2|0:2,0:0:0:0:
448,252,111970,1,2,0:2:0:0:
436,331,112194,5,2,0:2:0:0:
327,279,112529,1,0,0:2:0:0:
309,269,112641,1,2,0:2:0:0:
289,265,112753,1,0,0:2:0:0:
269,269,112865,1,2,0:2:0:0:
219,331,113089,1,2,0:2:0:0:
219,331,113537,2,0,L|112:346,1,80,2|0,0:2|0:2,0:0:0:0:
60,353,113985,5,2,0:2:0:0:
37,239,114320,1,2,0:2:0:0:
37,239,114432,1,0,0:2:0:0:
93,182,114656,1,2,0:2:0:0:
80,109,114880,1,2,0:2:0:0:
210,43,115328,6,0,L|160:36,5,26.6666666666667,2|0|0|0|0|0,0:2|0:2|0:2|0:2|0:2|0:2,0:0:0:0:
236,48,115776,2,0,L|243:101,1,40,10|0,1:2|0:2,0:0:0:0:
295,141,116000,1,0,0:2:0:0:
295,141,116112,2,0,L|288:194,1,40,0|8,0:2|0:2,0:0:0:0:
235,234,116335,1,0,0:2:0:0:
213,201,116447,1,2,0:2:0:0:
177,185,116559,1,2,0:2:0:0:
137,186,116671,5,10,0:2:0:0:
52,271,116895,1,0,0:2:0:0:
52,271,117007,2,0,L|59:324,1,40,2|8,0:2|0:2,0:0:0:0:
136,304,117231,1,0,0:2:0:0:
136,304,117343,2,0,L|143:357,1,40,2|0,0:2|0:2,0:0:0:0:
210,376,117567,5,10,1:2:0:0:
305,359,117791,1,0,0:2:0:0:
395,250,118014,5,10,0:2:0:0:
490,267,118238,1,0,0:2:0:0:
474,125,118462,5,10,0:2:0:0:
387,83,118686,1,2,0:2:0:0:
374,86,118761,1,2,0:2:0:0:
362,88,118835,1,2,0:2:0:0:
349,90,118910,1,10,0:2:0:0:
262,48,119134,1,2,0:2:0:0:
102,13,119358,6,0,L|109:66,1,40,10|0,0:2|0:2,0:0:0:0:
182,31,119582,2,0,L|189:84,1,40,10|0,0:2|0:2,0:0:0:0:
137,128,119806,6,0,L|144:181,1,40,10|0,0:2|0:2,0:0:0:0:
217,146,120029,2,0,L|224:199,1,40,10|0,0:2|0:2,0:0:0:0:
172,243,120253,6,0,L|179:296,1,40,10|0,0:2|0:2,0:0:0:0:
252,261,120477,2,0,L|259:314,1,40,10|0,0:2|0:2,0:0:0:0:
329,327,120701,6,0,L|336:377,5,26.6666666666667,10|2|2|10|2|2,0:2|0:2|0:2|0:2|0:2|0:2,0:0:0:0:
356,365,121149,1,10,1:2:0:0:
457,334,121373,1,2,0:2:0:0:
457,334,121485,1,10,1:2:0:0:
409,246,121709,1,2,0:2:0:0:
409,246,121820,1,10,1:2:0:0:
510,215,122044,1,2,0:2:0:0:
510,215,122156,1,10,1:2:0:0:
462,127,122380,1,2,0:2:0:0:
462,127,122492,1,10,1:2:0:0:
361,152,122716,2,0,L|357:178,2,20,10|2|2,1:2|1:2|1:2,0:0:0:0:
314,105,122940,5,10,1:2:0:0:
278,86,123052,1,2,0:2:0:0:
240,99,123164,1,2,0:2:0:0:
220,133,123276,2,0,L|213:186,2,40,10|2|2,0:2|0:2|0:2,0:0:0:0:
158,80,123612,5,10,1:2:0:0:
140,115,123723,1,2,0:2:0:0:
101,125,123835,2,0,L|75:121,2,20,2|2|10,0:2|0:2|1:2,0:0:0:0:
145,192,124059,2,0,L|138:245,1,40,2|2,0:2|0:2,0:0:0:0:
196,288,124283,5,10,1:2:0:0:
228,312,124395,1,0,0:2:0:0:
267,309,124507,1,0,0:2:0:0:
300,287,124619,1,0,0:2:0:0:
312,248,124731,1,2,0:2:0:0:
312,248,125179,6,0,L|325:348,1,80,12|0,1:2|0:0,0:0:0:0:
395,293,125403,1,2,0:2:0:0:
392,280,125477,1,2,0:2:0:0:
390,268,125552,1,2,0:2:0:0:
388,255,125626,1,2,1:2:0:0:
475,161,125850,5,2,0:2:0:0:
472,148,125925,1,2,0:2:0:0:
470,136,126000,1,2,0:2:0:0:
468,123,126074,1,10,0:2:0:0:
384,75,126298,1,2,0:2:0:0:
303,127,126522,6,0,L|310:180,1,40,2|0,1:2|0:2,0:0:0:0:
287,244,126746,2,0,L|280:191,1,40,0|0,0:2|0:2,0:0:0:0:
209,167,126970,6,0,L|216:220,1,40,10|0,0:2|0:2,0:0:0:0:
193,284,127194,2,0,L|186:231,1,40,0|0,0:2|0:2,0:0:0:0:
115,207,127417,6,0,L|122:260,1,40,2|0,1:2|0:2,0:0:0:0:
99,324,127641,2,0,L|92:271,1,40,0|0,0:2|0:2,0:0:0:0:
21,247,127865,6,0,L|28:300,1,40,10|0,0:2|0:2,0:0:0:0:
5,364,128089,2,0,L|-2:311,1,40,0|0,0:2|0:2,0:0:0:0:
12,166,128313,5,2,1:2:0:0:
79,98,128537,1,2,0:2:0:0:
92,101,128612,1,2,0:2:0:0:
104,103,128686,1,2,0:2:0:0:
117,105,128761,1,8,1:2:0:0:
184,37,128985,1,2,0:2:0:0:
259,110,129209,5,0,1:2:0:0:
259,110,129320,1,0,0:2:0:0:
259,110,129432,1,2,0:2:0:0:
215,197,129656,1,10,0:2:0:0:
215,197,129880,1,0,0:2:0:0:
290,324,130104,5,0,1:2:0:0:
321,349,130216,1,2,0:2:0:0:
361,349,130328,1,2,0:2:0:0:
393,326,130440,1,2,0:2:0:0:
408,290,130552,1,8,0:2:0:0:
372,275,130664,1,2,0:2:0:0:
349,243,130776,1,2,0:2:0:0:
349,203,130888,1,2,0:2:0:0:
374,172,131000,5,0,1:2:0:0:
347,141,131112,1,2,0:2:0:0:
307,135,131223,1,2,0:2:0:0:
272,154,131335,2,0,L|265:207,2,40,2|10|2,0:2|0:2|0:2,0:0:0:0:
214,96,131671,5,2,0:2:0:0:
211,83,131746,1,2,0:2:0:0:
209,71,131820,1,2,0:2:0:0:
207,58,131895,2,0,L|186:211,1,120,2|2,1:2|0:2,0:0:0:0:
191,176,132343,1,8,0:2:0:0:
99,148,132567,5,2,0:2:0:0:
96,161,132641,1,2,0:2:0:0:
94,173,132716,1,2,0:2:0:0:
92,186,132791,1,2,1:2:0:0:
86,265,133014,1,2,0:2:0:0:
137,326,133238,1,10,0:2:0:0:
216,338,133462,1,2,0:2:0:0:
280,290,133686,5,0,1:2:0:0:
202,232,133910,1,2,0:2:0:0:
177,139,134134,1,10,0:2:0:0:
223,55,134358,1,2,0:2:0:0:
314,25,134582,5,2,1:2:0:0:
393,104,134806,1,2,0:2:0:0:
386,144,134917,1,2,0:2:0:0:
379,185,135029,1,10,0:2:0:0:
457,263,135253,1,2,0:2:0:0:
377,342,135477,5,2,1:2:0:0:
297,262,135701,1,2,0:2:0:0:
217,341,135925,1,10,0:2:0:0:
204,338,136000,1,2,0:2:0:0:
192,336,136074,1,2,0:2:0:0:
179,334,136149,1,2,0:2:0:0:
67,319,136373,5,2,1:2:0:0:
114,217,136597,1,2,0:2:0:0:
218,177,136820,1,8,0:2:0:0:
325,210,137044,1,2,0:2:0:0:
371,312,137268,5,2,1:2:0:0:
421,375,137492,1,0,0:2:0:0:
495,347,137716,1,10,0:2:0:0:
493,267,137940,1,2,0:2:0:0:
416,245,138164,1,2,1:2:0:0:
416,245,138612,6,0,L|433:115,1,120,2|0,0:2|0:2,0:0:0:0:
360,90,139059,6,0,L|353:143,1,40,10|0,1:2|0:2,0:0:0:0:
278,122,139283,1,0,1:2:0:0:
278,122,139395,2,0,L|271:175,1,40,10|0,1:2|0:2,0:0:0:0:
196,154,139619,1,0,1:2:0:0:
196,154,139731,2,0,L|189:207,1,40,10|0,1:2|0:2,0:0:0:0:
114,186,139955,1,0,1:2:0:0:
114,186,140067,2,0,L|107:239,1,40,10|0,1:2|0:2,0:0:0:0:
32,218,140291,1,0,1:2:0:0:
32,218,140403,2,0,L|14:351,1,120,10|0,1:2|1:2,0:0:0:0:
92,362,140850,6,0,L|99:309,1,40,10|0,1:2|0:2,0:0:0:0:
177,300,141074,1,0,1:2:0:0:
177,300,141186,2,0,L|184:353,2,40,10|0|0,1:2|0:2|1:2,0:0:0:0:
234,242,141522,2,0,L|241:189,2,40,10|0|0,1:2|0:2|1:2,0:0:0:0:
291,299,141858,2,0,L|298:352,2,40,10|0|0,1:2|0:2|1:2,0:0:0:0:
348,241,142194,2,0,L|481:223,1,120,10|0,1:2|1:2,0:0:0:0:
509,157,142641,6,0,L|502:104,1,40,10|0,1:2|0:2,0:0:0:0:
425,117,142865,1,0,1:2:0:0:
425,117,142977,2,0,L|418:64,1,40,10|0,1:2|0:2,0:0:0:0:
348,165,143201,1,0,1:2:0:0:
348,165,143313,2,0,L|341:112,1,40,10|0,1:2|0:2,0:0:0:0:
264,125,143537,1,0,1:2:0:0:
264,125,143649,2,0,L|257:72,1,40,10|0,0:2|0:2,0:0:0:0:
187,173,143873,1,0,1:2:0:0:
187,173,143985,2,0,L|180:120,1,40,10|2,1:2|0:2,0:0:0:0:
124,76,144209,6,0,L|120:49,4,20,2|2|2|2|2,1:2|1:2|1:2|1:2|1:2,0:0:0:0:
67,132,144544,1,10,1:2:0:0:
67,132,144768,1,10,1:2:0:0:
137,234,144992,1,10,1:2:0:0:
137,234,145104,1,10,1:2:0:0:
88,345,145328,1,10,1:2:0:0:
88,345,145440,1,10,1:2:0:0:
206,364,145664,6,0,L|209:390,2,20,0|0|10,1:2|1:2|1:2,0:0:0:0:
270,299,145944,1,10,1:2:0:0:
355,326,146112,1,10,1:2:0:0:
