osu file format v14

[General]
AudioFilename: audio.ogg
AudioLeadIn: 0
PreviewTime: 59245
Countdown: 0
SampleSet: Soft
StackLeniency: 0.5
Mode: 0
LetterboxInBreaks: 0
WidescreenStoryboard: 1

[Editor]
Bookmarks: 3947,18275,30812,45141,59469,73797,88126,108612,124731,139059
DistanceSpacing: 0.5
BeatDivisor: 16
GridSize: 4
TimelineZoom: 1

[Metadata]
Title:Pastel Sprinkles
TitleUnicode:Pastel Sprinkles
Artist:pan
ArtistUnicode:pan
Creator:ktgster
Version:Extreme
Source:オンゲキ R.E.D PLUS
Tags:ongeki red rhythm game instrumental electronic happy trance Sound Collection 06 six Transcend Lights
BeatmapID:4265109
BeatmapSetID:2043616

[Difficulty]
HPDrainRate:6
CircleSize:5
OverallDifficulty:9
ApproachRate:9.2
SliderMultiplier:1.8
SliderTickRate:1

[Events]
//Background and Video events
0,0,"Picture1.jpg",0,0
//Break Periods
//Storyboard Layer 0 (Background)
//Storyboard Layer 1 (Fail)
//Storyboard Layer 2 (Pass)
//Storyboard Layer 3 (Foreground)
//Storyboard Layer 4 (Overlay)
//Storyboard Sound Samples

[TimingPoints]
365,447.761194029851,4,2,1,70,1,0
11223,-66.6666666666667,4,2,1,70,0,0
14301,-100,4,2,1,70,0,0
15029,-50,4,2,1,70,0,0
19059,-66.6666666666667,4,2,1,70,0,0
22529,-100,4,2,1,70,0,0
31708,-66.6666666666667,4,2,1,70,0,0
39320,-100,4,2,1,70,0,0
59469,-100,4,2,1,80,0,1
83648,-100,4,2,1,60,0,0
88126,-66.6666666666667,4,2,1,70,0,0
104806,447.761194029851,4,2,1,70,1,0
108164,-100,4,2,1,5,0,0
108388,-100,4,2,1,70,0,0
108612,447.761194029851,4,2,1,60,1,0
115776,-100,4,2,1,70,0,0
124731,-1000,4,2,1,70,0,0
125179,-50,4,2,1,80,0,1
138612,-50,4,2,1,70,0,0
138649,-200,4,2,1,70,0,0
139059,-50,4,2,1,80,0,1
146112,-50,4,2,1,70,0,0

[Colours]
Combo1 : 255,201,36
Combo2 : 255,98,176
Combo3 : 183,183,255
Combo4 : 255,151,47

[HitObjects]
104,112,3499,6,0,L|96:64,3,45,0|0|0|0,0:2|0:2|0:2|0:2,0:2:0:0:
30,39,3891,5,0,0:2:0:0:
30,39,3947,1,2,1:2:0:0:
190,76,4282,5,2,0:2:0:0:
190,76,4394,1,0,1:2:0:0:
148,182,4506,5,0,0:2:0:0:
215,155,4618,1,0,0:2:0:0:
235,162,4693,1,0,0:2:0:0:
251,176,4767,1,0,0:2:0:0:
259,195,4842,1,2,1:2:0:0:
283,321,5066,5,0,0:2:0:0:
291,340,5141,1,0,0:2:0:0:
307,354,5215,1,0,0:2:0:0:
327,361,5290,1,2,1:2:0:0:
432,335,5514,1,0,0:2:0:0:
461,231,5738,5,0,1:2:0:0:
51,68,6185,1,2,1:2:0:0:
502,145,6633,5,2,1:2:0:0:
9,238,7081,1,2,1:2:0:0:
198,48,7529,5,2,1:2:0:0:
303,22,7753,1,0,0:2:0:0:
323,29,7827,1,0,0:2:0:0:
339,43,7902,1,0,0:2:0:0:
347,62,7976,1,2,1:2:0:0:
362,168,8200,1,0,0:2:0:0:
265,103,8424,5,0,1:2:0:0:
357,46,8648,1,2,0:2:0:0:
461,73,8872,1,0,1:2:0:0:
493,176,9096,1,0,0:2:0:0:
440,325,9320,5,0,1:2:0:0:
414,256,9432,1,2,0:2:0:0:
378,284,9544,1,0,0:2:0:0:
366,327,9656,1,0,0:2:0:0:
299,361,9767,5,0,1:2:0:0:
273,292,9879,1,2,0:2:0:0:
237,320,9991,1,0,0:2:0:0:
225,363,10103,1,0,0:2:0:0:
169,314,10215,5,6,1:2:0:0:
169,314,10253,1,0,0:2:0:0:
361,145,10551,5,0,1:2:0:0:
438,155,10663,5,2,0:2:0:0:
409,160,10738,1,2,0:2:0:0:
388,181,10812,1,2,0:2:0:0:
358,186,10887,1,2,0:2:0:0:
337,208,10962,1,2,0:2:0:0:
307,213,11036,1,2,0:2:0:0:
67,164,11223,6,0,L|48:270,1,67.5,14|0,1:2|0:2,0:2:0:0:
63,342,11447,5,14,1:2:0:0:
76,263,11559,1,2,0:2:0:0:
205,354,11782,5,0,1:2:0:0:
185,347,11857,1,0,1:2:0:0:
169,333,11932,1,0,1:2:0:0:
161,314,12006,2,0,L|267:295,1,67.5,14|0,1:2|0:2,0:2:0:0:
350,341,12230,1,0,0:2:0:0:
310,193,12342,2,0,L|291:299,1,67.5,14|0,0:2|0:2,0:2:0:0:
500,263,12603,5,12,1:2:0:0:
388,243,12753,1,14,0:2:0:0:
480,230,12902,1,2,0:2:0:0:
488,370,13051,5,8,0:2:0:0:
468,258,13200,1,8,0:2:0:0:
429,321,13350,5,10,0:2:0:0:
409,209,13499,1,10,0:2:0:0:
484,132,13648,1,10,0:2:0:0:
464,20,13797,1,10,0:2:0:0:
318,115,14021,5,2,0:2:0:0:
312,148,14133,1,2,0:2:0:0:
247,192,14245,5,0,1:2:0:0:
247,192,14301,2,0,L|211:198,2,22.5,0|0|0,1:2|1:2|1:2,1:2:0:0:
316,230,14469,5,2,1:2:0:0:
303,282,14581,1,2,1:2:0:0:
254,305,14693,1,8,1:2:0:0:
12,317,14917,5,12,1:2:0:0:
164,280,15029,2,0,L|73:264,1,90,8|0,1:2|0:2,0:2:0:0:
119,141,15253,5,12,1:2:0:0:
271,178,15365,2,0,L|180:193,1,90,8|0,1:2|0:2,0:2:0:0:
22,105,15588,5,12,1:2:0:0:
174,68,15700,2,0,L|83:52,1,90,8|0,1:2|0:2,0:2:0:0:
0,183,15924,5,0,1:2:0:0:
0,183,15980,1,0,1:2:0:0:
0,183,16036,1,12,1:2:0:0:
101,321,16260,5,2,1:2:0:0:
117,295,16335,1,2,1:2:0:0:
120,265,16409,1,2,1:2:0:0:
111,236,16484,1,14,1:2:0:0:
111,236,16708,1,0,0:2:0:0:
174,68,16932,5,14,0:2:0:0:
186,140,17044,1,2,0:2:0:0:
258,128,17156,1,2,0:2:0:0:
270,200,17267,1,2,0:2:0:0:
193,291,17379,5,12,1:2:0:0:
193,291,17715,1,0,0:2:0:0:
269,365,17827,5,2,0:2:0:0:
263,332,17939,1,0,0:2:0:0:
238,354,18051,1,0,0:2:0:0:
343,337,18163,5,14,1:2:0:0:
509,255,18499,5,0,1:2:0:0:
483,239,18573,1,0,1:2:0:0:
453,236,18648,1,0,1:2:0:0:
424,245,18723,1,10,1:2:0:0:
461,311,18835,1,0,1:2:0:0:
483,69,19059,6,0,L|502:175,1,67.5,14|0,1:2|0:2,0:2:0:0:
419,151,19282,2,0,L|400:45,1,67.5,14|0,1:2|0:2,0:2:0:0:
392,102,19469,1,0,0:2:0:0:
371,111,19544,1,0,0:2:0:0:
348,112,19618,1,0,0:2:0:0:
326,106,19693,1,0,0:2:0:0:
306,94,19767,5,2,0:2:0:0:
329,121,19842,1,2,0:2:0:0:
337,156,19917,1,2,0:2:0:0:
333,191,19991,1,2,0:2:0:0:
313,221,20066,6,0,L|207:240,1,67.5,14|0,1:2|0:2,0:2:0:0:
97,179,20290,1,8,1:2:0:0:
284,207,20402,6,0,L|178:226,1,67.5,14|0,1:2|0:2,0:2:0:0:
68,165,20626,1,8,1:2:0:0:
255,193,20738,6,0,L|149:212,1,67.5,14|0,1:2|0:2,0:2:0:0:
39,151,20962,1,8,1:2:0:0:
99,88,21073,5,8,1:2:0:0:
106,123,21148,1,0,1:2:0:0:
112,159,21223,1,0,1:2:0:0:
118,193,21297,1,0,1:2:0:0:
68,266,21409,1,14,1:2:0:0:
260,341,21633,5,2,0:2:0:0:
241,328,21708,1,0,0:2:0:0:
218,324,21782,1,0,0:2:0:0:
195,327,21857,1,2,1:2:0:0:
258,237,22081,5,2,0:2:0:0:
264,204,22193,1,0,0:2:0:0:
216,146,22305,5,2,0:2:0:0:
216,146,22361,1,2,0:2:0:0:
216,146,22417,1,2,0:2:0:0:
312,105,22529,6,0,L|321:158,1,45,2|0,0:2|0:2,0:2:0:0:
377,220,22753,5,2,0:2:0:0:
374,239,22865,1,0,0:2:0:0:
447,251,22976,5,2,0:2:0:0:
450,270,23088,1,0,0:2:0:0:
394,272,23200,5,2,0:2:0:0:
391,291,23312,1,0,0:2:0:0:
464,303,23424,5,2,0:2:0:0:
467,322,23536,1,0,0:2:0:0:
406,371,23648,5,2,0:2:0:0:
406,371,23872,1,0,0:2:0:0:
276,298,24096,5,2,0:2:0:0:
255,288,24208,1,0,0:2:0:0:
232,285,24320,1,0,0:2:0:0:
209,289,24432,1,0,0:2:0:0:
147,339,24544,5,2,0:2:0:0:
144,358,24656,1,0,0:2:0:0:
67,297,24767,5,2,0:2:0:0:
70,316,24879,1,0,0:2:0:0:
135,274,24991,5,2,0:2:0:0:
132,293,25103,1,0,0:2:0:0:
85,227,25215,5,2,0:2:0:0:
105,220,25290,1,0,0:2:0:0:
121,206,25365,1,0,0:2:0:0:
129,187,25439,5,2,0:2:0:0:
143,149,25551,1,0,0:2:0:0:
175,125,25663,1,2,0:2:0:0:
215,128,25775,1,0,0:2:0:0:
255,131,25887,1,2,0:2:0:0:
287,107,25999,1,0,0:2:0:0:
301,69,26111,5,2,0:2:0:0:
309,50,26185,1,2,0:2:0:0:
325,36,26260,1,2,0:2:0:0:
345,29,26335,1,2,0:2:0:0:
345,29,26782,1,2,0:2:0:0:
350,146,27006,5,0,0:2:0:0:
342,165,27081,1,0,0:2:0:0:
326,179,27156,1,0,0:2:0:0:
306,186,27230,5,6,1:2:0:0:
295,178,27305,1,0,0:2:0:0:
282,176,27379,1,0,0:2:0:0:
270,181,27454,1,0,0:2:0:0:
262,193,27529,1,0,0:2:0:0:
262,206,27603,1,0,0:2:0:0:
270,218,27678,1,0,0:2:0:0:
282,223,27753,1,0,0:2:0:0:
295,221,27827,1,0,0:2:0:0:
306,212,27902,5,2,1:2:0:0:
295,233,27976,1,0,0:2:0:0:
295,257,28051,1,0,0:2:0:0:
309,276,28126,1,0,0:2:0:0:
330,286,28200,1,0,0:2:0:0:
354,286,28275,1,0,0:2:0:0:
374,273,28350,5,2,0:2:0:0:
354,302,28424,1,2,0:2:0:0:
319,313,28499,1,2,0:2:0:0:
283,312,28573,1,2,1:2:0:0:
172,280,28797,1,2,0:2:0:0:
25,347,29021,5,2,1:2:0:0:
45,323,29133,1,0,0:2:0:0:
53,292,29245,1,0,0:2:0:0:
113,310,29357,5,0,1:2:0:0:
93,286,29469,1,0,0:2:0:0:
85,255,29581,1,0,0:2:0:0:
25,205,29693,5,2,1:2:0:0:
44,197,29767,1,2,0:2:0:0:
58,181,29842,1,2,0:2:0:0:
65,161,29917,1,2,0:2:0:0:
117,104,30029,5,2,1:2:0:0:
143,135,30141,1,0,0:2:0:0:
154,175,30253,1,0,0:2:0:0:
155,258,30365,1,2,1:2:0:0:
277,90,30588,5,0,0:2:0:0:
269,109,30663,1,0,0:2:0:0:
253,123,30738,1,0,0:2:0:0:
233,130,30812,1,10,1:2:0:0:
231,293,31036,5,0,0:2:0:0:
237,256,31148,1,0,0:2:0:0:
272,262,31260,1,2,0:2:0:0:
266,299,31372,1,0,0:2:0:0:
331,199,31484,5,8,1:2:0:0:
344,278,31596,1,8,1:2:0:0:
416,168,31708,6,0,L|397:274,1,67.5,10|0,1:2|0:2,0:2:0:0:
468,318,31932,2,0,L|487:424,1,67.5,10|0,1:2|0:2,0:2:0:0:
512,249,32156,5,8,1:2:0:0:
386,304,32267,1,8,1:2:0:0:
386,304,32491,1,10,1:2:0:0:
386,304,32715,5,10,1:2:0:0:
380,341,32827,1,0,0:2:0:0:
297,372,32939,5,10,1:2:0:0:
305,300,33051,1,2,1:2:0:0:
305,300,33107,1,0,1:2:0:0:
305,300,33163,2,0,L|263:307,2,33.75,0|0|10,1:2|1:2|1:2,1:2:0:0:
163,362,33499,5,10,1:2:0:0:
227,212,33723,1,2,0:2:0:0:
227,212,33779,1,0,0:2:0:0:
227,212,33835,1,10,1:2:0:0:
241,291,33947,1,2,0:2:0:0:
5,264,34096,5,10,1:2:0:0:
5,264,34394,5,10,1:2:0:0:
161,230,34618,1,2,0:2:0:0:
49,202,34842,5,2,0:2:0:0:
115,325,34954,2,0,L|96:219,1,67.5,10|0,1:2|0:2,0:2:0:0:
10,115,35178,6,0,L|29:221,1,67.5,10|0,1:2|0:2,0:2:0:0:
76,238,35402,1,10,1:2:0:0:
175,156,35514,5,0,0:2:0:0:
146,165,35588,1,0,1:2:0:0:
116,162,35663,1,0,1:2:0:0:
90,146,35738,1,8,1:2:0:0:
68,25,35850,1,2,1:2:0:0:
86,48,36185,5,10,1:2:0:0:
64,169,36297,1,2,1:2:0:0:
36,157,36633,5,10,1:2:0:0:
58,278,36745,1,2,1:2:0:0:
35,305,37081,5,10,1:2:0:0:
55,384,37193,1,2,0:2:0:0:
62,347,37305,1,2,0:2:0:0:
68,310,37417,1,2,0:2:0:0:
149,287,37529,5,10,1:2:0:0:
137,353,37641,1,0,0:2:0:0:
201,331,37753,2,0,L|148:321,2,33.75,2|2|2,0:2|0:2|0:2,0:2:0:0:
265,258,37976,5,4,1:2:0:0:
290,305,38088,1,0,0:2:0:0:
339,327,38200,1,2,0:2:0:0:
392,318,38312,1,2,0:2:0:0:
458,259,38424,5,10,1:2:0:0:
461,240,38536,1,0,0:2:0:0:
382,211,38648,5,2,0:2:0:0:
379,192,38760,1,0,0:2:0:0:
432,124,38872,5,2,1:2:0:0:
482,105,38984,1,0,0:2:0:0:
503,55,39096,1,0,0:2:0:0:
424,48,39208,5,2,0:2:0:0:
349,130,39320,2,0,L|363:50,1,45,8|0,1:2|0:2,0:2:0:0:
322,1,39544,1,2,0:2:0:0:
322,1,39600,1,0,0:2:0:0:
322,1,39656,1,0,0:2:0:0:
273,89,39767,5,0,1:2:0:0:
246,18,39879,1,0,0:2:0:0:
209,58,39991,1,2,0:2:0:0:
156,72,40103,1,2,0:2:0:0:
53,35,40215,5,10,1:2:0:0:
103,64,40327,1,0,0:2:0:0:
128,116,40439,1,2,0:2:0:0:
118,173,40551,1,2,0:2:0:0:
26,215,40663,6,0,L|11:135,1,45,2|0,1:2|0:2,0:2:0:0:
117,263,40887,1,2,0:2:0:0:
117,263,40943,1,2,0:2:0:0:
117,263,40999,1,2,0:2:0:0:
24,311,41111,5,10,1:2:0:0:
43,314,41223,1,0,0:2:0:0:
100,375,41335,2,0,L|180:390,1,45,2|0,0:2|0:2,0:2:0:0:
204,305,41559,5,2,1:2:0:0:
210,268,41670,1,0,0:2:0:0:
269,214,41782,5,2,0:2:0:0:
266,195,41894,1,0,0:2:0:0:
248,242,42006,5,8,1:2:0:0:
251,261,42118,1,0,0:2:0:0:
295,321,42230,5,2,0:2:0:0:
289,358,42342,1,0,0:2:0:0:
365,327,42454,5,2,1:2:0:0:
359,290,42566,1,0,0:2:0:0:
300,236,42678,5,2,0:2:0:0:
303,217,42790,1,0,0:2:0:0:
370,177,42902,5,10,1:2:0:0:
294,124,43014,5,2,0:2:0:0:
336,110,43126,1,2,0:2:0:0:
361,73,43238,1,2,0:2:0:0:
288,41,43350,5,12,1:2:0:0:
202,169,43573,1,2,3:2:0:0:
204,155,43648,1,0,0:2:0:0:
207,140,43723,1,0,0:2:0:0:
209,126,43797,1,12,1:2:0:0:
332,253,44021,1,2,3:2:0:0:
135,296,44245,5,14,1:2:0:0:
247,316,44394,5,2,0:2:0:0:
179,384,44544,5,0,0:2:0:0:
181,370,44618,1,0,0:2:0:0:
184,355,44693,1,2,0:2:0:0:
256,239,44842,5,0,0:2:0:0:
253,224,44917,1,2,0:2:0:0:
307,169,45029,1,0,0:2:0:0:
330,288,45141,5,6,1:2:0:0:
346,256,45253,1,0,0:2:0:0:
377,238,45365,1,0,0:2:0:0:
412,238,45476,1,0,0:2:0:0:
399,309,45588,5,8,0:2:0:0:
325,363,45700,2,0,L|283:356,2,22.5,0|0|2,0:2|0:2|0:2,0:2:0:0:
433,326,45924,1,2,0:2:0:0:
481,217,46036,5,2,1:2:0:0:
465,185,46148,1,0,0:2:0:0:
434,167,46260,1,0,0:2:0:0:
399,167,46372,1,0,0:2:0:0:
412,238,46484,5,8,0:2:0:0:
486,292,46596,2,0,L|528:285,2,22.5,0|0|2,0:2|0:2|0:2,0:2:0:0:
378,255,46820,1,2,0:2:0:0:
313,171,46932,5,2,1:2:0:0:
319,134,47044,1,0,0:2:0:0:
264,79,47156,1,0,0:2:0:0:
277,160,47267,5,2,0:2:0:0:
283,197,47379,1,8,0:2:0:0:
247,183,47491,1,0,0:2:0:0:
183,140,47603,2,0,L|192:82,1,45,2|0,0:2|0:2,0:2:0:0:
70,105,47827,5,2,1:2:0:0:
113,119,47939,1,0,0:2:0:0:
113,164,48051,1,0,0:2:0:0:
70,178,48163,1,0,0:2:0:0:
44,142,48275,1,8,1:2:0:0:
197,29,48499,5,0,0:2:0:0:
199,43,48573,1,0,0:2:0:0:
202,58,48648,1,0,0:2:0:0:
204,72,48723,1,2,1:2:0:0:
241,78,48835,1,0,0:2:0:0:
260,3,48947,5,0,0:2:0:0:
315,58,49059,1,2,0:2:0:0:
309,95,49170,1,8,0:2:0:0:
345,81,49282,1,0,0:2:0:0:
424,61,49394,2,0,L|415:119,1,45,2|0,0:2|0:2,0:2:0:0:
363,229,49618,5,2,1:2:0:0:
320,215,49730,1,0,0:2:0:0:
320,170,49842,1,0,0:2:0:0:
363,156,49954,1,0,0:2:0:0:
389,192,50066,2,0,L|398:250,1,45,8|0,0:2|0:2,0:2:0:0:
280,114,50290,2,0,L|289:172,1,45,2|0,0:2|0:2,0:2:0:0:
217,324,50514,5,2,1:2:0:0:
211,287,50626,1,0,0:2:0:0:
266,232,50738,1,0,0:2:0:0:
164,192,50850,5,2,0:2:0:0:
158,229,50962,1,8,0:2:0:0:
194,215,51073,1,0,0:2:0:0:
87,195,51185,2,0,L|78:137,1,45,2|0,0:2|0:2,0:2:0:0:
163,39,51409,5,2,1:2:0:0:
150,113,51521,1,2,0:2:0:0:
150,113,51577,1,2,0:2:0:0:
150,113,51633,1,2,0:2:0:0:
93,64,51745,1,2,0:2:0:0:
226,95,51857,5,8,1:2:0:0:
232,132,51969,1,0,0:2:0:0:
267,126,52081,1,2,0:2:0:0:
261,89,52193,1,2,0:2:0:0:
321,25,52305,6,0,L|379:34,1,45,10|0,1:2|0:2,0:2:0:0:
349,147,52529,1,0,1:2:0:0:
341,102,52641,1,2,0:2:0:0:
416,113,52753,5,0,1:2:0:0:
455,178,52865,1,0,0:2:0:0:
447,223,52976,1,2,1:2:0:0:
321,304,53200,5,10,1:2:0:0:
321,304,53256,1,0,0:2:0:0:
321,304,53312,1,0,0:2:0:0:
334,228,53424,1,2,1:2:0:0:
342,273,53536,1,0,0:2:0:0:
255,337,53648,6,0,L|246:395,1,45,2|0,1:2|0:2,0:2:0:0:
223,264,53872,1,2,1:2:0:0:
231,309,53984,1,0,0:2:0:0:
147,357,54096,6,0,L|89:348,1,45,10|0,1:2|0:2,0:2:0:0:
119,235,54320,1,0,1:2:0:0:
127,280,54432,1,2,0:2:0:0:
52,269,54544,5,0,1:2:0:0:
13,204,54656,1,0,0:2:0:0:
21,159,54767,1,0,1:2:0:0:
169,51,54991,5,10,1:2:0:0:
169,51,55047,1,0,0:2:0:0:
169,51,55103,1,0,0:2:0:0:
93,38,55215,1,2,1:2:0:0:
138,30,55327,1,0,0:2:0:0:
125,118,55439,5,2,1:2:0:0:
152,132,55514,1,2,0:2:0:0:
181,132,55588,1,2,0:2:0:0:
207,117,55663,1,2,1:2:0:0:
233,102,55738,1,2,0:2:0:0:
262,102,55812,1,2,0:2:0:0:
289,116,55887,5,10,1:2:0:0:
302,190,55999,1,0,0:2:0:0:
189,159,56111,5,2,1:2:0:0:
219,176,56185,1,2,0:2:0:0:
236,207,56260,1,2,0:2:0:0:
237,243,56335,1,2,1:2:0:0:
207,313,56447,1,0,0:2:0:0:
309,298,56559,5,2,1:2:0:0:
301,343,56670,1,0,0:2:0:0:
379,384,56782,5,10,1:2:0:0:
399,272,56932,1,10,0:2:0:0:
412,364,57081,1,10,0:2:0:0:
335,233,57230,5,10,1:2:0:0:
365,65,57379,1,10,0:2:0:0:
384,203,57529,1,10,0:2:0:0:
420,15,57678,5,10,3:2:0:0:
393,29,57753,1,2,3:2:0:0:
364,35,57827,1,2,3:2:0:0:
333,33,57902,1,2,3:2:0:0:
303,28,57976,1,2,3:2:0:0:
275,15,58051,1,2,3:2:0:0:
281,44,58126,5,2,3:2:0:0:
254,30,58200,1,2,3:2:0:0:
225,24,58275,1,2,3:2:0:0:
194,26,58350,1,2,3:2:0:0:
164,31,58424,1,2,3:2:0:0:
136,44,58499,1,2,3:2:0:0:
145,15,58573,5,2,3:2:0:0:
165,127,58723,1,10,0:2:0:0:
90,204,58872,1,8,0:2:0:0:
110,316,59021,1,8,1:2:0:0:
84,341,59245,5,2,0:2:0:0:
78,378,59357,1,2,0:2:0:0:
4,293,59469,5,6,1:2:0:0:
16,302,59544,1,0,0:2:0:0:
29,308,59618,1,0,0:2:0:0:
43,311,59693,1,0,0:2:0:0:
57,311,59767,1,0,0:2:0:0:
72,309,59842,1,0,0:2:0:0:
86,305,59917,1,8,0:2:0:0:
184,210,60141,5,2,0:2:0:0:
194,143,60253,1,2,0:2:0:0:
305,174,60365,5,2,1:2:0:0:
297,219,60476,1,0,0:2:0:0:
263,189,60588,1,0,0:2:0:0:
233,268,60700,5,2,0:2:0:0:
302,322,60812,5,8,0:2:0:0:
347,314,60924,1,0,0:2:0:0:
423,351,61036,5,2,0:2:0:0:
378,343,61148,1,0,0:2:0:0:
419,264,61260,6,0,L|435:160,1,90,2|0,1:2|0:2,0:2:0:0:
304,88,61708,2,0,L|320:-15,1,90,10|0,0:2|0:2,0:2:0:0:
341,187,62156,1,2,1:2:0:0:
227,129,62379,5,2,0:2:0:0:
235,174,62491,1,0,0:2:0:0:
196,239,62603,1,10,0:2:0:0:
196,239,62827,1,0,0:2:0:0:
42,131,63051,5,2,1:2:0:0:
42,131,63275,1,2,0:2:0:0:
87,123,63387,1,0,0:2:0:0:
152,162,63499,1,10,0:2:0:0:
14,251,63723,1,2,0:2:0:0:
196,239,63947,5,2,1:2:0:0:
196,239,64170,1,2,0:2:0:0:
151,247,64282,1,2,0:2:0:0:
86,208,64394,1,10,0:2:0:0:
58,353,64618,1,2,0:2:0:0:
271,301,64842,5,2,1:2:0:0:
271,301,64898,1,2,0:2:0:0:
362,173,65066,1,0,0:2:0:0:
354,218,65178,1,0,0:2:0:0:
393,283,65290,5,10,0:2:0:0:
393,283,65346,1,2,0:2:0:0:
491,186,65514,1,0,0:2:0:0:
416,10,65738,5,2,1:2:0:0:
351,30,65850,1,2,0:2:0:0:
351,98,65962,1,2,0:2:0:0:
416,119,66073,1,2,0:2:0:0:
455,64,66185,1,10,0:2:0:0:
455,64,66241,1,2,0:2:0:0:
281,133,66409,5,2,0:2:0:0:
275,96,66521,1,2,0:2:0:0:
314,31,66633,1,2,1:2:0:0:
252,155,66857,5,2,0:2:0:0:
240,87,66969,1,2,0:2:0:0:
301,0,67081,1,10,0:2:0:0:
366,149,67305,5,2,0:2:0:0:
356,216,67417,1,2,0:2:0:0:
449,208,67529,5,2,1:2:0:0:
371,281,67641,1,2,0:2:0:0:
379,236,67753,1,0,0:2:0:0:
488,283,67865,5,2,0:2:0:0:
443,291,67976,1,8,0:2:0:0:
473,326,68088,1,0,0:2:0:0:
394,353,68200,5,2,0:2:0:0:
349,361,68312,1,0,0:2:0:0:
283,274,68424,6,0,L|299:170,1,90,2|0,1:2|0:2,0:2:0:0:
50,93,68872,2,0,L|66:-11,1,90,10|0,0:2|0:2,0:2:0:0:
151,195,69320,1,2,1:2:0:0:
265,31,69544,5,2,0:2:0:0:
220,39,69656,1,2,0:2:0:0:
323,94,69767,1,10,0:2:0:0:
323,94,69991,1,0,0:2:0:0:
55,153,70215,5,2,1:2:0:0:
42,230,70327,1,0,0:2:0:0:
42,230,70383,1,0,0:2:0:0:
42,230,70439,1,2,0:2:0:0:
121,182,70551,5,0,0:2:0:0:
113,227,70663,1,10,0:2:0:0:
113,227,70887,1,2,0:2:0:0:
232,309,71111,5,2,1:2:0:0:
224,354,71223,1,0,0:2:0:0:
298,349,71335,1,2,0:2:0:0:
298,349,71391,1,0,0:2:0:0:
151,321,71559,5,10,0:2:0:0:
151,321,71782,1,2,0:2:0:0:
319,261,72006,5,2,1:2:0:0:
190,209,72230,1,2,0:2:0:0:
229,207,72305,1,2,0:2:0:0:
263,190,72379,1,2,0:2:0:0:
285,158,72454,1,10,0:2:0:0:
311,25,72678,1,0,0:2:0:0:
196,99,72902,5,2,1:2:0:0:
196,99,73126,1,0,0:2:0:0:
196,99,73350,1,10,0:2:0:0:
376,112,73573,5,2,0:2:0:0:
382,149,73685,1,2,0:2:0:0:
452,188,73797,5,6,1:2:0:0:
363,236,73909,5,2,0:2:0:0:
398,242,74021,1,0,0:2:0:0:
374,268,74133,1,0,0:2:0:0:
297,293,74245,5,8,0:2:0:0:
291,330,74357,1,0,0:2:0:0:
214,335,74469,5,2,0:2:0:0:
224,268,74581,1,2,0:2:0:0:
306,173,74693,5,2,1:2:0:0:
298,218,74805,1,0,0:2:0:0:
264,188,74917,1,0,0:2:0:0:
261,106,75029,5,2,0:2:0:0:
192,153,75141,5,8,0:2:0:0:
184,198,75253,1,0,0:2:0:0:
113,156,75365,2,0,L|121:104,1,45,2|0,0:2|0:2,0:2:0:0:
23,139,75588,6,0,L|39:35,1,90,2|0,1:2|0:2,0:2:0:0:
299,370,76036,2,0,L|315:266,1,90,10|0,0:2|0:2,0:2:0:0:
122,305,76484,1,2,1:2:0:0:
146,102,76708,5,2,0:2:0:0:
168,135,76782,1,2,0:2:0:0:
202,152,76857,1,2,0:2:0:0:
241,153,76932,1,10,0:2:0:0:
403,102,77156,1,2,0:2:0:0:
225,47,77379,5,2,1:2:0:0:
322,121,77603,1,2,0:2:0:0:
328,158,77715,1,0,0:2:0:0:
289,223,77827,1,10,0:2:0:0:
166,127,78051,5,2,0:2:0:0:
433,209,78275,1,2,1:2:0:0:
308,94,78499,1,2,0:2:0:0:
314,131,78611,1,0,0:2:0:0:
275,196,78723,1,10,0:2:0:0:
107,207,78947,5,2,0:2:0:0:
463,316,79170,1,2,1:2:0:0:
258,122,79394,5,2,0:2:0:0:
291,144,79469,1,2,0:2:0:0:
308,178,79544,1,2,0:2:0:0:
309,217,79618,1,10,0:2:0:0:
259,373,79842,1,2,0:2:0:0:
19,284,80066,5,2,1:2:0:0:
19,284,80290,1,0,0:2:0:0:
52,297,80402,1,0,0:2:0:0:
96,300,80514,1,10,0:2:0:0:
138,285,80626,1,0,0:2:0:0:
193,200,80738,5,2,0:2:0:0:
199,163,80850,1,2,0:2:0:0:
111,97,80962,5,2,1:2:0:0:
119,172,81073,1,2,0:2:0:0:
74,164,81185,1,0,0:2:0:0:
231,17,81409,1,8,0:2:0:0:
279,191,81633,5,2,0:2:0:0:
269,258,81745,1,2,0:2:0:0:
346,256,81857,5,2,1:2:0:0:
354,211,81969,1,0,0:2:0:0:
388,241,82081,1,0,0:2:0:0:
420,164,82193,5,2,0:2:0:0:
512,235,82305,5,8,0:2:0:0:
466,227,82417,1,0,0:2:0:0:
426,311,82529,5,2,0:2:0:0:
471,303,82641,1,0,0:2:0:0:
339,360,82753,6,0,L|355:256,1,90,2|0,1:2|0:2,0:2:0:0:
108,132,83200,2,0,L|124:28,1,90,10|0,0:2|0:2,0:2:0:0:
269,175,83648,5,2,0:2:0:0:
256,198,83872,1,2,0:2:0:0:
233,212,84096,1,2,0:2:0:0:
206,216,84320,1,2,0:2:0:0:
181,205,84544,1,2,0:2:0:0:
156,194,84767,1,2,0:2:0:0:
129,198,84991,1,2,0:2:0:0:
106,212,85103,1,2,0:2:0:0:
93,235,85215,1,2,0:2:0:0:
90,261,85327,1,2,0:2:0:0:
97,286,85439,5,2,0:2:0:0:
72,275,85551,1,2,0:2:0:0:
44,275,85663,1,2,0:2:0:0:
18,285,85887,1,2,0:2:0:0:
4,308,86111,1,2,0:2:0:0:
1,334,86335,5,2,0:2:0:0:
26,324,86559,1,2,0:2:0:0:
52,325,86782,1,2,0:2:0:0:
77,332,86894,1,2,0:2:0:0:
102,339,87006,1,2,0:2:0:0:
128,340,87118,1,2,0:2:0:0:
153,330,87230,1,2,0:2:0:0:
231,193,87454,5,0,0:2:0:0:
291,253,87566,1,0,0:2:0:0:
291,253,87622,1,0,0:2:0:0:
291,253,87678,2,0,L|282:305,1,45,2|0,1:2|0:2,0:2:0:0:
152,199,87902,5,2,0:2:0:0:
160,154,88014,1,0,0:2:0:0:
78,98,88126,2,0,L|227:71,1,135,6|0,1:2|0:2,0:2:0:0:
208,79,88406,1,0,1:2:0:0:
207,85,88462,1,0,1:2:0:0:
206,91,88517,1,0,1:2:0:0:
205,97,88573,1,2,1:2:0:0:
21,179,88797,1,2,1:2:0:0:
220,233,89021,1,6,1:2:0:0:
65,319,89245,5,0,0:2:0:0:
86,313,89320,1,0,0:2:0:0:
108,313,89394,1,0,0:2:0:0:
129,318,89469,1,10,1:2:0:0:
201,354,89581,1,0,0:2:0:0:
257,232,89693,5,2,1:2:0:0:
270,311,89805,1,2,1:2:0:0:
200,192,89917,2,0,L|349:219,1,135,6|0,1:2|0:2,0:2:0:0:
331,210,90197,1,0,1:2:0:0:
330,204,90253,1,0,1:2:0:0:
329,198,90309,1,0,1:2:0:0:
328,192,90365,1,2,1:2:0:0:
159,277,90588,1,2,1:2:0:0:
445,345,90812,5,6,1:2:0:0:
451,324,90887,1,0,0:2:0:0:
451,302,90962,1,0,0:2:0:0:
446,281,91036,5,0,1:2:0:0:
416,301,91111,1,0,1:2:0:0:
403,334,91185,1,0,1:2:0:0:
409,369,91260,1,8,1:2:0:0:
404,197,91484,5,10,1:2:0:0:
483,184,91596,1,0,1:2:0:0:
509,261,91708,2,0,L|360:234,1,135,6|0,1:2|0:2,0:2:0:0:
279,277,92044,1,0,1:2:0:0:
305,171,92156,5,10,0:2:0:0:
311,204,92267,1,0,0:2:0:0:
199,253,92379,5,2,1:2:0:0:
193,286,92491,1,0,0:2:0:0:
135,225,92603,6,0,L|284:198,1,135,4|0,1:2|0:2,0:2:0:0:
183,137,92939,1,0,1:2:0:0:
250,61,93051,5,10,1:2:0:0:
256,94,93163,1,0,0:2:0:0:
164,21,93275,5,0,1:2:0:0:
158,54,93387,1,0,0:2:0:0:
102,119,93499,5,6,1:2:0:0:
81,113,93573,1,0,0:2:0:0:
59,113,93648,1,0,0:2:0:0:
38,118,93723,1,2,0:2:0:0:
66,197,93835,5,0,1:2:0:0:
67,191,93891,1,0,1:2:0:0:
68,185,93947,1,10,1:2:0:0:
173,166,94096,1,10,1:2:0:0:
267,297,94282,1,10,1:2:0:0:
352,282,94394,5,14,1:2:0:0:
246,226,94544,1,2,1:2:0:0:
280,232,94618,1,2,0:2:0:0:
315,238,94693,1,2,1:2:0:0:
350,244,94767,1,2,0:2:0:0:
385,250,94842,1,2,1:2:0:0:
339,70,95066,5,2,0:2:0:0:
331,115,95178,1,2,0:2:0:0:
251,59,95290,5,4,1:2:0:0:
254,78,95402,1,0,0:2:0:0:
181,90,95514,5,2,0:2:0:0:
178,109,95626,1,0,0:2:0:0:
264,169,95738,5,10,0:2:0:0:
227,163,95850,1,0,0:2:0:0:
190,247,95962,5,2,0:2:0:0:
227,241,96073,1,0,0:2:0:0:
141,168,96185,5,0,1:2:0:0:
138,187,96297,1,0,0:2:0:0:
64,218,96409,5,2,3:2:0:0:
58,197,96484,1,2,3:2:0:0:
58,175,96559,1,2,3:2:0:0:
63,154,96633,1,10,3:2:0:0:
108,95,96745,1,0,0:2:0:0:
5,76,96857,5,2,0:2:0:0:
8,95,96969,1,0,0:2:0:0:
68,18,97081,5,2,1:2:0:0:
165,36,97230,1,2,0:2:0:0:
186,39,97305,1,0,0:2:0:0:
214,107,97417,1,2,0:2:0:0:
286,120,97529,5,10,0:2:0:0:
239,128,97641,1,0,0:2:0:0:
207,162,97753,1,2,0:2:0:0:
200,208,97865,1,2,0:2:0:0:
278,190,97976,5,0,1:2:0:0:
329,255,98088,5,2,0:2:0:0:
320,308,98200,1,2,0:2:0:0:
278,273,98312,1,2,0:2:0:0:
359,169,98424,5,10,0:2:0:0:
425,179,98536,1,2,0:2:0:0:
470,229,98648,1,2,0:2:0:0:
483,295,98760,1,2,0:2:0:0:
455,356,98872,5,2,1:2:0:0:
432,341,98984,1,0,0:2:0:0:
418,317,99096,1,0,0:2:0:0:
411,290,99208,1,0,0:2:0:0:
417,266,99320,1,2,0:2:0:0:
417,266,99544,1,2,0:2:0:0:
417,266,99879,5,0,0:2:0:0:
410,239,99991,1,2,0:2:0:0:
396,215,100103,1,2,0:2:0:0:
373,200,100215,1,2,0:2:0:0:
417,204,100327,1,2,0:2:0:0:
456,183,100439,1,2,0:2:0:0:
471,140,100551,1,2,0:2:0:0:
458,96,100663,5,2,1:2:0:0:
435,111,100775,1,0,0:2:0:0:
421,135,100887,1,0,0:2:0:0:
414,162,100999,1,0,0:2:0:0:
417,192,101111,1,2,0:2:0:0:
417,192,101335,1,2,0:2:0:0:
417,192,101670,5,0,0:2:0:0:
409,146,101782,1,0,0:2:0:0:
390,160,101857,1,0,0:2:0:0:
367,167,101932,1,0,0:2:0:0:
343,162,102006,5,2,0:2:0:0:
360,186,102081,1,2,0:2:0:0:
363,215,102156,1,2,0:2:0:0:
352,242,102230,1,2,0:2:0:0:
325,257,102305,1,2,0:2:0:0:
295,257,102379,1,2,0:2:0:0:
271,237,102454,1,2,1:2:0:0:
226,48,102678,5,0,1:2:0:0:
214,116,102790,1,0,1:2:0:0:
202,184,102902,1,0,1:2:0:0:
149,79,103014,5,0,1:2:0:0:
145,103,103088,1,0,1:2:0:0:
140,128,103163,1,0,1:2:0:0:
136,152,103238,1,0,1:2:0:0:
76,192,103350,1,0,1:2:0:0:
214,221,103462,5,0,1:2:0:0:
210,245,103536,1,0,1:2:0:0:
205,270,103611,1,0,1:2:0:0:
137,296,103704,5,0,1:2:0:0:
137,296,103797,1,0,1:2:0:0:
251,365,103947,5,0,1:2:0:0:
280,205,104096,5,0,1:2:0:0:
334,293,104245,1,0,1:2:0:0:
302,287,104329,1,0,1:2:0:0:
270,281,104413,1,0,1:2:0:0:
237,275,104497,1,0,1:2:0:0:
205,270,104581,1,0,1:2:0:0:
256,116,104806,5,4,1:2:0:0:
256,192,104917,12,0,108164,0:2:0:0:
180,208,108388,5,0,0:2:0:0:
174,171,108500,1,0,0:2:0:0:
111,113,108612,5,2,0:2:0:0:
140,132,108723,1,0,0:2:0:0:
175,134,108835,1,0,0:2:0:0:
207,118,108947,1,0,0:2:0:0:
226,87,109059,1,2,0:2:0:0:
259,100,109171,1,0,0:2:0:0:
280,128,109283,1,0,0:2:0:0:
286,163,109395,1,0,0:2:0:0:
271,249,109507,5,2,0:2:0:0:
277,284,109619,1,0,0:2:0:0:
298,312,109731,1,0,0:2:0:0:
331,325,109843,1,2,0:2:0:0:
337,290,109955,1,0,0:2:0:0:
358,262,110067,1,0,0:2:0:0:
391,249,110179,1,2,0:2:0:0:
397,285,110291,1,0,0:2:0:0:
473,305,110403,5,2,0:2:0:0:
479,269,110514,1,0,0:2:0:0:
454,242,110626,1,0,0:2:0:0:
460,206,110738,1,0,0:2:0:0:
393,177,110850,5,2,0:2:0:0:
399,141,110962,1,0,0:2:0:0:
374,114,111074,1,0,0:2:0:0:
380,78,111186,1,0,0:2:0:0:
444,44,111298,5,2,0:2:0:0:
300,11,111522,1,0,0:2:0:0:
294,32,111597,1,2,0:2:0:0:
294,54,111671,1,2,0:2:0:0:
299,75,111746,5,2,0:2:0:0:
254,67,111858,1,0,0:2:0:0:
213,85,111970,1,2,0:2:0:0:
124,182,112194,5,2,0:2:0:0:
124,182,112529,1,0,0:2:0:0:
80,187,112641,1,2,0:2:0:0:
54,151,112753,1,0,0:2:0:0:
98,156,112865,1,2,0:2:0:0:
35,277,113089,5,2,0:2:0:0:
226,318,113537,5,2,0:2:0:0:
226,318,113761,1,0,0:2:0:0:
363,228,113985,5,2,0:2:0:0:
363,228,114320,1,2,0:2:0:0:
357,191,114432,1,0,0:2:0:0:
324,177,114544,1,0,0:2:0:0:
319,133,114656,1,2,0:2:0:0:
444,105,114880,1,2,0:2:0:0:
444,105,115179,5,0,0:0:0:0:
428,131,115253,1,0,0:2:0:0:
401,144,115328,1,2,0:2:0:0:
430,149,115403,1,0,0:2:0:0:
452,168,115477,1,0,0:2:0:0:
464,195,115552,1,0,0:2:0:0:
469,224,115626,1,0,0:2:0:0:
460,252,115701,1,0,0:2:0:0:
438,273,115776,5,10,1:2:0:0:
407,240,115888,1,0,0:2:0:0:
363,228,116000,1,0,0:2:0:0:
320,242,116112,1,0,0:2:0:0:
262,307,116223,6,0,L|248:381,1,45,8|0,0:2|0:2,0:2:0:0:
145,322,116447,1,2,0:2:0:0:
182,316,116559,1,2,0:2:0:0:
169,198,116671,5,10,0:2:0:0:
161,243,116783,1,0,0:2:0:0:
127,213,116895,1,0,0:2:0:0:
124,129,117007,5,2,0:2:0:0:
200,79,117119,5,8,0:2:0:0:
208,124,117231,1,0,0:2:0:0:
281,165,117343,5,2,0:2:0:0:
289,120,117455,1,0,0:2:0:0:
262,18,117567,5,10,1:2:0:0:
265,39,117679,1,0,0:2:0:0:
344,46,117791,5,0,0:2:0:0:
341,67,117903,1,0,0:2:0:0:
247,126,118014,5,10,0:2:0:0:
289,120,118126,1,0,0:2:0:0:
363,161,118238,5,0,0:2:0:0:
321,155,118350,1,0,0:2:0:0:
265,224,118462,5,10,0:2:0:0:
262,203,118574,1,0,0:2:0:0:
344,237,118686,5,2,0:2:0:0:
349,258,118761,1,2,0:2:0:0:
349,280,118835,1,2,0:2:0:0:
343,301,118910,1,10,0:2:0:0:
284,343,119022,1,0,0:2:0:0:
232,250,119134,2,0,L|218:324,1,45,2|0,0:2|0:2,0:2:0:0:
21,323,119358,5,10,0:2:0:0:
18,344,119470,1,0,0:2:0:0:
116,305,119582,5,10,0:2:0:0:
113,326,119694,1,0,0:2:0:0:
45,295,119806,5,10,0:2:0:0:
42,316,119917,1,0,0:2:0:0:
140,277,120029,5,10,0:2:0:0:
137,298,120141,1,0,0:2:0:0:
69,267,120253,5,10,0:2:0:0:
66,288,120365,1,0,0:2:0:0:
164,249,120477,5,10,0:2:0:0:
161,270,120589,1,0,0:2:0:0:
101,198,120701,5,10,0:2:0:0:
126,213,120776,1,2,0:2:0:0:
155,218,120850,1,2,0:2:0:0:
185,216,120925,1,10,0:2:0:0:
213,207,121000,1,2,0:2:0:0:
236,189,121074,1,2,0:2:0:0:
252,163,121149,5,10,1:2:0:0:
252,163,121205,1,2,0:2:0:0:
252,163,121261,2,2,L|259:126,2,22.5,2|2|2,0:2|0:2|0:2,0:2:0:0:
290,272,121485,5,10,1:2:0:0:
290,272,121541,1,2,0:2:0:0:
290,272,121597,2,2,L|283:235,2,22.5,2|2|2,0:2|0:2|0:2,0:2:0:0:
337,153,121820,5,10,1:2:0:0:
337,153,121876,1,2,0:2:0:0:
337,153,121932,2,2,L|344:116,2,22.5,2|2|2,0:2|0:2|0:2,0:2:0:0:
375,262,122156,5,10,1:2:0:0:
375,262,122212,1,2,0:2:0:0:
375,262,122268,2,2,L|368:225,2,22.5,2|2|2,0:2|0:2|0:2,0:2:0:0:
422,143,122492,5,10,1:2:0:0:
422,143,122548,2,2,L|429:106,1,22.5,2|2,0:2|0:2,0:2:0:0:
460,252,122716,5,10,1:2:0:0:
460,252,122772,2,2,L|453:215,1,22.5,2|2,1:2|1:2,1:2:0:0:
412,345,122940,5,10,1:2:0:0:
368,321,123052,1,2,0:2:0:0:
318,327,123164,1,2,0:2:0:0:
238,359,123276,5,10,0:2:0:0:
188,365,123388,1,2,0:2:0:0:
144,341,123500,1,2,0:2:0:0:
212,242,123612,5,10,1:2:0:0:
204,290,123723,1,2,0:2:0:0:
138,263,123835,5,2,0:2:0:0:
139,257,123891,1,2,0:2:0:0:
140,251,123947,1,10,1:2:0:0:
74,219,124059,5,2,0:2:0:0:
66,267,124171,1,2,0:2:0:0:
0,235,124283,5,10,1:2:0:0:
24,208,124395,1,0,0:2:0:0:
59,199,124507,1,0,0:2:0:0:
94,195,124619,1,0,0:2:0:0:
127,207,124731,2,0,L|129:222,1,13.5,2|0,0:2|0:2,0:2:0:0:
66,267,125179,6,0,L|288:232,1,180,12|2,1:2|0:2,0:2:0:0:
211,217,125477,1,2,0:2:0:0:
194,183,125552,1,2,0:2:0:0:
192,144,125626,1,2,1:2:0:0:
345,241,125850,5,2,0:2:0:0:
343,280,125925,1,2,0:2:0:0:
326,314,126000,1,2,0:2:0:0:
294,336,126074,1,10,0:2:0:0:
169,363,126298,1,2,0:2:0:0:
38,296,126522,5,2,1:2:0:0:
46,251,126634,1,0,0:2:0:0:
26,232,126746,5,0,0:2:0:0:
34,277,126858,1,0,0:2:0:0:
124,267,126970,5,10,0:2:0:0:
132,222,127082,1,0,0:2:0:0:
112,203,127194,5,0,0:2:0:0:
120,248,127306,1,0,0:2:0:0:
214,257,127417,5,2,1:2:0:0:
222,212,127529,1,0,0:2:0:0:
202,193,127641,5,0,0:2:0:0:
210,238,127753,1,0,0:2:0:0:
304,247,127865,5,10,0:2:0:0:
312,202,127977,1,0,0:2:0:0:
292,183,128089,5,0,0:2:0:0:
300,228,128201,1,0,0:2:0:0:
384,283,128313,5,2,1:2:0:0:
234,317,128537,5,2,0:2:0:0:
273,319,128612,1,2,0:2:0:0:
307,336,128686,1,2,0:2:0:0:
329,368,128761,1,8,1:2:0:0:
399,210,128985,5,2,0:2:0:0:
354,218,129097,1,0,0:2:0:0:
321,90,129209,5,0,1:2:0:0:
313,135,129320,1,0,0:2:0:0:
358,143,129432,1,2,0:2:0:0:
366,98,129544,1,0,0:2:0:0:
278,24,129656,1,10,0:2:0:0:
278,24,129880,1,0,0:2:0:0:
42,85,130104,5,0,1:2:0:0:
120,168,130216,1,2,0:2:0:0:
112,123,130328,1,2,0:2:0:0:
78,152,130440,1,2,0:2:0:0:
108,55,130552,5,8,0:2:0:0:
186,138,130664,1,2,0:2:0:0:
178,93,130776,1,2,0:2:0:0:
144,122,130888,1,2,0:2:0:0:
174,25,131000,5,0,1:2:0:0:
252,108,131112,1,2,0:2:0:0:
210,92,131223,1,2,0:2:0:0:
244,63,131335,1,2,0:2:0:0:
335,100,131447,5,10,0:2:0:0:
327,145,131559,1,2,0:2:0:0:
242,183,131671,5,2,0:2:0:0:
274,205,131746,1,2,0:2:0:0:
291,239,131820,1,2,0:2:0:0:
293,278,131895,1,2,1:2:0:0:
153,353,132119,5,0,0:2:0:0:
159,316,132231,1,2,0:2:0:0:
226,348,132343,1,8,0:2:0:0:
183,230,132455,5,2,0:2:0:0:
236,278,132567,1,2,0:2:0:0:
258,246,132641,1,2,0:2:0:0:
292,229,132716,1,2,0:2:0:0:
331,227,132791,1,2,1:2:0:0:
477,268,133014,1,2,0:2:0:0:
455,116,133238,1,10,0:2:0:0:
313,58,133462,1,2,0:2:0:0:
146,99,133686,5,0,1:2:0:0:
80,230,133910,1,2,0:2:0:0:
15,207,134022,1,0,0:2:0:0:
68,163,134134,1,10,0:2:0:0:
175,265,134358,1,2,0:2:0:0:
360,140,134582,5,2,1:2:0:0:
264,314,134806,1,2,0:2:0:0:
276,247,134917,1,2,0:2:0:0:
329,291,135029,1,10,0:2:0:0:
478,384,135253,1,2,0:2:0:0:
505,205,135477,5,2,1:2:0:0:
251,160,135701,1,2,0:2:0:0:
456,62,135925,5,10,0:2:0:0:
434,94,136000,1,2,0:2:0:0:
400,111,136074,1,2,0:2:0:0:
361,113,136149,1,2,0:2:0:0:
182,61,136373,5,2,1:2:0:0:
138,305,136597,1,2,0:2:0:0:
89,78,136820,1,8,0:2:0:0:
56,262,137044,1,2,0:2:0:0:
256,192,137268,5,2,1:2:0:0:
336,83,137492,1,0,0:2:0:0:
464,124,137716,1,10,0:2:0:0:
464,259,137940,1,2,0:2:0:0:
335,300,138164,1,2,1:2:0:0:
371,192,138612,5,2,0:2:0:0:
371,192,138649,2,0,L|379:255,1,60,2|0,0:2|0:2,0:2:0:0:
307,361,139059,6,0,L|218:345,1,90,10|0,1:2|0:2,0:2:0:0:
154,281,139283,1,0,1:2:0:0:
319,230,139395,6,0,L|245:281,1,90,10|0,1:2|0:2,0:2:0:0:
154,281,139619,1,0,1:2:0:0:
234,128,139731,6,0,L|218:216,1,90,10|0,1:2|0:2,0:2:0:0:
154,281,139955,1,0,1:2:0:0:
103,117,140067,6,0,L|154:190,1,90,10|0,1:2|0:2,0:2:0:0:
154,281,140291,1,0,1:2:0:0:
34,335,140403,6,0,L|271:376,1,180,10|0,1:2|1:2,0:2:0:0:
209,360,140682,1,0,1:2:0:0:
208,354,140738,1,0,1:2:0:0:
207,348,140794,1,0,1:2:0:0:
206,342,140850,6,0,L|295:358,1,90,10|0,1:2|0:2,0:2:0:0:
378,316,141074,1,0,1:2:0:0:
347,224,141186,5,10,1:2:0:0:
343,250,141298,1,0,0:2:0:0:
275,225,141410,1,0,1:2:0:0:
212,154,141522,5,10,1:2:0:0:
216,180,141634,1,0,0:2:0:0:
284,155,141746,1,0,1:2:0:0:
253,63,141858,5,10,1:2:0:0:
249,89,141970,1,0,0:2:0:0:
181,64,142082,1,0,1:2:0:0:
142,138,142194,6,0,L|379:97,1,180,10|0,1:2|1:2,0:2:0:0:
317,113,142473,1,0,1:2:0:0:
316,119,142529,1,0,1:2:0:0:
315,125,142585,1,0,1:2:0:0:
314,131,142641,6,0,L|298:219,1,90,10|0,1:2|0:2,0:2:0:0:
234,284,142865,1,0,1:2:0:0:
183,119,142977,6,0,L|234:192,1,90,10|0,1:2|0:2,0:2:0:0:
234,284,143201,1,0,1:2:0:0:
81,204,143313,6,0,L|169:219,1,90,10|0,1:2|0:2,0:2:0:0:
234,284,143537,1,0,1:2:0:0:
70,335,143649,6,0,L|143:283,1,90,10|0,0:2|0:2,0:2:0:0:
234,284,143873,1,0,1:2:0:0:
314,339,143985,5,10,1:2:0:0:
318,365,144097,1,2,0:2:0:0:
392,334,144209,5,2,1:2:0:0:
393,328,144264,1,2,1:2:0:0:
394,322,144320,1,2,1:2:0:0:
395,316,144376,1,2,1:2:0:0:
396,310,144432,1,2,1:2:0:0:
383,238,144544,1,10,1:2:0:0:
383,238,144768,1,10,1:2:0:0:
283,108,144992,5,10,1:2:0:0:
296,36,145104,1,10,1:2:0:0:
186,193,145328,5,10,1:2:0:0:
173,121,145440,1,10,1:2:0:0:
165,165,145552,1,2,0:2:0:0:
94,132,145664,5,0,1:2:0:0:
95,126,145720,1,0,1:2:0:0:
96,120,145776,1,10,1:2:0:0:
21,197,145944,1,10,1:2:0:0:
41,309,146112,1,10,1:2:0:0:
