osu file format v14

[General]
AudioFilename: audio.ogg
AudioLeadIn: 0
PreviewTime: 59245
Countdown: 0
SampleSet: Soft
StackLeniency: 0.5
Mode: 0
LetterboxInBreaks: 0
WidescreenStoryboard: 1

[Editor]
Bookmarks: 3947,18275,30812,45141,59469,73797,88126,108612,124731,139059
DistanceSpacing: 1.1
BeatDivisor: 8
GridSize: 4
TimelineZoom: 1

[Metadata]
Title:Pastel Sprinkles
TitleUnicode:Pastel Sprinkles
Artist:pan
ArtistUnicode:pan
Creator:ktgster
Version:Advanced
Source:オンゲキ R.E.D PLUS
Tags:ongeki red rhythm game instrumental electronic happy trance Sound Collection 06 six Transcend Lights
BeatmapID:4295348
BeatmapSetID:2043616

[Difficulty]
HPDrainRate:4
CircleSize:4
OverallDifficulty:6
ApproachRate:6.5
SliderMultiplier:1.4
SliderTickRate:1

[Events]
//Background and Video events
0,0,"Picture1.jpg",0,0
//Break Periods
2,83655,86342
2,108811,114801
//Storyboard Layer 0 (Background)
//Storyboard Layer 1 (Fail)
//Storyboard Layer 2 (Pass)
//Storyboard Layer 3 (Foreground)
//Storyboard Layer 4 (Overlay)
//Storyboard Sound Samples

[TimingPoints]
365,447.761194029851,4,2,1,70,1,0
59469,-100,4,2,1,80,0,1
83648,-100,4,2,1,60,0,0
87678,-100,4,2,1,60,0,0
88126,-100,4,2,1,70,0,0
104806,447.761194029851,4,2,1,70,1,0
108612,447.761194029851,4,2,1,60,1,0
115776,-100,4,2,1,70,0,0
125179,-100,4,2,1,80,0,1
138612,-100,4,2,1,70,0,0
139059,-100,4,2,1,80,0,1
146112,-100,4,2,1,70,0,0

[Colours]
Combo1 : 255,201,36
Combo2 : 255,98,176
Combo3 : 183,183,255
Combo4 : 255,151,47

[HitObjects]
50,333,3947,6,0,L|77:170,1,140,2|0,1:2|1:2,0:0:0:0:
127,140,4618,1,0,0:2:0:0:
181,194,4842,1,2,1:2:0:0:
289,302,5290,1,2,1:2:0:0:
343,356,5514,1,0,0:2:0:0:
397,301,5738,5,0,1:2:0:0:
447,155,6185,1,2,1:2:0:0:
301,105,6633,1,2,1:2:0:0:
251,251,7081,1,2,1:2:0:0:
211,105,7529,5,2,1:2:0:0:
138,79,7753,2,0,L|132:45,3,23.3333333333333,0|0|0|2,0:2|0:2|0:2|1:2,0:0:0:0:
61,29,8200,1,0,0:2:0:0:
38,102,8424,2,0,L|52:190,1,70,0|2,1:2|0:2,0:0:0:0:
123,206,8872,1,0,1:2:0:0:
218,85,9320,6,0,L|279:95,3,35,0|2|0|0,1:2|0:2|0:2|0:2,0:0:0:0:
279,117,9767,2,0,L|340:127,3,35,0|2|0|0,1:2|0:2|0:2|0:2,0:0:0:0:
341,150,10215,2,0,L|504:177,1,140,6|2,1:2|0:2,0:0:0:0:
380,347,11223,5,14,1:2:0:0:
380,347,11447,1,14,1:2:0:0:
193,301,12006,2,0,L|171:172,1,105,14|14,1:2|0:2,0:0:0:0:
98,151,12603,2,0,L|87:86,2,46.6666666666667,12|14|2,1:2|0:2|0:2,0:0:0:0:
61,188,13051,2,0,L|71:252,2,46.6666666666667,8|8|10,0:2|0:2|0:2,0:0:0:0:
24,152,13499,2,0,L|13:87,2,46.6666666666667,10|10|10,0:2|0:2|0:2,0:0:0:0:
195,25,14693,5,8,1:2:0:0:
195,25,14917,1,12,1:2:0:0:
276,106,15253,1,12,1:2:0:0:
194,187,15588,2,0,L|208:275,1,70,12|0,1:2|0:2,0:0:0:0:
224,330,16036,1,12,1:2:0:0:
300,341,16260,5,2,1:2:0:0:
300,341,16484,1,14,1:2:0:0:
441,280,16932,1,14,0:2:0:0:
318,189,17379,1,12,1:2:0:0:
74,304,18163,6,0,L|55:186,1,105,14|0,1:2|1:2,0:0:0:0:
44,124,18723,1,10,1:2:0:0:
152,162,19059,2,0,L|166:250,1,70,14|14,1:2|1:2,0:0:0:0:
425,170,20066,5,14,1:2:0:0:
363,132,20290,1,8,1:2:0:0:
363,132,20402,2,0,L|344:14,2,105,14|14|8,1:2|1:2|1:2,0:0:0:0:
321,239,21409,1,14,1:2:0:0:
213,110,21857,6,0,L|227:22,2,70,2|2|2,1:2|0:2|0:2,0:0:0:0:
144,145,22529,1,2,0:2:0:0:
79,103,22753,2,0,L|65:15,2,70,2|2|2,0:2|0:2|0:2,0:0:0:0:
18,150,23424,1,2,0:2:0:0:
14,226,23648,5,2,0:2:0:0:
89,242,23872,1,0,0:2:0:0:
156,205,24096,1,2,0:2:0:0:
270,101,24544,1,2,0:2:0:0:
337,64,24767,1,2,0:2:0:0:
412,80,24991,1,2,0:2:0:0:
489,212,25439,6,0,L|475:300,1,70,2|2,0:2|0:2,0:0:0:0:
414,325,25887,1,2,0:2:0:0:
359,270,26111,2,0,L|352:225,3,23.3333333333333,2|2|2|2,0:2|0:2|0:2|0:2,0:0:0:0:
256,129,26782,1,2,0:2:0:0:
156,246,27230,6,0,L|153:270,10,23.3333333333333,6|0|0|0|0|0|0|0|0|2|0,1:2|0:2|0:2|0:2|0:2|0:2|0:2|0:2|0:2|1:2|0:2,0:0:0:0:
107,133,28350,1,2,0:2:0:0:
107,133,28573,2,0,L|195:119,1,70,2|2,1:2|0:2,0:0:0:0:
230,67,29021,5,2,1:2:0:0:
275,173,29357,1,0,1:2:0:0:
196,257,29693,2,0,L|177:371,2,105,2|2|2,1:2|1:2|1:2,0:0:0:0:
318,84,30812,5,10,1:2:0:0:
90,45,31484,1,8,1:2:0:0:
93,65,31596,1,8,1:2:0:0:
97,84,31708,1,10,1:2:0:0:
106,160,31932,1,10,1:2:0:0:
51,214,32156,2,0,L|58:258,1,35,8|8,1:2|1:2,0:0:0:0:
76,323,32491,5,10,1:2:0:0:
152,310,32715,1,10,1:2:0:0:
211,359,32939,2,0,L|325:340,1,105,10|10,1:2|1:2,0:0:0:0:
391,330,33499,1,10,1:2:0:0:
363,258,33723,2,0,L|451:244,1,70,2|2,0:2|0:2,0:0:0:0:
482,238,34096,6,0,L|497:143,1,93.3333333333333,10|10,1:2|1:2,0:0:0:0:
442,91,34618,1,2,0:2:0:0:
387,145,34842,2,0,L|380:189,1,35,2|10,0:2|1:2,0:0:0:0:
316,220,35178,1,10,1:2:0:0:
261,165,35402,1,10,1:2:0:0:
180,247,35738,5,8,1:2:0:0:
180,247,35850,2,0,L|162:354,1,105,2|10,1:2|1:2,0:0:0:0:
125,350,36297,2,0,L|107:242,1,105,2|10,1:2|1:2,0:0:0:0:
103,207,36745,1,2,1:2:0:0:
7,114,37081,6,0,L|14:70,3,35,10|2|2|2,1:2|0:2|0:2|0:2,0:0:0:0:
41,52,37529,2,0,L|48:8,2,35,10|0|2,1:2|0:2|0:2,0:0:0:0:
99,102,37976,6,0,L|206:84,1,105,4|2,1:2|0:2,0:0:0:0:
240,78,38424,1,10,1:2:0:0:
316,66,38648,1,2,0:2:0:0:
312,142,38872,2,0,L|419:124,1,105,2|2,1:2|0:2,0:0:0:0:
453,118,39320,1,8,1:2:0:0:
496,265,39767,6,0,L|388:282,1,105,0|2,1:2|0:2,0:0:0:0:
355,289,40215,1,10,1:2:0:0:
279,301,40439,1,2,0:2:0:0:
283,225,40663,1,2,1:2:0:0:
207,238,40887,2,0,L|126:250,2,70,2|10|2,0:2|1:2|0:2,0:0:0:0:
234,166,41559,5,2,1:2:0:0:
216,91,41782,1,2,0:2:0:0:
146,57,42006,1,8,1:2:0:0:
71,76,42230,1,2,0:2:0:0:
29,141,42454,1,2,1:2:0:0:
35,217,42678,1,2,0:2:0:0:
95,264,42902,1,10,1:2:0:0:
242,307,43350,6,0,L|322:294,1,70,12|2,1:2|3:2,0:0:0:0:
365,350,43797,2,0,L|445:337,1,70,12|2,1:2|3:2,0:0:0:0:
488,284,44245,1,14,1:2:0:0:
422,101,44917,5,2,0:2:0:0:
425,81,45029,1,0,0:2:0:0:
429,62,45141,2,0,L|259:88,1,140,6|8,1:2|0:2,0:0:0:0:
217,106,45812,1,2,0:2:0:0:
220,126,45924,1,2,0:2:0:0:
224,145,46036,2,0,L|54:118,1,140,2|8,1:2|0:2,0:0:0:0:
30,177,46708,1,2,0:2:0:0:
27,197,46820,1,2,0:2:0:0:
23,216,46932,2,0,L|3:337,2,105,2|2|2,1:2|0:2|0:2,0:0:0:0:
99,212,47827,1,2,1:2:0:0:
312,301,48499,6,0,L|319:346,3,23.3333333333333,0|0|0|2,0:2|0:2|0:2|1:2,0:0:0:0:
425,360,49059,1,2,0:2:0:0:
498,271,49394,1,2,0:2:0:0:
498,271,49618,2,0,L|471:101,1,140,2|8,1:2|0:2,0:0:0:0:
409,93,50290,1,2,0:2:0:0:
354,147,50514,2,0,L|374:268,2,105,2|2|2,1:2|0:2|0:2,0:0:0:0:
299,92,51409,1,2,1:2:0:0:
277,244,51857,2,0,L|290:324,1,70,8|2,1:2|0:2,0:0:0:0:
225,358,52305,5,10,1:2:0:0:
148,346,52529,1,0,1:2:0:0:
97,287,52753,1,0,1:2:0:0:
111,211,52976,1,2,1:2:0:0:
176,169,53200,2,0,L|256:156,2,70,10|2|2,1:2|1:2|1:2,0:0:0:0:
287,26,54096,5,10,1:2:0:0:
364,38,54320,1,0,1:2:0:0:
415,97,54544,1,0,1:2:0:0:
401,173,54767,1,0,1:2:0:0:
336,215,54991,2,0,L|256:228,2,70,10|2|2,1:2|1:2|1:2,0:0:0:0:
490,297,55887,5,10,1:2:0:0:
422,333,56111,2,0,L|377:326,3,23.3333333333333,2|2|2|2,1:2|0:2|0:2|1:2,0:0:0:0:
330,365,56559,1,2,1:2:0:0:
275,310,56782,2,0,L|288:230,2,46.6666666666667,10|10|10,1:2|0:2|0:2,0:0:0:0:
231,338,57230,2,0,L|244:418,2,46.6666666666667,10|10|10,1:2|0:2|0:2,0:0:0:0:
184,315,57678,6,0,L|164:194,1,93.3333333333333,10|2,3:2|3:2,0:0:0:0:
132,186,58126,2,0,L|152:65,1,93.3333333333333,2|2,3:2|3:2,0:0:0:0:
183,57,58573,2,0,L|170:-23,3,46.6666666666667,2|10|8|8,3:2|0:2|0:2|1:2,0:0:0:0:
373,49,59469,6,0,L|400:219,1,140,6|8,1:2|0:2,0:0:0:0:
364,258,60141,1,2,0:2:0:0:
384,261,60253,1,2,0:2:0:0:
403,265,60365,2,0,L|524:285,2,105,2|2|2,1:2|0:2|0:2,0:0:0:0:
348,319,61260,5,2,1:2:0:0:
297,173,61708,1,10,0:2:0:0:
197,291,62156,1,2,1:2:0:0:
142,345,62379,2,0,L|133:397,2,35,2|0|10,0:2|0:2|0:2,0:0:0:0:
122,270,62827,1,0,0:2:0:0:
102,195,63051,5,2,1:2:0:0:
47,249,63275,2,0,L|38:301,2,35,2|0|10,0:2|0:2|0:2,0:0:0:0:
27,174,63723,1,2,0:2:0:0:
43,98,63947,1,2,1:2:0:0:
98,44,64170,2,0,L|106:-8,2,35,2|2|10,0:2|0:2|0:2,0:0:0:0:
118,119,64618,1,2,0:2:0:0:
170,175,64842,6,0,L|183:255,2,70,2|0|10,1:2|0:2|0:2,0:0:0:0:
209,108,65514,1,0,0:2:0:0:
278,74,65738,1,2,1:2:0:0:
281,54,65850,1,2,0:2:0:0:
285,35,65962,2,0,L|295:-25,2,35,2|2|10,0:2|0:2|0:2,0:0:0:0:
355,65,66409,6,0,L|365:4,2,35,2|2|2,0:2|0:2|1:2,0:0:0:0:
431,51,66857,2,0,L|441:-9,2,35,2|2|10,0:2|0:2|0:2,0:0:0:0:
470,117,67305,1,2,0:2:0:0:
473,137,67417,1,2,0:2:0:0:
477,156,67529,2,0,L|497:277,2,105,2|2|2,1:2|0:2|0:2,0:0:0:0:
399,156,68424,5,2,1:2:0:0:
357,304,68872,1,10,0:2:0:0:
250,194,69320,1,2,1:2:0:0:
304,139,69544,2,0,L|356:130,2,35,2|2|10,0:2|0:2|0:2,0:0:0:0:
229,119,69991,1,0,0:2:0:0:
157,90,70215,6,0,L|144:170,1,70,2|2,1:2|0:2,0:0:0:0:
79,198,70663,1,10,0:2:0:0:
79,198,70887,1,2,0:2:0:0:
65,273,71111,2,0,L|56:325,2,35,2|0|2,1:2|0:2|0:2,0:0:0:0:
137,247,71559,1,10,0:2:0:0:
204,282,71782,1,2,0:2:0:0:
276,256,72006,5,2,1:2:0:0:
221,201,72230,2,0,L|228:156,3,23.3333333333333,2|2|2|10,0:2|0:2|0:2|0:2,0:0:0:0:
169,122,72678,1,0,0:2:0:0:
223,67,72902,2,0,L|393:40,1,140,2|10,1:2|0:2,0:0:0:0:
365,121,73573,5,2,0:2:0:0:
345,124,73685,1,2,0:2:0:0:
326,128,73797,2,0,L|265:138,4,35,6|2|0|0|8,1:2|0:2|0:2|0:2|0:2,0:0:0:0:
329,205,74469,1,2,0:2:0:0:
309,208,74581,1,2,0:2:0:0:
290,212,74693,2,0,L|169:232,2,105,2|2|2,1:2|0:2|0:2,0:0:0:0:
324,280,75588,5,2,1:2:0:0:
472,238,76036,1,10,0:2:0:0:
362,131,76484,1,2,1:2:0:0:
307,77,76708,2,0,L|300:32,3,23.3333333333333,2|2|2|10,0:2|0:2|0:2|0:2,0:0:0:0:
287,152,77156,1,2,0:2:0:0:
222,110,77379,5,2,1:2:0:0:
167,56,77603,2,0,L|158:4,2,35,2|0|10,0:2|0:2|0:2,0:0:0:0:
147,131,78051,1,2,0:2:0:0:
202,185,78275,1,2,1:2:0:0:
182,260,78499,2,0,L|191:312,2,35,2|0|10,0:2|0:2|0:2,0:0:0:0:
127,206,78947,1,2,0:2:0:0:
72,260,79170,5,2,1:2:0:0:
17,205,79394,2,0,L|24:160,3,23.3333333333333,2|2|2|10,0:2|0:2|0:2|0:2,0:0:0:0:
37,106,79842,1,2,0:2:0:0:
112,92,80066,2,0,L|125:12,1,70,2|0,1:2|0:2,0:0:0:0:
194,52,80514,2,0,L|185:104,3,35,10|0|2|2,0:2|0:2|0:2|0:2,0:0:0:0:
208,119,80962,6,0,L|199:171,2,35,2|2|0,1:2|0:2|0:2,0:0:0:0:
282,99,81409,1,8,0:2:0:0:
346,141,81633,1,2,0:2:0:0:
349,121,81745,1,2,0:2:0:0:
353,102,81857,2,0,L|373:-19,2,105,2|2|2,1:2|0:2|0:2,0:0:0:0:
423,133,82753,5,2,1:2:0:0:
381,281,83200,1,10,0:2:0:0:
381,281,87678,6,0,L|368:361,1,70,2|2,1:2|0:2,0:0:0:0:
292,354,88126,2,0,L|310:247,1,105,6|0,1:2|1:2,0:0:0:0:
316,213,88573,1,2,1:2:0:0:
261,158,88797,1,2,1:2:0:0:
206,212,89021,1,6,1:2:0:0:
51,214,89469,2,0,L|64:134,1,70,10|2,1:2|1:2,0:0:0:0:
140,141,89917,6,0,L|122:248,1,105,6|0,1:2|1:2,0:0:0:0:
116,282,90365,1,2,1:2:0:0:
171,337,90588,1,2,1:2:0:0:
226,283,90812,1,6,1:2:0:0:
248,130,91260,2,0,L|261:50,1,70,8|10,1:2|1:2,0:0:0:0:
329,93,91708,6,0,L|311:200,1,105,6|0,1:2|1:2,0:0:0:0:
305,234,92156,1,10,0:2:0:0:
359,288,92379,1,2,1:2:0:0:
429,257,92603,2,0,L|447:150,1,105,4|0,1:2|1:2,0:0:0:0:
453,116,93051,1,10,1:2:0:0:
470,42,93275,1,0,1:2:0:0:
396,18,93499,5,6,1:2:0:0:
327,156,93947,1,10,1:2:0:0:
241,27,94394,2,0,L|232:81,3,46.6666666666667,14|2|2|2,1:2|1:2|1:2|1:2,0:0:0:0:
115,173,95290,6,0,L|38:185,1,70,4|2,1:2|0:2,0:0:0:0:
45,261,95738,2,0,L|121:273,1,70,10|2,0:2|0:2,0:0:0:0:
189,285,96185,1,0,1:2:0:0:
243,230,96409,2,0,L|288:237,3,23.3333333333333,2|2|2|10,3:2|3:2|3:2|3:2,0:0:0:0:
320,178,96857,1,2,0:2:0:0:
265,123,97081,5,2,1:2:0:0:
372,12,97529,1,10,0:2:0:0:
426,66,97753,2,0,L|408:173,1,105,2|2,0:2|0:2,0:0:0:0:
402,207,98200,1,2,0:2:0:0:
444,271,98424,2,0,L|435:323,2,35,10|2|2,0:2|0:2|0:2,0:0:0:0:
367,279,98872,5,2,1:2:0:0:
331,133,99320,1,2,0:2:0:0:
331,133,99544,1,2,0:2:0:0:
282,281,99991,1,2,0:2:0:0:
282,281,100215,1,2,0:2:0:0:
171,173,100663,5,2,1:2:0:0:
135,319,101111,1,2,0:2:0:0:
135,319,101335,1,2,0:2:0:0:
86,171,101782,6,0,L|79:126,9,23.3333333333333,0|0|0|2|2|2|2|2|2|2,0:2|0:2|0:2|0:2|0:2|0:2|0:2|0:2|0:2|1:2,0:0:0:0:
191,38,102902,1,0,1:2:0:0:
299,146,103350,1,0,1:2:0:0:
424,57,103797,2,0,L|433:5,2,46.6666666666667,0|0|0,1:2|1:2|1:2,0:0:0:0:
460,93,104245,2,0,L|442:200,1,105,0|0,1:2|1:2,0:0:0:0:
429,273,104805,1,4,1:2:0:0:
256,192,105029,12,2,108611,0:2:0:0:
428,325,115776,6,0,L|258:298,1,140,10|8,1:2|0:2,0:0:0:0:
289,225,116447,1,2,0:2:0:0:
309,222,116559,1,2,0:2:0:0:
328,218,116671,2,0,L|449:198,2,105,10|2|2,0:2|0:2|0:2,0:0:0:0:
273,163,117567,6,0,L|260:83,1,70,10|0,1:2|0:2,0:0:0:0:
190,123,118014,2,0,L|177:43,1,70,10|0,0:2|0:2,0:0:0:0:
109,18,118462,1,10,0:2:0:0:
54,72,118686,2,0,L|61:117,3,23.3333333333333,2|2|2|10,0:2|0:2|0:2|0:2,0:0:0:0:
2,149,119134,1,2,0:2:0:0:
2,226,119358,6,0,L|82:239,1,70,10|10,0:2|0:2,0:0:0:0:
125,291,119806,2,0,L|205:304,1,70,10|10,0:2|0:2,0:0:0:0:
248,356,120253,2,0,L|328:369,1,70,10|10,0:2|0:2,0:0:0:0:
371,312,120701,6,0,L|364:267,6,23.3333333333333,10|2|2|10|2|2|10,0:2|0:2|0:2|0:2|0:2|0:2|1:2,0:0:0:0:
480,274,121485,1,10,1:2:0:0:
386,207,121820,1,10,1:2:0:0:
292,140,122156,1,10,1:2:0:0:
401,102,122492,2,0,L|481:89,1,70,10|10,1:2|1:2,0:0:0:0:
438,20,122940,6,0,L|334:37,1,105,10|10,1:2|0:2,0:0:0:0:
279,91,123500,1,2,0:2:0:0:
279,91,123612,2,0,L|175:73,1,105,10|10,1:2|1:2,0:0:0:0:
120,19,124171,1,2,0:2:0:0:
120,19,124283,1,10,1:2:0:0:
18,245,125179,5,12,1:2:0:0:
72,299,125403,2,0,L|117:292,3,23.3333333333333,2|2|2|2,0:2|0:2|0:2|1:2,0:0:0:0:
149,240,125850,2,0,L|194:247,3,23.3333333333333,2|2|2|10,0:2|0:2|0:2|0:2,0:0:0:0:
226,188,126298,1,2,0:2:0:0:
294,152,126522,6,0,L|307:72,1,70,2|0,1:2|0:2,0:0:0:0:
237,44,126970,2,0,L|224:124,1,70,10|0,0:2|0:2,0:0:0:0:
149,122,127417,2,0,L|162:42,1,70,2|0,1:2|0:2,0:0:0:0:
92,14,127865,2,0,L|79:94,1,70,10|0,0:2|0:2,0:0:0:0:
64,158,128313,5,2,1:2:0:0:
118,212,128537,2,0,L|111:257,3,23.3333333333333,2|2|2|8,0:2|0:2|0:2|1:2,0:0:0:0:
169,289,128985,1,2,0:2:0:0:
223,234,129209,2,0,L|236:154,1,70,0|2,1:2|0:2,0:0:0:0:
289,109,129656,1,10,0:2:0:0:
289,109,129880,1,0,0:2:0:0:
343,163,130104,6,0,L|336:207,3,35,0|2|2|2,1:2|0:2|0:2|0:2,0:0:0:0:
364,225,130552,2,0,L|357:269,3,35,8|2|2|2,0:2|0:2|0:2|0:2,0:0:0:0:
385,287,131000,2,0,L|378:331,3,35,0|2|2|2,1:2|0:2|0:2|0:2,0:0:0:0:
401,353,131447,2,0,L|481:340,1,70,10|2,0:2|0:2,0:0:0:0:
499,270,131895,6,0,L|481:163,1,105,2|2,1:2|0:2,0:0:0:0:
475,129,132343,1,8,0:2:0:0:
407,92,132567,2,0,L|400:47,3,23.3333333333333,2|2|2|2,0:2|0:2|0:2|1:2,0:0:0:0:
344,19,133014,1,2,0:2:0:0:
266,20,133238,1,10,0:2:0:0:
214,77,133462,1,2,0:2:0:0:
267,131,133686,6,0,L|337:143,2,70,0|2|10,1:2|0:2|0:2,0:0:0:0:
194,151,134358,1,2,0:2:0:0:
139,96,134582,1,2,1:2:0:0:
84,150,134806,1,2,0:2:0:0:
87,170,134917,1,2,0:2:0:0:
91,189,135029,1,10,0:2:0:0:
36,243,135253,1,2,0:2:0:0:
51,318,135477,6,0,L|120:329,1,70,2|2,1:2|0:2,0:0:0:0:
174,274,135925,2,0,L|219:281,3,23.3333333333333,10|2|2|2,0:2|0:2|0:2|0:2,0:0:0:0:
252,222,136373,1,2,1:2:0:0:
252,222,136597,1,2,0:2:0:0:
306,167,136820,2,0,L|375:178,1,70,8|2,0:2|0:2,0:0:0:0:
441,217,137268,5,2,1:2:0:0:
497,269,137492,1,0,0:2:0:0:
465,339,137716,1,10,0:2:0:0:
388,330,137940,1,2,0:2:0:0:
374,254,138164,1,2,1:2:0:0:
479,87,139059,6,0,L|375:104,1,105,10|10,1:2|1:2,0:0:0:0:
320,158,139619,1,0,1:2:0:0:
320,158,139731,2,0,L|216:176,1,105,10|10,1:2|1:2,0:0:0:0:
162,230,140291,1,0,1:2:0:0:
162,230,140403,1,10,1:2:0:0:
28,120,140850,5,10,1:2:0:0:
86,69,141074,1,0,1:2:0:0:
86,69,141186,2,0,L|104:173,1,105,10|10,1:2|1:2,0:0:0:0:
162,230,141746,1,0,1:2:0:0:
162,230,141858,2,0,L|180:334,1,105,10|10,1:2|1:2,0:0:0:0:
28,304,142641,6,0,L|132:287,1,105,10|10,1:2|1:2,0:0:0:0:
187,233,143201,1,0,1:2:0:0:
187,233,143313,2,0,L|291:215,1,105,10|10,1:2|0:2,0:0:0:0:
345,161,143873,1,0,1:2:0:0:
345,161,143985,1,10,1:2:0:0:
466,282,144432,6,0,L|458:328,1,35,2|10,1:2|1:2,0:0:0:0:
384,329,144768,2,0,L|401:225,1,105,10|10,1:2|1:2,0:0:0:0:
475,197,145328,1,10,1:2:0:0:
475,197,145440,1,10,1:2:0:0:
488,124,145664,1,0,1:2:0:0:
488,124,145776,2,0,L|498:62,2,52.5,10|10|10,1:2|1:2|1:2,0:0:0:0:
