osu file format v14

[General]
AudioFilename: audio.mp3
AudioLeadIn: 0
PreviewTime: 72728
Countdown: 0
SampleSet: Normal
StackLeniency: 0.7
Mode: 1
LetterboxInBreaks: 0
WidescreenStoryboard: 0

[Editor]
Bookmarks: 1266,22010,52329,62542,72755,77861,93180
DistanceSpacing: 1
BeatDivisor: 2
GridSize: 32
TimelineZoom: 2.699999

[Metadata]
Title:Ice Chandelier
TitleUnicode:Ice Chandelier
Artist:pan
ArtistUnicode:pan
Creator:Maeda
Version:Yukiha's Normal
Source:Dynamix
Tags:Luqua -yukiha- KuroKuroKuro Instrumental Rhythm Video Game C4cat submission 2017 Gold Track Electronic
BeatmapID:2419244
BeatmapSetID:1158435

[Difficulty]
HPDrainRate:7
CircleSize:2
OverallDifficulty:4
ApproachRate:5
SliderMultiplier:1.4
SliderTickRate:1

[Events]
//Background and Video events
0,0,"IceChandelier.png",0,0
//Break Periods
//Storyboard Layer 0 (Background)
//Storyboard Layer 1 (Fail)
//Storyboard Layer 2 (Pass)
//Storyboard Layer 3 (Foreground)
//Storyboard Layer 4 (Overlay)
//Storyboard Sound Samples

[TimingPoints]
1362,319.148936170213,4,1,0,60,1,0
11096,-100,4,1,0,70,0,0
22106,-100,4,1,0,60,0,0
29447,-100,4,1,0,70,0,0
47319,-100,4,1,0,80,0,0
52425,-100,4,1,0,60,0,0
62638,-100,4,1,0,70,0,0
72851,-100,4,1,0,80,0,1
82744,-100,4,1,0,80,0,0
83064,-100,4,1,0,80,0,1
93276,-100,4,1,0,75,0,0
105723,-100,4,1,0,60,0,0
116255,-100,4,1,0,65,0,0
116415,-100,4,1,0,20,0,0

[HitObjects]
256,192,1362,5,0,0:0:0:0:
256,192,2000,1,8,0:0:0:0:
256,192,2638,1,8,0:0:0:0:
256,192,3276,1,0,0:0:0:0:
256,192,3915,1,0,0:0:0:0:
256,192,4553,1,8,0:0:0:0:
256,192,4872,1,0,0:0:0:0:
256,192,5191,1,8,0:0:0:0:
256,192,6468,1,0,0:0:0:0:
256,192,6787,1,0,0:0:0:0:
256,192,7106,1,8,0:0:0:0:
256,192,7744,1,8,0:0:0:0:
256,192,8064,1,0,0:0:0:0:
256,192,8383,1,8,0:0:0:0:
256,192,9021,1,8,0:0:0:0:
256,192,9340,1,0,0:0:0:0:
256,192,9659,1,8,0:0:0:0:
256,192,9979,1,8,0:0:0:0:
256,192,10298,1,0,0:0:0:0:
256,192,10936,1,8,0:0:0:0:
256,192,11574,1,0,0:0:0:0:
256,192,11893,1,8,0:0:0:0:
256,192,12213,1,0,0:0:0:0:
256,192,12532,1,8,0:0:0:0:
256,192,12691,1,0,0:0:0:0:
256,192,12851,1,0,0:0:0:0:
256,192,13170,1,0,0:0:0:0:
256,192,13489,1,8,0:0:0:0:
256,192,13808,1,0,0:0:0:0:
256,192,13968,1,0,0:0:0:0:
256,192,14127,1,8,0:0:0:0:
256,192,14447,1,0,0:0:0:0:
256,192,14766,1,8,0:0:0:0:
256,192,15085,1,8,0:0:0:0:
256,192,15404,1,0,0:0:0:0:
256,192,16042,1,0,0:0:0:0:
256,192,16681,1,0,0:0:0:0:
256,192,16840,1,8,0:0:0:0:
256,192,17000,1,0,0:0:0:0:
256,192,17159,1,8,0:0:0:0:
256,192,17479,1,0,0:0:0:0:
256,192,17798,1,0,0:0:0:0:
256,192,18117,1,8,0:0:0:0:
256,192,18276,1,8,0:0:0:0:
256,192,18436,1,8,0:0:0:0:
256,192,18755,1,0,0:0:0:0:
256,192,19074,2,0,L|320:192,16,35
256,192,20670,1,8,0:0:0:0:
256,192,20989,1,8,0:0:0:0:
256,192,21149,1,8,0:0:0:0:
256,192,21468,1,8,0:0:0:0:
256,192,21787,1,4,0:0:0:0:
256,192,23064,1,0,0:0:0:0:
256,192,23702,1,8,0:0:0:0:
256,192,24340,1,0,0:0:0:0:
256,192,24979,1,8,0:0:0:0:
256,192,25298,1,8,0:0:0:0:
256,192,25617,1,0,0:0:0:0:
256,192,26255,1,0,0:0:0:0:
256,192,26893,1,0,0:0:0:0:
256,192,27213,1,0,0:0:0:0:
256,192,27532,1,8,0:0:0:0:
256,192,27851,1,0,0:0:0:0:
256,192,28170,1,8,0:0:0:0:
256,192,28808,1,0,0:0:0:0:
256,192,29447,1,0,0:0:0:0:
256,192,29766,1,8,0:0:0:0:
256,192,30085,1,0,0:0:0:0:
256,192,30404,1,8,0:0:0:0:
256,192,30723,1,0,0:0:0:0:
256,192,31042,1,8,0:0:0:0:
256,192,31362,1,0,0:0:0:0:
256,192,32000,1,0,0:0:0:0:
256,192,32319,1,0,0:0:0:0:
256,192,32638,1,0,0:0:0:0:
256,192,32957,1,0,0:0:0:0:
256,192,33276,1,8,0:0:0:0:
256,192,33596,1,0,0:0:0:0:
256,192,33915,1,8,0:0:0:0:
256,192,34234,1,8,0:0:0:0:
256,192,34553,1,0,0:0:0:0:
256,192,35191,1,0,0:0:0:0:
256,192,35830,1,8,0:0:0:0:
256,192,36149,1,8,0:0:0:0:
256,192,36308,1,8,0:0:0:0:
256,192,36468,1,0,0:0:0:0:
256,192,36787,1,0,0:0:0:0:
256,192,36947,1,8,0:0:0:0:
256,192,37106,1,4,0:0:0:0:
256,192,37744,1,12,0:0:0:0:
256,192,38383,1,4,0:0:0:0:
256,192,39021,1,12,0:0:0:0:
256,192,39659,1,12,0:0:0:0:
256,192,40298,1,12,0:0:0:0:
256,192,40936,1,4,0:0:0:0:
256,192,41096,12,0,41893,0:0:0:0:
256,192,42213,5,8,0:0:0:0:
256,192,42532,1,0,0:0:0:0:
256,192,42851,1,8,0:0:0:0:
256,192,43170,1,8,0:0:0:0:
256,192,43330,1,8,0:0:0:0:
256,192,43649,1,0,0:0:0:0:
256,192,43808,1,8,0:0:0:0:
256,192,44127,1,8,0:0:0:0:
256,192,44447,1,0,0:0:0:0:
256,192,44766,1,8,0:0:0:0:
256,192,45085,1,0,0:0:0:0:
256,192,45244,1,0,0:0:0:0:
256,192,45404,1,8,0:0:0:0:
256,192,45723,1,8,0:0:0:0:
256,192,45883,1,8,0:0:0:0:
256,192,46202,1,0,0:0:0:0:
256,192,46362,1,8,0:0:0:0:
256,192,46681,1,8,0:0:0:0:
256,192,47000,1,0,0:0:0:0:
256,192,47159,1,8,0:0:0:0:
256,192,47319,1,0,0:0:0:0:
256,192,47638,1,0,0:0:0:0:
256,192,47957,1,8,0:0:0:0:
256,192,48276,1,0,0:0:0:0:
256,192,48596,1,8,0:0:0:0:
256,192,48915,1,0,0:0:0:0:
256,192,49234,1,8,0:0:0:0:
256,192,49553,1,0,0:0:0:0:
256,192,49872,12,0,52106,0:0:0:0:
256,192,52425,5,0,0:0:0:0:
256,192,53064,1,8,0:0:0:0:
256,192,53702,1,8,0:0:0:0:
256,192,54340,1,0,0:0:0:0:
256,192,54979,1,0,0:0:0:0:
256,192,55617,1,8,0:0:0:0:
256,192,55936,1,0,0:0:0:0:
256,192,56255,1,8,0:0:0:0:
256,192,57532,1,0,0:0:0:0:
256,192,57851,1,0,0:0:0:0:
256,192,58170,1,8,0:0:0:0:
256,192,58808,1,8,0:0:0:0:
256,192,59127,1,0,0:0:0:0:
256,192,59447,1,8,0:0:0:0:
256,192,60085,1,0,0:0:0:0:
256,192,60404,1,0,0:0:0:0:
256,192,60723,1,8,0:0:0:0:
256,192,61042,1,0,0:0:0:0:
256,192,61362,1,8,0:0:0:0:
256,192,62000,1,0,0:0:0:0:
256,192,62638,1,0,0:0:0:0:
256,192,62957,1,0,0:0:0:0:
256,192,63276,1,8,0:0:0:0:
256,192,63596,1,0,0:0:0:0:
256,192,63915,1,8,0:0:0:0:
256,192,64234,1,0,0:0:0:0:
256,192,64553,1,8,0:0:0:0:
256,192,65191,1,0,0:0:0:0:
256,192,65510,1,0,0:0:0:0:
256,192,65830,1,8,0:0:0:0:
256,192,66149,1,0,0:0:0:0:
256,192,66468,1,8,0:0:0:0:
256,192,66787,1,0,0:0:0:0:
256,192,66947,1,0,0:0:0:0:
256,192,67106,1,8,0:0:0:0:
256,192,67744,1,0,0:0:0:0:
256,192,68064,1,0,0:0:0:0:
256,192,68383,1,8,0:0:0:0:
256,192,68542,1,8,0:0:0:0:
256,192,68702,1,8,0:0:0:0:
256,192,69021,1,0,0:0:0:0:
256,192,69340,1,8,0:0:0:0:
256,192,69500,1,8,0:0:0:0:
256,192,69659,1,0,0:0:0:0:
256,192,70298,1,8,0:0:0:0:
256,192,70617,1,0,0:0:0:0:
256,192,70776,1,0,0:0:0:0:
256,192,70936,1,8,0:0:0:0:
256,192,71096,1,8,0:0:0:0:
256,192,71255,1,0,0:0:0:0:
256,192,71574,1,8,0:0:0:0:
256,192,71734,1,0,0:0:0:0:
256,192,71893,1,8,0:0:0:0:
256,192,72053,1,0,0:0:0:0:
256,192,72213,1,0,0:0:0:0:
256,192,72851,1,4,0:0:0:0:
256,192,73170,1,8,0:0:0:0:
256,192,73330,1,0,0:0:0:0:
256,192,73489,1,8,0:0:0:0:
256,192,73808,1,0,0:0:0:0:
256,192,74127,1,8,0:0:0:0:
256,192,74447,1,0,0:0:0:0:
256,192,74606,1,0,0:0:0:0:
256,192,74766,1,0,0:0:0:0:
256,192,75085,1,0,0:0:0:0:
256,192,75404,1,8,0:0:0:0:
256,192,75723,1,0,0:0:0:0:
256,192,75883,1,0,0:0:0:0:
256,192,76042,1,8,0:0:0:0:
256,192,76362,1,0,0:0:0:0:
256,192,76681,1,8,0:0:0:0:
256,192,76840,1,0,0:0:0:0:
256,192,77000,1,8,0:0:0:0:
256,192,77159,1,8,0:0:0:0:
256,192,77319,1,0,0:0:0:0:
256,192,77957,1,0,0:0:0:0:
256,192,78276,1,8,0:0:0:0:
256,192,78436,1,0,0:0:0:0:
256,192,78596,1,8,0:0:0:0:
256,192,78915,1,0,0:0:0:0:
256,192,79234,1,8,0:0:0:0:
256,192,79553,1,8,0:0:0:0:
256,192,79713,1,8,0:0:0:0:
256,192,79872,1,0,0:0:0:0:
256,192,80191,1,0,0:0:0:0:
256,192,80510,1,0,0:0:0:0:
256,192,80670,1,0,0:0:0:0:
256,192,80830,1,8,0:0:0:0:
256,192,81149,1,0,0:0:0:0:
256,192,81308,1,8,0:0:0:0:
256,192,81468,1,8,0:0:0:0:
256,192,81787,1,0,0:0:0:0:
256,192,81947,1,8,0:0:0:0:
256,192,82106,1,8,0:0:0:0:
256,192,82266,1,0,0:0:0:0:
256,192,82425,1,0,0:0:0:0:
256,192,83064,1,4,0:0:0:0:
256,192,83383,1,0,0:0:0:0:
256,192,83702,1,0,0:0:0:0:
256,192,83862,1,0,0:0:0:0:
256,192,84021,1,8,0:0:0:0:
256,192,84340,1,4,0:0:0:0:
256,192,84659,1,0,0:0:0:0:
256,192,84979,1,0,0:0:0:0:
256,192,85138,1,0,0:0:0:0:
256,192,85298,1,8,0:0:0:0:
256,192,85617,1,4,0:0:0:0:
256,192,85936,1,0,0:0:0:0:
256,192,86255,1,0,0:0:0:0:
256,192,86415,1,8,0:0:0:0:
256,192,86574,1,8,0:0:0:0:
256,192,86734,1,8,0:0:0:0:
256,192,86893,1,0,0:0:0:0:
256,192,87213,1,8,0:0:0:0:
256,192,87372,1,8,0:0:0:0:
256,192,87532,1,0,0:0:0:0:
256,192,88170,1,4,0:0:0:0:
256,192,88489,1,8,0:0:0:0:
256,192,88808,1,0,0:0:0:0:
256,192,88968,1,0,0:0:0:0:
256,192,89127,1,8,0:0:0:0:
256,192,89447,1,0,0:0:0:0:
256,192,89766,1,8,0:0:0:0:
256,192,89925,1,0,0:0:0:0:
256,192,90085,1,0,0:0:0:0:
256,192,90404,1,8,0:0:0:0:
256,192,90723,1,0,0:0:0:0:
256,192,90883,1,0,0:0:0:0:
256,192,91042,1,8,0:0:0:0:
256,192,91362,1,0,0:0:0:0:
256,192,91521,1,8,0:0:0:0:
256,192,91681,1,8,0:0:0:0:
256,192,91840,1,8,0:0:0:0:
256,192,92000,1,0,0:0:0:0:
256,192,92319,1,8,0:0:0:0:
256,192,92479,1,8,0:0:0:0:
256,192,92638,1,0,0:0:0:0:
256,192,93276,1,0,0:0:0:0:
256,192,93596,1,8,0:0:0:0:
256,192,93915,1,8,0:0:0:0:
256,192,94553,1,8,0:0:0:0:
256,192,94872,1,0,0:0:0:0:
256,192,95191,1,0,0:0:0:0:
256,192,95830,1,0,0:0:0:0:
256,192,96149,1,0,0:0:0:0:
256,192,96468,1,8,0:0:0:0:
256,192,97106,1,0,0:0:0:0:
256,192,97744,1,0,0:0:0:0:
256,192,98383,1,0,0:0:0:0:
256,192,98702,1,8,0:0:0:0:
256,192,99021,1,0,0:0:0:0:
256,192,99659,1,8,0:0:0:0:
256,192,99979,1,8,0:0:0:0:
256,192,100138,1,8,0:0:0:0:
256,192,100298,1,0,0:0:0:0:
256,192,100936,1,8,0:0:0:0:
256,192,101255,1,0,0:0:0:0:
256,192,101415,1,0,0:0:0:0:
256,192,101574,1,8,0:0:0:0:
256,192,101734,1,8,0:0:0:0:
256,192,101893,1,8,0:0:0:0:
256,192,102213,1,4,0:0:0:0:
256,192,105723,1,0,0:0:0:0:
256,192,106042,1,8,0:0:0:0:
256,192,106681,1,0,0:0:0:0:
256,192,107319,1,8,0:0:0:0:
256,192,107957,1,8,0:0:0:0:
256,192,108596,1,8,0:0:0:0:
256,192,109872,1,8,0:0:0:0:
256,192,110510,1,8,0:0:0:0:
256,192,111149,1,0,0:0:0:0:
256,192,112425,1,8,0:0:0:0:
256,192,113064,1,0,0:0:0:0:
256,192,113702,1,0,0:0:0:0:
256,192,114979,1,8,0:0:0:0:
256,192,115617,1,0,0:0:0:0:
256,192,116255,1,12,0:0:0:0:
256,192,116415,12,0,121362,0:0:0:0:
