osu file format v14

[General]
AudioFilename: audio.mp3
AudioLeadIn: 0
PreviewTime: 32211
Countdown: 0
SampleSet: Soft
StackLeniency: 0.7
Mode: 3
LetterboxInBreaks: 0
SpecialStyle: 0
WidescreenStoryboard: 1

[Editor]
DistanceSpacing: 2
BeatDivisor: 6
GridSize: 16
TimelineZoom: 2.899999

[Metadata]
Title:Dandelion Sparkle!!
TitleUnicode:Dandelion Sparkle!!
Artist:p_d
ArtistUnicode:p_d
Creator:Carpihat
Version:Another
Source:戦[sen-goku]國 ~甲午の乱~
Tags:potato_digger electronic instrumental SPRING CORE BMS Regist No.5 Sen-goku cai_ji_ccc
BeatmapID:4139353
BeatmapSetID:1979275

[Difficulty]
HPDrainRate:8
CircleSize:4
OverallDifficulty:8
ApproachRate:5
SliderMultiplier:1.4
SliderTickRate:1

[Events]
//Background and Video events
0,0,"Dandelion Sparkle_title.jpg",0,0
//Break Periods
//Storyboard Layer 0 (Background)
//Storyboard Layer 1 (Fail)
//Storyboard Layer 2 (Pass)
//Storyboard Layer 3 (Foreground)
//Storyboard Layer 4 (Overlay)
//Storyboard Sound Samples

[TimingPoints]
58,287.081339712919,4,2,1,50,1,0
13837,-100,4,2,1,50,0,1
22737,-100,4,2,1,50,0,0
62067,-100,4,2,1,50,0,1
99962,-100,4,2,1,50,0,0

[HitObjects]
64,192,58,5,0,0:0:0:0:
448,192,58,1,0,0:0:0:0:
320,192,345,1,0,0:0:0:0:
448,192,345,1,0,0:0:0:0:
192,192,488,1,0,0:0:0:0:
64,192,488,1,0,0:0:0:0:
64,192,775,1,0,0:0:0:0:
192,192,775,1,0,0:0:0:0:
320,192,919,1,0,0:0:0:0:
448,192,919,1,0,0:0:0:0:
64,192,1062,1,0,0:0:0:0:
320,192,1206,1,0,0:0:0:0:
448,192,1206,1,0,0:0:0:0:
320,192,1493,1,0,0:0:0:0:
448,192,1493,1,0,0:0:0:0:
192,192,1636,1,0,0:0:0:0:
64,192,1636,1,0,0:0:0:0:
64,192,1924,1,0,0:0:0:0:
192,192,1924,1,0,0:0:0:0:
320,192,2067,1,0,0:0:0:0:
448,192,2067,1,0,0:0:0:0:
192,192,2211,1,0,0:0:0:0:
448,192,2354,1,0,0:0:0:0:
64,192,2354,1,0,0:0:0:0:
192,192,2641,1,0,0:0:0:0:
448,192,2641,1,0,0:0:0:0:
320,192,2785,1,0,0:0:0:0:
64,192,2785,1,0,0:0:0:0:
64,192,3072,1,0,0:0:0:0:
192,192,3072,1,0,0:0:0:0:
320,192,3215,1,0,0:0:0:0:
448,192,3215,1,0,0:0:0:0:
64,192,3359,1,0,0:0:0:0:
320,192,3502,1,0,0:0:0:0:
448,192,3502,1,0,0:0:0:0:
192,192,3646,1,0,0:0:0:0:
64,192,3790,1,0,0:0:0:0:
320,192,3790,1,0,0:0:0:0:
192,192,3933,1,0,0:0:0:0:
448,192,3933,1,0,0:0:0:0:
448,192,4220,1,0,0:0:0:0:
192,192,4220,1,0,0:0:0:0:
64,192,4364,1,0,0:0:0:0:
320,192,4364,1,0,0:0:0:0:
192,192,4507,1,0,0:0:0:0:
320,192,4651,1,0,0:0:0:0:
64,192,4651,1,0,0:0:0:0:
448,192,4651,1,0,0:0:0:0:
192,192,4794,1,0,0:0:0:0:
320,192,4938,1,0,0:0:0:0:
448,192,4938,1,0,0:0:0:0:
192,192,5081,1,0,0:0:0:0:
448,192,5081,1,0,0:0:0:0:
64,192,5081,1,0,0:0:0:0:
64,192,5369,1,0,0:0:0:0:
448,192,5512,1,0,0:0:0:0:
192,192,5656,1,0,0:0:0:0:
320,192,5656,1,0,0:0:0:0:
448,192,5799,1,0,0:0:0:0:
320,192,5799,1,0,0:0:0:0:
64,192,5799,1,0,0:0:0:0:
192,192,5943,1,0,0:0:0:0:
64,192,5943,1,0,0:0:0:0:
448,192,5943,1,0,0:0:0:0:
192,192,6086,1,0,0:0:0:0:
320,192,6086,1,0,0:0:0:0:
320,192,6230,1,0,0:0:0:0:
448,192,6230,1,0,0:0:0:0:
64,192,6230,1,0,0:0:0:0:
448,192,6517,1,0,0:0:0:0:
320,192,6660,1,0,0:0:0:0:
64,192,6660,1,0,0:0:0:0:
192,192,6804,1,0,0:0:0:0:
448,192,6804,1,0,0:0:0:0:
320,192,6947,1,0,0:0:0:0:
64,192,6947,1,0,0:0:0:0:
448,192,6947,1,0,0:0:0:0:
192,192,7091,1,0,0:0:0:0:
64,192,7091,1,0,0:0:0:0:
320,192,7091,1,0,0:0:0:0:
192,192,7235,1,0,0:0:0:0:
448,192,7235,1,0,0:0:0:0:
448,192,7378,1,0,0:0:0:0:
320,192,7378,1,0,0:0:0:0:
64,192,7378,1,0,0:0:0:0:
64,192,7665,1,0,0:0:0:0:
192,192,7665,1,0,0:0:0:0:
448,192,7665,1,0,0:0:0:0:
192,192,7952,1,0,0:0:0:0:
320,192,7952,1,0,0:0:0:0:
448,192,7952,128,0,8526:0:0:0:0:
320,192,8239,1,0,0:0:0:0:
192,192,8383,1,0,0:0:0:0:
64,192,8383,1,0,0:0:0:0:
192,192,8526,1,0,0:0:0:0:
320,192,8526,1,0,0:0:0:0:
64,192,8526,128,0,9101:0:0:0:0:
192,192,8813,1,0,0:0:0:0:
320,192,8957,1,0,0:0:0:0:
448,192,8957,1,0,0:0:0:0:
320,192,9101,1,0,0:0:0:0:
192,192,9101,1,0,0:0:0:0:
448,192,9101,128,0,10392:0:0:0:0:
64,192,9244,1,0,0:0:0:0:
320,192,9388,1,0,0:0:0:0:
192,192,9459,1,0,0:0:0:0:
64,192,9531,1,0,0:0:0:0:
320,192,9603,1,0,0:0:0:0:
192,192,9675,1,0,0:0:0:0:
64,192,9746,1,0,0:0:0:0:
320,192,9818,1,0,0:0:0:0:
192,192,9890,1,0,0:0:0:0:
64,192,9962,1,0,0:0:0:0:
320,192,10034,1,0,0:0:0:0:
192,192,10105,1,0,0:0:0:0:
64,192,10177,1,0,0:0:0:0:
320,192,10249,1,0,0:0:0:0:
192,192,10321,1,0,0:0:0:0:
64,192,10392,1,0,0:0:0:0:
320,192,10464,1,0,0:0:0:0:
64,192,10536,1,0,0:0:0:0:
320,192,10608,1,0,0:0:0:0:
192,192,10680,1,0,0:0:0:0:
448,192,10751,1,0,0:0:0:0:
192,192,10823,1,0,0:0:0:0:
448,192,10895,1,0,0:0:0:0:
64,192,10967,1,0,0:0:0:0:
320,192,11038,1,0,0:0:0:0:
64,192,11110,1,0,0:0:0:0:
320,192,11182,1,0,0:0:0:0:
192,192,11254,1,0,0:0:0:0:
448,192,11325,1,0,0:0:0:0:
192,192,11397,1,0,0:0:0:0:
448,192,11469,1,0,0:0:0:0:
192,192,11541,1,0,0:0:0:0:
64,192,11541,1,0,0:0:0:0:
448,192,11613,1,0,0:0:0:0:
320,192,11684,1,0,0:0:0:0:
192,192,11756,1,0,0:0:0:0:
448,192,11828,1,0,0:0:0:0:
64,192,11828,1,0,0:0:0:0:
320,192,11900,1,0,0:0:0:0:
192,192,11971,1,0,0:0:0:0:
448,192,12043,1,0,0:0:0:0:
320,192,12115,1,0,0:0:0:0:
64,192,12115,1,0,0:0:0:0:
192,192,12187,1,0,0:0:0:0:
448,192,12258,1,0,0:0:0:0:
320,192,12330,1,0,0:0:0:0:
64,192,12402,1,0,0:0:0:0:
192,192,12402,1,0,0:0:0:0:
448,192,12474,1,0,0:0:0:0:
320,192,12546,1,0,0:0:0:0:
64,192,12617,1,0,0:0:0:0:
192,192,12689,1,0,0:0:0:0:
320,192,12689,1,0,0:0:0:0:
448,192,12761,1,0,0:0:0:0:
64,192,12833,1,0,0:0:0:0:
192,192,12833,1,0,0:0:0:0:
320,192,12904,1,0,0:0:0:0:
64,192,12976,1,0,0:0:0:0:
192,192,12976,1,0,0:0:0:0:
448,192,13048,1,0,0:0:0:0:
320,192,13120,1,0,0:0:0:0:
192,192,13120,1,0,0:0:0:0:
64,192,13191,1,0,0:0:0:0:
448,192,13263,1,0,0:0:0:0:
320,192,13263,1,0,0:0:0:0:
192,192,13335,1,0,0:0:0:0:
320,192,13407,1,0,0:0:0:0:
448,192,13407,1,0,0:0:0:0:
64,192,13479,1,0,0:0:0:0:
448,192,13550,1,0,0:0:0:0:
192,192,13550,1,0,0:0:0:0:
320,192,13550,1,0,0:0:0:0:
192,192,13837,1,0,0:0:0:0:
320,192,13837,1,0,0:0:0:0:
448,192,13837,1,0,0:0:0:0:
448,192,13981,1,0,0:0:0:0:
192,192,14124,1,0,0:0:0:0:
64,192,14124,1,0,0:0:0:0:
320,192,14124,1,0,0:0:0:0:
64,192,14268,1,0,0:0:0:0:
320,192,14412,1,0,0:0:0:0:
448,192,14412,1,0,0:0:0:0:
192,192,14555,1,0,0:0:0:0:
64,192,14699,1,0,0:0:0:0:
320,192,14699,1,0,0:0:0:0:
448,192,14699,1,0,0:0:0:0:
320,192,14842,1,0,0:0:0:0:
192,192,14986,1,0,0:0:0:0:
64,192,14986,1,0,0:0:0:0:
448,192,15129,1,0,0:0:0:0:
320,192,15273,1,0,0:0:0:0:
192,192,15273,1,0,0:0:0:0:
64,192,15273,1,0,0:0:0:0:
192,192,15416,1,0,0:0:0:0:
320,192,15560,1,0,0:0:0:0:
448,192,15560,1,0,0:0:0:0:
64,192,15703,1,0,0:0:0:0:
192,192,15847,1,0,0:0:0:0:
320,192,15847,1,0,0:0:0:0:
448,192,15847,1,0,0:0:0:0:
320,192,15991,1,0,0:0:0:0:
64,192,16134,1,0,0:0:0:0:
192,192,16134,1,0,0:0:0:0:
448,192,16278,1,0,0:0:0:0:
320,192,16421,1,0,0:0:0:0:
192,192,16421,1,0,0:0:0:0:
64,192,16421,1,0,0:0:0:0:
192,192,16565,1,0,0:0:0:0:
320,192,16708,1,0,0:0:0:0:
448,192,16708,1,0,0:0:0:0:
64,192,16852,1,0,0:0:0:0:
192,192,16995,1,0,0:0:0:0:
320,192,16995,1,0,0:0:0:0:
448,192,16995,1,0,0:0:0:0:
448,192,17139,1,0,0:0:0:0:
192,192,17282,1,0,0:0:0:0:
64,192,17282,1,0,0:0:0:0:
320,192,17426,1,0,0:0:0:0:
64,192,17569,1,0,0:0:0:0:
192,192,17569,1,0,0:0:0:0:
448,192,17569,1,0,0:0:0:0:
64,192,17713,1,0,0:0:0:0:
320,192,17857,1,0,0:0:0:0:
448,192,17857,1,0,0:0:0:0:
192,192,18000,1,0,0:0:0:0:
320,192,18144,1,0,0:0:0:0:
448,192,18144,1,0,0:0:0:0:
64,192,18144,1,0,0:0:0:0:
320,192,18287,1,0,0:0:0:0:
192,192,18431,1,0,0:0:0:0:
64,192,18431,1,0,0:0:0:0:
320,192,18574,1,0,0:0:0:0:
64,192,18718,1,0,0:0:0:0:
192,192,18718,1,0,0:0:0:0:
448,192,18718,1,0,0:0:0:0:
64,192,18861,1,0,0:0:0:0:
320,192,18861,1,0,0:0:0:0:
448,192,18861,1,0,0:0:0:0:
64,192,19148,1,0,0:0:0:0:
192,192,19148,1,0,0:0:0:0:
320,192,19148,1,0,0:0:0:0:
448,192,19292,1,0,0:0:0:0:
64,192,19292,1,0,0:0:0:0:
448,192,19435,1,0,0:0:0:0:
192,192,19435,1,0,0:0:0:0:
320,192,19435,1,0,0:0:0:0:
64,192,19723,1,0,0:0:0:0:
448,192,19723,1,0,0:0:0:0:
320,192,19723,1,0,0:0:0:0:
192,192,19866,1,0,0:0:0:0:
64,192,19866,1,0,0:0:0:0:
320,192,20010,1,0,0:0:0:0:
192,192,20153,1,0,0:0:0:0:
64,192,20153,1,0,0:0:0:0:
448,192,20153,1,0,0:0:0:0:
448,192,20440,1,0,0:0:0:0:
192,192,20440,1,0,0:0:0:0:
64,192,20440,1,0,0:0:0:0:
320,192,20584,1,0,0:0:0:0:
192,192,20584,1,0,0:0:0:0:
64,192,20727,1,0,0:0:0:0:
320,192,20727,1,0,0:0:0:0:
448,192,20727,1,0,0:0:0:0:
448,192,20871,1,0,0:0:0:0:
64,192,21014,1,0,0:0:0:0:
192,192,21014,1,0,0:0:0:0:
320,192,21158,1,0,0:0:0:0:
448,192,21158,1,0,0:0:0:0:
64,192,21158,1,0,0:0:0:0:
64,192,21445,1,0,0:0:0:0:
448,192,21445,1,0,0:0:0:0:
320,192,21445,1,0,0:0:0:0:
192,192,21589,1,0,0:0:0:0:
320,192,21589,1,0,0:0:0:0:
64,192,21732,1,0,0:0:0:0:
192,192,21732,1,0,0:0:0:0:
448,192,21732,1,0,0:0:0:0:
320,192,22019,1,0,0:0:0:0:
448,192,22019,1,0,0:0:0:0:
64,192,22019,1,0,0:0:0:0:
320,192,22163,1,0,0:0:0:0:
448,192,22163,1,0,0:0:0:0:
64,192,22163,1,0,0:0:0:0:
192,192,22306,1,0,0:0:0:0:
64,192,22306,1,0,0:0:0:0:
448,192,22306,1,0,0:0:0:0:
448,192,22450,1,0,0:0:0:0:
64,192,22450,128,0,22737:0:0:0:0:
192,192,22450,1,0,0:0:0:0:
320,192,22737,1,0,0:0:0:0:
448,192,22737,1,0,0:0:0:0:
192,192,22737,1,0,0:0:0:0:
64,192,23024,1,0,0:0:0:0:
320,192,23024,1,0,0:0:0:0:
192,192,23024,1,0,0:0:0:0:
448,192,23168,1,0,0:0:0:0:
64,192,23239,1,0,0:0:0:0:
320,192,23311,1,0,0:0:0:0:
192,192,23311,1,0,0:0:0:0:
448,192,23383,1,0,0:0:0:0:
64,192,23455,1,0,0:0:0:0:
320,192,23526,1,0,0:0:0:0:
448,192,23598,1,0,0:0:0:0:
192,192,23598,1,0,0:0:0:0:
64,192,23670,1,0,0:0:0:0:
320,192,23742,1,0,0:0:0:0:
448,192,23742,1,0,0:0:0:0:
192,192,23813,1,0,0:0:0:0:
64,192,23885,1,0,0:0:0:0:
320,192,23957,1,0,0:0:0:0:
448,192,23957,1,0,0:0:0:0:
192,192,24029,1,0,0:0:0:0:
320,192,24101,1,0,0:0:0:0:
64,192,24172,1,0,0:0:0:0:
192,192,24172,1,0,0:0:0:0:
448,192,24316,1,0,0:0:0:0:
64,192,24388,1,0,0:0:0:0:
192,192,24388,1,0,0:0:0:0:
320,192,24459,1,0,0:0:0:0:
448,192,24459,1,0,0:0:0:0:
64,192,24531,1,0,0:0:0:0:
320,192,24603,1,0,0:0:0:0:
192,192,24603,1,0,0:0:0:0:
64,192,24746,1,0,0:0:0:0:
320,192,24818,1,0,0:0:0:0:
448,192,24818,1,0,0:0:0:0:
64,192,24890,1,0,0:0:0:0:
192,192,24890,1,0,0:0:0:0:
192,192,25034,1,0,0:0:0:0:
320,192,25034,1,0,0:0:0:0:
448,192,25034,1,0,0:0:0:0:
448,192,25177,1,0,0:0:0:0:
64,192,25177,1,0,0:0:0:0:
64,192,25321,1,0,0:0:0:0:
192,192,25321,1,0,0:0:0:0:
320,192,25321,1,0,0:0:0:0:
192,192,25464,1,0,0:0:0:0:
448,192,25464,1,0,0:0:0:0:
320,192,25536,1,0,0:0:0:0:
192,192,25608,1,0,0:0:0:0:
64,192,25608,1,0,0:0:0:0:
448,192,25680,1,0,0:0:0:0:
320,192,25751,1,0,0:0:0:0:
64,192,25823,1,0,0:0:0:0:
192,192,25895,1,0,0:0:0:0:
320,192,25967,1,0,0:0:0:0:
448,192,26038,1,0,0:0:0:0:
64,192,26038,1,0,0:0:0:0:
192,192,26182,1,0,0:0:0:0:
320,192,26254,1,0,0:0:0:0:
64,192,26325,1,0,0:0:0:0:
448,192,26325,1,0,0:0:0:0:
192,192,26397,1,0,0:0:0:0:
320,192,26469,1,0,0:0:0:0:
448,192,26469,1,0,0:0:0:0:
64,192,26613,1,0,0:0:0:0:
320,192,26684,1,0,0:0:0:0:
192,192,26684,1,0,0:0:0:0:
448,192,26756,1,0,0:0:0:0:
64,192,26828,1,0,0:0:0:0:
448,192,26900,1,0,0:0:0:0:
192,192,26900,1,0,0:0:0:0:
320,192,26971,1,0,0:0:0:0:
192,192,27043,1,0,0:0:0:0:
64,192,27043,1,0,0:0:0:0:
64,192,27187,1,0,0:0:0:0:
448,192,27187,1,0,0:0:0:0:
320,192,27187,1,0,0:0:0:0:
192,192,27330,1,0,0:0:0:0:
320,192,27330,1,0,0:0:0:0:
448,192,27330,1,0,0:0:0:0:
192,192,27474,1,0,0:0:0:0:
64,192,27474,1,0,0:0:0:0:
64,192,27617,1,0,0:0:0:0:
320,192,27617,1,0,0:0:0:0:
448,192,27617,1,0,0:0:0:0:
192,192,27761,1,0,0:0:0:0:
320,192,27833,1,0,0:0:0:0:
64,192,27904,1,0,0:0:0:0:
448,192,27904,1,0,0:0:0:0:
192,192,27976,1,0,0:0:0:0:
448,192,28048,1,0,0:0:0:0:
320,192,28120,1,0,0:0:0:0:
64,192,28191,1,0,0:0:0:0:
192,192,28191,1,0,0:0:0:0:
448,192,28263,1,0,0:0:0:0:
320,192,28335,1,0,0:0:0:0:
192,192,28335,1,0,0:0:0:0:
64,192,28407,1,0,0:0:0:0:
320,192,28479,1,0,0:0:0:0:
448,192,28550,1,0,0:0:0:0:
64,192,28550,1,0,0:0:0:0:
192,192,28622,1,0,0:0:0:0:
320,192,28694,1,0,0:0:0:0:
448,192,28766,1,0,0:0:0:0:
192,192,28766,1,0,0:0:0:0:
64,192,28909,1,0,0:0:0:0:
448,192,28981,1,0,0:0:0:0:
320,192,28981,1,0,0:0:0:0:
192,192,29053,1,0,0:0:0:0:
64,192,29053,1,0,0:0:0:0:
448,192,29124,1,0,0:0:0:0:
320,192,29196,1,0,0:0:0:0:
64,192,29196,1,0,0:0:0:0:
192,192,29268,1,0,0:0:0:0:
448,192,29340,1,0,0:0:0:0:
192,192,29412,1,0,0:0:0:0:
64,192,29483,1,0,0:0:0:0:
448,192,29483,1,0,0:0:0:0:
320,192,29483,1,0,0:0:0:0:
64,192,29627,1,0,0:0:0:0:
320,192,29627,1,0,0:0:0:0:
448,192,29627,1,0,0:0:0:0:
64,192,29770,1,0,0:0:0:0:
448,192,29770,1,0,0:0:0:0:
192,192,29770,1,0,0:0:0:0:
448,192,29914,1,0,0:0:0:0:
64,192,29914,1,0,0:0:0:0:
192,192,29914,1,0,0:0:0:0:
320,192,30058,1,0,0:0:0:0:
192,192,30129,1,0,0:0:0:0:
64,192,30201,1,0,0:0:0:0:
448,192,30201,1,0,0:0:0:0:
192,192,30345,1,0,0:0:0:0:
64,192,30345,1,0,0:0:0:0:
448,192,30345,1,0,0:0:0:0:
192,192,30488,1,0,0:0:0:0:
320,192,30632,1,0,0:0:0:0:
448,192,30632,1,0,0:0:0:0:
64,192,30632,1,0,0:0:0:0:
320,192,30775,1,0,0:0:0:0:
192,192,30919,1,0,0:0:0:0:
64,192,30919,1,0,0:0:0:0:
448,192,30919,1,0,0:0:0:0:
448,192,31062,1,0,0:0:0:0:
64,192,31062,1,0,0:0:0:0:
192,192,31062,1,0,0:0:0:0:
320,192,31278,1,0,0:0:0:0:
448,192,31278,1,0,0:0:0:0:
64,192,31278,1,0,0:0:0:0:
64,192,31493,1,0,0:0:0:0:
320,192,31493,1,0,0:0:0:0:
448,192,31493,1,0,0:0:0:0:
192,192,31636,128,0,31924:0:0:0:0:
64,192,31636,128,0,31924:0:0:0:0:
448,192,31924,1,0,0:0:0:0:
320,192,31959,1,0,0:0:0:0:
192,192,31995,1,0,0:0:0:0:
64,192,32031,1,0,0:0:0:0:
448,192,32067,1,0,0:0:0:0:
192,192,32211,1,0,0:0:0:0:
64,192,32211,1,0,0:0:0:0:
192,192,32498,1,0,0:0:0:0:
64,192,32498,1,0,0:0:0:0:
448,192,32689,1,0,0:0:0:0:
64,192,32785,1,0,0:0:0:0:
320,192,32785,1,0,0:0:0:0:
192,192,32976,1,0,0:0:0:0:
448,192,33072,1,0,0:0:0:0:
320,192,33072,1,0,0:0:0:0:
448,192,33263,1,0,0:0:0:0:
320,192,33359,1,0,0:0:0:0:
192,192,33359,1,0,0:0:0:0:
64,192,33646,1,0,0:0:0:0:
320,192,33646,1,0,0:0:0:0:
64,192,33837,1,0,0:0:0:0:
320,192,33933,1,0,0:0:0:0:
192,192,33933,1,0,0:0:0:0:
192,192,34124,1,0,0:0:0:0:
320,192,34220,1,0,0:0:0:0:
448,192,34220,1,0,0:0:0:0:
320,192,34412,1,0,0:0:0:0:
64,192,34507,1,0,0:0:0:0:
448,192,34507,1,0,0:0:0:0:
448,192,34699,1,0,0:0:0:0:
64,192,34794,1,0,0:0:0:0:
320,192,34794,1,0,0:0:0:0:
192,192,34986,1,0,0:0:0:0:
448,192,35081,1,0,0:0:0:0:
64,192,35081,1,0,0:0:0:0:
320,192,35273,1,0,0:0:0:0:
192,192,35369,1,0,0:0:0:0:
448,192,35369,1,0,0:0:0:0:
64,192,35560,1,0,0:0:0:0:
448,192,35656,1,0,0:0:0:0:
320,192,35656,1,0,0:0:0:0:
192,192,35847,1,0,0:0:0:0:
64,192,35943,1,0,0:0:0:0:
320,192,35943,1,0,0:0:0:0:
448,192,36134,1,0,0:0:0:0:
320,192,36230,1,0,0:0:0:0:
192,192,36230,1,0,0:0:0:0:
64,192,36421,1,0,0:0:0:0:
448,192,36517,1,0,0:0:0:0:
192,192,36517,1,0,0:0:0:0:
320,192,36708,1,0,0:0:0:0:
192,192,36804,1,0,0:0:0:0:
64,192,36804,1,0,0:0:0:0:
64,192,37091,1,0,0:0:0:0:
192,192,37091,1,0,0:0:0:0:
320,192,37282,1,0,0:0:0:0:
448,192,37378,1,0,0:0:0:0:
64,192,37378,1,0,0:0:0:0:
192,192,37569,1,0,0:0:0:0:
448,192,37665,1,0,0:0:0:0:
320,192,37665,1,0,0:0:0:0:
192,192,37857,1,0,0:0:0:0:
64,192,37952,1,0,0:0:0:0:
320,192,37952,1,0,0:0:0:0:
448,192,38144,1,0,0:0:0:0:
192,192,38239,1,0,0:0:0:0:
64,192,38239,1,0,0:0:0:0:
448,192,38431,1,0,0:0:0:0:
192,192,38526,1,0,0:0:0:0:
64,192,38526,1,0,0:0:0:0:
320,192,38718,1,0,0:0:0:0:
448,192,38813,1,0,0:0:0:0:
192,192,38813,1,0,0:0:0:0:
192,192,39005,1,0,0:0:0:0:
320,192,39101,1,0,0:0:0:0:
64,192,39101,1,0,0:0:0:0:
192,192,39292,1,0,0:0:0:0:
320,192,39388,1,0,0:0:0:0:
448,192,39388,1,0,0:0:0:0:
192,192,39579,1,0,0:0:0:0:
64,192,39675,1,0,0:0:0:0:
448,192,39675,1,0,0:0:0:0:
320,192,39866,1,0,0:0:0:0:
64,192,39962,1,0,0:0:0:0:
448,192,39962,1,0,0:0:0:0:
320,192,40153,1,0,0:0:0:0:
448,192,40153,1,0,0:0:0:0:
320,192,40249,1,0,0:0:0:0:
192,192,40249,1,0,0:0:0:0:
64,192,40249,1,0,0:0:0:0:
64,192,40536,1,0,0:0:0:0:
448,192,40536,1,0,0:0:0:0:
192,192,40536,1,0,0:0:0:0:
64,192,40823,1,0,0:0:0:0:
448,192,40823,1,0,0:0:0:0:
320,192,40823,1,0,0:0:0:0:
192,192,41110,1,0,0:0:0:0:
320,192,41110,1,0,0:0:0:0:
448,192,41110,1,0,0:0:0:0:
320,192,41397,1,0,0:0:0:0:
64,192,41397,1,0,0:0:0:0:
448,192,41397,1,0,0:0:0:0:
192,192,41589,1,0,0:0:0:0:
320,192,41684,1,0,0:0:0:0:
64,192,41684,1,0,0:0:0:0:
448,192,41684,1,0,0:0:0:0:
192,192,41876,1,0,0:0:0:0:
64,192,41876,1,0,0:0:0:0:
320,192,41971,1,0,0:0:0:0:
448,192,41971,1,0,0:0:0:0:
192,192,41971,1,0,0:0:0:0:
320,192,42163,1,0,0:0:0:0:
192,192,42163,1,0,0:0:0:0:
320,192,42258,1,0,0:0:0:0:
64,192,42258,1,0,0:0:0:0:
448,192,42258,1,0,0:0:0:0:
448,192,42450,1,0,0:0:0:0:
320,192,42450,1,0,0:0:0:0:
64,192,42546,1,0,0:0:0:0:
448,192,42546,1,0,0:0:0:0:
192,192,42546,1,0,0:0:0:0:
320,192,42737,1,0,0:0:0:0:
192,192,42833,1,0,0:0:0:0:
64,192,42833,1,0,0:0:0:0:
448,192,42833,1,0,0:0:0:0:
64,192,43024,1,0,0:0:0:0:
192,192,43024,1,0,0:0:0:0:
64,192,43120,1,0,0:0:0:0:
320,192,43120,1,0,0:0:0:0:
448,192,43120,1,0,0:0:0:0:
64,192,43311,1,0,0:0:0:0:
192,192,43311,1,0,0:0:0:0:
192,192,43407,1,0,0:0:0:0:
320,192,43407,1,0,0:0:0:0:
448,192,43407,1,0,0:0:0:0:
320,192,43598,1,0,0:0:0:0:
192,192,43598,1,0,0:0:0:0:
64,192,43694,1,0,0:0:0:0:
320,192,43694,1,0,0:0:0:0:
448,192,43694,1,0,0:0:0:0:
192,192,43885,1,0,0:0:0:0:
448,192,43981,1,0,0:0:0:0:
64,192,43981,1,0,0:0:0:0:
320,192,43981,1,0,0:0:0:0:
448,192,44172,1,0,0:0:0:0:
320,192,44172,1,0,0:0:0:0:
448,192,44268,1,0,0:0:0:0:
64,192,44268,1,0,0:0:0:0:
192,192,44268,1,0,0:0:0:0:
64,192,44459,1,0,0:0:0:0:
320,192,44459,1,0,0:0:0:0:
192,192,44555,1,0,0:0:0:0:
320,192,44555,1,0,0:0:0:0:
448,192,44555,1,0,0:0:0:0:
192,192,44746,1,0,0:0:0:0:
448,192,44746,1,0,0:0:0:0:
64,192,44842,1,0,0:0:0:0:
192,192,44842,1,0,0:0:0:0:
320,192,44842,1,0,0:0:0:0:
448,192,45034,1,0,0:0:0:0:
320,192,45034,1,0,0:0:0:0:
448,192,45129,1,0,0:0:0:0:
192,192,45129,1,0,0:0:0:0:
64,192,45129,1,0,0:0:0:0:
64,192,45321,1,0,0:0:0:0:
192,192,45321,1,0,0:0:0:0:
64,192,45416,1,0,0:0:0:0:
448,192,45416,1,0,0:0:0:0:
320,192,45416,1,0,0:0:0:0:
64,192,45608,1,0,0:0:0:0:
192,192,45608,1,0,0:0:0:0:
192,192,45703,1,0,0:0:0:0:
320,192,45703,1,0,0:0:0:0:
448,192,45703,1,0,0:0:0:0:
320,192,45895,1,0,0:0:0:0:
448,192,45895,1,0,0:0:0:0:
320,192,45991,1,0,0:0:0:0:
64,192,45991,1,0,0:0:0:0:
192,192,45991,1,0,0:0:0:0:
320,192,46182,1,0,0:0:0:0:
448,192,46182,1,0,0:0:0:0:
448,192,46278,1,0,0:0:0:0:
192,192,46278,1,0,0:0:0:0:
64,192,46278,1,0,0:0:0:0:
192,192,46469,1,0,0:0:0:0:
64,192,46469,1,0,0:0:0:0:
192,192,46565,1,0,0:0:0:0:
448,192,46565,1,0,0:0:0:0:
320,192,46565,1,0,0:0:0:0:
64,192,46756,1,0,0:0:0:0:
192,192,46756,1,0,0:0:0:0:
64,192,46852,1,0,0:0:0:0:
320,192,46852,1,0,0:0:0:0:
448,192,46852,1,0,0:0:0:0:
64,192,47043,1,0,0:0:0:0:
320,192,47043,1,0,0:0:0:0:
192,192,47139,1,0,0:0:0:0:
320,192,47139,1,0,0:0:0:0:
448,192,47139,1,0,0:0:0:0:
192,192,47330,1,0,0:0:0:0:
448,192,47330,1,0,0:0:0:0:
64,192,47426,1,0,0:0:0:0:
320,192,47426,1,0,0:0:0:0:
192,192,47426,1,0,0:0:0:0:
64,192,47617,1,0,0:0:0:0:
448,192,47617,1,0,0:0:0:0:
192,192,47713,1,0,0:0:0:0:
320,192,47713,1,0,0:0:0:0:
448,192,47713,1,0,0:0:0:0:
64,192,47904,1,0,0:0:0:0:
448,192,47904,1,0,0:0:0:0:
64,192,48000,1,0,0:0:0:0:
192,192,48000,1,0,0:0:0:0:
320,192,48000,1,0,0:0:0:0:
192,192,48191,1,0,0:0:0:0:
64,192,48191,1,0,0:0:0:0:
192,192,48287,1,0,0:0:0:0:
320,192,48287,1,0,0:0:0:0:
448,192,48287,1,0,0:0:0:0:
448,192,48479,1,0,0:0:0:0:
192,192,48574,1,0,0:0:0:0:
320,192,48574,1,0,0:0:0:0:
64,192,48574,1,0,0:0:0:0:
448,192,48766,1,0,0:0:0:0:
64,192,48766,1,0,0:0:0:0:
192,192,48766,1,0,0:0:0:0:
192,192,49053,1,0,0:0:0:0:
320,192,49053,1,0,0:0:0:0:
448,192,49053,1,0,0:0:0:0:
320,192,49340,1,0,0:0:0:0:
448,192,49340,1,0,0:0:0:0:
64,192,49340,1,0,0:0:0:0:
448,192,49435,1,0,0:0:0:0:
64,192,49531,1,0,0:0:0:0:
192,192,49627,1,0,0:0:0:0:
192,192,49723,1,0,0:0:0:0:
448,192,49818,1,0,0:0:0:0:
320,192,49914,1,0,0:0:0:0:
320,192,50010,1,0,0:0:0:0:
192,192,50105,1,0,0:0:0:0:
320,192,50201,1,0,0:0:0:0:
448,192,50297,1,0,0:0:0:0:
64,192,50297,1,0,0:0:0:0:
64,192,50392,1,0,0:0:0:0:
320,192,50488,1,0,0:0:0:0:
192,192,50584,1,0,0:0:0:0:
64,192,50584,1,0,0:0:0:0:
448,192,50871,1,0,0:0:0:0:
64,192,50871,1,0,0:0:0:0:
320,192,51062,1,0,0:0:0:0:
192,192,51158,1,0,0:0:0:0:
448,192,51158,1,0,0:0:0:0:
320,192,51349,1,0,0:0:0:0:
448,192,51445,1,0,0:0:0:0:
64,192,51445,1,0,0:0:0:0:
320,192,51636,1,0,0:0:0:0:
64,192,51732,1,0,0:0:0:0:
192,192,51732,1,0,0:0:0:0:
448,192,52019,1,0,0:0:0:0:
192,192,52019,1,0,0:0:0:0:
320,192,52211,1,0,0:0:0:0:
64,192,52306,1,0,0:0:0:0:
192,192,52306,1,0,0:0:0:0:
320,192,52498,1,0,0:0:0:0:
448,192,52593,1,0,0:0:0:0:
192,192,52593,1,0,0:0:0:0:
320,192,52785,1,0,0:0:0:0:
448,192,52880,1,0,0:0:0:0:
64,192,52880,1,0,0:0:0:0:
320,192,53168,1,0,0:0:0:0:
64,192,53168,1,0,0:0:0:0:
192,192,53359,1,0,0:0:0:0:
448,192,53455,1,0,0:0:0:0:
64,192,53455,1,0,0:0:0:0:
192,192,53646,1,0,0:0:0:0:
64,192,53742,1,0,0:0:0:0:
320,192,53742,1,0,0:0:0:0:
448,192,53933,1,0,0:0:0:0:
192,192,54029,1,0,0:0:0:0:
320,192,54029,1,0,0:0:0:0:
64,192,54220,1,0,0:0:0:0:
192,192,54316,1,0,0:0:0:0:
448,192,54316,1,0,0:0:0:0:
64,192,54507,1,0,0:0:0:0:
192,192,54603,1,0,0:0:0:0:
320,192,54603,1,0,0:0:0:0:
320,192,54746,1,0,0:0:0:0:
448,192,54818,1,0,0:0:0:0:
192,192,54890,1,0,0:0:0:0:
64,192,54890,128,0,55034:0:0:0:0:
448,192,55034,128,0,55177:0:0:0:0:
192,192,55177,128,0,55608:0:0:0:0:
320,192,55177,1,0,0:0:0:0:
64,192,55177,1,0,0:0:0:0:
64,192,55321,1,0,0:0:0:0:
448,192,55464,1,0,0:0:0:0:
320,192,55464,1,0,0:0:0:0:
320,192,55608,128,0,55680:0:0:0:0:
320,192,55751,128,0,57043:0:0:0:0:
64,192,55751,1,0,0:0:0:0:
64,192,55895,1,0,0:0:0:0:
448,192,56038,1,0,0:0:0:0:
192,192,56038,1,0,0:0:0:0:
448,192,56182,1,0,0:0:0:0:
192,192,56325,1,0,0:0:0:0:
64,192,56325,1,0,0:0:0:0:
192,192,56469,1,0,0:0:0:0:
448,192,56613,1,0,0:0:0:0:
64,192,56613,1,0,0:0:0:0:
448,192,56756,1,0,0:0:0:0:
192,192,56900,1,0,0:0:0:0:
64,192,56900,1,0,0:0:0:0:
64,192,57043,1,0,0:0:0:0:
320,192,57187,128,0,57330:0:0:0:0:
448,192,57187,1,0,0:0:0:0:
192,192,57330,128,0,57474:0:0:0:0:
448,192,57474,128,0,57904:0:0:0:0:
64,192,57474,1,0,0:0:0:0:
320,192,57474,1,0,0:0:0:0:
320,192,57617,1,0,0:0:0:0:
64,192,57761,1,0,0:0:0:0:
192,192,57761,1,0,0:0:0:0:
64,192,57904,128,0,57976:0:0:0:0:
64,192,58048,128,0,59340:0:0:0:0:
448,192,58048,1,0,0:0:0:0:
448,192,58191,1,0,0:0:0:0:
320,192,58335,1,0,0:0:0:0:
192,192,58335,1,0,0:0:0:0:
192,192,58479,1,0,0:0:0:0:
448,192,58622,1,0,0:0:0:0:
320,192,58622,1,0,0:0:0:0:
448,192,58766,1,0,0:0:0:0:
192,192,58909,1,0,0:0:0:0:
320,192,58909,1,0,0:0:0:0:
192,192,59053,1,0,0:0:0:0:
320,192,59196,1,0,0:0:0:0:
448,192,59196,1,0,0:0:0:0:
320,192,59340,1,0,0:0:0:0:
64,192,59483,1,0,0:0:0:0:
192,192,59483,1,0,0:0:0:0:
320,192,59627,1,0,0:0:0:0:
192,192,59699,1,0,0:0:0:0:
64,192,59770,1,0,0:0:0:0:
448,192,59770,1,0,0:0:0:0:
320,192,59770,1,0,0:0:0:0:
64,192,59914,1,0,0:0:0:0:
320,192,60058,1,0,0:0:0:0:
448,192,60058,1,0,0:0:0:0:
192,192,60129,1,0,0:0:0:0:
64,192,60201,1,0,0:0:0:0:
448,192,60273,1,0,0:0:0:0:
320,192,60345,1,0,0:0:0:0:
192,192,60345,1,0,0:0:0:0:
64,192,60416,1,0,0:0:0:0:
320,192,60488,1,0,0:0:0:0:
192,192,60560,1,0,0:0:0:0:
64,192,60632,1,0,0:0:0:0:
448,192,60632,1,0,0:0:0:0:
320,192,60703,1,0,0:0:0:0:
64,192,60775,1,0,0:0:0:0:
192,192,60847,1,0,0:0:0:0:
320,192,60919,1,0,0:0:0:0:
448,192,60919,1,0,0:0:0:0:
192,192,60991,1,0,0:0:0:0:
320,192,61062,1,0,0:0:0:0:
448,192,61062,1,0,0:0:0:0:
64,192,61134,1,0,0:0:0:0:
192,192,61206,1,0,0:0:0:0:
320,192,61206,1,0,0:0:0:0:
448,192,61278,1,0,0:0:0:0:
64,192,61349,1,0,0:0:0:0:
192,192,61349,1,0,0:0:0:0:
320,192,61421,1,0,0:0:0:0:
192,192,61493,1,0,0:0:0:0:
64,192,61493,1,0,0:0:0:0:
448,192,61493,1,0,0:0:0:0:
320,192,61780,1,0,0:0:0:0:
448,192,61780,1,0,0:0:0:0:
64,192,61780,1,0,0:0:0:0:
64,192,62067,1,0,0:0:0:0:
192,192,62067,128,0,62211:0:0:0:0:
320,192,62067,1,0,0:0:0:0:
320,192,62211,1,0,0:0:0:0:
192,192,62354,1,0,0:0:0:0:
64,192,62354,128,0,62426:0:0:0:0:
448,192,62354,1,0,0:0:0:0:
192,192,62498,128,0,62569:0:0:0:0:
320,192,62641,128,0,62785:0:0:0:0:
448,192,62641,1,0,0:0:0:0:
192,192,62785,1,0,0:0:0:0:
320,192,62928,1,0,0:0:0:0:
448,192,62928,1,0,0:0:0:0:
64,192,62928,128,0,63000:0:0:0:0:
448,192,63072,128,0,63144:0:0:0:0:
320,192,63215,128,0,63287:0:0:0:0:
64,192,63215,1,0,0:0:0:0:
192,192,63359,128,0,63431:0:0:0:0:
448,192,63502,1,0,0:0:0:0:
320,192,63502,128,0,63646:0:0:0:0:
64,192,63502,1,0,0:0:0:0:
64,192,63646,1,0,0:0:0:0:
448,192,63718,128,0,63790:0:0:0:0:
192,192,63790,1,0,0:0:0:0:
320,192,63790,128,0,63861:0:0:0:0:
64,192,63933,128,0,64005:0:0:0:0:
448,192,64077,1,0,0:0:0:0:
320,192,64077,128,0,64148:0:0:0:0:
192,192,64077,1,0,0:0:0:0:
192,192,64220,128,0,64292:0:0:0:0:
64,192,64364,1,0,0:0:0:0:
448,192,64364,128,0,64507:0:0:0:0:
192,192,64507,1,0,0:0:0:0:
448,192,64651,1,0,0:0:0:0:
320,192,64651,1,0,0:0:0:0:
64,192,64651,128,0,64723:0:0:0:0:
320,192,64794,128,0,64866:0:0:0:0:
64,192,64938,1,0,0:0:0:0:
448,192,64938,128,0,65081:0:0:0:0:
192,192,65081,1,0,0:0:0:0:
320,192,65225,1,0,0:0:0:0:
64,192,65225,128,0,65297:0:0:0:0:
448,192,65225,1,0,0:0:0:0:
448,192,65369,128,0,65440:0:0:0:0:
320,192,65512,1,0,0:0:0:0:
64,192,65512,128,0,65656:0:0:0:0:
192,192,65656,1,0,0:0:0:0:
448,192,65727,128,0,65799:0:0:0:0:
320,192,65799,128,0,65871:0:0:0:0:
192,192,65799,1,0,0:0:0:0:
64,192,65799,1,0,0:0:0:0:
64,192,65943,128,0,66014:0:0:0:0:
448,192,66086,1,0,0:0:0:0:
320,192,66086,128,0,66158:0:0:0:0:
192,192,66230,128,0,66302:0:0:0:0:
64,192,66373,1,0,0:0:0:0:
448,192,66373,128,0,66445:0:0:0:0:
320,192,66373,1,0,0:0:0:0:
64,192,66517,128,0,66589:0:0:0:0:
192,192,66660,1,0,0:0:0:0:
320,192,66660,128,0,66804:0:0:0:0:
448,192,66804,1,0,0:0:0:0:
64,192,66947,1,0,0:0:0:0:
320,192,66947,128,0,67019:0:0:0:0:
192,192,66947,1,0,0:0:0:0:
192,192,67091,128,0,67163:0:0:0:0:
448,192,67235,1,0,0:0:0:0:
64,192,67235,128,0,67378:0:0:0:0:
192,192,67378,1,0,0:0:0:0:
64,192,67522,1,0,0:0:0:0:
448,192,67522,128,0,67593:0:0:0:0:
320,192,67522,1,0,0:0:0:0:
320,192,67665,128,0,67737:0:0:0:0:
192,192,67809,1,0,0:0:0:0:
448,192,67809,128,0,67952:0:0:0:0:
64,192,67952,1,0,0:0:0:0:
448,192,68096,1,0,0:0:0:0:
320,192,68096,1,0,0:0:0:0:
192,192,68096,128,0,68168:0:0:0:0:
448,192,68239,128,0,68311:0:0:0:0:
64,192,68383,128,0,68526:0:0:0:0:
192,192,68383,1,0,0:0:0:0:
448,192,68526,1,0,0:0:0:0:
192,192,68670,1,0,0:0:0:0:
320,192,68670,128,0,68742:0:0:0:0:
64,192,68670,1,0,0:0:0:0:
64,192,68813,128,0,68885:0:0:0:0:
192,192,68957,128,0,69101:0:0:0:0:
448,192,68957,1,0,0:0:0:0:
64,192,69101,1,0,0:0:0:0:
320,192,69172,128,0,69244:0:0:0:0:
192,192,69244,1,0,0:0:0:0:
64,192,69244,1,0,0:0:0:0:
448,192,69244,128,0,69316:0:0:0:0:
192,192,69388,128,0,69459:0:0:0:0:
448,192,69531,1,0,0:0:0:0:
320,192,69531,128,0,69603:0:0:0:0:
64,192,69675,128,0,69746:0:0:0:0:
192,192,69746,128,0,69818:0:0:0:0:
448,192,69818,128,0,69890:0:0:0:0:
64,192,69818,1,0,0:0:0:0:
320,192,69818,1,0,0:0:0:0:
320,192,69962,128,0,70034:0:0:0:0:
64,192,70034,128,0,70105:0:0:0:0:
448,192,70105,1,0,0:0:0:0:
192,192,70105,128,0,70177:0:0:0:0:
64,192,70249,128,0,70321:0:0:0:0:
320,192,70321,128,0,70392:0:0:0:0:
192,192,70392,1,0,0:0:0:0:
64,192,70392,1,0,0:0:0:0:
448,192,70392,128,0,70464:0:0:0:0:
64,192,70536,128,0,70608:0:0:0:0:
320,192,70680,1,0,0:0:0:0:
448,192,70680,128,0,70751:0:0:0:0:
192,192,70823,128,0,70895:0:0:0:0:
320,192,70967,128,0,71038:0:0:0:0:
64,192,70967,1,0,0:0:0:0:
448,192,70967,1,0,0:0:0:0:
64,192,71110,128,0,71182:0:0:0:0:
192,192,71254,128,0,71397:0:0:0:0:
448,192,71254,1,0,0:0:0:0:
320,192,71254,1,0,0:0:0:0:
448,192,71397,1,0,0:0:0:0:
192,192,71541,1,0,0:0:0:0:
64,192,71541,128,0,71613:0:0:0:0:
320,192,71541,1,0,0:0:0:0:
192,192,71684,128,0,71756:0:0:0:0:
320,192,71828,128,0,71971:0:0:0:0:
448,192,71828,1,0,0:0:0:0:
192,192,71971,1,0,0:0:0:0:
320,192,72115,1,0,0:0:0:0:
448,192,72115,1,0,0:0:0:0:
64,192,72115,128,0,72187:0:0:0:0:
320,192,72258,128,0,72330:0:0:0:0:
448,192,72402,128,0,72474:0:0:0:0:
64,192,72402,1,0,0:0:0:0:
64,192,72546,128,0,72617:0:0:0:0:
448,192,72689,1,0,0:0:0:0:
192,192,72689,128,0,72833:0:0:0:0:
320,192,72689,1,0,0:0:0:0:
448,192,72833,1,0,0:0:0:0:
192,192,72904,128,0,72976:0:0:0:0:
64,192,72976,1,0,0:0:0:0:
320,192,72976,128,0,73048:0:0:0:0:
64,192,73120,128,0,73191:0:0:0:0:
192,192,73263,128,0,73335:0:0:0:0:
320,192,73263,1,0,0:0:0:0:
448,192,73263,1,0,0:0:0:0:
64,192,73335,1,0,0:0:0:0:
448,192,73407,128,0,73479:0:0:0:0:
192,192,73479,1,0,0:0:0:0:
320,192,73550,128,0,73622:0:0:0:0:
64,192,73550,1,0,0:0:0:0:
448,192,73550,1,0,0:0:0:0:
64,192,73694,1,0,0:0:0:0:
320,192,73837,1,0,0:0:0:0:
192,192,73837,1,0,0:0:0:0:
448,192,73837,128,0,73909:0:0:0:0:
320,192,73981,1,0,0:0:0:0:
448,192,73981,1,0,0:0:0:0:
64,192,73981,128,0,74124:0:0:0:0:
192,192,74268,1,0,0:0:0:0:
448,192,74268,1,0,0:0:0:0:
320,192,74268,128,0,74412:0:0:0:0:
64,192,74555,1,0,0:0:0:0:
320,192,74555,1,0,0:0:0:0:
192,192,74555,128,0,74699:0:0:0:0:
448,192,74842,1,0,0:0:0:0:
64,192,74842,1,0,0:0:0:0:
192,192,74842,128,0,74914:0:0:0:0:
192,192,74986,1,0,0:0:0:0:
320,192,74986,128,0,75058:0:0:0:0:
320,192,75129,1,0,0:0:0:0:
448,192,75129,1,0,0:0:0:0:
64,192,75129,128,0,75273:0:0:0:0:
192,192,75273,1,0,0:0:0:0:
448,192,75273,1,0,0:0:0:0:
320,192,75416,1,0,0:0:0:0:
192,192,75488,1,0,0:0:0:0:
448,192,75560,1,0,0:0:0:0:
320,192,75560,128,0,75632:0:0:0:0:
64,192,75560,1,0,0:0:0:0:
448,192,75703,128,0,75775:0:0:0:0:
320,192,75847,1,0,0:0:0:0:
64,192,75847,1,0,0:0:0:0:
192,192,75847,128,0,75991:0:0:0:0:
448,192,75991,1,0,0:0:0:0:
320,192,76062,128,0,76134:0:0:0:0:
448,192,76134,1,0,0:0:0:0:
192,192,76134,1,0,0:0:0:0:
64,192,76134,128,0,76206:0:0:0:0:
320,192,76278,128,0,76349:0:0:0:0:
64,192,76349,128,0,76421:0:0:0:0:
192,192,76421,1,0,0:0:0:0:
320,192,76421,1,0,0:0:0:0:
448,192,76421,128,0,76493:0:0:0:0:
64,192,76565,128,0,76636:0:0:0:0:
192,192,76636,128,0,76708:0:0:0:0:
448,192,76708,1,0,0:0:0:0:
64,192,76708,1,0,0:0:0:0:
320,192,76708,128,0,76780:0:0:0:0:
192,192,76852,128,0,76924:0:0:0:0:
448,192,76924,128,0,76995:0:0:0:0:
192,192,76995,1,0,0:0:0:0:
64,192,76995,1,0,0:0:0:0:
320,192,76995,128,0,77067:0:0:0:0:
448,192,77139,128,0,77211:0:0:0:0:
192,192,77211,128,0,77282:0:0:0:0:
448,192,77282,1,0,0:0:0:0:
64,192,77282,128,0,77354:0:0:0:0:
320,192,77282,1,0,0:0:0:0:
192,192,77426,128,0,77498:0:0:0:0:
448,192,77498,1,0,0:0:0:0:
64,192,77569,1,0,0:0:0:0:
320,192,77569,128,0,77713:0:0:0:0:
192,192,77569,1,0,0:0:0:0:
448,192,77713,1,0,0:0:0:0:
192,192,77785,1,0,0:0:0:0:
448,192,77857,1,0,0:0:0:0:
64,192,77857,1,0,0:0:0:0:
320,192,77857,128,0,77928:0:0:0:0:
192,192,78000,128,0,78072:0:0:0:0:
448,192,78072,1,0,0:0:0:0:
192,192,78144,1,0,0:0:0:0:
64,192,78144,128,0,78287:0:0:0:0:
320,192,78144,1,0,0:0:0:0:
448,192,78215,1,0,0:0:0:0:
320,192,78287,128,0,78359:0:0:0:0:
192,192,78359,128,0,78431:0:0:0:0:
64,192,78431,1,0,0:0:0:0:
448,192,78431,128,0,78574:0:0:0:0:
320,192,78431,1,0,0:0:0:0:
192,192,78574,1,0,0:0:0:0:
320,192,78646,1,0,0:0:0:0:
64,192,78718,1,0,0:0:0:0:
192,192,78718,1,0,0:0:0:0:
448,192,78718,1,0,0:0:0:0:
320,192,78790,1,0,0:0:0:0:
448,192,78861,1,0,0:0:0:0:
64,192,78933,1,0,0:0:0:0:
320,192,79005,1,0,0:0:0:0:
448,192,79005,1,0,0:0:0:0:
192,192,79005,1,0,0:0:0:0:
64,192,79077,1,0,0:0:0:0:
320,192,79148,1,0,0:0:0:0:
192,192,79220,1,0,0:0:0:0:
64,192,79292,1,0,0:0:0:0:
320,192,79292,1,0,0:0:0:0:
448,192,79292,1,0,0:0:0:0:
192,192,79364,1,0,0:0:0:0:
448,192,79435,1,0,0:0:0:0:
320,192,79507,1,0,0:0:0:0:
64,192,79579,1,0,0:0:0:0:
192,192,79579,1,0,0:0:0:0:
320,192,79651,1,0,0:0:0:0:
448,192,79651,1,0,0:0:0:0:
192,192,79723,1,0,0:0:0:0:
64,192,79723,1,0,0:0:0:0:
320,192,79794,1,0,0:0:0:0:
448,192,79794,1,0,0:0:0:0:
64,192,79866,1,0,0:0:0:0:
192,192,79866,1,0,0:0:0:0:
448,192,79938,1,0,0:0:0:0:
320,192,79938,1,0,0:0:0:0:
64,192,80010,1,0,0:0:0:0:
192,192,80010,1,0,0:0:0:0:
64,192,80153,1,0,0:0:0:0:
448,192,80153,1,0,0:0:0:0:
320,192,80153,1,0,0:0:0:0:
448,192,80297,1,0,0:0:0:0:
64,192,80297,128,0,80440:0:0:0:0:
192,192,80297,1,0,0:0:0:0:
320,192,80584,1,0,0:0:0:0:
448,192,80727,1,0,0:0:0:0:
64,192,80727,1,0,0:0:0:0:
192,192,80727,1,0,0:0:0:0:
448,192,80871,1,0,0:0:0:0:
64,192,81014,1,0,0:0:0:0:
192,192,81014,1,0,0:0:0:0:
320,192,81014,1,0,0:0:0:0:
192,192,81158,1,0,0:0:0:0:
320,192,81302,1,0,0:0:0:0:
448,192,81302,1,0,0:0:0:0:
64,192,81302,1,0,0:0:0:0:
64,192,81445,128,0,81517:0:0:0:0:
320,192,81517,128,0,81589:0:0:0:0:
64,192,81589,1,0,0:0:0:0:
192,192,81589,128,0,81732:0:0:0:0:
448,192,81589,1,0,0:0:0:0:
448,192,81732,1,0,0:0:0:0:
192,192,81876,1,0,0:0:0:0:
64,192,81876,1,0,0:0:0:0:
320,192,81876,1,0,0:0:0:0:
192,192,82019,1,0,0:0:0:0:
64,192,82163,1,0,0:0:0:0:
320,192,82163,1,0,0:0:0:0:
448,192,82163,1,0,0:0:0:0:
320,192,82306,1,0,0:0:0:0:
64,192,82450,1,0,0:0:0:0:
192,192,82450,1,0,0:0:0:0:
448,192,82450,1,0,0:0:0:0:
64,192,82593,128,0,82665:0:0:0:0:
448,192,82665,128,0,82737:0:0:0:0:
64,192,82737,1,0,0:0:0:0:
192,192,82737,128,0,82880:0:0:0:0:
320,192,82737,1,0,0:0:0:0:
320,192,82880,1,0,0:0:0:0:
448,192,83024,1,0,0:0:0:0:
64,192,83024,128,0,83096:0:0:0:0:
192,192,83024,1,0,0:0:0:0:
192,192,83168,128,0,83239:0:0:0:0:
320,192,83311,1,0,0:0:0:0:
448,192,83311,1,0,0:0:0:0:
64,192,83311,1,0,0:0:0:0:
320,192,83455,128,0,83598:0:0:0:0:
448,192,83598,1,0,0:0:0:0:
64,192,83598,1,0,0:0:0:0:
192,192,83598,1,0,0:0:0:0:
64,192,83742,128,0,83885:0:0:0:0:
448,192,83742,1,0,0:0:0:0:
320,192,83742,1,0,0:0:0:0:
320,192,83885,1,0,0:0:0:0:
192,192,83885,1,0,0:0:0:0:
448,192,83957,1,0,0:0:0:0:
64,192,84029,1,0,0:0:0:0:
192,192,84101,1,0,0:0:0:0:
448,192,84172,1,0,0:0:0:0:
320,192,84172,1,0,0:0:0:0:
64,192,84244,1,0,0:0:0:0:
192,192,84316,1,0,0:0:0:0:
448,192,84388,1,0,0:0:0:0:
64,192,84459,1,0,0:0:0:0:
192,192,84459,1,0,0:0:0:0:
320,192,84531,1,0,0:0:0:0:
192,192,84603,1,0,0:0:0:0:
64,192,84603,1,0,0:0:0:0:
448,192,84675,1,0,0:0:0:0:
192,192,84746,128,0,84818:0:0:0:0:
320,192,84746,1,0,0:0:0:0:
64,192,84818,1,0,0:0:0:0:
448,192,84890,128,0,84962:0:0:0:0:
320,192,84890,1,0,0:0:0:0:
192,192,84962,1,0,0:0:0:0:
320,192,85034,1,0,0:0:0:0:
448,192,85034,1,0,0:0:0:0:
64,192,85034,128,0,85105:0:0:0:0:
192,192,85177,128,0,85249:0:0:0:0:
320,192,85249,128,0,85321:0:0:0:0:
64,192,85321,1,0,0:0:0:0:
448,192,85321,128,0,85392:0:0:0:0:
320,192,85464,1,0,0:0:0:0:
192,192,85464,1,0,0:0:0:0:
448,192,85464,128,0,85536:0:0:0:0:
64,192,85608,128,0,85680:0:0:0:0:
192,192,85680,128,0,85751:0:0:0:0:
320,192,85751,1,0,0:0:0:0:
448,192,85751,128,0,85823:0:0:0:0:
192,192,85895,1,0,0:0:0:0:
448,192,85895,1,0,0:0:0:0:
64,192,85895,128,0,85967:0:0:0:0:
192,192,86038,128,0,86110:0:0:0:0:
320,192,86110,128,0,86182:0:0:0:0:
64,192,86182,1,0,0:0:0:0:
448,192,86182,128,0,86254:0:0:0:0:
192,192,86325,1,0,0:0:0:0:
448,192,86325,1,0,0:0:0:0:
320,192,86325,128,0,86397:0:0:0:0:
64,192,86469,128,0,86541:0:0:0:0:
192,192,86541,128,0,86613:0:0:0:0:
320,192,86613,1,0,0:0:0:0:
448,192,86613,128,0,86684:0:0:0:0:
64,192,86756,1,0,0:0:0:0:
448,192,86756,1,0,0:0:0:0:
192,192,86756,1,0,0:0:0:0:
320,192,86828,1,0,0:0:0:0:
192,192,86900,1,0,0:0:0:0:
448,192,86971,1,0,0:0:0:0:
320,192,87043,1,0,0:0:0:0:
64,192,87115,1,0,0:0:0:0:
192,192,87187,1,0,0:0:0:0:
320,192,87187,1,0,0:0:0:0:
448,192,87187,128,0,87330:0:0:0:0:
64,192,87474,1,0,0:0:0:0:
320,192,87617,1,0,0:0:0:0:
448,192,87617,1,0,0:0:0:0:
192,192,87617,1,0,0:0:0:0:
192,192,87761,1,0,0:0:0:0:
64,192,87904,1,0,0:0:0:0:
448,192,87904,1,0,0:0:0:0:
320,192,87904,1,0,0:0:0:0:
448,192,88048,128,0,88120:0:0:0:0:
64,192,88191,128,0,88263:0:0:0:0:
320,192,88191,1,0,0:0:0:0:
192,192,88191,1,0,0:0:0:0:
448,192,88335,128,0,88479:0:0:0:0:
64,192,88335,1,0,0:0:0:0:
192,192,88335,1,0,0:0:0:0:
192,192,88622,1,0,0:0:0:0:
64,192,88622,128,0,88694:0:0:0:0:
448,192,88766,1,0,0:0:0:0:
320,192,88766,128,0,88837:0:0:0:0:
192,192,88909,1,0,0:0:0:0:
64,192,88909,1,0,0:0:0:0:
320,192,88909,128,0,89053:0:0:0:0:
64,192,89196,1,0,0:0:0:0:
192,192,89196,128,0,89268:0:0:0:0:
320,192,89340,1,0,0:0:0:0:
448,192,89340,128,0,89412:0:0:0:0:
192,192,89483,1,0,0:0:0:0:
64,192,89483,1,0,0:0:0:0:
448,192,89483,128,0,89627:0:0:0:0:
320,192,89770,1,0,0:0:0:0:
448,192,89770,1,0,0:0:0:0:
64,192,89914,1,0,0:0:0:0:
320,192,89914,1,0,0:0:0:0:
448,192,89914,1,0,0:0:0:0:
64,192,90058,1,0,0:0:0:0:
192,192,90058,1,0,0:0:0:0:
192,192,90201,1,0,0:0:0:0:
448,192,90201,1,0,0:0:0:0:
64,192,90201,1,0,0:0:0:0:
320,192,90345,128,0,90416:0:0:0:0:
448,192,90345,1,0,0:0:0:0:
448,192,90488,1,0,0:0:0:0:
64,192,90488,128,0,90560:0:0:0:0:
320,192,90488,1,0,0:0:0:0:
192,192,90632,128,0,90775:0:0:0:0:
64,192,90632,1,0,0:0:0:0:
320,192,90775,1,0,0:0:0:0:
448,192,90775,1,0,0:0:0:0:
64,192,90775,1,0,0:0:0:0:
320,192,90919,1,0,0:0:0:0:
448,192,90919,1,0,0:0:0:0:
64,192,91062,1,0,0:0:0:0:
192,192,91062,1,0,0:0:0:0:
320,192,91062,1,0,0:0:0:0:
64,192,91206,1,0,0:0:0:0:
192,192,91206,1,0,0:0:0:0:
320,192,91349,1,0,0:0:0:0:
192,192,91349,1,0,0:0:0:0:
448,192,91349,1,0,0:0:0:0:
64,192,91421,1,0,0:0:0:0:
320,192,91493,128,0,91565:0:0:0:0:
64,192,91565,1,0,0:0:0:0:
448,192,91636,1,0,0:0:0:0:
320,192,91636,1,0,0:0:0:0:
192,192,91636,128,0,91708:0:0:0:0:
64,192,91708,1,0,0:0:0:0:
448,192,91780,128,0,91852:0:0:0:0:
320,192,91852,1,0,0:0:0:0:
448,192,91924,1,0,0:0:0:0:
64,192,91924,128,0,91995:0:0:0:0:
192,192,91924,1,0,0:0:0:0:
192,192,92067,1,0,0:0:0:0:
320,192,92115,128,0,92211:0:0:0:0:
64,192,92211,128,0,92306:0:0:0:0:
192,192,92402,1,0,0:0:0:0:
320,192,92402,1,0,0:0:0:0:
448,192,92402,128,0,92498:0:0:0:0:
320,192,92593,1,0,0:0:0:0:
192,192,92689,1,0,0:0:0:0:
64,192,92785,1,0,0:0:0:0:
448,192,92785,1,0,0:0:0:0:
320,192,92785,128,0,92928:0:0:0:0:
192,192,92880,1,0,0:0:0:0:
64,192,92976,1,0,0:0:0:0:
448,192,93072,1,0,0:0:0:0:
192,192,93168,1,0,0:0:0:0:
320,192,93263,1,0,0:0:0:0:
64,192,93359,1,0,0:0:0:0:
448,192,93359,1,0,0:0:0:0:
192,192,93455,1,0,0:0:0:0:
448,192,93550,1,0,0:0:0:0:
320,192,93550,1,0,0:0:0:0:
64,192,93646,1,0,0:0:0:0:
192,192,93646,1,0,0:0:0:0:
320,192,93742,1,0,0:0:0:0:
192,192,93837,1,0,0:0:0:0:
320,192,93933,1,0,0:0:0:0:
448,192,93933,128,0,94124:0:0:0:0:
64,192,94029,1,0,0:0:0:0:
320,192,94124,1,0,0:0:0:0:
64,192,94220,128,0,94316:0:0:0:0:
192,192,94220,128,0,94316:0:0:0:0:
448,192,94220,1,0,0:0:0:0:
320,192,94316,1,0,0:0:0:0:
192,192,94412,1,0,0:0:0:0:
448,192,94507,128,0,94603:0:0:0:0:
320,192,94507,128,0,94603:0:0:0:0:
64,192,94507,1,0,0:0:0:0:
192,192,94603,1,0,0:0:0:0:
320,192,94699,1,0,0:0:0:0:
448,192,94794,1,0,0:0:0:0:
192,192,94794,128,0,94890:0:0:0:0:
64,192,94794,128,0,94890:0:0:0:0:
320,192,94890,1,0,0:0:0:0:
192,192,94986,1,0,0:0:0:0:
64,192,95081,1,0,0:0:0:0:
448,192,95081,128,0,95177:0:0:0:0:
320,192,95081,128,0,95177:0:0:0:0:
192,192,95177,1,0,0:0:0:0:
320,192,95273,1,0,0:0:0:0:
64,192,95369,1,0,0:0:0:0:
448,192,95369,1,0,0:0:0:0:
192,192,95369,128,0,95464:0:0:0:0:
320,192,95560,1,0,0:0:0:0:
192,192,95560,1,0,0:0:0:0:
64,192,95560,128,0,95656:0:0:0:0:
192,192,95751,1,0,0:0:0:0:
320,192,95751,1,0,0:0:0:0:
448,192,95751,128,0,95847:0:0:0:0:
64,192,95943,1,0,0:0:0:0:
448,192,95943,1,0,0:0:0:0:
320,192,95943,128,0,96038:0:0:0:0:
64,192,96134,1,0,0:0:0:0:
448,192,96134,1,0,0:0:0:0:
192,192,96134,128,0,96230:0:0:0:0:
320,192,96325,1,0,0:0:0:0:
192,192,96325,1,0,0:0:0:0:
64,192,96325,128,0,96421:0:0:0:0:
320,192,96517,1,0,0:0:0:0:
448,192,96517,1,0,0:0:0:0:
192,192,96517,128,0,96708:0:0:0:0:
64,192,96708,1,0,0:0:0:0:
320,192,96708,1,0,0:0:0:0:
448,192,96708,128,0,96900:0:0:0:0:
64,192,96900,1,0,0:0:0:0:
192,192,96900,1,0,0:0:0:0:
320,192,96900,128,0,97091:0:0:0:0:
448,192,97091,1,0,0:0:0:0:
64,192,97091,128,0,97282:0:0:0:0:
192,192,97091,1,0,0:0:0:0:
320,192,97282,1,0,0:0:0:0:
448,192,97282,1,0,0:0:0:0:
192,192,97282,128,0,97474:0:0:0:0:
64,192,97474,1,0,0:0:0:0:
448,192,97474,1,0,0:0:0:0:
320,192,97474,128,0,97665:0:0:0:0:
64,192,97665,1,0,0:0:0:0:
192,192,97665,1,0,0:0:0:0:
448,192,97665,128,0,97857:0:0:0:0:
320,192,97857,1,0,0:0:0:0:
192,192,97857,1,0,0:0:0:0:
64,192,97857,128,0,98048:0:0:0:0:
192,192,98048,128,0,98239:0:0:0:0:
320,192,98048,1,0,0:0:0:0:
448,192,98048,1,0,0:0:0:0:
320,192,98239,128,0,98335:0:0:0:0:
64,192,98239,1,0,0:0:0:0:
448,192,98239,1,0,0:0:0:0:
448,192,98526,128,0,98622:0:0:0:0:
192,192,98526,1,0,0:0:0:0:
64,192,98526,128,0,98622:0:0:0:0:
448,192,98813,1,0,0:0:0:0:
64,192,98813,128,0,99962:0:0:0:0:
320,192,98813,1,0,0:0:0:0:
192,192,98885,1,0,0:0:0:0:
448,192,98957,1,0,0:0:0:0:
320,192,99029,1,0,0:0:0:0:
192,192,99101,1,0,0:0:0:0:
448,192,99172,1,0,0:0:0:0:
320,192,99244,1,0,0:0:0:0:
192,192,99316,1,0,0:0:0:0:
320,192,99388,1,0,0:0:0:0:
448,192,99459,1,0,0:0:0:0:
192,192,99531,1,0,0:0:0:0:
320,192,99603,1,0,0:0:0:0:
448,192,99675,1,0,0:0:0:0:
192,192,99746,1,0,0:0:0:0:
320,192,99818,1,0,0:0:0:0:
448,192,99890,1,0,0:0:0:0:
192,192,99962,1,0,0:0:0:0:
192,192,100249,1,0,0:0:0:0:
192,192,100536,1,0,0:0:0:0:
320,192,100823,1,0,0:0:0:0:
192,192,100967,1,0,0:0:0:0:
64,192,101110,1,0,0:0:0:0:
448,192,101110,1,0,0:0:0:0:
192,192,101254,1,0,0:0:0:0:
448,192,101397,1,0,0:0:0:0:
320,192,101397,1,0,0:0:0:0:
192,192,101541,1,0,0:0:0:0:
64,192,101541,1,0,0:0:0:0:
64,192,101828,1,0,0:0:0:0:
192,192,101828,1,0,0:0:0:0:
320,192,102115,1,0,0:0:0:0:
448,192,102115,1,0,0:0:0:0:
64,192,102402,1,0,0:0:0:0:
320,192,102402,1,0,0:0:0:0:
448,192,102546,1,0,0:0:0:0:
192,192,102546,1,0,0:0:0:0:
320,192,102689,1,0,0:0:0:0:
448,192,102833,1,0,0:0:0:0:
64,192,102833,1,0,0:0:0:0:
64,192,103120,1,0,0:0:0:0:
192,192,103120,1,0,0:0:0:0:
320,192,103263,1,0,0:0:0:0:
64,192,103407,1,0,0:0:0:0:
448,192,103407,1,0,0:0:0:0:
192,192,103550,1,0,0:0:0:0:
64,192,103694,1,0,0:0:0:0:
320,192,103694,1,0,0:0:0:0:
192,192,103837,1,0,0:0:0:0:
448,192,103837,1,0,0:0:0:0:
64,192,104124,1,0,0:0:0:0:
320,192,104124,1,0,0:0:0:0:
448,192,104268,1,0,0:0:0:0:
192,192,104412,128,0,105273:0:0:0:0:
320,192,104412,1,0,0:0:0:0:
320,192,104699,1,0,0:0:0:0:
320,192,104842,1,0,0:0:0:0:
320,192,105129,1,0,0:0:0:0:
64,192,105416,1,0,0:0:0:0:
320,192,105440,1,0,0:0:0:0:
192,192,105464,1,0,0:0:0:0:
448,192,105488,1,0,0:0:0:0:
