osu file format v14

[General]
AudioFilename: audio 1.400x (pitch raised).mp3
AudioLeadIn: 0
PreviewTime: 18957
Countdown: 0
SampleSet: None
StackLeniency: 0.7
Mode: 3
LetterboxInBreaks: 0
SpecialStyle: 0
WidescreenStoryboard: 1

[Editor]
DistanceSpacing: 1.3
BeatDivisor: 4
GridSize: 32
TimelineZoom: 2.5

[Metadata]
Title:SPANISHFUCKCORE
TitleUnicode:SPANISHFUCKCORE
Artist:oxycodone
ArtistUnicode:oxycodone
Creator:[NMC] Dro
Version:THE ARC OF THE NIGHT 1.4x
Source:
Tags:cj chordjack chord jack quadjack spanish fuckcore frenchcore hardcore oxycodone electronic bpm Jeffry-
BeatmapID:4537697
BeatmapSetID:2153561

[Difficulty]
HPDrainRate:8
CircleSize:4
OverallDifficulty:8
ApproachRate:5
SliderMultiplier:1.4
SliderTickRate:1

[Events]
//Background and Video events
0,0,"69.jpg",0,0
//Break Periods
//Storyboard Layer 0 (Background)
//Storyboard Layer 1 (Fail)
//Storyboard Layer 2 (Pass)
//Storyboard Layer 3 (Foreground)
//Storyboard Layer 4 (Overlay)
//Storyboard Sound Samples

[TimingPoints]
13053,407.162808120455,4,1,0,50,1,0
19567,-100,4,1,0,50,0,1
32597,-100,4,1,0,50,0,0
45626,-100,4,1,0,50,0,1
71685,-100,4,1,0,50,0,0

[HitObjects]
64,192,13053,5,0,0:0:0:0:
448,192,13155,1,0,0:0:0:0:
320,192,13155,1,0,0:0:0:0:
64,192,13257,1,0,0:0:0:0:
192,192,13358,1,0,0:0:0:0:
448,192,13358,1,0,0:0:0:0:
64,192,13460,1,0,0:0:0:0:
320,192,13562,1,0,0:0:0:0:
448,192,13562,1,0,0:0:0:0:
64,192,13664,1,0,0:0:0:0:
320,192,13715,1,0,0:0:0:0:
192,192,13765,1,0,0:0:0:0:
64,192,13765,1,0,0:0:0:0:
320,192,13816,1,0,0:0:0:0:
192,192,13867,1,0,0:0:0:0:
448,192,13969,1,0,0:0:0:0:
320,192,13969,1,0,0:0:0:0:
192,192,14071,1,0,0:0:0:0:
64,192,14172,1,0,0:0:0:0:
448,192,14172,1,0,0:0:0:0:
192,192,14275,1,0,0:0:0:0:
448,192,14376,1,0,0:0:0:0:
320,192,14376,1,0,0:0:0:0:
192,192,14478,1,0,0:0:0:0:
448,192,14529,1,0,0:0:0:0:
64,192,14580,1,0,0:0:0:0:
192,192,14580,1,0,0:0:0:0:
448,192,14630,1,0,0:0:0:0:
64,192,14682,1,0,0:0:0:0:
320,192,14783,1,0,0:0:0:0:
448,192,14783,1,0,0:0:0:0:
64,192,14885,1,0,0:0:0:0:
192,192,14987,1,0,0:0:0:0:
320,192,14987,1,0,0:0:0:0:
64,192,15089,1,0,0:0:0:0:
320,192,15190,1,0,0:0:0:0:
448,192,15190,1,0,0:0:0:0:
64,192,15292,1,0,0:0:0:0:
448,192,15343,1,0,0:0:0:0:
192,192,15394,1,0,0:0:0:0:
64,192,15394,1,0,0:0:0:0:
448,192,15445,1,0,0:0:0:0:
192,192,15496,1,0,0:0:0:0:
320,192,15597,1,0,0:0:0:0:
448,192,15597,1,0,0:0:0:0:
192,192,15700,1,0,0:0:0:0:
64,192,15801,1,0,0:0:0:0:
320,192,15801,1,0,0:0:0:0:
192,192,15903,1,0,0:0:0:0:
320,192,16005,1,0,0:0:0:0:
448,192,16005,1,0,0:0:0:0:
192,192,16107,1,0,0:0:0:0:
448,192,16157,1,0,0:0:0:0:
64,192,16208,1,0,0:0:0:0:
192,192,16208,1,0,0:0:0:0:
320,192,16259,1,0,0:0:0:0:
448,192,16310,1,0,0:0:0:0:
192,192,16412,1,0,0:0:0:0:
64,192,16412,1,0,0:0:0:0:
448,192,16514,1,0,0:0:0:0:
320,192,16615,1,0,0:0:0:0:
64,192,16615,1,0,0:0:0:0:
448,192,16717,1,0,0:0:0:0:
192,192,16819,1,0,0:0:0:0:
64,192,16819,1,0,0:0:0:0:
448,192,16921,1,0,0:0:0:0:
192,192,16972,1,0,0:0:0:0:
320,192,17022,1,0,0:0:0:0:
448,192,17022,1,0,0:0:0:0:
192,192,17074,1,0,0:0:0:0:
320,192,17125,1,0,0:0:0:0:
64,192,17226,1,0,0:0:0:0:
192,192,17226,1,0,0:0:0:0:
320,192,17328,1,0,0:0:0:0:
448,192,17430,1,0,0:0:0:0:
64,192,17430,1,0,0:0:0:0:
320,192,17532,1,0,0:0:0:0:
64,192,17633,1,0,0:0:0:0:
192,192,17633,1,0,0:0:0:0:
320,192,17735,1,0,0:0:0:0:
64,192,17786,1,0,0:0:0:0:
320,192,17837,1,0,0:0:0:0:
448,192,17837,1,0,0:0:0:0:
64,192,17888,1,0,0:0:0:0:
448,192,17939,1,0,0:0:0:0:
64,192,18040,1,0,0:0:0:0:
192,192,18040,1,0,0:0:0:0:
448,192,18142,1,0,0:0:0:0:
320,192,18244,1,0,0:0:0:0:
192,192,18244,1,0,0:0:0:0:
448,192,18346,1,0,0:0:0:0:
64,192,18447,1,0,0:0:0:0:
192,192,18447,1,0,0:0:0:0:
448,192,18550,1,0,0:0:0:0:
64,192,18600,1,0,0:0:0:0:
448,192,18651,1,0,0:0:0:0:
320,192,18651,1,0,0:0:0:0:
64,192,18702,1,0,0:0:0:0:
448,192,18753,1,0,0:0:0:0:
320,192,18753,1,0,0:0:0:0:
192,192,19567,5,0,0:0:0:0:
320,192,19567,1,0,0:0:0:0:
448,192,19567,1,0,0:0:0:0:
64,192,19567,1,0,0:0:0:0:
64,192,19669,1,0,0:0:0:0:
192,192,19669,1,0,0:0:0:0:
448,192,19669,1,0,0:0:0:0:
64,192,19771,1,0,0:0:0:0:
192,192,19771,1,0,0:0:0:0:
320,192,19771,1,0,0:0:0:0:
448,192,19771,1,0,0:0:0:0:
320,192,19872,1,0,0:0:0:0:
448,192,19872,1,0,0:0:0:0:
320,192,19975,1,0,0:0:0:0:
192,192,19975,1,0,0:0:0:0:
64,192,19975,1,0,0:0:0:0:
448,192,19975,1,0,0:0:0:0:
192,192,20076,1,0,0:0:0:0:
64,192,20076,1,0,0:0:0:0:
320,192,20076,1,0,0:0:0:0:
320,192,20178,1,0,0:0:0:0:
192,192,20178,1,0,0:0:0:0:
64,192,20178,1,0,0:0:0:0:
448,192,20178,1,0,0:0:0:0:
192,192,20280,1,0,0:0:0:0:
448,192,20280,1,0,0:0:0:0:
320,192,20382,1,0,0:0:0:0:
192,192,20382,1,0,0:0:0:0:
64,192,20382,1,0,0:0:0:0:
448,192,20382,1,0,0:0:0:0:
320,192,20484,1,0,0:0:0:0:
448,192,20484,1,0,0:0:0:0:
64,192,20484,1,0,0:0:0:0:
192,192,20585,1,0,0:0:0:0:
320,192,20585,1,0,0:0:0:0:
448,192,20585,1,0,0:0:0:0:
64,192,20585,1,0,0:0:0:0:
192,192,20687,1,0,0:0:0:0:
64,192,20687,1,0,0:0:0:0:
192,192,20789,1,0,0:0:0:0:
64,192,20789,1,0,0:0:0:0:
320,192,20789,1,0,0:0:0:0:
448,192,20789,1,0,0:0:0:0:
320,192,20891,1,0,0:0:0:0:
448,192,20891,1,0,0:0:0:0:
192,192,20891,1,0,0:0:0:0:
192,192,20992,1,0,0:0:0:0:
64,192,20992,1,0,0:0:0:0:
448,192,20992,1,0,0:0:0:0:
320,192,20992,1,0,0:0:0:0:
64,192,21095,1,0,0:0:0:0:
448,192,21095,1,0,0:0:0:0:
192,192,21196,1,0,0:0:0:0:
64,192,21196,1,0,0:0:0:0:
320,192,21196,1,0,0:0:0:0:
448,192,21196,1,0,0:0:0:0:
320,192,21298,1,0,0:0:0:0:
192,192,21298,1,0,0:0:0:0:
64,192,21298,1,0,0:0:0:0:
64,192,21400,1,0,0:0:0:0:
192,192,21400,1,0,0:0:0:0:
320,192,21400,1,0,0:0:0:0:
448,192,21400,1,0,0:0:0:0:
192,192,21502,1,0,0:0:0:0:
448,192,21502,1,0,0:0:0:0:
320,192,21603,1,0,0:0:0:0:
448,192,21603,1,0,0:0:0:0:
192,192,21603,1,0,0:0:0:0:
64,192,21603,1,0,0:0:0:0:
320,192,21705,1,0,0:0:0:0:
448,192,21705,1,0,0:0:0:0:
64,192,21705,1,0,0:0:0:0:
192,192,21807,1,0,0:0:0:0:
64,192,21807,1,0,0:0:0:0:
320,192,21807,1,0,0:0:0:0:
448,192,21807,1,0,0:0:0:0:
64,192,21909,1,0,0:0:0:0:
192,192,21909,1,0,0:0:0:0:
64,192,22010,1,0,0:0:0:0:
192,192,22010,1,0,0:0:0:0:
320,192,22010,1,0,0:0:0:0:
448,192,22010,1,0,0:0:0:0:
320,192,22112,1,0,0:0:0:0:
192,192,22112,1,0,0:0:0:0:
448,192,22112,1,0,0:0:0:0:
448,192,22214,1,0,0:0:0:0:
64,192,22214,1,0,0:0:0:0:
192,192,22214,1,0,0:0:0:0:
320,192,22214,1,0,0:0:0:0:
320,192,22316,1,0,0:0:0:0:
64,192,22316,1,0,0:0:0:0:
192,192,22417,1,0,0:0:0:0:
64,192,22417,1,0,0:0:0:0:
320,192,22417,1,0,0:0:0:0:
448,192,22417,1,0,0:0:0:0:
64,192,22520,1,0,0:0:0:0:
192,192,22520,1,0,0:0:0:0:
448,192,22520,1,0,0:0:0:0:
448,192,22621,1,0,0:0:0:0:
320,192,22621,1,0,0:0:0:0:
192,192,22621,1,0,0:0:0:0:
64,192,22621,1,0,0:0:0:0:
192,192,22723,1,0,0:0:0:0:
320,192,22723,1,0,0:0:0:0:
320,192,22825,1,0,0:0:0:0:
64,192,22825,1,0,0:0:0:0:
192,192,22825,1,0,0:0:0:0:
448,192,22825,1,0,0:0:0:0:
320,192,22927,1,0,0:0:0:0:
448,192,22927,1,0,0:0:0:0:
64,192,22927,1,0,0:0:0:0:
192,192,23028,1,0,0:0:0:0:
64,192,23028,1,0,0:0:0:0:
320,192,23028,1,0,0:0:0:0:
448,192,23028,1,0,0:0:0:0:
192,192,23130,1,0,0:0:0:0:
448,192,23130,1,0,0:0:0:0:
320,192,23232,1,0,0:0:0:0:
448,192,23232,1,0,0:0:0:0:
192,192,23232,1,0,0:0:0:0:
64,192,23232,1,0,0:0:0:0:
320,192,23334,1,0,0:0:0:0:
192,192,23334,1,0,0:0:0:0:
64,192,23334,1,0,0:0:0:0:
64,192,23435,1,0,0:0:0:0:
192,192,23435,1,0,0:0:0:0:
320,192,23435,1,0,0:0:0:0:
448,192,23435,1,0,0:0:0:0:
320,192,23537,1,0,0:0:0:0:
64,192,23537,1,0,0:0:0:0:
192,192,23639,1,0,0:0:0:0:
64,192,23639,1,0,0:0:0:0:
320,192,23639,1,0,0:0:0:0:
448,192,23639,1,0,0:0:0:0:
192,192,23741,1,0,0:0:0:0:
320,192,23741,1,0,0:0:0:0:
448,192,23741,1,0,0:0:0:0:
192,192,23842,1,0,0:0:0:0:
64,192,23842,1,0,0:0:0:0:
320,192,23842,1,0,0:0:0:0:
448,192,23842,1,0,0:0:0:0:
192,192,23945,1,0,0:0:0:0:
64,192,23945,1,0,0:0:0:0:
192,192,24046,1,0,0:0:0:0:
320,192,24046,1,0,0:0:0:0:
64,192,24046,1,0,0:0:0:0:
448,192,24046,1,0,0:0:0:0:
320,192,24148,1,0,0:0:0:0:
448,192,24148,1,0,0:0:0:0:
64,192,24148,1,0,0:0:0:0:
64,192,24250,1,0,0:0:0:0:
192,192,24250,1,0,0:0:0:0:
448,192,24250,1,0,0:0:0:0:
320,192,24250,1,0,0:0:0:0:
192,192,24352,1,0,0:0:0:0:
448,192,24352,1,0,0:0:0:0:
320,192,24453,1,0,0:0:0:0:
448,192,24453,1,0,0:0:0:0:
192,192,24453,1,0,0:0:0:0:
64,192,24453,1,0,0:0:0:0:
320,192,24555,1,0,0:0:0:0:
64,192,24555,1,0,0:0:0:0:
192,192,24555,1,0,0:0:0:0:
192,192,24657,1,0,0:0:0:0:
64,192,24657,1,0,0:0:0:0:
320,192,24657,1,0,0:0:0:0:
448,192,24657,1,0,0:0:0:0:
320,192,24759,1,0,0:0:0:0:
448,192,24759,1,0,0:0:0:0:
192,192,24860,1,0,0:0:0:0:
64,192,24860,1,0,0:0:0:0:
320,192,24860,1,0,0:0:0:0:
448,192,24860,1,0,0:0:0:0:
192,192,24962,1,0,0:0:0:0:
64,192,24962,1,0,0:0:0:0:
448,192,24962,1,0,0:0:0:0:
448,192,25064,1,0,0:0:0:0:
320,192,25064,1,0,0:0:0:0:
64,192,25064,1,0,0:0:0:0:
192,192,25064,1,0,0:0:0:0:
192,192,25166,1,0,0:0:0:0:
320,192,25166,1,0,0:0:0:0:
320,192,25267,1,0,0:0:0:0:
64,192,25267,1,0,0:0:0:0:
192,192,25267,1,0,0:0:0:0:
448,192,25267,1,0,0:0:0:0:
320,192,25370,1,0,0:0:0:0:
448,192,25370,1,0,0:0:0:0:
64,192,25370,1,0,0:0:0:0:
64,192,25471,1,0,0:0:0:0:
448,192,25471,1,0,0:0:0:0:
192,192,25471,1,0,0:0:0:0:
320,192,25471,1,0,0:0:0:0:
192,192,25573,1,0,0:0:0:0:
64,192,25573,1,0,0:0:0:0:
192,192,25675,1,0,0:0:0:0:
64,192,25675,1,0,0:0:0:0:
448,192,25675,1,0,0:0:0:0:
320,192,25675,1,0,0:0:0:0:
448,192,25777,1,0,0:0:0:0:
192,192,25777,1,0,0:0:0:0:
320,192,25777,1,0,0:0:0:0:
320,192,25878,1,0,0:0:0:0:
64,192,25878,1,0,0:0:0:0:
192,192,25878,1,0,0:0:0:0:
448,192,25878,1,0,0:0:0:0:
320,192,25980,1,0,0:0:0:0:
64,192,25980,1,0,0:0:0:0:
192,192,26082,1,0,0:0:0:0:
64,192,26082,1,0,0:0:0:0:
320,192,26082,1,0,0:0:0:0:
448,192,26082,1,0,0:0:0:0:
192,192,26184,1,0,0:0:0:0:
64,192,26184,1,0,0:0:0:0:
448,192,26184,1,0,0:0:0:0:
192,192,26285,1,0,0:0:0:0:
320,192,26285,1,0,0:0:0:0:
448,192,26285,1,0,0:0:0:0:
64,192,26285,1,0,0:0:0:0:
320,192,26387,1,0,0:0:0:0:
192,192,26387,1,0,0:0:0:0:
320,192,26489,1,0,0:0:0:0:
192,192,26489,1,0,0:0:0:0:
64,192,26489,1,0,0:0:0:0:
448,192,26489,1,0,0:0:0:0:
320,192,26591,1,0,0:0:0:0:
448,192,26591,1,0,0:0:0:0:
64,192,26591,1,0,0:0:0:0:
320,192,26692,1,0,0:0:0:0:
64,192,26692,1,0,0:0:0:0:
192,192,26692,1,0,0:0:0:0:
448,192,26692,1,0,0:0:0:0:
64,192,26795,1,0,0:0:0:0:
448,192,26795,1,0,0:0:0:0:
64,192,26896,1,0,0:0:0:0:
320,192,26896,1,0,0:0:0:0:
448,192,26896,1,0,0:0:0:0:
192,192,26896,1,0,0:0:0:0:
192,192,26998,1,0,0:0:0:0:
320,192,26998,1,0,0:0:0:0:
448,192,26998,1,0,0:0:0:0:
192,192,27100,1,0,0:0:0:0:
320,192,27100,1,0,0:0:0:0:
64,192,27100,1,0,0:0:0:0:
448,192,27100,1,0,0:0:0:0:
320,192,27202,1,0,0:0:0:0:
64,192,27202,1,0,0:0:0:0:
192,192,27303,1,0,0:0:0:0:
64,192,27303,1,0,0:0:0:0:
320,192,27303,1,0,0:0:0:0:
448,192,27303,1,0,0:0:0:0:
192,192,27405,1,0,0:0:0:0:
64,192,27405,1,0,0:0:0:0:
448,192,27405,1,0,0:0:0:0:
320,192,27507,1,0,0:0:0:0:
192,192,27507,1,0,0:0:0:0:
64,192,27507,1,0,0:0:0:0:
448,192,27507,1,0,0:0:0:0:
320,192,27609,1,0,0:0:0:0:
192,192,27609,1,0,0:0:0:0:
192,192,27711,1,0,0:0:0:0:
64,192,27711,1,0,0:0:0:0:
448,192,27711,1,0,0:0:0:0:
320,192,27711,1,0,0:0:0:0:
320,192,27812,1,0,0:0:0:0:
448,192,27812,1,0,0:0:0:0:
64,192,27812,1,0,0:0:0:0:
192,192,27915,1,0,0:0:0:0:
64,192,27915,1,0,0:0:0:0:
320,192,27915,1,0,0:0:0:0:
448,192,27915,1,0,0:0:0:0:
448,192,28016,1,0,0:0:0:0:
192,192,28016,1,0,0:0:0:0:
64,192,28118,1,0,0:0:0:0:
192,192,28118,1,0,0:0:0:0:
448,192,28118,1,0,0:0:0:0:
320,192,28118,1,0,0:0:0:0:
320,192,28220,1,0,0:0:0:0:
192,192,28220,1,0,0:0:0:0:
64,192,28220,1,0,0:0:0:0:
64,192,28322,1,0,0:0:0:0:
192,192,28322,1,0,0:0:0:0:
448,192,28322,1,0,0:0:0:0:
320,192,28322,1,0,0:0:0:0:
320,192,28423,1,0,0:0:0:0:
448,192,28423,1,0,0:0:0:0:
192,192,28525,1,0,0:0:0:0:
64,192,28525,1,0,0:0:0:0:
448,192,28525,1,0,0:0:0:0:
320,192,28525,1,0,0:0:0:0:
64,192,28627,1,0,0:0:0:0:
192,192,28627,1,0,0:0:0:0:
448,192,28627,1,0,0:0:0:0:
320,192,28729,1,0,0:0:0:0:
192,192,28729,1,0,0:0:0:0:
64,192,28729,1,0,0:0:0:0:
448,192,28729,1,0,0:0:0:0:
320,192,28830,1,0,0:0:0:0:
192,192,28830,1,0,0:0:0:0:
320,192,28932,1,0,0:0:0:0:
64,192,28932,1,0,0:0:0:0:
192,192,28932,1,0,0:0:0:0:
448,192,28932,1,0,0:0:0:0:
320,192,29034,1,0,0:0:0:0:
448,192,29034,1,0,0:0:0:0:
64,192,29034,1,0,0:0:0:0:
192,192,29136,1,0,0:0:0:0:
64,192,29136,1,0,0:0:0:0:
448,192,29136,1,0,0:0:0:0:
320,192,29136,1,0,0:0:0:0:
192,192,29237,1,0,0:0:0:0:
448,192,29237,1,0,0:0:0:0:
448,192,29340,1,0,0:0:0:0:
320,192,29340,1,0,0:0:0:0:
64,192,29340,1,0,0:0:0:0:
192,192,29340,1,0,0:0:0:0:
320,192,29441,1,0,0:0:0:0:
192,192,29441,1,0,0:0:0:0:
64,192,29441,1,0,0:0:0:0:
192,192,29543,1,0,0:0:0:0:
64,192,29543,1,0,0:0:0:0:
320,192,29543,1,0,0:0:0:0:
448,192,29543,1,0,0:0:0:0:
448,192,29645,1,0,0:0:0:0:
64,192,29645,1,0,0:0:0:0:
64,192,29747,1,0,0:0:0:0:
448,192,29747,1,0,0:0:0:0:
192,192,29747,1,0,0:0:0:0:
320,192,29747,1,0,0:0:0:0:
448,192,29848,1,0,0:0:0:0:
192,192,29848,1,0,0:0:0:0:
320,192,29848,1,0,0:0:0:0:
320,192,29950,1,0,0:0:0:0:
64,192,29950,1,0,0:0:0:0:
192,192,29950,1,0,0:0:0:0:
448,192,29950,1,0,0:0:0:0:
320,192,30052,1,0,0:0:0:0:
64,192,30052,1,0,0:0:0:0:
64,192,30154,1,0,0:0:0:0:
192,192,30154,1,0,0:0:0:0:
320,192,30154,1,0,0:0:0:0:
448,192,30154,1,0,0:0:0:0:
192,192,30255,1,0,0:0:0:0:
64,192,30255,1,0,0:0:0:0:
448,192,30255,1,0,0:0:0:0:
320,192,30357,1,0,0:0:0:0:
192,192,30357,1,0,0:0:0:0:
64,192,30357,1,0,0:0:0:0:
448,192,30357,1,0,0:0:0:0:
320,192,30459,1,0,0:0:0:0:
192,192,30459,1,0,0:0:0:0:
320,192,30561,1,0,0:0:0:0:
64,192,30561,1,0,0:0:0:0:
192,192,30561,1,0,0:0:0:0:
448,192,30561,1,0,0:0:0:0:
320,192,30662,1,0,0:0:0:0:
448,192,30662,1,0,0:0:0:0:
64,192,30662,1,0,0:0:0:0:
192,192,30765,1,0,0:0:0:0:
64,192,30765,1,0,0:0:0:0:
320,192,30765,1,0,0:0:0:0:
448,192,30765,1,0,0:0:0:0:
192,192,30866,1,0,0:0:0:0:
64,192,30866,1,0,0:0:0:0:
64,192,30968,1,0,0:0:0:0:
192,192,30968,1,0,0:0:0:0:
320,192,30968,1,0,0:0:0:0:
448,192,30968,1,0,0:0:0:0:
192,192,31070,1,0,0:0:0:0:
320,192,31070,1,0,0:0:0:0:
448,192,31070,1,0,0:0:0:0:
192,192,31172,1,0,0:0:0:0:
64,192,31172,1,0,0:0:0:0:
448,192,31172,1,0,0:0:0:0:
320,192,31172,1,0,0:0:0:0:
448,192,31273,1,0,0:0:0:0:
64,192,31273,1,0,0:0:0:0:
64,192,31375,1,0,0:0:0:0:
192,192,31375,1,0,0:0:0:0:
448,192,31375,1,0,0:0:0:0:
320,192,31375,1,0,0:0:0:0:
320,192,31477,1,0,0:0:0:0:
64,192,31477,1,0,0:0:0:0:
192,192,31477,1,0,0:0:0:0:
64,192,31579,1,0,0:0:0:0:
192,192,31579,1,0,0:0:0:0:
320,192,31579,1,0,0:0:0:0:
448,192,31579,1,0,0:0:0:0:
192,192,31680,1,0,0:0:0:0:
448,192,31680,1,0,0:0:0:0:
320,192,31782,1,0,0:0:0:0:
192,192,31782,1,0,0:0:0:0:
64,192,31782,1,0,0:0:0:0:
448,192,31782,1,0,0:0:0:0:
320,192,31884,1,0,0:0:0:0:
448,192,31884,1,0,0:0:0:0:
64,192,31884,1,0,0:0:0:0:
192,192,31986,1,0,0:0:0:0:
64,192,31986,1,0,0:0:0:0:
320,192,31986,1,0,0:0:0:0:
448,192,31986,1,0,0:0:0:0:
192,192,32087,1,0,0:0:0:0:
320,192,32087,1,0,0:0:0:0:
192,192,32190,1,0,0:0:0:0:
64,192,32190,1,0,0:0:0:0:
448,192,32190,1,0,0:0:0:0:
320,192,32190,1,0,0:0:0:0:
192,192,32291,1,0,0:0:0:0:
64,192,32291,1,0,0:0:0:0:
448,192,32291,1,0,0:0:0:0:
320,192,32393,1,0,0:0:0:0:
192,192,32393,1,0,0:0:0:0:
64,192,32393,1,0,0:0:0:0:
448,192,32393,1,0,0:0:0:0:
64,192,32495,1,0,0:0:0:0:
320,192,32495,1,0,0:0:0:0:
320,192,32597,1,0,0:0:0:0:
64,192,32597,1,0,0:0:0:0:
192,192,32597,1,0,0:0:0:0:
448,192,32597,1,0,0:0:0:0:
448,192,32698,1,0,0:0:0:0:
320,192,32698,1,0,0:0:0:0:
448,192,32800,1,0,0:0:0:0:
320,192,32800,1,0,0:0:0:0:
192,192,32800,1,0,0:0:0:0:
64,192,32800,1,0,0:0:0:0:
64,192,32902,1,0,0:0:0:0:
320,192,32902,1,0,0:0:0:0:
448,192,32902,1,0,0:0:0:0:
448,192,33004,1,0,0:0:0:0:
320,192,33004,1,0,0:0:0:0:
192,192,33004,1,0,0:0:0:0:
64,192,33004,1,0,0:0:0:0:
192,192,33105,1,0,0:0:0:0:
64,192,33105,1,0,0:0:0:0:
448,192,33105,1,0,0:0:0:0:
448,192,33207,1,0,0:0:0:0:
192,192,33207,1,0,0:0:0:0:
64,192,33207,1,0,0:0:0:0:
64,192,33309,1,0,0:0:0:0:
192,192,33309,1,0,0:0:0:0:
320,192,33309,1,0,0:0:0:0:
448,192,33309,1,0,0:0:0:0:
192,192,33411,1,0,0:0:0:0:
320,192,33411,1,0,0:0:0:0:
320,192,33512,1,0,0:0:0:0:
448,192,33512,1,0,0:0:0:0:
192,192,33512,1,0,0:0:0:0:
64,192,33512,1,0,0:0:0:0:
192,192,33615,1,0,0:0:0:0:
448,192,33615,1,0,0:0:0:0:
320,192,33615,1,0,0:0:0:0:
64,192,33615,1,0,0:0:0:0:
448,192,33716,1,0,0:0:0:0:
320,192,33716,1,0,0:0:0:0:
192,192,33716,1,0,0:0:0:0:
320,192,33818,1,0,0:0:0:0:
64,192,33818,1,0,0:0:0:0:
192,192,33818,1,0,0:0:0:0:
448,192,33818,1,0,0:0:0:0:
448,192,33920,1,0,0:0:0:0:
320,192,33920,1,0,0:0:0:0:
64,192,33920,1,0,0:0:0:0:
320,192,34022,1,0,0:0:0:0:
448,192,34022,1,0,0:0:0:0:
64,192,34022,1,0,0:0:0:0:
192,192,34022,1,0,0:0:0:0:
64,192,34123,1,0,0:0:0:0:
448,192,34123,1,0,0:0:0:0:
448,192,34225,1,0,0:0:0:0:
64,192,34225,1,0,0:0:0:0:
192,192,34225,1,0,0:0:0:0:
320,192,34225,1,0,0:0:0:0:
192,192,34327,1,0,0:0:0:0:
64,192,34327,1,0,0:0:0:0:
448,192,34429,1,0,0:0:0:0:
64,192,34429,1,0,0:0:0:0:
320,192,34429,1,0,0:0:0:0:
192,192,34429,1,0,0:0:0:0:
192,192,34530,1,0,0:0:0:0:
320,192,34530,1,0,0:0:0:0:
448,192,34530,1,0,0:0:0:0:
448,192,34632,1,0,0:0:0:0:
320,192,34632,1,0,0:0:0:0:
192,192,34632,1,0,0:0:0:0:
64,192,34632,1,0,0:0:0:0:
64,192,34734,1,0,0:0:0:0:
448,192,34734,1,0,0:0:0:0:
320,192,34734,1,0,0:0:0:0:
448,192,34836,1,0,0:0:0:0:
320,192,34836,1,0,0:0:0:0:
192,192,34938,1,0,0:0:0:0:
64,192,34938,1,0,0:0:0:0:
448,192,34938,1,0,0:0:0:0:
320,192,34938,1,0,0:0:0:0:
192,192,35040,1,0,0:0:0:0:
64,192,35040,1,0,0:0:0:0:
448,192,35040,1,0,0:0:0:0:
320,192,35142,1,0,0:0:0:0:
192,192,35142,1,0,0:0:0:0:
64,192,35142,1,0,0:0:0:0:
448,192,35243,1,0,0:0:0:0:
320,192,35243,1,0,0:0:0:0:
192,192,35243,1,0,0:0:0:0:
64,192,35243,1,0,0:0:0:0:
320,192,35345,1,0,0:0:0:0:
448,192,35345,1,0,0:0:0:0:
192,192,35345,1,0,0:0:0:0:
448,192,35447,1,0,0:0:0:0:
320,192,35447,1,0,0:0:0:0:
192,192,35447,1,0,0:0:0:0:
64,192,35447,1,0,0:0:0:0:
64,192,35549,1,0,0:0:0:0:
192,192,35549,1,0,0:0:0:0:
448,192,35549,1,0,0:0:0:0:
448,192,35650,1,0,0:0:0:0:
320,192,35650,1,0,0:0:0:0:
192,192,35650,1,0,0:0:0:0:
64,192,35650,1,0,0:0:0:0:
64,192,35752,1,0,0:0:0:0:
320,192,35752,1,0,0:0:0:0:
448,192,35752,1,0,0:0:0:0:
448,192,35854,1,0,0:0:0:0:
320,192,35854,1,0,0:0:0:0:
192,192,35854,1,0,0:0:0:0:
64,192,35854,1,0,0:0:0:0:
192,192,35956,1,0,0:0:0:0:
320,192,35956,1,0,0:0:0:0:
448,192,36057,1,0,0:0:0:0:
320,192,36057,1,0,0:0:0:0:
64,192,36057,1,0,0:0:0:0:
192,192,36057,1,0,0:0:0:0:
448,192,36160,1,0,0:0:0:0:
320,192,36160,1,0,0:0:0:0:
448,192,36261,1,0,0:0:0:0:
320,192,36261,1,0,0:0:0:0:
192,192,36261,1,0,0:0:0:0:
64,192,36261,1,0,0:0:0:0:
64,192,36363,1,0,0:0:0:0:
448,192,36363,1,0,0:0:0:0:
192,192,36363,1,0,0:0:0:0:
64,192,36465,1,0,0:0:0:0:
192,192,36465,1,0,0:0:0:0:
192,192,36567,1,0,0:0:0:0:
448,192,36567,1,0,0:0:0:0:
320,192,36567,1,0,0:0:0:0:
64,192,36567,1,0,0:0:0:0:
448,192,36668,1,0,0:0:0:0:
192,192,36668,1,0,0:0:0:0:
320,192,36668,1,0,0:0:0:0:
64,192,36668,1,0,0:0:0:0:
448,192,36770,1,0,0:0:0:0:
320,192,36770,1,0,0:0:0:0:
448,192,36872,1,0,0:0:0:0:
320,192,36872,1,0,0:0:0:0:
192,192,36872,1,0,0:0:0:0:
64,192,36872,1,0,0:0:0:0:
192,192,36974,1,0,0:0:0:0:
448,192,36974,1,0,0:0:0:0:
64,192,36974,1,0,0:0:0:0:
192,192,37075,1,0,0:0:0:0:
64,192,37075,1,0,0:0:0:0:
320,192,37075,1,0,0:0:0:0:
448,192,37075,1,0,0:0:0:0:
320,192,37177,1,0,0:0:0:0:
192,192,37177,1,0,0:0:0:0:
64,192,37177,1,0,0:0:0:0:
64,192,37279,1,0,0:0:0:0:
192,192,37279,1,0,0:0:0:0:
320,192,37279,1,0,0:0:0:0:
448,192,37279,1,0,0:0:0:0:
448,192,37381,1,0,0:0:0:0:
192,192,37381,1,0,0:0:0:0:
320,192,37482,1,0,0:0:0:0:
192,192,37482,1,0,0:0:0:0:
64,192,37482,1,0,0:0:0:0:
448,192,37482,1,0,0:0:0:0:
320,192,37585,1,0,0:0:0:0:
448,192,37585,1,0,0:0:0:0:
448,192,37686,1,0,0:0:0:0:
320,192,37686,1,0,0:0:0:0:
64,192,37686,1,0,0:0:0:0:
192,192,37686,1,0,0:0:0:0:
64,192,37788,1,0,0:0:0:0:
192,192,37788,1,0,0:0:0:0:
64,192,37890,1,0,0:0:0:0:
320,192,37890,1,0,0:0:0:0:
448,192,37890,1,0,0:0:0:0:
192,192,37890,1,0,0:0:0:0:
448,192,37992,1,0,0:0:0:0:
320,192,37992,1,0,0:0:0:0:
64,192,37992,1,0,0:0:0:0:
64,192,38093,1,0,0:0:0:0:
320,192,38093,1,0,0:0:0:0:
448,192,38093,1,0,0:0:0:0:
448,192,38195,1,0,0:0:0:0:
192,192,38195,1,0,0:0:0:0:
64,192,38195,1,0,0:0:0:0:
320,192,38195,1,0,0:0:0:0:
192,192,38297,1,0,0:0:0:0:
448,192,38297,1,0,0:0:0:0:
320,192,38297,1,0,0:0:0:0:
64,192,38297,1,0,0:0:0:0:
320,192,38399,1,0,0:0:0:0:
448,192,38399,1,0,0:0:0:0:
448,192,38500,1,0,0:0:0:0:
320,192,38500,1,0,0:0:0:0:
192,192,38500,1,0,0:0:0:0:
64,192,38500,1,0,0:0:0:0:
64,192,38602,1,0,0:0:0:0:
320,192,38602,1,0,0:0:0:0:
448,192,38704,1,0,0:0:0:0:
64,192,38704,1,0,0:0:0:0:
192,192,38704,1,0,0:0:0:0:
320,192,38704,1,0,0:0:0:0:
64,192,38806,1,0,0:0:0:0:
192,192,38806,1,0,0:0:0:0:
448,192,38806,1,0,0:0:0:0:
448,192,38907,1,0,0:0:0:0:
320,192,38907,1,0,0:0:0:0:
64,192,38907,1,0,0:0:0:0:
192,192,38907,1,0,0:0:0:0:
448,192,39010,1,0,0:0:0:0:
320,192,39010,1,0,0:0:0:0:
192,192,39010,1,0,0:0:0:0:
448,192,39111,1,0,0:0:0:0:
320,192,39111,1,0,0:0:0:0:
64,192,39111,1,0,0:0:0:0:
192,192,39111,1,0,0:0:0:0:
320,192,39213,1,0,0:0:0:0:
64,192,39213,1,0,0:0:0:0:
64,192,39315,1,0,0:0:0:0:
192,192,39315,1,0,0:0:0:0:
320,192,39315,1,0,0:0:0:0:
448,192,39315,1,0,0:0:0:0:
320,192,39417,1,0,0:0:0:0:
448,192,39417,1,0,0:0:0:0:
192,192,39417,1,0,0:0:0:0:
448,192,39518,1,0,0:0:0:0:
320,192,39518,1,0,0:0:0:0:
192,192,39518,1,0,0:0:0:0:
64,192,39518,1,0,0:0:0:0:
64,192,39620,1,0,0:0:0:0:
320,192,39620,1,0,0:0:0:0:
448,192,39620,1,0,0:0:0:0:
448,192,39722,1,0,0:0:0:0:
320,192,39722,1,0,0:0:0:0:
192,192,39722,1,0,0:0:0:0:
64,192,39722,1,0,0:0:0:0:
64,192,39824,1,0,0:0:0:0:
448,192,39824,1,0,0:0:0:0:
192,192,39824,1,0,0:0:0:0:
320,192,39824,1,0,0:0:0:0:
64,192,39925,1,0,0:0:0:0:
192,192,39925,1,0,0:0:0:0:
448,192,39925,1,0,0:0:0:0:
448,192,40027,1,0,0:0:0:0:
320,192,40027,1,0,0:0:0:0:
192,192,40027,1,0,0:0:0:0:
64,192,40129,1,0,0:0:0:0:
320,192,40129,1,0,0:0:0:0:
448,192,40129,1,0,0:0:0:0:
192,192,40129,1,0,0:0:0:0:
320,192,40231,1,0,0:0:0:0:
448,192,40231,1,0,0:0:0:0:
448,192,40332,1,0,0:0:0:0:
320,192,40332,1,0,0:0:0:0:
64,192,40332,1,0,0:0:0:0:
192,192,40332,1,0,0:0:0:0:
64,192,40435,1,0,0:0:0:0:
320,192,40435,1,0,0:0:0:0:
192,192,40435,1,0,0:0:0:0:
320,192,40536,1,0,0:0:0:0:
192,192,40536,1,0,0:0:0:0:
64,192,40536,1,0,0:0:0:0:
448,192,40536,1,0,0:0:0:0:
448,192,40638,1,0,0:0:0:0:
192,192,40638,1,0,0:0:0:0:
64,192,40638,1,0,0:0:0:0:
64,192,40740,1,0,0:0:0:0:
192,192,40740,1,0,0:0:0:0:
448,192,40740,1,0,0:0:0:0:
320,192,40740,1,0,0:0:0:0:
320,192,40842,1,0,0:0:0:0:
192,192,40842,1,0,0:0:0:0:
64,192,40943,1,0,0:0:0:0:
192,192,40943,1,0,0:0:0:0:
320,192,40943,1,0,0:0:0:0:
448,192,40943,1,0,0:0:0:0:
320,192,41045,1,0,0:0:0:0:
64,192,41045,1,0,0:0:0:0:
64,192,41147,1,0,0:0:0:0:
192,192,41147,1,0,0:0:0:0:
320,192,41147,1,0,0:0:0:0:
448,192,41147,1,0,0:0:0:0:
192,192,41249,1,0,0:0:0:0:
64,192,41249,1,0,0:0:0:0:
448,192,41249,1,0,0:0:0:0:
64,192,41350,1,0,0:0:0:0:
192,192,41350,1,0,0:0:0:0:
320,192,41350,1,0,0:0:0:0:
448,192,41350,1,0,0:0:0:0:
320,192,41452,1,0,0:0:0:0:
192,192,41452,1,0,0:0:0:0:
64,192,41452,1,0,0:0:0:0:
448,192,41452,1,0,0:0:0:0:
448,192,41554,1,0,0:0:0:0:
320,192,41554,1,0,0:0:0:0:
192,192,41554,1,0,0:0:0:0:
448,192,41656,1,0,0:0:0:0:
320,192,41656,1,0,0:0:0:0:
64,192,41656,1,0,0:0:0:0:
192,192,41757,1,0,0:0:0:0:
64,192,41757,1,0,0:0:0:0:
320,192,41757,1,0,0:0:0:0:
448,192,41757,1,0,0:0:0:0:
448,192,41860,1,0,0:0:0:0:
320,192,41860,1,0,0:0:0:0:
192,192,41860,1,0,0:0:0:0:
320,192,41961,1,0,0:0:0:0:
192,192,41961,1,0,0:0:0:0:
64,192,41961,1,0,0:0:0:0:
448,192,41961,1,0,0:0:0:0:
320,192,42063,1,0,0:0:0:0:
64,192,42063,1,0,0:0:0:0:
192,192,42063,1,0,0:0:0:0:
192,192,42165,1,0,0:0:0:0:
320,192,42165,1,0,0:0:0:0:
64,192,42165,1,0,0:0:0:0:
448,192,42165,1,0,0:0:0:0:
64,192,42267,1,0,0:0:0:0:
448,192,42267,1,0,0:0:0:0:
320,192,42369,1,0,0:0:0:0:
192,192,42369,1,0,0:0:0:0:
64,192,42369,1,0,0:0:0:0:
448,192,42369,1,0,0:0:0:0:
448,192,42470,1,0,0:0:0:0:
320,192,42470,1,0,0:0:0:0:
192,192,42470,1,0,0:0:0:0:
448,192,42572,1,0,0:0:0:0:
192,192,42572,1,0,0:0:0:0:
320,192,42572,1,0,0:0:0:0:
64,192,42572,1,0,0:0:0:0:
320,192,42674,1,0,0:0:0:0:
448,192,42674,1,0,0:0:0:0:
448,192,42776,1,0,0:0:0:0:
320,192,42776,1,0,0:0:0:0:
192,192,42776,1,0,0:0:0:0:
64,192,42776,1,0,0:0:0:0:
64,192,42877,1,0,0:0:0:0:
192,192,42877,1,0,0:0:0:0:
320,192,42877,1,0,0:0:0:0:
64,192,42980,1,0,0:0:0:0:
192,192,42980,1,0,0:0:0:0:
320,192,42980,1,0,0:0:0:0:
448,192,42980,1,0,0:0:0:0:
448,192,43081,1,0,0:0:0:0:
320,192,43081,1,0,0:0:0:0:
192,192,43081,1,0,0:0:0:0:
64,192,43081,1,0,0:0:0:0:
192,192,43183,1,0,0:0:0:0:
320,192,43183,1,0,0:0:0:0:
448,192,43183,1,0,0:0:0:0:
192,192,43285,1,0,0:0:0:0:
64,192,43285,1,0,0:0:0:0:
448,192,43285,1,0,0:0:0:0:
320,192,43387,1,0,0:0:0:0:
192,192,43387,1,0,0:0:0:0:
64,192,43387,1,0,0:0:0:0:
448,192,43387,1,0,0:0:0:0:
320,192,43488,1,0,0:0:0:0:
64,192,43488,1,0,0:0:0:0:
192,192,43590,1,0,0:0:0:0:
320,192,43590,1,0,0:0:0:0:
64,192,43590,1,0,0:0:0:0:
448,192,43590,1,0,0:0:0:0:
448,192,43692,1,0,0:0:0:0:
320,192,43692,1,0,0:0:0:0:
192,192,43794,1,0,0:0:0:0:
64,192,43794,1,0,0:0:0:0:
320,192,43794,1,0,0:0:0:0:
448,192,43794,1,0,0:0:0:0:
192,192,43895,1,0,0:0:0:0:
448,192,43895,1,0,0:0:0:0:
64,192,43895,1,0,0:0:0:0:
320,192,43997,1,0,0:0:0:0:
64,192,43997,1,0,0:0:0:0:
192,192,43997,1,0,0:0:0:0:
64,192,44099,1,0,0:0:0:0:
320,192,44099,1,0,0:0:0:0:
192,192,44099,1,0,0:0:0:0:
448,192,44099,1,0,0:0:0:0:
192,192,44201,1,0,0:0:0:0:
64,192,44201,1,0,0:0:0:0:
448,192,44201,1,0,0:0:0:0:
448,192,44302,1,0,0:0:0:0:
192,192,44302,1,0,0:0:0:0:
64,192,44302,1,0,0:0:0:0:
320,192,44302,1,0,0:0:0:0:
448,192,44405,1,0,0:0:0:0:
320,192,44405,1,0,0:0:0:0:
448,192,44506,1,0,0:0:0:0:
320,192,44506,1,0,0:0:0:0:
192,192,44506,1,0,0:0:0:0:
64,192,44506,1,0,0:0:0:0:
64,192,44608,1,0,0:0:0:0:
320,192,44608,1,0,0:0:0:0:
192,192,44608,1,0,0:0:0:0:
64,192,44710,1,0,0:0:0:0:
320,192,44710,1,0,0:0:0:0:
448,192,44710,1,0,0:0:0:0:
192,192,44710,1,0,0:0:0:0:
64,192,44812,5,0,0:0:0:0:
192,192,44812,1,0,0:0:0:0:
448,192,44913,1,0,0:0:0:0:
320,192,44913,1,0,0:0:0:0:
192,192,44913,1,0,0:0:0:0:
64,192,44913,1,0,0:0:0:0:
320,192,45015,1,0,0:0:0:0:
192,192,45015,1,0,0:0:0:0:
448,192,45015,1,0,0:0:0:0:
448,192,45117,1,0,0:0:0:0:
320,192,45117,1,0,0:0:0:0:
192,192,45117,1,0,0:0:0:0:
64,192,45117,1,0,0:0:0:0:
320,192,45219,1,0,0:0:0:0:
448,192,45219,1,0,0:0:0:0:
64,192,45219,1,0,0:0:0:0:
192,192,45219,1,0,0:0:0:0:
320,192,45320,1,0,0:0:0:0:
448,192,45320,1,0,0:0:0:0:
192,192,45422,1,0,0:0:0:0:
64,192,45422,1,0,0:0:0:0:
320,192,45422,1,0,0:0:0:0:
448,192,45422,1,0,0:0:0:0:
192,192,45524,1,0,0:0:0:0:
64,192,45524,1,0,0:0:0:0:
320,192,45626,5,0,0:0:0:0:
448,192,45626,1,0,0:0:0:0:
192,192,45626,1,0,0:0:0:0:
64,192,45626,1,0,0:0:0:0:
192,192,45727,1,0,0:0:0:0:
448,192,45727,1,0,0:0:0:0:
64,192,45727,1,0,0:0:0:0:
320,192,45830,1,0,0:0:0:0:
192,192,45830,1,0,0:0:0:0:
64,192,45830,1,0,0:0:0:0:
448,192,45830,1,0,0:0:0:0:
320,192,45931,1,0,0:0:0:0:
448,192,45931,1,0,0:0:0:0:
192,192,46033,1,0,0:0:0:0:
64,192,46033,1,0,0:0:0:0:
448,192,46033,1,0,0:0:0:0:
320,192,46033,1,0,0:0:0:0:
192,192,46135,1,0,0:0:0:0:
320,192,46135,1,0,0:0:0:0:
64,192,46135,1,0,0:0:0:0:
192,192,46237,1,0,0:0:0:0:
64,192,46237,1,0,0:0:0:0:
320,192,46237,1,0,0:0:0:0:
448,192,46237,1,0,0:0:0:0:
192,192,46338,1,0,0:0:0:0:
448,192,46338,1,0,0:0:0:0:
320,192,46440,1,0,0:0:0:0:
448,192,46440,1,0,0:0:0:0:
64,192,46440,1,0,0:0:0:0:
192,192,46440,1,0,0:0:0:0:
320,192,46542,1,0,0:0:0:0:
448,192,46542,1,0,0:0:0:0:
64,192,46542,1,0,0:0:0:0:
320,192,46644,1,0,0:0:0:0:
192,192,46644,1,0,0:0:0:0:
448,192,46644,1,0,0:0:0:0:
64,192,46644,1,0,0:0:0:0:
320,192,46745,1,0,0:0:0:0:
192,192,46745,1,0,0:0:0:0:
192,192,46847,1,0,0:0:0:0:
64,192,46847,1,0,0:0:0:0:
448,192,46847,1,0,0:0:0:0:
320,192,46847,1,0,0:0:0:0:
64,192,46949,1,0,0:0:0:0:
192,192,46949,1,0,0:0:0:0:
448,192,46949,1,0,0:0:0:0:
64,192,47051,1,0,0:0:0:0:
448,192,47051,1,0,0:0:0:0:
192,192,47051,1,0,0:0:0:0:
320,192,47051,1,0,0:0:0:0:
320,192,47152,1,0,0:0:0:0:
192,192,47152,1,0,0:0:0:0:
320,192,47255,5,0,0:0:0:0:
64,192,47255,1,0,0:0:0:0:
448,192,47255,1,0,0:0:0:0:
192,192,47255,1,0,0:0:0:0:
64,192,47356,1,0,0:0:0:0:
192,192,47356,1,0,0:0:0:0:
320,192,47458,1,0,0:0:0:0:
448,192,47458,1,0,0:0:0:0:
64,192,47458,1,0,0:0:0:0:
192,192,47458,1,0,0:0:0:0:
64,192,47560,1,0,0:0:0:0:
192,192,47560,1,0,0:0:0:0:
192,192,47662,1,0,0:0:0:0:
64,192,47662,1,0,0:0:0:0:
448,192,47662,1,0,0:0:0:0:
320,192,47662,1,0,0:0:0:0:
64,192,47763,1,0,0:0:0:0:
192,192,47763,1,0,0:0:0:0:
192,192,47865,1,0,0:0:0:0:
64,192,47865,1,0,0:0:0:0:
448,192,47865,1,0,0:0:0:0:
320,192,47865,1,0,0:0:0:0:
192,192,47967,1,0,0:0:0:0:
64,192,47967,1,0,0:0:0:0:
448,192,48069,1,0,0:0:0:0:
320,192,48069,1,0,0:0:0:0:
192,192,48069,1,0,0:0:0:0:
64,192,48069,1,0,0:0:0:0:
320,192,48170,1,0,0:0:0:0:
448,192,48170,1,0,0:0:0:0:
64,192,48272,1,0,0:0:0:0:
320,192,48272,1,0,0:0:0:0:
448,192,48272,1,0,0:0:0:0:
192,192,48272,1,0,0:0:0:0:
320,192,48374,1,0,0:0:0:0:
448,192,48374,1,0,0:0:0:0:
192,192,48476,1,0,0:0:0:0:
64,192,48476,1,0,0:0:0:0:
320,192,48476,1,0,0:0:0:0:
448,192,48476,1,0,0:0:0:0:
448,192,48577,1,0,0:0:0:0:
320,192,48577,1,0,0:0:0:0:
320,192,48680,1,0,0:0:0:0:
64,192,48680,1,0,0:0:0:0:
448,192,48680,1,0,0:0:0:0:
192,192,48680,1,0,0:0:0:0:
320,192,48781,1,0,0:0:0:0:
448,192,48781,1,0,0:0:0:0:
64,192,48883,1,0,0:0:0:0:
192,192,48883,1,0,0:0:0:0:
448,192,48883,1,0,0:0:0:0:
320,192,48883,1,0,0:0:0:0:
448,192,48985,1,0,0:0:0:0:
64,192,48985,1,0,0:0:0:0:
192,192,48985,1,0,0:0:0:0:
64,192,49087,1,0,0:0:0:0:
192,192,49087,1,0,0:0:0:0:
448,192,49087,1,0,0:0:0:0:
320,192,49087,1,0,0:0:0:0:
192,192,49188,1,0,0:0:0:0:
320,192,49188,1,0,0:0:0:0:
320,192,49290,1,0,0:0:0:0:
192,192,49290,1,0,0:0:0:0:
64,192,49290,1,0,0:0:0:0:
448,192,49290,1,0,0:0:0:0:
320,192,49392,1,0,0:0:0:0:
64,192,49392,1,0,0:0:0:0:
448,192,49392,1,0,0:0:0:0:
64,192,49494,1,0,0:0:0:0:
192,192,49494,1,0,0:0:0:0:
448,192,49494,1,0,0:0:0:0:
320,192,49494,1,0,0:0:0:0:
64,192,49596,1,0,0:0:0:0:
448,192,49596,1,0,0:0:0:0:
192,192,49697,1,0,0:0:0:0:
64,192,49697,1,0,0:0:0:0:
320,192,49697,1,0,0:0:0:0:
448,192,49697,1,0,0:0:0:0:
192,192,49800,1,0,0:0:0:0:
448,192,49800,1,0,0:0:0:0:
320,192,49800,1,0,0:0:0:0:
448,192,49901,1,0,0:0:0:0:
320,192,49901,1,0,0:0:0:0:
192,192,49901,1,0,0:0:0:0:
64,192,49901,1,0,0:0:0:0:
192,192,50003,1,0,0:0:0:0:
320,192,50003,1,0,0:0:0:0:
64,192,50105,1,0,0:0:0:0:
192,192,50105,1,0,0:0:0:0:
448,192,50105,1,0,0:0:0:0:
320,192,50105,1,0,0:0:0:0:
448,192,50207,1,0,0:0:0:0:
320,192,50207,1,0,0:0:0:0:
64,192,50207,1,0,0:0:0:0:
192,192,50308,1,0,0:0:0:0:
64,192,50308,1,0,0:0:0:0:
320,192,50308,1,0,0:0:0:0:
448,192,50308,1,0,0:0:0:0:
192,192,50410,1,0,0:0:0:0:
64,192,50410,1,0,0:0:0:0:
64,192,50512,1,0,0:0:0:0:
192,192,50512,1,0,0:0:0:0:
448,192,50512,1,0,0:0:0:0:
320,192,50512,1,0,0:0:0:0:
448,192,50614,1,0,0:0:0:0:
320,192,50614,1,0,0:0:0:0:
192,192,50715,1,0,0:0:0:0:
320,192,50715,1,0,0:0:0:0:
448,192,50715,1,0,0:0:0:0:
64,192,50715,1,0,0:0:0:0:
320,192,50817,1,0,0:0:0:0:
448,192,50817,1,0,0:0:0:0:
320,192,50919,1,0,0:0:0:0:
64,192,50919,1,0,0:0:0:0:
192,192,50919,1,0,0:0:0:0:
448,192,50919,1,0,0:0:0:0:
320,192,51021,1,0,0:0:0:0:
448,192,51021,1,0,0:0:0:0:
192,192,51122,1,0,0:0:0:0:
64,192,51122,1,0,0:0:0:0:
448,192,51122,1,0,0:0:0:0:
320,192,51122,1,0,0:0:0:0:
448,192,51225,1,0,0:0:0:0:
320,192,51225,1,0,0:0:0:0:
320,192,51326,1,0,0:0:0:0:
192,192,51326,1,0,0:0:0:0:
64,192,51326,1,0,0:0:0:0:
448,192,51326,1,0,0:0:0:0:
64,192,51428,1,0,0:0:0:0:
192,192,51428,1,0,0:0:0:0:
192,192,51530,1,0,0:0:0:0:
64,192,51530,1,0,0:0:0:0:
320,192,51530,1,0,0:0:0:0:
448,192,51530,1,0,0:0:0:0:
192,192,51632,1,0,0:0:0:0:
64,192,51632,1,0,0:0:0:0:
320,192,51733,1,0,0:0:0:0:
192,192,51733,1,0,0:0:0:0:
448,192,51733,1,0,0:0:0:0:
64,192,51733,1,0,0:0:0:0:
192,192,51835,1,0,0:0:0:0:
64,192,51835,1,0,0:0:0:0:
64,192,51937,1,0,0:0:0:0:
192,192,51937,1,0,0:0:0:0:
320,192,51937,1,0,0:0:0:0:
448,192,51937,1,0,0:0:0:0:
192,192,52039,1,0,0:0:0:0:
64,192,52039,1,0,0:0:0:0:
64,192,52140,1,0,0:0:0:0:
192,192,52140,1,0,0:0:0:0:
448,192,52140,1,0,0:0:0:0:
320,192,52140,1,0,0:0:0:0:
320,192,52242,1,0,0:0:0:0:
448,192,52242,1,0,0:0:0:0:
64,192,52242,1,0,0:0:0:0:
192,192,52344,1,0,0:0:0:0:
64,192,52344,1,0,0:0:0:0:
448,192,52344,1,0,0:0:0:0:
320,192,52344,1,0,0:0:0:0:
192,192,52446,1,0,0:0:0:0:
448,192,52446,1,0,0:0:0:0:
320,192,52547,1,0,0:0:0:0:
192,192,52547,1,0,0:0:0:0:
64,192,52547,1,0,0:0:0:0:
448,192,52547,1,0,0:0:0:0:
320,192,52650,1,0,0:0:0:0:
192,192,52650,1,0,0:0:0:0:
64,192,52650,1,0,0:0:0:0:
192,192,52751,1,0,0:0:0:0:
64,192,52751,1,0,0:0:0:0:
320,192,52751,1,0,0:0:0:0:
448,192,52751,1,0,0:0:0:0:
320,192,52853,1,0,0:0:0:0:
448,192,52853,1,0,0:0:0:0:
192,192,52955,1,0,0:0:0:0:
64,192,52955,1,0,0:0:0:0:
448,192,52955,1,0,0:0:0:0:
320,192,52955,1,0,0:0:0:0:
64,192,53057,1,0,0:0:0:0:
192,192,53057,1,0,0:0:0:0:
448,192,53057,1,0,0:0:0:0:
448,192,53158,1,0,0:0:0:0:
64,192,53158,1,0,0:0:0:0:
192,192,53158,1,0,0:0:0:0:
320,192,53158,1,0,0:0:0:0:
320,192,53260,1,0,0:0:0:0:
64,192,53260,1,0,0:0:0:0:
320,192,53362,1,0,0:0:0:0:
192,192,53362,1,0,0:0:0:0:
64,192,53362,1,0,0:0:0:0:
448,192,53362,1,0,0:0:0:0:
192,192,53464,1,0,0:0:0:0:
448,192,53464,1,0,0:0:0:0:
320,192,53464,1,0,0:0:0:0:
64,192,53565,1,0,0:0:0:0:
192,192,53565,1,0,0:0:0:0:
448,192,53565,1,0,0:0:0:0:
320,192,53565,1,0,0:0:0:0:
448,192,53667,1,0,0:0:0:0:
320,192,53667,1,0,0:0:0:0:
320,192,53769,1,0,0:0:0:0:
64,192,53769,1,0,0:0:0:0:
192,192,53769,1,0,0:0:0:0:
448,192,53769,1,0,0:0:0:0:
64,192,53871,1,0,0:0:0:0:
192,192,53871,1,0,0:0:0:0:
320,192,53972,1,0,0:0:0:0:
192,192,53972,1,0,0:0:0:0:
64,192,53972,1,0,0:0:0:0:
448,192,53972,1,0,0:0:0:0:
192,192,54075,1,0,0:0:0:0:
64,192,54075,1,0,0:0:0:0:
64,192,54176,1,0,0:0:0:0:
192,192,54176,1,0,0:0:0:0:
448,192,54176,1,0,0:0:0:0:
320,192,54176,1,0,0:0:0:0:
64,192,54278,1,0,0:0:0:0:
192,192,54278,1,0,0:0:0:0:
192,192,54380,1,0,0:0:0:0:
320,192,54380,1,0,0:0:0:0:
448,192,54380,1,0,0:0:0:0:
64,192,54380,1,0,0:0:0:0:
192,192,54482,1,0,0:0:0:0:
64,192,54482,1,0,0:0:0:0:
192,192,54583,1,0,0:0:0:0:
64,192,54583,1,0,0:0:0:0:
448,192,54583,1,0,0:0:0:0:
320,192,54583,1,0,0:0:0:0:
320,192,54685,1,0,0:0:0:0:
448,192,54685,1,0,0:0:0:0:
192,192,54787,1,0,0:0:0:0:
64,192,54787,1,0,0:0:0:0:
320,192,54787,1,0,0:0:0:0:
448,192,54787,1,0,0:0:0:0:
320,192,54889,1,0,0:0:0:0:
448,192,54889,1,0,0:0:0:0:
448,192,54990,1,0,0:0:0:0:
320,192,54990,1,0,0:0:0:0:
192,192,54990,1,0,0:0:0:0:
64,192,54990,1,0,0:0:0:0:
320,192,55092,1,0,0:0:0:0:
448,192,55092,1,0,0:0:0:0:
64,192,55194,1,0,0:0:0:0:
192,192,55194,1,0,0:0:0:0:
320,192,55194,1,0,0:0:0:0:
448,192,55194,1,0,0:0:0:0:
320,192,55296,1,0,0:0:0:0:
448,192,55296,1,0,0:0:0:0:
320,192,55397,1,0,0:0:0:0:
64,192,55397,1,0,0:0:0:0:
192,192,55397,1,0,0:0:0:0:
448,192,55397,1,0,0:0:0:0:
448,192,55500,1,0,0:0:0:0:
64,192,55500,1,0,0:0:0:0:
192,192,55500,1,0,0:0:0:0:
64,192,55601,1,0,0:0:0:0:
192,192,55601,1,0,0:0:0:0:
448,192,55601,1,0,0:0:0:0:
320,192,55601,1,0,0:0:0:0:
192,192,55703,1,0,0:0:0:0:
320,192,55703,1,0,0:0:0:0:
320,192,55805,1,0,0:0:0:0:
192,192,55805,1,0,0:0:0:0:
64,192,55805,1,0,0:0:0:0:
448,192,55805,1,0,0:0:0:0:
320,192,55907,1,0,0:0:0:0:
64,192,55907,1,0,0:0:0:0:
448,192,55907,1,0,0:0:0:0:
64,192,56008,1,0,0:0:0:0:
192,192,56008,1,0,0:0:0:0:
448,192,56008,1,0,0:0:0:0:
320,192,56008,1,0,0:0:0:0:
64,192,56110,1,0,0:0:0:0:
448,192,56110,1,0,0:0:0:0:
192,192,56212,1,0,0:0:0:0:
64,192,56212,1,0,0:0:0:0:
320,192,56212,1,0,0:0:0:0:
448,192,56212,1,0,0:0:0:0:
192,192,56314,1,0,0:0:0:0:
448,192,56314,1,0,0:0:0:0:
320,192,56314,1,0,0:0:0:0:
448,192,56415,1,0,0:0:0:0:
320,192,56415,1,0,0:0:0:0:
192,192,56415,1,0,0:0:0:0:
64,192,56415,1,0,0:0:0:0:
192,192,56517,1,0,0:0:0:0:
320,192,56517,1,0,0:0:0:0:
64,192,56619,1,0,0:0:0:0:
192,192,56619,1,0,0:0:0:0:
448,192,56619,1,0,0:0:0:0:
320,192,56619,1,0,0:0:0:0:
448,192,56721,1,0,0:0:0:0:
320,192,56721,1,0,0:0:0:0:
64,192,56721,1,0,0:0:0:0:
192,192,56823,1,0,0:0:0:0:
64,192,56823,1,0,0:0:0:0:
320,192,56823,1,0,0:0:0:0:
448,192,56823,1,0,0:0:0:0:
192,192,56925,1,0,0:0:0:0:
64,192,56925,1,0,0:0:0:0:
64,192,57027,1,0,0:0:0:0:
192,192,57027,1,0,0:0:0:0:
448,192,57027,1,0,0:0:0:0:
320,192,57027,1,0,0:0:0:0:
448,192,57128,1,0,0:0:0:0:
320,192,57128,1,0,0:0:0:0:
192,192,57230,1,0,0:0:0:0:
320,192,57230,1,0,0:0:0:0:
448,192,57230,1,0,0:0:0:0:
64,192,57230,1,0,0:0:0:0:
320,192,57332,1,0,0:0:0:0:
448,192,57332,1,0,0:0:0:0:
320,192,57434,1,0,0:0:0:0:
64,192,57434,1,0,0:0:0:0:
192,192,57434,1,0,0:0:0:0:
448,192,57434,1,0,0:0:0:0:
320,192,57535,1,0,0:0:0:0:
448,192,57535,1,0,0:0:0:0:
192,192,57637,1,0,0:0:0:0:
64,192,57637,1,0,0:0:0:0:
448,192,57637,1,0,0:0:0:0:
320,192,57637,1,0,0:0:0:0:
448,192,57739,1,0,0:0:0:0:
320,192,57739,1,0,0:0:0:0:
320,192,57841,1,0,0:0:0:0:
192,192,57841,1,0,0:0:0:0:
64,192,57841,1,0,0:0:0:0:
448,192,57841,1,0,0:0:0:0:
64,192,57942,1,0,0:0:0:0:
192,192,57942,1,0,0:0:0:0:
192,192,58045,1,0,0:0:0:0:
64,192,58045,1,0,0:0:0:0:
320,192,58045,1,0,0:0:0:0:
448,192,58045,1,0,0:0:0:0:
192,192,58146,1,0,0:0:0:0:
64,192,58146,1,0,0:0:0:0:
320,192,58248,1,0,0:0:0:0:
192,192,58248,1,0,0:0:0:0:
448,192,58248,1,0,0:0:0:0:
64,192,58248,1,0,0:0:0:0:
192,192,58350,1,0,0:0:0:0:
64,192,58350,1,0,0:0:0:0:
64,192,58452,1,0,0:0:0:0:
192,192,58452,1,0,0:0:0:0:
320,192,58452,1,0,0:0:0:0:
448,192,58452,1,0,0:0:0:0:
192,192,58553,1,0,0:0:0:0:
64,192,58553,1,0,0:0:0:0:
64,192,58655,1,0,0:0:0:0:
192,192,58655,1,0,0:0:0:0:
448,192,58655,1,0,0:0:0:0:
320,192,58655,1,0,0:0:0:0:
320,192,58757,1,0,0:0:0:0:
448,192,58757,1,0,0:0:0:0:
64,192,58757,1,0,0:0:0:0:
192,192,58859,1,0,0:0:0:0:
64,192,58859,1,0,0:0:0:0:
448,192,58859,1,0,0:0:0:0:
320,192,58859,1,0,0:0:0:0:
192,192,58960,1,0,0:0:0:0:
448,192,58960,1,0,0:0:0:0:
320,192,59062,1,0,0:0:0:0:
192,192,59062,1,0,0:0:0:0:
64,192,59062,1,0,0:0:0:0:
448,192,59062,1,0,0:0:0:0:
320,192,59164,1,0,0:0:0:0:
192,192,59164,1,0,0:0:0:0:
64,192,59164,1,0,0:0:0:0:
192,192,59266,1,0,0:0:0:0:
64,192,59266,1,0,0:0:0:0:
320,192,59266,1,0,0:0:0:0:
448,192,59266,1,0,0:0:0:0:
320,192,59367,1,0,0:0:0:0:
448,192,59367,1,0,0:0:0:0:
192,192,59470,1,0,0:0:0:0:
64,192,59470,1,0,0:0:0:0:
448,192,59470,1,0,0:0:0:0:
320,192,59470,1,0,0:0:0:0:
64,192,59571,1,0,0:0:0:0:
192,192,59571,1,0,0:0:0:0:
448,192,59571,1,0,0:0:0:0:
448,192,59673,1,0,0:0:0:0:
64,192,59673,1,0,0:0:0:0:
192,192,59673,1,0,0:0:0:0:
320,192,59673,1,0,0:0:0:0:
320,192,59775,1,0,0:0:0:0:
64,192,59775,1,0,0:0:0:0:
320,192,59877,1,0,0:0:0:0:
192,192,59877,1,0,0:0:0:0:
64,192,59877,1,0,0:0:0:0:
448,192,59877,1,0,0:0:0:0:
192,192,59978,1,0,0:0:0:0:
448,192,59978,1,0,0:0:0:0:
320,192,59978,1,0,0:0:0:0:
64,192,60080,1,0,0:0:0:0:
192,192,60080,1,0,0:0:0:0:
448,192,60080,1,0,0:0:0:0:
320,192,60080,1,0,0:0:0:0:
448,192,60182,1,0,0:0:0:0:
320,192,60182,1,0,0:0:0:0:
320,192,60284,1,0,0:0:0:0:
64,192,60284,1,0,0:0:0:0:
192,192,60284,1,0,0:0:0:0:
448,192,60284,1,0,0:0:0:0:
64,192,60385,1,0,0:0:0:0:
192,192,60385,1,0,0:0:0:0:
320,192,60487,1,0,0:0:0:0:
192,192,60487,1,0,0:0:0:0:
64,192,60487,1,0,0:0:0:0:
448,192,60487,1,0,0:0:0:0:
192,192,60589,1,0,0:0:0:0:
64,192,60589,1,0,0:0:0:0:
64,192,60691,1,0,0:0:0:0:
192,192,60691,1,0,0:0:0:0:
448,192,60691,1,0,0:0:0:0:
320,192,60691,1,0,0:0:0:0:
64,192,60792,1,0,0:0:0:0:
192,192,60792,1,0,0:0:0:0:
192,192,60895,1,0,0:0:0:0:
320,192,60895,1,0,0:0:0:0:
448,192,60895,1,0,0:0:0:0:
64,192,60895,1,0,0:0:0:0:
192,192,60996,1,0,0:0:0:0:
64,192,60996,1,0,0:0:0:0:
192,192,61098,1,0,0:0:0:0:
64,192,61098,1,0,0:0:0:0:
448,192,61098,1,0,0:0:0:0:
320,192,61098,1,0,0:0:0:0:
320,192,61200,1,0,0:0:0:0:
448,192,61200,1,0,0:0:0:0:
192,192,61302,1,0,0:0:0:0:
64,192,61302,1,0,0:0:0:0:
320,192,61302,1,0,0:0:0:0:
448,192,61302,1,0,0:0:0:0:
320,192,61403,1,0,0:0:0:0:
448,192,61403,1,0,0:0:0:0:
448,192,61505,1,0,0:0:0:0:
320,192,61505,1,0,0:0:0:0:
192,192,61505,1,0,0:0:0:0:
64,192,61505,1,0,0:0:0:0:
320,192,61607,1,0,0:0:0:0:
448,192,61607,1,0,0:0:0:0:
64,192,61709,1,0,0:0:0:0:
192,192,61709,1,0,0:0:0:0:
320,192,61709,1,0,0:0:0:0:
448,192,61709,1,0,0:0:0:0:
320,192,61810,1,0,0:0:0:0:
448,192,61810,1,0,0:0:0:0:
320,192,61912,1,0,0:0:0:0:
64,192,61912,1,0,0:0:0:0:
192,192,61912,1,0,0:0:0:0:
448,192,61912,1,0,0:0:0:0:
192,192,62014,1,0,0:0:0:0:
64,192,62014,1,0,0:0:0:0:
448,192,62014,1,0,0:0:0:0:
448,192,62116,1,0,0:0:0:0:
320,192,62116,1,0,0:0:0:0:
64,192,62116,1,0,0:0:0:0:
192,192,62116,1,0,0:0:0:0:
320,192,62217,1,0,0:0:0:0:
192,192,62217,1,0,0:0:0:0:
64,192,62320,1,0,0:0:0:0:
448,192,62320,1,0,0:0:0:0:
320,192,62320,1,0,0:0:0:0:
192,192,62320,1,0,0:0:0:0:
448,192,62421,1,0,0:0:0:0:
64,192,62421,1,0,0:0:0:0:
320,192,62421,1,0,0:0:0:0:
448,192,62523,1,0,0:0:0:0:
320,192,62523,1,0,0:0:0:0:
64,192,62523,1,0,0:0:0:0:
192,192,62523,1,0,0:0:0:0:
448,192,62625,1,0,0:0:0:0:
64,192,62625,1,0,0:0:0:0:
320,192,62727,1,0,0:0:0:0:
448,192,62727,1,0,0:0:0:0:
192,192,62727,1,0,0:0:0:0:
64,192,62727,1,0,0:0:0:0:
320,192,62828,1,0,0:0:0:0:
448,192,62828,1,0,0:0:0:0:
192,192,62828,1,0,0:0:0:0:
192,192,62930,1,0,0:0:0:0:
64,192,62930,1,0,0:0:0:0:
448,192,62930,1,0,0:0:0:0:
320,192,62930,1,0,0:0:0:0:
320,192,63032,1,0,0:0:0:0:
192,192,63032,1,0,0:0:0:0:
448,192,63134,1,0,0:0:0:0:
320,192,63134,1,0,0:0:0:0:
64,192,63134,1,0,0:0:0:0:
192,192,63134,1,0,0:0:0:0:
64,192,63235,1,0,0:0:0:0:
320,192,63235,1,0,0:0:0:0:
448,192,63235,1,0,0:0:0:0:
320,192,63337,1,0,0:0:0:0:
448,192,63337,1,0,0:0:0:0:
192,192,63337,1,0,0:0:0:0:
64,192,63337,1,0,0:0:0:0:
64,192,63439,1,0,0:0:0:0:
192,192,63439,1,0,0:0:0:0:
448,192,63541,1,0,0:0:0:0:
320,192,63541,1,0,0:0:0:0:
64,192,63541,1,0,0:0:0:0:
192,192,63541,1,0,0:0:0:0:
320,192,63642,1,0,0:0:0:0:
448,192,63642,1,0,0:0:0:0:
448,192,63745,1,0,0:0:0:0:
64,192,63745,1,0,0:0:0:0:
192,192,63745,1,0,0:0:0:0:
320,192,63745,1,0,0:0:0:0:
448,192,63846,1,0,0:0:0:0:
320,192,63846,1,0,0:0:0:0:
192,192,63948,1,0,0:0:0:0:
448,192,63948,1,0,0:0:0:0:
320,192,63948,1,0,0:0:0:0:
64,192,63948,1,0,0:0:0:0:
448,192,64050,1,0,0:0:0:0:
320,192,64050,1,0,0:0:0:0:
448,192,64152,1,0,0:0:0:0:
320,192,64152,1,0,0:0:0:0:
192,192,64152,1,0,0:0:0:0:
64,192,64152,1,0,0:0:0:0:
320,192,64254,1,0,0:0:0:0:
448,192,64254,1,0,0:0:0:0:
64,192,64355,1,0,0:0:0:0:
448,192,64355,1,0,0:0:0:0:
320,192,64355,1,0,0:0:0:0:
192,192,64355,1,0,0:0:0:0:
192,192,64457,1,0,0:0:0:0:
64,192,64457,1,0,0:0:0:0:
320,192,64559,1,0,0:0:0:0:
448,192,64559,1,0,0:0:0:0:
192,192,64559,1,0,0:0:0:0:
64,192,64559,1,0,0:0:0:0:
64,192,64661,1,0,0:0:0:0:
192,192,64661,1,0,0:0:0:0:
448,192,64762,1,0,0:0:0:0:
64,192,64762,1,0,0:0:0:0:
320,192,64762,1,0,0:0:0:0:
192,192,64762,1,0,0:0:0:0:
64,192,64865,1,0,0:0:0:0:
192,192,64865,1,0,0:0:0:0:
320,192,64966,1,0,0:0:0:0:
448,192,64966,1,0,0:0:0:0:
64,192,64966,1,0,0:0:0:0:
192,192,64966,1,0,0:0:0:0:
64,192,65068,1,0,0:0:0:0:
192,192,65068,1,0,0:0:0:0:
448,192,65170,1,0,0:0:0:0:
320,192,65170,1,0,0:0:0:0:
64,192,65170,1,0,0:0:0:0:
192,192,65170,1,0,0:0:0:0:
64,192,65272,1,0,0:0:0:0:
448,192,65272,1,0,0:0:0:0:
320,192,65272,1,0,0:0:0:0:
448,192,65373,1,0,0:0:0:0:
320,192,65373,1,0,0:0:0:0:
192,192,65373,1,0,0:0:0:0:
64,192,65373,1,0,0:0:0:0:
448,192,65475,1,0,0:0:0:0:
192,192,65475,1,0,0:0:0:0:
64,192,65577,1,0,0:0:0:0:
448,192,65577,1,0,0:0:0:0:
320,192,65577,1,0,0:0:0:0:
192,192,65577,1,0,0:0:0:0:
64,192,65679,1,0,0:0:0:0:
192,192,65679,1,0,0:0:0:0:
320,192,65679,1,0,0:0:0:0:
320,192,65780,1,0,0:0:0:0:
448,192,65780,1,0,0:0:0:0:
192,192,65780,1,0,0:0:0:0:
64,192,65780,1,0,0:0:0:0:
448,192,65882,1,0,0:0:0:0:
320,192,65882,1,0,0:0:0:0:
448,192,65984,1,0,0:0:0:0:
320,192,65984,1,0,0:0:0:0:
192,192,65984,1,0,0:0:0:0:
64,192,65984,1,0,0:0:0:0:
448,192,66086,1,0,0:0:0:0:
192,192,66086,1,0,0:0:0:0:
64,192,66086,1,0,0:0:0:0:
192,192,66187,1,0,0:0:0:0:
320,192,66187,1,0,0:0:0:0:
448,192,66187,1,0,0:0:0:0:
64,192,66187,1,0,0:0:0:0:
64,192,66290,1,0,0:0:0:0:
320,192,66290,1,0,0:0:0:0:
64,192,66391,1,0,0:0:0:0:
448,192,66391,1,0,0:0:0:0:
320,192,66391,1,0,0:0:0:0:
192,192,66391,1,0,0:0:0:0:
320,192,66493,1,0,0:0:0:0:
448,192,66493,1,0,0:0:0:0:
192,192,66493,1,0,0:0:0:0:
448,192,66595,1,0,0:0:0:0:
320,192,66595,1,0,0:0:0:0:
64,192,66595,1,0,0:0:0:0:
192,192,66595,1,0,0:0:0:0:
320,192,66697,1,0,0:0:0:0:
448,192,66697,1,0,0:0:0:0:
192,192,66798,1,0,0:0:0:0:
448,192,66798,1,0,0:0:0:0:
320,192,66798,1,0,0:0:0:0:
64,192,66798,1,0,0:0:0:0:
192,192,66900,1,0,0:0:0:0:
64,192,66900,1,0,0:0:0:0:
64,192,67002,1,0,0:0:0:0:
448,192,67002,1,0,0:0:0:0:
320,192,67002,1,0,0:0:0:0:
192,192,67002,1,0,0:0:0:0:
64,192,67104,1,0,0:0:0:0:
192,192,67104,1,0,0:0:0:0:
448,192,67205,1,0,0:0:0:0:
320,192,67205,1,0,0:0:0:0:
64,192,67205,1,0,0:0:0:0:
192,192,67205,1,0,0:0:0:0:
192,192,67307,1,0,0:0:0:0:
64,192,67307,1,0,0:0:0:0:
448,192,67409,1,0,0:0:0:0:
64,192,67409,1,0,0:0:0:0:
192,192,67409,1,0,0:0:0:0:
320,192,67409,1,0,0:0:0:0:
64,192,67511,1,0,0:0:0:0:
192,192,67511,1,0,0:0:0:0:
448,192,67612,1,0,0:0:0:0:
320,192,67612,1,0,0:0:0:0:
192,192,67612,1,0,0:0:0:0:
64,192,67612,1,0,0:0:0:0:
448,192,67715,1,0,0:0:0:0:
320,192,67715,1,0,0:0:0:0:
320,192,67816,1,0,0:0:0:0:
448,192,67816,1,0,0:0:0:0:
192,192,67816,1,0,0:0:0:0:
64,192,67816,1,0,0:0:0:0:
448,192,67918,1,0,0:0:0:0:
320,192,67918,1,0,0:0:0:0:
192,192,68020,1,0,0:0:0:0:
64,192,68020,1,0,0:0:0:0:
448,192,68020,1,0,0:0:0:0:
320,192,68020,1,0,0:0:0:0:
448,192,68122,1,0,0:0:0:0:
320,192,68122,1,0,0:0:0:0:
320,192,68223,1,0,0:0:0:0:
448,192,68223,1,0,0:0:0:0:
64,192,68223,1,0,0:0:0:0:
192,192,68223,1,0,0:0:0:0:
448,192,68325,1,0,0:0:0:0:
320,192,68325,1,0,0:0:0:0:
192,192,68427,1,0,0:0:0:0:
448,192,68427,1,0,0:0:0:0:
320,192,68427,1,0,0:0:0:0:
64,192,68427,1,0,0:0:0:0:
448,192,68529,1,0,0:0:0:0:
64,192,68529,1,0,0:0:0:0:
192,192,68529,1,0,0:0:0:0:
64,192,68630,1,0,0:0:0:0:
192,192,68630,1,0,0:0:0:0:
448,192,68630,1,0,0:0:0:0:
320,192,68630,1,0,0:0:0:0:
192,192,68732,1,0,0:0:0:0:
320,192,68732,1,0,0:0:0:0:
320,192,68834,1,0,0:0:0:0:
192,192,68834,1,0,0:0:0:0:
64,192,68834,1,0,0:0:0:0:
448,192,68834,1,0,0:0:0:0:
320,192,68936,1,0,0:0:0:0:
64,192,68936,1,0,0:0:0:0:
448,192,68936,1,0,0:0:0:0:
64,192,69037,1,0,0:0:0:0:
192,192,69037,1,0,0:0:0:0:
448,192,69037,1,0,0:0:0:0:
320,192,69037,1,0,0:0:0:0:
64,192,69140,1,0,0:0:0:0:
448,192,69140,1,0,0:0:0:0:
192,192,69241,1,0,0:0:0:0:
64,192,69241,1,0,0:0:0:0:
320,192,69241,1,0,0:0:0:0:
448,192,69241,1,0,0:0:0:0:
192,192,69343,1,0,0:0:0:0:
448,192,69343,1,0,0:0:0:0:
320,192,69343,1,0,0:0:0:0:
448,192,69445,1,0,0:0:0:0:
320,192,69445,1,0,0:0:0:0:
192,192,69445,1,0,0:0:0:0:
64,192,69445,1,0,0:0:0:0:
192,192,69547,1,0,0:0:0:0:
320,192,69547,1,0,0:0:0:0:
64,192,69648,1,0,0:0:0:0:
192,192,69648,1,0,0:0:0:0:
448,192,69648,1,0,0:0:0:0:
320,192,69648,1,0,0:0:0:0:
448,192,69750,1,0,0:0:0:0:
320,192,69750,1,0,0:0:0:0:
64,192,69750,1,0,0:0:0:0:
192,192,69852,1,0,0:0:0:0:
64,192,69852,1,0,0:0:0:0:
320,192,69852,1,0,0:0:0:0:
448,192,69852,1,0,0:0:0:0:
192,192,69954,1,0,0:0:0:0:
64,192,69954,1,0,0:0:0:0:
64,192,70055,1,0,0:0:0:0:
192,192,70055,1,0,0:0:0:0:
448,192,70055,1,0,0:0:0:0:
320,192,70055,1,0,0:0:0:0:
448,192,70157,1,0,0:0:0:0:
320,192,70157,1,0,0:0:0:0:
192,192,70259,1,0,0:0:0:0:
320,192,70259,1,0,0:0:0:0:
448,192,70259,1,0,0:0:0:0:
64,192,70259,1,0,0:0:0:0:
320,192,70361,1,0,0:0:0:0:
448,192,70361,1,0,0:0:0:0:
320,192,70462,1,0,0:0:0:0:
64,192,70462,1,0,0:0:0:0:
192,192,70462,1,0,0:0:0:0:
448,192,70462,1,0,0:0:0:0:
320,192,70565,1,0,0:0:0:0:
448,192,70565,1,0,0:0:0:0:
192,192,70666,1,0,0:0:0:0:
64,192,70666,1,0,0:0:0:0:
448,192,70666,1,0,0:0:0:0:
320,192,70666,1,0,0:0:0:0:
448,192,70768,1,0,0:0:0:0:
320,192,70768,1,0,0:0:0:0:
320,192,70870,1,0,0:0:0:0:
192,192,70870,1,0,0:0:0:0:
64,192,70870,1,0,0:0:0:0:
448,192,70870,1,0,0:0:0:0:
64,192,70972,1,0,0:0:0:0:
192,192,70972,1,0,0:0:0:0:
192,192,71073,1,0,0:0:0:0:
64,192,71073,1,0,0:0:0:0:
320,192,71073,1,0,0:0:0:0:
448,192,71073,1,0,0:0:0:0:
192,192,71175,1,0,0:0:0:0:
64,192,71175,1,0,0:0:0:0:
320,192,71277,1,0,0:0:0:0:
192,192,71277,1,0,0:0:0:0:
448,192,71277,1,0,0:0:0:0:
64,192,71277,1,0,0:0:0:0:
192,192,71379,1,0,0:0:0:0:
64,192,71379,1,0,0:0:0:0:
64,192,71481,1,0,0:0:0:0:
192,192,71481,1,0,0:0:0:0:
320,192,71481,1,0,0:0:0:0:
448,192,71481,1,0,0:0:0:0:
64,192,71582,1,0,0:0:0:0:
192,192,71582,1,0,0:0:0:0:
