osu file format v14

[General]
AudioFilename: audio 1.200x (pitch raised).mp3
AudioLeadIn: 0
PreviewTime: 22116
Countdown: 0
SampleSet: None
StackLeniency: 0.7
Mode: 3
LetterboxInBreaks: 0
SpecialStyle: 0
WidescreenStoryboard: 1

[Editor]
DistanceSpacing: 1.3
BeatDivisor: 4
GridSize: 32
TimelineZoom: 2.5

[Metadata]
Title:SPANISHFUCKCORE
TitleUnicode:SPANISHFUCKCORE
Artist:oxycodone
ArtistUnicode:oxycodone
Creator:[NMC] Dro
Version:THE ARC OF THE NIGHT 1.2x
Source:
Tags:cj chordjack chord jack quadjack spanish fuckcore frenchcore hardcore oxycodone electronic bpm Jeffry-
BeatmapID:4537695
BeatmapSetID:2153561

[Difficulty]
HPDrainRate:8
CircleSize:4
OverallDifficulty:8
ApproachRate:5
SliderMultiplier:1.4
SliderTickRate:1

[Events]
//Background and Video events
0,0,"69.jpg",0,0
//Break Periods
//Storyboard Layer 0 (Background)
//Storyboard Layer 1 (Fail)
//Storyboard Layer 2 (Pass)
//Storyboard Layer 3 (Foreground)
//Storyboard Layer 4 (Overlay)
//Storyboard Sound Samples

[TimingPoints]
15229,475.023276140531,4,1,0,50,1,0
22829,-100,4,1,0,50,0,1
38030,-100,4,1,0,50,0,0
53230,-100,4,1,0,50,0,1
83632,-100,4,1,0,50,0,0

[HitObjects]
64,192,15229,5,0,0:0:0:0:
448,192,15347,1,0,0:0:0:0:
320,192,15347,1,0,0:0:0:0:
64,192,15466,1,0,0:0:0:0:
192,192,15585,1,0,0:0:0:0:
448,192,15585,1,0,0:0:0:0:
64,192,15704,1,0,0:0:0:0:
320,192,15822,1,0,0:0:0:0:
448,192,15822,1,0,0:0:0:0:
64,192,15941,1,0,0:0:0:0:
320,192,16000,1,0,0:0:0:0:
192,192,16060,1,0,0:0:0:0:
64,192,16060,1,0,0:0:0:0:
320,192,16119,1,0,0:0:0:0:
192,192,16179,1,0,0:0:0:0:
448,192,16297,1,0,0:0:0:0:
320,192,16297,1,0,0:0:0:0:
192,192,16416,1,0,0:0:0:0:
64,192,16535,1,0,0:0:0:0:
448,192,16535,1,0,0:0:0:0:
192,192,16654,1,0,0:0:0:0:
448,192,16772,1,0,0:0:0:0:
320,192,16772,1,0,0:0:0:0:
192,192,16891,1,0,0:0:0:0:
448,192,16950,1,0,0:0:0:0:
64,192,17010,1,0,0:0:0:0:
192,192,17010,1,0,0:0:0:0:
448,192,17069,1,0,0:0:0:0:
64,192,17129,1,0,0:0:0:0:
320,192,17247,1,0,0:0:0:0:
448,192,17247,1,0,0:0:0:0:
64,192,17366,1,0,0:0:0:0:
192,192,17485,1,0,0:0:0:0:
320,192,17485,1,0,0:0:0:0:
64,192,17604,1,0,0:0:0:0:
320,192,17722,1,0,0:0:0:0:
448,192,17722,1,0,0:0:0:0:
64,192,17841,1,0,0:0:0:0:
448,192,17900,1,0,0:0:0:0:
192,192,17960,1,0,0:0:0:0:
64,192,17960,1,0,0:0:0:0:
448,192,18019,1,0,0:0:0:0:
192,192,18079,1,0,0:0:0:0:
320,192,18197,1,0,0:0:0:0:
448,192,18197,1,0,0:0:0:0:
192,192,18316,1,0,0:0:0:0:
64,192,18435,1,0,0:0:0:0:
320,192,18435,1,0,0:0:0:0:
192,192,18554,1,0,0:0:0:0:
320,192,18672,1,0,0:0:0:0:
448,192,18672,1,0,0:0:0:0:
192,192,18791,1,0,0:0:0:0:
448,192,18850,1,0,0:0:0:0:
64,192,18910,1,0,0:0:0:0:
192,192,18910,1,0,0:0:0:0:
320,192,18969,1,0,0:0:0:0:
448,192,19029,1,0,0:0:0:0:
192,192,19147,1,0,0:0:0:0:
64,192,19147,1,0,0:0:0:0:
448,192,19266,1,0,0:0:0:0:
320,192,19385,1,0,0:0:0:0:
64,192,19385,1,0,0:0:0:0:
448,192,19504,1,0,0:0:0:0:
192,192,19622,1,0,0:0:0:0:
64,192,19622,1,0,0:0:0:0:
448,192,19741,1,0,0:0:0:0:
192,192,19800,1,0,0:0:0:0:
320,192,19860,1,0,0:0:0:0:
448,192,19860,1,0,0:0:0:0:
192,192,19920,1,0,0:0:0:0:
320,192,19979,1,0,0:0:0:0:
64,192,20097,1,0,0:0:0:0:
192,192,20097,1,0,0:0:0:0:
320,192,20216,1,0,0:0:0:0:
448,192,20335,1,0,0:0:0:0:
64,192,20335,1,0,0:0:0:0:
320,192,20454,1,0,0:0:0:0:
64,192,20572,1,0,0:0:0:0:
192,192,20572,1,0,0:0:0:0:
320,192,20691,1,0,0:0:0:0:
64,192,20750,1,0,0:0:0:0:
320,192,20810,1,0,0:0:0:0:
448,192,20810,1,0,0:0:0:0:
64,192,20870,1,0,0:0:0:0:
448,192,20929,1,0,0:0:0:0:
64,192,21047,1,0,0:0:0:0:
192,192,21047,1,0,0:0:0:0:
448,192,21166,1,0,0:0:0:0:
320,192,21285,1,0,0:0:0:0:
192,192,21285,1,0,0:0:0:0:
448,192,21404,1,0,0:0:0:0:
64,192,21522,1,0,0:0:0:0:
192,192,21522,1,0,0:0:0:0:
448,192,21641,1,0,0:0:0:0:
64,192,21700,1,0,0:0:0:0:
448,192,21760,1,0,0:0:0:0:
320,192,21760,1,0,0:0:0:0:
64,192,21820,1,0,0:0:0:0:
448,192,21879,1,0,0:0:0:0:
320,192,21879,1,0,0:0:0:0:
192,192,22829,5,0,0:0:0:0:
320,192,22829,1,0,0:0:0:0:
448,192,22829,1,0,0:0:0:0:
64,192,22829,1,0,0:0:0:0:
64,192,22947,1,0,0:0:0:0:
192,192,22947,1,0,0:0:0:0:
448,192,22947,1,0,0:0:0:0:
64,192,23066,1,0,0:0:0:0:
192,192,23066,1,0,0:0:0:0:
320,192,23066,1,0,0:0:0:0:
448,192,23066,1,0,0:0:0:0:
320,192,23185,1,0,0:0:0:0:
448,192,23185,1,0,0:0:0:0:
320,192,23304,1,0,0:0:0:0:
192,192,23304,1,0,0:0:0:0:
64,192,23304,1,0,0:0:0:0:
448,192,23304,1,0,0:0:0:0:
192,192,23422,1,0,0:0:0:0:
64,192,23422,1,0,0:0:0:0:
320,192,23422,1,0,0:0:0:0:
320,192,23541,1,0,0:0:0:0:
192,192,23541,1,0,0:0:0:0:
64,192,23541,1,0,0:0:0:0:
448,192,23541,1,0,0:0:0:0:
192,192,23660,1,0,0:0:0:0:
448,192,23660,1,0,0:0:0:0:
320,192,23779,1,0,0:0:0:0:
192,192,23779,1,0,0:0:0:0:
64,192,23779,1,0,0:0:0:0:
448,192,23779,1,0,0:0:0:0:
320,192,23898,1,0,0:0:0:0:
448,192,23898,1,0,0:0:0:0:
64,192,23898,1,0,0:0:0:0:
192,192,24016,1,0,0:0:0:0:
320,192,24016,1,0,0:0:0:0:
448,192,24016,1,0,0:0:0:0:
64,192,24016,1,0,0:0:0:0:
192,192,24135,1,0,0:0:0:0:
64,192,24135,1,0,0:0:0:0:
192,192,24254,1,0,0:0:0:0:
64,192,24254,1,0,0:0:0:0:
320,192,24254,1,0,0:0:0:0:
448,192,24254,1,0,0:0:0:0:
320,192,24373,1,0,0:0:0:0:
448,192,24373,1,0,0:0:0:0:
192,192,24373,1,0,0:0:0:0:
192,192,24491,1,0,0:0:0:0:
64,192,24491,1,0,0:0:0:0:
448,192,24491,1,0,0:0:0:0:
320,192,24491,1,0,0:0:0:0:
64,192,24610,1,0,0:0:0:0:
448,192,24610,1,0,0:0:0:0:
192,192,24729,1,0,0:0:0:0:
64,192,24729,1,0,0:0:0:0:
320,192,24729,1,0,0:0:0:0:
448,192,24729,1,0,0:0:0:0:
320,192,24848,1,0,0:0:0:0:
192,192,24848,1,0,0:0:0:0:
64,192,24848,1,0,0:0:0:0:
64,192,24966,1,0,0:0:0:0:
192,192,24966,1,0,0:0:0:0:
320,192,24966,1,0,0:0:0:0:
448,192,24966,1,0,0:0:0:0:
192,192,25085,1,0,0:0:0:0:
448,192,25085,1,0,0:0:0:0:
320,192,25204,1,0,0:0:0:0:
448,192,25204,1,0,0:0:0:0:
192,192,25204,1,0,0:0:0:0:
64,192,25204,1,0,0:0:0:0:
320,192,25323,1,0,0:0:0:0:
448,192,25323,1,0,0:0:0:0:
64,192,25323,1,0,0:0:0:0:
192,192,25441,1,0,0:0:0:0:
64,192,25441,1,0,0:0:0:0:
320,192,25441,1,0,0:0:0:0:
448,192,25441,1,0,0:0:0:0:
64,192,25560,1,0,0:0:0:0:
192,192,25560,1,0,0:0:0:0:
64,192,25679,1,0,0:0:0:0:
192,192,25679,1,0,0:0:0:0:
320,192,25679,1,0,0:0:0:0:
448,192,25679,1,0,0:0:0:0:
320,192,25798,1,0,0:0:0:0:
192,192,25798,1,0,0:0:0:0:
448,192,25798,1,0,0:0:0:0:
448,192,25916,1,0,0:0:0:0:
64,192,25916,1,0,0:0:0:0:
192,192,25916,1,0,0:0:0:0:
320,192,25916,1,0,0:0:0:0:
320,192,26035,1,0,0:0:0:0:
64,192,26035,1,0,0:0:0:0:
192,192,26154,1,0,0:0:0:0:
64,192,26154,1,0,0:0:0:0:
320,192,26154,1,0,0:0:0:0:
448,192,26154,1,0,0:0:0:0:
64,192,26273,1,0,0:0:0:0:
192,192,26273,1,0,0:0:0:0:
448,192,26273,1,0,0:0:0:0:
448,192,26391,1,0,0:0:0:0:
320,192,26391,1,0,0:0:0:0:
192,192,26391,1,0,0:0:0:0:
64,192,26391,1,0,0:0:0:0:
192,192,26510,1,0,0:0:0:0:
320,192,26510,1,0,0:0:0:0:
320,192,26629,1,0,0:0:0:0:
64,192,26629,1,0,0:0:0:0:
192,192,26629,1,0,0:0:0:0:
448,192,26629,1,0,0:0:0:0:
320,192,26748,1,0,0:0:0:0:
448,192,26748,1,0,0:0:0:0:
64,192,26748,1,0,0:0:0:0:
192,192,26866,1,0,0:0:0:0:
64,192,26866,1,0,0:0:0:0:
320,192,26866,1,0,0:0:0:0:
448,192,26866,1,0,0:0:0:0:
192,192,26985,1,0,0:0:0:0:
448,192,26985,1,0,0:0:0:0:
320,192,27104,1,0,0:0:0:0:
448,192,27104,1,0,0:0:0:0:
192,192,27104,1,0,0:0:0:0:
64,192,27104,1,0,0:0:0:0:
320,192,27223,1,0,0:0:0:0:
192,192,27223,1,0,0:0:0:0:
64,192,27223,1,0,0:0:0:0:
64,192,27341,1,0,0:0:0:0:
192,192,27341,1,0,0:0:0:0:
320,192,27341,1,0,0:0:0:0:
448,192,27341,1,0,0:0:0:0:
320,192,27460,1,0,0:0:0:0:
64,192,27460,1,0,0:0:0:0:
192,192,27579,1,0,0:0:0:0:
64,192,27579,1,0,0:0:0:0:
320,192,27579,1,0,0:0:0:0:
448,192,27579,1,0,0:0:0:0:
192,192,27698,1,0,0:0:0:0:
320,192,27698,1,0,0:0:0:0:
448,192,27698,1,0,0:0:0:0:
192,192,27816,1,0,0:0:0:0:
64,192,27816,1,0,0:0:0:0:
320,192,27816,1,0,0:0:0:0:
448,192,27816,1,0,0:0:0:0:
192,192,27935,1,0,0:0:0:0:
64,192,27935,1,0,0:0:0:0:
192,192,28054,1,0,0:0:0:0:
320,192,28054,1,0,0:0:0:0:
64,192,28054,1,0,0:0:0:0:
448,192,28054,1,0,0:0:0:0:
320,192,28173,1,0,0:0:0:0:
448,192,28173,1,0,0:0:0:0:
64,192,28173,1,0,0:0:0:0:
64,192,28291,1,0,0:0:0:0:
192,192,28291,1,0,0:0:0:0:
448,192,28291,1,0,0:0:0:0:
320,192,28291,1,0,0:0:0:0:
192,192,28410,1,0,0:0:0:0:
448,192,28410,1,0,0:0:0:0:
320,192,28529,1,0,0:0:0:0:
448,192,28529,1,0,0:0:0:0:
192,192,28529,1,0,0:0:0:0:
64,192,28529,1,0,0:0:0:0:
320,192,28648,1,0,0:0:0:0:
64,192,28648,1,0,0:0:0:0:
192,192,28648,1,0,0:0:0:0:
192,192,28766,1,0,0:0:0:0:
64,192,28766,1,0,0:0:0:0:
320,192,28766,1,0,0:0:0:0:
448,192,28766,1,0,0:0:0:0:
320,192,28885,1,0,0:0:0:0:
448,192,28885,1,0,0:0:0:0:
192,192,29004,1,0,0:0:0:0:
64,192,29004,1,0,0:0:0:0:
320,192,29004,1,0,0:0:0:0:
448,192,29004,1,0,0:0:0:0:
192,192,29123,1,0,0:0:0:0:
64,192,29123,1,0,0:0:0:0:
448,192,29123,1,0,0:0:0:0:
448,192,29241,1,0,0:0:0:0:
320,192,29241,1,0,0:0:0:0:
64,192,29241,1,0,0:0:0:0:
192,192,29241,1,0,0:0:0:0:
192,192,29360,1,0,0:0:0:0:
320,192,29360,1,0,0:0:0:0:
320,192,29479,1,0,0:0:0:0:
64,192,29479,1,0,0:0:0:0:
192,192,29479,1,0,0:0:0:0:
448,192,29479,1,0,0:0:0:0:
320,192,29598,1,0,0:0:0:0:
448,192,29598,1,0,0:0:0:0:
64,192,29598,1,0,0:0:0:0:
64,192,29716,1,0,0:0:0:0:
448,192,29716,1,0,0:0:0:0:
192,192,29716,1,0,0:0:0:0:
320,192,29716,1,0,0:0:0:0:
192,192,29835,1,0,0:0:0:0:
64,192,29835,1,0,0:0:0:0:
192,192,29954,1,0,0:0:0:0:
64,192,29954,1,0,0:0:0:0:
448,192,29954,1,0,0:0:0:0:
320,192,29954,1,0,0:0:0:0:
448,192,30073,1,0,0:0:0:0:
192,192,30073,1,0,0:0:0:0:
320,192,30073,1,0,0:0:0:0:
320,192,30191,1,0,0:0:0:0:
64,192,30191,1,0,0:0:0:0:
192,192,30191,1,0,0:0:0:0:
448,192,30191,1,0,0:0:0:0:
320,192,30310,1,0,0:0:0:0:
64,192,30310,1,0,0:0:0:0:
192,192,30429,1,0,0:0:0:0:
64,192,30429,1,0,0:0:0:0:
320,192,30429,1,0,0:0:0:0:
448,192,30429,1,0,0:0:0:0:
192,192,30548,1,0,0:0:0:0:
64,192,30548,1,0,0:0:0:0:
448,192,30548,1,0,0:0:0:0:
192,192,30666,1,0,0:0:0:0:
320,192,30666,1,0,0:0:0:0:
448,192,30666,1,0,0:0:0:0:
64,192,30666,1,0,0:0:0:0:
320,192,30785,1,0,0:0:0:0:
192,192,30785,1,0,0:0:0:0:
320,192,30904,1,0,0:0:0:0:
192,192,30904,1,0,0:0:0:0:
64,192,30904,1,0,0:0:0:0:
448,192,30904,1,0,0:0:0:0:
320,192,31023,1,0,0:0:0:0:
448,192,31023,1,0,0:0:0:0:
64,192,31023,1,0,0:0:0:0:
320,192,31141,1,0,0:0:0:0:
64,192,31141,1,0,0:0:0:0:
192,192,31141,1,0,0:0:0:0:
448,192,31141,1,0,0:0:0:0:
64,192,31260,1,0,0:0:0:0:
448,192,31260,1,0,0:0:0:0:
64,192,31379,1,0,0:0:0:0:
320,192,31379,1,0,0:0:0:0:
448,192,31379,1,0,0:0:0:0:
192,192,31379,1,0,0:0:0:0:
192,192,31498,1,0,0:0:0:0:
320,192,31498,1,0,0:0:0:0:
448,192,31498,1,0,0:0:0:0:
192,192,31616,1,0,0:0:0:0:
320,192,31616,1,0,0:0:0:0:
64,192,31616,1,0,0:0:0:0:
448,192,31616,1,0,0:0:0:0:
320,192,31735,1,0,0:0:0:0:
64,192,31735,1,0,0:0:0:0:
192,192,31854,1,0,0:0:0:0:
64,192,31854,1,0,0:0:0:0:
320,192,31854,1,0,0:0:0:0:
448,192,31854,1,0,0:0:0:0:
192,192,31973,1,0,0:0:0:0:
64,192,31973,1,0,0:0:0:0:
448,192,31973,1,0,0:0:0:0:
320,192,32091,1,0,0:0:0:0:
192,192,32091,1,0,0:0:0:0:
64,192,32091,1,0,0:0:0:0:
448,192,32091,1,0,0:0:0:0:
320,192,32210,1,0,0:0:0:0:
192,192,32210,1,0,0:0:0:0:
192,192,32330,1,0,0:0:0:0:
64,192,32330,1,0,0:0:0:0:
448,192,32330,1,0,0:0:0:0:
320,192,32330,1,0,0:0:0:0:
320,192,32448,1,0,0:0:0:0:
448,192,32448,1,0,0:0:0:0:
64,192,32448,1,0,0:0:0:0:
192,192,32567,1,0,0:0:0:0:
64,192,32567,1,0,0:0:0:0:
320,192,32567,1,0,0:0:0:0:
448,192,32567,1,0,0:0:0:0:
448,192,32685,1,0,0:0:0:0:
192,192,32685,1,0,0:0:0:0:
64,192,32805,1,0,0:0:0:0:
192,192,32805,1,0,0:0:0:0:
448,192,32805,1,0,0:0:0:0:
320,192,32805,1,0,0:0:0:0:
320,192,32923,1,0,0:0:0:0:
192,192,32923,1,0,0:0:0:0:
64,192,32923,1,0,0:0:0:0:
64,192,33042,1,0,0:0:0:0:
192,192,33042,1,0,0:0:0:0:
448,192,33042,1,0,0:0:0:0:
320,192,33042,1,0,0:0:0:0:
320,192,33160,1,0,0:0:0:0:
448,192,33160,1,0,0:0:0:0:
192,192,33280,1,0,0:0:0:0:
64,192,33280,1,0,0:0:0:0:
448,192,33280,1,0,0:0:0:0:
320,192,33280,1,0,0:0:0:0:
64,192,33398,1,0,0:0:0:0:
192,192,33398,1,0,0:0:0:0:
448,192,33398,1,0,0:0:0:0:
320,192,33517,1,0,0:0:0:0:
192,192,33517,1,0,0:0:0:0:
64,192,33517,1,0,0:0:0:0:
448,192,33517,1,0,0:0:0:0:
320,192,33635,1,0,0:0:0:0:
192,192,33635,1,0,0:0:0:0:
320,192,33755,1,0,0:0:0:0:
64,192,33755,1,0,0:0:0:0:
192,192,33755,1,0,0:0:0:0:
448,192,33755,1,0,0:0:0:0:
320,192,33873,1,0,0:0:0:0:
448,192,33873,1,0,0:0:0:0:
64,192,33873,1,0,0:0:0:0:
192,192,33992,1,0,0:0:0:0:
64,192,33992,1,0,0:0:0:0:
448,192,33992,1,0,0:0:0:0:
320,192,33992,1,0,0:0:0:0:
192,192,34110,1,0,0:0:0:0:
448,192,34110,1,0,0:0:0:0:
448,192,34230,1,0,0:0:0:0:
320,192,34230,1,0,0:0:0:0:
64,192,34230,1,0,0:0:0:0:
192,192,34230,1,0,0:0:0:0:
320,192,34348,1,0,0:0:0:0:
192,192,34348,1,0,0:0:0:0:
64,192,34348,1,0,0:0:0:0:
192,192,34467,1,0,0:0:0:0:
64,192,34467,1,0,0:0:0:0:
320,192,34467,1,0,0:0:0:0:
448,192,34467,1,0,0:0:0:0:
448,192,34585,1,0,0:0:0:0:
64,192,34585,1,0,0:0:0:0:
64,192,34705,1,0,0:0:0:0:
448,192,34705,1,0,0:0:0:0:
192,192,34705,1,0,0:0:0:0:
320,192,34705,1,0,0:0:0:0:
448,192,34823,1,0,0:0:0:0:
192,192,34823,1,0,0:0:0:0:
320,192,34823,1,0,0:0:0:0:
320,192,34942,1,0,0:0:0:0:
64,192,34942,1,0,0:0:0:0:
192,192,34942,1,0,0:0:0:0:
448,192,34942,1,0,0:0:0:0:
320,192,35060,1,0,0:0:0:0:
64,192,35060,1,0,0:0:0:0:
64,192,35180,1,0,0:0:0:0:
192,192,35180,1,0,0:0:0:0:
320,192,35180,1,0,0:0:0:0:
448,192,35180,1,0,0:0:0:0:
192,192,35298,1,0,0:0:0:0:
64,192,35298,1,0,0:0:0:0:
448,192,35298,1,0,0:0:0:0:
320,192,35417,1,0,0:0:0:0:
192,192,35417,1,0,0:0:0:0:
64,192,35417,1,0,0:0:0:0:
448,192,35417,1,0,0:0:0:0:
320,192,35535,1,0,0:0:0:0:
192,192,35535,1,0,0:0:0:0:
320,192,35655,1,0,0:0:0:0:
64,192,35655,1,0,0:0:0:0:
192,192,35655,1,0,0:0:0:0:
448,192,35655,1,0,0:0:0:0:
320,192,35773,1,0,0:0:0:0:
448,192,35773,1,0,0:0:0:0:
64,192,35773,1,0,0:0:0:0:
192,192,35892,1,0,0:0:0:0:
64,192,35892,1,0,0:0:0:0:
320,192,35892,1,0,0:0:0:0:
448,192,35892,1,0,0:0:0:0:
192,192,36010,1,0,0:0:0:0:
64,192,36010,1,0,0:0:0:0:
64,192,36130,1,0,0:0:0:0:
192,192,36130,1,0,0:0:0:0:
320,192,36130,1,0,0:0:0:0:
448,192,36130,1,0,0:0:0:0:
192,192,36248,1,0,0:0:0:0:
320,192,36248,1,0,0:0:0:0:
448,192,36248,1,0,0:0:0:0:
192,192,36367,1,0,0:0:0:0:
64,192,36367,1,0,0:0:0:0:
448,192,36367,1,0,0:0:0:0:
320,192,36367,1,0,0:0:0:0:
448,192,36485,1,0,0:0:0:0:
64,192,36485,1,0,0:0:0:0:
64,192,36605,1,0,0:0:0:0:
192,192,36605,1,0,0:0:0:0:
448,192,36605,1,0,0:0:0:0:
320,192,36605,1,0,0:0:0:0:
320,192,36723,1,0,0:0:0:0:
64,192,36723,1,0,0:0:0:0:
192,192,36723,1,0,0:0:0:0:
64,192,36842,1,0,0:0:0:0:
192,192,36842,1,0,0:0:0:0:
320,192,36842,1,0,0:0:0:0:
448,192,36842,1,0,0:0:0:0:
192,192,36960,1,0,0:0:0:0:
448,192,36960,1,0,0:0:0:0:
320,192,37080,1,0,0:0:0:0:
192,192,37080,1,0,0:0:0:0:
64,192,37080,1,0,0:0:0:0:
448,192,37080,1,0,0:0:0:0:
320,192,37198,1,0,0:0:0:0:
448,192,37198,1,0,0:0:0:0:
64,192,37198,1,0,0:0:0:0:
192,192,37317,1,0,0:0:0:0:
64,192,37317,1,0,0:0:0:0:
320,192,37317,1,0,0:0:0:0:
448,192,37317,1,0,0:0:0:0:
192,192,37435,1,0,0:0:0:0:
320,192,37435,1,0,0:0:0:0:
192,192,37555,1,0,0:0:0:0:
64,192,37555,1,0,0:0:0:0:
448,192,37555,1,0,0:0:0:0:
320,192,37555,1,0,0:0:0:0:
192,192,37673,1,0,0:0:0:0:
64,192,37673,1,0,0:0:0:0:
448,192,37673,1,0,0:0:0:0:
320,192,37792,1,0,0:0:0:0:
192,192,37792,1,0,0:0:0:0:
64,192,37792,1,0,0:0:0:0:
448,192,37792,1,0,0:0:0:0:
64,192,37910,1,0,0:0:0:0:
320,192,37910,1,0,0:0:0:0:
320,192,38030,1,0,0:0:0:0:
64,192,38030,1,0,0:0:0:0:
192,192,38030,1,0,0:0:0:0:
448,192,38030,1,0,0:0:0:0:
448,192,38148,1,0,0:0:0:0:
320,192,38148,1,0,0:0:0:0:
448,192,38267,1,0,0:0:0:0:
320,192,38267,1,0,0:0:0:0:
192,192,38267,1,0,0:0:0:0:
64,192,38267,1,0,0:0:0:0:
64,192,38385,1,0,0:0:0:0:
320,192,38385,1,0,0:0:0:0:
448,192,38385,1,0,0:0:0:0:
448,192,38505,1,0,0:0:0:0:
320,192,38505,1,0,0:0:0:0:
192,192,38505,1,0,0:0:0:0:
64,192,38505,1,0,0:0:0:0:
192,192,38623,1,0,0:0:0:0:
64,192,38623,1,0,0:0:0:0:
448,192,38623,1,0,0:0:0:0:
448,192,38742,1,0,0:0:0:0:
192,192,38742,1,0,0:0:0:0:
64,192,38742,1,0,0:0:0:0:
64,192,38860,1,0,0:0:0:0:
192,192,38860,1,0,0:0:0:0:
320,192,38860,1,0,0:0:0:0:
448,192,38860,1,0,0:0:0:0:
192,192,38980,1,0,0:0:0:0:
320,192,38980,1,0,0:0:0:0:
320,192,39098,1,0,0:0:0:0:
448,192,39098,1,0,0:0:0:0:
192,192,39098,1,0,0:0:0:0:
64,192,39098,1,0,0:0:0:0:
192,192,39217,1,0,0:0:0:0:
448,192,39217,1,0,0:0:0:0:
320,192,39217,1,0,0:0:0:0:
64,192,39217,1,0,0:0:0:0:
448,192,39335,1,0,0:0:0:0:
320,192,39335,1,0,0:0:0:0:
192,192,39335,1,0,0:0:0:0:
320,192,39455,1,0,0:0:0:0:
64,192,39455,1,0,0:0:0:0:
192,192,39455,1,0,0:0:0:0:
448,192,39455,1,0,0:0:0:0:
448,192,39573,1,0,0:0:0:0:
320,192,39573,1,0,0:0:0:0:
64,192,39573,1,0,0:0:0:0:
320,192,39692,1,0,0:0:0:0:
448,192,39692,1,0,0:0:0:0:
64,192,39692,1,0,0:0:0:0:
192,192,39692,1,0,0:0:0:0:
64,192,39810,1,0,0:0:0:0:
448,192,39810,1,0,0:0:0:0:
448,192,39930,1,0,0:0:0:0:
64,192,39930,1,0,0:0:0:0:
192,192,39930,1,0,0:0:0:0:
320,192,39930,1,0,0:0:0:0:
192,192,40048,1,0,0:0:0:0:
64,192,40048,1,0,0:0:0:0:
448,192,40167,1,0,0:0:0:0:
64,192,40167,1,0,0:0:0:0:
320,192,40167,1,0,0:0:0:0:
192,192,40167,1,0,0:0:0:0:
192,192,40285,1,0,0:0:0:0:
320,192,40285,1,0,0:0:0:0:
448,192,40285,1,0,0:0:0:0:
448,192,40405,1,0,0:0:0:0:
320,192,40405,1,0,0:0:0:0:
192,192,40405,1,0,0:0:0:0:
64,192,40405,1,0,0:0:0:0:
64,192,40523,1,0,0:0:0:0:
448,192,40523,1,0,0:0:0:0:
320,192,40523,1,0,0:0:0:0:
448,192,40642,1,0,0:0:0:0:
320,192,40642,1,0,0:0:0:0:
192,192,40761,1,0,0:0:0:0:
64,192,40761,1,0,0:0:0:0:
448,192,40761,1,0,0:0:0:0:
320,192,40761,1,0,0:0:0:0:
192,192,40880,1,0,0:0:0:0:
64,192,40880,1,0,0:0:0:0:
448,192,40880,1,0,0:0:0:0:
320,192,40999,1,0,0:0:0:0:
192,192,40999,1,0,0:0:0:0:
64,192,40999,1,0,0:0:0:0:
448,192,41117,1,0,0:0:0:0:
320,192,41117,1,0,0:0:0:0:
192,192,41117,1,0,0:0:0:0:
64,192,41117,1,0,0:0:0:0:
320,192,41236,1,0,0:0:0:0:
448,192,41236,1,0,0:0:0:0:
192,192,41236,1,0,0:0:0:0:
448,192,41355,1,0,0:0:0:0:
320,192,41355,1,0,0:0:0:0:
192,192,41355,1,0,0:0:0:0:
64,192,41355,1,0,0:0:0:0:
64,192,41474,1,0,0:0:0:0:
192,192,41474,1,0,0:0:0:0:
448,192,41474,1,0,0:0:0:0:
448,192,41592,1,0,0:0:0:0:
320,192,41592,1,0,0:0:0:0:
192,192,41592,1,0,0:0:0:0:
64,192,41592,1,0,0:0:0:0:
64,192,41711,1,0,0:0:0:0:
320,192,41711,1,0,0:0:0:0:
448,192,41711,1,0,0:0:0:0:
448,192,41830,1,0,0:0:0:0:
320,192,41830,1,0,0:0:0:0:
192,192,41830,1,0,0:0:0:0:
64,192,41830,1,0,0:0:0:0:
192,192,41949,1,0,0:0:0:0:
320,192,41949,1,0,0:0:0:0:
448,192,42067,1,0,0:0:0:0:
320,192,42067,1,0,0:0:0:0:
64,192,42067,1,0,0:0:0:0:
192,192,42067,1,0,0:0:0:0:
448,192,42186,1,0,0:0:0:0:
320,192,42186,1,0,0:0:0:0:
448,192,42305,1,0,0:0:0:0:
320,192,42305,1,0,0:0:0:0:
192,192,42305,1,0,0:0:0:0:
64,192,42305,1,0,0:0:0:0:
64,192,42424,1,0,0:0:0:0:
448,192,42424,1,0,0:0:0:0:
192,192,42424,1,0,0:0:0:0:
64,192,42542,1,0,0:0:0:0:
192,192,42542,1,0,0:0:0:0:
192,192,42661,1,0,0:0:0:0:
448,192,42661,1,0,0:0:0:0:
320,192,42661,1,0,0:0:0:0:
64,192,42661,1,0,0:0:0:0:
448,192,42780,1,0,0:0:0:0:
192,192,42780,1,0,0:0:0:0:
320,192,42780,1,0,0:0:0:0:
64,192,42780,1,0,0:0:0:0:
448,192,42899,1,0,0:0:0:0:
320,192,42899,1,0,0:0:0:0:
448,192,43017,1,0,0:0:0:0:
320,192,43017,1,0,0:0:0:0:
192,192,43017,1,0,0:0:0:0:
64,192,43017,1,0,0:0:0:0:
192,192,43136,1,0,0:0:0:0:
448,192,43136,1,0,0:0:0:0:
64,192,43136,1,0,0:0:0:0:
192,192,43255,1,0,0:0:0:0:
64,192,43255,1,0,0:0:0:0:
320,192,43255,1,0,0:0:0:0:
448,192,43255,1,0,0:0:0:0:
320,192,43374,1,0,0:0:0:0:
192,192,43374,1,0,0:0:0:0:
64,192,43374,1,0,0:0:0:0:
64,192,43492,1,0,0:0:0:0:
192,192,43492,1,0,0:0:0:0:
320,192,43492,1,0,0:0:0:0:
448,192,43492,1,0,0:0:0:0:
448,192,43611,1,0,0:0:0:0:
192,192,43611,1,0,0:0:0:0:
320,192,43730,1,0,0:0:0:0:
192,192,43730,1,0,0:0:0:0:
64,192,43730,1,0,0:0:0:0:
448,192,43730,1,0,0:0:0:0:
320,192,43849,1,0,0:0:0:0:
448,192,43849,1,0,0:0:0:0:
448,192,43967,1,0,0:0:0:0:
320,192,43967,1,0,0:0:0:0:
64,192,43967,1,0,0:0:0:0:
192,192,43967,1,0,0:0:0:0:
64,192,44086,1,0,0:0:0:0:
192,192,44086,1,0,0:0:0:0:
64,192,44205,1,0,0:0:0:0:
320,192,44205,1,0,0:0:0:0:
448,192,44205,1,0,0:0:0:0:
192,192,44205,1,0,0:0:0:0:
448,192,44324,1,0,0:0:0:0:
320,192,44324,1,0,0:0:0:0:
64,192,44324,1,0,0:0:0:0:
64,192,44442,1,0,0:0:0:0:
320,192,44442,1,0,0:0:0:0:
448,192,44442,1,0,0:0:0:0:
448,192,44561,1,0,0:0:0:0:
192,192,44561,1,0,0:0:0:0:
64,192,44561,1,0,0:0:0:0:
320,192,44561,1,0,0:0:0:0:
192,192,44680,1,0,0:0:0:0:
448,192,44680,1,0,0:0:0:0:
320,192,44680,1,0,0:0:0:0:
64,192,44680,1,0,0:0:0:0:
320,192,44799,1,0,0:0:0:0:
448,192,44799,1,0,0:0:0:0:
448,192,44917,1,0,0:0:0:0:
320,192,44917,1,0,0:0:0:0:
192,192,44917,1,0,0:0:0:0:
64,192,44917,1,0,0:0:0:0:
64,192,45036,1,0,0:0:0:0:
320,192,45036,1,0,0:0:0:0:
448,192,45155,1,0,0:0:0:0:
64,192,45155,1,0,0:0:0:0:
192,192,45155,1,0,0:0:0:0:
320,192,45155,1,0,0:0:0:0:
64,192,45274,1,0,0:0:0:0:
192,192,45274,1,0,0:0:0:0:
448,192,45274,1,0,0:0:0:0:
448,192,45392,1,0,0:0:0:0:
320,192,45392,1,0,0:0:0:0:
64,192,45392,1,0,0:0:0:0:
192,192,45392,1,0,0:0:0:0:
448,192,45511,1,0,0:0:0:0:
320,192,45511,1,0,0:0:0:0:
192,192,45511,1,0,0:0:0:0:
448,192,45630,1,0,0:0:0:0:
320,192,45630,1,0,0:0:0:0:
64,192,45630,1,0,0:0:0:0:
192,192,45630,1,0,0:0:0:0:
320,192,45749,1,0,0:0:0:0:
64,192,45749,1,0,0:0:0:0:
64,192,45867,1,0,0:0:0:0:
192,192,45867,1,0,0:0:0:0:
320,192,45867,1,0,0:0:0:0:
448,192,45867,1,0,0:0:0:0:
320,192,45986,1,0,0:0:0:0:
448,192,45986,1,0,0:0:0:0:
192,192,45986,1,0,0:0:0:0:
448,192,46105,1,0,0:0:0:0:
320,192,46105,1,0,0:0:0:0:
192,192,46105,1,0,0:0:0:0:
64,192,46105,1,0,0:0:0:0:
64,192,46224,1,0,0:0:0:0:
320,192,46224,1,0,0:0:0:0:
448,192,46224,1,0,0:0:0:0:
448,192,46342,1,0,0:0:0:0:
320,192,46342,1,0,0:0:0:0:
192,192,46342,1,0,0:0:0:0:
64,192,46342,1,0,0:0:0:0:
64,192,46461,1,0,0:0:0:0:
448,192,46461,1,0,0:0:0:0:
192,192,46461,1,0,0:0:0:0:
320,192,46461,1,0,0:0:0:0:
64,192,46580,1,0,0:0:0:0:
192,192,46580,1,0,0:0:0:0:
448,192,46580,1,0,0:0:0:0:
448,192,46699,1,0,0:0:0:0:
320,192,46699,1,0,0:0:0:0:
192,192,46699,1,0,0:0:0:0:
64,192,46817,1,0,0:0:0:0:
320,192,46817,1,0,0:0:0:0:
448,192,46817,1,0,0:0:0:0:
192,192,46817,1,0,0:0:0:0:
320,192,46936,1,0,0:0:0:0:
448,192,46936,1,0,0:0:0:0:
448,192,47055,1,0,0:0:0:0:
320,192,47055,1,0,0:0:0:0:
64,192,47055,1,0,0:0:0:0:
192,192,47055,1,0,0:0:0:0:
64,192,47174,1,0,0:0:0:0:
320,192,47174,1,0,0:0:0:0:
192,192,47174,1,0,0:0:0:0:
320,192,47292,1,0,0:0:0:0:
192,192,47292,1,0,0:0:0:0:
64,192,47292,1,0,0:0:0:0:
448,192,47292,1,0,0:0:0:0:
448,192,47411,1,0,0:0:0:0:
192,192,47411,1,0,0:0:0:0:
64,192,47411,1,0,0:0:0:0:
64,192,47530,1,0,0:0:0:0:
192,192,47530,1,0,0:0:0:0:
448,192,47530,1,0,0:0:0:0:
320,192,47530,1,0,0:0:0:0:
320,192,47649,1,0,0:0:0:0:
192,192,47649,1,0,0:0:0:0:
64,192,47767,1,0,0:0:0:0:
192,192,47767,1,0,0:0:0:0:
320,192,47767,1,0,0:0:0:0:
448,192,47767,1,0,0:0:0:0:
320,192,47886,1,0,0:0:0:0:
64,192,47886,1,0,0:0:0:0:
64,192,48005,1,0,0:0:0:0:
192,192,48005,1,0,0:0:0:0:
320,192,48005,1,0,0:0:0:0:
448,192,48005,1,0,0:0:0:0:
192,192,48124,1,0,0:0:0:0:
64,192,48124,1,0,0:0:0:0:
448,192,48124,1,0,0:0:0:0:
64,192,48242,1,0,0:0:0:0:
192,192,48242,1,0,0:0:0:0:
320,192,48242,1,0,0:0:0:0:
448,192,48242,1,0,0:0:0:0:
320,192,48361,1,0,0:0:0:0:
192,192,48361,1,0,0:0:0:0:
64,192,48361,1,0,0:0:0:0:
448,192,48361,1,0,0:0:0:0:
448,192,48480,1,0,0:0:0:0:
320,192,48480,1,0,0:0:0:0:
192,192,48480,1,0,0:0:0:0:
448,192,48599,1,0,0:0:0:0:
320,192,48599,1,0,0:0:0:0:
64,192,48599,1,0,0:0:0:0:
192,192,48717,1,0,0:0:0:0:
64,192,48717,1,0,0:0:0:0:
320,192,48717,1,0,0:0:0:0:
448,192,48717,1,0,0:0:0:0:
448,192,48836,1,0,0:0:0:0:
320,192,48836,1,0,0:0:0:0:
192,192,48836,1,0,0:0:0:0:
320,192,48955,1,0,0:0:0:0:
192,192,48955,1,0,0:0:0:0:
64,192,48955,1,0,0:0:0:0:
448,192,48955,1,0,0:0:0:0:
320,192,49074,1,0,0:0:0:0:
64,192,49074,1,0,0:0:0:0:
192,192,49074,1,0,0:0:0:0:
192,192,49192,1,0,0:0:0:0:
320,192,49192,1,0,0:0:0:0:
64,192,49192,1,0,0:0:0:0:
448,192,49192,1,0,0:0:0:0:
64,192,49311,1,0,0:0:0:0:
448,192,49311,1,0,0:0:0:0:
320,192,49430,1,0,0:0:0:0:
192,192,49430,1,0,0:0:0:0:
64,192,49430,1,0,0:0:0:0:
448,192,49430,1,0,0:0:0:0:
448,192,49549,1,0,0:0:0:0:
320,192,49549,1,0,0:0:0:0:
192,192,49549,1,0,0:0:0:0:
448,192,49668,1,0,0:0:0:0:
192,192,49668,1,0,0:0:0:0:
320,192,49668,1,0,0:0:0:0:
64,192,49668,1,0,0:0:0:0:
320,192,49786,1,0,0:0:0:0:
448,192,49786,1,0,0:0:0:0:
448,192,49905,1,0,0:0:0:0:
320,192,49905,1,0,0:0:0:0:
192,192,49905,1,0,0:0:0:0:
64,192,49905,1,0,0:0:0:0:
64,192,50024,1,0,0:0:0:0:
192,192,50024,1,0,0:0:0:0:
320,192,50024,1,0,0:0:0:0:
64,192,50143,1,0,0:0:0:0:
192,192,50143,1,0,0:0:0:0:
320,192,50143,1,0,0:0:0:0:
448,192,50143,1,0,0:0:0:0:
448,192,50261,1,0,0:0:0:0:
320,192,50261,1,0,0:0:0:0:
192,192,50261,1,0,0:0:0:0:
64,192,50261,1,0,0:0:0:0:
192,192,50380,1,0,0:0:0:0:
320,192,50380,1,0,0:0:0:0:
448,192,50380,1,0,0:0:0:0:
192,192,50499,1,0,0:0:0:0:
64,192,50499,1,0,0:0:0:0:
448,192,50499,1,0,0:0:0:0:
320,192,50618,1,0,0:0:0:0:
192,192,50618,1,0,0:0:0:0:
64,192,50618,1,0,0:0:0:0:
448,192,50618,1,0,0:0:0:0:
320,192,50736,1,0,0:0:0:0:
64,192,50736,1,0,0:0:0:0:
192,192,50855,1,0,0:0:0:0:
320,192,50855,1,0,0:0:0:0:
64,192,50855,1,0,0:0:0:0:
448,192,50855,1,0,0:0:0:0:
448,192,50974,1,0,0:0:0:0:
320,192,50974,1,0,0:0:0:0:
192,192,51093,1,0,0:0:0:0:
64,192,51093,1,0,0:0:0:0:
320,192,51093,1,0,0:0:0:0:
448,192,51093,1,0,0:0:0:0:
192,192,51211,1,0,0:0:0:0:
448,192,51211,1,0,0:0:0:0:
64,192,51211,1,0,0:0:0:0:
320,192,51330,1,0,0:0:0:0:
64,192,51330,1,0,0:0:0:0:
192,192,51330,1,0,0:0:0:0:
64,192,51449,1,0,0:0:0:0:
320,192,51449,1,0,0:0:0:0:
192,192,51449,1,0,0:0:0:0:
448,192,51449,1,0,0:0:0:0:
192,192,51568,1,0,0:0:0:0:
64,192,51568,1,0,0:0:0:0:
448,192,51568,1,0,0:0:0:0:
448,192,51686,1,0,0:0:0:0:
192,192,51686,1,0,0:0:0:0:
64,192,51686,1,0,0:0:0:0:
320,192,51686,1,0,0:0:0:0:
448,192,51805,1,0,0:0:0:0:
320,192,51805,1,0,0:0:0:0:
448,192,51924,1,0,0:0:0:0:
320,192,51924,1,0,0:0:0:0:
192,192,51924,1,0,0:0:0:0:
64,192,51924,1,0,0:0:0:0:
64,192,52043,1,0,0:0:0:0:
320,192,52043,1,0,0:0:0:0:
192,192,52043,1,0,0:0:0:0:
64,192,52161,1,0,0:0:0:0:
320,192,52161,1,0,0:0:0:0:
448,192,52161,1,0,0:0:0:0:
192,192,52161,1,0,0:0:0:0:
64,192,52280,5,0,0:0:0:0:
192,192,52280,1,0,0:0:0:0:
448,192,52399,1,0,0:0:0:0:
320,192,52399,1,0,0:0:0:0:
192,192,52399,1,0,0:0:0:0:
64,192,52399,1,0,0:0:0:0:
320,192,52518,1,0,0:0:0:0:
192,192,52518,1,0,0:0:0:0:
448,192,52518,1,0,0:0:0:0:
448,192,52636,1,0,0:0:0:0:
320,192,52636,1,0,0:0:0:0:
192,192,52636,1,0,0:0:0:0:
64,192,52636,1,0,0:0:0:0:
320,192,52755,1,0,0:0:0:0:
448,192,52755,1,0,0:0:0:0:
64,192,52755,1,0,0:0:0:0:
192,192,52755,1,0,0:0:0:0:
320,192,52874,1,0,0:0:0:0:
448,192,52874,1,0,0:0:0:0:
192,192,52993,1,0,0:0:0:0:
64,192,52993,1,0,0:0:0:0:
320,192,52993,1,0,0:0:0:0:
448,192,52993,1,0,0:0:0:0:
192,192,53111,1,0,0:0:0:0:
64,192,53111,1,0,0:0:0:0:
320,192,53230,5,0,0:0:0:0:
448,192,53230,1,0,0:0:0:0:
192,192,53230,1,0,0:0:0:0:
64,192,53230,1,0,0:0:0:0:
192,192,53349,1,0,0:0:0:0:
448,192,53349,1,0,0:0:0:0:
64,192,53349,1,0,0:0:0:0:
320,192,53468,1,0,0:0:0:0:
192,192,53468,1,0,0:0:0:0:
64,192,53468,1,0,0:0:0:0:
448,192,53468,1,0,0:0:0:0:
320,192,53586,1,0,0:0:0:0:
448,192,53586,1,0,0:0:0:0:
192,192,53705,1,0,0:0:0:0:
64,192,53705,1,0,0:0:0:0:
448,192,53705,1,0,0:0:0:0:
320,192,53705,1,0,0:0:0:0:
192,192,53824,1,0,0:0:0:0:
320,192,53824,1,0,0:0:0:0:
64,192,53824,1,0,0:0:0:0:
192,192,53943,1,0,0:0:0:0:
64,192,53943,1,0,0:0:0:0:
320,192,53943,1,0,0:0:0:0:
448,192,53943,1,0,0:0:0:0:
192,192,54061,1,0,0:0:0:0:
448,192,54061,1,0,0:0:0:0:
320,192,54180,1,0,0:0:0:0:
448,192,54180,1,0,0:0:0:0:
64,192,54180,1,0,0:0:0:0:
192,192,54180,1,0,0:0:0:0:
320,192,54299,1,0,0:0:0:0:
448,192,54299,1,0,0:0:0:0:
64,192,54299,1,0,0:0:0:0:
320,192,54418,1,0,0:0:0:0:
192,192,54418,1,0,0:0:0:0:
448,192,54418,1,0,0:0:0:0:
64,192,54418,1,0,0:0:0:0:
320,192,54536,1,0,0:0:0:0:
192,192,54536,1,0,0:0:0:0:
192,192,54655,1,0,0:0:0:0:
64,192,54655,1,0,0:0:0:0:
448,192,54655,1,0,0:0:0:0:
320,192,54655,1,0,0:0:0:0:
64,192,54774,1,0,0:0:0:0:
192,192,54774,1,0,0:0:0:0:
448,192,54774,1,0,0:0:0:0:
64,192,54893,1,0,0:0:0:0:
448,192,54893,1,0,0:0:0:0:
192,192,54893,1,0,0:0:0:0:
320,192,54893,1,0,0:0:0:0:
320,192,55011,1,0,0:0:0:0:
192,192,55011,1,0,0:0:0:0:
320,192,55130,5,0,0:0:0:0:
64,192,55130,1,0,0:0:0:0:
448,192,55130,1,0,0:0:0:0:
192,192,55130,1,0,0:0:0:0:
64,192,55249,1,0,0:0:0:0:
192,192,55249,1,0,0:0:0:0:
320,192,55368,1,0,0:0:0:0:
448,192,55368,1,0,0:0:0:0:
64,192,55368,1,0,0:0:0:0:
192,192,55368,1,0,0:0:0:0:
64,192,55486,1,0,0:0:0:0:
192,192,55486,1,0,0:0:0:0:
192,192,55605,1,0,0:0:0:0:
64,192,55605,1,0,0:0:0:0:
448,192,55605,1,0,0:0:0:0:
320,192,55605,1,0,0:0:0:0:
64,192,55724,1,0,0:0:0:0:
192,192,55724,1,0,0:0:0:0:
192,192,55843,1,0,0:0:0:0:
64,192,55843,1,0,0:0:0:0:
448,192,55843,1,0,0:0:0:0:
320,192,55843,1,0,0:0:0:0:
192,192,55961,1,0,0:0:0:0:
64,192,55961,1,0,0:0:0:0:
448,192,56080,1,0,0:0:0:0:
320,192,56080,1,0,0:0:0:0:
192,192,56080,1,0,0:0:0:0:
64,192,56080,1,0,0:0:0:0:
320,192,56199,1,0,0:0:0:0:
448,192,56199,1,0,0:0:0:0:
64,192,56318,1,0,0:0:0:0:
320,192,56318,1,0,0:0:0:0:
448,192,56318,1,0,0:0:0:0:
192,192,56318,1,0,0:0:0:0:
320,192,56436,1,0,0:0:0:0:
448,192,56436,1,0,0:0:0:0:
192,192,56555,1,0,0:0:0:0:
64,192,56555,1,0,0:0:0:0:
320,192,56555,1,0,0:0:0:0:
448,192,56555,1,0,0:0:0:0:
448,192,56674,1,0,0:0:0:0:
320,192,56674,1,0,0:0:0:0:
320,192,56793,1,0,0:0:0:0:
64,192,56793,1,0,0:0:0:0:
448,192,56793,1,0,0:0:0:0:
192,192,56793,1,0,0:0:0:0:
320,192,56911,1,0,0:0:0:0:
448,192,56911,1,0,0:0:0:0:
64,192,57030,1,0,0:0:0:0:
192,192,57030,1,0,0:0:0:0:
448,192,57030,1,0,0:0:0:0:
320,192,57030,1,0,0:0:0:0:
448,192,57149,1,0,0:0:0:0:
64,192,57149,1,0,0:0:0:0:
192,192,57149,1,0,0:0:0:0:
64,192,57268,1,0,0:0:0:0:
192,192,57268,1,0,0:0:0:0:
448,192,57268,1,0,0:0:0:0:
320,192,57268,1,0,0:0:0:0:
192,192,57386,1,0,0:0:0:0:
320,192,57386,1,0,0:0:0:0:
320,192,57505,1,0,0:0:0:0:
192,192,57505,1,0,0:0:0:0:
64,192,57505,1,0,0:0:0:0:
448,192,57505,1,0,0:0:0:0:
320,192,57624,1,0,0:0:0:0:
64,192,57624,1,0,0:0:0:0:
448,192,57624,1,0,0:0:0:0:
64,192,57743,1,0,0:0:0:0:
192,192,57743,1,0,0:0:0:0:
448,192,57743,1,0,0:0:0:0:
320,192,57743,1,0,0:0:0:0:
64,192,57862,1,0,0:0:0:0:
448,192,57862,1,0,0:0:0:0:
192,192,57980,1,0,0:0:0:0:
64,192,57980,1,0,0:0:0:0:
320,192,57980,1,0,0:0:0:0:
448,192,57980,1,0,0:0:0:0:
192,192,58100,1,0,0:0:0:0:
448,192,58100,1,0,0:0:0:0:
320,192,58100,1,0,0:0:0:0:
448,192,58218,1,0,0:0:0:0:
320,192,58218,1,0,0:0:0:0:
192,192,58218,1,0,0:0:0:0:
64,192,58218,1,0,0:0:0:0:
192,192,58337,1,0,0:0:0:0:
320,192,58337,1,0,0:0:0:0:
64,192,58455,1,0,0:0:0:0:
192,192,58455,1,0,0:0:0:0:
448,192,58455,1,0,0:0:0:0:
320,192,58455,1,0,0:0:0:0:
448,192,58575,1,0,0:0:0:0:
320,192,58575,1,0,0:0:0:0:
64,192,58575,1,0,0:0:0:0:
192,192,58693,1,0,0:0:0:0:
64,192,58693,1,0,0:0:0:0:
320,192,58693,1,0,0:0:0:0:
448,192,58693,1,0,0:0:0:0:
192,192,58812,1,0,0:0:0:0:
64,192,58812,1,0,0:0:0:0:
64,192,58930,1,0,0:0:0:0:
192,192,58930,1,0,0:0:0:0:
448,192,58930,1,0,0:0:0:0:
320,192,58930,1,0,0:0:0:0:
448,192,59050,1,0,0:0:0:0:
320,192,59050,1,0,0:0:0:0:
192,192,59168,1,0,0:0:0:0:
320,192,59168,1,0,0:0:0:0:
448,192,59168,1,0,0:0:0:0:
64,192,59168,1,0,0:0:0:0:
320,192,59287,1,0,0:0:0:0:
448,192,59287,1,0,0:0:0:0:
320,192,59405,1,0,0:0:0:0:
64,192,59405,1,0,0:0:0:0:
192,192,59405,1,0,0:0:0:0:
448,192,59405,1,0,0:0:0:0:
320,192,59525,1,0,0:0:0:0:
448,192,59525,1,0,0:0:0:0:
192,192,59643,1,0,0:0:0:0:
64,192,59643,1,0,0:0:0:0:
448,192,59643,1,0,0:0:0:0:
320,192,59643,1,0,0:0:0:0:
448,192,59762,1,0,0:0:0:0:
320,192,59762,1,0,0:0:0:0:
320,192,59880,1,0,0:0:0:0:
192,192,59880,1,0,0:0:0:0:
64,192,59880,1,0,0:0:0:0:
448,192,59880,1,0,0:0:0:0:
64,192,60000,1,0,0:0:0:0:
192,192,60000,1,0,0:0:0:0:
192,192,60118,1,0,0:0:0:0:
64,192,60118,1,0,0:0:0:0:
320,192,60118,1,0,0:0:0:0:
448,192,60118,1,0,0:0:0:0:
192,192,60237,1,0,0:0:0:0:
64,192,60237,1,0,0:0:0:0:
320,192,60355,1,0,0:0:0:0:
192,192,60355,1,0,0:0:0:0:
448,192,60355,1,0,0:0:0:0:
64,192,60355,1,0,0:0:0:0:
192,192,60475,1,0,0:0:0:0:
64,192,60475,1,0,0:0:0:0:
64,192,60593,1,0,0:0:0:0:
192,192,60593,1,0,0:0:0:0:
320,192,60593,1,0,0:0:0:0:
448,192,60593,1,0,0:0:0:0:
192,192,60712,1,0,0:0:0:0:
64,192,60712,1,0,0:0:0:0:
64,192,60830,1,0,0:0:0:0:
192,192,60830,1,0,0:0:0:0:
448,192,60830,1,0,0:0:0:0:
320,192,60830,1,0,0:0:0:0:
320,192,60950,1,0,0:0:0:0:
448,192,60950,1,0,0:0:0:0:
64,192,60950,1,0,0:0:0:0:
192,192,61068,1,0,0:0:0:0:
64,192,61068,1,0,0:0:0:0:
448,192,61068,1,0,0:0:0:0:
320,192,61068,1,0,0:0:0:0:
192,192,61187,1,0,0:0:0:0:
448,192,61187,1,0,0:0:0:0:
320,192,61305,1,0,0:0:0:0:
192,192,61305,1,0,0:0:0:0:
64,192,61305,1,0,0:0:0:0:
448,192,61305,1,0,0:0:0:0:
320,192,61425,1,0,0:0:0:0:
192,192,61425,1,0,0:0:0:0:
64,192,61425,1,0,0:0:0:0:
192,192,61543,1,0,0:0:0:0:
64,192,61543,1,0,0:0:0:0:
320,192,61543,1,0,0:0:0:0:
448,192,61543,1,0,0:0:0:0:
320,192,61662,1,0,0:0:0:0:
448,192,61662,1,0,0:0:0:0:
192,192,61780,1,0,0:0:0:0:
64,192,61780,1,0,0:0:0:0:
448,192,61780,1,0,0:0:0:0:
320,192,61780,1,0,0:0:0:0:
64,192,61900,1,0,0:0:0:0:
192,192,61900,1,0,0:0:0:0:
448,192,61900,1,0,0:0:0:0:
448,192,62018,1,0,0:0:0:0:
64,192,62018,1,0,0:0:0:0:
192,192,62018,1,0,0:0:0:0:
320,192,62018,1,0,0:0:0:0:
320,192,62137,1,0,0:0:0:0:
64,192,62137,1,0,0:0:0:0:
320,192,62255,1,0,0:0:0:0:
192,192,62255,1,0,0:0:0:0:
64,192,62255,1,0,0:0:0:0:
448,192,62255,1,0,0:0:0:0:
192,192,62375,1,0,0:0:0:0:
448,192,62375,1,0,0:0:0:0:
320,192,62375,1,0,0:0:0:0:
64,192,62493,1,0,0:0:0:0:
192,192,62493,1,0,0:0:0:0:
448,192,62493,1,0,0:0:0:0:
320,192,62493,1,0,0:0:0:0:
448,192,62612,1,0,0:0:0:0:
320,192,62612,1,0,0:0:0:0:
320,192,62730,1,0,0:0:0:0:
64,192,62730,1,0,0:0:0:0:
192,192,62730,1,0,0:0:0:0:
448,192,62730,1,0,0:0:0:0:
64,192,62850,1,0,0:0:0:0:
192,192,62850,1,0,0:0:0:0:
320,192,62968,1,0,0:0:0:0:
192,192,62968,1,0,0:0:0:0:
64,192,62968,1,0,0:0:0:0:
448,192,62968,1,0,0:0:0:0:
192,192,63087,1,0,0:0:0:0:
64,192,63087,1,0,0:0:0:0:
64,192,63205,1,0,0:0:0:0:
192,192,63205,1,0,0:0:0:0:
448,192,63205,1,0,0:0:0:0:
320,192,63205,1,0,0:0:0:0:
64,192,63325,1,0,0:0:0:0:
192,192,63325,1,0,0:0:0:0:
192,192,63443,1,0,0:0:0:0:
320,192,63443,1,0,0:0:0:0:
448,192,63443,1,0,0:0:0:0:
64,192,63443,1,0,0:0:0:0:
192,192,63562,1,0,0:0:0:0:
64,192,63562,1,0,0:0:0:0:
192,192,63680,1,0,0:0:0:0:
64,192,63680,1,0,0:0:0:0:
448,192,63680,1,0,0:0:0:0:
320,192,63680,1,0,0:0:0:0:
320,192,63800,1,0,0:0:0:0:
448,192,63800,1,0,0:0:0:0:
192,192,63918,1,0,0:0:0:0:
64,192,63918,1,0,0:0:0:0:
320,192,63918,1,0,0:0:0:0:
448,192,63918,1,0,0:0:0:0:
320,192,64037,1,0,0:0:0:0:
448,192,64037,1,0,0:0:0:0:
448,192,64155,1,0,0:0:0:0:
320,192,64155,1,0,0:0:0:0:
192,192,64155,1,0,0:0:0:0:
64,192,64155,1,0,0:0:0:0:
320,192,64275,1,0,0:0:0:0:
448,192,64275,1,0,0:0:0:0:
64,192,64393,1,0,0:0:0:0:
192,192,64393,1,0,0:0:0:0:
320,192,64393,1,0,0:0:0:0:
448,192,64393,1,0,0:0:0:0:
320,192,64512,1,0,0:0:0:0:
448,192,64512,1,0,0:0:0:0:
320,192,64630,1,0,0:0:0:0:
64,192,64630,1,0,0:0:0:0:
192,192,64630,1,0,0:0:0:0:
448,192,64630,1,0,0:0:0:0:
448,192,64750,1,0,0:0:0:0:
64,192,64750,1,0,0:0:0:0:
192,192,64750,1,0,0:0:0:0:
64,192,64868,1,0,0:0:0:0:
192,192,64868,1,0,0:0:0:0:
448,192,64868,1,0,0:0:0:0:
320,192,64868,1,0,0:0:0:0:
192,192,64987,1,0,0:0:0:0:
320,192,64987,1,0,0:0:0:0:
320,192,65105,1,0,0:0:0:0:
192,192,65105,1,0,0:0:0:0:
64,192,65105,1,0,0:0:0:0:
448,192,65105,1,0,0:0:0:0:
320,192,65225,1,0,0:0:0:0:
64,192,65225,1,0,0:0:0:0:
448,192,65225,1,0,0:0:0:0:
64,192,65343,1,0,0:0:0:0:
192,192,65343,1,0,0:0:0:0:
448,192,65343,1,0,0:0:0:0:
320,192,65343,1,0,0:0:0:0:
64,192,65462,1,0,0:0:0:0:
448,192,65462,1,0,0:0:0:0:
192,192,65580,1,0,0:0:0:0:
64,192,65580,1,0,0:0:0:0:
320,192,65580,1,0,0:0:0:0:
448,192,65580,1,0,0:0:0:0:
192,192,65700,1,0,0:0:0:0:
448,192,65700,1,0,0:0:0:0:
320,192,65700,1,0,0:0:0:0:
448,192,65818,1,0,0:0:0:0:
320,192,65818,1,0,0:0:0:0:
192,192,65818,1,0,0:0:0:0:
64,192,65818,1,0,0:0:0:0:
192,192,65937,1,0,0:0:0:0:
320,192,65937,1,0,0:0:0:0:
64,192,66055,1,0,0:0:0:0:
192,192,66055,1,0,0:0:0:0:
448,192,66055,1,0,0:0:0:0:
320,192,66055,1,0,0:0:0:0:
448,192,66175,1,0,0:0:0:0:
320,192,66175,1,0,0:0:0:0:
64,192,66175,1,0,0:0:0:0:
192,192,66294,1,0,0:0:0:0:
64,192,66294,1,0,0:0:0:0:
320,192,66294,1,0,0:0:0:0:
448,192,66294,1,0,0:0:0:0:
192,192,66412,1,0,0:0:0:0:
64,192,66412,1,0,0:0:0:0:
64,192,66531,1,0,0:0:0:0:
192,192,66531,1,0,0:0:0:0:
448,192,66531,1,0,0:0:0:0:
320,192,66531,1,0,0:0:0:0:
448,192,66650,1,0,0:0:0:0:
320,192,66650,1,0,0:0:0:0:
192,192,66769,1,0,0:0:0:0:
320,192,66769,1,0,0:0:0:0:
448,192,66769,1,0,0:0:0:0:
64,192,66769,1,0,0:0:0:0:
320,192,66887,1,0,0:0:0:0:
448,192,66887,1,0,0:0:0:0:
320,192,67006,1,0,0:0:0:0:
64,192,67006,1,0,0:0:0:0:
192,192,67006,1,0,0:0:0:0:
448,192,67006,1,0,0:0:0:0:
320,192,67125,1,0,0:0:0:0:
448,192,67125,1,0,0:0:0:0:
192,192,67244,1,0,0:0:0:0:
64,192,67244,1,0,0:0:0:0:
448,192,67244,1,0,0:0:0:0:
320,192,67244,1,0,0:0:0:0:
448,192,67362,1,0,0:0:0:0:
320,192,67362,1,0,0:0:0:0:
320,192,67481,1,0,0:0:0:0:
192,192,67481,1,0,0:0:0:0:
64,192,67481,1,0,0:0:0:0:
448,192,67481,1,0,0:0:0:0:
64,192,67600,1,0,0:0:0:0:
192,192,67600,1,0,0:0:0:0:
192,192,67719,1,0,0:0:0:0:
64,192,67719,1,0,0:0:0:0:
320,192,67719,1,0,0:0:0:0:
448,192,67719,1,0,0:0:0:0:
192,192,67837,1,0,0:0:0:0:
64,192,67837,1,0,0:0:0:0:
320,192,67956,1,0,0:0:0:0:
192,192,67956,1,0,0:0:0:0:
448,192,67956,1,0,0:0:0:0:
64,192,67956,1,0,0:0:0:0:
192,192,68075,1,0,0:0:0:0:
64,192,68075,1,0,0:0:0:0:
64,192,68194,1,0,0:0:0:0:
192,192,68194,1,0,0:0:0:0:
320,192,68194,1,0,0:0:0:0:
448,192,68194,1,0,0:0:0:0:
192,192,68312,1,0,0:0:0:0:
64,192,68312,1,0,0:0:0:0:
64,192,68431,1,0,0:0:0:0:
192,192,68431,1,0,0:0:0:0:
448,192,68431,1,0,0:0:0:0:
320,192,68431,1,0,0:0:0:0:
320,192,68550,1,0,0:0:0:0:
448,192,68550,1,0,0:0:0:0:
64,192,68550,1,0,0:0:0:0:
192,192,68669,1,0,0:0:0:0:
64,192,68669,1,0,0:0:0:0:
448,192,68669,1,0,0:0:0:0:
320,192,68669,1,0,0:0:0:0:
192,192,68787,1,0,0:0:0:0:
448,192,68787,1,0,0:0:0:0:
320,192,68906,1,0,0:0:0:0:
192,192,68906,1,0,0:0:0:0:
64,192,68906,1,0,0:0:0:0:
448,192,68906,1,0,0:0:0:0:
320,192,69025,1,0,0:0:0:0:
192,192,69025,1,0,0:0:0:0:
64,192,69025,1,0,0:0:0:0:
192,192,69144,1,0,0:0:0:0:
64,192,69144,1,0,0:0:0:0:
320,192,69144,1,0,0:0:0:0:
448,192,69144,1,0,0:0:0:0:
320,192,69262,1,0,0:0:0:0:
448,192,69262,1,0,0:0:0:0:
192,192,69381,1,0,0:0:0:0:
64,192,69381,1,0,0:0:0:0:
448,192,69381,1,0,0:0:0:0:
320,192,69381,1,0,0:0:0:0:
64,192,69500,1,0,0:0:0:0:
192,192,69500,1,0,0:0:0:0:
448,192,69500,1,0,0:0:0:0:
448,192,69619,1,0,0:0:0:0:
64,192,69619,1,0,0:0:0:0:
192,192,69619,1,0,0:0:0:0:
320,192,69619,1,0,0:0:0:0:
320,192,69737,1,0,0:0:0:0:
64,192,69737,1,0,0:0:0:0:
320,192,69856,1,0,0:0:0:0:
192,192,69856,1,0,0:0:0:0:
64,192,69856,1,0,0:0:0:0:
448,192,69856,1,0,0:0:0:0:
192,192,69975,1,0,0:0:0:0:
448,192,69975,1,0,0:0:0:0:
320,192,69975,1,0,0:0:0:0:
64,192,70094,1,0,0:0:0:0:
192,192,70094,1,0,0:0:0:0:
448,192,70094,1,0,0:0:0:0:
320,192,70094,1,0,0:0:0:0:
448,192,70212,1,0,0:0:0:0:
320,192,70212,1,0,0:0:0:0:
320,192,70331,1,0,0:0:0:0:
64,192,70331,1,0,0:0:0:0:
192,192,70331,1,0,0:0:0:0:
448,192,70331,1,0,0:0:0:0:
64,192,70450,1,0,0:0:0:0:
192,192,70450,1,0,0:0:0:0:
320,192,70569,1,0,0:0:0:0:
192,192,70569,1,0,0:0:0:0:
64,192,70569,1,0,0:0:0:0:
448,192,70569,1,0,0:0:0:0:
192,192,70687,1,0,0:0:0:0:
64,192,70687,1,0,0:0:0:0:
64,192,70806,1,0,0:0:0:0:
192,192,70806,1,0,0:0:0:0:
448,192,70806,1,0,0:0:0:0:
320,192,70806,1,0,0:0:0:0:
64,192,70925,1,0,0:0:0:0:
192,192,70925,1,0,0:0:0:0:
192,192,71044,1,0,0:0:0:0:
320,192,71044,1,0,0:0:0:0:
448,192,71044,1,0,0:0:0:0:
64,192,71044,1,0,0:0:0:0:
192,192,71162,1,0,0:0:0:0:
64,192,71162,1,0,0:0:0:0:
192,192,71281,1,0,0:0:0:0:
64,192,71281,1,0,0:0:0:0:
448,192,71281,1,0,0:0:0:0:
320,192,71281,1,0,0:0:0:0:
320,192,71400,1,0,0:0:0:0:
448,192,71400,1,0,0:0:0:0:
192,192,71519,1,0,0:0:0:0:
64,192,71519,1,0,0:0:0:0:
320,192,71519,1,0,0:0:0:0:
448,192,71519,1,0,0:0:0:0:
320,192,71637,1,0,0:0:0:0:
448,192,71637,1,0,0:0:0:0:
448,192,71756,1,0,0:0:0:0:
320,192,71756,1,0,0:0:0:0:
192,192,71756,1,0,0:0:0:0:
64,192,71756,1,0,0:0:0:0:
320,192,71875,1,0,0:0:0:0:
448,192,71875,1,0,0:0:0:0:
64,192,71994,1,0,0:0:0:0:
192,192,71994,1,0,0:0:0:0:
320,192,71994,1,0,0:0:0:0:
448,192,71994,1,0,0:0:0:0:
320,192,72112,1,0,0:0:0:0:
448,192,72112,1,0,0:0:0:0:
320,192,72231,1,0,0:0:0:0:
64,192,72231,1,0,0:0:0:0:
192,192,72231,1,0,0:0:0:0:
448,192,72231,1,0,0:0:0:0:
192,192,72350,1,0,0:0:0:0:
64,192,72350,1,0,0:0:0:0:
448,192,72350,1,0,0:0:0:0:
448,192,72469,1,0,0:0:0:0:
320,192,72469,1,0,0:0:0:0:
64,192,72469,1,0,0:0:0:0:
192,192,72469,1,0,0:0:0:0:
320,192,72587,1,0,0:0:0:0:
192,192,72587,1,0,0:0:0:0:
64,192,72706,1,0,0:0:0:0:
448,192,72706,1,0,0:0:0:0:
320,192,72706,1,0,0:0:0:0:
192,192,72706,1,0,0:0:0:0:
448,192,72825,1,0,0:0:0:0:
64,192,72825,1,0,0:0:0:0:
320,192,72825,1,0,0:0:0:0:
448,192,72944,1,0,0:0:0:0:
320,192,72944,1,0,0:0:0:0:
64,192,72944,1,0,0:0:0:0:
192,192,72944,1,0,0:0:0:0:
448,192,73062,1,0,0:0:0:0:
64,192,73062,1,0,0:0:0:0:
320,192,73181,1,0,0:0:0:0:
448,192,73181,1,0,0:0:0:0:
192,192,73181,1,0,0:0:0:0:
64,192,73181,1,0,0:0:0:0:
320,192,73300,1,0,0:0:0:0:
448,192,73300,1,0,0:0:0:0:
192,192,73300,1,0,0:0:0:0:
192,192,73419,1,0,0:0:0:0:
64,192,73419,1,0,0:0:0:0:
448,192,73419,1,0,0:0:0:0:
320,192,73419,1,0,0:0:0:0:
320,192,73537,1,0,0:0:0:0:
192,192,73537,1,0,0:0:0:0:
448,192,73656,1,0,0:0:0:0:
320,192,73656,1,0,0:0:0:0:
64,192,73656,1,0,0:0:0:0:
192,192,73656,1,0,0:0:0:0:
64,192,73775,1,0,0:0:0:0:
320,192,73775,1,0,0:0:0:0:
448,192,73775,1,0,0:0:0:0:
320,192,73894,1,0,0:0:0:0:
448,192,73894,1,0,0:0:0:0:
192,192,73894,1,0,0:0:0:0:
64,192,73894,1,0,0:0:0:0:
64,192,74012,1,0,0:0:0:0:
192,192,74012,1,0,0:0:0:0:
448,192,74131,1,0,0:0:0:0:
320,192,74131,1,0,0:0:0:0:
64,192,74131,1,0,0:0:0:0:
192,192,74131,1,0,0:0:0:0:
320,192,74250,1,0,0:0:0:0:
448,192,74250,1,0,0:0:0:0:
448,192,74369,1,0,0:0:0:0:
64,192,74369,1,0,0:0:0:0:
192,192,74369,1,0,0:0:0:0:
320,192,74369,1,0,0:0:0:0:
448,192,74487,1,0,0:0:0:0:
320,192,74487,1,0,0:0:0:0:
192,192,74606,1,0,0:0:0:0:
448,192,74606,1,0,0:0:0:0:
320,192,74606,1,0,0:0:0:0:
64,192,74606,1,0,0:0:0:0:
448,192,74725,1,0,0:0:0:0:
320,192,74725,1,0,0:0:0:0:
448,192,74844,1,0,0:0:0:0:
320,192,74844,1,0,0:0:0:0:
192,192,74844,1,0,0:0:0:0:
64,192,74844,1,0,0:0:0:0:
320,192,74963,1,0,0:0:0:0:
448,192,74963,1,0,0:0:0:0:
64,192,75081,1,0,0:0:0:0:
448,192,75081,1,0,0:0:0:0:
320,192,75081,1,0,0:0:0:0:
192,192,75081,1,0,0:0:0:0:
192,192,75200,1,0,0:0:0:0:
64,192,75200,1,0,0:0:0:0:
320,192,75319,1,0,0:0:0:0:
448,192,75319,1,0,0:0:0:0:
192,192,75319,1,0,0:0:0:0:
64,192,75319,1,0,0:0:0:0:
64,192,75438,1,0,0:0:0:0:
192,192,75438,1,0,0:0:0:0:
448,192,75556,1,0,0:0:0:0:
64,192,75556,1,0,0:0:0:0:
320,192,75556,1,0,0:0:0:0:
192,192,75556,1,0,0:0:0:0:
64,192,75675,1,0,0:0:0:0:
192,192,75675,1,0,0:0:0:0:
320,192,75794,1,0,0:0:0:0:
448,192,75794,1,0,0:0:0:0:
64,192,75794,1,0,0:0:0:0:
192,192,75794,1,0,0:0:0:0:
64,192,75913,1,0,0:0:0:0:
192,192,75913,1,0,0:0:0:0:
448,192,76031,1,0,0:0:0:0:
320,192,76031,1,0,0:0:0:0:
64,192,76031,1,0,0:0:0:0:
192,192,76031,1,0,0:0:0:0:
64,192,76150,1,0,0:0:0:0:
448,192,76150,1,0,0:0:0:0:
320,192,76150,1,0,0:0:0:0:
448,192,76269,1,0,0:0:0:0:
320,192,76269,1,0,0:0:0:0:
192,192,76269,1,0,0:0:0:0:
64,192,76269,1,0,0:0:0:0:
448,192,76388,1,0,0:0:0:0:
192,192,76388,1,0,0:0:0:0:
64,192,76506,1,0,0:0:0:0:
448,192,76506,1,0,0:0:0:0:
320,192,76506,1,0,0:0:0:0:
192,192,76506,1,0,0:0:0:0:
64,192,76625,1,0,0:0:0:0:
192,192,76625,1,0,0:0:0:0:
320,192,76625,1,0,0:0:0:0:
320,192,76744,1,0,0:0:0:0:
448,192,76744,1,0,0:0:0:0:
192,192,76744,1,0,0:0:0:0:
64,192,76744,1,0,0:0:0:0:
448,192,76863,1,0,0:0:0:0:
320,192,76863,1,0,0:0:0:0:
448,192,76981,1,0,0:0:0:0:
320,192,76981,1,0,0:0:0:0:
192,192,76981,1,0,0:0:0:0:
64,192,76981,1,0,0:0:0:0:
448,192,77100,1,0,0:0:0:0:
192,192,77100,1,0,0:0:0:0:
64,192,77100,1,0,0:0:0:0:
192,192,77219,1,0,0:0:0:0:
320,192,77219,1,0,0:0:0:0:
448,192,77219,1,0,0:0:0:0:
64,192,77219,1,0,0:0:0:0:
64,192,77338,1,0,0:0:0:0:
320,192,77338,1,0,0:0:0:0:
64,192,77456,1,0,0:0:0:0:
448,192,77456,1,0,0:0:0:0:
320,192,77456,1,0,0:0:0:0:
192,192,77456,1,0,0:0:0:0:
320,192,77575,1,0,0:0:0:0:
448,192,77575,1,0,0:0:0:0:
192,192,77575,1,0,0:0:0:0:
448,192,77694,1,0,0:0:0:0:
320,192,77694,1,0,0:0:0:0:
64,192,77694,1,0,0:0:0:0:
192,192,77694,1,0,0:0:0:0:
320,192,77813,1,0,0:0:0:0:
448,192,77813,1,0,0:0:0:0:
192,192,77931,1,0,0:0:0:0:
448,192,77931,1,0,0:0:0:0:
320,192,77931,1,0,0:0:0:0:
64,192,77931,1,0,0:0:0:0:
192,192,78050,1,0,0:0:0:0:
64,192,78050,1,0,0:0:0:0:
64,192,78169,1,0,0:0:0:0:
448,192,78169,1,0,0:0:0:0:
320,192,78169,1,0,0:0:0:0:
192,192,78169,1,0,0:0:0:0:
64,192,78288,1,0,0:0:0:0:
192,192,78288,1,0,0:0:0:0:
448,192,78406,1,0,0:0:0:0:
320,192,78406,1,0,0:0:0:0:
64,192,78406,1,0,0:0:0:0:
192,192,78406,1,0,0:0:0:0:
192,192,78525,1,0,0:0:0:0:
64,192,78525,1,0,0:0:0:0:
448,192,78644,1,0,0:0:0:0:
64,192,78644,1,0,0:0:0:0:
192,192,78644,1,0,0:0:0:0:
320,192,78644,1,0,0:0:0:0:
64,192,78763,1,0,0:0:0:0:
192,192,78763,1,0,0:0:0:0:
448,192,78881,1,0,0:0:0:0:
320,192,78881,1,0,0:0:0:0:
192,192,78881,1,0,0:0:0:0:
64,192,78881,1,0,0:0:0:0:
448,192,79000,1,0,0:0:0:0:
320,192,79000,1,0,0:0:0:0:
320,192,79119,1,0,0:0:0:0:
448,192,79119,1,0,0:0:0:0:
192,192,79119,1,0,0:0:0:0:
64,192,79119,1,0,0:0:0:0:
448,192,79238,1,0,0:0:0:0:
320,192,79238,1,0,0:0:0:0:
192,192,79356,1,0,0:0:0:0:
64,192,79356,1,0,0:0:0:0:
448,192,79356,1,0,0:0:0:0:
320,192,79356,1,0,0:0:0:0:
448,192,79475,1,0,0:0:0:0:
320,192,79475,1,0,0:0:0:0:
320,192,79594,1,0,0:0:0:0:
448,192,79594,1,0,0:0:0:0:
64,192,79594,1,0,0:0:0:0:
192,192,79594,1,0,0:0:0:0:
448,192,79713,1,0,0:0:0:0:
320,192,79713,1,0,0:0:0:0:
192,192,79831,1,0,0:0:0:0:
448,192,79831,1,0,0:0:0:0:
320,192,79831,1,0,0:0:0:0:
64,192,79831,1,0,0:0:0:0:
448,192,79950,1,0,0:0:0:0:
64,192,79950,1,0,0:0:0:0:
192,192,79950,1,0,0:0:0:0:
64,192,80069,1,0,0:0:0:0:
192,192,80069,1,0,0:0:0:0:
448,192,80069,1,0,0:0:0:0:
320,192,80069,1,0,0:0:0:0:
192,192,80188,1,0,0:0:0:0:
320,192,80188,1,0,0:0:0:0:
320,192,80306,1,0,0:0:0:0:
192,192,80306,1,0,0:0:0:0:
64,192,80306,1,0,0:0:0:0:
448,192,80306,1,0,0:0:0:0:
320,192,80425,1,0,0:0:0:0:
64,192,80425,1,0,0:0:0:0:
448,192,80425,1,0,0:0:0:0:
64,192,80544,1,0,0:0:0:0:
192,192,80544,1,0,0:0:0:0:
448,192,80544,1,0,0:0:0:0:
320,192,80544,1,0,0:0:0:0:
64,192,80663,1,0,0:0:0:0:
448,192,80663,1,0,0:0:0:0:
192,192,80781,1,0,0:0:0:0:
64,192,80781,1,0,0:0:0:0:
320,192,80781,1,0,0:0:0:0:
448,192,80781,1,0,0:0:0:0:
192,192,80900,1,0,0:0:0:0:
448,192,80900,1,0,0:0:0:0:
320,192,80900,1,0,0:0:0:0:
448,192,81019,1,0,0:0:0:0:
320,192,81019,1,0,0:0:0:0:
192,192,81019,1,0,0:0:0:0:
64,192,81019,1,0,0:0:0:0:
192,192,81138,1,0,0:0:0:0:
320,192,81138,1,0,0:0:0:0:
64,192,81256,1,0,0:0:0:0:
192,192,81256,1,0,0:0:0:0:
448,192,81256,1,0,0:0:0:0:
320,192,81256,1,0,0:0:0:0:
448,192,81375,1,0,0:0:0:0:
320,192,81375,1,0,0:0:0:0:
64,192,81375,1,0,0:0:0:0:
192,192,81494,1,0,0:0:0:0:
64,192,81494,1,0,0:0:0:0:
320,192,81494,1,0,0:0:0:0:
448,192,81494,1,0,0:0:0:0:
192,192,81613,1,0,0:0:0:0:
64,192,81613,1,0,0:0:0:0:
64,192,81731,1,0,0:0:0:0:
192,192,81731,1,0,0:0:0:0:
448,192,81731,1,0,0:0:0:0:
320,192,81731,1,0,0:0:0:0:
448,192,81850,1,0,0:0:0:0:
320,192,81850,1,0,0:0:0:0:
192,192,81969,1,0,0:0:0:0:
320,192,81969,1,0,0:0:0:0:
448,192,81969,1,0,0:0:0:0:
64,192,81969,1,0,0:0:0:0:
320,192,82088,1,0,0:0:0:0:
448,192,82088,1,0,0:0:0:0:
320,192,82206,1,0,0:0:0:0:
64,192,82206,1,0,0:0:0:0:
192,192,82206,1,0,0:0:0:0:
448,192,82206,1,0,0:0:0:0:
320,192,82325,1,0,0:0:0:0:
448,192,82325,1,0,0:0:0:0:
192,192,82444,1,0,0:0:0:0:
64,192,82444,1,0,0:0:0:0:
448,192,82444,1,0,0:0:0:0:
320,192,82444,1,0,0:0:0:0:
448,192,82563,1,0,0:0:0:0:
320,192,82563,1,0,0:0:0:0:
320,192,82681,1,0,0:0:0:0:
192,192,82681,1,0,0:0:0:0:
64,192,82681,1,0,0:0:0:0:
448,192,82681,1,0,0:0:0:0:
64,192,82800,1,0,0:0:0:0:
192,192,82800,1,0,0:0:0:0:
192,192,82919,1,0,0:0:0:0:
64,192,82919,1,0,0:0:0:0:
320,192,82919,1,0,0:0:0:0:
448,192,82919,1,0,0:0:0:0:
192,192,83038,1,0,0:0:0:0:
64,192,83038,1,0,0:0:0:0:
320,192,83156,1,0,0:0:0:0:
192,192,83156,1,0,0:0:0:0:
448,192,83156,1,0,0:0:0:0:
64,192,83156,1,0,0:0:0:0:
192,192,83275,1,0,0:0:0:0:
64,192,83275,1,0,0:0:0:0:
64,192,83395,1,0,0:0:0:0:
192,192,83395,1,0,0:0:0:0:
320,192,83395,1,0,0:0:0:0:
448,192,83395,1,0,0:0:0:0:
64,192,83513,1,0,0:0:0:0:
192,192,83513,1,0,0:0:0:0:
