osu file format v14

[General]
AudioFilename: audio.mp3
AudioLeadIn: 0
PreviewTime: 97320
Countdown: 0
SampleSet: Normal
StackLeniency: 0.7
Mode: 1
LetterboxInBreaks: 0
WidescreenStoryboard: 1

[Editor]
Bookmarks: 11857,22393,41125,59857,78589,97320,106686,116052,125418,134784,139467,158198,167564
DistanceSpacing: 0.3
BeatDivisor: 4
GridSize: 32
TimelineZoom: 3.099999

[Metadata]
Title:The Old Blood
TitleUnicode:The Old Blood
Artist:ovEnola
ArtistUnicode:ovEnola
Creator:ikin5050
Version:Muzukashii
Source:
Tags:fa featured artist mappers' guild mpg left behind english metal metalcore hardcore deathcore downtempo RADC-146 Rad Tone music fabtone
BeatmapID:2938204
BeatmapSetID:1426958

[Difficulty]
HPDrainRate:6
CircleSize:5
OverallDifficulty:4
ApproachRate:5
SliderMultiplier:1.4
SliderTickRate:1

[Events]
//Background and Video events
0,0,"woods-183519.jpg",0,0
//Break Periods
//Storyboard Layer 0 (Background)
//Storyboard Layer 1 (Fail)
//Storyboard Layer 2 (Pass)
//Storyboard Layer 3 (Foreground)
//Storyboard Layer 4 (Overlay)
//Storyboard Sound Samples

[TimingPoints]
150,292.682926829268,4,1,0,100,1,0
9589,-200,4,1,0,20,0,0
11784,-133.333333333333,4,1,0,60,0,0
11857,292.682926829268,4,1,0,60,1,0
11857,-133.333333333333,4,1,0,60,0,0
15954,-100,4,1,0,100,0,0
21149,-100,4,1,0,20,0,0
21296,-200,4,1,0,20,0,0
22319,-100,4,1,0,100,0,0
22393,292.682926829268,4,1,0,100,1,0
39075,-100,4,1,0,100,0,0
39222,-99.2928364190237,4,1,0,100,0,0
39368,-98.5957014246093,4,1,0,100,0,0
39514,-97.9081914888409,4,1,0,100,0,0
39807,-96.5616333593406,4,1,0,100,0,0
39953,-95.9021031331217,4,1,0,100,0,0
40100,-95.251521166793,4,1,0,100,0,0
40173,-94.9296191803397,4,1,0,100,0,0
40246,-94.6097960875065,4,1,0,100,0,0
40392,-93.97657164069,4,1,0,100,0,0
40539,-93.3517671956289,4,1,0,100,0,0
40612,-93.042556735025,4,1,0,100,0,0
40685,-92.7353019183224,4,1,0,100,0,0
40832,-92.1268402336337,4,1,0,100,0,0
40978,-91.5263110686429,4,1,0,100,0,0
41124,-90.9336429926989,4,1,0,100,0,0
42295,-90.9090909090909,4,1,0,100,0,0
42441,-91.2691893470602,4,1,0,100,0,0
42588,-91.632151889455,4,1,0,100,0,0
42734,-91.9980128429226,4,1,0,100,0,0
42880,-92.3668070642134,4,1,0,100,0,0
43027,-92.738569971251,4,1,0,100,0,0
43173,-93.1133375544713,4,1,0,100,0,0
43319,-93.491146388437,4,1,0,100,0,0
43466,-93.8720336437369,4,1,0,100,0,0
43758,-94.6431951542684,4,1,0,100,0,0
44051,-95.4271318421254,4,1,0,100,0,0
44490,-96.6276001279349,4,1,0,100,0,0
44636,-97.0345277960257,4,1,0,100,0,0
44783,-97.4448973466729,4,1,0,100,0,0
45075,-98.2761382588023,4,1,0,100,0,0
45368,-99.121682768984,4,1,0,100,0,0
45514,-99.5499347450178,4,1,0,100,0,0
45661,-99.9819032755071,4,1,0,100,0,0
45807,-90.9090909090909,4,1,0,100,0,0
47124,-91.2691893470602,4,1,0,100,0,0
47271,-91.632151889455,4,1,0,100,0,0
47417,-91.9980128429226,4,1,0,100,0,0
47563,-92.3668070642134,4,1,0,100,0,0
47710,-92.738569971251,4,1,0,100,0,0
47856,-93.1133375544713,4,1,0,100,0,0
48149,-93.8720336437369,4,1,0,100,0,0
48441,-94.6431951542684,4,1,0,100,0,0
48588,-95.0335468420352,4,1,0,100,0,0
48734,-95.4271318421254,4,1,0,100,0,0
49027,-96.2240712212085,4,1,0,100,0,0
49173,-96.6276001279349,4,1,0,100,0,0
49319,-97.0345277960257,4,1,0,100,0,0
49466,-97.4448973466729,4,1,0,100,0,0
49612,-97.8587526336237,4,1,0,100,0,0
49758,-98.2761382588023,4,1,0,100,0,0
49905,-98.6970995883344,4,1,0,100,0,0
50051,-99.121682768984,4,1,0,100,0,0
50197,-99.5499347450178,4,1,0,100,0,0
50344,-99.9819032755071,4,1,0,100,0,0
50490,-90.9090909090909,4,1,0,100,0,0
51807,-91.2691893470602,4,1,0,100,0,0
51953,-91.632151889455,4,1,0,100,0,0
52100,-91.9980128429226,4,1,0,100,0,0
52246,-92.3668070642134,4,1,0,100,0,0
52392,-92.738569971251,4,1,0,100,0,0
52539,-93.1133375544713,4,1,0,100,0,0
52685,-93.491146388437,4,1,0,100,0,0
52832,-93.8720336437369,4,1,0,100,0,0
53124,-94.6431951542684,4,1,0,100,0,0
53417,-95.4271318421254,4,1,0,100,0,0
53856,-96.6276001279349,4,1,0,100,0,0
54002,-97.0345277960257,4,1,0,100,0,0
54149,-97.4448973466729,4,1,0,100,0,0
54441,-98.2761382588023,4,1,0,100,0,0
54734,-99.121682768984,4,1,0,100,0,0
54880,-99.5499347450178,4,1,0,100,0,0
55027,-99.9819032755071,4,1,0,100,0,0
55173,-90.8941346923824,4,1,0,100,0,0
56344,-90.9090909090909,4,1,0,100,0,0
56490,-91.2547806098192,4,1,0,100,0,0
56636,-91.6030254647251,4,1,0,100,0,0
56783,-91.9540229885058,4,1,0,100,0,0
56929,-92.3077207100679,4,1,0,100,0,0
57075,-92.6640640419879,4,1,0,100,0,0
57222,-93.0232558139535,4,1,0,100,0,0
57514,-93.7499707031342,4,1,0,100,0,0
57661,-94.1176470588235,4,1,0,100,0,0
57807,-94.4882187364469,4,1,0,100,0,0
57953,-94.861630083279,4,1,0,100,0,0
58100,-95.2380952380952,4,1,0,100,0,0
58246,-95.6175603561945,4,1,0,100,0,0
58392,-95.9999692800098,4,1,0,100,0,0
58539,-96.3855421686747,4,1,0,100,0,0
58685,-96.774224765879,4,1,0,100,0,0
58832,-97.1659604320776,4,1,0,100,0,0
58978,-97.5609756097561,4,1,0,100,0,0
59271,-98.3606234883202,4,1,0,100,0,0
59417,-98.7654320987654,4,1,0,100,0,0
59563,-99.173586503665,4,1,0,100,0,0
59710,-99.5850291833928,4,1,0,100,0,0
59856,-100,4,1,0,100,0,0
76539,-98.7685536728074,4,1,0,100,0,0
76685,-98.1642307212813,4,1,0,100,0,0
76978,-96.9773140969133,4,1,0,100,0,0
77124,-96.3945544788284,4,1,0,100,0,0
77271,-95.8188487173689,4,1,0,100,0,0
77417,-95.2498880813815,4,1,0,100,0,0
77563,-94.6876443986577,4,1,0,100,0,0
77710,-94.1319994201469,4,1,0,100,0,0
77783,-93.8566152488843,4,1,0,100,0,0
77856,-93.5829252337935,4,1,0,100,0,0
78002,-93.0401328613097,4,1,0,100,0,0
78149,-92.5036007026573,4,1,0,100,0,0
78295,-91.9732210769512,4,1,0,100,0,0
78368,-91.7103054870276,4,1,0,100,0,0
78441,-91.4489723878973,4,1,0,100,0,0
78588,-90.9336429926989,4,1,0,100,0,0
79759,-90.9090909090909,4,1,0,100,0,0
79905,-91.2691893470602,4,1,0,100,0,0
80052,-91.632151889455,4,1,0,100,0,0
80198,-91.9980128429226,4,1,0,100,0,0
80344,-92.3668070642134,4,1,0,100,0,0
80491,-92.738569971251,4,1,0,100,0,0
80637,-93.1133375544713,4,1,0,100,0,0
80783,-93.491146388437,4,1,0,100,0,0
80930,-93.8720336437369,4,1,0,100,0,0
81222,-94.6431951542684,4,1,0,100,0,0
81514,-95.4271318421254,4,1,0,100,0,0
81953,-96.6276001279349,4,1,0,100,0,0
82100,-97.0345277960257,4,1,0,100,0,0
82247,-97.4448973466729,4,1,0,100,0,0
82539,-98.2761382588023,4,1,0,100,0,0
82832,-99.121682768984,4,1,0,100,0,0
82978,-99.5499347450178,4,1,0,100,0,0
83125,-99.9819032755071,4,1,0,100,0,0
83271,-90.9090909090909,4,1,0,100,0,0
84588,-91.2691893470602,4,1,0,100,0,0
84735,-91.632151889455,4,1,0,100,0,0
84881,-91.9980128429226,4,1,0,100,0,0
85027,-92.3668070642134,4,1,0,100,0,0
85174,-92.738569971251,4,1,0,100,0,0
85320,-93.1133375544713,4,1,0,100,0,0
85612,-93.8720336437369,4,1,0,100,0,0
85905,-94.6431951542684,4,1,0,100,0,0
86052,-95.0335468420352,4,1,0,100,0,0
86198,-95.4271318421254,4,1,0,100,0,0
86490,-96.2240712212085,4,1,0,100,0,0
86637,-96.6276001279349,4,1,0,100,0,0
86783,-97.0345277960257,4,1,0,100,0,0
86930,-97.4448973466729,4,1,0,100,0,0
87076,-97.8587526336237,4,1,0,100,0,0
87222,-98.2761382588023,4,1,0,100,0,0
87369,-98.6970995883344,4,1,0,100,0,0
87515,-99.121682768984,4,1,0,100,0,0
87661,-99.5499347450178,4,1,0,100,0,0
87808,-99.9819032755071,4,1,0,100,0,0
87953,-90.9090909090909,4,1,0,100,0,0
89270,-91.2691893470602,4,1,0,100,0,0
89416,-91.632151889455,4,1,0,100,0,0
89563,-91.9980128429226,4,1,0,100,0,0
89709,-92.3668070642134,4,1,0,100,0,0
89855,-92.738569971251,4,1,0,100,0,0
90002,-93.1133375544713,4,1,0,100,0,0
90148,-93.491146388437,4,1,0,100,0,0
90295,-93.8720336437369,4,1,0,100,0,0
90587,-94.6431951542684,4,1,0,100,0,0
90880,-95.4271318421254,4,1,0,100,0,0
91319,-96.6276001279349,4,1,0,100,0,0
91465,-97.0345277960257,4,1,0,100,0,0
91612,-97.4448973466729,4,1,0,100,0,0
91904,-98.2761382588023,4,1,0,100,0,0
92197,-99.121682768984,4,1,0,100,0,0
92343,-99.5499347450178,4,1,0,100,0,0
92490,-99.9819032755071,4,1,0,100,0,0
92636,-90.8941346923824,4,1,0,100,0,0
93807,-90.9090909090909,4,1,0,100,0,0
93953,-91.2547806098192,4,1,0,100,0,0
94099,-91.6030254647251,4,1,0,100,0,0
94246,-91.9540229885058,4,1,0,100,0,0
94392,-92.3077207100679,4,1,0,100,0,0
94538,-92.6640640419879,4,1,0,100,0,0
94685,-93.0232558139535,4,1,0,100,0,0
94977,-93.7499707031342,4,1,0,100,0,0
95124,-94.1176470588235,4,1,0,100,0,0
95270,-94.4882187364469,4,1,0,100,0,0
95416,-94.861630083279,4,1,0,100,0,0
95563,-95.2380952380952,4,1,0,100,0,0
95709,-95.6175603561945,4,1,0,100,0,0
95855,-95.9999692800098,4,1,0,100,0,0
96002,-96.3855421686747,4,1,0,100,0,0
96148,-96.774224765879,4,1,0,100,0,0
96295,-97.1659604320776,4,1,0,100,0,0
96441,-97.5609756097561,4,1,0,100,0,0
96734,-98.3606234883202,4,1,0,100,0,0
96880,-98.7654320987654,4,1,0,100,0,0
97026,-99.173586503665,4,1,0,100,0,0
97173,-99.5850291833928,4,1,0,100,0,0
97319,-90.9090909090909,4,1,0,100,0,1
99807,-91.5015216703054,4,1,0,100,0,1
100100,-92.7097674375484,4,1,0,100,0,1
100246,-93.3259792461687,4,1,0,100,0,1
100392,-93.9503491194973,4,1,0,100,0,1
100539,-94.583219045277,4,1,0,100,0,1
100685,-95.2246730936973,4,1,0,100,0,1
100978,-96.5339485763656,4,1,0,100,0,1
101271,-97.8797293038206,4,1,0,100,0,1
101417,-98.5668381729651,4,1,0,100,0,1
101563,-99.2636621541406,4,1,0,100,0,1
101710,-99.970308818281,4,1,0,100,0,1
102002,-90.9090909090909,4,1,0,100,0,1
106246,-93.0232558139535,4,1,0,100,0,1
106392,-95.2380952380952,4,1,0,100,0,1
106539,-97.5609756097561,4,1,0,100,0,1
106685,-100,4,1,0,100,0,0
134856,-100,4,1,0,60,0,0
135953,-115.473441108545,4,1,0,60,0,0
137124,-136.425648021828,4,1,0,60,0,0
138149,-166.666666666667,4,1,0,60,0,0
139466,-200,4,1,0,100,0,1
148832,-200,4,1,0,100,0,0
150002,-200,4,1,0,100,0,1
158197,-200,4,1,0,100,0,0
158271,-133.333333333333,4,1,0,90,0,0
162880,-133.333333333333,4,1,0,80,0,0

[HitObjects]
256,192,150,5,8,0:0:0:0:
256,192,296,1,0,0:0:0:0:
256,192,442,1,0,0:0:0:0:
256,192,589,1,12,0:0:0:0:
256,192,881,1,12,0:0:0:0:
256,192,1028,1,0,0:0:0:0:
256,192,1174,1,8,0:0:0:0:
256,192,1320,1,0,0:0:0:0:
256,192,1393,1,0,0:0:0:0:
256,192,1467,1,0,0:0:0:0:
256,192,1906,1,8,0:0:0:0:
256,192,2052,1,0,0:0:0:0:
256,192,2198,1,8,0:0:0:0:
256,192,2491,1,0,0:0:0:0:
256,192,2637,1,12,0:0:0:0:
256,192,2930,1,12,0:0:0:0:
256,192,3076,1,0,0:0:0:0:
256,192,3223,1,0,0:0:0:0:
256,192,3369,1,8,0:0:0:0:
256,192,3515,1,8,0:0:0:0:
256,192,3662,1,0,0:0:0:0:
256,192,3808,1,0,0:0:0:0:
256,192,3954,1,8,0:0:0:0:
256,192,4247,1,8,0:0:0:0:
256,192,4320,1,8,0:0:0:0:
256,192,4393,1,8,0:0:0:0:
256,192,4540,1,0,0:0:0:0:
256,192,4613,1,0,0:0:0:0:
256,192,4686,1,0,0:0:0:0:
256,192,4832,1,8,0:0:0:0:
256,192,4979,1,0,0:0:0:0:
256,192,5125,1,0,0:0:0:0:
256,192,5271,1,12,0:0:0:0:
256,192,5564,1,12,0:0:0:0:
256,192,5710,1,0,0:0:0:0:
256,192,5857,1,0,0:0:0:0:
256,192,6003,1,8,0:0:0:0:
256,192,6076,1,8,0:0:0:0:
256,192,6149,1,8,0:0:0:0:
256,192,6589,1,8,0:0:0:0:
256,192,6735,1,0,0:0:0:0:
256,192,6881,1,8,0:0:0:0:
256,192,7028,1,8,0:0:0:0:
256,192,7174,1,0,0:0:0:0:
256,192,7247,1,0,0:0:0:0:
256,192,7320,1,0,0:0:0:0:
256,192,7467,1,8,0:0:0:0:
256,192,7613,1,0,0:0:0:0:
256,192,7686,1,0,0:0:0:0:
256,192,7759,1,0,0:0:0:0:
256,192,7906,1,8,0:0:0:0:
256,192,8052,1,8,0:0:0:0:
256,192,8198,1,0,0:0:0:0:
256,192,8345,1,8,0:0:0:0:
256,192,8491,1,0,0:0:0:0:
256,192,8637,1,8,0:0:0:0:
256,192,8930,1,0,0:0:0:0:
256,192,9003,1,0,0:0:0:0:
256,192,9076,1,0,0:0:0:0:
256,192,9223,1,8,0:0:0:0:
256,192,9296,1,8,0:0:0:0:
256,192,9369,1,8,0:0:0:0:
256,192,9515,1,0,0:0:0:0:
256,192,11857,1,4,0:0:0:0:
256,192,12442,1,8,0:0:0:0:
256,192,13613,1,8,0:0:0:0:
256,192,14783,1,8,0:0:0:0:
256,192,15954,1,4,0:0:0:0:
256,192,16100,1,12,0:0:0:0:
256,192,16247,1,4,0:0:0:0:
256,192,16393,1,12,0:0:0:0:
256,192,16539,1,4,0:0:0:0:
256,192,16832,1,8,0:0:0:0:
256,192,17125,1,8,0:0:0:0:
256,192,17417,1,8,0:0:0:0:
256,192,17564,1,8,0:0:0:0:
256,192,17710,1,0,0:0:0:0:
256,192,18003,1,0,0:0:0:0:
256,192,18149,1,0,0:0:0:0:
256,192,18296,1,8,0:0:0:0:
256,192,18442,1,8,0:0:0:0:
256,192,18588,1,0,0:0:0:0:
256,192,18661,1,0,0:0:0:0:
256,192,18735,1,0,0:0:0:0:
256,192,18881,1,8,0:0:0:0:
256,192,19174,1,8,0:0:0:0:
256,192,19466,1,8,0:0:0:0:
256,192,19613,1,0,0:0:0:0:
256,192,19759,1,8,0:0:0:0:
256,192,19832,1,8,0:0:0:0:
256,192,19905,1,8,0:0:0:0:
256,192,20052,1,0,0:0:0:0:
256,192,20198,1,0,0:0:0:0:
256,192,20344,1,8,0:0:0:0:
256,192,20637,1,12,0:0:0:0:
256,192,20783,1,12,0:0:0:0:
256,192,20930,1,12,0:0:0:0:
256,192,21076,1,4,0:0:0:0:
256,192,22393,1,12,0:0:0:0:
256,192,22685,1,0,0:0:0:0:
256,192,22832,1,8,0:0:0:0:
256,192,23124,1,0,0:0:0:0:
256,192,23417,1,0,0:0:0:0:
256,192,23563,1,8,0:0:0:0:
256,192,23710,1,8,0:0:0:0:
256,192,24002,1,8,0:0:0:0:
256,192,24149,1,0,0:0:0:0:
256,192,24295,1,8,0:0:0:0:
256,192,24441,1,0,0:0:0:0:
256,192,24588,1,0,0:0:0:0:
256,192,24734,1,8,0:0:0:0:
256,192,25027,1,8,0:0:0:0:
256,192,25173,1,0,0:0:0:0:
256,192,25466,1,8,0:0:0:0:
256,192,25612,1,8,0:0:0:0:
256,192,25758,1,0,0:0:0:0:
256,192,25905,1,8,0:0:0:0:
256,192,26344,1,8,0:0:0:0:
256,192,26490,1,0,0:0:0:0:
256,192,26636,1,8,0:0:0:0:
256,192,26783,1,0,0:0:0:0:
256,192,26929,1,0,0:0:0:0:
256,192,27075,1,12,0:0:0:0:
256,192,27368,1,0,0:0:0:0:
256,192,27514,1,8,0:0:0:0:
256,192,27807,1,0,0:0:0:0:
256,192,28100,1,0,0:0:0:0:
256,192,28246,1,8,0:0:0:0:
256,192,28392,1,8,0:0:0:0:
256,192,28685,1,8,0:0:0:0:
256,192,28832,1,0,0:0:0:0:
256,192,28978,1,8,0:0:0:0:
256,192,29124,1,0,0:0:0:0:
256,192,29271,1,0,0:0:0:0:
256,192,29417,1,8,0:0:0:0:
256,192,29856,1,8,0:0:0:0:
256,192,30149,1,8,0:0:0:0:
256,192,30441,1,8,0:0:0:0:
256,192,30588,1,8,0:0:0:0:
256,192,30734,1,0,0:0:0:0:
256,192,30880,1,8,0:0:0:0:
256,192,31027,1,0,0:0:0:0:
256,192,31173,1,8,0:0:0:0:
256,192,31246,1,8,0:0:0:0:
256,192,31319,1,8,0:0:0:0:
256,192,31466,1,0,0:0:0:0:
256,192,31539,1,0,0:0:0:0:
256,192,31612,1,0,0:0:0:0:
256,192,31758,1,12,0:0:0:0:
256,192,32051,1,8,0:0:0:0:
256,192,32344,1,8,0:0:0:0:
256,192,32636,1,0,0:0:0:0:
256,192,32929,1,8,0:0:0:0:
256,192,33075,1,0,0:0:0:0:
256,192,33368,1,8,0:0:0:0:
256,192,33514,1,8,0:0:0:0:
256,192,34100,1,0,0:0:0:0:
256,192,34392,1,8,0:0:0:0:
256,192,34685,1,8,0:0:0:0:
256,192,34978,1,8,0:0:0:0:
256,192,35271,1,8,0:0:0:0:
256,192,35417,1,8,0:0:0:0:
256,192,35563,1,0,0:0:0:0:
256,192,35636,1,0,0:0:0:0:
256,192,35710,1,0,0:0:0:0:
256,192,35856,1,8,0:0:0:0:
256,192,36002,1,0,0:0:0:0:
256,192,36149,1,8,0:0:0:0:
256,192,36222,1,8,0:0:0:0:
256,192,36295,1,8,0:0:0:0:
256,192,36441,1,0,0:0:0:0:
256,192,36734,1,8,0:0:0:0:
256,192,37027,1,8,0:0:0:0:
256,192,37319,1,8,0:0:0:0:
256,192,37612,1,0,0:0:0:0:
256,192,37758,1,0,0:0:0:0:
256,192,37905,1,8,0:0:0:0:
256,192,38197,1,0,0:0:0:0:
256,192,38490,1,8,0:0:0:0:
256,192,39075,1,0,0:0:0:0:
256,192,39222,1,8,0:0:0:0:
256,192,39368,1,0,0:0:0:0:
256,192,39514,1,8,0:0:0:0:
256,192,39807,1,0,0:0:0:0:
256,192,39953,1,8,0:0:0:0:
256,192,40100,1,0,0:0:0:0:
256,192,40173,1,0,0:0:0:0:
256,192,40246,1,0,0:0:0:0:
256,192,40392,1,8,0:0:0:0:
256,192,40539,1,0,0:0:0:0:
256,192,40612,1,0,0:0:0:0:
256,192,40685,1,0,0:0:0:0:
256,192,40832,1,8,0:0:0:0:
256,192,40978,1,0,0:0:0:0:
256,192,41124,1,12,0:0:0:0:
256,192,41710,1,8,0:0:0:0:
256,192,42002,1,0,0:0:0:0:
256,192,42295,1,0,0:0:0:0:
256,192,42441,1,8,0:0:0:0:
256,192,42588,1,8,0:0:0:0:
256,192,42734,1,0,0:0:0:0:
256,192,42880,1,8,0:0:0:0:
256,192,43027,1,8,0:0:0:0:
256,192,43173,1,0,0:0:0:0:
256,192,43319,1,8,0:0:0:0:
256,192,43466,1,8,0:0:0:0:
256,192,43758,1,0,0:0:0:0:
256,192,44051,1,8,0:0:0:0:
256,192,44490,1,0,0:0:0:0:
256,192,44636,1,8,0:0:0:0:
256,192,44783,1,0,0:0:0:0:
256,192,45075,1,0,0:0:0:0:
256,192,45368,1,8,0:0:0:0:
256,192,45514,1,8,0:0:0:0:
256,192,45661,1,0,0:0:0:0:
256,192,45807,1,12,0:0:0:0:
256,192,46392,1,8,0:0:0:0:
256,192,46685,1,0,0:0:0:0:
256,192,46978,1,0,0:0:0:0:
256,192,47124,1,8,0:0:0:0:
256,192,47271,1,8,0:0:0:0:
256,192,47417,1,0,0:0:0:0:
256,192,47563,1,8,0:0:0:0:
256,192,47710,1,8,0:0:0:0:
256,192,47856,1,0,0:0:0:0:
256,192,48149,1,0,0:0:0:0:
256,192,48441,1,0,0:0:0:0:
256,192,48588,1,0,0:0:0:0:
256,192,48734,1,8,0:0:0:0:
256,192,49027,1,8,0:0:0:0:
256,192,49173,1,0,0:0:0:0:
256,192,49319,1,8,0:0:0:0:
256,192,49466,1,8,0:0:0:0:
256,192,49612,1,0,0:0:0:0:
256,192,49758,1,0,0:0:0:0:
256,192,49905,1,8,0:0:0:0:
256,192,50051,1,8,0:0:0:0:
256,192,50197,1,8,0:0:0:0:
256,192,50344,1,0,0:0:0:0:
256,192,50490,1,12,0:0:0:0:
256,192,51075,1,8,0:0:0:0:
256,192,51368,1,0,0:0:0:0:
256,192,51661,1,0,0:0:0:0:
256,192,51807,1,8,0:0:0:0:
256,192,51953,1,8,0:0:0:0:
256,192,52100,1,0,0:0:0:0:
256,192,52246,1,8,0:0:0:0:
256,192,52392,1,8,0:0:0:0:
256,192,52539,1,0,0:0:0:0:
256,192,52685,1,8,0:0:0:0:
256,192,52832,1,0,0:0:0:0:
256,192,53124,1,0,0:0:0:0:
256,192,53417,1,8,0:0:0:0:
256,192,53856,1,0,0:0:0:0:
256,192,54002,1,8,0:0:0:0:
256,192,54149,1,0,0:0:0:0:
256,192,54441,1,0,0:0:0:0:
256,192,54734,1,8,0:0:0:0:
256,192,54880,1,8,0:0:0:0:
256,192,55027,1,0,0:0:0:0:
256,192,55173,1,12,0:0:0:0:
256,192,55612,1,0,0:0:0:0:
256,192,55758,1,8,0:0:0:0:
256,192,56051,1,0,0:0:0:0:
256,192,56197,1,0,0:0:0:0:
256,192,56344,1,8,0:0:0:0:
256,192,56490,1,8,0:0:0:0:
256,192,56636,1,8,0:0:0:0:
256,192,56783,1,0,0:0:0:0:
256,192,56929,1,8,0:0:0:0:
256,192,57075,1,8,0:0:0:0:
256,192,57222,1,0,0:0:0:0:
256,192,57514,1,8,0:0:0:0:
256,192,57661,1,0,0:0:0:0:
256,192,57807,1,8,0:0:0:0:
256,192,57953,1,0,0:0:0:0:
256,192,58100,1,8,0:0:0:0:
256,192,58246,1,8,0:0:0:0:
256,192,58392,1,0,0:0:0:0:
256,192,58539,1,8,0:0:0:0:
256,192,58685,1,0,0:0:0:0:
256,192,58832,1,0,0:0:0:0:
256,192,58978,1,8,0:0:0:0:
256,192,59271,1,8,0:0:0:0:
256,192,59417,1,8,0:0:0:0:
256,192,59563,1,8,0:0:0:0:
256,192,59710,1,0,0:0:0:0:
256,192,59856,1,12,0:0:0:0:
256,192,60149,1,8,0:0:0:0:
256,192,60441,1,8,0:0:0:0:
256,192,60734,1,0,0:0:0:0:
256,192,61027,1,8,0:0:0:0:
256,192,61173,1,8,0:0:0:0:
256,192,61466,1,8,0:0:0:0:
256,192,61612,1,0,0:0:0:0:
256,192,61905,1,8,0:0:0:0:
256,192,62344,1,8,0:0:0:0:
256,192,62490,1,0,0:0:0:0:
256,192,62636,1,0,0:0:0:0:
256,192,62783,1,8,0:0:0:0:
256,192,63075,1,0,0:0:0:0:
256,192,63368,1,0,0:0:0:0:
256,192,63514,1,0,0:0:0:0:
256,192,63661,1,8,0:0:0:0:
256,192,63734,1,8,0:0:0:0:
256,192,63807,1,8,0:0:0:0:
256,192,63953,1,0,0:0:0:0:
256,192,64100,1,8,0:0:0:0:
256,192,64246,1,0,0:0:0:0:
256,192,64319,1,0,0:0:0:0:
256,192,64392,1,0,0:0:0:0:
256,192,64539,1,8,0:0:0:0:
256,192,64832,1,0,0:0:0:0:
256,192,65124,1,8,0:0:0:0:
256,192,65417,1,8,0:0:0:0:
256,192,65710,1,0,0:0:0:0:
256,192,65856,1,8,0:0:0:0:
256,192,66002,1,8,0:0:0:0:
256,192,66149,1,0,0:0:0:0:
256,192,66441,1,0,0:0:0:0:
256,192,66880,1,8,0:0:0:0:
256,192,67173,1,0,0:0:0:0:
256,192,67319,1,8,0:0:0:0:
256,192,67466,1,0,0:0:0:0:
256,192,67612,1,8,0:0:0:0:
256,192,67905,1,0,0:0:0:0:
256,192,67978,1,0,0:0:0:0:
256,192,68051,1,0,0:0:0:0:
256,192,68197,1,0,0:0:0:0:
256,192,68344,1,8,0:0:0:0:
256,192,68636,1,8,0:0:0:0:
256,192,68710,1,8,0:0:0:0:
256,192,68783,1,8,0:0:0:0:
256,192,68929,1,0,0:0:0:0:
256,192,69002,1,0,0:0:0:0:
256,192,69075,1,0,0:0:0:0:
256,192,69222,1,8,0:0:0:0:
256,192,69661,1,8,0:0:0:0:
256,192,69953,1,8,0:0:0:0:
256,192,70246,1,0,0:0:0:0:
256,192,70392,1,0,0:0:0:0:
256,192,70685,1,0,0:0:0:0:
256,192,70832,1,8,0:0:0:0:
256,192,70905,1,8,0:0:0:0:
256,192,70978,1,8,0:0:0:0:
256,192,71124,1,0,0:0:0:0:
256,192,71417,1,0,0:0:0:0:
256,192,71563,1,8,0:0:0:0:
256,192,71710,1,0,0:0:0:0:
256,192,71783,1,0,0:0:0:0:
256,192,71856,1,0,0:0:0:0:
256,192,72002,1,8,0:0:0:0:
256,192,72295,1,8,0:0:0:0:
256,192,72441,1,0,0:0:0:0:
256,192,72588,1,8,0:0:0:0:
256,192,72880,1,8,0:0:0:0:
256,192,73027,1,8,0:0:0:0:
256,192,73319,1,8,0:0:0:0:
256,192,73612,1,0,0:0:0:0:
256,192,73758,1,0,0:0:0:0:
256,192,73905,1,8,0:0:0:0:
256,192,74051,1,0,0:0:0:0:
256,192,74197,1,8,0:0:0:0:
256,192,74344,1,0,0:0:0:0:
256,192,74783,1,8,0:0:0:0:
256,192,75075,1,0,0:0:0:0:
256,192,75368,1,8,0:0:0:0:
256,192,75514,1,0,0:0:0:0:
256,192,75661,1,0,0:0:0:0:
256,192,75807,1,0,0:0:0:0:
256,192,75953,1,8,0:0:0:0:
256,192,76246,1,8,0:0:0:0:
256,192,76539,1,0,0:0:0:0:
256,192,76685,1,8,0:0:0:0:
256,192,76978,1,8,0:0:0:0:
256,192,77124,1,0,0:0:0:0:
256,192,77271,1,0,0:0:0:0:
256,192,77417,1,8,0:0:0:0:
256,192,77563,1,0,0:0:0:0:
256,192,77710,1,8,0:0:0:0:
256,192,77783,1,8,0:0:0:0:
256,192,77856,1,8,0:0:0:0:
256,192,78002,1,0,0:0:0:0:
256,192,78149,1,8,0:0:0:0:
256,192,78295,1,0,0:0:0:0:
256,192,78368,1,0,0:0:0:0:
256,192,78441,1,0,0:0:0:0:
256,192,78588,1,12,0:0:0:0:
256,192,79173,1,8,0:0:0:0:
256,192,79466,1,0,0:0:0:0:
256,192,79758,1,0,0:0:0:0:
256,192,79905,1,8,0:0:0:0:
256,192,80051,1,8,0:0:0:0:
256,192,80197,1,0,0:0:0:0:
256,192,80344,1,8,0:0:0:0:
256,192,80490,1,8,0:0:0:0:
256,192,80636,1,0,0:0:0:0:
256,192,80783,1,8,0:0:0:0:
256,192,80929,1,8,0:0:0:0:
256,192,81222,1,0,0:0:0:0:
256,192,81514,1,8,0:0:0:0:
256,192,81953,1,0,0:0:0:0:
256,192,82100,1,8,0:0:0:0:
256,192,82246,1,0,0:0:0:0:
256,192,82539,1,0,0:0:0:0:
256,192,82832,1,8,0:0:0:0:
256,192,82978,1,8,0:0:0:0:
256,192,83124,1,0,0:0:0:0:
256,192,83271,1,12,0:0:0:0:
256,192,83856,1,8,0:0:0:0:
256,192,84149,1,0,0:0:0:0:
256,192,84441,1,0,0:0:0:0:
256,192,84588,1,8,0:0:0:0:
256,192,84734,1,8,0:0:0:0:
256,192,84880,1,0,0:0:0:0:
256,192,85027,1,8,0:0:0:0:
256,192,85173,1,8,0:0:0:0:
256,192,85319,1,0,0:0:0:0:
256,192,85612,1,0,0:0:0:0:
256,192,85905,1,0,0:0:0:0:
256,192,86051,1,0,0:0:0:0:
256,192,86197,1,8,0:0:0:0:
256,192,86490,1,8,0:0:0:0:
256,192,86636,1,0,0:0:0:0:
256,192,86783,1,8,0:0:0:0:
256,192,86929,1,8,0:0:0:0:
256,192,87075,1,0,0:0:0:0:
256,192,87222,1,0,0:0:0:0:
256,192,87368,1,8,0:0:0:0:
256,192,87514,1,8,0:0:0:0:
256,192,87661,1,8,0:0:0:0:
256,192,87807,1,0,0:0:0:0:
256,192,87953,1,12,0:0:0:0:
256,192,88539,1,8,0:0:0:0:
256,192,88832,1,0,0:0:0:0:
256,192,89124,1,0,0:0:0:0:
256,192,89271,1,8,0:0:0:0:
256,192,89417,1,8,0:0:0:0:
256,192,89563,1,0,0:0:0:0:
256,192,89710,1,8,0:0:0:0:
256,192,89856,1,8,0:0:0:0:
256,192,90002,1,0,0:0:0:0:
256,192,90149,1,8,0:0:0:0:
256,192,90295,1,0,0:0:0:0:
256,192,90588,1,0,0:0:0:0:
256,192,90880,1,8,0:0:0:0:
256,192,91319,1,0,0:0:0:0:
256,192,91466,1,8,0:0:0:0:
256,192,91612,1,0,0:0:0:0:
256,192,91905,1,0,0:0:0:0:
256,192,92197,1,8,0:0:0:0:
256,192,92344,1,8,0:0:0:0:
256,192,92490,1,0,0:0:0:0:
256,192,92636,1,12,0:0:0:0:
256,192,93075,1,0,0:0:0:0:
256,192,93222,1,8,0:0:0:0:
256,192,93514,1,0,0:0:0:0:
256,192,93661,1,0,0:0:0:0:
256,192,93807,1,8,0:0:0:0:
256,192,93953,1,8,0:0:0:0:
256,192,94100,1,8,0:0:0:0:
256,192,94246,1,0,0:0:0:0:
256,192,94392,1,8,0:0:0:0:
256,192,94539,1,8,0:0:0:0:
256,192,94685,1,0,0:0:0:0:
256,192,94978,1,8,0:0:0:0:
256,192,95271,1,0,0:0:0:0:
256,192,95417,1,0,0:0:0:0:
256,192,95563,1,8,0:0:0:0:
256,192,95710,1,8,0:0:0:0:
256,192,95856,1,0,0:0:0:0:
256,192,96002,1,8,0:0:0:0:
256,192,96149,1,0,0:0:0:0:
256,192,96295,1,0,0:0:0:0:
256,192,96441,1,8,0:0:0:0:
256,192,96734,1,8,0:0:0:0:
256,192,96880,1,8,0:0:0:0:
256,192,97027,1,8,0:0:0:0:
256,192,97173,1,0,0:0:0:0:
256,192,97319,1,12,0:0:0:0:
256,192,97466,1,0,0:0:0:0:
256,192,97612,1,0,0:0:0:0:
256,192,97758,1,12,0:0:0:0:
256,192,97905,1,0,0:0:0:0:
256,192,98197,1,12,0:0:0:0:
256,192,98783,1,0,0:0:0:0:
256,192,98929,1,0,0:0:0:0:
256,192,99075,1,12,0:0:0:0:
256,192,99368,1,0,0:0:0:0:
256,192,99514,1,0,0:0:0:0:
256,192,99661,5,12,0:0:0:0:
256,192,99807,1,0,0:0:0:0:
256,192,100100,1,0,0:0:0:0:
256,192,100246,1,8,0:0:0:0:
256,192,100392,1,0,0:0:0:0:
256,192,100539,1,0,0:0:0:0:
256,192,100685,1,0,0:0:0:0:
256,192,100978,1,0,0:0:0:0:
256,192,101271,1,8,0:0:0:0:
256,192,101417,1,8,0:0:0:0:
256,192,101563,1,0,0:0:0:0:
256,192,101710,1,0,0:0:0:0:
256,192,102002,1,12,0:0:0:0:
256,192,102149,1,0,0:0:0:0:
256,192,102295,1,0,0:0:0:0:
256,192,102441,1,12,0:0:0:0:
256,192,102588,1,0,0:0:0:0:
256,192,102880,1,12,0:0:0:0:
256,192,103466,1,0,0:0:0:0:
256,192,103612,1,0,0:0:0:0:
256,192,103758,1,12,0:0:0:0:
256,192,104051,1,0,0:0:0:0:
256,192,104197,1,0,0:0:0:0:
256,192,104344,1,12,0:0:0:0:
256,192,104490,1,0,0:0:0:0:
256,192,104783,1,0,0:0:0:0:
256,192,104929,1,8,0:0:0:0:
256,192,105075,1,0,0:0:0:0:
256,192,105222,1,0,0:0:0:0:
256,192,105368,1,0,0:0:0:0:
256,192,105661,1,0,0:0:0:0:
256,192,105953,1,0,0:0:0:0:
256,192,106100,1,8,0:0:0:0:
256,192,106246,1,8,0:0:0:0:
256,192,106392,1,8,0:0:0:0:
256,192,106539,1,8,0:0:0:0:
256,192,106685,1,4,0:0:0:0:
256,192,106832,1,0,0:0:0:0:
256,192,106978,1,8,0:0:0:0:
256,192,107124,1,0,0:0:0:0:
256,192,107417,1,8,0:0:0:0:
256,192,107563,1,0,0:0:0:0:
256,192,107710,1,8,0:0:0:0:
256,192,108002,1,0,0:0:0:0:
256,192,108149,1,8,0:0:0:0:
256,192,108441,1,8,0:0:0:0:
256,192,108880,1,8,0:0:0:0:
256,192,109027,1,0,0:0:0:0:
256,192,109319,1,0,0:0:0:0:
256,192,109466,1,8,0:0:0:0:
256,192,109758,1,8,0:0:0:0:
256,192,109905,1,0,0:0:0:0:
256,192,110051,1,0,0:0:0:0:
256,192,110344,1,8,0:0:0:0:
256,192,110490,1,0,0:0:0:0:
256,192,110783,1,0,0:0:0:0:
256,192,111222,1,0,0:0:0:0:
256,192,111368,1,8,0:0:0:0:
256,192,111514,1,0,0:0:0:0:
256,192,111661,1,0,0:0:0:0:
256,192,111807,1,8,0:0:0:0:
256,192,112100,1,8,0:0:0:0:
256,192,112392,1,0,0:0:0:0:
256,192,112685,1,0,0:0:0:0:
256,192,112832,1,8,0:0:0:0:
256,192,112978,1,8,0:0:0:0:
256,192,113124,1,0,0:0:0:0:
256,192,113563,1,8,0:0:0:0:
256,192,113710,1,8,0:0:0:0:
256,192,113856,1,0,0:0:0:0:
256,192,114002,1,0,0:0:0:0:
256,192,114149,1,8,0:0:0:0:
256,192,114441,1,8,0:0:0:0:
256,192,114588,1,0,0:0:0:0:
256,192,114734,1,0,0:0:0:0:
256,192,114880,1,8,0:0:0:0:
256,192,114953,1,8,0:0:0:0:
256,192,115027,1,8,0:0:0:0:
256,192,115173,1,0,0:0:0:0:
256,192,115319,1,0,0:0:0:0:
256,192,115466,1,8,0:0:0:0:
256,192,115539,1,8,0:0:0:0:
256,192,115612,1,8,0:0:0:0:
256,192,115758,1,0,0:0:0:0:
256,192,115905,1,8,0:0:0:0:
256,192,116051,1,4,0:0:0:0:
256,192,116344,1,8,0:0:0:0:
256,192,116636,1,0,0:0:0:0:
256,192,116783,1,8,0:0:0:0:
256,192,116929,1,0,0:0:0:0:
256,192,117222,1,8,0:0:0:0:
256,192,117368,1,8,0:0:0:0:
256,192,117514,1,0,0:0:0:0:
256,192,117661,1,8,0:0:0:0:
256,192,118100,1,0,0:0:0:0:
256,192,118246,1,0,0:0:0:0:
256,192,118392,1,8,0:0:0:0:
256,192,118685,1,0,0:0:0:0:
256,192,118978,1,8,0:0:0:0:
256,192,119271,1,8,0:0:0:0:
256,192,119563,1,0,0:0:0:0:
256,192,119710,1,0,0:0:0:0:
256,192,119856,1,8,0:0:0:0:
256,192,120002,1,0,0:0:0:0:
256,192,120441,1,8,0:0:0:0:
256,192,120588,1,8,0:0:0:0:
256,192,120734,1,0,0:0:0:0:
256,192,120880,1,0,0:0:0:0:
256,192,121027,1,8,0:0:0:0:
256,192,121319,1,8,0:0:0:0:
256,192,121466,1,0,0:0:0:0:
256,192,121612,1,0,0:0:0:0:
256,192,121905,1,8,0:0:0:0:
256,192,122197,1,0,0:0:0:0:
256,192,122344,1,8,0:0:0:0:
256,192,122490,1,0,0:0:0:0:
256,192,122783,1,0,0:0:0:0:
256,192,123368,1,0,0:0:0:0:
256,192,123661,1,8,0:0:0:0:
256,192,123953,1,0,0:0:0:0:
256,192,124246,1,0,0:0:0:0:
256,192,124319,1,0,0:0:0:0:
256,192,124392,1,0,0:0:0:0:
256,192,124539,1,8,0:0:0:0:
256,192,124685,1,8,0:0:0:0:
256,192,124832,1,0,0:0:0:0:
256,192,124905,1,0,0:0:0:0:
256,192,124978,1,0,0:0:0:0:
256,192,125124,1,8,0:0:0:0:
256,192,125271,1,0,0:0:0:0:
256,192,125417,1,8,0:0:0:0:
256,192,125563,1,0,0:0:0:0:
256,192,125710,1,0,0:0:0:0:
256,192,125856,1,8,0:0:0:0:
256,192,126149,1,8,0:0:0:0:
256,192,126295,1,0,0:0:0:0:
256,192,126441,1,8,0:0:0:0:
256,192,126588,1,0,0:0:0:0:
256,192,126661,1,0,0:0:0:0:
256,192,126734,1,0,0:0:0:0:
256,192,127173,1,8,0:0:0:0:
256,192,127319,1,0,0:0:0:0:
256,192,127466,1,8,0:0:0:0:
256,192,127758,1,0,0:0:0:0:
256,192,127905,1,8,0:0:0:0:
256,192,128197,1,8,0:0:0:0:
256,192,128344,1,0,0:0:0:0:
256,192,128490,1,0,0:0:0:0:
256,192,128636,1,8,0:0:0:0:
256,192,128783,1,8,0:0:0:0:
256,192,128929,1,0,0:0:0:0:
256,192,129075,1,0,0:0:0:0:
256,192,129222,1,8,0:0:0:0:
256,192,129514,1,8,0:0:0:0:
256,192,129588,1,8,0:0:0:0:
256,192,129661,1,8,0:0:0:0:
256,192,129807,1,0,0:0:0:0:
256,192,129880,1,0,0:0:0:0:
256,192,129953,1,0,0:0:0:0:
256,192,130100,1,8,0:0:0:0:
256,192,130246,1,0,0:0:0:0:
256,192,130392,1,0,0:0:0:0:
256,192,130539,1,8,0:0:0:0:
256,192,130832,1,8,0:0:0:0:
256,192,130978,1,0,0:0:0:0:
256,192,131124,1,8,0:0:0:0:
256,192,131271,1,0,0:0:0:0:
256,192,131344,1,0,0:0:0:0:
256,192,131417,1,0,0:0:0:0:
256,192,131856,1,8,0:0:0:0:
256,192,132002,1,8,0:0:0:0:
256,192,132149,1,0,0:0:0:0:
256,192,132222,1,0,0:0:0:0:
256,192,132295,1,0,0:0:0:0:
256,192,132441,1,8,0:0:0:0:
256,192,132588,1,0,0:0:0:0:
256,192,132661,1,0,0:0:0:0:
256,192,132734,1,0,0:0:0:0:
256,192,132880,1,8,0:0:0:0:
256,192,133027,1,0,0:0:0:0:
256,192,133319,1,8,0:0:0:0:
256,192,133466,1,0,0:0:0:0:
256,192,133612,1,8,0:0:0:0:
256,192,133758,1,8,0:0:0:0:
256,192,133905,1,8,0:0:0:0:
256,192,134051,1,0,0:0:0:0:
256,192,134197,1,0,0:0:0:0:
256,192,134271,1,0,0:0:0:0:
256,192,134344,1,0,0:0:0:0:
256,192,134490,1,8,0:0:0:0:
256,192,134563,1,8,0:0:0:0:
256,192,134636,1,8,0:0:0:0:
256,192,134783,1,0,0:0:0:0:
256,192,138149,1,0,0:0:0:0:
256,192,138295,1,12,0:0:0:0:
256,192,138441,1,0,0:0:0:0:
256,192,138734,1,0,0:0:0:0:
256,192,138880,1,12,0:0:0:0:
256,192,139027,1,0,0:0:0:0:
256,192,139466,1,8,0:0:0:0:
256,192,139612,1,0,0:0:0:0:
256,192,140051,1,8,0:0:0:0:
256,192,140197,1,0,0:0:0:0:
256,192,140636,1,8,0:0:0:0:
256,192,140783,1,0,0:0:0:0:
256,192,141222,1,8,0:0:0:0:
256,192,141368,1,0,0:0:0:0:
256,192,141514,1,0,0:0:0:0:
256,192,141661,1,0,0:0:0:0:
256,192,141807,1,8,0:0:0:0:
256,192,142100,1,0,0:0:0:0:
256,192,142246,1,0,0:0:0:0:
256,192,142392,1,8,0:0:0:0:
256,192,142539,1,0,0:0:0:0:
256,192,142978,1,8,0:0:0:0:
256,192,143124,1,0,0:0:0:0:
256,192,143417,1,0,0:0:0:0:
256,192,143563,1,8,0:0:0:0:
256,192,143710,1,0,0:0:0:0:
256,192,144002,1,0,0:0:0:0:
256,192,144149,1,8,0:0:0:0:
256,192,144295,1,0,0:0:0:0:
256,192,144734,1,8,0:0:0:0:
256,192,144880,1,0,0:0:0:0:
256,192,145319,1,8,0:0:0:0:
256,192,145466,1,0,0:0:0:0:
256,192,145905,1,8,0:0:0:0:
256,192,146051,1,0,0:0:0:0:
256,192,146197,1,0,0:0:0:0:
256,192,146344,1,0,0:0:0:0:
256,192,146490,1,8,0:0:0:0:
256,192,146783,1,0,0:0:0:0:
256,192,146929,1,0,0:0:0:0:
256,192,147075,1,8,0:0:0:0:
256,192,147222,1,0,0:0:0:0:
256,192,147661,1,8,0:0:0:0:
256,192,147807,1,0,0:0:0:0:
256,192,148100,1,0,0:0:0:0:
256,192,148246,1,8,0:0:0:0:
256,192,148392,1,0,0:0:0:0:
256,192,148685,1,0,0:0:0:0:
256,192,148832,1,8,0:0:0:0:
256,192,148978,1,0,0:0:0:0:
256,192,149271,1,0,0:0:0:0:
256,192,149417,1,8,0:0:0:0:
256,192,149563,1,8,0:0:0:0:
256,192,149710,1,8,0:0:0:0:
256,192,149856,1,0,0:0:0:0:
256,192,150002,1,8,0:0:0:0:
256,192,150149,1,0,0:0:0:0:
256,192,150588,1,8,0:0:0:0:
256,192,150734,1,8,0:0:0:0:
256,192,150880,1,0,0:0:0:0:
256,192,151027,1,0,0:0:0:0:
256,192,151173,1,8,0:0:0:0:
256,192,151466,1,0,0:0:0:0:
256,192,151612,1,0,0:0:0:0:
256,192,151758,1,8,0:0:0:0:
256,192,151905,1,0,0:0:0:0:
256,192,152344,1,8,0:0:0:0:
256,192,152490,1,0,0:0:0:0:
256,192,152783,1,0,0:0:0:0:
256,192,152929,1,8,0:0:0:0:
256,192,153075,1,0,0:0:0:0:
256,192,153368,1,0,0:0:0:0:
256,192,153514,1,8,0:0:0:0:
256,192,153661,1,0,0:0:0:0:
256,192,154100,1,8,0:0:0:0:
256,192,154246,1,0,0:0:0:0:
256,192,154685,1,8,0:0:0:0:
256,192,154832,1,0,0:0:0:0:
256,192,155271,1,8,0:0:0:0:
256,192,155417,1,0,0:0:0:0:
256,192,155563,1,0,0:0:0:0:
256,192,155710,1,0,0:0:0:0:
256,192,155856,1,8,0:0:0:0:
256,192,156149,1,0,0:0:0:0:
256,192,156295,1,0,0:0:0:0:
256,192,156441,1,8,0:0:0:0:
256,192,156588,1,0,0:0:0:0:
256,192,157027,1,8,0:0:0:0:
256,192,157173,1,0,0:0:0:0:
256,192,157466,1,0,0:0:0:0:
256,192,157612,1,8,0:0:0:0:
256,192,157758,1,0,0:0:0:0:
256,192,158051,1,0,0:0:0:0:
256,192,158197,1,8,0:0:0:0:
256,192,158490,1,0,0:0:0:0:
256,192,158685,1,0,0:0:0:0:
256,192,158783,1,8,0:0:0:0:
256,192,159075,1,0,0:0:0:0:
256,192,159271,1,0,0:0:0:0:
256,192,159368,1,8,0:0:0:0:
256,192,159661,1,0,0:0:0:0:
256,192,159856,1,0,0:0:0:0:
256,192,159953,1,8,0:0:0:0:
256,192,160149,1,0,0:0:0:0:
256,192,160246,1,8,0:0:0:0:
256,192,160441,1,0,0:0:0:0:
256,192,160539,1,8,0:0:0:0:
256,192,160832,1,0,0:0:0:0:
256,192,161027,1,0,0:0:0:0:
256,192,161124,1,8,0:0:0:0:
256,192,161417,1,0,0:0:0:0:
256,192,161612,1,0,0:0:0:0:
256,192,161710,1,8,0:0:0:0:
256,192,162002,1,0,0:0:0:0:
256,192,162197,1,0,0:0:0:0:
256,192,162295,1,8,0:0:0:0:
256,192,162490,1,0,0:0:0:0:
256,192,162588,1,8,0:0:0:0:
256,192,162783,1,0,0:0:0:0:
256,192,162880,1,8,0:0:0:0:
256,192,163173,1,0,0:0:0:0:
256,192,163466,1,8,0:0:0:0:
256,192,163758,1,0,0:0:0:0:
256,192,164051,1,8,0:0:0:0:
256,192,164344,1,0,0:0:0:0:
256,192,164636,1,8,0:0:0:0:
256,192,164832,1,0,0:0:0:0:
256,192,164929,1,8,0:0:0:0:
256,192,165124,1,0,0:0:0:0:
256,192,165222,1,8,0:0:0:0:
256,192,165514,1,0,0:0:0:0:
256,192,165807,1,8,0:0:0:0:
256,192,166100,1,0,0:0:0:0:
256,192,166392,1,8,0:0:0:0:
256,192,166685,1,0,0:0:0:0:
256,192,166978,1,8,0:0:0:0:
256,192,167271,1,8,0:0:0:0:
256,192,167368,1,0,0:0:0:0:
256,192,167466,1,8,0:0:0:0:
256,192,167563,1,8,0:0:0:0:
