osu file format v14

[General]
AudioFilename: audio.mp3
AudioLeadIn: 0
PreviewTime: 84886
Countdown: 0
SampleSet: Soft
StackLeniency: 0.3
Mode: 0
LetterboxInBreaks: 0
WidescreenStoryboard: 1

[Editor]
Bookmarks: 19386,24186,33786,45786,64986,74586,81786,84186,110586,121786,127786,138586
DistanceSpacing: 1.1
BeatDivisor: 4
GridSize: 8
TimelineZoom: 1

[Metadata]
Title:Noose (Cut Ver.)
TitleUnicode:Noose (Cut Ver.)
Artist:ovEnola
ArtistUnicode:ovEnola
Creator:BOUYAAA
Version:Hard
Source:
Tags:Death Black Metal Nu Metalcore Nu-Metalcore Hard Rock Left Behind Milan- Milan The Execution of Lady Jane Grey Paul Delaroche English
BeatmapID:2791507
BeatmapSetID:1348020

[Difficulty]
HPDrainRate:5
CircleSize:4
OverallDifficulty:7
ApproachRate:8
SliderMultiplier:1.4
SliderTickRate:1

[Events]
//Background and Video events
0,0,"1566771259434.jpg",0,0
//Break Periods
//Storyboard Layer 0 (Background)
//Storyboard Layer 1 (Fail)
//Storyboard Layer 2 (Pass)
//Storyboard Layer 3 (Foreground)
//Storyboard Layer 4 (Overlay)
//Storyboard Sound Samples

[TimingPoints]
9814,300,4,2,1,70,1,0
33814,-100,4,2,1,70,0,1
42214,-100,4,2,1,70,0,0
44436,-100,4,2,1,70,0,0
45786,-100,4,2,1,70,0,0
65014,-83.3333333333333,4,2,1,70,0,1
73414,-83.3333333333333,4,2,1,70,0,0
74614,-83.3333333333333,4,2,1,70,0,1
81814,400,4,2,1,70,1,0
84186,-83.3333333333333,4,2,1,70,0,0
93786,-76.9230769230769,4,2,1,70,0,0
94186,-83.3333333333333,4,2,1,70,0,0
95386,-71.4285714285714,4,2,1,70,0,0
95786,-83.3333333333333,4,2,1,70,0,0
106586,-76.9230769230769,4,2,1,70,0,0
106986,-83.3333333333333,4,2,1,70,0,0
108186,-71.4285714285714,4,2,1,70,0,0
108586,-83.3333333333333,4,2,1,70,0,0
110614,400,3,2,1,70,1,0
110614,-83.3333333333333,4,2,1,70,0,0
114214,400,5,2,1,70,1,0
114214,-83.3333333333333,5,2,1,70,0,0
116214,400,3,2,1,70,1,0
116214,-83.3333333333333,3,2,1,70,0,0
119814,400,5,2,1,70,1,0
119814,-83.3333333333333,5,2,1,70,0,0
121814,300,4,2,1,70,1,0
127814,-100,4,2,1,70,0,1
138614,-100,4,2,1,70,0,0

[Colours]
Combo1 : 198,215,214
Combo2 : 209,171,203
Combo3 : 201,155,154
Combo4 : 227,177,140

[HitObjects]
93,180,19414,6,0,B|90:207|90:207|102:224|102:224|120:271,1,70,4|0,1:2|0:0,0:0:0:0:
168,160,19714,2,0,B|183:182|183:182|181:203|181:203|184:225,1,70,4|0,1:2|0:0,0:0:0:0:
276,333,21814,5,8,0:3:0:0:
284,326,21889,1,8,0:3:0:0:
294,322,21964,2,0,P|323:328|346:335,2,35,8|8|8,0:0|0:0|0:0,0:0:0:0:
426,347,22264,2,0,B|432:336|432:336|426:309,3,35,4|4|8|8,0:3|0:3|0:3|0:3,0:0:0:0:
419,288,22564,2,0,B|414:272|414:272|382:248,4,35,8|8|4|4|4,0:3|0:3|0:3|0:3|0:3,0:0:0:0:
274,235,23014,5,8,1:2:0:0:
222,177,23164,2,0,B|206:155|206:155|204:131|204:131|183:84,1,70,4|0,1:2|0:0,0:0:0:0:
129,39,23464,2,0,B|116:62|116:62|112:85|112:85|86:120,1,70,4|0,1:2|0:0,0:0:0:0:
45,180,23764,2,0,B|67:198|67:198|97:209|97:209|109:243,1,70,4|0,1:2|0:0,0:0:0:0:
80,293,24064,1,0,1:0:0:0:
191,328,24214,6,0,B|208:344|208:344|218:370|218:370|232:383,2,70,4|0|0,1:0|1:0|1:0,0:0:0:0:
191,250,24664,1,0,1:0:0:0:
258,212,24814,2,0,P|302:222|336:256,1,70,12|0,1:2|1:0,0:0:0:0:
361,302,25114,2,0,P|408:298|435:288,1,70,0|0,1:0|1:0,0:0:0:0:
474,167,25414,6,0,B|481:131|481:131|502:95,2,70,0|0|0,1:0|1:0|1:0,0:0:0:0:
501,239,25864,1,0,1:0:0:0:
401,200,26014,2,0,B|377:175|377:175|363:112,1,70,12|0,1:2|1:0,0:0:0:0:
377,63,26314,2,0,B|362:52|362:52|278:39,1,70,0|0,1:0|1:0,0:0:0:0:
208,112,26614,6,0,L|191:193,2,70,0|0|0,1:0|1:0|1:0,0:0:0:0:
181,39,27064,1,0,1:0:0:0:
114,77,27214,2,0,B|100:87|100:87|25:98,1,70,12|0,1:2|1:2,0:0:0:0:
16,165,27514,2,0,L|94:184,1,70,0|0,1:0|1:0,0:0:0:0:
180,257,27814,6,0,B|210:261|210:261|249:251,2,70,0|0|0,1:0|1:0|1:0,0:0:0:0:
107,284,28264,1,0,1:0:0:0:
160,339,28414,2,0,B|181:342|181:342|247:378,1,70,12|0,1:2|1:0,0:0:0:0:
300,368,28714,2,0,L|386:348,1,70,0|0,1:0|1:0,0:0:0:0:
486,298,29014,6,0,B|498:307|498:307|517:378,2,70,4|0|0,1:0|1:0|1:0,0:0:0:0:
417,262,29464,1,0,1:0:0:0:
416,185,29614,2,0,L|500:172,1,70,12|0,1:2|1:0,0:0:0:0:
462,100,29914,2,0,B|443:99|443:99|430:101|430:101|365:98,1,70,0|0,1:0|1:0,0:0:0:0:
242,73,30214,6,0,B|231:63|231:63|230:32|230:32|248:1,2,70,0|0|0,1:0|1:0|1:0,0:0:0:0:
290,132,30664,1,0,1:0:0:0:
233,207,30814,2,0,L|241:287,1,70,8|0,1:2|1:0,0:0:0:0:
166,301,31114,2,0,B|137:292|137:292|114:255,1,70,4|0,1:2|1:0,0:0:0:0:
69,157,31414,6,0,L|-1:162,2,70,4|0|4,1:0|1:0|1:2,0:0:0:0:
143,178,31864,1,0,1:0:0:0:
120,98,32014,2,0,B|102:72|102:72|85:29,1,70,8|0,1:2|1:0,0:0:0:0:
216,17,32314,2,0,B|211:66|211:66|203:88|203:88|204:115,1,70,4|0,1:2|1:0,0:0:0:0:
263,163,32614,5,8,1:2:0:0:
263,163,32689,1,8,0:0:0:0:
263,163,32764,2,0,B|279:168|279:168|350:176,1,70,8|4,0:0|0:0,0:0:0:0:
403,139,33064,1,8,0:0:0:0:
403,139,33139,1,8,0:0:0:0:
403,139,33214,2,0,B|420:137|420:137|476:157,1,70,8|4,0:0|1:2,0:0:0:0:
476,238,33514,2,0,L|470:283,3,35,8|8|8|8,0:0|0:0|0:0|0:0,0:0:0:0:
464,303,33814,6,0,B|442:322|442:322|375:334,1,70,4|8,1:2|0:2,0:0:0:0:
320,331,34114,1,0,1:0:0:0:
312,323,34189,1,0,1:0:0:0:
304,314,34264,1,8,1:2:0:0:
230,338,34414,2,0,B|210:346|210:346|151:357,2,70,0|8|0,1:0|0:0|1:2,0:0:0:0:
217,262,34864,1,8,1:2:0:0:
142,241,35014,6,0,B|132:216|132:216|135:200|135:200|116:180|116:180|113:164|113:164|83:116,1,140,0|0,1:0|1:0,0:0:0:0:
78,116,35389,1,0,0:0:0:0:
71,113,35464,1,8,0:0:0:0:
121,49,35614,2,0,B|159:54|159:54|173:66|173:66|211:85,1,70,0|8,1:0|0:0,0:0:0:0:
288,44,35914,2,0,P|299:27|305:2,2,35,0|0|8,1:0|1:0|1:2,0:0:0:0:
261,140,36214,6,0,B|269:167|269:167|282:187|282:187|317:272,1,140,0|0,1:0|1:0,0:0:0:0:
314,280,36589,1,0,1:0:0:0:
310,290,36664,1,8,1:2:0:0:
391,228,36814,2,0,B|409:221|409:221|461:212,1,70,0|8,1:0|0:0,0:0:0:0:
483,107,37114,2,0,B|489:90|489:90|503:69,2,35,0|0|8,1:0|1:0|1:2,0:0:0:0:
401,134,37414,6,0,B|387:97|387:97|392:73|392:73|375:45|375:45|370:-8,1,140,0|0,1:0|1:0,0:0:0:0:
357,3,37789,1,0,1:0:0:0:
343,5,37864,1,8,1:2:0:0:
267,22,38014,2,0,B|246:31|246:31|179:38,1,70,0|8,1:0|0:0,0:0:0:0:
141,88,38314,2,0,B|127:86|127:86|117:79|117:79|96:78,2,35,0|0|8,1:0|1:0|1:2,0:0:0:0:
192,171,38614,6,0,B|153:187|153:187|111:186,1,70,0|8,1:0|0:2,0:0:0:0:
30,168,38914,2,0,B|23:161|23:161|16:134,2,35,0|0|8,1:0|1:0|1:2,0:0:0:0:
60,238,39214,1,0,1:0:0:0:
27,307,39364,1,8,0:0:0:0:
92,347,39514,2,0,B|99:354|99:354|124:389,2,35,0|0|8,1:0|1:0|1:2,0:0:0:0:
164,286,39814,6,0,B|216:280|216:280|231:290|231:290|304:298,1,140,0|0,1:0|1:0,0:0:0:0:
311,296,40189,1,0,1:0:0:0:
321,294,40264,1,8,1:2:0:0:
384,250,40414,2,0,B|409:246|409:246|471:263,1,70,0|8,1:0|0:2,0:0:0:0:
486,183,40714,2,0,B|491:167|491:167|508:152,2,35,0|0|8,1:0|1:0|1:2,0:0:0:0:
377,142,41014,6,0,L|366:56,1,70,0|8,1:0|0:0,0:0:0:0:
302,31,41314,2,0,B|291:13|291:13|292:-8,2,35,0|0|8,1:0|1:0|1:2,0:0:0:0:
273,102,41614,1,0,1:0:0:0:
198,121,41764,1,8,0:0:0:0:
129,156,41914,2,0,B|129:168|129:168|141:208,2,35,0|0|8,1:0|1:0|1:2,0:0:0:0:
84,65,42214,5,8,0:0:0:0:
25,115,42364,2,0,B|14:130|15:130|27:193,1,70,4|0,1:2|0:0,0:0:0:0:
68,246,42664,2,0,L|33:394,2,140,4|4|0,1:2|1:2|1:2,0:0:0:0:
179,213,43414,5,8,0:0:0:0:
240,258,43564,2,0,B|255:271|255:271|264:307|264:307|286:330,1,70,4|0,1:2|0:0,0:0:0:0:
343,348,43864,2,0,L|492:333,2,140,4|4|4,1:2|1:2|1:2,0:0:0:0:
236,154,45814,5,4,1:0:0:0:
308,190,45964,1,0,1:0:0:0:
382,162,46114,2,0,B|401:152|401:152|431:152|431:152|466:138,1,70,0|0,1:0|1:0,0:0:0:0:
218,18,47014,5,8,0:0:0:0:
254,86,47164,2,0,B|255:100|255:100|224:160,1,70,0|0,1:0|0:0,0:0:0:0:
146,185,47464,2,0,B|134:152|134:152|138:138|138:138|104:50,1,140,0|0,1:0|1:0,0:0:0:0:
94,52,47839,1,0,1:0:0:0:
83,51,47914,1,0,1:0:0:0:
16,102,48064,1,0,1:0:0:0:
83,253,48364,6,0,B|68:259|68:259|-1:270,2,70,8|0|0,0:0|1:0|1:0,0:0:0:0:
149,214,48814,1,8,0:0:0:0:
178,285,48964,1,0,1:0:0:0:
357,310,49414,6,0,B|362:318|362:318|351:380,2,70,8|0|0,0:0|1:0|1:0,0:0:0:0:
312,248,49864,1,0,1:3:0:0:
384,207,50014,2,0,L|468:218,1,70,0|8,1:3|0:3,0:0:0:0:
491,145,50314,2,0,B|503:132|503:132|496:69,1,70,0|8,1:3|0:3,0:0:0:0:
370,31,50614,6,0,B|373:40|373:40|351:119,2,70,4|0|0,1:0|1:0|1:0,0:0:0:0:
291,15,51064,1,0,1:0:0:0:
176,130,51814,5,8,0:0:0:0:
140,63,51964,2,0,B|130:61|130:61|58:73,1,70,0|0,1:0|0:0,0:0:0:0:
20,144,52264,2,0,B|44:169|44:169|45:244|45:244|68:271,1,140,0|0,1:0|1:0,0:0:0:0:
75,268,52639,1,0,1:0:0:0:
85,266,52714,1,0,1:0:0:0:
165,298,52864,1,0,1:0:0:0:
333,357,53164,6,0,B|341:360|341:360|406:370,2,70,8|0|0,0:0|1:0|1:0,0:0:0:0:
317,275,53614,1,8,0:0:0:0:
328,266,53764,1,0,1:0:0:0:
434,170,54214,5,8,0:0:0:0:
492,229,54364,2,0,B|480:240|480:240|420:264,1,70,0|0,1:0|1:0,0:0:0:0:
347,181,54664,2,0,B|347:141|347:141|353:132|353:132|370:93,1,70,8|0,0:3|1:0,0:0:0:0:
436,48,54964,2,0,B|397:47|397:47|358:37|358:37|288:49,1,140,8|0,0:3|1:0,0:0:0:0:
238,142,55414,6,0,B|243:151|243:151|235:212,2,70,4|0|0,1:0|1:0|1:0,0:0:0:0:
178,89,55864,1,0,1:0:0:0:
43,234,56614,5,8,0:0:0:0:
14,162,56764,2,0,B|22:152|22:152|78:140,1,70,0|0,1:0|0:0,0:0:0:0:
144,219,57064,2,0,B|132:244|132:244|144:327|144:327|130:353,1,140,0|0,1:0|1:0,0:0:0:0:
120,354,57439,1,0,1:0:0:0:
109,354,57514,1,0,1:0:0:0:
223,306,57664,2,0,L|317:321,1,70,0|0,1:0|0:0,0:0:0:0:
386,282,57964,6,0,B|444:272|444:272|464:281,2,70,8|0|0,0:0|1:0|1:0,0:0:0:0:
314,241,58414,2,0,B|307:229|307:229|315:167,1,70,8|0,0:0|1:0,0:0:0:0:
469,31,59014,6,0,B|450:32|450:32|419:57|419:57|399:57,1,70,8|0,0:0|1:0,0:0:0:0:
335,30,59314,1,0,1:0:0:0:
270,72,59464,2,0,L|179:79,1,70,8|0,0:3|1:0,0:0:0:0:
108,73,59764,2,0,B|101:68|101:68|82:8,2,70,8|0|0,0:3|1:0|1:0,0:0:0:0:
110,191,60214,6,0,B|96:192|96:192|23:207,2,70,0|0|0,1:0|1:0|1:0,0:0:0:0:
183,230,60664,1,0,1:0:0:0:
253,349,61414,5,8,0:0:0:0:
316,302,61564,2,0,B|328:299|328:299|404:312,1,70,0|0,1:0|0:0,0:0:0:0:
468,291,61864,2,0,B|457:261|457:261|394:214|394:214|377:182,1,140,0|0,1:0|1:0,0:0:0:0:
386,179,62239,1,0,1:0:0:0:
392,170,62314,1,0,1:0:0:0:
459,119,62464,1,0,1:0:0:0:
312,64,62764,6,0,B|305:50|305:50|325:-4,2,70,8|0|0,0:0|1:0|1:0,0:0:0:0:
296,139,63214,2,0,B|266:142|266:142|245:149|245:149|209:156,1,70,8|0,0:0|1:0,0:0:0:0:
67,127,63814,6,0,B|54:105|54:105|50:72|50:72|51:48,2,70,8|0|0,0:0|1:0|1:0,0:0:0:0:
110,201,64264,2,0,L|91:277,1,70,8|0,0:0|1:0,0:0:0:0:
48,351,64564,1,8,0:0:0:0:
140,365,64714,2,0,B|151:357|151:357|167:353|167:353|184:335,3,35,8|8|8|8,0:0|0:0|0:0|0:0,0:0:0:0:
188,323,65014,6,0,L|275:315,1,83.9999974365235,0|0,1:0|1:0,0:0:0:0:
343,266,65314,2,0,B|351:277|351:277|410:299|410:299|420:312,1,83.9999974365235,10|0,1:2|0:0,0:0:0:0:
489,363,65614,2,0,B|503:343|503:343|499:271,1,83.9999974365235,2|0,1:2|0:0,0:0:0:0:
439,196,65914,2,0,B|445:158|445:158|441:149|441:149|448:115|448:115|457:98|457:98|451:62,1,125.999996154785,10|0,1:2|0:0,0:0:0:0:
439,60,66214,6,0,B|453:53|453:53|479:29|479:29|504:32|504:32|527:21,2,83.9999974365235,0|0|8,1:0|1:0|1:2,0:0:0:0:
367,108,66664,1,0,1:0:0:0:
280,96,66814,2,0,L|172:79,1,83.9999974365235,0|0,1:0|1:0,0:0:0:0:
82,17,67114,6,0,B|76:29|76:29|69:36|69:36|80:66|80:66|81:125|81:125|96:145|96:145|98:181,1,167.999994873047,8|0,1:2|1:0,0:0:0:0:
52,247,67564,1,0,1:0:0:0:
115,305,67714,6,0,B|130:318|130:318|209:335,1,83.9999974365235,10|0,1:2|0:0,0:0:0:0:
258,274,68014,2,0,B|262:292|262:292|289:329|289:329|296:360,1,83.9999974365235,2|0,1:2|0:0,0:0:0:0:
373,377,68314,2,0,L|405:295,1,83.9999974365235,8|0,1:2|1:0,0:0:0:0:
404,220,68614,6,0,B|412:208|412:208|489:194,2,83.9999974365235,0|0|8,1:0|1:0|1:2,0:0:0:0:
317,209,69064,1,0,1:0:0:0:
334,123,69214,2,0,B|339:111|339:111|324:35,1,83.9999974365235,2|0,1:2|1:0,0:0:0:0:
246,97,69514,2,0,B|222:110|222:110|155:102,1,83.9999974365235,10|0,1:2|0:0,0:0:0:0:
70,58,69814,6,0,B|62:68|62:68|67:143,1,83.9999974365235,0|0,1:0|1:0,0:0:0:0:
90,225,70114,2,0,B|68:240|68:240|58:283|58:283|38:316|38:316|36:337|36:337|1:370,2,167.999994873047,10|2|10,1:2|1:2|1:2,0:0:0:0:
171,232,70864,1,0,0:0:0:0:
216,296,71014,2,0,B|216:306|216:306|237:324|237:324|243:326|243:326|253:358|253:358|271:368,1,83.9999974365235,2|0,1:2|1:0,0:0:0:0:
354,363,71314,2,0,B|374:345|374:345|421:333|421:333|431:334|431:334|441:327|441:327|475:308|475:308|492:266,1,167.999994873047,10|0,1:2|1:0,0:0:0:0:
476,200,71764,1,0,1:0:0:0:
400,173,71914,2,0,B|359:170|359:170|346:164|346:164|293:149,1,83.9999974365235,2|0,1:2|1:0,0:0:0:0:
253,78,72214,6,0,B|306:64|306:64|320:64|320:64|368:51|368:51|392:57|392:57|423:57,1,167.999994873047,2|10,1:2|1:2,0:0:0:0:
486,105,72664,1,0,1:0:0:0:
403,177,72814,6,0,B|381:190|381:190|366:211|366:211|349:247|349:247|305:273|305:273|271:278|271:278|261:291,1,167.999994873047,2|8,1:2|1:2,0:0:0:0:
204,248,73264,1,0,1:0:0:0:
120,250,73414,1,8,0:0:0:0:
73,315,73564,6,0,B|67:330|67:330|62:352|62:352|11:381,1,83.9999974365235,8|0,0:0|0:0,0:0:0:0:
21,242,73864,2,0,B|12:222|12:222|10:193|10:193|19:174|19:174|20:157,1,83.9999974365235,10|0,0:0|0:0,0:0:0:0:
21,32,74164,6,0,B|54:32|54:32|67:31|67:31|82:50|82:50|82:56|82:56|106:66|106:66|116:74|116:74|131:86|131:86|137:110|137:110|173:117|173:117|183:146,1,209.999993591309,6|0,1:2|0:0,0:0:0:0:
181,142,74614,5,8,1:2:0:0:
269,158,74764,2,0,B|275:165|275:165|276:182|276:182|281:199,2,41.9999987182618,8|8|8,0:0|0:0|1:2,0:0:0:0:
282,77,75064,2,0,B|297:56|297:56|304:53|304:53|305:35,2,41.9999987182618,8|8|8,0:0|0:0|1:2,0:0:0:0:
352,133,75364,2,0,B|403:145|403:145|431:143|431:143|444:138|444:138|469:162|469:162|475:162|475:162|493:198,1,167.999994873047,8|8,0:0|0:0,0:0:0:0:
488,204,75739,1,8,0:0:0:0:
486,216,75814,5,8,1:2:0:0:
468,296,75964,2,0,B|484:302|484:302|492:311|492:311|505:321,2,41.9999987182618,8|8|8,0:0|0:0|1:2,0:0:0:0:
390,341,76264,2,0,B|377:346|377:346|287:354,1,83.9999974365235,8|8,0:0|1:2,0:0:0:0:
276,273,76564,2,0,B|275:263|275:263|250:228,2,41.9999987182618,8|8|8,0:0|0:0|1:2,0:0:0:0:
209,325,76864,1,8,0:0:0:0:
114,367,77014,6,0,B|81:365|81:365|65:352|65:352|31:324|31:324|31:303,1,83.9999974365235,12|8,1:2|0:0,0:0:0:0:
38,320,77239,1,8,0:0:0:0:
34,307,77314,1,8,1:2:0:0:
100,249,77464,2,0,B|114:247|114:247|133:262|133:262|161:274,2,41.9999987182618,8|8|8,0:0|0:0|1:2,0:0:0:0:
48,177,77764,2,0,B|67:160|67:160|63:151|63:151|76:99,1,83.9999974365235,8|0,0:0|1:2,0:0:0:0:
133,35,78064,1,8,0:0:0:0:
180,118,78214,6,0,L|271:132,1,83.9999974365235,8|8,1:2|0:0,0:0:0:0:
274,126,78439,1,8,0:0:0:0:
286,122,78514,1,8,1:2:0:0:
331,54,78664,2,0,B|345:45|345:45|358:50|358:50|366:46|366:46|444:34,1,83.9999974365235,8|8,0:0|1:2,0:0:0:0:
472,100,78964,2,0,B|493:107|493:107|520:106,2,41.9999987182618,8|8|8,0:0|0:0|1:2,0:0:0:0:
397,139,79264,1,8,0:0:0:0:
450,207,79414,6,0,B|454:217|454:217|437:252|437:252|430:292|430:292|394:320|394:320|375:366,1,167.999994873047,4|8,1:2|1:2,0:0:0:0:
306,351,79864,2,0,B|302:337|302:337|297:328|297:328|293:309,2,41.9999987182618,8|8|8,0:0|0:0|1:2,0:0:0:0:
225,367,80164,6,0,B|205:360|205:360|136:372,1,83.9999974365235,8|0,0:0|1:2,0:0:0:0:
65,333,80464,2,0,B|47:331|47:331|22:334,2,41.9999987182618,8|8|8,0:0|0:0|1:2,0:0:0:0:
127,263,80764,2,0,B|129:253|129:253|156:229,2,41.9999987182618,8|8|8,0:0|0:0|1:2,0:0:0:0:
39,233,81064,6,0,B|26:205|26:205|34:133,1,83.9999974365235,8|8,0:0|1:2,0:0:0:0:
113,121,81364,1,8,0:0:0:0:
148,42,81514,2,0,B|143:28|143:28|141:-2,2,41.9999987182618,8|8|8,1:2|0:0|0:0,0:0:0:0:
226,81,81814,5,12,0:0:0:0:
335,96,84214,6,0,L|391:89,3,41.9999987182618,8|0|0|0,1:2|1:2|1:2|1:2,0:0:0:0:
456,79,84614,1,8,1:2:0:0:
403,238,85014,2,0,B|412:243|412:243|432:267,2,41.9999987182618,4|0|0,1:0|1:0|1:0,0:0:0:0:
328,278,85414,6,0,B|308:285|308:285|270:321|270:321|230:327,1,83.9999974365235,0|0,1:0|1:0,0:0:0:0:
238,318,85714,1,0,1:0:0:0:
217,313,85814,1,10,1:2:0:0:
138,338,86014,1,0,1:0:0:0:
70,287,86214,2,0,B|53:277|53:277|-8:265,2,41.9999987182618,0|0|0,1:0|1:0|1:0,0:0:0:0:
126,221,86614,6,0,B|123:202|123:202|100:159|100:159|94:117,1,83.9999974365235,2|0,1:2|1:0,0:0:0:0:
103,124,86914,2,0,L|130:85,1,41.9999987182618,0|0,1:0|1:0,0:0:0:0:
156,15,87214,1,0,1:0:0:0:
238,30,87414,2,0,B|289:57|289:57|321:106|321:106|372:137,1,167.999994873047,10|4,0:0|1:2,0:0:0:0:
385,133,87914,1,0,1:0:0:0:
404,131,88014,1,0,1:0:0:0:
482,91,88214,6,0,B|485:79|485:79|506:38,2,41.9999987182618,4|0|0,1:0|1:0|1:0,0:0:0:0:
490,174,88614,2,0,B|502:215|502:215|497:236|497:236|490:261,1,83.9999974365235,0|0,1:0|1:0,0:0:0:0:
480,269,88914,1,0,1:0:0:0:
468,282,89014,2,0,B|453:299|453:299|449:321|449:321|411:343,1,83.9999974365235,10|0,1:2|1:0,0:0:0:0:
324,333,89414,2,0,B|314:352|314:352|311:376,2,41.9999987182618,0|0|0,1:0|1:0|1:0,0:0:0:0:
332,238,89814,6,0,B|307:223|307:223|240:231,1,83.9999974365235,2|0,1:2|1:0,0:0:0:0:
244,239,90114,2,0,B|229:252|229:252|185:273,1,41.9999987182618,0|0,1:0|1:0,0:0:0:0:
151,318,90414,1,0,1:0:0:0:
34,272,90614,5,10,1:2:0:0:
104,210,90814,1,2,1:1:0:0:
26,125,91014,2,0,B|18:118|18:118|-11:103,2,41.9999987182618,8|8|0,0:0|0:0|0:0,0:0:0:0:
110,120,91414,6,0,B|128:116|128:116|150:104,2,41.9999987182618,4|0|0,1:0|1:0|1:0,0:0:0:0:
50,34,91814,2,0,B|59:25|59:25|139:13,1,83.9999974365235,0|0,1:0|1:0,0:0:0:0:
218,38,92214,6,0,B|238:56|238:56|286:62|286:62|293:77|293:77|319:98|319:98|335:119|335:119|353:121|353:121|373:140|373:140|404:146|404:146|425:134,1,251.999992309571,10|0,1:2|1:0,0:0:0:0:
491,77,93014,6,0,B|509:90|509:90|522:113|522:113|512:147,1,83.9999974365235,2|0,1:2|1:0,0:0:0:0:
506,164,93314,1,0,1:0:0:0:
500,179,93414,1,0,1:0:0:0:
500,263,93614,1,0,1:0:0:0:
422,309,93814,6,0,B|374:319|374:319|338:303|338:303|325:303|325:303|315:325|315:325|292:336|292:336|268:331|268:331|225:346|225:346|209:356|209:356|154:345,1,272.999987503052,10|0,1:2|1:2,0:0:0:0:
100,314,94614,6,0,B|91:310|91:310|51:304,2,41.9999987182618,4|0|0,1:0|1:0|1:0,0:0:0:0:
170,264,95014,2,0,B|181:235|181:235|172:172,1,83.9999974365235,0|0,1:0|1:0,0:0:0:0:
77,159,95414,6,0,B|54:137|54:137|44:99|44:99|24:76|24:76|44:45|44:45|81:18|81:18|82:26|82:26|125:26|125:26|151:45|151:45|207:42,1,293.999991027832,10|0,0:0|1:0,0:0:0:0:
257,18,96214,6,0,B|287:25|287:25|309:41|309:41|327:43|344:47,1,83.9999974365235,2|0,1:0|1:0,0:0:0:0:
355,49,96514,1,0,0:0:0:0:
368,65,96614,2,0,B|367:93|367:93|372:122|372:122|361:173,1,83.9999974365235,2|0,1:0|1:2,0:0:0:0:
305,204,97014,5,2,1:0:0:0:
311,223,97114,1,8,0:3:0:0:
317,243,97214,2,0,B|337:257|336:257|350:257|350:257|364:262,4,41.9999987182618,8|8|8|4|4,0:3|0:3|0:3|0:3|0:3,0:0:0:0:
253,320,97814,6,0,B|257:328|257:328|253:354|253:354|256:372,2,41.9999987182618,4|0|0,1:2|1:2|1:2,0:0:0:0:
176,288,98214,1,0,1:2:0:0:
115,345,98414,2,0,B|104:354|104:354|56:370,2,41.9999987182618,0|0|0,1:2|1:2|1:2,0:0:0:0:
95,264,98814,1,0,1:2:0:0:
55,187,99014,6,0,B|32:173|32:173|15:167,2,41.9999987182618,0|0|0,1:2|1:2|1:2,0:0:0:0:
134,169,99414,1,8,1:2:0:0:
134,169,99614,2,0,B|139:147|139:147|162:117,2,41.9999987182618,0|0|0,1:2|1:2|1:2,0:0:0:0:
70,106,100014,1,0,1:2:0:0:
70,106,100214,2,0,B|62:88|62:88|52:15,1,83.9999974365235,0|0,1:2|1:2,0:0:0:0:
138,14,100614,1,4,1:2:0:0:
156,23,100714,1,8,1:2:0:0:
174,32,100814,1,8,1:2:0:0:
257,77,101014,6,0,B|260:98|260:98|251:128|251:115|251:115,2,41.9999987182618,4|0|0,1:0|1:2|1:2,0:0:0:0:
320,24,101414,1,0,1:2:0:0:
406,52,101614,2,0,B|424:48|424:48|446:32,2,41.9999987182618,0|0|0,1:2|1:2|1:2,0:0:0:0:
365,127,102014,1,0,1:2:0:0:
429,189,102214,2,0,B|446:188|446:188|465:202|465:202|461:218,2,41.9999987182618,0|0|0,1:2|1:2|1:2,0:0:0:0:
345,224,102614,6,0,B|350:246|350:246|364:293|364:293|349:326,1,83.9999974365235,12|0,1:2|1:2,0:0:0:0:
343,318,102914,1,0,1:2:0:0:
325,329,103014,1,0,1:2:0:0:
242,303,103214,1,0,1:2:0:0:
140,368,103414,5,8,1:2:0:0:
68,309,103614,1,2,1:0:0:0:
135,205,103814,2,0,B|154:197|154:197|181:200,2,41.9999987182618,8|8|0,1:2|0:0|0:0,0:0:0:0:
52,168,104214,6,0,B|44:162|44:162|24:137,2,41.9999987182618,4|0|0,1:0|1:0|1:0,0:0:0:0:
121,120,104614,2,0,B|136:111|136:111|159:40,1,83.9999974365235,0|0,1:0|1:0,0:0:0:0:
247,17,105014,6,0,B|286:25|286:25|291:59|291:59|310:64|310:64|343:98|343:98|350:115|350:115|387:125|387:125|401:118|401:118|428:127|428:127|437:153,1,251.999992309571,10|0,1:2|1:0,0:0:0:0:
477,207,105814,6,0,B|451:221|451:221|421:220|421:220|406:215|406:215|378:227,1,83.9999974365235,2|0,1:2|1:0,0:0:0:0:
381,233,106114,1,0,1:0:0:0:
367,249,106214,1,0,1:0:0:0:
384,331,106414,1,0,1:0:0:0:
286,379,106614,6,0,B|250:359|250:359|244:337|244:337|217:310|217:310|180:313|180:313|144:306|144:306|122:310|122:310|89:293|89:293|85:280|85:280|70:262,1,272.999987503052,10|8,1:2|1:2,0:0:0:0:
54,182,107414,2,0,B|33:185|33:185|23:190|23:190|-1:208,2,41.9999987182618,4|0|0,1:0|1:0|1:0,0:0:0:0:
140,171,107814,2,0,B|153:154|153:154|176:93,1,83.9999974365235,0|0,1:0|1:0,0:0:0:0:
263,32,108214,6,0,B|291:40|291:40|318:38|318:38|342:13|342:13|349:36|349:36|339:71|339:71|348:101|348:101|373:122|373:122|386:144|386:144|423:144|423:144|447:162,1,293.999991027832,10|0,1:2|1:0,0:0:0:0:
490,257,109014,6,0,B|475:286|475:286|474:303|474:303|449:349,1,83.9999974365235,4|0,0:3|1:0,0:0:0:0:
325,296,109414,2,0,B|309:275|309:275|309:263|309:263|315:240|315:240|298:207,1,83.9999974365235,4|0,0:3|1:0,0:0:0:0:
207,170,109814,1,8,0:0:0:0:
123,182,110014,1,0,1:0:0:0:
39,194,110214,1,4,0:3:0:0:
40,318,110614,5,4,1:2:0:0:
59,333,110714,2,0,B|87:343|105:332|105:332|165:318,1,83.9999974365235,0|0,1:0|0:0,0:0:0:0:
169,319,111014,1,8,0:0:0:0:
198,322,111114,2,0,B|228:326|228:326|244:336|244:336|293:350,1,83.9999974365235,0|0,1:0|0:0,0:0:0:0:
306,345,111414,2,0,B|322:337|322:337|409:325,1,83.9999974365235,0|0,1:0|0:0,0:0:0:0:
455,258,111814,5,8,0:0:0:0:
479,241,111914,2,0,B|479:222|462:208|462:208|427:139,1,83.9999974365235,0|0,1:0|0:0,0:0:0:0:
422,144,112214,1,0,1:0:0:0:
392,142,112314,2,0,B|375:121|375:121|354:61,1,83.9999974365235,0|0,1:0|0:0,0:0:0:0:
333,48,112614,6,0,B|305:53|305:53|293:53|293:53|263:66|263:66|234:70|234:70,1,83.9999974365235,8|0,0:2|0:0,0:0:0:0:
162,46,113014,1,0,1:0:0:0:
132,48,113114,2,0,B|107:66|109:93|109:93|86:141,1,83.9999974365235,0|0,1:0|0:0,0:0:0:0:
89,149,113414,6,0,B|99:173|99:173|94:182|94:182|101:207|101:207|103:220|103:220|110:267,1,83.9999974365235,8|0,0:0|0:0,0:0:0:0:
42,309,113814,6,2,B|64:306|64:306|79:314|79:314|85:351|85:351|129:357,1,83.9999974365235,2|8,1:0|0:2,1:0:0:0:
173,330,114214,5,4,1:0:0:0:
202,334,114314,2,0,B|236:338|236:338|248:335|248:335|299:340,1,83.9999974365235,0|0,1:0|0:0,0:0:0:0:
311,351,114614,1,8,0:2:0:0:
339,356,114714,2,0,B|361:356|361:356|438:348,1,83.9999974365235,0|0,1:2|0:0,0:0:0:0:
447,333,115014,6,0,B|455:301|455:301|456:284|456:284|461:240,1,83.9999974365235,0|0,1:0|0:0,0:0:0:0:
409,160,115414,6,2,B|396:151|396:151|388:134|388:134|390:108|390:108|384:87|384:87|362:77|362:77|340:75|340:75|325:63|325:63|316:36,2,167.999994873047,2|8|4,1:1|0:2|1:1,1:0:0:0:
433,176,116314,6,0,B|417:185|417:185|353:197,1,83.9999974365235,0|0,1:0|0:0,0:0:0:0:
329,215,116614,1,8,0:2:0:0:
299,218,116714,2,0,B|260:197|260:197|239:153,1,83.9999974365235,0|0,1:0|0:0,0:0:0:0:
242,131,117014,6,0,B|230:116|230:116|140:75,1,83.9999974365235,0|0,1:0|0:0,0:0:0:0:
74,102,117414,5,8,0:0:0:0:
60,127,117514,2,0,B|55:137|55:137|71:191|71:191|58:215,1,83.9999974365235,0|0,1:0|0:0,0:0:0:0:
41,225,117814,1,0,1:0:0:0:
24,249,117914,2,0,B|29:312|29:312|44:341,1,83.9999974365235,0|0,1:0|0:0,0:0:0:0:
66,339,118214,6,0,B|86:337|86:337|101:332|101:332|113:320|113:320|132:323|132:323|141:332|141:332|161:336,1,83.9999974365235,8|0,0:0|0:0,0:0:0:0:
238,360,118614,1,0,1:0:0:0:
267,362,118714,2,0,B|305:350|305:350|319:352|319:352|355:355,1,83.9999974365235,0|0,1:0|0:0,0:0:0:0:
378,353,119014,6,0,B|401:330|401:330|391:305|391:305|395:295|395:295|400:265,1,83.9999974365235,8|0,0:0|0:0,0:0:0:0:
442,212,119414,6,0,B|452:199|452:199|466:196|466:196|470:174|470:174|450:152|450:152|431:153,1,83.9999974365235,6|8,1:1|0:0,1:0:0:0:
369,109,119814,5,0,1:0:0:0:
343,93,119914,2,0,B|323:85|323:85|297:35|297:35|264:21,1,83.9999974365235,0|0,1:0|0:0,0:0:0:0:
262,26,120214,1,8,0:0:0:0:
232,30,120314,2,0,L|140:43,1,83.9999974365235,0|0,1:0|0:0,0:0:0:0:
123,56,120614,6,0,B|95:68|95:68|63:62|63:62|27:74,1,83.9999974365235,0|0,1:0|0:0,0:0:0:0:
71,149,121014,6,2,B|58:169|58:169|76:174|76:174|80:190|80:190|93:190|93:190|99:204|99:204|86:212|86:212|87:231|87:231|102:236|102:236|123:239|123:239|115:249|115:249|109:254|109:254|112:265|112:265|125:261|125:261|134:276|134:276|141:302|141:302|150:307|150:307|161:333|161:333|161:360|161:360|190:331,1,335.999989746094,6|4,1:1|0:1,0:1:0:0:
244,273,122114,1,4,0:3:0:0:
383,176,124214,5,8,0:3:0:0:
383,176,124514,1,8,0:3:0:0:
175,25,126014,5,8,0:0:0:0:
155,92,126164,1,8,0:3:0:0:
92,124,126314,1,4,0:3:0:0:
61,186,126464,1,8,0:0:0:0:
78,309,127814,6,0,B|86:316|86:316|164:336,1,70,4|8,1:2|0:0,0:0:0:0:
222,361,128114,1,0,1:0:0:0:
233,349,128189,1,0,1:0:0:0:
244,337,128264,1,8,1:2:0:0:
314,292,128414,2,0,B|337:312|337:312|367:376,2,70,0|8|0,1:0|0:0|1:0,0:0:0:0:
299,208,128864,1,8,1:2:0:0:
333,131,129014,6,0,B|367:116|367:116|373:118|373:118|417:120|417:120|440:110|440:110|439:86|439:86|452:62,1,140,0|0,1:0|1:0,0:0:0:0:
441,71,129389,1,0,1:0:0:0:
442,59,129464,1,8,1:2:0:0:
370,14,129614,2,0,B|314:8|314:8|292:19,1,70,0|8,1:0|0:0,0:0:0:0:
241,72,129914,2,0,B|251:84|251:84|260:134,2,35,0|0|8,1:2|1:2|1:2,0:0:0:0:
169,28,130214,6,0,B|138:44|138:44|132:56|132:56|116:70|116:70|117:116|117:116|97:151,1,140,0|0,1:0|1:2,0:0:0:0:
93,147,130589,1,0,1:2:0:0:
81,155,130664,1,8,1:2:0:0:
31,238,130814,2,0,B|48:251|48:251|67:300,1,70,0|8,1:0|0:0,0:0:0:0:
143,350,131114,2,0,B|138:358|138:358|147:389,2,35,0|0|8,1:0|1:0|1:2,0:0:0:0:
189,273,131414,6,0,B|200:278|200:278|229:322|229:322|311:346,1,140,0|0,1:0|1:0,0:0:0:0:
312,339,131789,1,0,1:0:0:0:
322,334,131864,1,8,1:2:0:0:
383,275,132014,2,0,B|416:259|416:259|464:259,1,70,0|8,1:0|0:0,0:0:0:0:
485,173,132314,2,0,B|493:161|493:161|499:128,2,35,0|0|8,1:0|1:0|1:2,0:0:0:0:
376,159,132614,6,0,B|370:147|370:147|348:74,1,70,4|8,1:2|0:0,0:0:0:0:
298,33,132914,2,0,B|305:18|305:18|303:-6,2,35,0|0|8,1:0|1:0|1:2,0:0:0:0:
239,93,133214,1,0,1:0:0:0:
156,77,133364,1,8,0:0:0:0:
84,121,133514,2,0,B|76:111|76:111|36:96,2,35,0|0|8,1:0|1:0|1:2,0:0:0:0:
136,187,133814,6,0,B|145:205|145:205|156:297|156:297|178:321,1,140,0|0,1:0|1:0,0:0:0:0:
187,318,134189,1,0,1:0:0:0:
198,319,134264,1,8,1:2:0:0:
275,350,134414,2,0,B|284:343|284:343|364:331,1,70,0|8,1:0|0:0,0:0:0:0:
421,306,134714,2,0,B|430:308|430:308|462:335,2,35,0|0|8,1:0|1:0|1:2,0:0:0:0:
361,221,135014,6,0,B|347:209|347:209|290:198,1,70,0|8,1:0|0:0,0:0:0:0:
240,136,135314,2,0,B|233:130|233:130|231:98,2,35,0|0|8,1:0|1:0|1:2,0:0:0:0:
319,109,135614,1,0,1:0:0:0:
396,141,135764,1,8,0:0:0:0:
475,115,135914,6,0,B|488:112|488:112|509:94,2,35,0|0|8,1:0|1:0|1:2,0:0:0:0:
413,35,136214,5,8,0:0:0:0:
333,8,136364,2,0,B|305:7|305:7|260:38,1,70,4|0,1:2|0:0,0:0:0:0:
191,58,136664,2,0,L|52:52,2,140,4|4|0,1:2|1:2|1:0,0:0:0:0:
244,146,137414,5,8,0:0:0:0:
203,219,137564,2,0,B|212:237|212:237|251:248|251:248|275:282,1,70,4|0,1:2|0:0,0:0:0:0:
317,314,137864,2,0,L|474:301,2,140,4|4|0,1:2|1:2|1:0,0:0:0:0:
254,369,138614,5,4,1:2:0:0:
56,273,139214,1,4,0:3:0:0:
56,273,140414,1,4,0:3:0:0:
56,273,141614,1,4,0:3:0:0:
56,273,142814,1,4,0:3:0:0:
188,34,143414,5,4,0:0:0:0:
372,98,144014,1,4,0:3:0:0:
372,98,145214,1,4,0:3:0:0:
81,157,145814,5,4,0:0:0:0:
265,269,146414,1,4,0:3:0:0:
265,269,147314,6,0,B|275:263|275:263|300:266|300:266|319:261|319:261|345:258,1,70,8|0,0:0|0:0,0:0:0:0:
423,242,147614,2,0,B|412:236|412:236|402:213|402:213|389:199|389:199|373:178,1,70,8|0,0:0|0:0,0:0:0:0:
321,118,147914,2,0,B|321:129|321:129|306:149|306:149|300:168|300:168|290:192,1,70,8|0,0:0|0:0,0:0:0:0:
