osu file format v14

[General]
AudioFilename: audio.mp3
AudioLeadIn: 0
PreviewTime: 46225
Countdown: 0
SampleSet: Normal
StackLeniency: 0.7
Mode: 1
LetterboxInBreaks: 0
WidescreenStoryboard: 0

[Editor]
DistanceSpacing: 0.8
BeatDivisor: 4
GridSize: 32
TimelineZoom: 1.8

[Metadata]
Title:sync
TitleUnicode:sync
Artist:OutPhase
ArtistUnicode:OutPhase
Creator:Maeda
Version:Luqua's Muzukashii
Source:beatmania IIDX 5th style
Tags:Luqua nyanmi-1828 TaQ dj TAKA bemani DanceDanceRevolution DDR TRANCE
BeatmapID:2161585
BeatmapSetID:988145

[Difficulty]
HPDrainRate:5
CircleSize:5
OverallDifficulty:5
ApproachRate:5
SliderMultiplier:1.4
SliderTickRate:1

[Events]
//Background and Video events
0,0,"335-free-backgrounds.png",0,0
//Break Periods
//Storyboard Layer 0 (Background)
//Storyboard Layer 1 (Fail)
//Storyboard Layer 2 (Pass)
//Storyboard Layer 3 (Foreground)
//Storyboard Layer 4 (Overlay)
//Storyboard Sound Samples

[TimingPoints]
327,359.281437125748,4,1,0,60,1,0
92303,-100,4,1,0,70,0,1
103800,-100,4,1,0,60,0,0

[HitObjects]
256,192,327,5,0,0:0:0:0:
256,192,1764,1,8,0:0:0:0:
256,192,3201,1,0,0:0:0:0:
256,192,4638,1,0,0:0:0:0:
256,192,6075,1,8,0:0:0:0:
256,192,6255,12,0,11105,0:0:0:0:
256,192,11824,5,0,0:0:0:0:
256,192,12183,1,0,0:0:0:0:
256,192,12542,1,0,0:0:0:0:
256,192,13261,1,0,0:0:0:0:
256,192,13620,1,0,0:0:0:0:
256,192,13979,1,0,0:0:0:0:
256,192,14698,1,0,0:0:0:0:
256,192,15057,1,0,0:0:0:0:
256,192,15416,1,0,0:0:0:0:
256,192,16135,1,0,0:0:0:0:
256,192,16494,1,0,0:0:0:0:
256,192,16853,1,0,0:0:0:0:
256,192,17572,1,0,0:0:0:0:
256,192,17931,1,0,0:0:0:0:
256,192,18290,1,0,0:0:0:0:
256,192,18649,1,0,0:0:0:0:
256,192,19009,1,0,0:0:0:0:
256,192,19727,1,0,0:0:0:0:
256,192,20446,1,0,0:0:0:0:
256,192,20805,1,0,0:0:0:0:
256,192,21164,1,0,0:0:0:0:
256,192,21883,1,0,0:0:0:0:
256,192,23321,1,0,0:0:0:0:
256,192,23680,1,8,0:0:0:0:
256,192,23859,1,0,0:0:0:0:
256,192,24039,1,8,0:0:0:0:
256,192,24398,1,0,0:0:0:0:
256,192,24758,1,0,0:0:0:0:
256,192,24937,1,0,0:0:0:0:
256,192,25117,1,8,0:0:0:0:
256,192,25296,1,0,0:0:0:0:
256,192,25476,1,8,0:0:0:0:
256,192,25835,1,0,0:0:0:0:
256,192,26195,1,0,0:0:0:0:
256,192,26374,1,0,0:0:0:0:
256,192,26554,1,8,0:0:0:0:
256,192,26733,1,0,0:0:0:0:
256,192,26913,1,8,0:0:0:0:
256,192,27273,1,0,0:0:0:0:
256,192,27632,1,0,0:0:0:0:
256,192,27811,1,0,0:0:0:0:
256,192,27991,1,8,0:0:0:0:
256,192,28171,1,0,0:0:0:0:
256,192,28350,1,8,0:0:0:0:
256,192,28889,1,8,0:0:0:0:
256,192,29249,1,8,0:0:0:0:
256,192,29608,1,8,0:0:0:0:
256,192,29788,1,0,0:0:0:0:
256,192,29967,1,8,0:0:0:0:
256,192,30326,1,8,0:0:0:0:
256,192,30686,1,8,0:0:0:0:
256,192,31045,1,8,0:0:0:0:
256,192,31225,1,0,0:0:0:0:
256,192,31404,1,8,0:0:0:0:
256,192,31763,1,8,0:0:0:0:
256,192,31853,1,8,0:0:0:0:
256,192,32123,1,8,0:0:0:0:
256,192,32482,1,8,0:0:0:0:
256,192,32662,1,0,0:0:0:0:
256,192,32841,1,8,0:0:0:0:
256,192,33200,1,8,0:0:0:0:
256,192,33560,1,8,0:0:0:0:
256,192,33919,1,8,0:0:0:0:
256,192,34099,1,0,0:0:0:0:
256,192,34279,1,0,0:0:0:0:
256,192,34368,1,0,0:0:0:0:
256,192,34818,1,0,0:0:0:0:
256,192,34997,1,0,0:0:0:0:
256,192,35177,1,8,0:0:0:0:
256,192,35356,1,0,0:0:0:0:
256,192,35536,1,8,0:0:0:0:
256,192,35895,1,0,0:0:0:0:
256,192,36255,1,0,0:0:0:0:
256,192,36434,1,0,0:0:0:0:
256,192,36614,1,8,0:0:0:0:
256,192,36793,1,0,0:0:0:0:
256,192,36973,1,8,0:0:0:0:
256,192,37332,1,8,0:0:0:0:
256,192,37512,1,8,0:0:0:0:
256,192,37692,1,0,0:0:0:0:
256,192,38051,1,8,0:0:0:0:
256,192,38410,1,8,0:0:0:0:
256,192,38769,1,8,0:0:0:0:
256,192,38949,1,8,0:0:0:0:
256,192,39129,1,0,0:0:0:0:
256,192,39488,1,8,0:0:0:0:
256,192,39847,1,8,0:0:0:0:
256,192,40207,1,0,0:0:0:0:
256,192,40386,1,8,0:0:0:0:
256,192,40745,1,0,0:0:0:0:
256,192,40925,1,8,0:0:0:0:
256,192,41105,1,0,0:0:0:0:
256,192,41285,1,8,0:0:0:0:
256,192,41644,1,0,0:0:0:0:
256,192,41824,1,8,0:0:0:0:
256,192,42182,1,0,0:0:0:0:
256,192,42362,1,8,0:0:0:0:
256,192,42541,1,0,0:0:0:0:
256,192,42722,1,8,0:0:0:0:
256,192,43080,1,0,0:0:0:0:
256,192,43260,1,8,0:0:0:0:
256,192,43440,1,0,0:0:0:0:
256,192,43619,1,0,0:0:0:0:
256,192,43799,1,8,0:0:0:0:
256,192,44158,1,8,0:0:0:0:
256,192,44518,1,0,0:0:0:0:
256,192,44697,1,8,0:0:0:0:
256,192,45056,1,0,0:0:0:0:
256,192,45236,1,8,0:0:0:0:
256,192,45415,1,0,0:0:0:0:
256,192,45595,1,8,0:0:0:0:
256,192,45776,1,0,0:0:0:0:
256,192,46315,1,4,0:0:0:0:
256,192,46674,1,0,0:0:0:0:
256,192,46943,1,8,0:0:0:0:
256,192,47213,1,8,0:0:0:0:
256,192,47392,1,8,0:0:0:0:
256,192,47572,1,0,0:0:0:0:
256,192,47752,1,0,0:0:0:0:
256,192,47841,1,0,0:0:0:0:
256,192,47931,1,0,0:0:0:0:
256,192,48111,1,8,0:0:0:0:
256,192,48380,1,8,0:0:0:0:
256,192,48650,1,0,0:0:0:0:
256,192,48829,1,8,0:0:0:0:
256,192,49189,1,8,0:0:0:0:
256,192,49368,1,0,0:0:0:0:
256,192,49548,1,8,0:0:0:0:
256,192,49907,1,8,0:0:0:0:
256,192,50087,1,0,0:0:0:0:
256,192,50267,1,8,0:0:0:0:
256,192,50626,1,8,0:0:0:0:
256,192,50806,1,0,0:0:0:0:
256,192,50985,1,8,0:0:0:0:
256,192,51344,1,8,0:0:0:0:
256,192,52063,1,0,0:0:0:0:
256,192,52242,1,0,0:0:0:0:
256,192,52422,1,8,0:0:0:0:
256,192,52691,1,8,0:0:0:0:
256,192,52961,1,8,0:0:0:0:
256,192,53140,1,8,0:0:0:0:
256,192,53321,1,0,0:0:0:0:
256,192,53500,1,10,0:0:0:0:
256,192,53590,1,8,0:0:0:0:
256,192,53680,1,8,0:0:0:0:
256,192,53859,1,0,0:0:0:0:
256,192,54128,1,8,0:0:0:0:
256,192,54398,1,8,0:0:0:0:
256,192,54577,1,0,0:0:0:0:
256,192,54937,1,8,0:0:0:0:
256,192,55116,1,0,0:0:0:0:
256,192,55296,1,8,0:0:0:0:
256,192,55655,1,8,0:0:0:0:
256,192,55835,1,0,0:0:0:0:
256,192,56015,1,8,0:0:0:0:
256,192,56374,1,8,0:0:0:0:
256,192,56554,1,0,0:0:0:0:
256,192,56733,1,8,0:0:0:0:
256,192,57092,1,8,0:0:0:0:
256,192,57812,1,4,0:0:0:0:
256,192,58171,1,8,0:0:0:0:
256,192,58440,1,8,0:0:0:0:
256,192,58710,1,0,0:0:0:0:
256,192,58889,1,8,0:0:0:0:
256,192,59069,1,0,0:0:0:0:
256,192,59249,1,0,0:0:0:0:
256,192,59338,1,0,0:0:0:0:
256,192,59428,1,0,0:0:0:0:
256,192,59608,1,0,0:0:0:0:
256,192,59877,1,8,0:0:0:0:
256,192,60147,1,0,0:0:0:0:
256,192,60326,1,8,0:0:0:0:
256,192,60686,1,8,0:0:0:0:
256,192,60865,1,0,0:0:0:0:
256,192,61045,1,8,0:0:0:0:
256,192,61404,1,8,0:0:0:0:
256,192,61584,1,0,0:0:0:0:
256,192,61764,1,8,0:0:0:0:
256,192,62123,1,8,0:0:0:0:
256,192,62303,1,0,0:0:0:0:
256,192,62482,1,8,0:0:0:0:
256,192,62662,1,0,0:0:0:0:
256,192,62841,1,8,0:0:0:0:
256,192,63560,1,0,0:0:0:0:
256,192,63739,1,0,0:0:0:0:
256,192,63919,1,8,0:0:0:0:
256,192,64188,1,8,0:0:0:0:
256,192,64458,1,8,0:0:0:0:
256,192,64637,1,8,0:0:0:0:
256,192,64818,1,0,0:0:0:0:
256,192,64997,1,8,0:0:0:0:
256,192,65087,1,8,0:0:0:0:
256,192,65177,1,8,0:0:0:0:
256,192,65356,1,0,0:0:0:0:
256,192,65625,1,8,0:0:0:0:
256,192,65895,1,8,0:0:0:0:
256,192,66075,1,0,0:0:0:0:
256,192,66434,1,8,0:0:0:0:
256,192,66614,1,0,0:0:0:0:
256,192,66793,1,8,0:0:0:0:
256,192,67152,1,8,0:0:0:0:
256,192,67332,1,0,0:0:0:0:
256,192,67512,1,8,0:0:0:0:
256,192,67871,1,8,0:0:0:0:
256,192,68051,1,0,0:0:0:0:
256,192,68230,1,8,0:0:0:0:
256,192,68410,1,0,0:0:0:0:
256,192,68589,1,8,0:0:0:0:
256,192,69309,1,4,0:0:0:0:
256,192,69668,1,0,0:0:0:0:
256,192,69937,1,8,0:0:0:0:
256,192,70207,1,8,0:0:0:0:
256,192,70386,1,0,0:0:0:0:
256,192,70566,1,0,0:0:0:0:
256,192,70746,1,8,0:0:0:0:
256,192,71105,1,0,0:0:0:0:
256,192,71195,1,0,0:0:0:0:
256,192,71374,1,8,0:0:0:0:
256,192,71644,1,0,0:0:0:0:
256,192,71824,1,8,0:0:0:0:
256,192,72183,1,8,0:0:0:0:
256,192,72273,1,8,0:0:0:0:
256,192,72362,1,8,0:0:0:0:
256,192,72542,1,8,0:0:0:0:
256,192,72901,1,8,0:0:0:0:
256,192,72991,1,8,0:0:0:0:
256,192,73081,1,8,0:0:0:0:
256,192,73261,1,8,0:0:0:0:
256,192,73620,1,0,0:0:0:0:
256,192,73710,1,0,0:0:0:0:
256,192,73800,1,0,0:0:0:0:
256,192,73979,1,0,0:0:0:0:
256,192,74338,1,8,0:0:0:0:
256,192,75057,1,0,0:0:0:0:
256,192,75416,1,8,0:0:0:0:
256,192,75685,1,8,0:0:0:0:
256,192,75955,1,8,0:0:0:0:
256,192,76134,1,0,0:0:0:0:
256,192,76314,1,0,0:0:0:0:
256,192,76494,1,8,0:0:0:0:
256,192,76853,1,0,0:0:0:0:
256,192,76943,1,0,0:0:0:0:
256,192,77122,1,8,0:0:0:0:
256,192,77392,1,8,0:0:0:0:
256,192,77571,1,8,0:0:0:0:
256,192,77931,1,8,0:0:0:0:
256,192,78021,1,8,0:0:0:0:
256,192,78111,1,8,0:0:0:0:
256,192,78290,1,8,0:0:0:0:
256,192,78649,1,8,0:0:0:0:
256,192,78739,1,8,0:0:0:0:
256,192,78829,1,8,0:0:0:0:
256,192,79009,1,8,0:0:0:0:
256,192,79368,1,0,0:0:0:0:
256,192,79458,1,0,0:0:0:0:
256,192,79548,1,0,0:0:0:0:
256,192,79728,1,0,0:0:0:0:
256,192,80086,1,8,0:0:0:0:
256,192,80806,1,0,0:0:0:0:
256,192,81165,1,8,0:0:0:0:
256,192,81434,1,8,0:0:0:0:
256,192,81704,1,8,0:0:0:0:
256,192,81883,1,0,0:0:0:0:
256,192,82063,1,0,0:0:0:0:
256,192,82243,1,8,0:0:0:0:
256,192,82602,1,8,0:0:0:0:
256,192,82692,1,8,0:0:0:0:
256,192,82871,1,8,0:0:0:0:
256,192,83141,1,0,0:0:0:0:
256,192,83320,1,8,0:0:0:0:
256,192,83680,1,8,0:0:0:0:
256,192,83859,1,0,0:0:0:0:
256,192,84039,1,8,0:0:0:0:
256,192,84129,1,8,0:0:0:0:
256,192,84219,1,8,0:0:0:0:
256,192,84398,1,8,0:0:0:0:
256,192,84758,1,0,0:0:0:0:
256,192,84848,1,0,0:0:0:0:
256,192,84938,1,0,0:0:0:0:
256,192,85117,1,8,0:0:0:0:
256,192,85297,1,8,0:0:0:0:
256,192,85476,1,0,0:0:0:0:
256,192,85656,1,0,0:0:0:0:
256,192,85835,1,8,0:0:0:0:
256,192,86554,1,0,0:0:0:0:
256,192,86913,1,8,0:0:0:0:
256,192,87182,1,0,0:0:0:0:
256,192,87452,1,8,0:0:0:0:
256,192,87631,1,0,0:0:0:0:
256,192,87991,1,8,0:0:0:0:
256,192,88350,1,0,0:0:0:0:
256,192,88619,1,8,0:0:0:0:
256,192,88889,1,0,0:0:0:0:
256,192,89069,1,8,0:0:0:0:
256,192,89428,1,8,0:0:0:0:
256,192,89518,1,8,0:0:0:0:
256,192,89608,1,8,0:0:0:0:
256,192,89787,1,8,0:0:0:0:
256,192,90146,1,0,0:0:0:0:
256,192,90237,1,0,0:0:0:0:
256,192,90326,1,0,0:0:0:0:
256,192,90506,1,0,0:0:0:0:
256,192,90865,1,8,0:0:0:0:
256,192,91225,1,0,0:0:0:0:
256,192,91583,1,8,0:0:0:0:
256,192,92303,1,4,0:0:0:0:
256,192,92482,1,0,0:0:0:0:
256,192,92662,1,8,0:0:0:0:
256,192,92931,1,0,0:0:0:0:
256,192,93201,1,8,0:0:0:0:
256,192,93380,1,0,0:0:0:0:
256,192,93470,1,0,0:0:0:0:
256,192,93560,1,0,0:0:0:0:
256,192,93740,1,8,0:0:0:0:
256,192,94099,1,8,0:0:0:0:
256,192,94189,1,8,0:0:0:0:
256,192,94368,1,8,0:0:0:0:
256,192,94638,1,0,0:0:0:0:
256,192,94818,1,8,0:0:0:0:
256,192,94997,1,0,0:0:0:0:
256,192,95177,1,8,0:0:0:0:
256,192,95267,1,8,0:0:0:0:
256,192,95356,1,8,0:0:0:0:
256,192,95536,1,8,0:0:0:0:
256,192,95895,1,0,0:0:0:0:
256,192,95985,1,0,0:0:0:0:
256,192,96075,1,0,0:0:0:0:
256,192,96255,1,0,0:0:0:0:
256,192,96614,1,8,0:0:0:0:
256,192,96704,1,8,0:0:0:0:
256,192,96794,1,8,0:0:0:0:
256,192,96973,1,0,0:0:0:0:
256,192,97332,1,8,0:0:0:0:
256,192,98051,1,8,0:0:0:0:
256,192,98231,1,0,0:0:0:0:
256,192,98410,1,0,0:0:0:0:
256,192,98679,1,8,0:0:0:0:
256,192,98949,1,0,0:0:0:0:
256,192,99128,1,8,0:0:0:0:
256,192,99219,1,8,0:0:0:0:
256,192,99308,1,8,0:0:0:0:
256,192,99488,1,0,0:0:0:0:
256,192,99847,1,0,0:0:0:0:
256,192,99937,1,0,0:0:0:0:
256,192,100116,1,0,0:0:0:0:
256,192,100386,1,0,0:0:0:0:
256,192,100566,1,8,0:0:0:0:
256,192,100746,1,0,0:0:0:0:
256,192,100925,1,8,0:0:0:0:
256,192,101015,1,8,0:0:0:0:
256,192,101105,1,8,0:0:0:0:
256,192,101285,1,8,0:0:0:0:
256,192,101644,1,0,0:0:0:0:
256,192,101734,1,0,0:0:0:0:
256,192,101823,1,0,0:0:0:0:
256,192,102003,1,0,0:0:0:0:
256,192,102362,1,0,0:0:0:0:
256,192,102721,1,8,0:0:0:0:
256,192,103080,1,0,0:0:0:0:
256,192,103800,1,4,0:0:0:0:
256,192,104518,1,0,0:0:0:0:
256,192,104877,1,8,0:0:0:0:
256,192,105236,1,0,0:0:0:0:
256,192,105955,1,0,0:0:0:0:
256,192,106314,1,8,0:0:0:0:
256,192,106673,1,0,0:0:0:0:
256,192,107392,1,8,0:0:0:0:
256,192,107751,1,8,0:0:0:0:
256,192,107931,1,8,0:0:0:0:
256,192,108111,1,0,0:0:0:0:
256,192,108291,1,8,0:0:0:0:
256,192,108829,1,8,0:0:0:0:
256,192,109188,1,8,0:0:0:0:
256,192,109368,1,8,0:0:0:0:
256,192,109548,1,0,0:0:0:0:
256,192,110267,1,0,0:0:0:0:
256,192,110626,1,8,0:0:0:0:
256,192,110985,1,0,0:0:0:0:
256,192,111704,1,0,0:0:0:0:
256,192,112422,1,4,0:0:0:0:
