osu file format v14

[General]
AudioFilename: audio.mp3
AudioLeadIn: 0
PreviewTime: 46225
Countdown: 0
SampleSet: Normal
StackLeniency: 0.7
Mode: 1
LetterboxInBreaks: 0
WidescreenStoryboard: 0

[Editor]
DistanceSpacing: 0.8
BeatDivisor: 4
GridSize: 32
TimelineZoom: 1.8

[Metadata]
Title:sync
TitleUnicode:sync
Artist:OutPhase
ArtistUnicode:OutPhase
Creator:Maeda
Version:Inner Oni
Source:beatmania IIDX 5th style
Tags:Luqua nyanmi-1828 TaQ dj TAKA bemani DanceDanceRevolution DDR TRANCE
BeatmapID:2067126
BeatmapSetID:988145

[Difficulty]
HPDrainRate:5
CircleSize:5
OverallDifficulty:6
ApproachRate:5
SliderMultiplier:1.4
SliderTickRate:1

[Events]
//Background and Video events
0,0,"335-free-backgrounds.png",0,0
//Break Periods
//Storyboard Layer 0 (Background)
//Storyboard Layer 1 (Fail)
//Storyboard Layer 2 (Pass)
//Storyboard Layer 3 (Foreground)
//Storyboard Layer 4 (Overlay)
//Storyboard Sound Samples

[TimingPoints]
327,359.281437125748,4,1,0,60,1,0
91310,-99.009900990099,4,1,0,60,0,0
91403,-98.0392156862745,4,1,0,60,0,0
91493,-97.0873786407767,4,1,0,60,0,0
91673,-96.1538461538461,4,1,0,60,0,0
91763,-95.2380952380952,4,1,0,60,0,0
92303,-95.2380952380952,4,1,0,70,0,1
103800,-95.2380952380952,4,1,0,60,0,0
104159,-100,4,1,0,60,0,0

[HitObjects]
256,192,327,5,0,0:0:0:0:
256,192,1764,1,8,0:0:0:0:
256,192,3201,1,0,0:0:0:0:
256,192,4638,1,0,0:0:0:0:
256,192,6075,1,8,0:0:0:0:
256,192,6255,12,0,11105,0:0:0:0:
256,192,11824,5,0,0:0:0:0:
256,192,12183,1,0,0:0:0:0:
256,192,12542,1,0,0:0:0:0:
256,192,12901,1,0,0:0:0:0:
256,192,13261,1,0,0:0:0:0:
256,192,13620,1,0,0:0:0:0:
256,192,13979,1,0,0:0:0:0:
256,192,14338,1,0,0:0:0:0:
256,192,14698,1,0,0:0:0:0:
256,192,15057,1,0,0:0:0:0:
256,192,15416,1,0,0:0:0:0:
256,192,15775,1,0,0:0:0:0:
256,192,16135,1,0,0:0:0:0:
256,192,16494,1,0,0:0:0:0:
256,192,16853,1,0,0:0:0:0:
256,192,17212,1,0,0:0:0:0:
256,192,17392,1,0,0:0:0:0:
256,192,17572,1,0,0:0:0:0:
256,192,17931,1,0,0:0:0:0:
256,192,18290,1,0,0:0:0:0:
256,192,18649,1,0,0:0:0:0:
256,192,19009,1,0,0:0:0:0:
256,192,19368,1,0,0:0:0:0:
256,192,19727,1,0,0:0:0:0:
256,192,19907,1,8,0:0:0:0:
256,192,20086,1,8,0:0:0:0:
256,192,20446,1,0,0:0:0:0:
256,192,20805,1,0,0:0:0:0:
256,192,21164,1,0,0:0:0:0:
256,192,21523,1,0,0:0:0:0:
256,192,21883,1,0,0:0:0:0:
256,192,23321,1,0,0:0:0:0:
256,192,23500,1,8,0:0:0:0:
256,192,23590,1,8,0:0:0:0:
256,192,23680,1,8,0:0:0:0:
256,192,23859,1,0,0:0:0:0:
256,192,24039,1,8,0:0:0:0:
256,192,24309,1,0,0:0:0:0:
256,192,24398,1,8,0:0:0:0:
256,192,24578,1,8,0:0:0:0:
256,192,24668,1,8,0:0:0:0:
256,192,24758,1,0,0:0:0:0:
256,192,24937,1,0,0:0:0:0:
256,192,25027,1,0,0:0:0:0:
256,192,25117,1,8,0:0:0:0:
256,192,25296,1,0,0:0:0:0:
256,192,25476,1,8,0:0:0:0:
256,192,25746,1,0,0:0:0:0:
256,192,25835,1,8,0:0:0:0:
256,192,26015,1,8,0:0:0:0:
256,192,26105,1,8,0:0:0:0:
256,192,26195,1,0,0:0:0:0:
256,192,26374,1,8,0:0:0:0:
256,192,26464,1,8,0:0:0:0:
256,192,26554,1,8,0:0:0:0:
256,192,26733,1,0,0:0:0:0:
256,192,26913,1,8,0:0:0:0:
256,192,27183,1,0,0:0:0:0:
256,192,27272,1,8,0:0:0:0:
256,192,27452,1,8,0:0:0:0:
256,192,27542,1,8,0:0:0:0:
256,192,27632,1,0,0:0:0:0:
256,192,27811,1,8,0:0:0:0:
256,192,27901,1,0,0:0:0:0:
256,192,27991,1,8,0:0:0:0:
256,192,28170,1,0,0:0:0:0:
256,192,28350,1,8,0:0:0:0:
256,192,28620,1,0,0:0:0:0:
256,192,28709,1,8,0:0:0:0:
256,192,28889,1,8,0:0:0:0:
256,192,28979,1,8,0:0:0:0:
256,192,29069,1,0,0:0:0:0:
256,192,29249,1,8,0:0:0:0:
256,192,29338,1,8,0:0:0:0:
256,192,29428,1,8,0:0:0:0:
256,192,29608,1,0,0:0:0:0:
256,192,29788,1,8,0:0:0:0:
256,192,29877,1,8,0:0:0:0:
256,192,30057,1,0,0:0:0:0:
256,192,30147,1,8,0:0:0:0:
256,192,30326,1,8,0:0:0:0:
256,192,30416,1,8,0:0:0:0:
256,192,30506,1,0,0:0:0:0:
256,192,30686,1,0,0:0:0:0:
256,192,30775,1,0,0:0:0:0:
256,192,30865,1,8,0:0:0:0:
256,192,31045,1,0,0:0:0:0:
256,192,31225,1,8,0:0:0:0:
256,192,31314,1,8,0:0:0:0:
256,192,31494,1,0,0:0:0:0:
256,192,31584,1,8,0:0:0:0:
256,192,31763,1,8,0:0:0:0:
256,192,31853,1,8,0:0:0:0:
256,192,31943,1,0,0:0:0:0:
256,192,32123,1,8,0:0:0:0:
256,192,32212,1,8,0:0:0:0:
256,192,32302,1,8,0:0:0:0:
256,192,32482,1,0,0:0:0:0:
256,192,32662,1,8,0:0:0:0:
256,192,32751,1,8,0:0:0:0:
256,192,32931,1,0,0:0:0:0:
256,192,33021,1,8,0:0:0:0:
256,192,33200,1,8,0:0:0:0:
256,192,33290,1,8,0:0:0:0:
256,192,33380,1,0,0:0:0:0:
256,192,33740,1,8,0:0:0:0:
256,192,33919,1,0,0:0:0:0:
256,192,34099,1,8,0:0:0:0:
256,192,34368,1,0,0:0:0:0:
256,192,34458,1,8,0:0:0:0:
256,192,34638,1,8,0:0:0:0:
256,192,34728,1,8,0:0:0:0:
256,192,34818,1,0,0:0:0:0:
256,192,34997,1,0,0:0:0:0:
256,192,35087,1,0,0:0:0:0:
256,192,35177,1,8,0:0:0:0:
256,192,35356,1,0,0:0:0:0:
256,192,35446,1,0,0:0:0:0:
256,192,35536,1,0,0:0:0:0:
256,192,35626,1,8,0:0:0:0:
256,192,35806,1,0,0:0:0:0:
256,192,35895,1,8,0:0:0:0:
256,192,36075,1,8,0:0:0:0:
256,192,36255,1,0,0:0:0:0:
256,192,36434,1,0,0:0:0:0:
256,192,36524,1,0,0:0:0:0:
256,192,36614,1,8,0:0:0:0:
256,192,36793,1,0,0:0:0:0:
256,192,36883,1,0,0:0:0:0:
256,192,36973,1,8,0:0:0:0:
256,192,37063,1,8,0:0:0:0:
256,192,37243,1,0,0:0:0:0:
256,192,37332,1,8,0:0:0:0:
256,192,37512,1,8,0:0:0:0:
256,192,37692,1,0,0:0:0:0:
256,192,37871,1,0,0:0:0:0:
256,192,37961,1,8,0:0:0:0:
256,192,38051,1,8,0:0:0:0:
256,192,38230,1,0,0:0:0:0:
256,192,38320,1,0,0:0:0:0:
256,192,38410,1,0,0:0:0:0:
256,192,38500,1,8,0:0:0:0:
256,192,38680,1,0,0:0:0:0:
256,192,38769,1,8,0:0:0:0:
256,192,38949,1,8,0:0:0:0:
256,192,39039,1,8,0:0:0:0:
256,192,39129,1,0,0:0:0:0:
256,192,39308,1,0,0:0:0:0:
256,192,39398,1,8,0:0:0:0:
256,192,39488,1,8,0:0:0:0:
256,192,39667,1,0,0:0:0:0:
256,192,39757,1,0,0:0:0:0:
256,192,39847,1,8,0:0:0:0:
256,192,39937,1,8,0:0:0:0:
256,192,40117,1,0,0:0:0:0:
256,192,40206,1,8,0:0:0:0:
256,192,40386,1,8,0:0:0:0:
256,192,40566,1,0,0:0:0:0:
256,192,40745,1,0,0:0:0:0:
256,192,40835,1,0,0:0:0:0:
256,192,40925,1,8,0:0:0:0:
256,192,41104,1,0,0:0:0:0:
256,192,41194,1,0,0:0:0:0:
256,192,41284,1,0,0:0:0:0:
256,192,41374,1,8,0:0:0:0:
256,192,41554,1,0,0:0:0:0:
256,192,41643,1,8,0:0:0:0:
256,192,41823,1,8,0:0:0:0:
256,192,41913,1,8,0:0:0:0:
256,192,42003,1,0,0:0:0:0:
256,192,42182,1,0,0:0:0:0:
256,192,42272,1,0,0:0:0:0:
256,192,42362,1,8,0:0:0:0:
256,192,42541,1,0,0:0:0:0:
256,192,42631,1,0,0:0:0:0:
256,192,42721,1,8,0:0:0:0:
256,192,42811,1,8,0:0:0:0:
256,192,42991,1,0,0:0:0:0:
256,192,43080,1,8,0:0:0:0:
256,192,43171,1,0,0:0:0:0:
256,192,43260,1,8,0:0:0:0:
256,192,43350,1,8,0:0:0:0:
256,192,43440,1,0,0:0:0:0:
256,192,43619,1,0,0:0:0:0:
256,192,43709,1,8,0:0:0:0:
256,192,43799,1,8,0:0:0:0:
256,192,43978,1,0,0:0:0:0:
256,192,44069,1,0,0:0:0:0:
256,192,44159,1,8,0:0:0:0:
256,192,44248,1,8,0:0:0:0:
256,192,44428,1,0,0:0:0:0:
256,192,44518,1,8,0:0:0:0:
256,192,44608,1,8,0:0:0:0:
256,192,44697,1,0,0:0:0:0:
256,192,44788,1,8,0:0:0:0:
256,192,44877,1,0,0:0:0:0:
256,192,45056,1,0,0:0:0:0:
256,192,45146,1,8,0:0:0:0:
256,192,45236,1,8,0:0:0:0:
256,192,45415,1,0,0:0:0:0:
256,192,45505,1,0,0:0:0:0:
256,192,45595,1,8,0:0:0:0:
256,192,45685,1,8,0:0:0:0:
256,192,45865,1,0,0:0:0:0:
256,192,45955,1,8,0:0:0:0:
256,192,46045,1,8,0:0:0:0:
256,192,46134,1,8,0:0:0:0:
256,192,46225,1,8,0:0:0:0:
256,192,46315,1,4,0:0:0:0:
256,192,46674,1,8,0:0:0:0:
256,192,46853,1,0,0:0:0:0:
256,192,46943,1,8,0:0:0:0:
256,192,47123,1,0,0:0:0:0:
256,192,47213,1,8,0:0:0:0:
256,192,47392,1,8,0:0:0:0:
256,192,47572,1,8,0:0:0:0:
256,192,47752,1,0,0:0:0:0:
256,192,47841,1,8,0:0:0:0:
256,192,47931,1,8,0:0:0:0:
256,192,48111,1,8,0:0:0:0:
256,192,48291,1,0,0:0:0:0:
256,192,48380,1,8,0:0:0:0:
256,192,48560,1,0,0:0:0:0:
256,192,48650,1,8,0:0:0:0:
256,192,48829,1,8,0:0:0:0:
256,192,49009,1,8,0:0:0:0:
256,192,49189,1,8,0:0:0:0:
256,192,49368,1,0,0:0:0:0:
256,192,49458,1,0,0:0:0:0:
256,192,49548,1,8,0:0:0:0:
256,192,49728,1,0,0:0:0:0:
256,192,49907,1,8,0:0:0:0:
256,192,50087,1,0,0:0:0:0:
256,192,50177,1,8,0:0:0:0:
256,192,50267,1,8,0:0:0:0:
256,192,50446,1,0,0:0:0:0:
256,192,50626,1,8,0:0:0:0:
256,192,50806,1,0,0:0:0:0:
256,192,50895,1,8,0:0:0:0:
256,192,50985,1,8,0:0:0:0:
256,192,51165,1,0,0:0:0:0:
256,192,51344,1,8,0:0:0:0:
256,192,51524,1,0,0:0:0:0:
256,192,51614,1,0,0:0:0:0:
256,192,51704,1,8,0:0:0:0:
256,192,51883,1,8,0:0:0:0:
256,192,52063,1,0,0:0:0:0:
256,192,52243,1,0,0:0:0:0:
256,192,52422,1,8,0:0:0:0:
256,192,52601,1,0,0:0:0:0:
256,192,52691,1,8,0:0:0:0:
256,192,52871,1,0,0:0:0:0:
256,192,52961,1,8,0:0:0:0:
256,192,53141,1,8,0:0:0:0:
256,192,53321,1,8,0:0:0:0:
256,192,53500,1,8,0:0:0:0:
256,192,53589,1,0,0:0:0:0:
256,192,53680,1,8,0:0:0:0:
256,192,53859,1,8,0:0:0:0:
256,192,54039,1,0,0:0:0:0:
256,192,54128,1,8,0:0:0:0:
256,192,54308,1,0,0:0:0:0:
256,192,54398,1,8,0:0:0:0:
256,192,54577,1,8,0:0:0:0:
256,192,54758,1,0,0:0:0:0:
256,192,54937,1,8,0:0:0:0:
256,192,55116,1,0,0:0:0:0:
256,192,55206,1,0,0:0:0:0:
256,192,55296,1,8,0:0:0:0:
256,192,55476,1,0,0:0:0:0:
256,192,55655,1,8,0:0:0:0:
256,192,55835,1,0,0:0:0:0:
256,192,55925,1,8,0:0:0:0:
256,192,56015,1,8,0:0:0:0:
256,192,56194,1,0,0:0:0:0:
256,192,56374,1,8,0:0:0:0:
256,192,56554,1,0,0:0:0:0:
256,192,56643,1,8,0:0:0:0:
256,192,56733,1,8,0:0:0:0:
256,192,56913,1,0,0:0:0:0:
256,192,57092,1,8,0:0:0:0:
256,192,57272,1,0,0:0:0:0:
256,192,57362,1,0,0:0:0:0:
256,192,57452,1,8,0:0:0:0:
256,192,57631,1,0,0:0:0:0:
256,192,57812,1,0,0:0:0:0:
256,192,57901,1,0,0:0:0:0:
256,192,57991,1,0,0:0:0:0:
256,192,58171,1,8,0:0:0:0:
256,192,58350,1,0,0:0:0:0:
256,192,58440,1,8,0:0:0:0:
256,192,58620,1,0,0:0:0:0:
256,192,58710,1,8,0:0:0:0:
256,192,58889,1,8,0:0:0:0:
256,192,59069,1,8,0:0:0:0:
256,192,59159,1,8,0:0:0:0:
256,192,59249,1,0,0:0:0:0:
256,192,59338,1,8,0:0:0:0:
256,192,59428,1,8,0:0:0:0:
256,192,59608,1,8,0:0:0:0:
256,192,59788,1,0,0:0:0:0:
256,192,59877,1,8,0:0:0:0:
256,192,60057,1,0,0:0:0:0:
256,192,60147,1,8,0:0:0:0:
256,192,60326,1,8,0:0:0:0:
256,192,60506,1,8,0:0:0:0:
256,192,60686,1,8,0:0:0:0:
256,192,60865,1,0,0:0:0:0:
256,192,60955,1,0,0:0:0:0:
256,192,61045,1,8,0:0:0:0:
256,192,61135,1,0,0:0:0:0:
256,192,61225,1,0,0:0:0:0:
256,192,61404,1,8,0:0:0:0:
256,192,61584,1,0,0:0:0:0:
256,192,61674,1,8,0:0:0:0:
256,192,61764,1,8,0:0:0:0:
256,192,61853,1,0,0:0:0:0:
256,192,61943,1,0,0:0:0:0:
256,192,62123,1,8,0:0:0:0:
256,192,62303,1,0,0:0:0:0:
256,192,62392,1,8,0:0:0:0:
256,192,62482,1,8,0:0:0:0:
256,192,62572,1,8,0:0:0:0:
256,192,62662,1,0,0:0:0:0:
256,192,62841,1,8,0:0:0:0:
256,192,63021,1,0,0:0:0:0:
256,192,63111,1,0,0:0:0:0:
256,192,63201,1,8,0:0:0:0:
256,192,63291,1,0,0:0:0:0:
256,192,63380,1,8,0:0:0:0:
256,192,63560,1,0,0:0:0:0:
256,192,63649,1,0,0:0:0:0:
256,192,63739,1,0,0:0:0:0:
256,192,63919,1,8,0:0:0:0:
256,192,64098,1,0,0:0:0:0:
256,192,64188,1,8,0:0:0:0:
256,192,64368,1,0,0:0:0:0:
256,192,64458,1,8,0:0:0:0:
256,192,64637,1,8,0:0:0:0:
256,192,64818,1,8,0:0:0:0:
256,192,64907,1,0,0:0:0:0:
256,192,64997,1,8,0:0:0:0:
256,192,65087,1,0,0:0:0:0:
256,192,65177,1,8,0:0:0:0:
256,192,65356,1,8,0:0:0:0:
256,192,65536,1,0,0:0:0:0:
256,192,65625,1,8,0:0:0:0:
256,192,65805,1,0,0:0:0:0:
256,192,65895,1,8,0:0:0:0:
256,192,66074,1,8,0:0:0:0:
256,192,66254,1,0,0:0:0:0:
256,192,66434,1,8,0:0:0:0:
256,192,66613,1,0,0:0:0:0:
256,192,66703,1,0,0:0:0:0:
256,192,66793,1,8,0:0:0:0:
256,192,66883,1,0,0:0:0:0:
256,192,66973,1,0,0:0:0:0:
256,192,67152,1,8,0:0:0:0:
256,192,67332,1,0,0:0:0:0:
256,192,67422,1,8,0:0:0:0:
256,192,67512,1,8,0:0:0:0:
256,192,67601,1,0,0:0:0:0:
256,192,67691,1,0,0:0:0:0:
256,192,67871,1,8,0:0:0:0:
256,192,68051,1,0,0:0:0:0:
256,192,68140,1,8,0:0:0:0:
256,192,68230,1,8,0:0:0:0:
256,192,68320,1,8,0:0:0:0:
256,192,68410,1,0,0:0:0:0:
256,192,68589,1,8,0:0:0:0:
256,192,68769,1,0,0:0:0:0:
256,192,68859,1,0,0:0:0:0:
256,192,68949,1,8,0:0:0:0:
256,192,69039,1,0,0:0:0:0:
256,192,69128,1,0,0:0:0:0:
256,192,69309,1,0,0:0:0:0:
256,192,69398,1,8,0:0:0:0:
256,192,69488,1,0,0:0:0:0:
256,192,69668,1,8,0:0:0:0:
256,192,69758,1,0,0:0:0:0:
256,192,69937,1,8,0:0:0:0:
256,192,70117,1,0,0:0:0:0:
256,192,70207,1,8,0:0:0:0:
256,192,70386,1,0,0:0:0:0:
256,192,70476,1,0,0:0:0:0:
256,192,70566,1,8,0:0:0:0:
256,192,70656,1,8,0:0:0:0:
256,192,70746,1,0,0:0:0:0:
256,192,70835,1,8,0:0:0:0:
256,192,70925,1,8,0:0:0:0:
256,192,71105,1,0,0:0:0:0:
256,192,71195,1,8,0:0:0:0:
256,192,71374,1,8,0:0:0:0:
256,192,71554,1,8,0:0:0:0:
256,192,71644,1,8,0:0:0:0:
256,192,71823,1,0,0:0:0:0:
256,192,71913,1,8,0:0:0:0:
256,192,72003,1,8,0:0:0:0:
256,192,72183,1,8,0:0:0:0:
256,192,72273,1,8,0:0:0:0:
256,192,72362,1,0,0:0:0:0:
256,192,72542,1,8,0:0:0:0:
256,192,72632,1,8,0:0:0:0:
256,192,72722,1,0,0:0:0:0:
256,192,72901,1,8,0:0:0:0:
256,192,72991,1,0,0:0:0:0:
256,192,73081,1,0,0:0:0:0:
256,192,73261,1,8,0:0:0:0:
256,192,73351,1,0,0:0:0:0:
256,192,73441,1,0,0:0:0:0:
256,192,73620,1,8,0:0:0:0:
256,192,73710,1,0,0:0:0:0:
256,192,73800,1,0,0:0:0:0:
256,192,73979,1,8,0:0:0:0:
256,192,74069,1,0,0:0:0:0:
256,192,74159,1,0,0:0:0:0:
256,192,74249,1,8,0:0:0:0:
256,192,74338,1,8,0:0:0:0:
256,192,74428,1,8,0:0:0:0:
256,192,74518,1,0,0:0:0:0:
256,192,74698,1,8,0:0:0:0:
256,192,74788,1,8,0:0:0:0:
256,192,74877,1,0,0:0:0:0:
256,192,74967,1,8,0:0:0:0:
256,192,75057,1,0,0:0:0:0:
256,192,75146,1,8,0:0:0:0:
256,192,75236,1,0,0:0:0:0:
256,192,75416,1,8,0:0:0:0:
256,192,75506,1,0,0:0:0:0:
256,192,75685,1,8,0:0:0:0:
256,192,75865,1,0,0:0:0:0:
256,192,75955,1,8,0:0:0:0:
256,192,76134,1,0,0:0:0:0:
256,192,76224,1,0,0:0:0:0:
256,192,76314,1,8,0:0:0:0:
256,192,76404,1,8,0:0:0:0:
256,192,76494,1,0,0:0:0:0:
256,192,76583,1,8,0:0:0:0:
256,192,76673,1,8,0:0:0:0:
256,192,76853,1,0,0:0:0:0:
256,192,76943,1,8,0:0:0:0:
256,192,77122,1,8,0:0:0:0:
256,192,77302,1,8,0:0:0:0:
256,192,77392,1,8,0:0:0:0:
256,192,77571,1,0,0:0:0:0:
256,192,77661,1,8,0:0:0:0:
256,192,77751,1,8,0:0:0:0:
256,192,77931,1,8,0:0:0:0:
256,192,78021,1,8,0:0:0:0:
256,192,78110,1,0,0:0:0:0:
256,192,78290,1,8,0:0:0:0:
256,192,78380,1,8,0:0:0:0:
256,192,78470,1,0,0:0:0:0:
256,192,78649,1,8,0:0:0:0:
256,192,78739,1,8,0:0:0:0:
256,192,78829,1,0,0:0:0:0:
256,192,79009,1,8,0:0:0:0:
256,192,79099,1,0,0:0:0:0:
256,192,79189,1,0,0:0:0:0:
256,192,79368,1,8,0:0:0:0:
256,192,79458,1,0,0:0:0:0:
256,192,79548,1,0,0:0:0:0:
256,192,79727,1,8,0:0:0:0:
256,192,79817,1,0,0:0:0:0:
256,192,79907,1,0,0:0:0:0:
256,192,79997,1,8,0:0:0:0:
256,192,80086,1,8,0:0:0:0:
256,192,80176,1,8,0:0:0:0:
256,192,80266,1,0,0:0:0:0:
256,192,80446,1,8,0:0:0:0:
256,192,80536,1,8,0:0:0:0:
256,192,80625,1,0,0:0:0:0:
256,192,80715,1,8,0:0:0:0:
256,192,80806,1,0,0:0:0:0:
256,192,80895,1,8,0:0:0:0:
256,192,80985,1,0,0:0:0:0:
256,192,81165,1,8,0:0:0:0:
256,192,81255,1,0,0:0:0:0:
256,192,81434,1,8,0:0:0:0:
256,192,81614,1,0,0:0:0:0:
256,192,81704,1,8,0:0:0:0:
256,192,81883,1,0,0:0:0:0:
256,192,81973,1,0,0:0:0:0:
256,192,82063,1,8,0:0:0:0:
256,192,82153,1,8,0:0:0:0:
256,192,82243,1,0,0:0:0:0:
256,192,82332,1,8,0:0:0:0:
256,192,82422,1,8,0:0:0:0:
256,192,82602,1,0,0:0:0:0:
256,192,82692,1,8,0:0:0:0:
256,192,82871,1,8,0:0:0:0:
256,192,83051,1,8,0:0:0:0:
256,192,83141,1,8,0:0:0:0:
256,192,83320,1,0,0:0:0:0:
256,192,83410,1,8,0:0:0:0:
256,192,83500,1,8,0:0:0:0:
256,192,83680,1,8,0:0:0:0:
256,192,83770,1,8,0:0:0:0:
256,192,83859,1,0,0:0:0:0:
256,192,84039,1,8,0:0:0:0:
256,192,84129,1,8,0:0:0:0:
256,192,84219,1,0,0:0:0:0:
256,192,84309,1,0,0:0:0:0:
256,192,84398,1,8,0:0:0:0:
256,192,84488,1,0,0:0:0:0:
256,192,84578,1,0,0:0:0:0:
256,192,84758,1,8,0:0:0:0:
256,192,84848,1,0,0:0:0:0:
256,192,84938,1,0,0:0:0:0:
256,192,85027,1,0,0:0:0:0:
256,192,85117,1,8,0:0:0:0:
256,192,85207,1,8,0:0:0:0:
256,192,85297,1,0,0:0:0:0:
256,192,85476,1,8,0:0:0:0:
256,192,85566,1,0,0:0:0:0:
256,192,85656,1,0,0:0:0:0:
256,192,85746,1,8,0:0:0:0:
256,192,85835,1,8,0:0:0:0:
256,192,85925,1,8,0:0:0:0:
256,192,86015,1,0,0:0:0:0:
256,192,86195,1,8,0:0:0:0:
256,192,86285,1,8,0:0:0:0:
256,192,86374,1,0,0:0:0:0:
256,192,86464,1,8,0:0:0:0:
256,192,86554,1,0,0:0:0:0:
256,192,86643,1,8,0:0:0:0:
256,192,86733,1,0,0:0:0:0:
256,192,86913,1,8,0:0:0:0:
256,192,87003,1,0,0:0:0:0:
256,192,87182,1,8,0:0:0:0:
256,192,87362,1,0,0:0:0:0:
256,192,87452,1,8,0:0:0:0:
256,192,87631,1,0,0:0:0:0:
256,192,87721,1,0,0:0:0:0:
256,192,87811,1,8,0:0:0:0:
256,192,87901,1,8,0:0:0:0:
256,192,87991,1,0,0:0:0:0:
256,192,88080,1,8,0:0:0:0:
256,192,88170,1,8,0:0:0:0:
256,192,88350,1,0,0:0:0:0:
256,192,88440,1,8,0:0:0:0:
256,192,88619,1,8,0:0:0:0:
256,192,88799,1,8,0:0:0:0:
256,192,88889,1,8,0:0:0:0:
256,192,89068,1,0,0:0:0:0:
256,192,89158,1,8,0:0:0:0:
256,192,89248,1,8,0:0:0:0:
256,192,89428,1,8,0:0:0:0:
256,192,89518,1,8,0:0:0:0:
256,192,89607,1,0,0:0:0:0:
256,192,89698,1,8,0:0:0:0:
256,192,89787,1,8,0:0:0:0:
256,192,89877,1,8,0:0:0:0:
256,192,89967,1,0,0:0:0:0:
256,192,90057,1,8,0:0:0:0:
256,192,90146,1,8,0:0:0:0:
256,192,90236,1,0,0:0:0:0:
256,192,90326,1,0,0:0:0:0:
256,192,90506,1,8,0:0:0:0:
256,192,90596,1,0,0:0:0:0:
256,192,90686,1,0,0:0:0:0:
256,192,90776,1,8,0:0:0:0:
256,192,90865,1,8,0:0:0:0:
256,192,90955,1,0,0:0:0:0:
256,192,91045,1,0,0:0:0:0:
256,192,91224,1,8,0:0:0:0:
256,192,91314,1,0,0:0:0:0:
256,192,91404,1,0,0:0:0:0:
256,192,91494,1,8,0:0:0:0:
256,192,91673,1,8,0:0:0:0:
256,192,91763,1,0,0:0:0:0:
256,192,91943,1,8,0:0:0:0:
256,192,92033,1,8,0:0:0:0:
256,192,92122,1,0,0:0:0:0:
256,192,92212,1,8,0:0:0:0:
256,192,92303,1,0,0:0:0:0:
256,192,92392,1,8,0:0:0:0:
256,192,92482,1,0,0:0:0:0:
256,192,92662,1,8,0:0:0:0:
256,192,92752,1,0,0:0:0:0:
256,192,92931,1,8,0:0:0:0:
256,192,93111,1,0,0:0:0:0:
256,192,93201,1,8,0:0:0:0:
256,192,93291,1,8,0:0:0:0:
256,192,93380,1,0,0:0:0:0:
256,192,93470,1,8,0:0:0:0:
256,192,93560,1,8,0:0:0:0:
256,192,93650,1,8,0:0:0:0:
256,192,93740,1,0,0:0:0:0:
256,192,93829,1,8,0:0:0:0:
256,192,93919,1,8,0:0:0:0:
256,192,94099,1,0,0:0:0:0:
256,192,94189,1,8,0:0:0:0:
256,192,94368,1,8,0:0:0:0:
256,192,94548,1,0,0:0:0:0:
256,192,94638,1,8,0:0:0:0:
256,192,94728,1,8,0:0:0:0:
256,192,94818,1,0,0:0:0:0:
256,192,94907,1,8,0:0:0:0:
256,192,94997,1,8,0:0:0:0:
256,192,95177,1,8,0:0:0:0:
256,192,95267,1,8,0:0:0:0:
256,192,95356,1,0,0:0:0:0:
256,192,95446,1,0,0:0:0:0:
256,192,95536,1,8,0:0:0:0:
256,192,95626,1,8,0:0:0:0:
256,192,95716,1,0,0:0:0:0:
256,192,95806,1,0,0:0:0:0:
256,192,95895,1,8,0:0:0:0:
256,192,95985,1,0,0:0:0:0:
256,192,96075,1,0,0:0:0:0:
256,192,96165,1,8,0:0:0:0:
256,192,96255,1,8,0:0:0:0:
256,192,96344,1,8,0:0:0:0:
256,192,96434,1,0,0:0:0:0:
256,192,96614,1,8,0:0:0:0:
256,192,96704,1,0,0:0:0:0:
256,192,96794,1,0,0:0:0:0:
256,192,96883,1,0,0:0:0:0:
256,192,96973,1,8,0:0:0:0:
256,192,97063,1,0,0:0:0:0:
256,192,97153,1,0,0:0:0:0:
256,192,97243,1,0,0:0:0:0:
256,192,97332,1,8,0:0:0:0:
256,192,97422,1,0,0:0:0:0:
256,192,97512,1,0,0:0:0:0:
256,192,97602,1,8,0:0:0:0:
256,192,97692,1,8,0:0:0:0:
256,192,97782,1,8,0:0:0:0:
256,192,97871,1,0,0:0:0:0:
256,192,97961,1,8,0:0:0:0:
256,192,98051,1,0,0:0:0:0:
256,192,98140,1,8,0:0:0:0:
256,192,98230,1,0,0:0:0:0:
256,192,98410,1,8,0:0:0:0:
256,192,98500,1,0,0:0:0:0:
256,192,98679,1,8,0:0:0:0:
256,192,98859,1,0,0:0:0:0:
256,192,98949,1,8,0:0:0:0:
256,192,99039,1,8,0:0:0:0:
256,192,99128,1,0,0:0:0:0:
256,192,99218,1,8,0:0:0:0:
256,192,99308,1,8,0:0:0:0:
256,192,99398,1,8,0:0:0:0:
256,192,99488,1,0,0:0:0:0:
256,192,99577,1,8,0:0:0:0:
256,192,99667,1,8,0:0:0:0:
256,192,99847,1,0,0:0:0:0:
256,192,99937,1,8,0:0:0:0:
256,192,100116,1,8,0:0:0:0:
256,192,100297,1,0,0:0:0:0:
256,192,100386,1,8,0:0:0:0:
256,192,100476,1,8,0:0:0:0:
256,192,100566,1,0,0:0:0:0:
256,192,100655,1,8,0:0:0:0:
256,192,100745,1,8,0:0:0:0:
256,192,100925,1,8,0:0:0:0:
256,192,101015,1,8,0:0:0:0:
256,192,101104,1,0,0:0:0:0:
256,192,101194,1,0,0:0:0:0:
256,192,101284,1,8,0:0:0:0:
256,192,101374,1,8,0:0:0:0:
256,192,101464,1,0,0:0:0:0:
256,192,101554,1,0,0:0:0:0:
256,192,101643,1,8,0:0:0:0:
256,192,101733,1,0,0:0:0:0:
256,192,101823,1,0,0:0:0:0:
256,192,101913,1,8,0:0:0:0:
256,192,102003,1,8,0:0:0:0:
256,192,102092,1,8,0:0:0:0:
256,192,102182,1,0,0:0:0:0:
256,192,102362,1,8,0:0:0:0:
256,192,102452,1,0,0:0:0:0:
256,192,102542,1,0,0:0:0:0:
256,192,102631,1,0,0:0:0:0:
256,192,102721,1,8,0:0:0:0:
256,192,102811,1,0,0:0:0:0:
256,192,102901,1,0,0:0:0:0:
256,192,102991,1,0,0:0:0:0:
256,192,103080,1,8,0:0:0:0:
256,192,103170,1,0,0:0:0:0:
256,192,103260,1,0,0:0:0:0:
256,192,103350,1,8,0:0:0:0:
256,192,103440,1,8,0:0:0:0:
256,192,103530,1,8,0:0:0:0:
256,192,103619,1,0,0:0:0:0:
256,192,103709,1,8,0:0:0:0:
256,192,103800,1,0,0:0:0:0:
256,192,104518,1,0,0:0:0:0:
256,192,104697,1,8,0:0:0:0:
256,192,104787,1,8,0:0:0:0:
256,192,104877,1,8,0:0:0:0:
256,192,104967,1,8,0:0:0:0:
256,192,105057,1,8,0:0:0:0:
256,192,105147,1,8,0:0:0:0:
256,192,105236,1,0,0:0:0:0:
256,192,105955,1,0,0:0:0:0:
256,192,106134,1,8,0:0:0:0:
256,192,106224,1,8,0:0:0:0:
256,192,106314,1,8,0:0:0:0:
256,192,106404,1,8,0:0:0:0:
256,192,106494,1,8,0:0:0:0:
256,192,106584,1,8,0:0:0:0:
256,192,106673,1,0,0:0:0:0:
256,192,107571,1,8,0:0:0:0:
256,192,107661,1,8,0:0:0:0:
256,192,107751,1,8,0:0:0:0:
256,192,107841,1,8,0:0:0:0:
256,192,107931,1,8,0:0:0:0:
256,192,108021,1,8,0:0:0:0:
256,192,109008,1,8,0:0:0:0:
256,192,109098,1,8,0:0:0:0:
256,192,109188,1,8,0:0:0:0:
256,192,109278,1,8,0:0:0:0:
256,192,109368,1,8,0:0:0:0:
256,192,109458,1,8,0:0:0:0:
256,192,109548,1,0,0:0:0:0:
256,192,110267,1,0,0:0:0:0:
256,192,110446,1,8,0:0:0:0:
256,192,110536,1,8,0:0:0:0:
256,192,110626,1,8,0:0:0:0:
256,192,110806,1,8,0:0:0:0:
256,192,110985,1,8,0:0:0:0:
256,192,111704,1,0,0:0:0:0:
256,192,112422,1,4,0:0:0:0:
