osu file format v14

[General]
AudioFilename: audio.mp3
AudioLeadIn: 0
PreviewTime: 46225
Countdown: 0
SampleSet: Normal
StackLeniency: 0.7
Mode: 1
LetterboxInBreaks: 0
WidescreenStoryboard: 1

[Editor]
DistanceSpacing: 0.8
BeatDivisor: 2
GridSize: 32
TimelineZoom: 1.8

[Metadata]
Title:sync
TitleUnicode:sync
Artist:OutPhase
ArtistUnicode:OutPhase
Creator:Maeda
Version:Futsuu
Source:beatmania IIDX 5th style
Tags:Luqua nyanmi-1828 TaQ dj TAKA bemani DanceDanceRevolution DDR TRANCE
BeatmapID:2161583
BeatmapSetID:988145

[Difficulty]
HPDrainRate:6
CircleSize:5
OverallDifficulty:4
ApproachRate:5
SliderMultiplier:1.4
SliderTickRate:1

[Events]
//Background and Video events
0,0,"335-free-backgrounds.png",0,0
//Break Periods
//Storyboard Layer 0 (Background)
//Storyboard Layer 1 (Fail)
//Storyboard Layer 2 (Pass)
//Storyboard Layer 3 (Foreground)
//Storyboard Layer 4 (Overlay)
//Storyboard Sound Samples

[TimingPoints]
327,359.281437125748,4,1,0,60,1,0
92303,-100,4,1,0,70,0,1
103800,-100,4,1,0,60,0,0

[HitObjects]
256,192,327,5,0,0:0:0:0:
256,192,1764,1,8,0:0:0:0:
256,192,3201,1,0,0:0:0:0:
256,192,4638,1,0,0:0:0:0:
256,192,6075,1,8,0:0:0:0:
256,192,6255,12,0,11105,0:0:0:0:
256,192,11824,5,0,0:0:0:0:
256,192,12542,1,0,0:0:0:0:
256,192,13261,1,0,0:0:0:0:
256,192,13979,1,0,0:0:0:0:
256,192,14698,1,0,0:0:0:0:
256,192,15416,1,0,0:0:0:0:
256,192,16135,1,0,0:0:0:0:
256,192,16853,1,0,0:0:0:0:
256,192,17213,1,0,0:0:0:0:
256,192,17572,1,0,0:0:0:0:
256,192,18291,1,0,0:0:0:0:
256,192,19009,1,0,0:0:0:0:
256,192,19728,1,0,0:0:0:0:
256,192,20087,1,8,0:0:0:0:
256,192,20446,1,0,0:0:0:0:
256,192,21165,1,0,0:0:0:0:
256,192,21883,1,0,0:0:0:0:
256,192,23321,1,0,0:0:0:0:
256,192,23680,1,8,0:0:0:0:
256,192,23859,1,0,0:0:0:0:
256,192,24039,1,8,0:0:0:0:
256,192,24398,1,8,0:0:0:0:
256,192,24758,1,0,0:0:0:0:
256,192,25117,1,8,0:0:0:0:
256,192,25476,1,8,0:0:0:0:
256,192,26195,1,0,0:0:0:0:
256,192,26554,1,8,0:0:0:0:
256,192,26733,1,0,0:0:0:0:
256,192,26913,1,8,0:0:0:0:
256,192,27272,1,8,0:0:0:0:
256,192,27632,1,0,0:0:0:0:
256,192,27991,1,8,0:0:0:0:
256,192,28350,1,8,0:0:0:0:
256,192,28889,1,0,0:0:0:0:
256,192,29069,1,0,0:0:0:0:
256,192,29428,1,8,0:0:0:0:
256,192,29607,1,0,0:0:0:0:
256,192,29787,1,8,0:0:0:0:
256,192,30147,1,0,0:0:0:0:
256,192,30506,1,0,0:0:0:0:
256,192,30865,1,8,0:0:0:0:
256,192,31044,1,0,0:0:0:0:
256,192,31224,1,8,0:0:0:0:
256,192,31943,1,0,0:0:0:0:
256,192,32303,1,8,0:0:0:0:
256,192,32482,1,0,0:0:0:0:
256,192,32662,1,8,0:0:0:0:
256,192,33021,1,0,0:0:0:0:
256,192,33201,1,8,0:0:0:0:
256,192,33380,1,0,0:0:0:0:
256,192,34818,1,0,0:0:0:0:
256,192,35177,1,0,0:0:0:0:
256,192,35356,1,0,0:0:0:0:
256,192,35536,1,8,0:0:0:0:
256,192,35895,1,8,0:0:0:0:
256,192,36255,1,0,0:0:0:0:
256,192,36614,1,0,0:0:0:0:
256,192,36793,1,0,0:0:0:0:
256,192,36973,1,8,0:0:0:0:
256,192,37692,1,0,0:0:0:0:
256,192,38051,1,8,0:0:0:0:
256,192,38230,1,0,0:0:0:0:
256,192,38410,1,8,0:0:0:0:
256,192,38769,1,8,0:0:0:0:
256,192,39129,1,0,0:0:0:0:
256,192,39488,1,0,0:0:0:0:
256,192,39847,1,8,0:0:0:0:
256,192,40566,1,0,0:0:0:0:
256,192,40925,1,0,0:0:0:0:
256,192,41104,1,0,0:0:0:0:
256,192,41284,1,8,0:0:0:0:
256,192,41643,1,8,0:0:0:0:
256,192,42003,1,0,0:0:0:0:
256,192,42362,1,0,0:0:0:0:
256,192,42541,1,0,0:0:0:0:
256,192,42721,1,8,0:0:0:0:
256,192,43440,1,0,0:0:0:0:
256,192,43799,1,8,0:0:0:0:
256,192,43978,1,0,0:0:0:0:
256,192,44158,1,8,0:0:0:0:
256,192,44517,1,8,0:0:0:0:
256,192,44698,1,8,0:0:0:0:
256,192,44877,12,0,46135,0:0:0:0:
256,192,46315,5,4,0:0:0:0:
256,192,47752,5,0,0:0:0:0:
256,192,49189,5,0,0:0:0:0:
256,192,49907,1,0,0:0:0:0:
256,192,50626,1,8,0:0:0:0:
256,192,51344,1,8,0:0:0:0:
256,192,52063,1,12,0:0:0:0:
256,192,53500,1,8,0:0:0:0:
256,192,54937,1,8,0:1:0:0:
256,192,55656,1,8,0:1:0:0:
256,192,56374,1,0,0:1:0:0:
256,192,57093,1,0,0:1:0:0:
256,192,57812,1,0,0:0:0:0:
256,192,58171,5,8,0:0:0:0:
256,192,58530,1,0,0:0:0:0:
256,192,58710,1,0,0:0:0:0:
256,192,58889,1,8,0:0:0:0:
256,192,59249,1,0,0:0:0:0:
256,192,59608,5,8,0:0:0:0:
256,192,59967,1,0,0:0:0:0:
256,192,60147,1,8,0:0:0:0:
256,192,60326,1,8,0:0:0:0:
256,192,60686,1,0,0:0:0:0:
256,192,61045,1,8,0:0:0:0:
256,192,61225,1,0,0:0:0:0:
256,192,61404,1,8,0:0:0:0:
256,192,61764,1,8,0:0:0:0:
256,192,62123,1,8,0:0:0:0:
256,192,62482,1,8,0:0:0:0:
256,192,62662,1,0,0:0:0:0:
256,192,62841,1,8,0:0:0:0:
256,192,63560,1,0,0:0:0:0:
256,192,63919,1,8,0:0:0:0:
256,192,64279,1,0,0:0:0:0:
256,192,64458,1,0,0:0:0:0:
256,192,64637,1,8,0:0:0:0:
256,192,64997,1,8,0:0:0:0:
256,192,65356,1,8,0:0:0:0:
256,192,65716,1,0,0:0:0:0:
256,192,65895,1,0,0:0:0:0:
256,192,66075,1,0,0:0:0:0:
256,192,66434,1,8,0:0:0:0:
256,192,66614,1,8,0:0:0:0:
256,192,66794,1,0,0:0:0:0:
256,192,67153,1,8,0:0:0:0:
256,192,67332,1,8,0:0:0:0:
256,192,67512,1,0,0:0:0:0:
256,192,67871,1,8,0:0:0:0:
256,192,68051,1,0,0:0:0:0:
256,192,68231,1,0,0:0:0:0:
256,192,68590,1,8,0:0:0:0:
256,192,69309,1,0,0:0:0:0:
256,192,69668,5,8,0:0:0:0:
256,192,70027,1,0,0:0:0:0:
256,192,70207,1,0,0:0:0:0:
256,192,70386,1,8,0:0:0:0:
256,192,70746,1,0,0:0:0:0:
256,192,71105,5,8,0:0:0:0:
256,192,71464,1,8,0:0:0:0:
256,192,71644,1,8,0:0:0:0:
256,192,71823,1,8,0:0:0:0:
256,192,72183,1,8,0:0:0:0:
256,192,72362,1,0,0:0:0:0:
256,192,72542,1,8,0:0:0:0:
256,192,72901,1,8,0:0:0:0:
256,192,73081,1,0,0:0:0:0:
256,192,73261,1,8,0:0:0:0:
256,192,73620,1,8,0:0:0:0:
256,192,73800,1,0,0:0:0:0:
256,192,73979,1,0,0:0:0:0:
256,192,74338,1,8,0:0:0:0:
256,192,75057,1,0,0:0:0:0:
256,192,75416,1,8,0:0:0:0:
256,192,75776,1,0,0:0:0:0:
256,192,75955,1,0,0:0:0:0:
256,192,76134,1,8,0:0:0:0:
256,192,76494,1,8,0:0:0:0:
256,192,76853,1,8,0:0:0:0:
256,192,77213,1,8,0:0:0:0:
256,192,77392,1,8,0:0:0:0:
256,192,77572,1,8,0:0:0:0:
256,192,77931,1,8,0:0:0:0:
256,192,78111,1,8,0:0:0:0:
256,192,78291,1,0,0:0:0:0:
256,192,78650,1,8,0:0:0:0:
256,192,78829,1,0,0:0:0:0:
256,192,79009,1,0,0:0:0:0:
256,192,79368,1,8,0:0:0:0:
256,192,79548,1,0,0:0:0:0:
256,192,79728,1,8,0:0:0:0:
256,192,80087,1,8,0:0:0:0:
256,192,80806,1,0,0:0:0:0:
256,192,81165,1,8,0:0:0:0:
256,192,81524,1,0,0:0:0:0:
256,192,81704,1,0,0:0:0:0:
256,192,81883,1,8,0:0:0:0:
256,192,82243,1,0,0:0:0:0:
256,192,82602,1,8,0:0:0:0:
256,192,82961,1,0,0:0:0:0:
256,192,83141,1,0,0:0:0:0:
256,192,83320,1,8,0:0:0:0:
256,192,83680,1,8,0:0:0:0:
256,192,83859,1,8,0:0:0:0:
256,192,84039,1,0,0:0:0:0:
256,192,84398,1,8,0:0:0:0:
256,192,84578,1,0,0:0:0:0:
256,192,84758,1,0,0:0:0:0:
256,192,85117,1,8,0:0:0:0:
256,192,85297,1,0,0:0:0:0:
256,192,85476,1,8,0:0:0:0:
256,192,85835,1,8,0:0:0:0:
256,192,86554,1,0,0:0:0:0:
256,192,86913,1,8,0:0:0:0:
256,192,87273,1,0,0:0:0:0:
256,192,87452,1,0,0:0:0:0:
256,192,87631,1,8,0:0:0:0:
256,192,87991,1,0,0:0:0:0:
256,192,88350,1,8,0:0:0:0:
256,192,88710,1,8,0:0:0:0:
256,192,88889,1,0,0:0:0:0:
256,192,89069,1,8,0:0:0:0:
256,192,89428,1,8,0:0:0:0:
256,192,89788,1,8,0:0:0:0:
256,192,90147,1,8,0:0:0:0:
256,192,90506,1,0,0:0:0:0:
256,192,90865,1,8,0:0:0:0:
256,192,91045,1,0,0:0:0:0:
256,192,91225,1,8,0:0:0:0:
256,192,91584,1,8,0:0:0:0:
256,192,92303,1,4,0:0:0:0:
256,192,92662,1,8,0:0:0:0:
256,192,93021,1,0,0:0:0:0:
256,192,93201,1,0,0:0:0:0:
256,192,93380,1,0,0:0:0:0:
256,192,93740,1,0,0:0:0:0:
256,192,94099,1,8,0:0:0:0:
256,192,94458,1,8,0:0:0:0:
256,192,94638,1,0,0:0:0:0:
256,192,94817,1,8,0:0:0:0:
256,192,95177,1,8,0:0:0:0:
256,192,95356,1,8,0:0:0:0:
256,192,95536,1,0,0:0:0:0:
256,192,95895,1,8,0:0:0:0:
256,192,96075,1,0,0:0:0:0:
256,192,96255,1,0,0:0:0:0:
256,192,96614,1,8,0:0:0:0:
256,192,96794,1,0,0:0:0:0:
256,192,96973,1,0,0:0:0:0:
256,192,97332,1,8,0:0:0:0:
256,192,98051,1,0,0:0:0:0:
256,192,98410,1,8,0:0:0:0:
256,192,98770,1,0,0:0:0:0:
256,192,98949,1,0,0:0:0:0:
256,192,99128,1,0,0:0:0:0:
256,192,99488,1,0,0:0:0:0:
256,192,99847,1,8,0:0:0:0:
256,192,100207,1,8,0:0:0:0:
256,192,100386,1,0,0:0:0:0:
256,192,100565,1,8,0:0:0:0:
256,192,100925,1,8,0:0:0:0:
256,192,101104,1,8,0:0:0:0:
256,192,101284,1,0,0:0:0:0:
256,192,101643,1,8,0:0:0:0:
256,192,101823,1,0,0:0:0:0:
256,192,102003,1,0,0:0:0:0:
256,192,102362,1,8,0:0:0:0:
256,192,102542,1,0,0:0:0:0:
256,192,102721,1,0,0:0:0:0:
256,192,103080,1,8,0:0:0:0:
256,192,103260,1,0,0:0:0:0:
256,192,103440,5,0,0:0:0:0:
256,192,103800,1,0,0:0:0:0:
256,192,104518,5,0,0:0:0:0:
256,192,105237,1,8,0:0:0:0:
256,192,105955,1,8,0:0:0:0:
256,192,106674,1,0,0:0:0:0:
256,192,107572,1,8,0:0:0:0:
256,192,107752,1,8,0:0:0:0:
256,192,107931,1,8,0:0:0:0:
256,192,109009,1,8,0:0:0:0:
256,192,109189,1,8,0:0:0:0:
256,192,109368,1,8,0:0:0:0:
256,192,109548,1,0,0:0:0:0:
256,192,110267,1,0,0:0:0:0:
256,192,110985,1,8,0:0:0:0:
256,192,111704,1,0,0:0:0:0:
256,192,112422,1,4,0:0:0:0:
