osu file format v14

[General]
AudioFilename: audio.mp3
AudioLeadIn: 0
PreviewTime: 93898
Countdown: 0
SampleSet: Normal
StackLeniency: 0.7
Mode: 1
LetterboxInBreaks: 0
WidescreenStoryboard: 1

[Editor]
DistanceSpacing: 1.7
BeatDivisor: 2
GridSize: 16
TimelineZoom: 1.8

[Metadata]
Title:Minamo no Sakura, Yume wa Sakayume (Cut Ver.)
TitleUnicode:水面の桜、夢は逆夢 (Cut Ver.)
Artist:otetsu feat. Megurine Luka
ArtistUnicode:otetsu feat. 巡音ルカ
Creator:ItsYourGirlKate
Version:Nostril's Muzukashii
Source:
Tags:天響ノ和樂 2 Tenkyou no Wagaku 2 folk japanese vocaloid Cherry Blossoms on the Water Surface, Dream is an Inverted Dream Nostril Hivie Genjuro
BeatmapID:3958922
BeatmapSetID:1917669

[Difficulty]
HPDrainRate:5
CircleSize:3.6
OverallDifficulty:5
ApproachRate:10
SliderMultiplier:1.4
SliderTickRate:1

[Events]
//Background and Video events
0,0,"aoi-ogata-tes.jpg",0,70
//Break Periods
//Storyboard Layer 0 (Background)
//Storyboard Layer 1 (Fail)
//Storyboard Layer 2 (Pass)
//Storyboard Layer 3 (Foreground)
//Storyboard Layer 4 (Overlay)
//Storyboard Sound Samples

[TimingPoints]
636,600,4,1,0,60,1,0
636,-83.3333333333333,4,1,0,60,0,0
786,-83.3333333333333,4,1,0,55,0,0
1686,-83.3333333333333,4,1,0,60,0,0
1986,-83.3333333333333,4,1,0,55,0,0
2886,-83.3333333333333,4,1,0,60,0,0
3186,-83.3333333333333,4,1,0,55,0,0
4086,-83.3333333333333,4,1,0,60,0,0
4386,-83.3333333333333,4,1,0,55,0,0
5286,-83.3333333333333,4,1,0,60,0,0
5586,-83.3333333333333,4,1,0,55,0,0
6486,-83.3333333333333,4,1,0,60,0,0
6786,-83.3333333333333,4,1,0,55,0,0
7686,-83.3333333333333,4,1,0,60,0,0
7986,-83.3333333333333,4,1,0,55,0,0
9486,-83.3333333333333,4,1,0,60,0,0
10086,-66.6666666666667,4,1,0,65,0,0
39036,300,4,1,0,70,1,0
39036,-100,4,1,0,70,0,0
43836,-97.0873786407767,4,1,0,80,0,1
63036,-100,4,1,0,70,0,0
94236,-90.9090909090909,4,1,0,80,0,1
113436,-95.2380952380952,4,1,0,80,0,1
132036,-95.2380952380952,4,1,0,80,0,0

[Colours]
Combo1 : 128,64,64
Combo2 : 128,0,0
Combo3 : 255,255,255
Combo4 : 255,128,128
Combo5 : 192,192,192

[HitObjects]
256,192,636,5,0,0:0:0:0:
256,192,936,1,8,0:0:0:0:
256,192,1236,1,8,0:0:0:0:
256,192,1836,1,0,0:0:0:0:
256,192,2136,1,0,0:0:0:0:
256,192,2436,1,8,0:0:0:0:
256,192,3036,1,8,0:0:0:0:
256,192,3336,1,0,0:0:0:0:
256,192,3636,1,8,0:0:0:0:
256,192,4236,1,8,0:0:0:0:
256,192,4536,1,8,0:0:0:0:
256,192,4836,1,8,0:0:0:0:
256,192,5436,1,8,0:0:0:0:
256,192,5736,1,0,0:0:0:0:
256,192,6036,1,0,0:0:0:0:
256,192,6636,1,0,0:0:0:0:
256,192,6936,1,0,0:0:0:0:
256,192,7236,1,8,0:0:0:0:
256,192,7836,1,8,0:0:0:0:
256,192,8136,1,0,0:0:0:0:
256,192,8436,1,8,0:0:0:0:
256,192,9036,1,8,0:0:0:0:
256,192,9636,1,8,0:0:0:0:
256,192,9936,1,8,0:0:0:0:
256,192,10236,5,0,0:0:0:0:
256,192,10536,1,0,0:0:0:0:
256,192,11136,1,0,0:0:0:0:
256,192,11436,1,8,0:0:0:0:
256,192,11736,1,8,0:0:0:0:
256,192,11886,1,8,0:0:0:0:
256,192,12036,1,8,0:0:0:0:
256,192,12336,1,8,0:0:0:0:
256,192,12486,1,8,0:0:0:0:
256,192,12636,1,0,0:0:0:0:
256,192,12936,1,0,0:0:0:0:
256,192,13536,1,8,0:0:0:0:
256,192,13836,1,0,0:0:0:0:
256,192,14136,1,8,0:0:0:0:
256,192,14286,1,8,0:0:0:0:
256,192,14436,1,8,0:0:0:0:
256,192,14736,1,0,0:0:0:0:
256,192,15036,1,8,0:0:0:0:
256,192,15336,1,0,0:0:0:0:
256,192,15636,1,8,0:0:0:0:
256,192,15936,1,8,0:0:0:0:
256,192,16236,1,8,0:0:0:0:
256,192,16836,1,0,0:0:0:0:
256,192,17136,1,0,0:0:0:0:
256,192,17286,1,0,0:0:0:0:
256,192,17436,1,8,0:0:0:0:
256,192,17736,1,0,0:0:0:0:
256,192,18336,1,0,0:0:0:0:
256,192,18636,1,0,0:0:0:0:
256,192,18936,1,8,0:0:0:0:
256,192,19086,1,8,0:0:0:0:
256,192,19236,1,8,0:0:0:0:
256,192,19536,1,8,0:0:0:0:
256,192,19686,1,8,0:0:0:0:
256,192,19836,1,0,0:0:0:0:
256,192,20136,1,0,0:0:0:0:
256,192,20736,1,0,0:0:0:0:
256,192,21036,1,8,0:0:0:0:
256,192,21336,1,8,0:0:0:0:
256,192,21486,1,8,0:0:0:0:
256,192,21636,1,0,0:0:0:0:
256,192,21936,1,0,0:0:0:0:
256,192,22236,1,8,0:0:0:0:
256,192,22536,1,0,0:0:0:0:
256,192,23136,1,0,0:0:0:0:
256,192,23436,1,8,0:0:0:0:
256,192,23736,1,0,0:0:0:0:
256,192,23886,1,0,0:0:0:0:
256,192,24036,1,0,0:0:0:0:
256,192,24336,1,0,0:0:0:0:
256,192,24636,1,8,0:0:0:0:
256,192,24936,1,0,0:0:0:0:
256,192,25536,1,8,0:0:0:0:
256,192,25836,1,8,0:0:0:0:
256,192,26436,1,0,0:0:0:0:
256,192,26736,1,0,0:0:0:0:
256,192,27036,1,8,0:0:0:0:
256,192,27336,1,0,0:0:0:0:
256,192,27936,1,8,0:0:0:0:
256,192,28236,1,0,0:0:0:0:
256,192,28536,1,0,0:0:0:0:
256,192,28686,1,0,0:0:0:0:
256,192,28836,1,8,0:0:0:0:
256,192,29136,1,8,0:0:0:0:
256,192,29286,1,0,0:0:0:0:
256,192,29436,1,8,0:0:0:0:
256,192,29736,1,8,0:0:0:0:
256,192,30036,1,0,0:0:0:0:
256,192,30636,1,8,0:0:0:0:
256,192,30936,1,8,0:0:0:0:
256,192,31236,1,0,0:0:0:0:
256,192,31536,1,0,0:0:0:0:
256,192,31686,1,0,0:0:0:0:
256,192,31836,1,8,0:0:0:0:
256,192,32136,1,8,0:0:0:0:
256,192,32436,1,0,0:0:0:0:
256,192,32736,1,0,0:0:0:0:
256,192,32886,1,8,0:0:0:0:
256,192,33036,1,0,0:0:0:0:
256,192,33636,1,0,0:0:0:0:
256,192,33936,1,0,0:0:0:0:
256,192,34086,1,0,0:0:0:0:
256,192,34236,1,8,0:0:0:0:
256,192,34536,1,0,0:0:0:0:
256,192,35136,1,0,0:0:0:0:
256,192,35436,1,8,0:0:0:0:
256,192,35736,1,8,0:0:0:0:
256,192,36036,1,0,0:0:0:0:
256,192,36336,1,8,0:0:0:0:
256,192,36486,1,8,0:0:0:0:
256,192,36636,1,0,0:0:0:0:
256,192,36936,1,0,0:0:0:0:
256,192,37236,1,8,0:0:0:0:
256,192,37536,1,8,0:0:0:0:
256,192,37836,1,0,0:0:0:0:
256,192,38436,1,0,0:0:0:0:
256,192,39036,5,4,0:0:0:0:
256,192,39336,1,8,0:0:0:0:
256,192,39486,1,8,0:0:0:0:
256,192,39636,1,0,0:0:0:0:
256,192,39786,1,12,0:0:0:0:
256,192,40086,1,12,0:0:0:0:
256,192,40236,1,4,0:0:0:0:
256,192,40536,1,8,0:0:0:0:
256,192,40686,1,8,0:0:0:0:
256,192,40836,1,0,0:0:0:0:
256,192,40986,1,12,0:0:0:0:
256,192,41286,1,12,0:0:0:0:
256,192,41436,1,4,0:0:0:0:
256,192,41736,1,8,0:0:0:0:
256,192,41886,1,8,0:0:0:0:
256,192,42036,1,0,0:0:0:0:
256,192,42186,1,0,0:0:0:0:
256,192,42336,1,8,0:0:0:0:
256,192,42486,1,8,0:0:0:0:
256,192,42636,1,0,0:0:0:0:
256,192,43836,5,12,0:0:0:0:
256,192,44136,1,8,0:0:0:0:
256,192,44436,1,0,0:0:0:0:
256,192,44586,1,8,0:0:0:0:
256,192,44661,1,8,0:0:0:0:
256,192,44736,1,8,0:0:0:0:
256,192,45036,1,0,0:0:0:0:
256,192,45186,1,0,0:0:0:0:
256,192,45336,1,8,0:0:0:0:
256,192,45636,1,8,0:0:0:0:
256,192,45786,1,8,0:0:0:0:
256,192,45936,1,0,0:0:0:0:
256,192,46086,1,8,0:0:0:0:
256,192,46161,1,8,0:0:0:0:
256,192,46236,1,8,0:0:0:0:
256,192,46386,1,0,0:0:0:0:
256,192,46536,1,8,0:0:0:0:
256,192,46836,1,0,0:0:0:0:
256,192,46986,1,0,0:0:0:0:
256,192,47136,1,2,0:0:0:0:
256,192,47436,1,0,0:0:0:0:
256,192,47586,1,8,0:0:0:0:
256,192,47661,1,8,0:0:0:0:
256,192,47736,1,8,0:0:0:0:
256,192,47886,1,8,0:0:0:0:
256,192,48036,1,0,0:0:0:0:
256,192,48186,1,0,0:0:0:0:
256,192,48336,1,8,0:0:0:0:
256,192,48636,1,4,0:0:0:0:
256,192,48936,1,2,0:0:0:0:
256,192,49236,1,0,0:0:0:0:
256,192,49386,1,0,0:0:0:0:
256,192,49536,1,2,0:0:0:0:
256,192,49686,1,8,0:0:0:0:
256,192,49836,1,0,0:0:0:0:
256,192,49986,1,8,0:0:0:0:
256,192,50061,1,8,0:0:0:0:
256,192,50136,1,8,0:0:0:0:
256,192,50436,1,8,0:0:0:0:
256,192,50586,1,0,0:0:0:0:
256,192,50661,1,0,0:0:0:0:
256,192,50736,1,0,0:0:0:0:
256,192,51036,1,8,0:0:0:0:
256,192,51186,1,0,0:0:0:0:
256,192,51336,1,8,0:0:0:0:
256,192,51636,1,0,0:0:0:0:
256,192,51786,1,0,0:0:0:0:
256,192,51861,1,0,0:0:0:0:
256,192,51936,1,0,0:0:0:0:
256,192,52236,1,0,0:0:0:0:
256,192,52386,1,0,0:0:0:0:
256,192,52536,1,8,0:0:0:0:
256,192,52686,1,8,0:0:0:0:
256,192,52836,1,0,0:0:0:0:
256,192,52986,1,8,0:0:0:0:
256,192,53061,1,8,0:0:0:0:
256,192,53136,1,8,0:0:0:0:
256,192,53436,1,4,0:0:0:0:
256,192,53736,1,2,0:0:0:0:
256,192,54036,1,0,0:0:0:0:
256,192,54186,1,8,0:0:0:0:
256,192,54261,1,8,0:0:0:0:
256,192,54336,1,8,0:0:0:0:
256,192,54636,1,0,0:0:0:0:
256,192,54786,1,0,0:0:0:0:
256,192,54936,1,8,0:0:0:0:
256,192,55236,1,0,0:0:0:0:
256,192,55386,1,0,0:0:0:0:
256,192,55536,1,8,0:0:0:0:
256,192,55686,1,8,0:0:0:0:
256,192,55761,1,8,0:0:0:0:
256,192,55836,1,8,0:0:0:0:
256,192,55986,1,0,0:0:0:0:
256,192,56136,1,8,0:0:0:0:
256,192,56436,1,0,0:0:0:0:
256,192,56586,1,8,0:0:0:0:
256,192,56661,1,8,0:0:0:0:
256,192,56736,1,8,0:0:0:0:
256,192,57036,1,0,0:0:0:0:
256,192,57186,1,8,0:0:0:0:
256,192,57261,1,8,0:0:0:0:
256,192,57336,1,8,0:0:0:0:
256,192,57486,1,8,0:0:0:0:
256,192,57636,1,0,0:0:0:0:
256,192,57786,1,0,0:0:0:0:
256,192,57936,1,8,0:0:0:0:
256,192,58236,1,4,0:0:0:0:
256,192,58536,1,8,0:0:0:0:
256,192,58836,1,0,0:0:0:0:
256,192,58986,1,0,0:0:0:0:
256,192,59136,1,8,0:0:0:0:
256,192,59286,1,8,0:0:0:0:
256,192,59436,1,0,0:0:0:0:
256,192,59586,1,0,0:0:0:0:
256,192,59661,1,0,0:0:0:0:
256,192,59736,1,0,0:0:0:0:
256,192,60036,1,8,0:0:0:0:
256,192,60186,1,8,0:0:0:0:
256,192,60336,1,0,0:0:0:0:
256,192,60486,1,0,0:0:0:0:
256,192,60636,1,8,0:0:0:0:
256,192,60786,1,0,0:0:0:0:
256,192,60861,1,0,0:0:0:0:
256,192,60936,1,0,0:0:0:0:
256,192,61236,1,0,0:0:0:0:
256,192,61386,1,8,0:0:0:0:
256,192,61461,1,8,0:0:0:0:
256,192,61536,1,8,0:0:0:0:
256,192,61836,1,0,0:0:0:0:
256,192,61986,1,0,0:0:0:0:
256,192,62136,1,8,0:0:0:0:
256,192,62286,1,8,0:0:0:0:
256,192,62436,1,0,0:0:0:0:
256,192,62586,1,8,0:0:0:0:
256,192,62661,1,8,0:0:0:0:
256,192,62736,1,8,0:0:0:0:
256,192,62886,1,8,0:0:0:0:
256,192,63036,5,4,0:0:0:0:
256,192,63336,1,8,0:0:0:0:
256,192,63486,1,8,0:0:0:0:
256,192,63786,1,0,0:0:0:0:
256,192,64086,1,8,0:0:0:0:
256,192,64536,1,8,0:0:0:0:
256,192,64686,1,8,0:0:0:0:
256,192,64836,1,0,0:0:0:0:
256,192,64986,1,0,0:0:0:0:
256,192,65136,1,8,0:0:0:0:
256,192,65436,1,0,0:0:0:0:
256,192,65736,1,8,0:0:0:0:
256,192,65886,1,0,0:0:0:0:
244,190,66036,1,0,0:0:0:0:
256,192,66186,1,8,0:0:0:0:
256,192,66486,1,8,0:0:0:0:
256,192,66936,1,8,0:0:0:0:
256,192,67086,1,0,0:0:0:0:
256,192,67236,1,8,0:0:0:0:
256,192,67536,1,0,0:0:0:0:
256,192,67686,1,0,0:0:0:0:
256,192,67836,1,8,0:0:0:0:
256,192,68136,1,0,0:0:0:0:
256,192,68286,1,8,0:0:0:0:
256,192,68586,1,8,0:0:0:0:
256,192,68736,1,0,0:0:0:0:
256,192,69036,1,8,0:0:0:0:
256,192,69336,1,0,0:0:0:0:
256,192,69486,1,0,0:0:0:0:
256,192,69636,1,8,0:0:0:0:
256,192,69936,1,8,0:0:0:0:
256,192,70236,1,0,0:0:0:0:
256,192,70386,1,8,0:0:0:0:
256,192,70536,1,8,0:0:0:0:
256,192,70686,1,0,0:0:0:0:
256,192,71136,1,8,0:0:0:0:
256,192,71436,1,8,0:0:0:0:
256,192,71736,1,0,0:0:0:0:
256,192,71886,1,8,0:0:0:0:
256,192,72036,1,0,0:0:0:0:
256,192,72336,1,8,0:0:0:0:
256,192,72636,5,12,0:0:0:0:
256,192,72936,1,0,0:0:0:0:
256,192,73086,1,8,0:0:0:0:
256,192,73536,1,0,0:0:0:0:
256,192,73836,1,8,0:0:0:0:
256,192,73986,1,0,0:0:0:0:
256,192,74136,1,0,0:0:0:0:
256,192,74436,1,8,0:0:0:0:
256,192,74736,1,8,0:0:0:0:
256,192,75036,1,0,0:0:0:0:
256,192,75186,1,8,0:0:0:0:
256,192,75336,1,8,0:0:0:0:
256,192,75486,1,0,0:0:0:0:
256,192,75786,1,0,0:0:0:0:
256,192,76086,1,8,0:0:0:0:
256,192,76236,1,0,0:0:0:0:
256,192,76386,1,8,0:0:0:0:
256,192,76536,1,8,0:0:0:0:
256,192,76836,1,0,0:0:0:0:
256,192,77136,1,0,0:0:0:0:
256,192,77436,1,8,0:0:0:0:
256,192,77586,1,0,0:0:0:0:
256,192,77736,1,0,0:0:0:0:
256,192,77886,1,0,0:0:0:0:
256,192,78036,1,8,0:0:0:0:
256,192,78336,1,0,0:0:0:0:
256,192,78636,1,8,0:0:0:0:
256,192,78936,1,8,0:0:0:0:
256,192,79086,1,0,0:0:0:0:
256,192,79236,1,8,0:0:0:0:
256,192,79536,1,8,0:0:0:0:
256,192,79836,1,0,0:0:0:0:
256,192,79986,1,8,0:0:0:0:
256,192,80136,1,8,0:0:0:0:
256,192,80436,1,0,0:0:0:0:
256,192,80586,1,8,0:0:0:0:
256,192,81036,1,8,0:0:0:0:
256,192,81186,1,8,0:0:0:0:
256,192,81336,1,0,0:0:0:0:
256,192,81486,1,0,0:0:0:0:
256,192,81636,1,8,0:0:0:0:
256,192,81936,1,0,0:0:0:0:
256,192,82236,1,12,0:0:0:0:
256,192,82536,1,8,0:0:0:0:
256,192,82686,1,8,0:0:0:0:
256,192,82836,1,0,0:0:0:0:
256,192,83136,1,0,0:0:0:0:
256,192,83436,1,8,0:0:0:0:
256,192,83586,1,0,0:0:0:0:
256,192,83736,1,0,0:0:0:0:
256,192,83886,1,8,0:0:0:0:
256,192,84036,1,0,0:0:0:0:
256,192,84336,1,0,0:0:0:0:
256,192,84636,1,8,0:0:0:0:
256,192,84936,1,8,0:0:0:0:
256,192,85086,1,8,0:0:0:0:
256,192,85236,1,0,0:0:0:0:
256,192,85536,1,0,0:0:0:0:
256,192,85686,1,0,0:0:0:0:
256,192,85836,1,8,0:0:0:0:
256,192,85986,1,0,0:0:0:0:
256,192,86136,1,0,0:0:0:0:
256,192,86436,1,0,0:0:0:0:
256,192,87036,5,4,0:0:0:0:
256,192,87336,1,8,0:0:0:0:
256,192,87486,1,8,0:0:0:0:
256,192,87636,1,0,0:0:0:0:
256,192,87936,1,0,0:0:0:0:
256,192,88236,1,8,0:0:0:0:
256,192,88386,1,8,0:0:0:0:
256,192,88536,1,8,0:0:0:0:
256,192,88686,1,8,0:0:0:0:
256,192,88836,1,0,0:0:0:0:
256,192,89136,1,8,0:0:0:0:
256,192,89436,1,8,0:0:0:0:
256,192,89736,1,8,0:0:0:0:
256,192,89886,1,8,0:0:0:0:
256,192,90036,1,0,0:0:0:0:
256,192,90336,1,8,0:0:0:0:
256,192,90636,1,0,0:0:0:0:
256,192,90786,1,0,0:0:0:0:
256,192,90936,1,8,0:0:0:0:
256,192,91236,1,0,0:0:0:0:
256,192,91536,1,8,0:0:0:0:
256,192,91836,5,4,0:0:0:0:
256,192,92136,1,8,0:0:0:0:
256,192,92286,1,8,0:0:0:0:
256,192,92436,1,0,0:0:0:0:
256,192,92586,1,12,0:0:0:0:
256,192,92886,1,12,0:0:0:0:
256,192,93036,1,4,0:0:0:0:
256,192,93336,1,8,0:0:0:0:
256,192,93486,1,8,0:0:0:0:
256,192,93636,1,0,0:0:0:0:
256,192,94236,5,12,0:0:0:0:
256,192,94536,1,0,0:0:0:0:
256,192,94686,1,0,0:0:0:0:
256,192,94836,1,8,0:0:0:0:
256,192,95136,1,0,0:0:0:0:
256,192,95286,1,0,0:0:0:0:
256,192,95436,1,8,0:0:0:0:
256,192,95586,1,0,0:0:0:0:
256,192,95661,1,0,0:0:0:0:
256,192,95736,1,0,0:0:0:0:
256,192,95886,1,0,0:0:0:0:
256,192,96036,1,8,0:0:0:0:
256,192,96336,1,8,0:0:0:0:
256,192,96486,1,8,0:0:0:0:
256,192,96636,1,0,0:0:0:0:
256,192,96786,1,8,0:0:0:0:
256,192,96861,1,8,0:0:0:0:
256,192,96936,1,8,0:0:0:0:
256,192,97086,1,8,0:0:0:0:
256,192,97236,1,0,0:0:0:0:
256,192,97536,1,0,0:0:0:0:
256,192,97686,1,8,0:0:0:0:
256,192,97836,1,0,0:0:0:0:
256,192,97986,1,8,0:0:0:0:
256,192,98061,1,8,0:0:0:0:
256,192,98136,1,8,0:0:0:0:
256,192,98286,1,0,0:0:0:0:
256,192,98436,1,8,0:0:0:0:
256,192,98736,1,8,0:0:0:0:
256,192,98886,1,8,0:0:0:0:
256,192,99036,1,4,0:0:0:0:
256,192,99336,1,8,0:0:0:0:
256,192,99636,1,8,0:0:0:0:
256,192,99936,1,0,0:0:0:0:
256,192,100236,1,0,0:0:0:0:
256,192,100386,1,0,0:0:0:0:
256,192,100461,1,0,0:0:0:0:
256,192,100536,1,0,0:0:0:0:
256,192,100686,1,0,0:0:0:0:
256,192,100836,1,8,0:0:0:0:
256,192,101136,1,8,0:0:0:0:
256,192,101286,1,8,0:0:0:0:
256,192,101436,1,0,0:0:0:0:
256,192,101736,1,0,0:0:0:0:
256,192,101886,1,0,0:0:0:0:
256,192,102036,1,0,0:0:0:0:
256,192,102336,1,0,0:0:0:0:
256,192,102486,1,0,0:0:0:0:
256,192,102636,1,8,0:0:0:0:
256,192,102786,1,0,0:0:0:0:
256,192,102861,1,0,0:0:0:0:
256,192,102936,1,0,0:0:0:0:
256,192,103086,1,8,0:0:0:0:
256,192,103236,1,8,0:0:0:0:
256,192,103536,1,0,0:0:0:0:
256,192,103836,5,12,0:0:0:0:
256,192,104136,1,0,0:0:0:0:
256,192,104286,1,0,0:0:0:0:
256,192,104436,1,8,0:0:0:0:
256,192,104736,1,0,0:0:0:0:
256,192,104886,1,0,0:0:0:0:
256,192,105036,1,8,0:0:0:0:
256,192,105186,1,8,0:0:0:0:
256,192,105261,1,8,0:0:0:0:
256,192,105336,1,8,0:0:0:0:
256,192,105486,1,8,0:0:0:0:
256,192,105636,1,0,0:0:0:0:
256,192,105936,1,8,0:0:0:0:
256,192,106086,1,8,0:0:0:0:
256,192,106236,1,0,0:0:0:0:
256,192,106386,1,8,0:0:0:0:
256,192,106461,1,8,0:0:0:0:
256,192,106536,1,8,0:0:0:0:
256,192,106686,1,8,0:0:0:0:
256,192,106836,1,0,0:0:0:0:
256,192,107136,1,8,0:0:0:0:
256,192,107436,1,0,0:0:0:0:
256,192,107586,1,8,0:0:0:0:
256,192,107661,1,8,0:0:0:0:
256,192,107736,1,8,0:0:0:0:
256,192,107886,1,0,0:0:0:0:
256,192,108036,1,0,0:0:0:0:
256,192,108336,1,8,0:0:0:0:
256,192,108486,1,8,0:0:0:0:
256,192,108636,5,4,0:0:0:0:
256,192,108936,1,8,0:0:0:0:
256,192,109236,1,0,0:0:0:0:
256,192,109536,1,0,0:0:0:0:
256,192,109836,1,8,0:0:0:0:
256,192,109986,1,0,0:0:0:0:
256,192,110136,1,8,0:0:0:0:
256,192,110436,1,0,0:0:0:0:
256,192,110586,1,0,0:0:0:0:
256,192,110736,1,8,0:0:0:0:
256,192,111036,1,8,0:0:0:0:
256,192,111186,1,0,0:0:0:0:
256,192,111261,1,0,0:0:0:0:
256,192,111336,1,0,0:0:0:0:
256,192,111486,1,8,0:0:0:0:
256,192,111636,1,0,0:0:0:0:
256,192,111936,1,0,0:0:0:0:
256,192,112236,1,8,0:0:0:0:
256,192,112386,1,8,0:0:0:0:
256,192,112461,1,8,0:0:0:0:
256,192,112536,1,8,0:0:0:0:
256,192,112686,1,8,0:0:0:0:
256,192,112836,1,0,0:0:0:0:
256,192,113136,1,0,0:0:0:0:
256,192,113286,1,0,0:0:0:0:
256,192,113436,5,12,0:0:0:0:
256,192,113736,1,0,0:0:0:0:
256,192,113886,1,8,0:0:0:0:
256,192,113961,1,8,0:0:0:0:
256,192,114036,1,8,0:0:0:0:
256,192,114186,1,8,0:0:0:0:
256,192,114336,1,0,0:0:0:0:
256,192,114486,1,0,0:0:0:0:
256,192,114636,1,8,0:0:0:0:
256,192,114936,1,8,0:0:0:0:
256,192,115086,1,0,0:0:0:0:
256,192,115161,1,0,0:0:0:0:
256,192,115236,1,0,0:0:0:0:
256,192,115536,1,8,0:0:0:0:
256,192,115836,1,8,0:0:0:0:
256,192,115986,1,0,0:0:0:0:
256,192,116061,1,0,0:0:0:0:
256,192,116136,1,0,0:0:0:0:
256,192,116286,1,0,0:0:0:0:
256,192,116436,1,8,0:0:0:0:
256,192,116586,1,0,0:0:0:0:
256,192,116736,1,8,0:0:0:0:
256,192,116886,1,8,0:0:0:0:
256,192,117036,1,8,0:0:0:0:
256,192,117336,1,8,0:0:0:0:
256,192,117486,1,0,0:0:0:0:
256,192,117561,1,0,0:0:0:0:
256,192,117636,1,0,0:0:0:0:
256,192,117936,1,8,0:0:0:0:
256,192,118236,5,4,0:0:0:0:
256,192,118536,1,8,0:0:0:0:
256,192,118686,1,0,0:0:0:0:
256,192,118761,1,0,0:0:0:0:
256,192,118836,1,0,0:0:0:0:
256,192,118986,1,0,0:0:0:0:
256,192,119136,1,8,0:0:0:0:
256,192,119286,1,8,0:0:0:0:
256,192,119436,1,0,0:0:0:0:
256,192,119736,1,0,0:0:0:0:
256,192,119886,1,8,0:0:0:0:
256,192,119961,1,8,0:0:0:0:
256,192,120036,1,8,0:0:0:0:
256,192,120336,1,0,0:0:0:0:
256,192,120636,1,0,0:0:0:0:
256,192,120786,1,0,0:0:0:0:
256,192,120861,1,0,0:0:0:0:
256,192,120936,1,0,0:0:0:0:
256,192,121086,1,0,0:0:0:0:
256,192,121236,1,8,0:0:0:0:
256,192,121386,1,8,0:0:0:0:
256,192,121536,1,0,0:0:0:0:
256,192,121686,1,8,0:0:0:0:
256,192,121836,1,8,0:0:0:0:
256,192,122136,1,8,0:0:0:0:
256,192,122286,1,0,0:0:0:0:
256,192,122361,1,0,0:0:0:0:
256,192,122436,1,0,0:0:0:0:
256,192,122736,1,0,0:0:0:0:
256,192,123036,5,12,0:0:0:0:
256,192,123336,1,0,0:0:0:0:
256,192,123486,1,8,0:0:0:0:
256,192,123561,1,8,0:0:0:0:
256,192,123636,1,8,0:0:0:0:
256,192,123786,1,8,0:0:0:0:
256,192,123936,1,0,0:0:0:0:
256,192,124086,1,0,0:0:0:0:
256,192,124236,1,8,0:0:0:0:
256,192,124536,1,8,0:0:0:0:
256,192,124686,1,0,0:0:0:0:
256,192,124761,1,0,0:0:0:0:
256,192,124836,1,0,0:0:0:0:
256,192,125136,1,8,0:0:0:0:
256,192,125436,1,8,0:0:0:0:
256,192,125586,1,0,0:0:0:0:
256,192,125661,1,0,0:0:0:0:
256,192,125736,1,0,0:0:0:0:
256,192,125886,1,0,0:0:0:0:
256,192,126036,1,8,0:0:0:0:
256,192,126186,1,0,0:0:0:0:
256,192,126336,1,8,0:0:0:0:
256,192,126486,1,8,0:0:0:0:
256,192,126636,1,8,0:0:0:0:
256,192,126936,1,8,0:0:0:0:
256,192,127086,1,0,0:0:0:0:
256,192,127161,1,0,0:0:0:0:
256,192,127236,1,0,0:0:0:0:
256,192,127536,1,8,0:0:0:0:
256,192,127836,5,4,0:0:0:0:
256,192,128136,1,8,0:0:0:0:
256,192,128286,1,0,0:0:0:0:
256,192,128361,1,0,0:0:0:0:
256,192,128436,1,0,0:0:0:0:
256,192,128586,1,0,0:0:0:0:
256,192,128736,1,8,0:0:0:0:
256,192,128886,1,8,0:0:0:0:
256,192,129036,1,0,0:0:0:0:
256,192,129336,1,0,0:0:0:0:
256,192,129486,1,8,0:0:0:0:
256,192,129561,1,8,0:0:0:0:
256,192,129636,1,8,0:0:0:0:
256,192,129936,1,0,0:0:0:0:
256,192,130236,1,0,0:0:0:0:
256,192,130386,1,0,0:0:0:0:
256,192,130461,1,0,0:0:0:0:
256,192,130536,1,0,0:0:0:0:
256,192,130686,1,0,0:0:0:0:
256,192,130836,1,8,0:0:0:0:
256,192,130986,1,8,0:0:0:0:
256,192,131136,1,0,0:0:0:0:
256,192,131286,1,8,0:0:0:0:
256,192,131436,1,8,0:0:0:0:
256,192,131736,1,8,0:0:0:0:
256,192,132036,1,4,0:0:0:0:
