osu file format v14

[General]
AudioFilename: audio.mp3
AudioLeadIn: 0
PreviewTime: 93898
Countdown: 0
SampleSet: Normal
StackLeniency: 0.7
Mode: 1
LetterboxInBreaks: 0
WidescreenStoryboard: 0

[Editor]
DistanceSpacing: 1.7
BeatDivisor: 2
GridSize: 16
TimelineZoom: 1.8

[Metadata]
Title:Minamo no Sakura, Yume wa Sakayume (Cut Ver.)
TitleUnicode:水面の桜、夢は逆夢 (Cut Ver.)
Artist:otetsu feat. Megurine Luka
ArtistUnicode:otetsu feat. 巡音ルカ
Creator:ItsYourGirlKate
Version:Futsuu
Source:
Tags:天響ノ和樂 2 Tenkyou no Wagaku 2 folk japanese vocaloid Cherry Blossoms on the Water Surface, Dream is an Inverted Dream Nostril Hivie Genjuro
BeatmapID:3957308
BeatmapSetID:1917669

[Difficulty]
HPDrainRate:6
CircleSize:3.6
OverallDifficulty:4
ApproachRate:9
SliderMultiplier:1.35
SliderTickRate:1

[Events]
//Background and Video events
0,0,"aoi-ogata-tes.jpg",0,70
//Break Periods
//Storyboard Layer 0 (Background)
//Storyboard Layer 1 (Fail)
//Storyboard Layer 2 (Pass)
//Storyboard Layer 3 (Foreground)
//Storyboard Layer 4 (Overlay)
//Storyboard Sound Samples

[TimingPoints]
636,600,4,1,0,60,1,0
636,-50,4,1,0,60,0,0
39036,300,4,1,0,80,1,0
43836,-100,4,1,0,90,0,1
63036,-100,4,1,0,80,0,0
94236,-100,4,1,0,90,0,1
132036,-100,4,1,0,90,0,0

[Colours]
Combo1 : 128,64,64
Combo2 : 128,0,0
Combo3 : 255,255,255
Combo4 : 255,128,128
Combo5 : 192,192,192

[HitObjects]
266,75,10236,5,8,0:0:0:0:
291,77,11136,1,0,0:0:0:0:
285,84,11436,1,8,0:0:0:0:
308,77,11736,1,8,0:0:0:0:
308,77,12036,1,0,0:0:0:0:
299,76,12336,1,0,0:0:0:0:
308,77,12636,1,8,0:0:0:0:
310,77,14436,1,8,0:0:0:0:
333,80,14736,1,8,0:0:0:0:
333,82,15036,1,0,0:0:0:0:
355,77,15636,1,0,0:0:0:0:
348,80,15936,1,8,0:0:0:0:
362,90,16236,1,8,0:0:0:0:
366,89,16836,1,0,0:0:0:0:
366,89,17436,1,8,0:0:0:0:
376,106,18336,1,8,0:0:0:0:
340,116,19836,1,8,0:0:0:0:
342,118,20736,1,8,0:0:0:0:
342,118,21036,1,0,0:0:0:0:
342,118,21336,1,0,0:0:0:0:
342,118,21636,1,8,0:0:0:0:
342,118,21936,1,8,0:0:0:0:
342,118,22236,1,0,0:0:0:0:
340,118,24036,1,0,0:0:0:0:
349,122,24336,1,8,0:0:0:0:
349,122,24636,1,8,0:0:0:0:
355,120,25536,1,0,0:0:0:0:
355,120,25836,1,8,0:0:0:0:
355,120,26436,1,8,0:0:0:0:
378,123,27036,1,0,0:0:0:0:
361,125,28836,1,0,0:0:0:0:
361,125,29436,1,8,0:0:0:0:
361,125,30036,1,8,0:0:0:0:
361,125,30636,1,0,0:0:0:0:
361,125,31236,1,8,0:0:0:0:
361,125,31536,1,0,0:0:0:0:
361,125,31836,1,0,0:0:0:0:
361,125,32436,1,8,0:0:0:0:
370,122,32886,1,8,0:0:0:0:
376,122,33036,1,8,0:0:0:0:
356,120,33636,1,0,0:0:0:0:
347,116,33936,1,8,0:0:0:0:
356,120,34236,1,8,0:0:0:0:
338,113,35436,1,0,0:0:0:0:
344,108,36036,1,0,0:0:0:0:
350,117,36336,1,0,0:0:0:0:
344,125,36636,1,8,0:0:0:0:
340,116,37236,1,8,0:0:0:0:
340,116,37836,1,0,0:0:0:0:
329,112,38436,1,0,0:0:0:0:
329,112,39036,1,12,0:0:0:0:
321,104,39336,1,0,0:0:0:0:
329,112,39636,1,8,0:0:0:0:
211,131,39786,1,0,0:0:0:0:
342,114,40086,1,0,0:0:0:0:
351,112,40236,1,8,0:0:0:0:
351,112,40536,1,0,0:0:0:0:
351,112,40836,1,8,0:0:0:0:
355,115,40986,1,0,0:0:0:0:
351,112,41286,1,0,0:0:0:0:
361,118,41436,1,8,0:0:0:0:
391,134,41736,1,8,0:0:0:0:
355,115,42036,1,0,0:0:0:0:
356,114,42336,1,0,0:0:0:0:
337,100,42636,1,8,0:0:0:0:
345,99,43836,1,12,0:0:0:0:
349,98,44136,1,8,0:0:0:0:
360,100,44286,1,8,0:0:0:0:
345,99,44436,1,0,0:0:0:0:
361,100,44736,1,8,0:0:0:0:
362,97,45036,1,0,0:0:0:0:
336,100,45336,1,0,0:0:0:0:
361,100,45486,1,0,0:0:0:0:
336,100,45636,1,8,0:0:0:0:
341,96,45936,1,0,0:0:0:0:
341,101,46236,1,8,0:0:0:0:
361,100,46386,1,8,0:0:0:0:
361,100,46536,1,0,0:0:0:0:
368,92,46836,1,0,0:0:0:0:
361,100,46986,1,0,0:0:0:0:
361,100,47136,1,8,0:0:0:0:
368,92,47436,1,8,0:0:0:0:
368,92,47736,1,0,0:0:0:0:
368,92,48036,1,8,0:0:0:0:
368,92,48636,1,12,0:0:0:0:
368,92,48936,1,0,0:0:0:0:
368,92,49086,1,0,0:0:0:0:
368,92,49236,1,8,0:0:0:0:
374,83,49536,1,8,0:0:0:0:
370,80,49836,1,0,0:0:0:0:
370,80,50136,1,8,0:0:0:0:
374,83,50286,1,0,0:0:0:0:
365,79,50436,1,8,0:0:0:0:
370,80,50736,1,0,0:0:0:0:
377,81,51036,1,8,0:0:0:0:
365,79,51336,1,0,0:0:0:0:
366,96,51636,1,0,0:0:0:0:
391,88,51786,1,0,0:0:0:0:
377,91,51936,1,8,0:0:0:0:
377,91,52236,1,8,0:0:0:0:
377,91,52836,1,8,0:0:0:0:
377,91,52986,1,0,0:0:0:0:
377,91,53136,1,8,0:0:0:0:
379,86,53436,1,12,0:0:0:0:
377,91,53736,1,0,0:0:0:0:
377,91,53886,1,0,0:0:0:0:
377,91,54036,1,8,0:0:0:0:
379,86,54336,1,10,0:0:0:0:
381,86,54636,1,0,0:0:0:0:
381,86,54936,1,8,0:0:0:0:
379,86,55086,1,0,0:0:0:0:
379,86,55236,1,0,0:0:0:0:
381,86,55536,1,8,0:0:0:0:
381,86,55836,1,0,0:0:0:0:
358,84,56136,1,8,0:0:0:0:
381,86,56286,1,8,0:0:0:0:
360,84,56436,1,0,0:0:0:0:
381,86,56736,1,0,0:0:0:0:
364,78,57036,1,8,0:0:0:0:
364,78,57336,1,0,0:0:0:0:
368,76,57636,1,0,0:0:0:0:
364,78,58236,1,12,0:0:0:0:
368,76,58536,1,0,0:0:0:0:
364,78,58686,1,0,0:0:0:0:
364,78,58836,1,8,0:0:0:0:
364,78,59136,1,8,0:0:0:0:
368,76,59436,1,0,0:0:0:0:
364,78,59736,1,8,0:0:0:0:
364,78,59886,1,8,0:0:0:0:
371,72,60036,1,0,0:0:0:0:
374,71,60336,1,0,0:0:0:0:
371,72,60636,1,8,0:0:0:0:
371,72,60936,1,8,0:0:0:0:
374,71,61086,1,8,0:0:0:0:
390,71,61236,1,0,0:0:0:0:
391,71,61536,1,0,0:0:0:0:
398,72,61836,1,8,0:0:0:0:
399,73,61986,1,8,0:0:0:0:
398,73,62136,1,0,0:0:0:0:
398,73,62286,1,0,0:0:0:0:
398,73,62436,1,8,0:0:0:0:
398,72,63036,1,4,0:0:0:0:
398,72,63336,1,0,0:0:0:0:
405,73,63486,1,8,0:0:0:0:
406,75,63786,1,8,0:0:0:0:
398,72,64086,1,0,0:0:0:0:
386,84,64536,1,8,0:0:0:0:
383,83,64836,1,8,0:0:0:0:
385,83,65136,1,0,0:0:0:0:
375,82,65436,1,8,0:0:0:0:
368,81,65736,1,0,0:0:0:0:
368,81,65886,1,8,0:0:0:0:
375,82,66186,1,8,0:0:0:0:
368,81,66486,1,0,0:0:0:0:
375,82,67236,1,8,0:0:0:0:
376,73,67536,1,0,0:0:0:0:
351,84,67836,1,0,0:0:0:0:
349,81,68136,1,8,0:0:0:0:
375,82,68286,1,0,0:0:0:0:
376,73,68436,5,8,0:0:0:0:
341,74,68736,1,8,0:0:0:0:
341,73,69036,1,8,0:0:0:0:
341,74,69336,1,0,0:0:0:0:
341,74,69636,1,0,0:0:0:0:
341,73,69786,1,0,0:0:0:0:
341,73,69936,1,8,0:0:0:0:
345,68,70236,1,8,0:0:0:0:
341,67,70536,1,8,0:0:0:0:
330,73,70686,1,0,0:0:0:0:
329,83,71436,1,8,0:0:0:0:
329,83,71736,1,0,0:0:0:0:
329,83,72036,1,0,0:0:0:0:
314,78,72336,1,8,0:0:0:0:
354,103,72636,1,4,0:0:0:0:
303,73,72936,1,8,0:0:0:0:
350,95,73086,1,8,0:0:0:0:
350,95,73236,1,0,0:0:0:0:
359,88,73536,1,0,0:0:0:0:
336,82,73836,1,0,0:0:0:0:
338,80,74136,1,8,0:0:0:0:
336,73,74436,1,8,0:0:0:0:
336,82,74586,1,0,0:0:0:0:
336,73,74736,1,0,0:0:0:0:
341,73,75036,1,8,0:0:0:0:
355,74,75336,1,0,0:0:0:0:
349,83,75486,1,0,0:0:0:0:
349,83,75786,1,0,0:0:0:0:
335,83,76086,1,8,0:0:0:0:
345,86,76236,1,8,0:0:0:0:
458,121,76536,1,0,0:0:0:0:
353,88,77136,1,0,0:0:0:0:
349,83,77436,1,8,0:0:0:0:
353,88,77736,1,0,0:0:0:0:
368,79,78036,1,8,0:0:0:0:
349,83,78186,1,0,0:0:0:0:
370,80,78336,1,8,0:0:0:0:
351,68,78636,1,0,0:0:0:0:
368,79,78936,1,0,0:0:0:0:
343,62,79236,1,8,0:0:0:0:
345,63,79386,1,8,0:0:0:0:
448,121,79536,1,0,0:0:0:0:
368,64,79836,1,0,0:0:0:0:
389,88,80136,1,0,0:0:0:0:
361,78,80736,1,8,0:0:0:0:
354,63,81036,1,0,0:0:0:0:
356,63,81336,1,8,0:0:0:0:
356,62,81486,1,8,0:0:0:0:
355,61,81636,1,0,0:0:0:0:
354,63,81936,1,0,0:0:0:0:
335,64,82236,1,12,0:0:0:0:
355,61,82536,1,0,0:0:0:0:
337,62,82836,1,8,0:0:0:0:
355,61,82986,1,0,0:0:0:0:
352,76,83136,1,8,0:0:0:0:
339,83,83436,1,0,0:0:0:0:
355,61,83736,1,0,0:0:0:0:
347,70,84036,1,8,0:0:0:0:
339,83,84186,1,8,0:0:0:0:
346,70,84336,1,0,0:0:0:0:
347,70,84636,1,8,0:0:0:0:
347,70,85236,1,0,0:0:0:0:
346,70,85536,1,0,0:0:0:0:
362,83,85836,1,0,0:0:0:0:
362,83,85986,1,8,0:0:0:0:
362,83,86136,1,8,0:0:0:0:
339,79,86436,1,0,0:0:0:0:
362,83,86736,1,8,0:0:0:0:
328,70,87036,1,4,0:0:0:0:
362,83,87336,1,8,0:0:0:0:
362,83,87486,1,8,0:0:0:0:
362,83,87636,1,0,0:0:0:0:
334,70,87936,1,0,0:0:0:0:
328,78,88236,1,8,0:0:0:0:
334,70,88536,1,0,0:0:0:0:
329,86,88686,1,0,0:0:0:0:
319,83,88836,1,8,0:0:0:0:
327,90,89136,1,8,0:0:0:0:
329,86,89436,1,0,0:0:0:0:
329,86,89736,1,0,0:0:0:0:
319,83,90036,1,8,0:0:0:0:
313,97,90636,1,0,0:0:0:0:
334,65,90936,1,8,0:0:0:0:
303,91,91236,1,0,0:0:0:0:
334,65,91536,1,8,0:0:0:0:
334,65,91686,1,8,0:0:0:0:
317,110,91836,1,0,0:0:0:0:
327,113,92136,1,8,0:0:0:0:
309,103,92286,1,0,0:0:0:0:
317,110,92586,1,8,0:0:0:0:
303,103,92736,1,0,0:0:0:0:
309,103,92886,1,0,0:0:0:0:
304,102,93036,1,8,0:0:0:0:
304,102,93336,1,0,0:0:0:0:
303,103,93636,1,8,0:0:0:0:
311,99,94236,5,4,0:0:0:0:
311,98,94536,1,8,0:0:0:0:
312,98,94686,1,8,0:0:0:0:
311,98,94836,1,0,0:0:0:0:
323,91,95136,1,0,0:0:0:0:
321,92,95286,1,0,0:0:0:0:
321,92,95436,1,8,0:0:0:0:
316,88,95586,1,8,0:0:0:0:
317,89,95736,1,0,0:0:0:0:
317,89,96036,1,8,0:0:0:0:
317,89,96336,1,0,0:0:0:0:
311,85,96486,1,8,0:0:0:0:
317,89,96636,1,0,0:0:0:0:
317,89,96936,1,8,0:0:0:0:
317,89,97236,1,8,0:0:0:0:
317,89,97536,1,0,0:0:0:0:
317,89,97686,1,0,0:0:0:0:
317,89,97836,1,8,0:0:0:0:
317,89,98136,1,0,0:0:0:0:
317,89,98286,1,0,0:0:0:0:
317,89,98436,1,8,0:0:0:0:
317,89,99036,1,4,0:0:0:0:
317,89,99336,1,8,0:0:0:0:
317,89,99636,1,8,0:0:0:0:
317,89,99786,1,0,0:0:0:0:
317,89,99936,1,0,0:0:0:0:
317,89,100236,1,8,0:0:0:0:
317,89,100536,1,0,0:0:0:0:
317,89,100836,1,8,0:0:0:0:
317,89,100986,1,8,0:0:0:0:
317,89,101136,1,8,0:0:0:0:
317,89,101436,1,0,0:0:0:0:
317,89,101886,1,0,0:0:0:0:
317,89,102036,1,8,0:0:0:0:
317,89,102336,1,8,0:0:0:0:
317,89,102486,1,8,0:0:0:0:
317,89,102636,1,0,0:0:0:0:
317,89,102936,1,0,0:0:0:0:
317,89,103086,1,8,0:0:0:0:
317,89,103236,1,8,0:0:0:0:
317,89,103836,1,4,0:0:0:0:
317,89,104136,1,8,0:0:0:0:
317,89,104286,1,8,0:0:0:0:
317,89,104436,1,0,0:0:0:0:
317,89,104736,1,0,0:0:0:0:
317,89,104886,1,8,0:0:0:0:
317,89,105036,1,8,0:0:0:0:
317,89,105186,1,8,0:0:0:0:
317,89,105336,1,0,0:0:0:0:
317,89,105636,1,8,0:0:0:0:
317,89,105936,1,0,0:0:0:0:
317,89,106086,1,8,0:0:0:0:
317,89,106236,1,0,0:0:0:0:
317,89,106536,1,8,0:0:0:0:
317,89,106836,1,8,0:0:0:0:
317,89,107136,1,0,0:0:0:0:
317,89,107286,1,8,0:0:0:0:
317,89,107436,1,8,0:0:0:0:
317,89,107736,1,0,0:0:0:0:
317,89,107886,1,0,0:0:0:0:
317,89,108036,1,8,0:0:0:0:
317,89,108636,1,4,0:0:0:0:
317,89,108936,1,0,0:0:0:0:
317,89,109086,1,0,0:0:0:0:
317,89,109236,1,8,0:0:0:0:
317,89,109536,1,0,0:0:0:0:
317,89,109836,1,8,0:0:0:0:
317,89,110136,1,8,0:0:0:0:
317,89,110436,1,8,0:0:0:0:
317,89,110586,1,0,0:0:0:0:
317,89,110736,1,8,0:0:0:0:
317,89,111036,1,8,0:0:0:0:
317,89,111636,1,0,0:0:0:0:
317,89,111786,1,0,0:0:0:0:
317,89,111936,1,8,0:0:0:0:
317,89,112236,1,0,0:0:0:0:
317,89,112536,1,8,0:0:0:0:
317,89,112836,1,0,0:0:0:0:
317,89,112986,1,0,0:0:0:0:
317,89,113136,1,8,0:0:0:0:
302,91,113436,5,4,0:0:0:0:
302,91,114036,5,8,0:0:0:0:
302,91,114186,1,8,0:0:0:0:
302,91,114336,1,0,0:0:0:0:
306,95,114486,1,0,0:0:0:0:
307,95,114636,1,8,0:0:0:0:
302,91,115086,1,0,0:0:0:0:
302,100,115236,1,8,0:0:0:0:
310,107,115536,1,0,0:0:0:0:
310,107,115836,1,8,0:0:0:0:
311,108,115986,1,0,0:0:0:0:
341,118,116136,1,0,0:0:0:0:
305,103,116436,1,0,0:0:0:0:
305,103,116586,1,8,0:0:0:0:
305,103,116736,1,8,0:0:0:0:
302,100,116886,1,0,0:0:0:0:
302,100,117036,1,8,0:0:0:0:
316,120,117486,1,8,0:0:0:0:
316,120,117636,1,0,0:0:0:0:
313,101,117936,1,8,0:0:0:0:
310,106,118236,1,4,0:0:0:0:
313,101,118836,1,8,0:0:0:0:
314,101,118986,1,0,0:0:0:0:
312,94,119136,5,0,0:0:0:0:
312,94,119286,1,8,0:0:0:0:
312,94,119436,1,0,0:0:0:0:
316,92,119886,1,0,0:0:0:0:
318,86,120036,1,8,0:0:0:0:
318,85,120336,1,0,0:0:0:0:
307,73,120636,5,8,0:0:0:0:
302,76,120786,1,0,0:0:0:0:
293,66,120936,1,0,0:0:0:0:
314,63,121236,1,8,0:0:0:0:
314,63,121386,1,0,0:0:0:0:
314,63,121536,1,0,0:0:0:0:
296,63,121686,1,8,0:0:0:0:
293,66,121836,1,8,0:0:0:0:
304,63,122286,1,8,0:0:0:0:
303,63,122436,1,0,0:0:0:0:
308,79,122736,1,0,0:0:0:0:
304,63,123036,1,12,0:0:0:0:
306,65,123636,1,8,0:0:0:0:
312,68,123786,1,8,0:0:0:0:
311,64,123936,1,0,0:0:0:0:
299,67,124086,1,0,0:0:0:0:
312,68,124236,1,8,0:0:0:0:
312,68,124686,1,8,0:0:0:0:
311,64,124836,1,0,0:0:0:0:
320,78,125136,1,0,0:0:0:0:
320,78,125436,1,8,0:0:0:0:
321,82,125586,1,0,0:0:0:0:
319,78,125736,1,0,0:0:0:0:
320,78,126036,1,8,0:0:0:0:
320,78,126186,1,8,0:0:0:0:
320,78,126336,1,0,0:0:0:0:
319,78,126486,1,0,0:0:0:0:
319,78,126636,1,8,0:0:0:0:
320,78,127086,1,0,0:0:0:0:
313,80,127236,1,0,0:0:0:0:
313,81,127536,1,8,0:0:0:0:
313,80,127836,1,4,0:0:0:0:
313,81,128436,1,8,0:0:0:0:
305,92,128586,1,0,0:0:0:0:
305,92,128736,1,0,0:0:0:0:
305,92,128886,1,8,0:0:0:0:
305,92,129036,1,8,0:0:0:0:
291,76,129486,1,8,0:0:0:0:
300,83,129636,1,0,0:0:0:0:
300,87,129936,1,8,0:0:0:0:
298,86,130236,1,8,0:0:0:0:
300,82,130386,1,0,0:0:0:0:
302,76,130536,1,0,0:0:0:0:
302,76,130836,1,8,0:0:0:0:
302,76,130986,1,0,0:0:0:0:
302,76,131136,1,0,0:0:0:0:
302,76,131286,1,8,0:0:0:0:
302,76,131436,1,8,0:0:0:0:
302,76,131736,1,8,0:0:0:0:
302,76,132036,1,4,0:0:0:0:
