osu file format v14

[General]
AudioFilename: mp3.mp3
AudioLeadIn: 0
PreviewTime: 69916
Countdown: 0
SampleSet: Soft
StackLeniency: 0.7
Mode: 0
LetterboxInBreaks: 0
WidescreenStoryboard: 0

[Editor]
DistanceSpacing: 1
BeatDivisor: 4
GridSize: 4
TimelineZoom: 1.9

[Metadata]
Title:Yokuatsu Sakuran Girl
TitleUnicode:抑圧錯乱ガール
Artist:otetsu
ArtistUnicode:otetsu
Creator:ZZHBOY
Version:Normal
Source:
Tags:地獄型人間動物園 Jigokugata Ningen Doubutsuen GUMI Vocaloid Oppression Confusion Girl Hollow Wings
BeatmapID:494126
BeatmapSetID:195582

[Difficulty]
HPDrainRate:4
CircleSize:3.5
OverallDifficulty:4
ApproachRate:6
SliderMultiplier:1.2
SliderTickRate:1

[Events]
//Background and Video events
0,0,"maxresdefault.jpg",0,0
//Break Periods
2,84657,94679
2,145744,153070
2,171924,175476
2,195336,206068
//Storyboard Layer 0 (Background)
//Storyboard Layer 1 (Fail)
//Storyboard Layer 2 (Pass)
//Storyboard Layer 3 (Foreground)
//Storyboard Sound Samples

[TimingPoints]
1553,363.61432640446,4,2,1,40,1,0
7370,-100,4,1,1,60,0,0
29914,-100,4,2,1,40,0,0
32096,-100,4,1,1,40,0,0
43732,-100,4,1,1,50,0,0
49550,-100,4,1,1,40,0,0
55367,-100,4,1,1,50,0,0
69912,-100,4,1,1,60,0,1
81548,-100,4,1,1,30,0,0
84457,-100,4,1,1,40,0,0
107728,-100,4,1,1,50,0,0
122272,-100,4,1,1,60,0,1
145544,363.61432640446,3,1,1,30,1,0
171724,300.16432640446,4,1,1,60,1,0
171724,-125,4,1,1,60,0,0
195136,-100,4,1,1,30,0,0
196937,363.61432640446,4,1,1,40,1,0
210027,-100,4,1,1,70,0,1
234752,-100,4,1,1,60,0,0
257623,363.61432640446,4,1,1,60,1,0

[Colours]
Combo1 : 255,0,0
Combo2 : 170,170,255
Combo3 : 128,128,128
Combo4 : 255,87,87

[HitObjects]
113,102,1553,6,0,L|313:133,1,180,2|0,0:0|0:0,0:0:0:0:
320,201,2280,2,0,P|324:249|307:292,2,90,0|0|0,0:0|0:0|0:0,0:0:0:0:
367,139,3007,6,0,L|481:94,1,120,0|0,0:0|0:0,0:0:0:0:
336,29,3734,2,0,P|248:28|191:94,1,180,0|0,0:0|0:0,0:0:0:0:
207,169,4461,6,0,L|209:348,1,180,2|0,0:0|0:0,0:0:0:0:
130,352,5189,2,0,P|69:349|21:371,2,90,0|0|0,0:0|0:0|0:0,0:0:0:0:
123,274,5916,5,0,0:0:0:0:
275,242,6279,1,0,0:0:0:0:
384,352,6643,1,0,0:0:0:0:
438,205,7007,2,0,L|423:143,1,60,0|0,0:0|0:0,0:0:0:0:
389,76,7370,6,0,P|325:58|257:84,1,120,4|8,0:0|0:0,0:0:0:0:
328,219,8098,1,0,0:0:0:0:
172,230,8461,2,0,P|172:190|188:155,1,60,8|0,0:0|0:0,0:0:0:0:
211,100,8825,6,0,L|75:90,2,120,0|8|0,0:0|0:0|0:0,0:0:0:0:
368,115,9916,2,0,L|445:122,1,60,8|0,0:0|0:0,0:0:0:0:
462,190,10279,6,0,P|460:249|427:297,1,120,0|8,0:0|0:0,0:0:0:0:
275,320,11006,1,0,0:0:0:0:
120,299,11370,2,0,L|45:281,1,60,8|0,0:0|0:0,0:0:0:0:
16,220,11734,6,0,P|31:144|77:96,1,120,0|8,0:0|0:0,0:0:0:0:
212,123,12461,2,0,L|204:212,2,90,8|8|8,0:0|0:0|0:0,0:0:0:0:
272,73,13188,6,0,P|323:67|396:99,1,120,4|8,0:0|0:0,0:0:0:0:
412,244,13915,1,0,0:0:0:0:
275,319,14279,2,0,L|258:240,1,60,8|0,0:0|0:0,0:0:0:0:
305,195,14643,6,0,P|313:144|279:59,1,120,0|8,0:0|0:0,0:0:0:0:
141,44,15370,1,0,0:0:0:0:
68,181,15733,2,0,L|80:239,1,60,8|0,0:0|0:0,0:0:0:0:
130,299,16097,6,0,P|188:304|253:273,1,120,0|8,0:0|0:0,0:0:0:0:
286,214,16642,1,0,0:0:0:0:
323,282,16824,2,0,P|394:283|449:254,1,120,0|8,0:0|0:0,0:0:0:0:
500,119,17552,5,0,0:0:0:0:
371,207,17915,1,8,0:0:0:0:
383,51,18279,1,0,0:0:0:0:
246,126,18642,2,0,P|203:123|175:110,1,60,8|8,0:0|0:0,0:0:0:0:
115,86,19006,6,0,P|83:135|85:194,1,120,4|8,0:0|0:0,0:0:0:0:
239,219,19733,2,0,L|351:241,2,90
207,290,20460,5,0,0:0:0:0:
85,194,20824,1,8,0:0:0:0:
165,60,21188,1,0,0:0:0:0:
290,152,21551,2,0,P|334:153|373:142,1,60,8|0,0:0|0:0,0:0:0:0:
425,128,21915,6,0,P|440:200|420:270,1,120,0|8,0:0|0:0,0:0:0:0:
317,347,22642,1,0,0:0:0:0:
208,234,23006,2,0,P|203:180|205:155,1,60,8|0,0:0|0:0,0:0:0:0:
233,102,23369,6,0,P|283:89|359:98,1,120,0|8,0:0|0:0,0:0:0:0:
416,237,24097,2,0,L|407:352,2,90,8|8|8,0:0|0:0|0:0,0:0:0:0:
458,171,24824,5,4,0:0:0:0:
304,197,25187,1,8,0:0:0:0:
352,48,25551,1,0,0:0:0:0:
196,66,25915,2,0,L|120:92,1,60,8|0,0:0|0:0,0:0:0:0:
79,136,26278,6,0,P|79:203|114:270,1,120,0|8,0:0|0:0,0:0:0:0:
226,342,27006,1,0,0:0:0:0:
237,186,27369,2,0,L|264:120,1,60,8|0,0:0|0:0,0:0:0:0:
322,82,27733,6,0,P|396:87|441:130,1,120,0|8,0:0|0:0,0:0:0:0:
474,263,28460,1,0,0:0:0:0:
327,318,28824,2,0,L|248:321,1,60,8|0,0:0|0:0,0:0:0:0:
193,345,29187,6,0,B|134:349|134:349|76:327,2,120,0|8|2,0:0|0:0|0:0,0:0:0:0:
256,192,30096,12,4,32096,0:0:0:0:
141,88,32823,5,0,0:0:0:0:
87,234,33187,2,0,P|114:244|144:244,1,60,8|0,0:0|0:0,0:0:0:0:
219,218,33551,6,0,P|267:214|349:240,1,120,0|8,0:0|0:0,0:0:0:0:
259,368,34278,1,0,0:0:0:0:
414,368,34641,2,0,P|458:348|472:339,1,60,8|0,0:0|0:0,0:0:0:0:
488,266,35005,6,0,P|475:212|477:141,1,120,0|8,0:0|0:0,0:0:0:0:
354,49,35732,1,0,0:0:0:0:
223,134,36096,2,0,P|215:172|222:200,1,60,8|0,0:0|0:0,0:0:0:0:
245,265,36459,6,0,L|376:245,1,120,0|8,0:0|0:0,0:0:0:0:
484,147,37187,2,0,P|451:102|446:51,2,90,8|8|8,0:0|0:0|0:0,0:0:0:0:
450,217,37914,5,4,0:0:0:0:
378,355,38278,1,8,0:0:0:0:
367,199,38641,2,0,P|361:146|331:101,2,90
351,275,39368,5,0,0:0:0:0:
203,325,39732,1,8,0:0:0:0:
230,171,40096,1,0,0:0:0:0:
87,232,40459,2,0,P|65:188|63:153,1,60,8|0,0:0|0:0,0:0:0:0:
107,112,40823,5,0,0:0:0:0:
263,103,41186,1,8,0:0:0:0:
406,143,41550,2,0,P|466:136|496:100,2,90,0|0|0,0:0|0:0|0:0,0:0:0:0:
421,66,42277,5,0,0:0:0:0:
417,222,42641,1,8,0:0:0:0:
312,337,43005,2,0,L|252:333,1,60,0|0,0:0|0:0,0:0:0:0:
194,280,43368,2,0,L|127:259,1,60,8|0,0:0|0:0,0:0:0:0:
80,206,43732,6,0,P|56:155|91:80,1,120,4|8,0:0|0:0,0:0:0:0:
216,33,44459,1,0,0:0:0:0:
288,171,44823,2,0,L|285:254,1,60,8|0,0:0|0:0,0:0:0:0:
334,292,45186,6,0,P|385:308|464:288,1,120,0|8,0:0|0:0,0:0:0:0:
482,143,45913,1,0,0:0:0:0:
374,29,46277,2,0,L|291:55,1,60,8|0,0:0|0:0,0:0:0:0:
239,62,46641,6,0,P|187:54|119:62,1,120,0|8,0:0|0:0,0:0:0:0:
45,198,47368,1,0,0:0:0:0:
149,314,47732,2,0,L|223:327,1,60,8|0,0:0|0:0,0:0:0:0:
286,326,48095,6,0,P|310:270|297:186,1,120,0|8,0:0|0:0,0:0:0:0:
181,119,48822,2,0,L|127:218,2,90,8|8|8,0:0|0:0|0:0,0:0:0:0:
252,86,49550,5,4,0:0:0:0:
406,108,49913,1,8,0:0:0:0:
309,230,50277,2,0,P|306:275|328:318,2,90,0|0|0,0:0|0:0|0:0,0:0:0:0:
381,258,51004,5,0,0:0:0:0:
227,228,51368,1,8,0:0:0:0:
329,110,51731,1,0,0:0:0:0:
455,201,52095,2,0,P|473:233|475:266,1,60,8|0,0:0|0:0,0:0:0:0:
436,323,52459,6,0,L|308:346,1,120,0|8,0:0|0:0,0:0:0:0:
165,309,53186,1,0,0:0:0:0:
250,178,53549,1,8,0:0:0:0:
96,208,53913,6,0,P|88:236|93:266,2,60,0|0|8,0:0|0:0|0:0,0:0:0:0:
179,75,54640,2,0,P|186:46|181:16,2,60,0|8|8,0:0|0:0|0:0,0:0:0:0:
39,144,55367,5,4,0:0:0:0:
347,93,56095,2,0,P|362:153|337:218,1,120,0|8,0:0|0:0,0:0:0:0:
194,250,56822,5,0,0:0:0:0:
319,342,57185,1,8,0:0:0:0:
163,327,57549,1,0,0:0:0:0:
248,196,57913,2,0,P|258:151|255:126,1,60,8|0,0:0|0:0,0:0:0:0:
234,62,58276,5,4,0:0:0:0:
82,99,58640,2,0,L|77:168,1,60,8|0,0:0|0:0,0:0:0:0:
95,235,59004,2,0,P|159:245|225:242,1,120,0|8,0:0|0:0,0:0:0:0:
350,167,59731,6,0,P|376:224|336:335,2,180,0|0|8,0:0|0:0|0:0,0:0:0:0:
244,51,61185,1,4,0:0:0:0:
120,337,61912,2,0,P|183:358|237:348,1,120,0|8,0:0|0:0,0:0:0:0:
374,283,62640,6,0,L|403:156,1,120,0|8,0:0|0:0,0:0:0:0:
388,88,63185,1,0,0:0:0:0:
331,33,63367,2,0,P|253:22|193:44,1,120,0|8,0:0|0:0,0:0:0:0:
79,111,64094,5,4,0:0:0:0:
79,111,64458,1,8,0:0:0:0:
87,266,64821,1,0,0:0:0:0:
87,266,65185,1,8,0:0:0:0:
170,133,65549,6,0,P|222:129|286:160,1,120,4|8,0:0|0:0,0:0:0:0:
190,283,66276,1,0,0:0:0:0:
45,342,66639,1,8,0:0:0:0:
48,185,67003,6,0,L|41:60,1,120,4|8,0:0|0:0,0:0:0:0:
172,150,67730,2,0,P|229:162|307:138,1,120,0|8,0:0|0:0,0:0:0:0:
416,58,68458,6,0,L|473:95,2,60,4|0|8,0:0|0:0|0:0,0:0:0:0:
423,214,69185,2,0,L|437:296,2,60,0|0|8,0:0|0:0|0:0,0:0:0:0:
268,235,69912,5,4,0:0:0:0:
270,78,70276,1,8,0:0:0:0:
130,147,70639,2,0,L|17:148,2,90,0|0|0,0:0|0:0|0:0,0:0:0:0:
174,210,71366,6,0,P|180:286|222:324,1,120,0|8,0:0|0:0,0:0:0:0:
360,349,72094,2,0,L|466:346,2,90,0|0|0,0:0|0:0|0:0,0:0:0:0:
300,298,72821,6,0,P|281:242|293:184,1,120,4|8,0:0|0:0,0:0:0:0:
403,73,73548,2,0,L|479:141,2,90,0|0|0,0:0|0:0|0:0,0:0:0:0:
327,51,74275,5,0,0:0:0:0:
171,42,74639,1,8,0:0:0:0:
35,120,75003,1,0,0:0:0:0:
190,121,75366,1,0,0:0:0:0:
110,255,75730,6,0,P|79:305|22:319,1,120,4|8,0:0|0:0,0:0:0:0:
179,316,76457,2,0,P|224:317|265:341,2,90
199,224,77184,5,0,0:0:0:0:
343,165,77548,1,8,0:0:0:0:
346,305,77912,2,0,L|447:334,2,90,0|0|0,0:0|0:0|0:0,0:0:0:0:
282,259,78639,5,0,0:0:0:0:
413,176,79002,1,8,0:0:0:0:
315,54,79366,1,0,0:0:0:0:
229,184,79730,1,8,0:0:0:0:
155,46,80093,6,0,P|80:3|44:14,2,120,0|8|0,0:0|0:0|0:0,0:0:0:0:
41,153,81184,1,8,0:0:0:0:
76,305,81548,6,0,P|169:329|212:308,1,120,0|8,0:0|0:0,0:0:0:0:
262,185,82275,2,0,P|335:214|355:240,2,90
215,122,83002,2,0,P|170:162|146:229,2,120,0|8|0,0:0|0:0|0:0,0:0:0:0:
367,86,84093,1,8,0:0:0:0:
436,225,84457,5,0,0:0:0:0:
86,241,95729,6,0,P|81:270|88:299,1,60,8|0,0:0|0:0,0:0:0:0:
143,354,96092,6,0,P|202:364|260:350,1,120,4|8,0:0|0:0,0:0:0:0:
396,275,96819,2,0,L|505:308,2,90,0|0|0,0:0|0:0|0:0,0:0:0:0:
333,227,97547,6,0,P|329:167|339:108,1,120,0|8,0:0|0:0,0:0:0:0:
183,120,98274,2,0,L|93:122,2,90,0|0|0,0:0|0:0|0:0,0:0:0:0:
225,185,99001,6,0,P|230:241|188:309,1,120,0|8,0:0|0:0,0:0:0:0:
45,289,99728,2,0,L|49:174,2,90,0|0|0,0:0|0:0|0:0,0:0:0:0:
95,349,100456,5,0,0:0:0:0:
250,357,100819,1,8,0:0:0:0:
185,214,101183,2,0,P|186:170|212:132,2,90,8|8|8,0:0|0:0|0:0,0:0:0:0:
260,195,101910,5,4,0:0:0:0:
105,216,102274,1,8,0:0:0:0:
219,321,102637,2,0,L|325:329,2,90,0|0|0,0:0|0:0|0:0,0:0:0:0:
146,350,103365,5,0,0:0:0:0:
26,249,103728,1,8,0:0:0:0:
60,96,104092,1,0,0:0:0:0:
179,195,104455,2,0,L|256:197,1,60,8|0,0:0|0:0,0:0:0:0:
311,165,104819,6,0,P|370:162|427:181,1,120,0|8,0:0|0:0,0:0:0:0:
353,318,105546,1,0,0:0:0:0:
196,319,105910,1,8,0:0:0:0:
136,175,106273,6,0,L|147:116,2,60,0|0|8,0:0|0:0|0:0,0:0:0:0:
53,307,107001,2,0,L|49:378,2,60,0|0|8,0:0|0:0|0:0,0:0:0:0:
18,154,107728,5,4,0:0:0:0:
324,94,108455,2,0,P|336:166|312:229,1,120,0|8,0:0|0:0,0:0:0:0:
168,233,109182,6,0,P|212:339|326:373,1,240,0|0,0:0|0:0,0:0:0:0:
452,283,110273,1,8,0:0:0:0:
302,238,110637,5,4,0:0:0:0:
60,41,111364,2,0,P|52:100|61:159,1,120,0|8,0:0|0:0,0:0:0:0:
199,232,112091,6,0,P|165:280|48:313,2,180,0|0|8,0:0|0:0|0:0,0:0:0:0:
149,83,113546,6,0,L|333:122,1,180,4|0,0:0|0:0,0:0:0:0:
396,152,114273,2,0,P|393:228|357:269,1,120,0|8,0:0|0:0,0:0:0:0:
224,197,115000,6,0,L|114:225,2,90,0|0|0,0:0|0:0|0:0,0:0:0:0:
278,252,115727,2,0,P|295:292|270:371,1,120,0|8,0:0|0:0,0:0:0:0:
125,323,116455,6,0,L|55:195,1,120,4|8,0:0|0:0,0:0:0:0:
79,62,117182,1,0,0:0:0:0:
208,148,117545,1,8,0:0:0:0:
346,76,117909,6,0,P|404:91|454:145,1,120,0|8,0:0|0:0,0:0:0:0:
475,285,118636,1,0,0:0:0:0:
324,241,119000,1,8,0:0:0:0:
171,274,119364,6,0,B|111:268|86:174|150:130|150:130|102:88,2,240,0|8|0,0:0|0:0|0:0,0:0:0:0:
256,192,121000,12,4,122272,0:0:0:0:
85,96,123000,5,0,0:0:0:0:
147,238,123363,1,8,0:0:0:0:
189,87,123727,6,0,P|252:89|327:124,1,120,0|8,0:0|0:0,0:0:0:0:
348,258,124454,2,0,P|402:242|426:196,2,90,0|0|0,0:0|0:0|0:0,0:0:0:0:
350,179,125181,5,4,0:0:0:0:
336,334,125545,1,8,0:0:0:0:
205,248,125909,2,0,L|93:254,2,90,0|0|0,0:0|0:0|0:0,0:0:0:0:
254,187,126636,6,0,P|263:116|233:56,2,120,0|8|0,0:0|0:0|0:0,0:0:0:0:
105,139,127727,1,8,0:0:0:0:
136,291,128090,5,4,0:0:0:0:
284,338,128454,1,8,0:0:0:0:
248,185,128818,2,0,L|143:209,2,90
262,261,129545,5,0,0:0:0:0:
416,243,129908,1,8,0:0:0:0:
328,113,130272,2,0,P|337:71|388:28,2,90
329,191,130999,5,4,0:0:0:0:
349,345,131363,1,8,0:0:0:0:
194,326,131726,2,0,P|136:315|88:279,1,120,0|8,0:0|0:0,0:0:0:0:
89,122,132454,6,0,L|4:180,2,90
156,82,133181,2,0,P|209:93|272:73,1,120,0|8,0:0|0:0,0:0:0:0:
421,34,133908,5,4,0:0:0:0:
454,186,134272,1,8,0:0:0:0:
310,165,134635,2,0,L|364:80,2,90,0|0|0,0:0|0:0|0:0,0:0:0:0:
231,172,135363,5,0,0:0:0:0:
115,276,135726,1,8,0:0:0:0:
267,303,136090,2,0,L|359:328,2,90,0|0|0,0:0|0:0|0:0,0:0:0:0:
216,243,136817,5,4,0:0:0:0:
75,175,137181,1,8,0:0:0:0:
188,68,137544,2,0,L|112:-5,2,90
179,145,138271,5,0,0:0:0:0:
103,281,138635,2,0,P|126:299|155:305,1,60,8|0,0:0|0:0,0:0:0:0:
226,271,138999,2,0,P|294:255|355:280,1,120,0|8,0:0|0:0,0:0:0:0:
473,351,139726,5,4,0:0:0:0:
439,198,140090,1,8,0:0:0:0:
365,60,140453,2,0,P|413:15|455:22,2,90
325,127,141180,5,0,0:0:0:0:
173,158,141544,1,8,0:0:0:0:
137,13,141908,2,0,P|85:31|61:61,2,90
132,90,142635,5,4,0:0:0:0:
243,200,142998,1,8,0:0:0:0:
93,239,143362,2,0,L|103:358,1,120,0|8,0:0|0:0,0:0:0:0:
256,192,144089,12,0,145544,0:0:0:0:
121,143,154270,5,0,0:0:0:0:
143,170,155361,1,8,0:0:0:0:
163,199,156452,1,0,0:0:0:0:
184,227,157543,1,8,0:0:0:0:
329,164,158634,5,0,0:0:0:0:
307,137,159725,1,8,0:0:0:0:
287,108,160816,1,8,0:0:0:0:
266,80,161907,1,8,0:0:0:0:
304,270,162997,6,0,L|245:379,2,120,8|0|0,0:0|0:0|0:0,0:0:0:0:
431,179,164088,2,0,P|489:220|516:291,2,120,8|0|0,0:0|0:0|0:0,0:0:0:0:
285,122,165179,6,0,P|289:55|333:2,2,120,8|0|0,0:0|0:0|0:0,0:0:0:0:
133,158,166270,2,0,L|129:282,1,120,8|0,0:0|0:0,0:0:0:0:
263,356,166997,1,0,0:0:0:0:
392,270,167360,6,0,P|458:289|492:341,2,120,8|0|0,0:0|0:0|0:0,0:0:0:0:
253,197,168451,2,0,L|183:100,2,120,8|0|0,0:0|0:0|0:0,0:0:0:0:
141,305,169542,6,0,P|76:292|39:222,2,120,8|0|0,0:0|0:0|0:0,0:0:0:0:
296,293,170633,1,8,0:0:0:0:
401,177,170997,1,0,0:0:0:0:
247,149,171360,1,0,0:0:0:0:
362,247,171724,5,4,0:0:0:0:
281,82,176526,6,0,P|205:116|316:233,1,288,4|8,0:0|0:0,0:0:0:0:
378,152,177727,2,0,L|498:174,2,96,0|8|0,0:0|0:0|0:0,0:0:0:0:
403,274,178627,1,8,0:0:0:0:
318,365,178927,6,0,P|208:360|74:235,1,288,4|8,0:0|0:0,0:0:0:0:
80,120,180128,2,0,P|55:80|19:49,2,96,0|8|0,0:0|0:0|0:0,0:0:0:0:
189,183,181029,1,8,0:0:0:0:
307,212,181329,6,0,P|254:288|162:304,1,192,4|0,0:0|0:0,0:0:0:0:
73,216,182229,1,8,0:0:0:0:
118,99,182529,2,0,L|226:53,1,96,0|8,0:0|0:0,0:0:0:0:
321,109,183130,2,0,L|443:116,1,96,0|8,0:0|0:0,0:0:0:0:
370,230,183730,6,0,L|466:345,2,144,4|0|8,0:0|0:0|0:0,0:0:0:0:
250,271,184931,2,0,P|180:282|113:257,2,144,0|0|8,0:0|0:0|0:0,0:0:0:0:
370,230,186131,6,0,L|361:116,1,96,4|8,0:0|0:0,0:0:0:0:
283,79,186732,2,0,P|216:53|182:56,1,96
107,99,187332,2,0,L|99:209,1,96,0|8,0:0|0:0,0:0:0:0:
60,271,187932,1,0,0:0:0:0:
140,324,188233,2,0,P|182:316|196:307,1,48,8|0,0:0|0:0,0:0:0:0:
214,277,188533,6,0,P|264:291|323:291,1,96,4|8,0:0|0:0,0:0:0:0:
375,360,189133,1,0,0:0:0:0:
460,317,189433,1,8,0:0:0:0:
455,221,189733,2,0,P|436:157|414:112,1,96,0|8,0:0|0:0,0:0:0:0:
334,95,190334,2,0,P|328:34|330:4,2,72
317,139,190934,6,0,P|263:151|207:138,1,96,4|8,0:0|0:0,0:0:0:0:
173,62,191534,2,0,P|119:50|63:63,1,96,0|8,0:0|0:0,0:0:0:0:
28,138,192135,2,0,P|54:218|63:333,1,192
152,360,193035,1,8,0:0:0:0:
235,312,193335,6,0,P|262:309|337:318,1,96,4|8,0:0|0:0,0:0:0:0:
420,350,193936,2,0,P|425:292|396:246,1,96,0|8,0:0|0:0,0:0:0:0:
319,225,194536,2,0,P|314:167|343:121,2,96,0|8|0,0:0|0:0|0:0,0:0:0:0:
162,118,207118,6,0,L|144:55,2,60,8|0|8,0:0|0:0|0:0,0:0:0:0:
292,203,207845,2,0,L|308:275,2,60,0|0|8,0:0|0:0|0:0,0:0:0:0:
256,192,208572,12,4,210027,0:0:0:0:
122,189,210754,6,0,L|63:87,2,90,0|0|0,0:0|0:0|0:0,0:0:0:0:
175,245,211481,6,0,P|258:265|300:250,1,120,0|8,0:0|0:0,0:0:0:0:
412,160,212208,2,0,P|468:155|510:191,2,90
443,232,212936,6,0,P|444:295|398:342,1,120,4|8,0:0|0:0,0:0:0:0:
252,333,213663,2,0,L|146:340,2,90,0|0|0,0:0|0:0|0:0,0:0:0:0:
301,272,214390,6,0,P|309:221|284:137,1,120,0|8,0:0|0:0,0:0:0:0:
155,227,215117,1,0,0:0:0:0:
166,71,215481,1,8,0:0:0:0:
317,36,215844,6,0,P|383:58|434:112,1,120,4|8,0:0|0:0,0:0:0:0:
423,247,216572,2,0,P|438:288|474:318,2,90,0|0|0,0:0|0:0|0:0,0:0:0:0:
365,194,217299,6,0,P|307:196|230:230,1,120,0|8,0:0|0:0,0:0:0:0:
149,337,218026,2,0,P|101:363|51:361,2,90,0|0|0,0:0|0:0|0:0,0:0:0:0:
172,262,218753,6,0,L|118:131,1,120,4|8,0:0|0:0,0:0:0:0:
137,73,219299,1,0,0:0:0:0:
213,89,219481,2,0,P|269:70|308:15,1,120,0|8,0:0|0:0,0:0:0:0:
441,98,220208,5,0,0:0:0:0:
437,253,220571,1,8,0:0:0:0:
297,183,220935,1,0,0:0:0:0:
297,339,221299,2,0,P|259:333|215:311,1,60,8|8,0:0|0:0,0:0:0:0:
201,257,221662,6,0,P|154:234|74:227,1,120,4|8,0:0|0:0,0:0:0:0:
164,89,222390,2,0,L|86:35,2,90,0|0|0,0:0|0:0|0:0,0:0:0:0:
234,121,223117,6,0,P|290:117|354:74,1,120,0|8,0:0|0:0,0:0:0:0:
434,211,223844,2,0,L|464:300,2,90,0|0|0,0:0|0:0|0:0,0:0:0:0:
364,176,224571,5,4,0:0:0:0:
220,236,224935,1,8,0:0:0:0:
346,327,225298,2,0,P|419:320|455:299,2,90,0|0|0,0:0|0:0|0:0,0:0:0:0:
364,176,226026,5,0,0:0:0:0:
285,41,226389,1,8,0:0:0:0:
246,192,226753,1,0,0:0:0:0:
142,75,227116,2,0,P|107:79|73:97,1,60,8|8,0:0|0:0,0:0:0:0:
46,157,227480,6,0,L|94:278,1,120,4|8,0:0|0:0,0:0:0:0:
237,319,228207,2,0,L|332:341,2,90,0|0|0,0:0|0:0|0:0,0:0:0:0:
184,260,228935,6,0,P|179:193|195:129,1,120,0|8,0:0|0:0,0:0:0:0:
319,53,229662,2,0,L|419:60,2,90,12|8|8,0:0|0:0|0:0,0:0:0:0:
236,74,231480,1,0,0:0:0:0:
331,196,231843,6,0,P|327:249|285:309,1,120,4|8,0:0|0:0,0:0:0:0:
141,258,232571,2,0,P|145:205|187:145,1,120,0|8,0:0|0:0,0:0:0:0:
320,80,233298,6,0,P|428:137|434:254,2,240,4|0|4,0:0|0:0|0:0,0:0:0:0:
