osu file format v14

[General]
AudioFilename: mp3.mp3
AudioLeadIn: 0
PreviewTime: 69916
Countdown: 0
SampleSet: Normal
StackLeniency: 0.3
Mode: 0
LetterboxInBreaks: 0
WidescreenStoryboard: 0

[Editor]
Bookmarks: 7370,17461,37914,96092
DistanceSpacing: 0.5
BeatDivisor: 4
GridSize: 16
TimelineZoom: 2.2

[Metadata]
Title:Yokuatsu Sakuran Girl
TitleUnicode:抑圧錯乱ガール
Artist:otetsu
ArtistUnicode:otetsu
Creator:ZZHBOY
Version:Insane
Source:
Tags:地獄型人間動物園 Jigokugata Ningen Doubutsuen GUMI Vocaloid Oppression Confusion Girl Hollow Wings
BeatmapID:1676603
BeatmapSetID:195582

[Difficulty]
HPDrainRate:5
CircleSize:4
OverallDifficulty:8
ApproachRate:9
SliderMultiplier:2.5
SliderTickRate:1

[Events]
//Background and Video events
0,0,"maxresdefault.jpg",0,0
//Break Periods
2,84657,94947
2,145744,153670
2,197137,206518
2,230407,231243
//Storyboard Layer 0 (Background)
//Storyboard Layer 1 (Fail)
//Storyboard Layer 2 (Pass)
//Storyboard Layer 3 (Foreground)
//Storyboard Sound Samples

[TimingPoints]
1553,363.61432640446,4,2,1,40,1,0
1553,-133.333333333333,4,2,1,40,0,0
6643,-133.333333333333,4,2,1,40,0,0
6825,-133.333333333333,4,1,1,80,0,0
7370,-100,4,1,1,60,0,0
29914,-100,4,2,1,40,0,0
32096,-100,4,1,1,40,0,0
43732,-100,4,1,1,50,0,0
49550,-100,4,1,1,40,0,0
55367,-100,4,1,1,50,0,0
67003,-200,4,1,1,50,0,0
69912,-83.3333333333333,4,1,1,60,0,1
81548,-100,4,1,1,30,0,0
84457,-100,4,1,1,40,0,0
107728,-100,4,1,1,50,0,0
121909,-133.333333333333,4,1,1,50,0,0
122272,-83.3333333333333,4,1,1,60,0,1
145544,363.61432640446,3,1,1,30,1,0
171724,300.16432640446,4,1,1,60,1,0
196937,363.61432640446,4,1,1,40,1,0
209663,-100,4,1,1,60,0,0
210027,-66.6666666666667,4,1,1,70,0,1
230207,-83.3333333333333,4,1,1,70,0,0
231843,-83.3333333333333,4,1,1,70,0,1
234752,-83.3333333333333,4,1,1,60,0,0
257623,363.61432640446,4,1,1,60,1,0

[Colours]
Combo1 : 255,0,0
Combo2 : 170,170,255
Combo3 : 128,128,128
Combo4 : 255,87,87

[HitObjects]
400,196,1553,5,2,0:0:0:0:
355,108,1734,1,0,0:0:0:0:
355,108,1916,1,0,0:0:0:0:
400,196,2098,1,0,0:0:0:0:
416,16,2280,2,0,P|336:0|264:56,2,140.625005364418,0|0|0,0:0|0:0|0:0,0:0:0:0:
400,196,3007,5,0,0:0:0:0:
304,211,3189,1,0,0:0:0:0:
365,285,3371,1,0,0:0:0:0:
244,100,3552,1,0,0:0:0:0:
240,128,3643,1,0,0:0:0:0:
236,156,3734,1,0,0:0:0:0:
232,184,3825,1,0,0:0:0:0:
49,353,4007,2,0,P|43:307|60:264,1,93.7500035762788,0|0,0:0|0:0,0:0:0:0:
130,318,4280,1,0,0:0:0:0:
28,148,4461,6,0,L|121:148,1,93.7500035762788,2|0,0:0|0:0,0:0:0:0:
255,120,4825,2,0,P|260:73|239:32,1,93.7500035762788,0|0,0:0|0:0,0:0:0:0:
144,160,5189,2,0,L|136:300,1,140.625005364418,0|0,0:0|0:0,0:0:0:0:
121,148,5734,1,0,0:0:0:0:
272,68,5916,5,0,0:0:0:0:
272,68,6007,1,0,0:0:0:0:
272,68,6098,1,0,0:0:0:0:
272,68,6189,1,0,0:0:0:0:
272,68,6279,5,0,0:0:0:0:
279,85,6370,1,0,0:0:0:0:
286,102,6461,1,0,0:0:0:0:
287,120,6552,1,0,0:0:0:0:
280,138,6643,5,0,0:0:0:0:
253,148,6734,1,0,0:0:0:0:
238,172,6825,1,0,0:0:0:0:
244,199,6916,1,0,0:0:0:0:
267,214,7007,5,0,0:0:0:0:
285,246,7098,1,0,0:0:0:0:
279,283,7189,1,0,0:0:0:0:
253,309,7279,1,0,0:0:0:0:
223,313,7370,6,0,P|286:309|343:349,1,125,4|0,0:0|0:0,0:0:0:0:
119,336,7734,2,0,P|58:340|6:308,1,125,8|0,0:0|0:0,0:0:0:0:
66,218,8098,2,0,L|62:94,1,125,0|0,0:0|0:0,0:0:0:0:
75,65,8370,2,0,P|127:33|188:38,1,125,0|0,0:0|0:0,0:0:0:0:
206,64,8643,1,0,0:0:0:0:
174,216,8825,5,0,0:0:0:0:
283,144,9007,1,0,0:0:0:0:
299,274,9188,1,8,0:0:0:0:
276,156,9370,1,0,0:0:0:0:
271,167,9461,1,0,0:0:0:0:
266,178,9552,1,0,0:0:0:0:
261,189,9643,1,0,0:0:0:0:
238,67,9825,5,0,0:0:0:0:
158,256,10007,1,0,0:0:0:0:
147,292,10098,1,0,0:0:0:0:
352,343,10279,6,0,P|371:285|370:222,1,125,0|0,0:0|0:0,0:0:0:0:
272,72,10643,1,8,0:0:0:0:
396,143,10825,1,0,0:0:0:0:
512,68,11006,2,0,P|450:80|396:113,1,125,0|0,0:0|0:0,0:0:0:0:
396,143,11279,2,0,L|402:326,1,125,0|0,0:0|0:0,0:0:0:0:
402,299,11552,1,0,0:0:0:0:
123,188,11734,5,0,0:0:0:0:
155,81,11916,1,0,0:0:0:0:
239,159,12097,1,8,0:0:0:0:
121,88,12279,1,0,0:0:0:0:
121,88,12370,1,0,0:0:0:0:
121,88,12461,1,8,0:0:0:0:
324,104,12734,1,8,0:0:0:0:
102,284,13006,1,8,0:0:0:0:
102,284,13188,6,0,L|224:260,1,125,4|0,0:0|0:0,0:0:0:0:
300,347,13552,1,8,0:0:0:0:
237,158,13734,1,0,0:0:0:0:
240,182,13824,1,0,0:0:0:0:
243,206,13915,1,0,0:0:0:0:
247,230,14006,1,0,0:0:0:0:
76,122,14188,2,0,L|99:253,1,125,0|0,0:0|0:0,0:0:0:0:
104,280,14461,1,0,0:0:0:0:
259,164,14643,5,0,0:0:0:0:
287,345,14824,1,0,0:0:0:0:
357,196,15006,1,8,0:0:0:0:
205,255,15188,1,0,0:0:0:0:
352,240,15370,1,0,0:0:0:0:
352,240,15461,1,0,0:0:0:0:
154,178,15643,1,0,0:0:0:0:
168,344,15824,1,0,0:0:0:0:
168,344,15915,1,0,0:0:0:0:
121,231,16097,5,0,0:0:0:0:
225,187,16279,1,0,0:0:0:0:
129,119,16461,1,8,0:0:0:0:
125,265,16642,1,0,0:0:0:0:
125,265,16733,1,0,0:0:0:0:
125,265,16824,1,0,0:0:0:0:
125,265,16915,1,0,0:0:0:0:
0,170,17097,2,0,P|61:177|116:151,1,125,0|0,0:0|0:0,0:0:0:0:
129,119,17369,1,0,0:0:0:0:
336,272,17552,5,0,0:0:0:0:
292,56,17733,1,0,0:0:0:0:
212,260,17915,1,8,0:0:0:0:
392,148,18097,1,0,0:0:0:0:
392,148,18188,1,0,0:0:0:0:
392,148,18278,1,0,0:0:0:0:
188,136,18460,1,0,0:0:0:0:
188,136,18551,1,0,0:0:0:0:
188,136,18642,1,8,0:0:0:0:
336,272,18824,1,8,0:0:0:0:
336,272,19006,6,0,L|212:289,1,125,4|0,0:0|0:0,0:0:0:0:
333,101,19370,1,8,0:0:0:0:
456,140,19551,1,0,0:0:0:0:
456,140,19733,2,0,L|475:282,1,125,0|0,0:0|0:0,0:0:0:0:
408,364,20006,2,0,L|384:192,1,125,0|0,0:0|0:0,0:0:0:0:
380,164,20279,1,0,0:0:0:0:
204,134,20460,5,0,0:0:0:0:
347,134,20642,1,0,0:0:0:0:
273,225,20824,1,8,0:0:0:0:
280,40,21006,1,0,0:0:0:0:
276,60,21097,1,0,0:0:0:0:
272,80,21188,1,0,0:0:0:0:
268,100,21279,1,0,0:0:0:0:
148,19,21460,1,0,0:0:0:0:
94,143,21642,1,0,0:0:0:0:
90,163,21733,1,0,0:0:0:0:
328,104,21915,5,0,0:0:0:0:
232,288,22097,1,0,0:0:0:0:
184,128,22279,1,8,0:0:0:0:
368,276,22460,1,0,0:0:0:0:
368,276,22642,2,0,P|391:210|385:152,1,125,0|0,0:0|0:0,0:0:0:0:
421,89,22915,2,0,P|416:150|439:208,1,125,0|0,0:0|0:0,0:0:0:0:
492,260,23188,1,0,0:0:0:0:
302,33,23369,5,0,0:0:0:0:
351,169,23551,1,0,0:0:0:0:
202,141,23733,1,8,0:0:0:0:
389,133,23915,1,0,0:0:0:0:
389,133,24006,1,0,0:0:0:0:
389,133,24097,5,8,0:0:0:0:
305,347,24369,1,8,0:0:0:0:
282,68,24642,1,8,0:0:0:0:
184,267,24824,5,4,0:0:0:0:
386,254,25006,1,0,0:0:0:0:
265,342,25187,1,8,0:0:0:0:
312,205,25369,1,0,0:0:0:0:
306,180,25459,1,0,0:0:0:0:
301,156,25550,1,0,0:0:0:0:
296,132,25641,1,0,0:0:0:0:
104,196,25824,2,0,P|192:196|236:264,1,125,0|0,0:0|0:0,0:0:0:0:
228,240,26096,1,0,0:0:0:0:
208,40,26278,5,0,0:0:0:0:
104,216,26460,1,0,0:0:0:0:
296,132,26642,1,8,0:0:0:0:
96,100,26824,1,0,0:0:0:0:
228,240,27006,1,0,0:0:0:0:
228,240,27096,1,0,0:0:0:0:
332,116,27278,1,0,0:0:0:0:
332,116,27369,1,0,0:0:0:0:
332,116,27460,1,0,0:0:0:0:
332,116,27551,1,0,0:0:0:0:
210,349,27733,5,0,0:0:0:0:
339,233,27915,1,0,0:0:0:0:
181,227,28096,1,8,0:0:0:0:
294,314,28278,1,0,0:0:0:0:
312,311,28368,1,0,0:0:0:0:
331,309,28459,1,0,0:0:0:0:
349,306,28550,1,0,0:0:0:0:
195,111,28733,2,0,P|125:126|77:194,1,125,0|0,0:0|0:0,0:0:0:0:
76,203,29005,1,0,0:0:0:0:
243,33,29187,5,0,0:0:0:0:
81,60,29369,1,0,0:0:0:0:
237,188,29551,1,8,0:0:0:0:
317,113,29733,1,0,0:0:0:0:
317,113,29824,1,0,0:0:0:0:
317,113,29914,1,2,0:0:0:0:
256,192,30005,12,0,31732,0:0:0:0:
152,66,32096,5,4,0:0:0:0:
55,147,32278,1,0,0:0:0:0:
180,82,32460,1,8,0:0:0:0:
45,67,32642,1,0,0:0:0:0:
210,105,32823,2,0,P|283:86|327:36,1,125,0|0,0:0|0:0,0:0:0:0:
339,21,33096,2,0,P|343:104|366:151,1,125,0|0,0:0|0:0,0:0:0:0:
393,159,33369,1,0,0:0:0:0:
495,142,33551,5,0,0:0:0:0:
343,234,33732,1,0,0:0:0:0:
343,234,33823,1,0,0:0:0:0:
343,234,33914,1,8,0:0:0:0:
210,105,34096,1,0,0:0:0:0:
229,262,34278,1,0,0:0:0:0:
37,188,34460,1,0,0:0:0:0:
57,164,34551,2,0,P|121:132|189:156,1,125,0|0,0:0|0:0,0:0:0:0:
128,340,34823,1,0,0:0:0:0:
128,340,34914,1,0,0:0:0:0:
128,340,35005,5,0,0:0:0:0:
129,237,35187,1,0,0:0:0:0:
236,293,35369,1,8,0:0:0:0:
249,146,35550,1,0,0:0:0:0:
347,301,35732,1,0,0:0:0:0:
443,198,35914,1,0,0:0:0:0:
469,159,36005,2,0,P|455:116|427:168,1,125,0|0,0:0|0:0,0:0:0:0:
284,63,36278,1,0,0:0:0:0:
284,63,36369,1,0,0:0:0:0:
284,63,36459,5,0,0:0:0:0:
240,179,36641,1,0,0:0:0:0:
117,135,36823,1,8,0:0:0:0:
249,146,37005,1,0,0:0:0:0:
287,33,37187,1,8,0:0:0:0:
256,328,37459,1,8,0:0:0:0:
145,109,37732,1,8,0:0:0:0:
240,280,37914,5,4,0:0:0:0:
256,328,38278,1,8,0:0:0:0:
124,40,38641,1,0,0:0:0:0:
264,240,38914,1,0,0:0:0:0:
453,209,39187,1,0,0:0:0:0:
304,352,39368,5,0,0:0:0:0:
294,336,39459,1,0,0:0:0:0:
283,321,39550,1,0,0:0:0:0:
426,334,39732,1,8,0:0:0:0:
242,254,39914,1,0,0:0:0:0:
232,238,40005,1,0,0:0:0:0:
221,223,40096,1,0,0:0:0:0:
212,207,40187,1,0,0:0:0:0:
202,191,40277,1,0,0:0:0:0:
425,101,40459,2,0,P|432:70|367:99,1,125,8|0,0:0|0:0,0:0:0:0:
161,122,40823,5,0,0:0:0:0:
412,289,41186,1,8,0:0:0:0:
388,40,41550,1,0,0:0:0:0:
239,219,41823,1,0,0:0:0:0:
54,159,42096,1,0,0:0:0:0:
97,295,42277,5,0,0:0:0:0:
92,277,42368,1,0,0:0:0:0:
86,258,42459,1,0,0:0:0:0:
233,311,42641,1,8,0:0:0:0:
234,293,42731,1,0,0:0:0:0:
236,274,42822,1,0,0:0:0:0:
238,256,42913,1,0,0:0:0:0:
240,237,43004,1,0,0:0:0:0:
378,124,43186,5,0,0:0:0:0:
369,160,43277,1,0,0:0:0:0:
363,197,43368,1,8,0:0:0:0:
363,197,43550,1,0,0:0:0:0:
405,40,43732,5,4,0:0:0:0:
405,40,43823,1,0,0:0:0:0:
405,40,43914,2,0,B|348:52|310:47|310:47|272:64,1,125,0|8,0:0|0:0,0:0:0:0:
101,93,44277,1,0,0:0:0:0:
101,93,44459,2,0,B|158:105|196:100|196:100|245:150|245:150|295:162|368:102,1,250,0|8,0:0|0:0,0:0:0:0:
148,292,45186,5,0,0:0:0:0:
148,292,45277,1,0,0:0:0:0:
148,292,45368,2,0,B|133:234|121:213|121:213|153:174,1,125,0|8,0:0|0:0,0:0:0:0:
94,374,45732,1,0,0:0:0:0:
94,374,45913,2,0,B|45:334|45:334|55:293|55:293|32:260|22:197|22:197|34:166|66:143,1,250,0|8,0:0|0:0,0:0:0:0:
242,363,46640,5,0,0:0:0:0:
242,363,46731,1,0,0:0:0:0:
242,363,46822,2,0,B|287:359|325:334|325:334|380:350,1,125,0|8,0:0|0:0,0:0:0:0:
236,265,47186,1,0,0:0:0:0:
236,265,47368,2,0,B|303:240|322:225|322:225|385:263|420:263|420:263|458:330,1,250,0|8,0:0|0:0,0:0:0:0:
403,31,48095,5,0,0:0:0:0:
403,31,48186,1,0,0:0:0:0:
403,31,48277,2,0,B|396:75|396:75|411:106|411:106|402:152,1,125,0|8,0:0|0:0,0:0:0:0:
233,77,48641,1,0,0:0:0:0:
233,77,48822,5,8,0:0:0:0:
258,349,49095,1,8,0:0:0:0:
447,269,49368,1,8,0:0:0:0:
262,228,49550,5,4,0:0:0:0:
265,239,49640,1,0,0:0:0:0:
268,251,49731,1,0,0:0:0:0:
178,301,49913,2,0,B|158:242|158:242|183:168,1,125,8|0,0:0|0:0,0:0:0:0:
102,126,50277,2,0,P|57:219|97:357,1,250,0|8,0:0|0:0,0:0:0:0:
312,289,51004,5,0,0:0:0:0:
323,293,51095,1,0,0:0:0:0:
334,297,51186,1,0,0:0:0:0:
398,223,51368,2,0,B|432:274|432:274|422:340,1,125,8|0,0:0|0:0,0:0:0:0:
304,201,51731,2,0,P|350:133|493:198,1,250,0|8,0:0|0:0,0:0:0:0:
257,40,52459,5,0,0:0:0:0:
251,51,52549,1,0,0:0:0:0:
245,62,52640,1,0,0:0:0:0:
164,37,52822,2,0,B|151:95|151:95|206:141,1,125,8|0,0:0|0:0,0:0:0:0:
101,160,53186,2,0,P|3:160|71:89,1,250,0|0,0:0|0:0,0:0:0:0:
176,311,53913,5,0,0:0:0:0:
172,322,54004,1,0,0:0:0:0:
168,333,54095,1,0,0:0:0:0:
252,254,54277,2,0,B|225:199|225:199|165:217,2,125,8|0|0,0:0|0:0|0:0,0:0:0:0:
364,353,54822,5,8,0:0:0:0:
388,359,54912,1,0,0:0:0:0:
412,356,55003,1,8,0:0:0:0:
434,345,55094,1,0,0:0:0:0:
451,326,55185,1,8,0:0:0:0:
460,303,55276,1,0,0:0:0:0:
463,280,55367,6,0,B|439:216|439:216|440:136,1,125,4|0,0:0|0:0,0:0:0:0:
440,136,55640,1,0,0:0:0:0:
440,112,55731,1,8,0:0:0:0:
366,40,55913,1,0,0:0:0:0:
287,113,56095,1,0,0:0:0:0:
206,51,56276,1,0,0:0:0:0:
206,51,56367,1,0,0:0:0:0:
206,50,56458,2,0,B|146:69|146:69|80:64,1,125,8|0,0:0|0:0,0:0:0:0:
246,196,56822,5,0,0:0:0:0:
45,342,57004,1,0,0:0:0:0:
118,174,57185,1,8,0:0:0:0:
175,320,57367,1,0,0:0:0:0:
175,320,57458,1,0,0:0:0:0:
175,320,57549,1,0,0:0:0:0:
87,180,57731,2,0,B|105:120|105:120|179:105,2,125,0|8|0,0:0|0:0|0:0,0:0:0:0:
152,336,58276,5,4,0:0:0:0:
285,289,58458,1,0,0:0:0:0:
285,289,58549,1,0,0:0:0:0:
284,289,58640,2,0,B|343:267|343:267|407:293,1,125,8|0,0:0|0:0,0:0:0:0:
306,178,59004,2,0,L|299:107,2,62.5,0|0|0,0:0|0:0|0:0,0:0:0:0:
421,124,59367,1,8,0:0:0:0:
387,256,59549,1,0,0:0:0:0:
393,87,59731,5,0,0:0:0:0:
213,131,59913,1,0,0:0:0:0:
213,131,60004,1,0,0:0:0:0:
213,131,60094,1,8,0:0:0:0:
264,228,60276,1,0,0:0:0:0:
258,45,60458,1,0,0:0:0:0:
83,71,60640,1,8,0:0:0:0:
83,71,60731,1,0,0:0:0:0:
83,71,60822,2,0,B|81:113|81:113|93:156|93:156|89:205,1,125,8|0,0:0|0:0,0:0:0:0:
131,344,61185,5,4,0:0:0:0:
68,205,61367,1,0,0:0:0:0:
6,361,61549,1,8,0:0:0:0:
151,331,61731,1,0,0:0:0:0:
151,331,61822,1,0,0:0:0:0:
151,331,61912,1,0,0:0:0:0:
90,182,62094,1,0,0:0:0:0:
161,310,62276,2,0,B|221:323|221:323|285:312,1,125,8|0,0:0|0:0,0:0:0:0:
297,96,62640,5,0,0:0:0:0:
321,214,62822,1,0,0:0:0:0:
321,214,62912,1,0,0:0:0:0:
321,214,63003,1,8,0:0:0:0:
483,80,63185,1,0,0:0:0:0:
444,233,63367,1,0,0:0:0:0:
459,58,63549,2,0,B|411:19|411:19|345:26,2,125,0|8|0,0:0|0:0|0:0,0:0:0:0:
436,264,64094,5,4,0:0:0:0:
436,264,64185,1,0,0:0:0:0:
436,264,64276,2,0,L|425:345,2,62.5,0|0|8,0:0|0:0|0:0,0:0:0:0:
240,212,64640,1,4,0:0:0:0:
240,212,64731,1,0,0:0:0:0:
240,212,64822,2,0,L|256:344,1,125
68,260,65185,2,0,L|57:341,2,62.5,8|0|0,0:0|0:0|0:0,0:0:0:0:
96,36,65549,5,0,0:0:0:0:
292,60,65730,1,0,0:0:0:0:
292,60,65821,1,0,0:0:0:0:
292,60,65912,2,0,L|420:40,1,125,8|0,0:0|0:0,0:0:0:0:
272,176,66276,1,0,0:0:0:0:
452,260,66458,2,0,L|376:252,1,62.5
372,284,66639,2,0,L|212:300,1,125,8|0,0:0|0:0,0:0:0:0:
101,145,67003,5,4,0:0:0:0:
116,269,67367,1,8,0:0:0:0:
211,299,67730,1,0,0:0:0:0:
260,242,68094,1,8,0:0:0:0:
256,192,68458,1,4,0:0:0:0:
140,80,68639,1,0,0:0:0:0:
140,80,68730,1,0,0:0:0:0:
140,80,68821,1,8,0:0:0:0:
234,30,69003,5,0,0:0:0:0:
234,30,69094,1,0,0:0:0:0:
234,30,69185,1,0,0:0:0:0:
234,30,69275,1,8,0:0:0:0:
202,139,69457,1,0,0:0:0:0:
202,139,69548,1,8,0:0:0:0:
299,99,69730,1,0,0:0:0:0:
299,99,69821,1,0,0:0:0:0:
298,98,69912,6,0,B|339:105|339:105|377:135|377:135|446:154,1,149.999995422363,4|0,0:0|0:0,0:0:0:0:
461,20,70276,1,8,0:0:0:0:
428,184,70457,1,0,0:0:0:0:
324,68,70639,1,0,0:0:0:0:
420,212,70821,1,0,0:0:0:0:
412,240,70912,1,0,0:0:0:0:
399,233,71003,1,8,0:0:0:0:
387,227,71094,1,0,0:0:0:0:
375,220,71185,1,0,0:0:0:0:
248,353,71366,6,0,P|271:282|201:245,1,149.999995422363,0|0,0:0|0:0,0:0:0:0:
53,261,71730,1,8,0:0:0:0:
209,204,71912,1,0,0:0:0:0:
22,243,72094,1,0,0:0:0:0:
227,191,72275,1,0,0:0:0:0:
248,172,72365,1,0,0:0:0:0:
246,157,72456,1,8,0:0:0:0:
244,142,72547,1,0,0:0:0:0:
242,127,72638,1,0,0:0:0:0:
185,57,72821,5,4,0:0:0:0:
313,109,73003,1,0,0:0:0:0:
304,21,73185,1,8,0:0:0:0:
323,192,73366,1,0,0:0:0:0:
385,55,73548,2,0,P|459:58|436:144,1,149.999995422363,0|0,0:0|0:0,0:0:0:0:
457,163,73821,1,0,0:0:0:0:
457,163,73912,2,0,L|456:237,2,74.9999977111817,8|0|0,0:0|0:0|0:0,0:0:0:0:
390,326,74275,5,0,0:0:0:0:
288,207,74457,1,0,0:0:0:0:
442,248,74639,1,8,0:0:0:0:
233,277,74821,1,0,0:0:0:0:
233,277,74912,1,0,0:0:0:0:
233,277,75003,2,0,B|93:297|93:297|171:338,2,224.999993133545,0|0|8,0:0|0:0|0:0,0:0:0:0:
66,47,75730,5,4,0:0:0:0:
147,163,75912,1,0,0:0:0:0:
148,75,76093,1,8,0:0:0:0:
67,191,76275,1,0,0:0:0:0:
66,47,76457,1,0,0:0:0:0:
229,97,76639,1,0,0:0:0:0:
256,104,76729,1,0,0:0:0:0:
253,89,76820,1,8,0:0:0:0:
250,74,76911,1,0,0:0:0:0:
248,59,77002,1,0,0:0:0:0:
487,54,77184,6,0,B|451:75|412:56|412:56|378:60|362:79|362:79|365:107,1,149.999995422363,0|0,0:0|0:0,0:0:0:0:
406,290,77548,1,8,0:0:0:0:
371,125,77730,1,0,0:0:0:0:
250,243,77912,1,0,0:0:0:0:
426,295,78093,1,0,0:0:0:0:
452,304,78183,1,0,0:0:0:0:
445,290,78274,1,8,0:0:0:0:
439,276,78365,1,0,0:0:0:0:
433,262,78456,1,0,0:0:0:0:
249,220,78639,5,4,0:0:0:0:
300,292,78821,1,0,0:0:0:0:
216,208,79002,1,8,0:0:0:0:
284,320,79184,1,0,0:0:0:0:
328,172,79366,1,0,0:0:0:0:
188,200,79548,1,0,0:0:0:0:
160,192,79639,1,0,0:0:0:0:
164,208,79730,1,8,0:0:0:0:
168,224,79820,1,0,0:0:0:0:
172,240,79911,1,0,0:0:0:0:
52,280,80093,6,0,B|35:331|35:331|48:368,2,74.9999977111817,8|0|0,0:0|0:0|0:0,0:0:0:0:
40,144,80457,2,0,B|23:92|23:92|36:56,2,74.9999977111817,8|0|0,0:0|0:0|0:0,0:0:0:0:
124,324,80820,1,8,0:0:0:0:
140,320,80911,1,0,0:0:0:0:
156,316,81002,1,8,0:0:0:0:
364,278,81184,1,8,0:0:0:0:
265,327,81366,1,0,0:0:0:0:
249,323,81457,1,0,0:0:0:0:
237,319,81548,5,0,0:0:0:0:
123,234,81729,2,0,P|157:223|195:221,1,62.5,0|0,0:0|0:0,0:0:0:0:
261,233,81911,1,8,0:0:0:0:
149,317,82092,1,0,0:0:0:0:
194,171,82275,2,0,P|166:103|86:183,2,187.5,0|8|0,0:0|0:0|0:0,0:0:0:0:
317,171,83002,5,0,0:0:0:0:
314,152,83092,1,0,0:0:0:0:
318,134,83183,1,0,0:0:0:0:
327,117,83274,1,8,0:0:0:0:
341,104,83366,2,0,P|399:91|441:134,2,125,0|0|0,0:0|0:0|0:0,0:0:0:0:
256,192,83911,5,0,0:0:0:0:
256,224,84002,1,0,0:0:0:0:
256,256,84093,1,0,0:0:0:0:
256,256,84457,5,0,0:0:0:0:
175,110,95547,5,0,0:0:0:0:
417,56,95729,1,8,0:0:0:0:
335,19,95910,1,0,0:0:0:0:
334,37,96001,1,0,0:0:0:0:
333,55,96092,5,4,0:0:0:0:
413,104,96274,1,0,0:0:0:0:
331,183,96456,1,8,0:0:0:0:
331,183,96638,1,0,0:0:0:0:
433,214,96819,2,0,B|450:262|450:262|432:351,1,125
404,343,97092,2,0,B|362:352|362:352|251:330,1,125,8|0,0:0|0:0,0:0:0:0:
250,328,97365,1,0,0:0:0:0:
177,210,97547,5,0,0:0:0:0:
51,254,97728,1,0,0:0:0:0:
188,194,97910,1,8,0:0:0:0:
57,270,98092,1,0,0:0:0:0:
63,287,98183,1,0,0:0:0:0:
68,304,98274,1,0,0:0:0:0:
74,321,98365,1,0,0:0:0:0:
195,176,98547,1,0,0:0:0:0:
204,159,98638,2,0,B|210:135|210:135|204:87,2,62.5,8|0|0,0:0|0:0|0:0,0:0:0:0:
34,38,99001,5,0,0:0:0:0:
134,63,99183,1,0,0:0:0:0:
134,63,99365,1,8,0:0:0:0:
222,22,99547,1,0,0:0:0:0:
322,47,99729,1,0,0:0:0:0:
423,84,99910,1,0,0:0:0:0:
423,84,100001,2,0,P|375:79|295:140,1,125
298,145,100274,1,0,0:0:0:0:
388,178,100456,6,0,B|414:259|347:275|347:275|330:244|330:244|361:249,1,187.5,0|0,0:0|0:0,0:0:0:0:
316,363,100819,1,8,0:0:0:0:
288,348,100909,1,0,0:0:0:0:
263,328,101000,1,0,0:0:0:0:
248,300,101091,1,0,0:0:0:0:
278,292,101182,5,8,0:0:0:0:
422,333,101456,1,8,0:0:0:0:
163,353,101728,1,8,0:0:0:0:
217,141,101910,5,4,0:0:0:0:
246,272,102092,1,0,0:0:0:0:
136,336,102274,1,8,0:0:0:0:
209,250,102455,1,0,0:0:0:0:
114,321,102637,1,0,0:0:0:0:
182,231,102819,1,0,0:0:0:0:
196,218,102910,2,0,P|193:142|145:121,1,125,8|0,0:0|0:0,0:0:0:0:
124,120,103183,1,0,0:0:0:0:
320,149,103365,5,0,0:0:0:0:
337,147,103455,1,0,0:0:0:0:
355,145,103546,1,0,0:0:0:0:
326,246,103728,1,8,0:0:0:0:
430,191,103910,1,0,0:0:0:0:
254,108,104092,1,0,0:0:0:0:
254,218,104274,1,0,0:0:0:0:
242,232,104364,1,0,0:0:0:0:
229,246,104455,2,0,P|196:238|164:248,2,62.5,8|0|0,0:0|0:0|0:0,0:0:0:0:
404,305,104819,5,0,0:0:0:0:
267,204,105001,1,0,0:0:0:0:
264,324,105183,1,8,0:0:0:0:
273,340,105274,1,0,0:0:0:0:
282,356,105365,1,0,0:0:0:0:
504,177,105546,2,0,P|441:160|375:205,1,125
367,208,105819,2,0,P|354:267|383:321,1,125
415,322,106092,1,0,0:0:0:0:
322,88,106273,5,0,0:0:0:0:
306,97,106364,1,0,0:0:0:0:
289,105,106455,2,0,L|267:172,1,62.5,0|0,0:0|0:0,0:0:0:0:
198,71,106637,1,8,0:0:0:0:
254,267,106819,1,0,0:0:0:0:
261,285,106910,1,0,0:0:0:0:
266,302,107001,1,0,0:0:0:0:
45,326,107182,5,0,0:0:0:0:
32,304,107272,1,0,0:0:0:0:
25,280,107363,1,8,0:0:0:0:
24,255,107454,1,0,0:0:0:0:
30,231,107545,1,8,0:0:0:0:
41,209,107636,1,0,0:0:0:0:
58,190,107728,6,0,B|97:165|145:209|190:187,1,125,4|0,0:0|0:0,0:0:0:0:
195,180,108001,1,0,0:0:0:0:
212,174,108091,1,8,0:0:0:0:
254,267,108273,1,0,0:0:0:0:
299,122,108455,1,0,0:0:0:0:
347,261,108637,1,0,0:0:0:0:
354,277,108728,1,0,0:0:0:0:
362,294,108819,2,0,B|372:316|372:316|476:328,1,125,8|0,0:0|0:0,0:0:0:0:
251,334,109182,5,0,0:0:0:0:
162,300,109364,1,0,0:0:0:0:
51,352,109546,1,8,0:0:0:0:
174,311,109728,1,0,0:0:0:0:
186,325,109819,1,0,0:0:0:0:
198,338,109910,1,0,0:0:0:0:
96,239,110091,2,0,B|87:217|62:207|62:207|66:166|12:144,2,125,0|8|0,0:0|0:0|0:0,0:0:0:0:
183,31,110637,5,4,0:0:0:0:
250,113,110819,1,0,0:0:0:0:
388,94,111000,1,8,0:0:0:0:
233,114,111182,1,0,0:0:0:0:
214,116,111273,1,0,0:0:0:0:
195,118,111364,1,0,0:0:0:0:
241,247,111546,1,0,0:0:0:0:
253,261,111637,1,0,0:0:0:0:
263,276,111728,2,0,P|262:324|193:350,1,125,8|0,0:0|0:0,0:0:0:0:
362,182,112091,5,0,0:0:0:0:
421,320,112273,1,0,0:0:0:0:
436,329,112364,1,0,0:0:0:0:
452,338,112455,2,0,P|475:284|443:221,1,125,8|0,0:0|0:0,0:0:0:0:
469,105,112818,1,0,0:0:0:0:
306,19,113000,1,8,0:0:0:0:
296,35,113091,1,0,0:0:0:0:
288,52,113182,2,0,B|272:83|272:83|400:66,1,125,8|8,0:0|0:0,0:0:0:0:
158,69,113546,5,4,0:0:0:0:
141,184,113728,1,0,0:0:0:0:
228,135,113909,1,8,0:0:0:0:
83,118,114091,1,0,0:0:0:0:
240,160,114273,1,0,0:0:0:0:
72,133,114455,1,0,0:0:0:0:
60,148,114546,1,0,0:0:0:0:
49,163,114637,1,8,0:0:0:0:
191,236,114818,1,0,0:0:0:0:
50,257,115000,6,0,B|68:317|68:317|120:364,1,125,0|0,0:0|0:0,0:0:0:0:
133,348,115273,1,0,0:0:0:0:
148,338,115364,1,8,0:0:0:0:
290,312,115546,1,0,0:0:0:0:
182,255,115727,1,0,0:0:0:0:
312,322,115909,2,0,B|345:340|345:340|435:267,2,125,8|8|8,0:0|0:0|0:0,0:0:0:0:
108,115,116455,6,0,B|159:68|227:85|227:85|304:107|304:107|264:139,1,250,4|8,0:0|0:0,0:0:0:0:
396,102,117182,2,0,B|411:169|363:220|363:220|305:276|305:276|297:225,1,250,0|8,0:0|0:0,0:0:0:0:
263,358,117909,2,0,B|197:338|177:270|177:270|158:192|158:192|206:211,1,250,0|8,0:0|0:0,0:0:0:0:
263,358,118636,5,0,0:0:0:0:
197,208,119000,1,8,0:0:0:0:
409,96,119364,6,0,B|438:115|438:115|453:178|453:178|436:209,1,125
391,274,119636,1,0,0:0:0:0:
391,274,119727,2,0,B|362:255|362:255|347:192|347:192|364:161,1,125
225,170,120000,1,0,0:0:0:0:
225,170,120091,6,0,B|254:189|254:189|269:252|269:252|252:283,1,125,8|0,0:0|0:0,0:0:0:0:
207,348,120363,1,0,0:0:0:0:
207,348,120454,2,0,B|178:329|178:329|163:266|163:266|180:235,1,125
256,48,120818,5,0,0:0:0:0:
256,60,120909,1,0,0:0:0:0:
256,72,121000,1,0,0:0:0:0:
256,84,121091,1,0,0:0:0:0:
256,96,121182,1,0,0:0:0:0:
256,108,121273,1,0,0:0:0:0:
256,120,121363,1,0,0:0:0:0:
256,132,121454,1,0,0:0:0:0:
256,144,121545,1,0,0:0:0:0:
256,156,121636,1,0,0:0:0:0:
256,168,121727,1,0,0:0:0:0:
256,180,121818,1,0,0:0:0:0:
256,192,121909,6,0,B|248:232|248:232|260:256|260:256|252:308,1,93.7500035762788,0|0,0:0|0:0,0:0:0:0:
256,281,122272,6,0,B|215:274|215:274|177:244|177:244|108:225,1,149.999995422363,4|0,0:0|0:0,0:0:0:0:
51,364,122636,1,8,0:0:0:0:
124,200,122817,1,0,0:0:0:0:
188,316,122999,1,0,0:0:0:0:
129,173,123181,1,0,0:0:0:0:
136,144,123272,1,0,0:0:0:0:
149,151,123363,1,8,0:0:0:0:
161,157,123454,1,0,0:0:0:0:
173,164,123545,1,0,0:0:0:0:
264,31,123727,6,0,P|241:102|311:139,1,149.999995422363,0|0,0:0|0:0,0:0:0:0:
459,123,124090,1,8,0:0:0:0:
303,180,124272,1,0,0:0:0:0:
490,141,124454,1,0,0:0:0:0:
285,193,124636,1,0,0:0:0:0:
264,208,124727,1,0,0:0:0:0:
266,223,124818,1,8,0:0:0:0:
268,238,124909,1,0,0:0:0:0:
270,253,125000,1,0,0:0:0:0:
327,327,125181,5,4,0:0:0:0:
199,275,125363,1,0,0:0:0:0:
208,363,125545,1,8,0:0:0:0:
189,192,125726,1,0,0:0:0:0:
127,329,125908,2,0,P|53:326|76:240,1,149.999995422363,0|0,0:0|0:0,0:0:0:0:
55,221,126181,1,0,0:0:0:0:
55,221,126272,2,0,L|56:147,2,74.9999977111817,8|0|0,0:0|0:0|0:0,0:0:0:0:
122,58,126635,5,0,0:0:0:0:
224,177,126817,1,0,0:0:0:0:
70,136,126999,1,8,0:0:0:0:
279,107,127181,1,0,0:0:0:0:
279,107,127272,1,0,0:0:0:0:
279,107,127363,2,0,B|419:87|419:87|341:46,2,224.999993133545,0|0|8,0:0|0:0|0:0,0:0:0:0:
446,337,128090,5,4,0:0:0:0:
365,221,128272,1,0,0:0:0:0:
364,309,128453,1,8,0:0:0:0:
445,193,128635,1,0,0:0:0:0:
446,337,128817,1,0,0:0:0:0:
283,287,128999,1,0,0:0:0:0:
256,276,129089,1,0,0:0:0:0:
259,261,129180,1,8,0:0:0:0:
262,246,129271,1,0,0:0:0:0:
264,231,129362,1,0,0:0:0:0:
25,330,129545,6,0,B|61:309|100:328|100:328|134:324|150:305|150:305|147:277,1,149.999995422363,0|0,0:0|0:0,0:0:0:0:
106,94,129908,1,8,0:0:0:0:
141,259,130090,1,0,0:0:0:0:
262,141,130272,1,0,0:0:0:0:
86,89,130454,1,0,0:0:0:0:
61,82,130545,1,0,0:0:0:0:
59,97,130636,1,8,0:0:0:0:
57,112,130726,1,0,0:0:0:0:
54,127,130817,1,0,0:0:0:0:
263,164,130999,5,4,0:0:0:0:
183,85,131181,1,0,0:0:0:0:
296,176,131362,1,8,0:0:0:0:
177,55,131544,1,0,0:0:0:0:
136,228,131726,1,0,0:0:0:0:
324,184,131908,1,0,0:0:0:0:
351,194,131999,1,0,0:0:0:0:
367,190,132090,1,8,0:0:0:0:
383,186,132180,1,0,0:0:0:0:
399,182,132271,1,0,0:0:0:0:
425,284,132454,5,0,0:0:0:0:
405,291,132545,1,0,0:0:0:0:
386,298,132635,1,0,0:0:0:0:
367,305,132726,1,0,0:0:0:0:
348,312,132817,1,8,0:0:0:0:
244,264,132999,2,0,B|236:228|236:228|256:172,2,74.9999977111817,0|0|0,0:0|0:0|0:0,0:0:0:0:
116,336,133363,5,0,0:0:0:0:
84,316,133454,1,0,0:0:0:0:
96,280,133545,1,8,0:0:0:0:
132,280,133635,1,0,0:0:0:0:
148,312,133726,1,8,0:0:0:0:
214,98,133908,6,0,B|173:105|173:105|135:135|135:135|66:154,1,149.999995422363,4|0,0:0|0:0,0:0:0:0:
96,40,134272,1,8,0:0:0:0:
87,187,134453,1,0,0:0:0:0:
224,132,134635,1,0,0:0:0:0:
92,214,134817,1,0,0:0:0:0:
102,241,134908,1,0,0:0:0:0:
115,234,134999,1,8,0:0:0:0:
127,228,135090,1,0,0:0:0:0:
139,221,135181,1,0,0:0:0:0:
264,353,135362,6,0,P|241:282|311:245,1,149.999995422363,0|0,0:0|0:0,0:0:0:0:
459,261,135726,1,8,0:0:0:0:
428,348,135908,1,0,0:0:0:0:
296,340,136090,1,0,0:0:0:0:
364,208,136271,1,0,0:0:0:0:
378,184,136363,1,0,0:0:0:0:
363,186,136453,1,8,0:0:0:0:
348,188,136544,1,0,0:0:0:0:
333,190,136635,1,0,0:0:0:0:
327,57,136817,5,4,0:0:0:0:
199,109,136999,1,0,0:0:0:0:
208,21,137181,1,8,0:0:0:0:
189,192,137362,1,0,0:0:0:0:
127,55,137544,2,0,P|53:58|76:144,1,149.999995422363,0|0,0:0|0:0,0:0:0:0:
55,163,137817,1,0,0:0:0:0:
55,163,137908,2,0,L|56:237,2,74.9999977111817,8|0|0,0:0|0:0|0:0,0:0:0:0:
122,326,138271,5,0,0:0:0:0:
224,207,138453,1,0,0:0:0:0:
70,248,138635,1,8,0:0:0:0:
279,277,138817,1,0,0:0:0:0:
279,277,138908,1,0,0:0:0:0:
279,277,138999,2,0,B|419:297|419:297|341:338,2,224.999993133545,0|0|8,0:0|0:0|0:0,0:0:0:0:
446,47,139726,5,4,0:0:0:0:
365,163,139908,1,0,0:0:0:0:
364,75,140089,1,8,0:0:0:0:
445,191,140271,1,0,0:0:0:0:
446,47,140453,1,0,0:0:0:0:
283,97,140635,1,0,0:0:0:0:
284,70,140725,1,0,0:0:0:0:
269,73,140816,1,8,0:0:0:0:
254,76,140907,1,0,0:0:0:0:
239,78,140998,1,0,0:0:0:0:
25,54,141180,6,0,B|61:75|100:56|100:56|134:60|150:79|150:79|147:107,1,149.999995422363,0|0,0:0|0:0,0:0:0:0:
106,290,141544,1,8,0:0:0:0:
141,125,141726,1,0,0:0:0:0:
262,243,141908,1,0,0:0:0:0:
86,295,142089,1,0,0:0:0:0:
61,302,142179,1,0,0:0:0:0:
59,287,142270,1,8,0:0:0:0:
57,272,142361,1,0,0:0:0:0:
54,257,142452,1,0,0:0:0:0:
263,220,142635,5,4,0:0:0:0:
212,292,142817,1,0,0:0:0:0:
328,340,142998,1,8,0:0:0:0:
272,180,143180,1,0,0:0:0:0:
188,312,143362,5,0,0:0:0:0:
352,348,143544,1,0,0:0:0:0:
380,356,143635,1,0,0:0:0:0:
376,340,143726,1,8,0:0:0:0:
372,324,143816,1,0,0:0:0:0:
368,308,143907,1,0,0:0:0:0:
276,160,144089,5,0,0:0:0:0:
280,136,144180,1,0,0:0:0:0:
284,112,144271,2,0,B|292:80|292:80|416:100,1,149.999995422363,0|8,0:0|0:0,0:0:0:0:
168,60,144635,1,0,0:0:0:0:
212,200,144817,1,0,0:0:0:0:
220,220,144907,1,0,0:0:0:0:
228,240,144998,1,8,0:0:0:0:
56,234,145180,1,8,0:0:0:0:
208,184,145362,1,0,0:0:0:0:
264,340,145544,5,0,0:0:0:0:
256,136,154270,5,4,0:0:0:0:
348,67,154634,1,8,0:0:0:0:
354,91,154997,1,8,0:0:0:0:
295,152,155361,5,0,0:0:0:0:
409,168,155725,1,8,0:0:0:0:
408,212,156088,1,8,0:0:0:0:
312,191,156452,5,0,0:0:0:0:
381,284,156816,1,8,0:0:0:0:
357,290,157179,1,8,0:0:0:0:
295,231,157543,5,0,0:0:0:0:
279,345,157907,1,8,0:0:0:0:
235,344,158270,1,8,0:0:0:0:
256,248,158634,5,0,0:0:0:0:
164,317,158998,1,8,0:0:0:0:
158,293,159361,1,8,0:0:0:0:
216,231,159725,5,0,0:0:0:0:
102,215,160089,1,8,0:0:0:0:
103,171,160452,1,8,0:0:0:0:
200,192,160816,5,0,0:0:0:0:
131,100,161180,1,8,0:0:0:0:
155,94,161543,1,8,0:0:0:0:
216,152,161907,5,0,0:0:0:0:
232,38,162271,1,8,0:0:0:0:
276,39,162634,1,8,0:0:0:0:
256,136,162997,5,4,0:0:0:0:
164,67,163361,1,8,0:0:0:0:
158,91,163724,1,8,0:0:0:0:
217,152,164088,5,0,0:0:0:0:
103,168,164452,1,8,0:0:0:0:
104,212,164815,1,8,0:0:0:0:
200,191,165179,5,0,0:0:0:0:
131,284,165543,1,8,0:0:0:0:
155,290,165906,1,8,0:0:0:0:
217,231,166270,5,0,0:0:0:0:
233,345,166634,1,8,0:0:0:0:
277,344,166997,1,8,0:0:0:0:
256,248,167361,5,0,0:0:0:0:
348,317,167725,1,8,0:0:0:0:
354,293,168088,1,8,0:0:0:0:
296,231,168452,5,0,0:0:0:0:
410,215,168816,1,8,0:0:0:0:
409,171,169179,1,8,0:0:0:0:
312,192,169543,5,0,0:0:0:0:
381,100,169907,1,8,0:0:0:0:
357,94,170270,1,8,0:0:0:0:
296,152,170634,5,0,0:0:0:0:
280,38,170998,1,8,0:0:0:0:
236,39,171361,1,8,0:0:0:0:
397,323,171724,6,0,L|409:175,1,125,4|0,0:0|0:0,0:0:0:0:
316,240,172024,1,8,0:0:0:0:
364,336,172174,1,0,0:0:0:0:
488,308,172324,1,0,0:0:0:0:
488,148,172474,5,0,0:0:0:0:
488,148,172549,1,0,0:0:0:0:
488,148,172624,2,0,P|421:149|368:197,1,125,8|0,0:0|0:0,0:0:0:0:
412,256,172924,1,0,0:0:0:0:
340,109,173074,1,0,0:0:0:0:
340,109,173149,1,0,0:0:0:0:
340,109,173224,2,0,P|288:152|203:156,1,125,8|0,0:0|0:0,0:0:0:0:
250,318,173524,5,0,0:0:0:0:
250,318,173675,2,0,B|223:314|223:314|197:296|197:296|166:290|166:290|132:266,1,125,8|8,0:0|0:0,0:0:0:0:
0,224,173975,2,0,B|27:220|27:220|53:202|53:202|84:196|84:196|118:172,1,125,0|0,0:0|0:0,0:0:0:0:
213,61,174275,5,0,0:0:0:0:
213,61,174350,1,0,0:0:0:0:
213,61,174425,2,0,P|149:89|87:72,1,125,8|0,0:0|0:0,0:0:0:0:
326,58,174725,1,0,0:0:0:0:
333,67,174800,1,0,0:0:0:0:
340,76,174875,1,0,0:0:0:0:
347,85,174950,1,0,0:0:0:0:
355,94,175025,2,0,B|383:74|383:74|414:68|414:68|440:50|440:50|467:46,1,125,8|8,0:0|0:0,0:0:0:0:
388,257,175325,6,0,B|411:242|411:242|427:215|427:215|453:197|453:197|471:167,1,125,0|8,0:0|0:0,0:0:0:0:
473,155,175551,1,0,0:0:0:0:
477,143,175626,1,8,0:0:0:0:
261,154,175776,1,8,0:0:0:0:
259,166,175851,1,0,0:0:0:0:
257,178,175926,2,0,B|240:209|246:240|246:240|289:256|302:289,2,125,8|0|8,0:0|0:0|0:0,0:0:0:0:
365,329,176376,1,0,0:0:0:0:
365,329,176451,1,0,0:0:0:0:
365,329,176526,6,0,B|291:397|231:342|216:318|216:318|191:347|141:346,1,250,4|8,0:0|0:0,0:0:0:0:
59,314,176976,1,0,0:0:0:0:
59,314,177126,2,0,B|41:283|35:227|35:227|85:238,1,125,0|0,0:0|0:0,0:0:0:0:
176,228,177427,2,0,B|209:235|209:235|203:179|185:148,1,125,8|0,0:0|0:0,0:0:0:0:
62,24,177727,6,0,B|21:29|-10:82|-10:82|-3:131|47:147,1,187.5
81,152,178027,1,8,0:0:0:0:
186,149,178177,1,0,0:0:0:0:
177,24,178327,1,0,0:0:0:0:
188,164,178477,1,8,0:0:0:0:
190,176,178552,1,0,0:0:0:0:
195,187,178627,2,0,B|202:220|202:220|237:120,1,125,8|0,0:0|0:0,0:0:0:0:
259,55,178927,6,0,P|284:125|363:32,1,250,4|8,0:0|0:0,0:0:0:0:
465,73,179378,1,0,0:0:0:0:
470,84,179453,1,0,0:0:0:0:
475,94,179528,2,0,B|491:133|491:133|455:221,1,125,0|0,0:0|0:0,0:0:0:0:
306,212,179828,1,8,0:0:0:0:
468,257,179978,1,0,0:0:0:0:
431,362,180128,6,0,P|374:309|276:344,1,187.5,0|0,0:0|0:0,0:0:0:0:
264,368,180428,1,8,0:0:0:0:
318,267,180578,1,0,0:0:0:0:
239,160,180728,1,0,0:0:0:0:
227,345,180879,1,8,0:0:0:0:
288,241,181029,1,8,0:0:0:0:
209,134,181179,1,0,0:0:0:0:
103,310,181329,6,0,P|15:259|106:188,1,250,4|8,0:0|0:0,0:0:0:0:
184,242,181779,1,0,0:0:0:0:
2,84,181929,2,0,P|55:77|129:103,1,125,0|0,0:0|0:0,0:0:0:0:
329,119,182229,2,0,P|270:140|209:134,1,125,8|0,0:0|0:0,0:0:0:0:
393,46,182529,5,0,0:0:0:0:
395,189,182679,2,0,P|421:228|495:260,2,125,0|8|0,0:0|0:0|0:0,0:0:0:0:
419,64,183130,1,0,0:0:0:0:
312,199,183280,1,0,0:0:0:0:
312,199,183355,1,0,0:0:0:0:
312,199,183430,2,0,P|312:245|357:313,1,125,8|8,0:0|0:0,0:0:0:0:
445,84,183730,5,4,0:0:0:0:
320,34,183880,1,0,0:0:0:0:
193,71,184030,1,8,0:0:0:0:
414,67,184180,5,0,0:0:0:0:
281,41,184330,1,0,0:0:0:0:
164,102,184480,1,0,0:0:0:0:
385,58,184631,5,8,0:0:0:0:
250,58,184781,1,8,0:0:0:0:
146,140,184931,1,0,0:0:0:0:
349,53,185081,5,8,0:0:0:0:
356,70,185156,1,0,0:0:0:0:
362,87,185231,1,8,0:0:0:0:
257,161,185381,1,0,0:0:0:0:
256,179,185456,1,0,0:0:0:0:
255,197,185531,1,8,0:0:0:0:
253,215,185606,1,0,0:0:0:0:
251,233,185681,1,8,0:0:0:0:
151,330,185831,1,8,0:0:0:0:
144,312,185906,1,0,0:0:0:0:
137,294,185981,1,8,0:0:0:0:
130,276,186056,1,0,0:0:0:0:
124,258,186131,6,0,B|106:217|106:217|23:203,1,125,4|0,0:0|0:0,0:0:0:0:
38,52,186432,2,0,B|56:93|56:93|136:107,1,125,8|0,0:0|0:0,0:0:0:0:
331,129,186732,6,0,B|305:48|305:48|151:26,1,187.5
172,31,187032,1,8,0:0:0:0:
204,153,187182,1,0,0:0:0:0:
56,193,187332,5,0,0:0:0:0:
69,67,187482,1,0,0:0:0:0:
215,46,187632,1,8,0:0:0:0:
210,223,187782,5,0,0:0:0:0:
192,221,187857,1,0,0:0:0:0:
174,218,187932,2,0,P|150:201|132:173,1,62.5
316,49,188157,1,0,0:0:0:0:
334,55,188233,2,0,P|358:72|376:100,2,62.5,8|0|0,0:0|0:0|0:0,0:0:0:0:
330,255,188533,5,4,0:0:0:0:
480,227,188683,1,8,0:0:0:0:
408,280,188833,1,0,0:0:0:0:
311,173,188983,1,0,0:0:0:0:
341,331,189133,6,0,B|275:335|275:335|235:297|235:297|160:298,1,187.5
137,298,189433,1,8,0:0:0:0:
278,185,189583,1,0,0:0:0:0:
105,301,189733,5,0,0:0:0:0:
341,331,189883,1,0,0:0:0:0:
394,133,190034,1,8,0:0:0:0:
151,32,190184,5,0,0:0:0:0:
156,81,190259,1,0,0:0:0:0:
160,130,190334,1,4,0:0:0:0:
231,358,190484,1,0,0:0:0:0:
238,308,190559,1,4,0:0:0:0:
56,82,190784,1,4,0:0:0:0:
341,48,190934,5,4,0:0:0:0:
309,192,191084,1,4,0:0:0:0:
440,75,191234,1,8,0:0:0:0:
461,198,191384,5,0,0:0:0:0:
464,216,191459,1,0,0:0:0:0:
468,234,191534,1,0,0:0:0:0:
473,251,191609,1,0,0:0:0:0:
309,192,191759,2,0,B|321:260|321:260|316:327,1,125
315,334,191985,1,0,0:0:0:0:
208,170,192135,5,0,0:0:0:0:
226,326,192285,1,0,0:0:0:0:
309,192,192435,1,8,0:0:0:0:
161,240,192585,1,0,0:0:0:0:
326,186,192735,5,0,0:0:0:0:
344,181,192810,1,0,0:0:0:0:
249,66,192960,1,0,0:0:0:0:
230,63,193035,1,8,0:0:0:0:
211,59,193110,1,0,0:0:0:0:
192,55,193185,1,0,0:0:0:0:
332,38,193335,5,4,0:0:0:0:
256,145,193485,1,0,0:0:0:0:
408,125,193635,1,8,0:0:0:0:
238,148,193786,5,0,0:0:0:0:
219,151,193861,1,0,0:0:0:0:
200,154,193936,1,0,0:0:0:0:
181,156,194011,1,0,0:0:0:0:
67,264,194161,2,0,B|40:282|40:282|158:317,1,125
160,318,194386,1,0,0:0:0:0:
293,275,194536,5,0,0:0:0:0:
185,327,194686,1,0,0:0:0:0:
333,297,194836,1,8,0:0:0:0:
225,185,194986,1,0,2:0:0:0:
219,216,195061,1,0,2:0:0:0:
216,247,195136,1,0,2:0:0:0:
256,192,195211,12,0,196937,0:0:0:0:
120,168,207118,5,8,0:0:0:0:
220,192,207300,1,0,0:0:0:0:
232,188,207390,1,0,0:0:0:0:
244,184,207481,1,0,0:0:0:0:
336,224,207663,1,0,0:0:0:0:
348,220,207754,1,0,0:0:0:0:
360,216,207844,1,8,0:0:0:0:
372,212,207935,1,0,0:0:0:0:
384,208,208027,1,0,0:0:0:0:
396,204,208117,1,0,0:0:0:0:
408,200,208208,1,0,0:0:0:0:
216,367,208390,1,0,0:0:0:0:
216,367,208481,1,0,0:0:0:0:
216,367,208572,5,8,0:0:0:0:
240,356,208663,1,0,0:0:0:0:
265,346,208754,1,0,0:0:0:0:
288,337,208845,1,0,0:0:0:0:
312,331,208936,5,8,0:0:0:0:
280,310,209027,1,0,0:0:0:0:
245,295,209117,1,0,0:0:0:0:
210,279,209208,1,0,0:0:0:0:
175,264,209299,5,8,0:0:0:0:
219,241,209390,1,0,0:0:0:0:
265,223,209481,1,0,0:0:0:0:
310,202,209572,1,0,0:0:0:0:
356,182,209663,5,8,0:0:0:0:
304,146,209754,1,0,0:0:0:0:
253,109,209845,1,8,0:0:0:0:
201,73,209936,1,0,0:0:0:0:
148,40,210027,6,0,B|130:77|130:77|121:128|121:128|91:108|59:104|23:128,1,187.500007152558,4|0,0:0|0:0,0:0:0:0:
51,20,210390,1,8,0:0:0:0:
72,195,210572,1,0,0:0:0:0:
148,40,210753,1,0,0:0:0:0:
66,235,210936,1,0,0:0:0:0:
58,271,211027,1,0,0:0:0:0:
94,264,211118,1,8,0:0:0:0:
130,257,211209,1,0,0:0:0:0:
166,248,211300,1,0,0:0:0:0:
264,353,211481,6,0,P|241:282|356:249,1,187.500007152558,0|0,0:0|0:0,0:0:0:0:
455,273,211844,1,8,0:0:0:0:
369,373,212026,1,0,0:0:0:0:
161,332,212208,1,0,0:0:0:0:
307,160,212390,1,0,0:0:0:0:
332,132,212481,1,0,0:0:0:0:
361,108,212572,1,8,0:0:0:0:
376,142,212663,1,0,0:0:0:0:
388,177,212754,1,0,0:0:0:0:
332,35,212935,5,4,0:0:0:0:
258,110,213117,1,0,0:0:0:0:
158,83,213299,1,8,0:0:0:0:
215,266,213480,1,0,0:0:0:0:
127,55,213663,2,0,P|37:79|104:109,1,187.500007152558,0|0,0:0|0:0,0:0:0:0:
92,150,213935,1,0,0:0:0:0:
92,150,214026,2,0,L|92:257,2,93.7500035762788,8|0|0,0:0|0:0|0:0,0:0:0:0:
150,328,214389,5,0,0:0:0:0:
240,146,214571,1,0,0:0:0:0:
60,229,214753,1,8,0:0:0:0:
279,277,214935,1,0,0:0:0:0:
315,284,215026,1,0,0:0:0:0:
351,293,215117,2,0,B|405:310|405:310|444:158|444:158|337:151,2,281.250010728836,0|0|8,0:0|0:0|0:0,0:0:0:0:
445,49,215844,5,4,0:0:0:0:
315,120,216026,1,0,0:0:0:0:
477,123,216207,1,8,0:0:0:0:
344,190,216389,1,0,0:0:0:0:
445,49,216571,1,0,0:0:0:0:
282,48,216753,1,0,0:0:0:0:
246,58,216843,1,0,0:0:0:0:
226,88,216934,1,0,0:0:0:0:
207,121,217025,1,0,0:0:0:0:
189,153,217116,1,0,0:0:0:0:
25,330,217299,6,0,B|61:309|100:328|100:328|134:324|166:275|166:275|90:261,1,187.500007152558,0|0,0:0|0:0,0:0:0:0:
4,291,217662,1,8,0:0:0:0:
215,301,217844,1,0,0:0:0:0:
206,100,218026,1,0,0:0:0:0:
57,130,218208,1,0,0:0:0:0:
86,153,218299,1,0,0:0:0:0:
117,172,218390,1,8,0:0:0:0:
147,150,218480,1,0,0:0:0:0:
177,128,218571,1,0,0:0:0:0:
46,306,218753,5,4,0:0:0:0:
128,237,218935,1,0,0:0:0:0:
273,298,219116,1,0,0:0:0:0:
79,318,219298,1,0,0:0:0:0:
149,206,219480,1,0,0:0:0:0:
307,299,219662,1,0,0:0:0:0:
345,300,219753,1,0,0:0:0:0:
383,300,219844,1,8,0:0:0:0:
372,264,219934,1,0,0:0:0:0:
356,230,220025,1,0,0:0:0:0:
226,135,220208,5,0,0:0:0:0:
272,130,220299,1,0,0:0:0:0:
291,171,220389,1,0,0:0:0:0:
255,201,220480,1,0,0:0:0:0:
216,176,220571,1,8,0:0:0:0:
296,40,220753,2,0,B|257:13|257:13|204:52,2,93.7500035762788,0|0|0,0:0|0:0|0:0,0:0:0:0:
85,103,221117,1,0,0:0:0:0:
97,139,221208,1,0,0:0:0:0:
121,167,221299,1,8,0:0:0:0:
153,183,221390,1,0,0:0:0:0:
189,191,221480,1,8,0:0:0:0:
225,183,221571,1,0,0:0:0:0:
251,156,221662,6,0,B|285:120|285:120|503:154,1,187.500007152558,4|0,0:0|0:0,0:0:0:0:
296,257,222026,1,8,0:0:0:0:
472,232,222207,1,0,0:0:0:0:
338,352,222389,1,0,0:0:0:0:
172,315,222571,1,0,0:0:0:0:
135,324,222662,1,0,0:0:0:0:
98,333,222753,1,8,0:0:0:0:
62,343,222844,1,0,0:0:0:0:
25,351,222935,1,0,0:0:0:0:
260,325,223117,6,0,B|298:258|298:258|231:84,1,187.500007152558,0|0,0:0|0:0,0:0:0:0:
5,171,223480,1,8,0:0:0:0:
153,211,223662,1,0,0:0:0:0:
198,78,223844,1,0,0:0:0:0:
346,118,224026,1,0,0:0:0:0:
382,108,224117,1,0,0:0:0:0:
418,100,224207,1,8,0:0:0:0:
454,90,224298,1,0,0:0:0:0:
491,83,224389,1,0,0:0:0:0:
186,332,224571,5,4,0:0:0:0:
211,248,224753,1,0,0:0:0:0:
296,317,224935,1,8,0:0:0:0:
323,192,225116,1,0,0:0:0:0:
409,340,225298,2,0,B|492:357|492:357|460:251,1,187.500007152558,0|0,0:0|0:0,0:0:0:0:
449,222,225571,1,0,0:0:0:0:
449,222,225662,2,0,B|438:184|438:184|465:107,2,93.7500035762788,8|0|0,0:0|0:0|0:0,0:0:0:0:
376,47,226025,5,0,0:0:0:0:
139,129,226207,1,0,0:0:0:0:
323,192,226389,1,8,0:0:0:0:
226,33,226571,1,0,0:0:0:0:
226,33,226662,1,0,0:0:0:0:
226,33,226753,2,0,B|255:127|255:127|218:209|218:209|254:298,2,281.250010728836,0|0|8,0:0|0:0|0:0,0:0:0:0:
66,337,227480,5,4,0:0:0:0:
234,357,227662,1,0,0:0:0:0:
247,186,227843,1,8,0:0:0:0:
81,168,228025,1,0,0:0:0:0:
53,354,228207,1,0,0:0:0:0:
64,155,228389,1,0,0:0:0:0:
99,145,228479,1,0,0:0:0:0:
135,135,228570,1,8,0:0:0:0:
171,128,228661,1,0,0:0:0:0:
207,119,228752,1,0,0:0:0:0:
425,185,228935,5,0,0:0:0:0:
382,173,229025,1,0,0:0:0:0:
339,162,229116,1,0,0:0:0:0:
82,67,229298,1,8,0:0:0:0:
127,54,229389,1,0,0:0:0:0:
173,46,229480,1,0,0:0:0:0:
219,36,229571,1,0,0:0:0:0:
263,6,229662,5,12,0:0:0:0:
292,323,229935,1,8,0:0:0:0:
37,217,230207,1,8,0:0:0:0:
318,194,231843,5,4,0:0:0:0:
318,194,232025,1,0,0:0:0:0:
318,194,232207,1,8,0:0:0:0:
318,194,232389,1,0,0:0:0:0:
130,212,232571,5,0,0:0:0:0:
133,241,232662,1,0,0:0:0:0:
138,270,232752,1,0,0:0:0:0:
142,299,232843,1,0,0:0:0:0:
146,328,232934,1,8,0:0:0:0:
323,336,233116,1,0,0:0:0:0:
352,328,233207,1,0,0:0:0:0:
380,320,233298,6,0,P|448:236|348:64,1,299.999990844727,4|8,0:0|0:0,0:0:0:0:
160,68,233843,1,0,0:0:0:0:
268,128,234025,1,0,0:0:0:0:
293,143,234116,1,0,0:0:0:0:
319,157,234207,1,0,0:0:0:0:
294,173,234298,1,0,0:0:0:0:
269,189,234389,1,8,0:0:0:0:
63,183,234571,1,8,0:0:0:0:
36,169,234662,1,0,0:0:0:0:
62,154,234752,5,4,0:0:0:0:
