osu file format v14

[General]
AudioFilename: mp3.mp3
AudioLeadIn: 0
PreviewTime: 69916
Countdown: 0
SampleSet: Soft
StackLeniency: 0.7
Mode: 0
LetterboxInBreaks: 0
WidescreenStoryboard: 0

[Editor]
DistanceSpacing: 1.2
BeatDivisor: 4
GridSize: 4
TimelineZoom: 1.9

[Metadata]
Title:Yokuatsu Sakuran Girl
TitleUnicode:抑圧錯乱ガール
Artist:otetsu
ArtistUnicode:otetsu
Creator:ZZHBOY
Version:Hard
Source:
Tags:地獄型人間動物園 Jigokugata Ningen Doubutsuen GUMI Vocaloid Oppression Confusion Girl Hollow Wings
BeatmapID:1676602
BeatmapSetID:195582

[Difficulty]
HPDrainRate:5
CircleSize:4
OverallDifficulty:6
ApproachRate:8
SliderMultiplier:1.6
SliderTickRate:1

[Events]
//Background and Video events
0,0,"maxresdefault.jpg",0,0
//Break Periods
2,30115,31346
2,81748,83707
2,171924,175776
2,188733,196187
//Storyboard Layer 0 (Background)
//Storyboard Layer 1 (Fail)
//Storyboard Layer 2 (Pass)
//Storyboard Layer 3 (Foreground)
//Storyboard Sound Samples

[TimingPoints]
1553,363.61432640446,4,2,1,40,1,0
7370,-100,4,1,1,60,0,0
29914,-100,4,2,1,40,0,0
32096,-100,4,1,1,40,0,0
43732,-100,4,1,1,50,0,0
49550,-100,4,1,1,40,0,0
55367,-100,4,1,1,50,0,0
69912,-100,4,1,1,60,0,1
81548,-100,4,1,1,30,0,0
84457,-100,4,1,1,40,0,0
107728,-100,4,1,1,50,0,0
122272,-100,4,1,1,60,0,1
145544,363.61432640446,3,1,1,30,1,0
145544,-133.333333333333,3,1,1,30,0,0
171724,300.16432640446,4,1,1,60,1,0
171724,-125,4,1,1,60,0,0
195136,-100,4,1,1,30,0,0
196937,363.61432640446,4,1,1,40,1,0
210027,-100,4,1,1,70,0,1
234752,-100,4,1,1,60,0,0
257623,363.61432640446,4,1,1,60,1,0

[Colours]
Combo1 : 255,0,0
Combo2 : 170,170,255
Combo3 : 128,128,128
Combo4 : 255,87,87

[HitObjects]
120,180,1553,6,0,P|157:194|196:199,1,80,2|0,0:0|0:0,0:0:0:0:
288,168,1916,1,0,0:0:0:0:
284,72,2098,1,0,0:0:0:0:
368,120,2280,2,0,P|448:120|500:68,2,120,0|0|0,0:0|0:0|0:0,0:0:0:0:
284,72,3007,6,0,L|196:80,1,80,0|0,0:0|0:0,0:0:0:0:
108,76,3371,1,0,0:0:0:0:
60,160,3552,2,0,L|16:164,3,40,0|0|0|0,0:0|0:0|0:0|0:0,0:0:0:0:
144,200,4007,2,0,P|156:248|140:312,1,80,0|0,0:0|0:0,0:0:0:0:
120,316,4280,1,0,0:0:0:0:
235,262,4461,6,0,L|351:274,1,80,2|0,0:0|0:0,0:0:0:0:
442,281,4825,1,0,0:0:0:0:
367,177,5007,1,0,0:0:0:0:
496,196,5189,2,0,B|488:112|488:112|512:68,2,120,0|0|0,0:0|0:0|0:0,0:0:0:0:
256,192,5916,12,0,7007,0:0:0:0:
195,91,7370,5,4,0:0:0:0:
277,145,7552,1,0,0:0:0:0:
344,76,7734,1,8,0:0:0:0:
418,136,7916,1,0,0:0:0:0:
380,224,8098,2,0,P|384:276|416:336,2,120
277,145,8825,5,0,0:0:0:0:
216,220,9007,1,0,0:0:0:0:
128,180,9188,1,8,0:0:0:0:
143,274,9370,2,0,L|135:326,3,40,0|0|0|0,0:0|0:0|0:0|0:0,0:0:0:0:
58,257,9825,2,0,P|29:218|27:161,1,80,0|0,0:0|0:0,0:0:0:0:
33,140,10097,1,0,0:0:0:0:
111,37,10279,6,0,P|187:37|223:29,1,80,0|0,0:0|0:0,0:0:0:0:
265,95,10643,1,8,0:0:0:0:
348,47,10825,1,0,0:0:0:0:
344,144,11006,2,0,P|344:204|360:288,2,120,0|0|0,0:0|0:0|0:0,0:0:0:0:
464,244,11734,1,0,0:0:0:0:
415,327,11916,1,0,0:0:0:0:
319,336,12097,1,8,0:0:0:0:
249,269,12279,1,0,0:0:0:0:
249,269,12370,1,0,0:0:0:0:
249,269,12461,2,0,P|185:265|109:289,2,120,8|8|8,0:0|0:0|0:0,0:0:0:0:
240,140,13188,5,4,0:0:0:0:
188,60,13370,1,0,0:0:0:0:
92,48,13552,1,8,0:0:0:0:
32,124,13734,1,0,0:0:0:0:
32,124,13824,1,0,0:0:0:0:
32,124,13915,2,0,L|45:182,1,40,0|0,0:0|0:0,0:0:0:0:
124,210,14188,2,0,P|187:203|270:224,1,120,0|0,0:0|0:0,0:0:0:0:
193,327,14643,5,0,0:0:0:0:
284,298,14824,1,0,0:0:0:0:
373,331,15006,1,8,0:0:0:0:
457,286,15188,1,0,0:0:0:0:
370,244,15370,2,0,L|361:184,1,40,0|0,0:0|0:0,0:0:0:0:
361,107,15643,1,0,0:0:0:0:
361,107,15733,2,0,L|365:47,2,40,0|0|0,0:0|0:0|0:0,0:0:0:0:
231,78,16097,5,0,0:0:0:0:
143,116,16279,1,0,0:0:0:0:
222,170,16461,1,8,0:0:0:0:
137,214,16642,1,0,0:0:0:0:
137,214,16733,1,0,0:0:0:0:
137,214,16824,2,0,L|139:273,1,40,0|0,0:0|0:0,0:0:0:0:
151,349,17097,2,0,P|203:325|300:324,1,120,0|0,0:0|0:0,0:0:0:0:
396,342,17552,5,0,0:0:0:0:
429,252,17733,1,0,0:0:0:0:
398,160,17915,1,8,0:0:0:0:
319,215,18097,1,0,0:0:0:0:
319,215,18188,1,0,0:0:0:0:
319,215,18279,1,0,0:0:0:0:
221,180,18461,2,0,L|225:140,2,40,0|0|8,0:0|0:0|0:0,0:0:0:0:
141,233,18824,1,8,0:0:0:0:
14,216,19006,5,4,0:0:0:0:
14,216,19188,1,0,0:0:0:0:
44,124,19370,1,8,0:0:0:0:
44,124,19552,1,0,0:0:0:0:
138,141,19734,2,0,P|134:89|87:35,2,120,0|0|0,0:0|0:0|0:0,0:0:0:0:
229,231,20461,5,0,0:0:0:0:
296,164,20643,1,0,0:0:0:0:
384,204,20824,1,8,0:0:0:0:
369,110,21006,2,0,L|377:58,3,40,0|0|0|0,0:0|0:0|0:0|0:0,0:0:0:0:
454,127,21461,2,0,P|482:165|485:223,1,80,0|0,0:0|0:0,0:0:0:0:
479,244,21733,1,0,0:0:0:0:
418,319,21915,6,0,P|342:319|306:327,1,80,0|0,0:0|0:0,0:0:0:0:
247,289,22279,1,8,0:0:0:0:
164,337,22461,1,0,0:0:0:0:
168,240,22642,2,0,P|168:180|152:96,2,120,0|0|0,0:0|0:0|0:0,0:0:0:0:
48,140,23370,1,0,0:0:0:0:
92,52,23552,1,0,0:0:0:0:
184,32,23733,1,8,0:0:0:0:
264,87,23915,1,0,0:0:0:0:
264,87,24006,1,0,0:0:0:0:
264,87,24097,2,0,P|328:91|404:67,2,120,8|8|8,0:0|0:0|0:0,0:0:0:0:
272,244,24824,5,4,0:0:0:0:
324,324,25006,1,0,0:0:0:0:
420,336,25188,1,8,0:0:0:0:
480,260,25370,1,0,0:0:0:0:
480,260,25460,1,0,0:0:0:0:
480,260,25551,2,0,L|467:202,1,40,0|0,0:0|0:0,0:0:0:0:
388,174,25824,2,0,P|325:181|242:160,1,120,0|0,0:0|0:0,0:0:0:0:
319,57,26279,5,0,0:0:0:0:
228,86,26460,1,0,0:0:0:0:
139,53,26642,1,8,0:0:0:0:
55,98,26824,1,0,0:0:0:0:
142,140,27006,2,0,L|151:200,1,40,0|0,0:0|0:0,0:0:0:0:
151,277,27279,1,0,0:0:0:0:
151,277,27369,2,0,L|147:337,2,40,0|0|0,0:0|0:0|0:0,0:0:0:0:
281,306,27733,5,0,0:0:0:0:
369,268,27915,1,0,0:0:0:0:
290,214,28097,1,8,0:0:0:0:
375,170,28278,1,0,0:0:0:0:
375,170,28369,1,0,0:0:0:0:
375,170,28460,2,0,L|373:111,1,40,0|0,0:0|0:0,0:0:0:0:
325,47,28733,2,0,P|273:71|176:72,1,120,0|0,0:0|0:0,0:0:0:0:
125,31,29188,5,0,0:0:0:0:
61,102,29369,1,0,0:0:0:0:
106,188,29551,1,8,0:0:0:0:
208,175,29733,1,0,0:0:0:0:
208,175,29824,1,0,0:0:0:0:
208,175,29915,1,2,0:0:0:0:
117,44,32096,5,4,0:0:0:0:
117,44,32278,2,0,P|35:64|9:64,1,80,0|8,0:0|0:0,0:0:0:0:
88,146,32642,1,0,0:0:0:0:
88,242,32823,1,0,0:0:0:0:
88,242,33005,2,0,P|137:260|246:222,1,160,0|0,0:0|0:0,0:0:0:0:
237,231,33551,5,0,0:0:0:0:
301,160,33732,1,0,0:0:0:0:
333,250,33914,1,8,0:0:0:0:
268,321,34096,1,0,0:0:0:0:
333,250,34278,1,0,0:0:0:0:
333,250,34460,2,0,P|388:291|485:260,1,160,0|0,0:0|0:0,0:0:0:0:
412,196,35005,6,0,P|443:135|390:37,1,160,0|8,0:0|0:0,0:0:0:0:
318,36,35550,1,0,0:0:0:0:
250,103,35732,1,0,0:0:0:0:
158,73,35914,2,0,B|99:87|99:87|65:102|57:178,1,160,0|0,0:0|0:0,0:0:0:0:
97,260,36459,5,0,0:0:0:0:
158,186,36641,1,0,0:0:0:0:
249,214,36823,2,0,L|250:300,1,80,8|0,0:0|0:0,0:0:0:0:
327,351,37187,5,8,0:0:0:0:
451,280,37459,1,8,0:0:0:0:
360,167,37732,1,8,0:0:0:0:
360,167,37914,6,0,P|297:114|356:44,1,160,4|8,0:0|0:0,0:0:0:0:
132,62,38641,1,0,0:0:0:0:
71,192,38914,1,0,0:0:0:0:
208,149,39187,1,0,0:0:0:0:
159,231,39368,6,0,L|140:290,2,40,0|0|0,0:0|0:0|0:0,0:0:0:0:
255,223,39732,1,8,0:0:0:0:
345,254,39914,1,0,0:0:0:0:
410,324,40096,2,0,L|364:348,2,40,0|0|0,0:0|0:0|0:0,0:0:0:0:
438,232,40459,2,0,P|413:182|410:144,1,80,8|0,0:0|0:0,0:0:0:0:
474,86,40823,6,0,P|418:76|281:73,1,160,0|8,0:0|0:0,0:0:0:0:
145,162,41550,2,0,B|130:118|79:106|79:106|85:43,2,120
57,202,42277,6,0,L|31:262,2,40,0|0|0,0:0|0:0|0:0,0:0:0:0:
139,251,42641,1,8,0:0:0:0:
139,251,42732,1,0,0:0:0:0:
139,251,42823,2,0,P|153:285|184:322,1,80,0|0,0:0|0:0,0:0:0:0:
273,296,43186,1,0,0:0:0:0:
273,296,43277,1,0,0:0:0:0:
273,296,43368,1,8,0:0:0:0:
360,335,43550,1,0,0:0:0:0:
446,292,43732,5,4,0:0:0:0:
446,292,43823,1,0,0:0:0:0:
446,292,43914,2,0,P|446:227|428:181,1,80,0|8,0:0|0:0,0:0:0:0:
475,122,44277,1,0,0:0:0:0:
475,122,44459,2,0,P|410:127|306:115,1,160,0|8,0:0|0:0,0:0:0:0:
223,90,45004,1,0,0:0:0:0:
136,47,45186,5,0,0:0:0:0:
136,47,45277,1,0,0:0:0:0:
136,47,45368,2,0,P|126:96|142:141,1,80,0|8,0:0|0:0,0:0:0:0:
211,180,45732,1,0,0:0:0:0:
211,180,45913,2,0,P|143:218|49:164,1,160,0|8,0:0|0:0,0:0:0:0:
137,260,46459,1,0,0:0:0:0:
106,351,46641,5,0,0:0:0:0:
106,351,46732,1,0,0:0:0:0:
106,351,46822,2,0,P|162:338|215:340,1,80,0|8,0:0|0:0,0:0:0:0:
280,347,47186,1,0,0:0:0:0:
280,347,47368,2,0,P|354:353|454:335,1,160,0|8,0:0|0:0,0:0:0:0:
481,254,47913,1,0,0:0:0:0:
414,184,48095,5,0,0:0:0:0:
414,184,48186,1,0,0:0:0:0:
414,184,48277,2,0,P|410:138|421:98,1,80,0|8,0:0|0:0,0:0:0:0:
328,68,48641,1,0,0:0:0:0:
328,68,48822,5,8,0:0:0:0:
335,211,49095,1,8,0:0:0:0:
193,183,49368,1,8,0:0:0:0:
135,106,49550,6,0,L|132:51,2,40,4|0|0,0:0|0:0|0:0,0:0:0:0:
50,152,49913,2,0,P|34:204|34:248,1,80,8|0,0:0|0:0,0:0:0:0:
53,323,50277,2,0,P|112:296|230:304,1,160,0|8,0:0|0:0,0:0:0:0:
294,333,50822,1,0,0:0:0:0:
389,326,51004,6,0,L|379:371,2,40
345,243,51368,2,0,P|341:182|347:134,1,80,8|0,0:0|0:0,0:0:0:0:
438,155,51731,2,0,P|461:95|380:87,1,160,0|8,0:0|0:0,0:0:0:0:
292,58,52277,1,0,0:0:0:0:
198,78,52459,6,0,L|194:29,2,40
165,168,52822,2,0,P|117:156|93:137,1,80,8|0,0:0|0:0,0:0:0:0:
17,196,53186,2,0,P|18:263|113:333,1,160
176,327,53731,1,0,0:0:0:0:
249,265,53913,6,0,L|231:208,2,40
308,341,54277,1,8,0:0:0:0:
403,333,54458,1,0,0:0:0:0:
403,333,54549,1,0,0:0:0:0:
403,333,54640,1,0,0:0:0:0:
408,237,54822,1,8,0:0:0:0:
408,237,54913,1,0,0:0:0:0:
408,237,55004,2,0,L|469:240,2,40,8|0|8,0:0|0:0|0:0,0:0:0:0:
320,191,55367,6,0,P|269:141|275:54,1,160,4|8,0:0|0:0,0:0:0:0:
180,28,55913,1,0,0:0:0:0:
180,28,56095,2,0,P|141:107|49:112,1,160,0|8,0:0|0:0,0:0:0:0:
43,310,56822,2,0,P|86:271|201:283,1,160,0|8,0:0|0:0,0:0:0:0:
242,195,57367,2,0,P|319:200|369:260,1,160,0|0,0:0|0:0,0:0:0:0:
398,352,57913,1,8,0:0:0:0:
482,306,58095,1,0,0:0:0:0:
454,214,58276,6,0,P|439:144|441:49,1,160,4|8,0:0|0:0,0:0:0:0:
351,94,58822,1,0,0:0:0:0:
351,94,59004,2,0,P|284:101|181:85,1,160,0|8,0:0|0:0,0:0:0:0:
12,21,59731,2,0,P|28:116|27:189,1,160,0|8,0:0|0:0,0:0:0:0:
13,274,60276,2,0,P|67:277|193:296,1,160,0|8,0:0|0:0,0:0:0:0:
253,343,60822,1,8,0:0:0:0:
253,343,61003,1,0,0:0:0:0:
345,316,61185,6,0,P|352:264|343:219,1,80,4|0,0:0|0:0,0:0:0:0:
280,167,61549,2,0,P|272:109|283:54,1,80,8|0,0:0|0:0,0:0:0:0:
349,28,61912,2,0,P|296:40|163:31,1,160,0|8,0:0|0:0,0:0:0:0:
96,18,62458,1,0,0:0:0:0:
26,84,62640,6,0,P|26:135|41:174,1,80,0|0,0:0|0:0,0:0:0:0:
124,197,63003,1,8,0:0:0:0:
46,254,63185,1,0,0:0:0:0:
135,290,63367,1,0,0:0:0:0:
212,233,63549,2,0,L|214:180,2,40,0|0|8,0:0|0:0|0:0,0:0:0:0:
220,329,63912,1,0,0:0:0:0:
296,271,64094,5,4,0:0:0:0:
296,271,64276,2,0,L|400:295,1,80,0|8,0:0|0:0,0:0:0:0:
355,194,64640,1,0,0:0:0:0:
355,194,64821,2,0,L|459:218,1,80,0|0,0:0|0:0,0:0:0:0:
490,134,65185,2,0,L|412:116,1,80,8|0,0:0|0:0,0:0:0:0:
399,20,65549,5,4,0:0:0:0:
399,20,65730,2,0,L|321:37,1,80,0|8,0:0|0:0,0:0:0:0:
245,98,66094,1,0,0:0:0:0:
245,98,66276,2,0,L|167:115,1,80,0|0,0:0|0:0,0:0:0:0:
94,180,66639,2,0,L|16:197,1,80,8|0,0:0|0:0,0:0:0:0:
57,285,67003,6,0,B|150:263|150:263|226:284,1,160,4|8,0:0|0:0,0:0:0:0:
245,98,67730,2,0,B|307:115|307:115|400:93,2,160,0|8|4,0:0|0:0|0:0,0:0:0:0:
155,62,68639,5,0,0:0:0:0:
155,62,68730,1,0,0:0:0:0:
155,62,68821,1,8,0:0:0:0:
80,122,69003,2,0,L|83:173,3,40,0|0|0|8,0:0|0:0|0:0|0:0,0:0:0:0:
165,210,69457,2,0,L|168:272,1,40,0|8,0:0|0:0,0:0:0:0:
246,304,69730,1,0,0:0:0:0:
246,304,69821,1,0,0:0:0:0:
246,304,69912,6,0,P|292:298|345:302,1,80,4|0,0:0|0:0,0:0:0:0:
413,339,70276,2,0,P|423:296|402:242,1,80,8|0,0:0|0:0,0:0:0:0:
355,186,70639,2,0,P|346:147|356:108,1,80,0|0,0:0|0:0,0:0:0:0:
395,79,70912,2,0,P|352:82|288:81,1,80,0|0,0:0|0:0,0:0:0:0:
269,65,71185,1,0,0:0:0:0:
141,71,71366,6,0,P|97:83|45:89,1,80,0|0,0:0|0:0,0:0:0:0:
28,178,71730,2,0,P|67:184|105:194,1,80,8|0,0:0|0:0,0:0:0:0:
83,288,72094,2,0,P|122:281|160:271,1,80,0|0,0:0|0:0,0:0:0:0:
203,248,72366,2,0,P|242:254|280:264,1,80,0|0,0:0|0:0,0:0:0:0:
315,299,72639,1,0,0:0:0:0:
445,322,72821,5,4,0:0:0:0:
445,322,73003,1,0,0:0:0:0:
395,239,73185,1,8,0:0:0:0:
395,239,73366,1,0,0:0:0:0:
460,168,73548,2,0,P|462:114|452:72,1,80,0|0,0:0|0:0,0:0:0:0:
421,55,73821,2,0,L|326:61,1,80,0|0,0:0|0:0,0:0:0:0:
292,64,74094,1,0,0:0:0:0:
162,55,74275,6,0,P|108:47|65:36,2,80,0|0|8,0:0|0:0|0:0,0:0:0:0:
224,138,74821,1,0,0:0:0:0:
224,138,74912,1,0,0:0:0:0:
224,138,75003,2,0,P|214:195|212:268,2,120,0|0|8,0:0|0:0|0:0,0:0:0:0:
99,148,75730,6,0,P|50:166|6:196,1,80,4|0,0:0|0:0,0:0:0:0:
33,275,76093,2,0,P|45:338|57:369,1,80,8|0,0:0|0:0,0:0:0:0:
146,347,76457,2,0,P|187:331|245:329,1,80,0|0,0:0|0:0,0:0:0:0:
270,335,76730,2,0,P|311:351|369:353,1,80,0|0,0:0|0:0,0:0:0:0:
391,337,77002,1,0,0:0:0:0:
381,209,77184,5,0,0:0:0:0:
372,116,77366,2,0,L|472:149,2,80,0|8|0,0:0|0:0|0:0,0:0:0:0:
366,31,77912,2,0,B|321:17|321:17|227:44,2,120,0|0|0,0:0|0:0|0:0,0:0:0:0:
272,120,78639,5,4,0:0:0:0:
180,90,78821,1,0,0:0:0:0:
194,184,79002,1,8,0:0:0:0:
102,154,79184,1,0,0:0:0:0:
120,248,79366,2,0,P|199:284|265:249,1,160,0|8,0:0|0:0,0:0:0:0:
428,348,80093,6,0,P|352:208|406:123,1,240,8|0,0:0|0:0,0:0:0:0:
454,85,80820,2,0,P|420:60|347:54,2,80,8|8|8,0:0|0:0|0:0,0:0:0:0:
276,161,81548,1,0,0:0:0:0:
317,91,84457,5,0,0:0:0:0:
235,145,84639,1,0,0:0:0:0:
168,76,84821,1,0,0:0:0:0:
94,136,85003,1,0,0:0:0:0:
160,204,85185,2,0,P|156:256|124:316,2,120,0|0|0,0:0|0:0|0:0,0:0:0:0:
235,145,85912,5,0,0:0:0:0:
317,91,86094,1,0,0:0:0:0:
412,85,86275,1,0,0:0:0:0:
384,180,86456,1,0,0:0:0:0:
454,257,86638,2,0,P|483:218|477:138,2,120,0|0|0,0:0|0:0|0:0,0:0:0:0:
368,301,87366,6,0,P|292:301|256:293,1,80,0|0,0:0|0:0,0:0:0:0:
214,359,87730,1,0,0:0:0:0:
131,311,87912,1,0,0:0:0:0:
141,216,88093,2,0,P|150:156|150:96,2,120,0|0|0,0:0|0:0|0:0,0:0:0:0:
48,244,88821,5,0,0:0:0:0:
97,327,89003,1,0,0:0:0:0:
189,301,89184,2,0,P|235:299|278:308,1,80,0|0,0:0|0:0,0:0:0:0:
355,346,89547,1,0,0:0:0:0:
458,245,89820,1,0,0:0:0:0:
345,155,90093,1,0,0:0:0:0:
266,100,90274,6,0,P|313:65|365:65,1,80,0|0,0:0|0:0,0:0:0:0:
420,48,90639,1,0,0:0:0:0:
480,124,90821,1,0,0:0:0:0:
428,204,91002,2,0,P|413:253|421:296,1,80,0|0,0:0|0:0,0:0:0:0:
379,312,91275,2,0,P|316:305|233:326,1,120,0|0,0:0|0:0,0:0:0:0:
250,218,91729,6,0,B|271:182|284:170|290:133,2,80,0|0|0,0:0|0:0|0:0,0:0:0:0:
153,225,92275,1,0,0:0:0:0:
73,170,92457,2,0,L|71:71,1,80,0|0,0:0|0:0,0:0:0:0:
132,15,92820,2,0,P|188:17|229:27,1,80,0|0,0:0|0:0,0:0:0:0:
292,74,93184,5,0,0:0:0:0:
387,79,93366,1,0,0:0:0:0:
328,154,93548,1,0,0:0:0:0:
423,156,93729,1,0,0:0:0:0:
470,239,93911,2,0,P|455:298|471:355,2,120,0|0|0,0:0|0:0|0:0,0:0:0:0:
374,227,94639,5,0,0:0:0:0:
353,320,94820,1,0,0:0:0:0:
256,324,95002,1,0,0:0:0:0:
215,237,95184,1,0,0:0:0:0:
215,237,95275,1,0,0:0:0:0:
215,237,95366,1,0,0:0:0:0:
291,180,95548,2,0,L|287:140,2,40,0|0|8,0:0|0:0|0:0,0:0:0:0:
371,233,95911,1,0,0:0:0:0:
371,233,96001,1,0,0:0:0:0:
371,233,96092,6,0,P|398:182|415:137,1,80,4|0,0:0|0:0,0:0:0:0:
431,68,96456,1,8,0:0:0:0:
344,26,96638,1,0,0:0:0:0:
250,47,96819,2,0,P|195:58|141:53,1,80,0|0,0:0|0:0,0:0:0:0:
124,46,97092,2,0,P|84:47|45:56,1,80,0|0,0:0|0:0,0:0:0:0:
13,93,97365,1,0,0:0:0:0:
93,145,97547,6,0,P|99:190|94:233,1,80,0|0,0:0|0:0,0:0:0:0:
33,297,97910,1,8,0:0:0:0:
100,365,98092,1,0,0:0:0:0:
196,360,98274,2,0,P|257:328|305:319,1,80,0|0,0:0|0:0,0:0:0:0:
315,324,98547,2,0,L|404:336,1,80,0|0,0:0|0:0,0:0:0:0:
441,344,98819,1,0,0:0:0:0:
486,259,99001,6,0,P|483:197|472:164,1,80,0|0,0:0|0:0,0:0:0:0:
508,88,99365,1,8,0:0:0:0:
421,46,99547,1,0,0:0:0:0:
335,88,99728,2,0,P|288:84|235:70,1,80,0|0,0:0|0:0,0:0:0:0:
221,43,100001,2,0,P|174:47|121:61,1,80,0|0,0:0|0:0,0:0:0:0:
97,73,100274,1,0,0:0:0:0:
162,143,100456,6,0,P|219:166|211:225,1,120,0|0,0:0|0:0,0:0:0:0:
172,234,100819,2,0,L|186:287,3,40,8|0|0|0,0:0|0:0|0:0|0:0,0:0:0:0:
166,318,101183,2,0,P|107:295|32:292,2,120,8|8|8,0:0|0:0|0:0,0:0:0:0:
254,354,101910,6,0,P|310:344|349:345,1,80,4|0,0:0|0:0,0:0:0:0:
427,363,102274,2,0,P|447:298|433:190,1,160,8|0,0:0|0:0,0:0:0:0:
384,128,102819,1,0,0:0:0:0:
384,128,103001,2,0,P|339:137|277:131,1,80,8|0,0:0|0:0,0:0:0:0:
270,45,103365,6,0,P|225:36|163:42,1,80,0|0,0:0|0:0,0:0:0:0:
98,61,103728,1,8,0:0:0:0:
165,129,103910,1,0,0:0:0:0:
71,150,104092,2,0,P|62:215|65:245,1,80,0|0,0:0|0:0,0:0:0:0:
27,318,104455,1,8,0:0:0:0:
121,298,104637,1,0,0:0:0:0:
216,311,104819,6,0,P|299:326|382:315,1,160,0|8,0:0|0:0,0:0:0:0:
418,232,105364,1,0,0:0:0:0:
418,232,105546,2,0,P|366:221|320:238,1,80,0|0,0:0|0:0,0:0:0:0:
314,133,105910,2,0,P|314:86|328:49,1,80,8|0,0:0|0:0,0:0:0:0:
417,32,106273,6,0,P|321:35|225:31,1,160,0|8,0:0|0:0,0:0:0:0:
160,32,106819,1,0,0:0:0:0:
63,30,107001,1,0,0:0:0:0:
105,115,107182,2,0,L|81:146,2,40,0|0|8,0:0|0:0|0:0,0:0:0:0:
201,115,107546,1,8,0:0:0:0:
201,115,107637,1,0,0:0:0:0:
201,115,107728,6,0,P|185:166|113:251,1,160,4|8,0:0|0:0,0:0:0:0:
29,284,108273,1,0,0:0:0:0:
102,346,108455,2,0,P|163:343|275:352,1,160,0|8,0:0|0:0,0:0:0:0:
348,298,109001,1,0,0:0:0:0:
401,219,109182,5,0,0:0:0:0:
401,219,109364,2,0,P|443:234|477:263,2,80,0|8|0,0:0|0:0|0:0,0:0:0:0:
351,133,109910,1,0,0:0:0:0:
351,133,110091,2,0,P|419:124|455:141,2,80,0|8|0,0:0|0:0|0:0,0:0:0:0:
334,37,110637,6,0,P|272:53|156:45,1,160,4|8,0:0|0:0,0:0:0:0:
83,27,111182,1,0,0:0:0:0:
83,27,111364,2,0,P|85:84|77:126,1,80,0|0,0:0|0:0,0:0:0:0:
22,182,111728,1,8,0:0:0:0:
116,197,111909,1,0,0:0:0:0:
52,269,112091,6,0,P|48:318|65:351,2,80,0|0|8,0:0|0:0|0:0,0:0:0:0:
116,197,112637,1,0,0:0:0:0:
202,237,112818,1,0,0:0:0:0:
276,176,113000,2,0,L|278:118,2,40,8|0|8,0:0|0:0|0:0,0:0:0:0:
352,235,113364,1,8,0:0:0:0:
352,235,113546,6,0,P|405:279|394:366,1,160,4|8,0:0|0:0,0:0:0:0:
311,318,114091,1,0,0:0:0:0:
220,285,114273,2,0,P|174:289|141:307,1,80,0|0,0:0|0:0,0:0:0:0:
73,369,114637,2,0,P|49:311|55:279,1,80,8|0,0:0|0:0,0:0:0:0:
82,204,115000,5,0,0:0:0:0:
82,204,115182,2,0,P|29:202|-15:238,2,80,0|8|0,0:0|0:0|0:0,0:0:0:0:
153,140,115727,1,0,0:0:0:0:
153,140,115909,2,0,P|128:92|97:64,2,80,8|8|8,0:0|0:0|0:0,0:0:0:0:
174,234,116455,6,0,P|273:232|321:305,1,160,4|8,0:0|0:0,0:0:0:0:
486,349,117182,2,0,P|434:264|473:186,1,160,0|8,0:0|0:0,0:0:0:0:
425,20,117909,2,0,P|377:106|290:111,1,160,0|8,0:0|0:0,0:0:0:0:
140,60,118636,1,0,0:0:0:0:
140,60,119000,1,8,0:0:0:0:
139,60,119364,6,0,B|107:83|107:83|84:115,1,80,0|0,0:0|0:0,0:0:0:0:
127,201,119727,2,0,B|130:240|130:240|147:277,1,80,0|0,0:0|0:0,0:0:0:0:
243,285,120091,2,0,B|279:301|279:301|318:305,1,80,8|0,0:0|0:0,0:0:0:0:
382,233,120454,2,0,B|414:209|414:209|437:177,1,80,0|0,0:0|0:0,0:0:0:0:
409,85,120818,1,0,0:0:0:0:
256,192,120909,12,0,121909,0:0:0:0:
246,80,122272,6,0,P|292:86|345:82,1,80,4|0,0:0|0:0,0:0:0:0:
413,45,122636,2,0,P|423:88|402:142,1,80,8|0,0:0|0:0,0:0:0:0:
355,198,122999,2,0,P|346:237|356:276,1,80,0|0,0:0|0:0,0:0:0:0:
395,305,123272,2,0,P|352:302|288:303,1,80,0|0,0:0|0:0,0:0:0:0:
269,319,123545,1,0,0:0:0:0:
141,313,123727,6,0,P|97:301|45:295,1,80,0|0,0:0|0:0,0:0:0:0:
28,206,124091,2,0,P|67:200|105:190,1,80,8|0,0:0|0:0,0:0:0:0:
83,96,124454,2,0,P|122:103|160:113,1,80,0|0,0:0|0:0,0:0:0:0:
203,136,124727,2,0,P|242:130|280:120,1,80,0|0,0:0|0:0,0:0:0:0:
315,85,124999,1,0,0:0:0:0:
445,62,125181,5,4,0:0:0:0:
445,62,125363,1,0,0:0:0:0:
395,145,125545,1,8,0:0:0:0:
395,145,125726,1,0,0:0:0:0:
460,216,125908,2,0,P|462:270|452:312,1,80,0|0,0:0|0:0,0:0:0:0:
421,329,126181,2,0,L|326:323,1,80,0|0,0:0|0:0,0:0:0:0:
292,320,126454,1,0,0:0:0:0:
162,329,126635,6,0,P|108:337|65:348,2,80,0|0|8,0:0|0:0|0:0,0:0:0:0:
224,246,127181,1,0,0:0:0:0:
224,246,127272,1,0,0:0:0:0:
224,246,127363,2,0,P|214:189|212:116,2,120,0|0|8,0:0|0:0|0:0,0:0:0:0:
99,236,128090,6,0,P|50:218|6:188,1,80,4|0,0:0|0:0,0:0:0:0:
33,109,128454,2,0,P|45:46|57:15,1,80,8|0,0:0|0:0,0:0:0:0:
146,37,128817,2,0,P|187:53|245:55,1,80,0|0,0:0|0:0,0:0:0:0:
270,49,129090,2,0,P|311:33|369:31,1,80,0|0,0:0|0:0,0:0:0:0:
391,47,129362,1,0,0:0:0:0:
381,175,129544,5,0,0:0:0:0:
372,268,129726,2,0,L|472:235,2,80,0|8|0,0:0|0:0|0:0,0:0:0:0:
366,353,130272,2,0,B|321:367|321:367|227:340,2,120,0|0|0,0:0|0:0|0:0,0:0:0:0:
272,264,130999,5,4,0:0:0:0:
180,294,131181,1,0,0:0:0:0:
194,200,131362,1,8,0:0:0:0:
102,230,131544,1,0,0:0:0:0:
120,136,131726,2,0,P|199:100|265:135,1,160,0|8,0:0|0:0,0:0:0:0:
356,124,132272,1,0,0:0:0:0:
356,124,132454,6,0,P|374:72|372:35,2,80,0|0|8,0:0|0:0|0:0,0:0:0:0:
428,186,132999,1,0,0:0:0:0:
428,186,133090,1,0,0:0:0:0:
428,186,133181,2,0,P|408:229|410:278,1,80,0|0,0:0|0:0,0:0:0:0:
478,325,133545,1,8,0:0:0:0:
385,348,133726,1,8,0:0:0:0:
266,304,133908,6,0,P|220:298|167:302,1,80,4|0,0:0|0:0,0:0:0:0:
99,339,134272,2,0,P|89:296|110:242,1,80,8|0,0:0|0:0,0:0:0:0:
157,186,134635,2,0,P|166:147|156:108,1,80,0|0,0:0|0:0,0:0:0:0:
117,79,134908,2,0,P|160:82|224:81,1,80,0|0,0:0|0:0,0:0:0:0:
243,65,135181,1,0,0:0:0:0:
371,71,135362,6,0,P|415:83|467:89,1,80,0|0,0:0|0:0,0:0:0:0:
484,178,135726,2,0,P|445:184|407:194,1,80,8|0,0:0|0:0,0:0:0:0:
429,288,136090,2,0,P|390:281|352:271,1,80,0|0,0:0|0:0,0:0:0:0:
309,248,136362,2,0,P|270:254|232:264,1,80,0|0,0:0|0:0,0:0:0:0:
197,299,136635,1,0,0:0:0:0:
67,322,136817,5,4,0:0:0:0:
67,322,136999,1,0,0:0:0:0:
117,239,137181,1,8,0:0:0:0:
117,239,137362,1,0,0:0:0:0:
52,168,137544,2,0,P|50:114|60:72,1,80,0|0,0:0|0:0,0:0:0:0:
91,55,137817,2,0,L|186:61,1,80,0|0,0:0|0:0,0:0:0:0:
220,64,138090,1,0,0:0:0:0:
350,55,138271,6,0,P|404:47|447:36,2,80,0|0|8,0:0|0:0|0:0,0:0:0:0:
288,138,138817,1,0,0:0:0:0:
288,138,138908,1,0,0:0:0:0:
288,138,138999,2,0,P|298:195|300:268,2,120,0|0|8,0:0|0:0|0:0,0:0:0:0:
413,148,139726,6,0,P|462:166|506:196,1,80,4|0,0:0|0:0,0:0:0:0:
479,275,140089,2,0,P|467:338|455:369,1,80,8|0,0:0|0:0,0:0:0:0:
366,347,140453,2,0,P|325:331|267:329,1,80,0|0,0:0|0:0,0:0:0:0:
242,335,140726,2,0,P|201:351|143:353,1,80,0|0,0:0|0:0,0:0:0:0:
121,337,140998,1,0,0:0:0:0:
131,209,141180,5,0,0:0:0:0:
140,116,141362,2,0,L|40:149,2,80,0|8|0,0:0|0:0|0:0,0:0:0:0:
146,31,141908,2,0,B|191:17|191:17|285:44,2,120,0|0|0,0:0|0:0|0:0,0:0:0:0:
240,120,142635,5,4,0:0:0:0:
332,90,142817,1,0,0:0:0:0:
318,184,142998,1,8,0:0:0:0:
410,154,143180,1,0,0:0:0:0:
392,248,143362,2,0,P|313:284|247:249,1,160,0|8,0:0|0:0,0:0:0:0:
84,348,144089,6,0,P|160:208|106:123,1,240,0|0,0:0|0:0,0:0:0:0:
58,85,144816,2,0,P|92:60|165:54,2,80,0|8|8,0:0|0:0|0:0,0:0:0:0:
132,262,145544,5,0,0:0:0:0:
318,304,146271,2,0,P|327:253|300:174,1,120.000004577637,0|8,0:0|0:0,0:0:0:0:
123,146,147362,2,0,P|114:197|141:276,1,120.000004577637,0|0,0:0|0:0,0:0:0:0:
318,304,148452,2,0,P|327:253|300:174,1,120.000004577637,0|8,0:0|0:0,0:0:0:0:
123,146,149543,6,0,P|114:197|141:276,1,120.000004577637,0|0,0:0|0:0,0:0:0:0:
318,304,150634,2,0,L|459:287,1,120.000004577637,0|8,0:0|0:0,0:0:0:0:
324,186,151725,2,0,L|444:172,1,120.000004577637,0|0,0:0|0:0,0:0:0:0:
332,75,152816,2,0,L|452:61,1,120.000004577637,0|8,0:0|0:0,0:0:0:0:
146,33,153907,6,0,P|137:84|164:163,1,120.000004577637,0|0,0:0|0:0,0:0:0:0:
341,191,154998,2,0,P|350:140|323:61,1,120.000004577637,0|8,0:0|0:0,0:0:0:0:
146,33,156088,2,0,P|137:84|164:163,1,120.000004577637,0|0,0:0|0:0,0:0:0:0:
341,191,157179,2,0,P|350:140|323:61,1,120.000004577637,0|8,0:0|0:0,0:0:0:0:
146,33,158270,6,0,L|5:50,1,120.000004577637,0|0,0:0|0:0,0:0:0:0:
139,150,159361,2,0,L|20:165,1,120.000004577637,0|8,0:0|0:0,0:0:0:0:
131,261,160452,2,0,L|12:276,1,120.000004577637,0|8,0:0|0:0,0:0:0:0:
226,318,161361,1,0,0:0:0:0:
226,318,161543,2,0,L|345:303,1,120.000004577637,0|8,0:0|0:0,0:0:0:0:
392,167,162633,1,0,0:0:0:0:
392,167,162997,6,0,P|441:197|472:258,2,120.000004577637,8|0|0,0:0|0:0|0:0,0:0:0:0:
449,34,164088,2,0,P|388:67|324:72,1,120.000004577637,8|0,0:0|0:0,0:0:0:0:
196,47,164815,1,0,0:0:0:0:
196,47,165179,6,0,P|137:56|85:86,1,120.000004577637,8|0,0:0|0:0,0:0:0:0:
69,229,165906,1,0,0:0:0:0:
69,229,166270,2,0,L|70:364,2,120.000004577637,8|0|0,0:0|0:0|0:0,0:0:0:0:
209,199,167360,6,0,P|270:223|301:278,1,120.000004577637,8|0,0:0|0:0,0:0:0:0:
434,314,168088,1,0,0:0:0:0:
434,314,168451,2,0,P|438:237|406:179,2,120.000004577637,8|0|0,0:0|0:0|0:0,0:0:0:0:
296,356,169542,5,8,0:0:0:0:
183,265,169906,1,0,0:0:0:0:
317,215,170269,1,0,0:0:0:0:
203,125,170633,2,0,P|254:75|318:70,2,120.000004577637,8|0|0,0:0|0:0|0:0,0:0:0:0:
203,125,171724,5,4,0:0:0:0:
60,130,176526,6,0,P|106:100|136:88,1,64,4|0,0:0|0:0,0:0:0:0:
180,134,176826,2,0,P|225:142|249:138,1,64,8|0,0:0|0:0,0:0:0:0:
295,83,177126,2,0,P|343:69|437:87,1,128,0|8,0:0|0:0,0:0:0:0:
461,143,177577,1,0,0:0:0:0:
461,143,177727,6,0,L|450:212,1,64
381,238,178027,2,0,L|396:306,1,64,8|0,0:0|0:0,0:0:0:0:
457,344,178327,2,0,P|410:329|325:355,1,128,0|8,0:0|0:0,0:0:0:0:
259,337,178777,1,0,0:0:0:0:
259,337,178927,6,0,P|243:280|244:252,1,64,4|0,0:0|0:0,0:0:0:0:
167,256,179228,2,0,P|172:202|186:174,1,64,8|0,0:0|0:0,0:0:0:0:
238,150,179528,2,0,P|305:155|368:130,1,128,0|8,0:0|0:0,0:0:0:0:
390,63,179978,1,0,0:0:0:0:
390,63,180128,6,0,P|364:21|339:6,1,64
280,37,180428,2,0,P|234:46|195:46,1,64,8|0,0:0|0:0,0:0:0:0:
142,27,180728,2,0,P|79:29|3:63,1,128,0|8,0:0|0:0,0:0:0:0:
22,129,181179,1,0,0:0:0:0:
22,129,181329,6,0,P|29:164|17:207,1,64,4|0,0:0|0:0,0:0:0:0:
25,268,181629,2,0,P|73:260|112:262,1,64,8|0,0:0|0:0,0:0:0:0:
116,331,181929,2,0,P|159:323|258:327,1,128,0|8,0:0|0:0,0:0:0:0:
315,350,182379,1,0,0:0:0:0:
315,350,182529,6,0,P|352:323|371:298,1,64
428,267,182830,2,0,P|414:235|409:195,1,64,8|0,0:0|0:0,0:0:0:0:
469,158,183130,2,0,P|463:106|426:39,1,128,0|8,0:0|0:0,0:0:0:0:
351,30,183580,1,8,0:0:0:0:
351,30,183730,6,0,P|296:29|258:22,2,64,4|0|8,0:0|0:0|0:0,0:0:0:0:
351,106,184180,2,0,P|296:105|258:98,2,64,0|0|0,0:0|0:0|0:0,0:0:0:0:
348,183,184631,2,0,P|293:182|255:175,2,64,8|8|0,0:0|0:0|0:0,0:0:0:0:
339,259,185081,2,0,P|284:258|246:251,1,64,8|8,0:0|0:0,0:0:0:0:
269,333,185381,5,0,0:0:0:0:
269,333,185531,2,0,P|214:332|176:325,1,64,8|8,0:0|0:0,0:0:0:0:
144,378,185831,2,0,P|105:318|166:295,1,128,8|4,0:0|0:0,0:0:0:0:
256,192,186281,12,8,188533,0:0:0:0:
94,122,196937,5,0,0:0:0:0:
94,122,197300,1,0,0:0:0:0:
131,33,197664,1,8,0:0:0:0:
94,122,198027,1,0,0:0:0:0:
138,231,198391,5,0,0:0:0:0:
138,231,198754,1,0,0:0:0:0:
85,311,199118,1,8,0:0:0:0:
138,231,199481,1,0,0:0:0:0:
214,147,199845,5,0,0:0:0:0:
214,147,200208,1,0,0:0:0:0:
257,61,200572,1,8,0:0:0:0:
214,147,200935,1,0,0:0:0:0:
258,256,201299,5,0,0:0:0:0:
258,256,201663,2,0,L|255:312,3,40
236,340,202027,2,0,P|193:342|113:317,2,120,8|8|8,0:0|0:0|0:0,0:0:0:0:
331,345,202754,5,0,0:0:0:0:
331,345,203117,1,0,0:0:0:0:
420,309,203481,1,8,0:0:0:0:
331,345,203844,1,0,0:0:0:0:
375,236,204208,5,0,0:0:0:0:
375,236,204571,1,0,0:0:0:0:
461,194,204935,1,8,0:0:0:0:
375,236,205300,1,0,0:0:0:0:
402,112,205663,6,0,P|360:87|326:80,1,80,8|0,0:0|0:0,0:0:0:0:
243,123,206027,2,0,P|201:148|167:155,2,80,8|0|8,0:0|0:0|0:0,0:0:0:0:
171,58,206572,2,0,L|163:14,2,40,0|0|0,0:0|0:0|0:0,0:0:0:0:
86,105,206936,1,0,0:0:0:0:
86,105,207118,6,0,P|74:160|130:248,1,160,8|0,0:0|0:0,0:0:0:0:
220,251,207663,2,0,L|211:312,2,40,0|0|8,0:0|0:0|0:0,0:0:0:0:
296,192,208027,1,0,0:0:0:0:
389,214,208209,1,0,0:0:0:0:
470,164,208390,1,0,0:0:0:0:
470,164,208481,1,0,0:0:0:0:
470,164,208572,6,0,L|475:124,2,40,8|0|0,0:0|0:0|0:0,0:0:0:0:
473,260,208936,1,8,0:0:0:0:
392,312,209118,1,0,0:0:0:0:
392,312,209208,1,0,0:0:0:0:
392,312,209299,2,0,L|343:331,3,40,8|0|8|0,0:0|0:0|0:0|0:0,0:0:0:0:
307,315,209663,2,0,L|258:334,3,40,8|0|8|0,0:0|0:0|0:0|0:0,0:0:0:0:
227,306,210027,6,0,P|181:300|128:304,1,80,4|0,0:0|0:0,0:0:0:0:
60,341,210391,2,0,P|50:298|71:244,1,80,8|0,0:0|0:0,0:0:0:0:
131,202,210754,2,0,P|140:163|130:124,1,80,0|0,0:0|0:0,0:0:0:0:
111,80,211027,2,0,P|154:83|218:82,1,80,0|0,0:0|0:0,0:0:0:0:
236,67,211300,1,0,0:0:0:0:
366,75,211482,6,0,P|410:87|462:93,1,80,0|0,0:0|0:0,0:0:0:0:
484,178,211846,2,0,P|445:184|407:194,1,80,8|0,0:0|0:0,0:0:0:0:
429,288,212209,2,0,P|390:281|352:271,1,80,0|0,0:0|0:0,0:0:0:0:
309,248,212482,2,0,P|270:254|232:264,1,80,0|0,0:0|0:0,0:0:0:0:
197,299,212754,1,0,0:0:0:0:
67,322,212936,5,4,0:0:0:0:
67,322,213118,1,0,0:0:0:0:
117,239,213300,1,8,0:0:0:0:
117,239,213481,1,0,0:0:0:0:
52,168,213663,2,0,P|50:114|60:72,1,80,0|0,0:0|0:0,0:0:0:0:
91,55,213936,2,0,L|186:61,1,80,0|0,0:0|0:0,0:0:0:0:
220,64,214209,1,0,0:0:0:0:
350,55,214390,6,0,P|404:47|447:36,2,80,0|0|8,0:0|0:0|0:0,0:0:0:0:
288,138,214936,1,0,0:0:0:0:
288,138,215027,1,0,0:0:0:0:
288,138,215118,2,0,P|298:195|300:268,2,120,0|0|8,0:0|0:0|0:0,0:0:0:0:
413,148,215845,6,0,P|462:166|506:196,1,80,4|0,0:0|0:0,0:0:0:0:
479,275,216209,2,0,P|467:338|455:369,1,80,8|0,0:0|0:0,0:0:0:0:
366,347,216572,2,0,P|325:331|267:329,1,80,0|0,0:0|0:0,0:0:0:0:
242,335,216845,2,0,P|201:351|143:353,1,80,0|0,0:0|0:0,0:0:0:0:
121,337,217117,1,0,0:0:0:0:
131,209,217299,5,0,0:0:0:0:
140,116,217481,2,0,L|40:149,2,80,0|8|0,0:0|0:0|0:0,0:0:0:0:
146,31,218027,2,0,B|191:17|191:17|285:44,2,120,0|0|0,0:0|0:0|0:0,0:0:0:0:
240,120,218754,5,4,0:0:0:0:
332,90,218936,1,0,0:0:0:0:
318,184,219117,1,8,0:0:0:0:
410,154,219299,1,0,0:0:0:0:
392,248,219481,2,0,P|313:284|247:249,1,160,0|8,0:0|0:0,0:0:0:0:
156,260,220027,1,0,0:0:0:0:
156,260,220209,6,0,P|138:312|140:349,2,80,0|0|8,0:0|0:0|0:0,0:0:0:0:
84,198,220754,1,0,0:0:0:0:
84,198,220845,1,0,0:0:0:0:
84,198,220936,2,0,P|104:155|102:106,1,80,0|0,0:0|0:0,0:0:0:0:
34,59,221300,1,8,0:0:0:0:
127,36,221481,1,8,0:0:0:0:
246,80,221663,6,0,P|292:86|345:82,1,80,4|0,0:0|0:0,0:0:0:0:
413,45,222027,2,0,P|423:88|402:142,1,80,8|0,0:0|0:0,0:0:0:0:
355,198,222390,2,0,P|346:237|356:276,1,80,0|0,0:0|0:0,0:0:0:0:
395,305,222663,2,0,P|352:302|288:303,1,80,0|0,0:0|0:0,0:0:0:0:
269,319,222936,1,0,0:0:0:0:
141,313,223117,6,0,P|97:301|45:295,1,80,0|0,0:0|0:0,0:0:0:0:
28,206,223481,2,0,P|67:200|105:190,1,80,8|0,0:0|0:0,0:0:0:0:
83,96,223845,2,0,P|122:103|160:113,1,80,0|0,0:0|0:0,0:0:0:0:
203,136,224117,2,0,P|242:130|280:120,1,80,0|0,0:0|0:0,0:0:0:0:
315,85,224390,1,0,0:0:0:0:
445,62,224572,5,4,0:0:0:0:
445,62,224754,1,0,0:0:0:0:
395,145,224936,1,8,0:0:0:0:
395,145,225117,1,0,0:0:0:0:
460,216,225299,2,0,P|462:270|452:312,1,80,0|0,0:0|0:0,0:0:0:0:
421,329,225572,2,0,L|326:323,1,80,0|0,0:0|0:0,0:0:0:0:
292,320,225845,1,0,0:0:0:0:
162,329,226026,6,0,P|108:337|65:348,2,80,0|0|8,0:0|0:0|0:0,0:0:0:0:
224,246,226572,1,0,0:0:0:0:
224,246,226663,1,0,0:0:0:0:
224,246,226754,2,0,P|214:189|212:116,2,120,0|0|0,0:0|0:0|0:0,0:0:0:0:
99,236,227481,6,0,P|50:218|6:188,1,80,4|0,0:0|0:0,0:0:0:0:
33,109,227844,2,0,P|45:46|57:15,1,80,8|0,0:0|0:0,0:0:0:0:
146,37,228208,2,0,P|187:53|245:55,1,80,0|0,0:0|0:0,0:0:0:0:
270,49,228481,2,0,P|311:33|369:31,1,80,0|0,0:0|0:0,0:0:0:0:
391,47,228753,1,0,0:0:0:0:
381,175,228935,5,0,0:0:0:0:
372,268,229117,2,0,L|472:235,2,80,0|8|0,0:0|0:0|0:0,0:0:0:0:
366,353,229663,2,0,B|321:367|321:367|227:340,2,120,12|8|0,0:0|0:0|0:0,0:0:0:0:
358,105,231843,6,0,P|392:80|465:74,2,80,4|0|8,0:0|0:0|0:0,0:0:0:0:
325,195,232389,1,0,0:0:0:0:
325,195,232480,1,0,0:0:0:0:
325,195,232571,2,0,P|334:239|337:281,1,80,0|0,0:0|0:0,0:0:0:0:
280,351,232934,2,0,P|239:324|197:320,1,80,8|0,0:0|0:0,0:0:0:0:
117,348,233298,6,0,P|83:291|58:191,1,160,4|8,0:0|0:0,0:0:0:0:
84,108,233843,1,0,0:0:0:0:
84,108,233934,1,0,0:0:0:0:
84,108,234025,2,0,P|125:120|168:117,1,80,0|0,0:0|0:0,0:0:0:0:
220,41,234389,2,0,P|261:29|304:32,1,80,8|8,0:0|0:0,0:0:0:0:
369,95,234752,5,4,0:0:0:0:
