osu file format v14

[General]
AudioFilename: mp3.mp3
AudioLeadIn: 0
PreviewTime: 69916
Countdown: 0
SampleSet: Normal
StackLeniency: 0.7
Mode: 0
LetterboxInBreaks: 0
WidescreenStoryboard: 0

[Editor]
DistanceSpacing: 0.8
BeatDivisor: 2
GridSize: 8
TimelineZoom: 1.3

[Metadata]
Title:Yokuatsu Sakuran Girl
TitleUnicode:抑圧錯乱ガール
Artist:otetsu
ArtistUnicode:otetsu
Creator:ZZHBOY
Version:Easy
Source:
Tags:地獄型人間動物園 Jigokugata Ningen Doubutsuen GUMI Vocaloid Oppression Confusion Girl Hollow Wings
BeatmapID:494511
BeatmapSetID:195582

[Difficulty]
HPDrainRate:3
CircleSize:3
OverallDifficulty:2
ApproachRate:4
SliderMultiplier:0.8
SliderTickRate:1

[Events]
//Background and Video events
0,0,"maxresdefault.jpg",0,0
//Break Periods
2,81748,83137
2,145743,161677
2,171924,175206
2,188733,195617
//Storyboard Layer 0 (Background)
//Storyboard Layer 1 (Fail)
//Storyboard Layer 2 (Pass)
//Storyboard Layer 3 (Foreground)
//Storyboard Sound Samples

[TimingPoints]
1553,363.61432640446,4,2,1,40,1,0
7370,-100,4,1,1,60,0,0
29914,-100,4,2,1,40,0,0
32096,-100,4,1,1,40,0,0
43732,-100,4,1,1,50,0,0
49550,-100,4,1,1,40,0,0
55367,-100,4,1,1,50,0,0
69912,-100,4,1,1,60,0,1
81548,-100,4,1,1,30,0,0
84457,-100,4,1,1,40,0,0
107728,-100,4,1,1,50,0,0
122272,-100,4,1,1,60,0,1
145544,363.61432640446,3,1,1,30,1,0
171724,300.16432640446,4,1,1,60,1,0
171724,-125,4,1,1,60,0,0
195136,-100,4,1,1,30,0,0
196937,363.61432640446,4,1,1,40,1,0
210027,-100,4,1,1,70,0,1
234752,-100,4,1,1,60,0,0
257623,363.61432640446,4,1,1,60,1,0

[Colours]
Combo1 : 255,0,0
Combo2 : 170,170,255
Combo3 : 128,128,128
Combo4 : 255,87,87

[HitObjects]
239,172,1553,6,0,P|316:186|387:151,1,160,2|0,0:0|0:0,0:0:0:0:
462,50,3007,1,0,0:0:0:0:
512,166,3734,1,0,0:0:0:0:
512,295,4461,2,0,P|451:332|348:349,1,160,2|0,0:0|0:0,0:0:0:0:
259,283,5916,2,0,B|245:244|221:213|221:213|178:204|143:220|143:220|115:254|112:318,1,240,0|4,0:0|0:0,0:0:0:0:
113,357,7370,5,0,0:0:0:0:
13,276,8098,1,0,0:0:0:0:
43,151,8825,2,0,P|106:97|214:98,1,160
246,197,10279,1,0,0:0:0:0:
360,254,11006,1,0,0:0:0:0:
490,189,11734,2,0,P|470:117|385:68,1,160
274,65,13188,5,4,0:0:0:0:
152,104,13915,1,0,0:0:0:0:
223,204,14643,1,0,0:0:0:0:
178,323,15370,2,0,P|127:321|82:295,1,80
38,296,16097,1,0,0:0:0:0:
6,174,16824,1,0,0:0:0:0:
112,97,17552,2,0,P|185:81|274:84,1,160
349,185,19006,5,4,0:0:0:0:
324,319,19733,1,0,0:0:0:0:
446,280,20460,2,0,P|486:213|479:135,1,160
364,75,21915,1,0,0:0:0:0:
236,81,22642,1,0,0:0:0:0:
109,58,23369,2,0,P|39:92|11:165,1,160,0|8,0:0|0:0,0:0:0:0:
139,183,24824,5,4,0:0:0:0:
119,310,25551,1,0,0:0:0:0:
240,349,26278,2,0,P|316:368|393:350,1,160
414,223,27733,1,0,0:0:0:0:
321,135,28460,1,0,0:0:0:0:
197,102,29187,2,0,P|158:105|120:119,2,80,0|8|2,0:0|0:0|0:0,0:0:0:0:
59,238,32096,5,4,0:0:0:0:
178,284,32823,1,0,0:0:0:0:
157,157,33551,2,0,P|175:98|249:32,1,160,0|0,0:0|0:0,0:0:0:0:
368,69,35005,1,0,0:0:0:0:
301,178,35732,1,0,0:0:0:0:
413,236,36459,2,0,P|359:292|281:302,1,160,0|8,0:0|0:0,0:0:0:0:
218,190,37914,5,4,0:0:0:0:
107,254,38641,1,0,0:0:0:0:
116,126,39368,2,0,P|167:77|341:217,1,320
333,311,41550,1,0,0:0:0:0:
210,346,42277,2,0,P|140:349|34:331,1,160
18,212,43732,6,0,P|13:116|33:26,1,160,4|0,0:0|0:0,0:0:0:0:
151,44,45186,1,0,0:0:0:0:
223,149,45913,1,8,0:0:0:0:
347,119,46641,2,0,P|400:191|389:277,1,160
306,349,48095,1,0,0:0:0:0:
178,338,48822,2,0,P|134:291|141:177,1,160,8|0,0:0|0:0,0:0:0:0:
250,235,50277,5,0,0:0:0:0:
228,108,51004,2,0,P|172:68|82:76,1,160,0|0,0:0|0:0,0:0:0:0:
12,180,52459,1,0,0:0:0:0:
72,292,53186,1,0,0:0:0:0:
144,186,53913,2,0,P|246:211|293:258,1,160,0|0,0:0|0:0,0:0:0:0:
343,360,55367,6,0,P|421:348|482:298,1,160,4|0,0:0|0:0,0:0:0:0:
447,176,56822,1,0,0:0:0:0:
360,81,57549,1,0,0:0:0:0:
318,201,58276,2,0,P|234:196|161:155,1,160,4|0,0:0|0:0,0:0:0:0:
106,48,59731,2,0,L|21:193,2,160,0|0|4,0:0|0:0|0:0,0:0:0:0:
233,55,61912,5,0,0:0:0:0:
345,115,62640,2,0,P|419:78|504:106,1,160
430,206,64094,1,4,0:0:0:0:
392,328,64821,1,0,0:0:0:0:
307,231,65549,1,4,0:0:0:0:
181,254,66276,1,0,0:0:0:0:
229,135,67003,2,0,P|206:77|117:32,2,160,4|0|4,0:0|0:0|0:0,0:0:0:0:
51,319,69912,5,4,0:0:0:0:
106,203,70639,2,0,P|155:234|181:277,1,80,0|8,0:0|0:0,0:0:0:0:
223,283,71366,2,0,P|294:274|371:201,1,160
284,116,72821,1,4,0:0:0:0:
408,144,73548,2,0,P|452:192|454:226,1,80,0|8,0:0|0:0,0:0:0:0:
440,267,74275,2,0,P|432:311|447:353,2,80,0|8|0,0:0|0:0|0:0,0:0:0:0:
408,144,75730,5,4,0:0:0:0:
299,76,76457,2,0,P|239:82|197:103,1,80,0|8,0:0|0:0,0:0:0:0:
221,153,77184,2,0,P|139:138|52:147,1,160
70,271,78639,1,4,0:0:0:0:
179,338,79366,2,0,P|243:331|284:318,1,80,0|8,0:0|0:0,0:0:0:0:
256,192,80093,12,0,81548,0:0:0:0:
124,99,84457,5,0,0:0:0:0:
139,226,85184,1,0,0:0:0:0:
244,153,85911,2,0,P|308:166|374:235,1,160,0|0,0:0|0:0,0:0:0:0:
255,284,87365,1,0,0:0:0:0:
127,267,88093,1,0,0:0:0:0:
70,152,88820,1,0,0:0:0:0:
160,61,89547,2,0,P|254:50|315:133,1,160
208,179,91002,5,0,0:0:0:0:
192,305,91729,1,0,0:0:0:0:
313,257,92456,1,0,0:0:0:0:
429,203,93183,2,0,P|454:129|424:57,2,160,0|0|0,0:0|0:0|0:0,0:0:0:0:
302,226,95365,1,0,0:0:0:0:
199,312,96092,6,0,P|156:332|31:266,1,160,4|0,0:0|0:0,0:0:0:0:
0,184,97547,2,0,L|38:25,1,160,0|0,0:0|0:0,0:0:0:0:
153,81,99001,1,0,0:0:0:0:
275,45,99728,1,0,0:0:0:0:
392,96,100456,1,0,0:0:0:0:
424,219,101183,2,0,P|373:282|274:223,1,160,8|0,0:0|0:0,0:0:0:0:
209,181,102637,5,0,0:0:0:0:
87,222,103365,1,0,0:0:0:0:
179,309,104092,1,0,0:0:0:0:
302,270,104819,2,0,P|381:288|463:282,2,160
256,151,107001,1,0,0:0:0:0:
277,24,107728,5,4,0:0:0:0:
376,112,108455,2,0,P|456:156|483:250,1,160
376,296,109910,1,0,0:0:0:0:
256,248,110637,1,4,0:0:0:0:
136,296,111364,1,0,0:0:0:0:
29,216,112091,2,0,P|65:146|136:112,1,160
256,144,113546,5,4,0:0:0:0:
377,185,114273,1,0,0:0:0:0:
278,266,115000,2,0,P|353:318|431:308,1,160
502,217,116455,1,4,0:0:0:0:
377,185,117182,1,0,0:0:0:0:
466,93,117909,1,0,0:0:0:0:
340,65,118636,1,0,0:0:0:0:
217,103,119364,2,0,P|133:106|41:73,2,160,0|8|0,0:0|0:0|0:0,0:0:0:0:
470,71,122272,5,4,0:0:0:0:
444,196,123000,2,0,P|408:178|370:140,1,80,0|8,0:0|0:0,0:0:0:0:
336,102,123727,2,0,P|278:125|202:209,1,160
259,315,125181,1,4,0:0:0:0:
130,315,125909,2,0,P|85:276|77:234,1,80,0|8,0:0|0:0,0:0:0:0:
45,203,126636,2,0,P|67:107|166:60,1,160
235,36,128090,6,0,P|344:31|395:52,1,160,4|0,0:0|0:0,0:0:0:0:
461,155,129545,1,0,0:0:0:0:
461,282,130272,2,0,P|396:299|350:288,1,80,0|8,0:0|0:0,0:0:0:0:
324,320,130999,2,0,P|246:331|175:296,1,160,4|0,0:0|0:0,0:0:0:0:
211,173,132454,1,0,0:0:0:0:
334,181,133181,2,0,P|324:126|295:80,1,80,0|8,0:0|0:0,0:0:0:0:
264,63,133908,6,0,P|187:51|117:97,1,160,4|0,0:0|0:0,0:0:0:0:
119,220,135363,1,0,0:0:0:0:
217,301,136090,2,0,P|243:248|244:213,1,80,0|8,0:0|0:0,0:0:0:0:
208,185,136817,2,0,P|187:116|230:16,1,160,4|0,0:0|0:0,0:0:0:0:
341,37,138271,1,0,0:0:0:0:
441,116,138999,2,0,P|425:139|379:170,1,80,0|8,0:0|0:0,0:0:0:0:
318,172,139726,6,0,P|361:259|344:335,1,160,4|0,0:0|0:0,0:0:0:0:
231,349,141180,1,0,0:0:0:0:
104,327,141908,2,0,P|113:266|153:238,1,80,0|8,0:0|0:0,0:0:0:0:
182,227,142635,2,0,P|135:157|133:81,1,160,4|0,0:0|0:0,0:0:0:0:
248,28,144089,2,0,P|315:58|355:143,2,160
96,112,162997,6,0,P|196:114|151:24,1,240,8|8,0:0|0:0,0:0:0:0:
336,24,165179,6,0,P|361:133|423:73,1,240,8|8,0:0|0:0,0:0:0:0:
415,271,167360,6,0,P|315:269|360:359,1,240,8|8,0:0|0:0,0:0:0:0:
176,360,169542,6,0,P|150:250|88:310,1,240,8|8,0:0|0:0,0:0:0:0:
59,120,171724,5,4,0:0:0:0:
125,90,176526,6,0,P|202:129|289:113,1,128,4|0,0:0|0:0,0:0:0:0:
340,101,177727,1,0,0:0:0:0:
398,184,178327,1,0,0:0:0:0:
375,283,178927,6,0,P|318:318|221:315,1,128,4|0,0:0|0:0,0:0:0:0:
163,285,180128,1,0,0:0:0:0:
60,282,180728,1,0,0:0:0:0:
26,185,181329,6,0,P|41:127|77:56,1,128,4|0,0:0|0:0,0:0:0:0:
168,34,182529,1,0,0:0:0:0:
264,69,183130,1,0,0:0:0:0:
364,51,183730,6,0,P|449:84|467:161,1,128,4|8,0:0|0:0,0:0:0:0:
447,213,184931,2,0,P|354:228|323:270,1,128,0|8,0:0|0:0,0:0:0:0:
281,337,186131,1,4,0:0:0:0:
256,192,186432,12,4,188533,0:0:0:0:
479,121,196937,6,0,P|402:181|326:168,1,160,0|8,0:0|0:0,0:0:0:0:
370,51,198391,1,0,0:0:0:0:
243,32,199118,1,8,0:0:0:0:
115,37,199845,6,0,P|28:82|-2:146,1,160,0|8,0:0|0:0,0:0:0:0:
124,164,201299,1,0,0:0:0:0:
71,280,202026,1,8,0:0:0:0:
188,331,202754,6,0,P|266:334|330:289,1,160,0|8,0:0|0:0,0:0:0:0:
456,311,204208,1,0,0:0:0:0:
501,192,204935,1,8,0:0:0:0:
409,102,205663,6,0,P|361:90|325:97,1,80,8|8,0:0|0:0,0:0:0:0:
282,136,206390,2,0,P|242:139|204:128,1,80,0|8,0:0|0:0,0:0:0:0:
153,89,207118,2,0,P|79:130|84:229,1,160,8|8,0:0|0:0,0:0:0:0:
144,304,208572,2,0,B|216:336|216:336|296:336|296:336|398:295,1,240
431,283,210027,5,0,0:0:0:0:
379,165,210754,1,0,0:0:0:0:
257,201,211481,1,0,0:0:0:0:
129,207,212208,2,0,P|131:158|153:105,1,80,0|8,0:0|0:0,0:0:0:0:
155,66,212936,2,0,P|244:72|334:50,1,160,4|0,0:0|0:0,0:0:0:0:
440,71,214390,1,0,0:0:0:0:
484,190,215117,2,0,P|431:204|389:182,1,80,0|8,0:0|0:0,0:0:0:0:
344,200,215844,6,0,P|370:278|346:352,1,160,4|0,0:0|0:0,0:0:0:0:
241,277,217299,1,0,0:0:0:0:
123,328,218026,2,0,P|92:286|89:249,1,80,0|8,0:0|0:0,0:0:0:0:
64,199,218753,2,0,P|87:93|172:53,1,160,4|0,0:0|0:0,0:0:0:0:
185,177,220208,2,0,P|256:176|326:113,1,160
304,59,221299,1,8,0:0:0:0:
248,27,221662,5,4,0:0:0:0:
124,62,222390,2,0,L|102:147,1,80,0|8,0:0|0:0,0:0:0:0:
68,192,223117,2,0,P|68:294|137:339,1,160
228,291,224571,1,4,0:0:0:0:
350,327,225298,2,0,L|351:234,1,80,0|8,0:0|0:0,0:0:0:0:
356,183,226026,2,0,P|423:146|447:57,1,160
321,58,227480,5,4,0:0:0:0:
194,78,228207,2,0,P|153:119|153:174,1,80,0|8,0:0|0:0,0:0:0:0:
160,201,228935,1,0,0:0:0:0:
139,327,229662,2,0,P|84:301|36:221,1,120,4|0,0:0|0:0,0:0:0:0:
280,81,231843,5,4,0:0:0:0:
257,207,232571,1,0,0:0:0:0:
378,168,233298,2,0,P|377:246|331:310,2,160,4|0|4,0:0|0:0|0:0,0:0:0:0:
