osu file format v14

[General]
AudioFilename: mp3.mp3
AudioLeadIn: 0
PreviewTime: 69912
Countdown: 1
SampleSet: Normal
StackLeniency: 0.7
Mode: 0
LetterboxInBreaks: 0
WidescreenStoryboard: 0

[Editor]
DistanceSpacing: 1.2
BeatDivisor: 4
GridSize: 4
TimelineZoom: 1

[Metadata]
Title:Yokuatsu Sakuran Girl
TitleUnicode:抑圧錯乱ガール
Artist:otetsu
ArtistUnicode:otetsu
Creator:Lolicore_Komari
Version:Komari
Source:
Tags:地獄型人間動物園 Jigokugata Ningen Doubutsuen GUMI Vocaloid Opression Confusion Girl
BeatmapID:908342
BeatmapSetID:419751

[Difficulty]
HPDrainRate:8.3
CircleSize:4.5
OverallDifficulty:7
ApproachRate:9.7
SliderMultiplier:2
SliderTickRate:1

[Events]
//Background and Video events
0,0,"maxresdefault.jpg",0,0
//Break Periods
2,81747,83962
//Storyboard Layer 0 (Background)
//Storyboard Layer 1 (Fail)
//Storyboard Layer 2 (Pass)
//Storyboard Layer 3 (Foreground)
//Storyboard Sound Samples

[TimingPoints]
1553,363.61432640446,4,1,1,40,1,0
69912,-100,4,1,1,40,0,1
81548,-100,4,1,1,40,0,0
122272,-100,4,1,1,40,0,1
145544,363.61432640446,3,1,1,60,1,0
145544,-200,3,1,1,60,0,0
171724,300.16432640446,4,1,1,60,1,0
186131,-100,4,1,1,60,0,1
195136,-100,4,1,1,30,0,0
196937,363.61432640446,4,1,1,45,1,0
210027,-66.6666666666667,4,1,1,45,0,1
229662,-100,4,1,1,45,0,1
230025,-100,4,1,1,45,0,0
231843,-100,4,1,1,45,0,1
234752,-100,4,1,1,45,0,0
257623,363.61432640446,4,1,1,60,1,0

[HitObjects]
72,304,1553,5,0,0:0:0:0:
152,244,1734,1,0,0:0:0:0:
152,244,1916,1,0,0:0:0:0:
228,312,2098,1,0,0:0:0:0:
304,248,2280,2,0,L|472:232,2,150
152,244,3007,5,0,0:0:0:0:
284,320,3189,1,0,0:0:0:0:
416,248,3371,1,0,0:0:0:0:
304,232,3552,1,0,0:0:0:0:
308,207,3642,1,0,0:0:0:0:
313,182,3733,1,0,0:0:0:0:
318,158,3824,1,0,0:0:0:0:
336,40,4007,1,0,0:0:0:0:
448,132,4189,1,0,0:0:0:0:
448,132,4280,1,0,0:0:0:0:
322,133,4461,6,0,L|224:156,1,100
128,188,4825,1,0,0:0:0:0:
32,216,5007,1,0,0:0:0:0:
32,216,5189,2,0,L|200:208,2,150
328,356,5916,5,0,0:0:0:0:
320,332,6006,1,0,0:0:0:0:
312,308,6098,2,0,L|288:232,1,50
236,200,6280,5,0,0:0:0:0:
241,175,6370,1,0,0:0:0:0:
246,150,6462,2,0,L|263:72,1,50
352,24,6643,2,0,L|352:96,1,50
488,188,6825,5,0,0:0:0:0:
483,163,6915,1,0,0:0:0:0:
478,138,7007,2,0,L|460:60,1,50
352,24,7189,2,0,L|352:136,1,100
428,288,7552,5,0,0:0:0:0:
428,288,7734,1,0,0:0:0:0:
308,208,7916,1,0,0:0:0:0:
308,208,8098,2,0,P|233:212|167:247,2,150
428,288,8825,1,0,0:0:0:0:
332,320,9007,1,0,0:0:0:0:
236,288,9188,1,0,0:0:0:0:
168,216,9370,1,0,0:0:0:0:
165,182,9460,1,0,0:0:0:0:
162,149,9551,1,0,0:0:0:0:
160,116,9642,1,0,0:0:0:0:
156,16,9825,1,0,0:0:0:0:
84,84,10007,1,0,0:0:0:0:
84,84,10097,1,0,0:0:0:0:
180,64,10279,6,0,L|278:49,1,100
380,32,10643,1,0,0:0:0:0:
332,120,10825,1,0,0:0:0:0:
380,32,11006,2,0,P|456:56|464:140,2,150
184,136,11734,5,0,0:0:0:0:
176,240,11916,2,0,L|172:292,1,50
184,136,12097,1,0,0:0:0:0:
186,111,12187,1,0,0:0:0:0:
188,86,12278,1,0,0:0:0:0:
190,61,12369,1,0,0:0:0:0:
192,36,12461,1,0,0:0:0:0:
204,48,12734,1,0,0:0:0:0:
212,60,13006,1,0,0:0:0:0:
316,96,13188,6,0,L|432:80,1,100
204,48,13552,1,0,0:0:0:0:
128,124,13734,1,0,0:0:0:0:
128,124,13824,1,0,0:0:0:0:
127,124,13915,2,0,P|64:159|50:230,2,150
204,48,14643,5,0,0:0:0:0:
224,164,14824,1,0,0:0:0:0:
164,268,15006,1,0,0:0:0:0:
68,340,15188,1,0,0:0:0:0:
100,335,15278,1,0,0:0:0:0:
133,330,15369,1,0,0:0:0:0:
166,325,15460,1,0,0:0:0:0:
280,320,15643,2,0,L|396:336,1,100
404,336,15915,2,0,L|359:227,1,100
444,148,16279,5,0,0:0:0:0:
340,112,16461,1,0,0:0:0:0:
340,112,16552,1,0,0:0:0:0:
340,112,16642,1,0,0:0:0:0:
340,112,16733,1,0,0:0:0:0:
340,112,16824,2,0,L|212:136,1,100
108,32,17097,2,0,L|206:50,1,100
128,156,17370,2,0,L|0:180,1,100
108,32,17733,5,0,0:0:0:0:
224,176,17915,1,0,0:0:0:0:
180,356,18097,1,0,0:0:0:0:
180,356,18188,1,0,0:0:0:0:
180,356,18279,1,0,0:0:0:0:
256,156,18461,1,0,0:0:0:0:
256,156,18521,1,0,0:0:0:0:
256,156,18582,1,0,0:0:0:0:
256,156,18642,1,0,0:0:0:0:
332,356,18824,1,0,0:0:0:0:
288,176,19006,5,0,0:0:0:0:
404,32,19188,1,0,0:0:0:0:
488,120,19370,2,0,L|390:144,1,100
288,176,19733,2,0,L|120:152,2,150
412,192,20460,1,0,0:0:0:0:
344,272,20642,1,0,0:0:0:0:
384,368,20824,1,0,0:0:0:0:
412,192,21006,1,0,0:0:0:0:
412,192,21097,1,0,0:0:0:0:
412,192,21188,1,0,0:0:0:0:
412,192,21279,1,0,0:0:0:0:
288,316,21460,1,0,0:0:0:0:
484,288,21642,1,0,0:0:0:0:
484,288,21733,1,0,0:0:0:0:
288,316,21915,6,0,L|172:308,1,100
76,300,22279,1,0,0:0:0:0:
196,360,22460,1,0,0:0:0:0:
84,312,22642,2,0,L|71:162,2,150
67,62,23369,5,0,0:0:0:0:
71,162,23551,1,0,0:0:0:0:
171,158,23733,1,0,0:0:0:0:
167,58,23915,1,0,0:0:0:0:
167,58,23975,1,0,0:0:0:0:
167,58,24036,1,0,0:0:0:0:
167,58,24097,1,0,0:0:0:0:
384,100,24369,1,0,0:0:0:0:
171,158,24642,1,0,0:0:0:0:
431,131,24824,6,0,P|447:178|435:226,1,100
344,288,25187,1,0,0:0:0:0:
236,264,25369,1,0,0:0:0:0:
236,264,25460,1,0,0:0:0:0:
236,264,25551,2,0,L|86:277,2,150
344,288,26278,1,0,0:0:0:0:
268,212,26460,1,0,0:0:0:0:
160,188,26642,1,0,0:0:0:0:
48,188,26824,1,0,0:0:0:0:
49,212,26914,1,0,0:0:0:0:
51,237,27005,1,0,0:0:0:0:
53,262,27096,1,0,0:0:0:0:
40,80,27278,1,0,0:0:0:0:
116,160,27460,1,0,0:0:0:0:
116,160,27551,1,0,0:0:0:0:
175,68,27733,6,0,P|225:74|266:102,1,100
332,192,28096,1,0,0:0:0:0:
224,204,28278,1,0,0:0:0:0:
224,204,28369,1,0,0:0:0:0:
224,204,28460,2,0,L|244:364,2,150
152,120,29187,6,0,L|48:112,1,100
348,284,29551,2,0,L|447:291,1,100
468,296,29824,2,0,L|400:316,1,50
391,317,30096,1,0,0:0:0:0:
362,325,30278,1,0,0:0:0:0:
333,333,30460,1,0,0:0:0:0:
304,341,30642,1,0,0:0:0:0:
275,349,30823,5,0,0:0:0:0:
276,334,30913,1,0,0:0:0:0:
278,319,31004,1,0,0:0:0:0:
279,304,31095,1,0,0:0:0:0:
281,290,31186,1,0,0:0:0:0:
282,275,31277,1,0,0:0:0:0:
284,260,31368,1,0,0:0:0:0:
285,245,31459,1,0,0:0:0:0:
287,230,31550,1,0,0:0:0:0:
288,215,31641,1,0,0:0:0:0:
290,200,31732,2,0,L|400:176,1,100
176,228,32096,6,0,L|78:249,1,100
290,200,32460,1,0,0:0:0:0:
368,56,32642,1,0,0:0:0:0:
368,56,32732,1,0,0:0:0:0:
368,56,32823,2,0,L|270:77,1,100
264,96,33096,2,0,L|166:117,1,100
176,140,33369,2,0,L|78:161,1,100
64,32,33732,5,0,0:0:0:0:
288,180,33914,1,0,0:0:0:0:
484,20,34096,1,0,0:0:0:0:
484,20,34187,1,0,0:0:0:0:
484,20,34278,2,0,L|472:120,1,100
476,144,34551,2,0,L|496:276,1,100
496,268,34823,6,0,L|428:260,1,50
424,260,35005,2,0,L|316:248,1,100
220,244,35369,1,0,0:0:0:0:
252,344,35550,1,0,0:0:0:0:
152,336,35732,2,0,L|44:328,1,100
108,251,36005,2,0,L|116:152,1,100
92,80,36278,2,0,L|99:-3,2,50
108,251,36641,1,0,0:0:0:0:
248,151,36823,2,0,P|297:152|346:163,1,100
447,231,37187,2,0,P|474:301|462:374,2,150
248,151,37914,5,0,0:0:0:0:
216,284,38096,1,0,0:0:0:0:
348,250,38278,2,0,L|447:231,1,100
184,212,38641,1,0,0:0:0:0:
80,284,38823,1,0,0:0:0:0:
80,284,38914,1,0,0:0:0:0:
79,284,39005,2,0,P|71:333|79:382,1,100
184,310,39368,6,0,P|192:261|184:212,2,100
88,160,39914,1,0,0:0:0:0:
88,160,40005,1,0,0:0:0:0:
88,160,40096,1,0,0:0:0:0:
204,60,40277,1,0,0:0:0:0:
304,176,40459,2,0,L|412:192,1,100
484,68,40823,6,0,L|385:53,1,100
248,104,41186,1,0,0:0:0:0:
108,148,41368,2,0,L|9:162,1,100
248,104,41823,1,0,0:0:0:0:
408,232,42095,1,0,0:0:0:0:
408,232,42277,2,0,L|420:332,1,100
328,292,42550,1,0,0:0:0:0:
328,292,42641,2,0,L|316:192,1,100
360,116,42914,1,0,0:0:0:0:
356,92,43005,2,0,L|350:42,1,50
280,132,43186,2,0,L|285:181,1,50
204,76,43368,1,0,0:0:0:0:
154,75,43458,1,0,0:0:0:0:
107,93,43549,1,0,0:0:0:0:
71,126,43640,1,0,0:0:0:0:
49,171,43732,6,0,L|76:304,1,100
156,288,44004,1,0,0:0:0:0:
176,340,44095,2,0,L|304:383,1,100
316,300,44368,1,0,0:0:0:0:
332,316,44459,2,0,L|320:252,1,50
304,184,44641,2,0,L|292:120,1,50
276,48,44823,5,0,0:0:0:0:
276,48,44914,1,0,0:0:0:0:
276,48,45004,1,0,0:0:0:0:
276,48,45095,1,0,0:0:0:0:
276,48,45186,2,0,L|344:64,1,50
400,24,45368,1,0,0:0:0:0:
424,40,45459,1,0,0:0:0:0:
448,56,45550,2,0,L|468:122,1,50
504,192,45732,2,0,P|496:244|496:248,1,50
444,344,45913,5,0,0:0:0:0:
433,312,46003,1,0,0:0:0:0:
423,280,46094,1,0,0:0:0:0:
413,248,46185,1,0,0:0:0:0:
392,176,46278,5,0,0:0:0:0:
381,207,46369,1,0,0:0:0:0:
371,239,46460,1,0,0:0:0:0:
361,271,46550,1,0,0:0:0:0:
336,340,46641,6,0,L|280:348,1,50
208,368,46822,2,0,L|152:376,1,50
88,280,47004,1,0,0:0:0:0:
121,283,47094,1,0,0:0:0:0:
154,287,47185,1,0,0:0:0:0:
187,290,47276,1,0,0:0:0:0:
272,304,47368,2,0,L|328:312,1,50
400,324,47549,2,0,L|456:332,1,50
428,252,47732,1,0,0:0:0:0:
414,221,47822,1,0,0:0:0:0:
401,191,47913,1,0,0:0:0:0:
387,160,48004,1,0,0:0:0:0:
352,88,48095,5,0,0:0:0:0:
321,102,48185,1,0,0:0:0:0:
291,115,48276,1,0,0:0:0:0:
260,129,48368,1,0,0:0:0:0:
208,188,48459,1,0,0:0:0:0:
228,264,48550,1,0,0:0:0:0:
300,292,48641,1,0,0:0:0:0:
372,264,48731,1,0,0:0:0:0:
404,192,48822,1,0,0:0:0:0:
368,100,49004,1,0,0:0:0:0:
368,100,49095,1,0,0:0:0:0:
332,8,49277,1,0,0:0:0:0:
332,8,49368,1,0,0:0:0:0:
427,35,49550,6,0,P|467:65|484:111,1,100
484,212,49913,2,0,L|472:380,1,150
396,320,50277,2,0,P|374:249|391:176,2,150
473,361,51004,1,0,0:0:0:0:
473,361,51186,1,0,0:0:0:0:
484,212,51368,1,0,0:0:0:0:
424,76,51549,1,0,0:0:0:0:
424,76,51640,1,0,0:0:0:0:
424,76,51731,1,0,0:0:0:0:
256,152,51913,1,0,0:0:0:0:
87,76,52095,2,0,P|50:157|97:234,1,187.5
128,248,52459,6,0,L|264:236,1,100
336,224,52822,2,0,L|472:212,1,100
344,323,53186,2,0,L|332:187,1,100
320,115,53549,2,0,L|308:-21,1,100
420,80,53913,1,0,0:0:0:0:
188,104,54095,1,0,0:0:0:0:
188,104,54186,1,0,0:0:0:0:
188,104,54277,1,0,0:0:0:0:
188,104,54367,1,0,0:0:0:0:
188,104,54458,1,0,0:0:0:0:
56,128,54640,5,0,0:0:0:0:
264,20,54822,1,0,0:0:0:0:
264,20,54913,1,0,0:0:0:0:
264,20,55004,1,0,0:0:0:0:
264,20,55095,1,0,0:0:0:0:
264,20,55186,1,0,0:0:0:0:
328,94,55367,6,0,P|345:142|344:191,1,100
300,280,55731,1,0,0:0:0:0:
300,280,55913,1,0,0:0:0:0:
204,256,56095,2,0,L|84:264,1,100
0,132,56458,2,0,L|196:164,1,187.5
200,164,56822,6,0,L|180:48,1,100
220,280,57185,1,0,0:0:0:0:
220,280,57367,1,0,0:0:0:0:
292,144,57549,2,0,L|332:33,2,100
220,280,58095,5,0,0:0:0:0:
316,260,58276,2,0,L|414:242,1,100
220,280,58640,2,0,L|121:297,1,100
414,242,59004,1,0,0:0:0:0:
200,360,59185,1,0,0:0:0:0:
351,335,59367,2,0,P|288:268|199:240,1,187.5
181,241,59731,2,0,P|85:266|16:336,1,200
72,48,60276,2,0,P|56:124|92:248,1,200
228,328,60822,1,0,0:0:0:0:
388,300,61003,1,0,0:0:0:0:
316,152,61185,6,0,L|424:144,1,100
228,232,61549,2,0,L|128:239,1,100
376,248,61912,1,0,0:0:0:0:
216,104,62094,1,0,0:0:0:0:
52,239,62276,2,0,P|35:312|52:385,1,150
104,312,62640,2,0,L|192:112,1,200
327,128,63185,2,0,L|408:312,1,200
256,376,63731,1,0,0:0:0:0:
256,188,63912,1,0,0:0:0:0:
160,52,64094,5,0,0:0:0:0:
136,59,64184,1,0,0:0:0:0:
112,68,64276,2,0,L|104:128,1,50
92,200,64458,2,0,L|84:260,1,50
152,360,64640,5,0,0:0:0:0:
192,280,64730,1,0,0:0:0:0:
168,192,64821,2,0,L|116:172,1,50
304,252,65003,2,0,L|252:232,1,50
436,304,65185,1,0,0:0:0:0:
412,295,65275,1,0,0:0:0:0:
389,286,65367,2,0,L|381:222,1,50
368,104,65549,6,0,L|374:153,1,50
444,64,65730,5,0,0:0:0:0:
356,20,65821,1,0,0:0:0:0:
284,88,65912,2,0,L|280:148,1,50
276,228,66094,2,0,L|272:288,1,50
336,176,66276,5,0,0:0:0:0:
290,157,66366,1,0,0:0:0:0:
240,160,66457,1,0,0:0:0:0:
197,185,66548,1,0,0:0:0:0:
256,176,66640,5,0,0:0:0:0:
222,110,66730,1,0,0:0:0:0:
157,74,66821,1,0,0:0:0:0:
84,80,66912,1,0,0:0:0:0:
26,127,67003,1,0,0:0:0:0:
156,216,67185,1,0,0:0:0:0:
156,216,67367,2,0,L|132:328,1,100
256,268,67730,2,0,L|276:170,1,100
408,128,68094,2,0,L|387:225,1,100
496,172,68458,5,0,0:0:0:0:
384,28,68639,1,0,0:0:0:0:
384,28,68730,1,0,0:0:0:0:
384,28,68821,1,0,0:0:0:0:
272,172,69003,2,0,L|328:148,1,50
380,116,69185,5,0,0:0:0:0:
380,116,69276,1,0,0:0:0:0:
244,60,69457,1,0,0:0:0:0:
244,60,69548,1,0,0:0:0:0:
156,172,69730,2,0,L|144:256,1,50
140,296,69912,6,0,P|228:262|237:167,1,200
148,64,70457,1,0,0:0:0:0:
148,64,70639,1,0,0:0:0:0:
32,140,70821,1,0,0:0:0:0:
32,140,70912,1,0,0:0:0:0:
32,140,71003,1,0,0:0:0:0:
32,140,71094,1,0,0:0:0:0:
32,140,71185,1,0,0:0:0:0:
236,166,71366,6,0,L|336:176,1,100
212,36,71730,1,0,0:0:0:0:
352,204,71912,1,0,0:0:0:0:
352,204,72003,1,0,0:0:0:0:
352,204,72094,2,0,L|422:275,1,100
464,220,72366,2,0,L|488:328,1,100
444,132,72639,2,0,L|422:34,1,100
485,317,73003,5,0,0:0:0:0:
344,304,73185,2,0,L|244:294,1,100
36,270,73548,2,0,L|136:280,1,100
136,220,73821,2,0,L|236:230,1,100
320,356,74094,2,0,L|420:366,1,100
380,268,74457,1,0,0:0:0:0:
484,280,74639,1,0,0:0:0:0:
484,280,74730,1,0,0:0:0:0:
484,280,74821,1,0,0:0:0:0:
484,280,74912,1,0,0:0:0:0:
484,279,75003,2,0,P|490:205|465:135,2,150
419,366,75730,6,0,P|322:381|233:338,1,200
180,256,76275,1,0,0:0:0:0:
160,156,76457,1,0,0:0:0:0:
196,64,76639,1,0,0:0:0:0:
196,64,76730,1,0,0:0:0:0:
196,64,76821,1,0,0:0:0:0:
196,64,76912,1,0,0:0:0:0:
196,64,77002,1,0,0:0:0:0:
280,116,77184,2,0,L|408:104,1,100
112,12,77548,1,0,0:0:0:0:
40,80,77730,1,0,0:0:0:0:
40,80,77821,1,0,0:0:0:0:
40,79,77912,2,0,P|23:152|38:225,2,150
136,100,78639,5,0,0:0:0:0:
136,100,78821,1,0,0:0:0:0:
231,119,79002,2,0,P|281:115|320:85,1,100
380,4,79366,2,0,P|380:64|412:124,1,100
448,184,79730,2,0,P|446:275|385:343,1,187.5
360,356,80093,2,0,P|284:368|168:320,1,200
111,239,80639,2,0,P|105:215|102:191,1,50
120,108,80820,1,0,0:0:0:0:
260,32,81002,2,0,P|284:25|308:22,1,50
392,32,81184,2,0,L|376:144,2,100
444,308,84457,5,0,0:0:0:0:
444,308,84820,2,0,L|345:322,1,100
232,312,85184,2,0,L|64:280,2,150
345,322,85911,1,0,0:0:0:0:
304,232,86275,2,0,P|296:182|300:133,1,100
344,60,86638,2,0,P|408:24|481:36,2,150
304,232,87365,5,0,0:0:0:0:
345,322,87729,2,0,L|444:308,1,100
232,312,88093,2,0,L|64:280,2,150
345,322,88820,1,0,0:0:0:0:
232,196,89184,1,0,0:0:0:0:
84,283,89365,1,0,0:0:0:0:
84,283,89456,1,0,0:0:0:0:
84,283,89547,2,0,L|232:312,2,150
32,88,90274,5,0,0:0:0:0:
301,185,90638,2,0,P|203:191|112:152,1,200
120,52,91274,1,0,0:0:0:0:
120,52,91547,1,0,0:0:0:0:
100,252,91729,2,0,L|88:368,1,100
112,152,92092,1,0,0:0:0:0:
32,88,92274,1,0,0:0:0:0:
32,88,92365,1,0,0:0:0:0:
32,88,92456,2,0,L|200:76,1,150
352,60,92911,1,0,0:0:0:0:
324,48,93001,1,0,0:0:0:0:
460,112,93183,6,0,P|479:157|476:207,1,100
436,300,93547,1,0,0:0:0:0:
259,336,93729,2,0,P|289:297|336:280,1,100
456,368,94183,1,0,0:0:0:0:
456,368,94456,1,0,0:0:0:0:
476,207,94638,5,0,0:0:0:0:
384,68,94820,1,0,0:0:0:0:
384,68,94910,1,0,0:0:0:0:
384,68,95001,1,0,0:0:0:0:
384,68,95092,1,0,0:0:0:0:
384,68,95183,1,0,0:0:0:0:
204,152,95365,5,0,0:0:0:0:
476,207,95547,1,0,0:0:0:0:
476,207,95638,1,0,0:0:0:0:
476,207,95729,1,0,0:0:0:0:
476,207,95820,1,0,0:0:0:0:
476,207,95910,1,0,0:0:0:0:
384,68,96092,5,0,0:0:0:0:
124,120,96274,1,0,0:0:0:0:
84,28,96456,1,0,0:0:0:0:
184,44,96638,1,0,0:0:0:0:
284,56,96819,2,0,L|220:200,2,150
124,120,97547,5,0,0:0:0:0:
220,144,97728,1,0,0:0:0:0:
316,164,97910,1,0,0:0:0:0:
412,184,98092,1,0,0:0:0:0:
412,184,98183,1,0,0:0:0:0:
412,184,98274,1,0,0:0:0:0:
412,184,98365,1,0,0:0:0:0:
372,92,98546,1,0,0:0:0:0:
456,276,98728,1,0,0:0:0:0:
456,276,98819,1,0,0:0:0:0:
504,364,99001,6,0,L|376:352,1,100
304,164,99365,1,0,0:0:0:0:
324,212,99456,1,0,0:0:0:0:
344,256,99546,1,0,0:0:0:0:
324,300,99637,1,0,0:0:0:0:
304,344,99728,1,0,0:0:0:0:
212,304,99910,1,0,0:0:0:0:
212,304,100001,1,0,0:0:0:0:
116,336,100183,1,0,0:0:0:0:
116,336,100274,1,0,0:0:0:0:
116,336,100365,1,0,0:0:0:0:
116,336,100456,2,0,L|-8:352,1,100
64,172,100819,5,0,0:0:0:0:
92,176,100910,1,0,0:0:0:0:
120,180,101001,1,0,0:0:0:0:
148,184,101092,1,0,0:0:0:0:
176,188,101183,2,0,L|316:208,1,100
360,100,101456,2,0,L|261:85,1,100
384,292,101728,2,0,L|524:312,1,100
428,52,102092,5,0,0:0:0:0:
482,306,102274,2,0,P|502:260|501:210,1,100
472,124,102546,1,0,0:0:0:0:
448,112,102637,2,0,L|312:104,1,100
244,156,102910,1,0,0:0:0:0:
210,154,103000,1,0,0:0:0:0:
177,152,103091,1,0,0:0:0:0:
144,150,103183,2,0,P|120:193|116:243,1,100
196,364,103546,5,0,0:0:0:0:
292,276,103728,1,0,0:0:0:0:
265,259,103818,1,0,0:0:0:0:
236,247,103909,1,0,0:0:0:0:
206,241,104000,1,0,0:0:0:0:
174,240,104091,1,0,0:0:0:0:
144,244,104182,1,0,0:0:0:0:
114,254,104273,1,0,0:0:0:0:
86,269,104364,1,0,0:0:0:0:
62,288,104455,1,0,0:0:0:0:
24,380,104637,5,0,0:0:0:0:
24,380,104819,2,0,L|8:240,1,100
64,72,105183,2,0,L|75:171,1,100
136,332,105546,1,0,0:0:0:0:
200,188,105728,1,0,0:0:0:0:
156,36,105910,1,0,0:0:0:0:
156,36,106092,1,0,0:0:0:0:
376,332,106273,5,0,0:0:0:0:
312,188,106455,1,0,0:0:0:0:
356,36,106637,1,0,0:0:0:0:
480,244,106819,1,0,0:0:0:0:
480,244,106910,1,0,0:0:0:0:
480,244,107001,1,0,0:0:0:0:
332,96,107182,1,0,0:0:0:0:
332,96,107273,1,0,0:0:0:0:
332,96,107364,2,0,L|280:104,1,50
216,168,107546,2,0,L|164:176,1,50
87,132,107728,6,0,P|46:222|47:321,1,200
256,212,108273,1,0,0:0:0:0:
424,132,108455,2,0,P|465:222|464:321,1,200
328,348,109001,1,0,0:0:0:0:
192,248,109182,2,0,L|390:268,1,200
92,192,109728,2,0,L|288:157,1,200
152,108,110182,1,0,0:0:0:0:
128,104,110273,2,0,L|64:92,1,50
288,156,110455,2,0,L|224:144,1,50
408,176,110637,6,0,P|441:268|409:361,1,200
288,272,111182,1,0,0:0:0:0:
196,308,111365,1,0,0:0:0:0:
272,372,111547,1,0,0:0:0:0:
216,204,111728,2,0,P|148:184|40:220,1,150
140,223,112091,6,0,P|80:148|-16:146,1,200
248,160,112637,2,0,P|346:157|431:106,1,200
348,40,113091,1,0,0:0:0:0:
328,24,113182,2,0,L|352:144,1,100
312,244,113455,1,0,0:0:0:0:
380,272,113546,2,0,L|404:392,1,100
484,192,113909,1,0,0:0:0:0:
484,192,114091,1,0,0:0:0:0:
328,24,114273,2,0,L|352:144,1,100
456,304,114637,1,0,0:0:0:0:
288,232,114818,1,0,0:0:0:0:
288,232,114909,1,0,0:0:0:0:
288,232,115000,2,0,P|189:216|93:240,1,200
196,292,115546,2,0,L|188:92,1,200
328,56,116091,1,0,0:0:0:0:
448,136,116273,1,0,0:0:0:0:
464,280,116455,5,0,0:0:0:0:
464,280,116546,2,0,L|352:272,1,100
292,324,116818,2,0,L|216:292,1,50
164,264,117000,1,0,0:0:0:0:
120,244,117091,1,0,0:0:0:0:
76,224,117182,2,0,L|92:316,1,50
56,88,117364,2,0,L|64:137,1,50
172,152,117545,5,0,0:0:0:0:
220,188,117636,1,0,0:0:0:0:
228,136,117727,1,0,0:0:0:0:
284,160,117818,1,0,0:0:0:0:
284,120,117909,2,0,L|284:48,1,50
284,308,118091,2,0,L|284:258,1,50
360,264,118273,1,0,0:0:0:0:
372,299,118363,1,0,0:0:0:0:
368,336,118454,1,0,0:0:0:0:
348,367,118545,1,0,0:0:0:0:
260,352,118636,1,0,0:0:0:0:
226,335,118726,1,0,0:0:0:0:
189,331,118817,1,0,0:0:0:0:
153,341,118908,1,0,0:0:0:0:
123,363,118999,1,0,0:0:0:0:
152,268,119182,5,0,0:0:0:0:
152,268,119364,2,0,L|32:264,1,100
360,268,119727,2,0,L|480:264,1,100
156,40,120091,2,0,P|140:92|148:140,1,100
365,136,120454,2,0,P|371:87|356:40,1,100
256,32,120818,5,0,0:0:0:0:
256,57,120908,1,0,0:0:0:0:
256,82,120999,1,0,0:0:0:0:
256,107,121090,1,0,0:0:0:0:
256,172,121183,5,0,0:0:0:0:
256,197,121273,1,0,0:0:0:0:
256,222,121364,1,0,0:0:0:0:
256,247,121455,1,0,0:0:0:0:
256,328,121545,5,0,0:0:0:0:
292,321,121635,1,0,0:0:0:0:
327,308,121726,1,0,0:0:0:0:
358,287,121817,1,0,0:0:0:0:
404,228,121909,5,0,0:0:0:0:
417,193,122000,1,0,0:0:0:0:
422,156,122091,1,0,0:0:0:0:
419,119,122182,1,0,0:0:0:0:
380,48,122272,6,0,L|180:80,1,200
60,108,122818,1,0,0:0:0:0:
140,188,123000,1,0,0:0:0:0:
116,8,123181,1,0,0:0:0:0:
116,8,123272,1,0,0:0:0:0:
116,8,123363,1,0,0:0:0:0:
116,8,123454,1,0,0:0:0:0:
116,8,123545,1,0,0:0:0:0:
60,107,123727,6,0,P|39:153|35:202,1,100
120,348,124091,1,0,0:0:0:0:
228,264,124272,2,0,L|180:252,1,50
152,248,124454,2,0,L|184:128,1,100
276,96,124727,2,0,L|250:192,1,100
204,340,125000,1,0,0:0:0:0:
316,320,125181,6,0,L|413:298,1,100
488,228,125545,2,0,P|516:272|508:324,1,100
388,104,125909,2,0,P|399:154|374:201,1,100
276,268,126272,1,0,0:0:0:0:
160,224,126454,1,0,0:0:0:0:
160,224,126545,1,0,0:0:0:0:
160,224,126636,1,0,0:0:0:0:
348,160,126818,1,0,0:0:0:0:
508,272,126999,1,0,0:0:0:0:
508,272,127090,1,0,0:0:0:0:
508,272,127181,1,0,0:0:0:0:
508,272,127272,1,0,0:0:0:0:
508,272,127363,2,0,L|480:372,1,100
408,296,127636,2,0,L|434:199,1,100
484,136,127908,1,0,0:0:0:0:
504,124,128090,6,0,L|376:112,1,100
284,104,128454,1,0,0:0:0:0:
168,132,128636,1,0,0:0:0:0:
168,132,128727,1,0,0:0:0:0:
167,132,128818,2,0,P|241:141|301:185,2,150
56,180,129545,5,0,0:0:0:0:
156,104,129727,1,0,0:0:0:0:
44,300,129908,1,0,0:0:0:0:
256,40,130090,1,0,0:0:0:0:
256,40,130181,1,0,0:0:0:0:
256,40,130272,1,0,0:0:0:0:
256,284,130454,1,0,0:0:0:0:
256,296,130545,1,0,0:0:0:0:
256,128,130726,1,0,0:0:0:0:
256,176,130817,1,0,0:0:0:0:
468,300,130999,5,0,0:0:0:0:
356,104,131180,1,0,0:0:0:0:
456,180,131362,1,0,0:0:0:0:
256,40,131545,1,0,0:0:0:0:
88,200,131726,2,0,P|160:168|180:64,1,150
180,96,132090,2,0,L|208:188,1,50
224,216,132272,2,0,L|252:308,1,50
268,348,132454,5,0,0:0:0:0:
408,280,132635,1,0,0:0:0:0:
408,280,132726,1,0,0:0:0:0:
408,280,132817,1,0,0:0:0:0:
408,280,132908,1,0,0:0:0:0:
408,280,132999,2,0,P|431:323|429:372,1,100
312,244,133363,1,0,0:0:0:0:
312,244,133423,1,0,0:0:0:0:
312,244,133484,1,0,0:0:0:0:
312,244,133545,2,0,P|309:194|333:151,1,100
408,88,133908,6,0,B|432:64|456:60|456:60|313:72,1,200
116,168,134454,2,0,L|234:159,1,100
196,44,134817,1,0,0:0:0:0:
196,44,134908,1,0,0:0:0:0:
196,44,134999,1,0,0:0:0:0:
196,44,135090,1,0,0:0:0:0:
196,44,135181,1,0,0:0:0:0:
43,120,135363,2,0,P|25:166|27:215,1,100
132,364,135726,1,0,0:0:0:0:
120,328,135817,1,0,0:0:0:0:
108,292,135908,1,0,0:0:0:0:
80,192,136090,2,0,L|220:212,1,100
236,100,136363,2,0,L|328:196,1,100
424,240,136635,2,0,L|404:128,1,100
388,40,136999,5,0,0:0:0:0:
480,104,137181,1,0,0:0:0:0:
296,80,137362,1,0,0:0:0:0:
296,80,137544,2,0,L|136:56,2,150
320,96,138181,1,0,0:0:0:0:
344,112,138271,2,0,P|352:168|332:224,1,100
264,344,138635,1,0,0:0:0:0:
264,344,138726,1,0,0:0:0:0:
264,344,138817,1,0,0:0:0:0:
264,344,138908,1,0,0:0:0:0:
264,344,138999,2,0,L|232:192,2,150
352,264,139726,5,0,0:0:0:0:
148,296,139908,1,0,0:0:0:0:
352,264,140090,1,0,0:0:0:0:
148,296,140272,1,0,0:0:0:0:
232,360,140453,1,0,0:0:0:0:
40,324,140635,1,0,0:0:0:0:
40,324,140726,1,0,0:0:0:0:
176,180,140908,1,0,0:0:0:0:
176,180,140999,1,0,0:0:0:0:
292,224,141180,5,0,0:0:0:0:
172,64,141362,1,0,0:0:0:0:
292,224,141544,1,0,0:0:0:0:
172,64,141726,1,0,0:0:0:0:
116,144,141908,1,0,0:0:0:0:
240,136,142089,1,0,0:0:0:0:
240,136,142180,1,0,0:0:0:0:
264,32,142362,1,0,0:0:0:0:
264,32,142453,1,0,0:0:0:0:
392,232,142635,5,0,0:0:0:0:
256,112,142817,1,0,0:0:0:0:
120,232,142998,1,0,0:0:0:0:
256,76,143180,1,0,0:0:0:0:
472,180,143362,1,0,0:0:0:0:
256,16,143544,1,0,0:0:0:0:
40,180,143726,1,0,0:0:0:0:
256,144,143908,5,0,0:0:0:0:
256,144,143998,1,0,0:0:0:0:
256,144,144089,2,0,L|256:248,1,100
256,16,144453,1,0,0:0:0:0:
352,76,144635,1,0,0:0:0:0:
168,76,144817,1,0,0:0:0:0:
172,224,144998,1,0,0:0:0:0:
172,224,145089,1,0,0:0:0:0:
172,224,145180,2,0,L|152:324,2,100
208,96,145907,5,0,0:0:0:0:
208,96,146271,1,0,0:0:0:0:
336,156,146634,1,0,0:0:0:0:
428,48,146998,1,0,0:0:0:0:
428,48,147362,1,0,0:0:0:0:
492,156,147725,1,0,0:0:0:0:
440,280,148089,1,0,0:0:0:0:
440,280,148452,1,0,0:0:0:0:
376,352,148816,2,0,L|268:360,1,100
172,283,149543,2,0,L|272:276,1,100
88,328,150270,5,0,0:0:0:0:
88,328,150634,1,0,0:0:0:0:
32,200,150998,1,0,0:0:0:0:
96,64,151361,1,0,0:0:0:0:
96,64,151725,1,0,0:0:0:0:
164,224,152089,1,0,0:0:0:0:
292,120,152453,1,0,0:0:0:0:
292,120,152816,1,0,0:0:0:0:
292,120,153180,1,0,0:0:0:0:
392,84,153543,2,0,L|487:53,1,100
448,160,154270,6,0,P|464:208|456:276,1,100
328,320,154997,2,0,P|312:272|320:204,1,100
392,80,155725,1,0,0:0:0:0:
392,80,156088,1,0,0:0:0:0:
392,80,156452,2,0,L|256:72,1,100
180,64,157179,1,0,0:0:0:0:
180,64,157543,2,0,L|44:56,1,100
140,172,158270,5,0,0:0:0:0:
140,172,158634,2,0,L|276:180,1,100
352,168,159361,1,0,0:0:0:0:
440,68,159724,1,0,0:0:0:0:
492,216,160088,1,0,0:0:0:0:
492,216,160452,1,0,0:0:0:0:
416,328,160815,1,0,0:0:0:0:
292,268,161179,1,0,0:0:0:0:
192,344,161543,1,0,0:0:0:0:
63,263,161906,2,0,P|44:218|50:169,2,100
192,344,162997,5,0,0:0:0:0:
292,268,163361,1,0,0:0:0:0:
416,328,163724,1,0,0:0:0:0:
484,240,164088,2,0,P|503:194|497:145,2,100
376,176,165179,1,0,0:0:0:0:
376,176,165360,1,0,0:0:0:0:
376,176,165542,1,0,0:0:0:0:
216,220,165906,1,0,0:0:0:0:
56,160,166270,2,0,L|44:104,1,50
40,80,166633,2,0,L|152:100,1,100
268,108,167360,6,0,L|344:92,1,50
336,92,167724,2,0,L|480:60,1,100
400,192,168451,2,0,L|355:332,1,100
324,368,169178,1,0,0:0:0:0:
468,328,169542,1,0,0:0:0:0:
468,328,169724,1,0,0:0:0:0:
468,328,169906,1,0,0:0:0:0:
324,368,170269,1,0,0:0:0:0:
192,344,170633,2,0,L|84:328,1,100
213,249,171360,2,0,L|312:264,1,100
416,284,171874,5,0,0:0:0:0:
416,284,172024,2,0,L|400:176,1,100
388,100,172324,2,0,L|372:-8,1,100
360,272,172624,2,0,L|292:186,1,100
243,126,172924,2,0,L|175:40,1,100
72,84,173224,1,0,0:0:0:0:
40,208,173374,2,0,L|160:184,1,100
244,168,173675,1,0,0:0:0:0:
244,168,173825,2,0,L|364:144,1,100
460,92,174125,6,0,L|448:204,1,100
440,272,174425,2,0,L|428:384,1,100
456,24,174725,2,0,L|389:114,1,100
348,169,175025,2,0,L|281:259,1,100
360,316,175325,1,0,0:0:0:0:
260,124,175476,2,0,L|157:169,1,100
93,195,175776,2,0,L|-9:240,1,100
139,62,176076,2,0,L|239:73,1,100
320,85,176376,1,0,0:0:0:0:
400,80,176526,6,0,L|499:69,1,100
468,176,176826,2,0,L|368:186,1,100
272,144,177126,1,0,0:0:0:0:
272,144,177277,1,0,0:0:0:0:
272,144,177427,1,0,0:0:0:0:
272,144,177577,1,0,0:0:0:0:
272,144,177727,2,0,L|312:340,2,200
200,72,178627,6,0,P|144:60|96:76,1,100
44,168,178927,1,0,0:0:0:0:
44,168,179078,1,0,0:0:0:0:
168,152,179228,1,0,0:0:0:0:
168,152,179378,1,0,0:0:0:0:
292,136,179528,2,0,L|390:120,1,100
474,230,179828,2,0,L|376:212,1,100
356,336,180128,2,0,L|272:128,2,200
216,336,181029,6,0,P|164:356|104:344,1,100
44,280,181329,1,0,0:0:0:0:
44,280,181479,1,0,0:0:0:0:
140,260,181629,2,0,L|128:140,1,100
232,88,181929,2,0,L|241:187,1,100
369,123,182229,2,0,L|360:24,1,100
472,100,182529,1,0,0:0:0:0:
472,100,182679,1,0,0:0:0:0:
480,216,182830,1,0,0:0:0:0:
480,216,182980,1,0,0:0:0:0:
439,308,183130,2,0,P|350:349|252:338,1,200
148,280,183580,1,0,0:0:0:0:
218,213,183730,5,0,0:0:0:0:
256,148,183880,1,0,0:0:0:0:
293,213,184030,1,0,0:0:0:0:
199,224,184180,5,0,0:0:0:0:
256,127,184330,1,0,0:0:0:0:
312,224,184480,1,0,0:0:0:0:
171,240,184631,5,0,0:0:0:0:
256,94,184781,1,0,0:0:0:0:
340,240,184931,1,0,0:0:0:0:
129,265,185081,5,0,0:0:0:0:
256,45,185231,1,0,0:0:0:0:
382,265,185381,1,0,0:0:0:0:
129,118,185531,5,0,0:0:0:0:
382,118,185681,1,0,0:0:0:0:
256,338,185831,1,0,0:0:0:0:
256,45,185981,1,0,0:0:0:0:
256,338,186131,6,0,L|376:316,1,100
392,236,186432,1,0,0:0:0:0:
396,368,186582,2,0,L|516:345,1,100
392,236,186882,1,0,0:0:0:0:
392,236,186957,1,0,0:0:0:0:
392,236,187032,2,0,L|293:217,1,100
196,200,187332,1,0,0:0:0:0:
100,176,187482,1,0,0:0:0:0:
124,272,187632,1,0,0:0:0:0:
240,180,187782,5,0,0:0:0:0:
207,185,187857,1,0,0:0:0:0:
174,191,187932,1,0,0:0:0:0:
141,196,188007,1,0,0:0:0:0:
296,96,188157,1,0,0:0:0:0:
404,208,188308,1,0,0:0:0:0:
404,208,188383,1,0,0:0:0:0:
312,276,188533,6,0,L|300:376,1,100
404,208,188833,1,0,0:0:0:0:
404,208,188983,1,0,0:0:0:0:
304,160,189133,2,0,P|292:84|328:24,2,150
404,208,189733,1,0,0:0:0:0:
404,208,189883,2,0,L|464:196,1,50
292,240,190034,1,0,0:0:0:0:
267,245,190109,1,0,0:0:0:0:
243,250,190184,1,0,0:0:0:0:
218,255,190259,1,0,0:0:0:0:
194,261,190334,1,0,0:0:0:0:
44,284,190559,1,0,0:0:0:0:
96,172,190784,1,0,0:0:0:0:
194,261,190934,6,0,P|208:308|196:356,1,100
44,284,191234,1,0,0:0:0:0:
96,172,191384,1,0,0:0:0:0:
96,172,191459,1,0,0:0:0:0:
96,172,191534,2,0,L|72:24,2,150
184,112,192135,1,0,0:0:0:0:
0,148,192285,1,0,0:0:0:0:
116,284,192435,1,0,0:0:0:0:
184,112,192585,1,0,0:0:0:0:
184,112,192660,1,0,0:0:0:0:
184,112,192735,1,0,0:0:0:0:
184,112,192810,1,0,0:0:0:0:
284,176,192960,1,0,0:0:0:0:
360,64,193110,1,0,0:0:0:0:
360,64,193185,1,0,0:0:0:0:
415,208,193335,6,0,P|465:199|508:175,1,100
359,63,193635,2,0,P|310:71|267:95,1,100
216,144,193861,1,0,0:0:0:0:
196,132,193936,2,0,L|224:292,2,150
176,44,194536,5,0,0:0:0:0:
104,232,194686,1,0,0:0:0:0:
344,200,194836,1,0,0:0:0:0:
212,136,194986,1,0,0:0:0:0:
212,136,195061,1,0,0:0:0:0:
212,136,195136,1,0,0:0:0:0:
231,120,195286,5,0,0:0:0:0:
253,108,195436,1,0,0:0:0:0:
277,100,195586,1,0,0:0:0:0:
301,96,195736,1,0,0:0:0:0:
326,96,195886,1,0,0:0:0:0:
351,100,196037,1,0,0:0:0:0:
350,109,196112,1,0,0:0:0:0:
349,118,196187,1,0,0:0:0:0:
348,127,196262,1,0,0:0:0:0:
348,136,196337,1,0,0:0:0:0:
347,145,196412,1,0,0:0:0:0:
346,154,196487,1,0,0:0:0:0:
345,163,196562,1,0,0:0:0:0:
344,172,196637,1,0,0:0:0:0:
343,181,196712,1,0,0:0:0:0:
343,190,196787,1,0,0:0:0:0:
342,199,196862,1,0,0:0:0:0:
336,236,196937,6,0,L|456:216,1,100
184,344,197300,2,0,L|304:324,1,100
144,232,197664,1,0,0:0:0:0:
40,316,197846,1,0,0:0:0:0:
40,316,197936,1,0,0:0:0:0:
40,316,198027,1,0,0:0:0:0:
40,316,198118,1,0,0:0:0:0:
40,316,198209,1,0,0:0:0:0:
144,232,198391,6,0,L|148:108,2,100
220,312,198936,1,0,0:0:0:0:
272,203,199118,2,0,P|283:155|279:106,1,100
272,92,199391,2,0,P|228:64|164:64,1,100
164,64,199664,2,0,P|112:88|80:132,1,100
12,228,200027,5,0,0:0:0:0:
12,228,200209,1,0,0:0:0:0:
112,212,200391,1,0,0:0:0:0:
212,196,200573,2,0,L|388:224,1,150
420,116,201118,1,0,0:0:0:0:
420,116,201209,1,0,0:0:0:0:
420,116,201300,1,0,0:0:0:0:
496,196,201482,1,0,0:0:0:0:
460,324,201663,1,0,0:0:0:0:
460,324,201754,1,0,0:0:0:0:
460,324,201845,1,0,0:0:0:0:
460,324,201936,1,0,0:0:0:0:
460,324,202027,2,0,L|272:356,2,150
496,196,202754,5,0,0:0:0:0:
404,156,202936,1,0,0:0:0:0:
316,108,203118,2,0,L|312:8,1,100
240,176,203482,2,0,L|262:324,2,150
160,92,204209,1,0,0:0:0:0:
80,152,204391,1,0,0:0:0:0:
56,248,204572,1,0,0:0:0:0:
104,336,204754,2,0,L|208:360,1,100
280,296,205118,1,0,0:0:0:0:
328,280,205209,1,0,0:0:0:0:
408,344,205391,1,0,0:0:0:0:
456,356,205481,1,0,0:0:0:0:
440,256,205663,6,0,L|420:136,1,100
404,60,206027,1,0,0:0:0:0:
332,236,206209,1,0,0:0:0:0:
332,236,206300,1,0,0:0:0:0:
332,236,206390,2,0,L|312:116,2,100
352,348,206936,1,0,0:0:0:0:
352,348,207027,1,0,0:0:0:0:
352,348,207118,1,0,0:0:0:0:
448,284,207300,5,0,0:0:0:0:
352,348,207481,1,0,0:0:0:0:
244,312,207663,1,0,0:0:0:0:
244,312,207754,1,0,0:0:0:0:
244,312,207845,1,0,0:0:0:0:
244,312,207936,1,0,0:0:0:0:
244,312,208027,2,0,L|172:340,1,50
100,360,208209,1,0,0:0:0:0:
102,347,208299,1,0,0:0:0:0:
104,335,208390,1,0,0:0:0:0:
107,323,208481,1,0,0:0:0:0:
100,284,208572,6,0,L|80:208,1,50
80,200,208754,2,0,L|60:124,1,50
180,37,208936,1,0,0:0:0:0:
176,62,209026,1,0,0:0:0:0:
172,86,209117,1,0,0:0:0:0:
168,111,209208,1,0,0:0:0:0:
164,136,209299,2,0,L|176:216,1,50
184,272,209481,1,0,0:0:0:0:
224,300,209572,1,0,0:0:0:0:
304,304,209663,6,0,L|324:272,1,25
380,276,209754,2,0,L|384:232,1,25
436,220,209845,2,0,L|432:188,1,25
464,144,209936,2,0,L|444:108,1,25
480,72,210027,6,0,P|409:49|334:55,1,150.000005722046
232,128,210390,1,0,0:0:0:0:
152,224,210572,2,0,P|129:295|135:370,1,150.000005722046
256,292,210936,1,0,0:0:0:0:
256,292,211027,1,0,0:0:0:0:
256,292,211117,1,0,0:0:0:0:
256,292,211208,1,0,0:0:0:0:
256,292,211299,1,0,0:0:0:0:
404,184,211481,6,0,L|255:202,1,150.000005722046
84,224,211845,1,0,0:0:0:0:
156,96,212026,1,0,0:0:0:0:
156,96,212117,1,0,0:0:0:0:
156,96,212208,2,0,L|174:244,1,150.000005722046
222,288,212481,2,0,L|204:140,1,150.000005722046
276,32,212754,2,0,L|294:180,1,150.000005722046
384,296,213117,5,0,0:0:0:0:
464,108,213299,1,0,0:0:0:0:
464,108,213481,1,0,0:0:0:0:
464,108,213663,2,0,P|488:200|480:268,1,150.000005722046
440,360,214026,1,0,0:0:0:0:
336,328,214208,1,0,0:0:0:0:
336,328,214299,1,0,0:0:0:0:
336,328,214390,1,0,0:0:0:0:
192,360,214572,1,0,0:0:0:0:
76,312,214754,1,0,0:0:0:0:
76,312,214845,1,0,0:0:0:0:
76,312,214935,1,0,0:0:0:0:
76,312,215026,1,0,0:0:0:0:
76,312,215117,1,0,0:0:0:0:
184,248,215299,1,0,0:0:0:0:
184,248,215481,2,0,L|176:88,1,150.000005722046
104,12,215844,6,0,P|65:75|55:149,1,150.000005722046
176,98,216208,1,0,0:0:0:0:
128,224,216390,1,0,0:0:0:0:
128,224,216481,1,0,0:0:0:0:
128,224,216572,2,0,P|237:212|310:130,1,225.000008583069
308,28,217117,5,0,0:0:0:0:
436,40,217299,1,0,0:0:0:0:
500,152,217481,1,0,0:0:0:0:
360,92,217663,1,0,0:0:0:0:
384,192,217844,1,0,0:0:0:0:
384,192,217935,1,0,0:0:0:0:
384,192,218026,2,0,L|408:340,1,150.000005722046
324,316,218299,2,0,L|300:168,1,150.000005722046
284,96,218572,6,0,L|180:116,2,75.0000028610231
396,68,218935,1,0,0:0:0:0:
504,128,219117,1,0,0:0:0:0:
504,128,219299,1,0,0:0:0:0:
360,136,219481,2,0,B|392:376|392:372,1,225.000008583069
404,344,219844,2,0,L|464:232,1,75.0000028610231
444,260,220026,2,0,L|440:172,2,75.0000028610231
496,360,220390,1,0,0:0:0:0:
496,360,220481,1,0,0:0:0:0:
336,312,220753,1,0,0:0:0:0:
216,343,220935,2,0,P|144:364|71:350,1,150.000005722046
4,216,221208,1,0,0:0:0:0:
24,240,221299,2,0,P|95:219|168:233,1,150.000005722046
280,272,221662,6,0,P|353:285|424:264,1,150.000005722046
488,168,222026,1,0,0:0:0:0:
336,188,222208,1,0,0:0:0:0:
336,188,222299,1,0,0:0:0:0:
336,188,222390,1,0,0:0:0:0:
376,64,222571,1,0,0:0:0:0:
376,64,222662,1,0,0:0:0:0:
268,104,222844,1,0,0:0:0:0:
268,104,222935,1,0,0:0:0:0:
152,88,223117,6,0,L|-4:68,1,150.000005722046
92,192,223480,1,0,0:0:0:0:
3,315,223662,1,0,0:0:0:0:
3,315,223753,1,0,0:0:0:0:
3,315,223844,2,0,L|151:295,2,150.000005722046
236,284,224389,1,0,0:0:0:0:
236,284,224571,2,0,L|384:303,1,150.000005722046
476,312,224935,1,0,0:0:0:0:
436,224,225117,1,0,0:0:0:0:
420,132,225298,1,0,0:0:0:0:
456,44,225480,1,0,0:0:0:0:
456,44,225571,1,0,0:0:0:0:
456,44,225662,1,0,0:0:0:0:
456,44,225753,1,0,0:0:0:0:
456,44,225844,1,0,0:0:0:0:
384,95,226026,6,0,P|313:119|239:111,1,150.000005722046
172,52,226389,1,0,0:0:0:0:
172,52,226480,1,0,0:0:0:0:
172,52,226571,1,0,0:0:0:0:
172,52,226662,1,0,0:0:0:0:
172,52,226753,1,0,0:0:0:0:
188,140,227026,1,0,0:0:0:0:
208,228,227298,1,0,0:0:0:0:
235,311,227480,6,0,P|310:321|382:303,1,150.000005722046
440,204,227844,2,0,P|365:194|293:212,1,150.000005722046
180,292,228207,1,0,0:0:0:0:
60,288,228389,1,0,0:0:0:0:
60,288,228480,1,0,0:0:0:0:
60,288,228571,1,0,0:0:0:0:
16,144,228753,1,0,0:0:0:0:
112,36,228935,6,0,L|120:192,1,150.000005722046
248,232,229298,1,0,0:0:0:0:
246,194,229388,1,0,0:0:0:0:
244,157,229479,1,0,0:0:0:0:
242,119,229570,1,0,0:0:0:0:
240,82,229661,1,0,0:0:0:0:
416,148,229844,1,0,0:0:0:0:
416,148,229935,1,0,0:0:0:0:
112,160,230116,1,0,0:0:0:0:
112,160,230207,1,0,0:0:0:0:
112,160,230298,1,0,0:0:0:0:
256,64,231480,5,0,0:0:0:0:
376,128,231843,2,0,P|400:224|360:356,1,200
132,321,232389,1,0,0:0:0:0:
132,321,232571,2,0,P|111:224|136:128,1,200
256,24,233116,1,0,0:0:0:0:
256,24,233298,2,0,B|256:184|256:184|240:196|240:196|272:196|272:196|256:208|256:208|256:376,2,400
