osu file format v14

[General]
AudioFilename: audio.mp3
AudioLeadIn: 0
PreviewTime: -1
Countdown: 0
SampleSet: Normal
StackLeniency: 0.7
Mode: 3
LetterboxInBreaks: 0
SpecialStyle: 0
WidescreenStoryboard: 1

[Editor]
DistanceSpacing: 1.6
BeatDivisor: 4
GridSize: 8
TimelineZoom: 1

[Metadata]
Title:Nanairo
TitleUnicode:ナナイロ
Artist:otetsu
ArtistUnicode:otetsu
Creator:Okama
Version:Hitsound
Source:SOUND VOLTEX BOOTH
Tags:
BeatmapID:1416333
BeatmapSetID:669587

[Difficulty]
HPDrainRate:6
CircleSize:4
OverallDifficulty:8
ApproachRate:5
SliderMultiplier:1.4
SliderTickRate:1

[Events]
//Background and Video events
//Break Periods
2,25243,29060
//Storyboard Layer 0 (Background)
//Storyboard Layer 1 (Fail)
//Storyboard Layer 2 (Pass)
//Storyboard Layer 3 (Foreground)
//Storyboard Sound Samples

[TimingPoints]
0,260.869565217391,4,1,1,39,1,0

[HitObjects]
448,192,2086,5,0,0:0:0:0:
448,192,2217,1,0,0:0:0:0:
320,192,2347,1,2,0:0:0:0:
320,192,2478,1,2,0:0:0:0:
448,192,2608,1,0,0:0:0:0:
448,192,2739,1,0,0:0:0:0:
320,192,2869,1,2,0:0:0:0:
448,192,3130,1,0,0:0:0:0:
448,192,3260,1,0,0:0:0:0:
320,192,3391,1,2,0:0:0:0:
320,192,3521,1,2,0:0:0:0:
448,192,3652,1,0,0:0:0:0:
448,192,3782,1,0,0:0:0:0:
320,192,3913,1,2,0:0:0:0:
448,192,4173,1,0,0:0:0:0:
448,192,4304,1,0,0:0:0:0:
320,192,4434,1,2,0:0:0:0:
320,192,4565,1,2,0:0:0:0:
448,192,4695,1,0,0:0:0:0:
448,192,4826,1,0,0:0:0:0:
320,192,4956,1,2,0:0:0:0:
448,192,5217,1,0,0:0:0:0:
448,192,5347,1,0,0:0:0:0:
320,192,5478,1,2,0:0:0:0:
320,192,5608,1,2,0:0:0:0:
448,192,5739,1,0,0:0:0:0:
448,192,5869,1,0,0:0:0:0:
320,192,5999,1,2,0:0:0:0:
448,192,6260,1,0,0:0:0:0:
448,192,6391,1,0,0:0:0:0:
320,192,6521,1,2,0:0:0:0:
320,192,6652,1,2,0:0:0:0:
448,192,6782,1,0,0:0:0:0:
448,192,6913,1,0,0:0:0:0:
320,192,7043,1,2,0:0:0:0:
448,192,7304,1,0,0:0:0:0:
448,192,7434,1,0,0:0:0:0:
320,192,7565,1,2,0:0:0:0:
320,192,7695,1,2,0:0:0:0:
448,192,7826,1,0,0:0:0:0:
448,192,7956,1,0,0:0:0:0:
320,192,8086,1,2,0:0:0:0:
448,192,8347,1,0,0:0:0:0:
448,192,8478,1,0,0:0:0:0:
320,192,8608,1,2,0:0:0:0:
320,192,8739,1,2,0:0:0:0:
448,192,8869,1,0,0:0:0:0:
448,192,8999,1,0,0:0:0:0:
320,192,9130,1,2,0:0:0:0:
448,192,9391,1,0,0:0:0:0:
448,192,9521,1,0,0:0:0:0:
320,192,9652,1,2,0:0:0:0:
320,192,9782,1,2,0:0:0:0:
448,192,9913,1,0,0:0:0:0:
448,192,10043,1,0,0:0:0:0:
320,192,10173,1,2,0:0:0:0:
448,192,10434,1,0,0:0:0:0:
448,192,10565,1,0,0:0:0:0:
320,192,10695,1,2,0:0:0:0:
320,192,10826,1,2,0:0:0:0:
448,192,10956,1,0,0:0:0:0:
448,192,11086,1,0,0:0:0:0:
320,192,11217,1,2,0:0:0:0:
448,192,12521,1,0,0:0:0:0:
64,192,12521,1,4,0:0:0:0:
448,192,12782,1,0,0:0:0:0:
320,192,12782,1,2,0:0:0:0:
448,192,13043,1,0,0:0:0:0:
448,192,13304,1,0,0:0:0:0:
320,192,13304,1,2,0:0:0:0:
448,192,13565,1,0,0:0:0:0:
320,192,13826,1,2,0:0:0:0:
448,192,13826,1,0,0:0:0:0:
448,192,14086,1,0,0:0:0:0:
320,192,14347,1,2,0:0:0:0:
448,192,14347,1,0,0:0:0:0:
448,192,14608,1,0,0:0:0:0:
448,192,14869,1,0,0:0:0:0:
320,192,14869,1,2,0:0:0:0:
448,192,15130,1,0,0:0:0:0:
448,192,15391,1,0,0:0:0:0:
320,192,15391,1,2,0:0:0:0:
448,192,15652,1,0,0:0:0:0:
320,192,15913,1,2,0:0:0:0:
448,192,15913,1,0,0:0:0:0:
448,192,16173,1,0,0:0:0:0:
320,192,16304,1,2,0:0:0:0:
320,192,16369,1,2,0:0:0:0:
320,192,16434,1,2,0:0:0:0:
448,192,16434,1,0,0:0:0:0:
320,192,16565,1,2,0:0:0:0:
448,192,16695,1,0,0:0:0:0:
64,192,16695,1,4,0:0:0:0:
448,192,16956,1,0,0:0:0:0:
320,192,16956,1,2,0:0:0:0:
448,192,17217,1,0,0:0:0:0:
448,192,17478,1,0,0:0:0:0:
320,192,17478,1,2,0:0:0:0:
448,192,17739,1,0,0:0:0:0:
448,192,17999,1,0,0:0:0:0:
320,192,17999,1,2,0:0:0:0:
448,192,18260,1,0,0:0:0:0:
448,192,18521,1,0,0:0:0:0:
320,192,18521,1,2,0:0:0:0:
448,192,18782,1,0,0:0:0:0:
448,192,19043,1,0,0:0:0:0:
320,192,19043,1,2,0:0:0:0:
448,192,19304,1,0,0:0:0:0:
448,192,19565,1,0,0:0:0:0:
320,192,19565,1,2,0:0:0:0:
448,192,19826,1,0,0:0:0:0:
448,192,20086,1,0,0:0:0:0:
320,192,20086,1,2,0:0:0:0:
448,192,20347,1,0,0:0:0:0:
320,192,20478,1,2,0:0:0:0:
320,192,20543,1,2,0:0:0:0:
448,192,20608,1,0,0:0:0:0:
320,192,20608,1,2,0:0:0:0:
320,192,20739,1,2,0:0:0:0:
448,192,20869,1,0,0:0:0:0:
64,192,20869,1,4,0:0:0:0:
448,192,25043,1,0,0:0:0:0:
64,192,25043,1,4,0:0:0:0:
64,192,30260,5,4,0:0:0:0:
64,192,33391,1,4,0:0:0:0:
64,192,37565,1,4,0:0:0:0:
448,192,37565,1,0,0:0:0:0:
448,192,37826,1,0,0:0:0:0:
320,192,38086,1,2,0:0:0:0:
448,192,38347,1,0,0:0:0:0:
320,192,38478,1,2,0:0:0:0:
448,192,38608,1,0,0:0:0:0:
320,192,38739,1,2,0:0:0:0:
448,192,38869,1,0,0:0:0:0:
320,192,39130,1,2,0:0:0:0:
448,192,39391,1,0,0:0:0:0:
320,192,39521,1,2,0:0:0:0:
448,192,39652,1,0,0:0:0:0:
448,192,39913,1,0,0:0:0:0:
320,192,40173,1,2,0:0:0:0:
448,192,40434,1,0,0:0:0:0:
320,192,40565,1,2,0:0:0:0:
448,192,40695,1,0,0:0:0:0:
320,192,40826,1,2,0:0:0:0:
448,192,40956,1,0,0:0:0:0:
320,192,41217,1,2,0:0:0:0:
448,192,41478,1,0,0:0:0:0:
320,192,41608,1,2,0:0:0:0:
448,192,41739,1,0,0:0:0:0:
64,192,41739,1,4,0:0:0:0:
448,192,41999,1,0,0:0:0:0:
320,192,42260,1,2,0:0:0:0:
448,192,42521,1,0,0:0:0:0:
320,192,42652,1,2,0:0:0:0:
448,192,42782,1,0,0:0:0:0:
320,192,42913,1,2,0:0:0:0:
448,192,43043,1,0,0:0:0:0:
320,192,43304,1,2,0:0:0:0:
448,192,43565,1,0,0:0:0:0:
320,192,43695,1,2,0:0:0:0:
448,192,43826,1,0,0:0:0:0:
64,192,43826,1,4,0:0:0:0:
448,192,44086,1,0,0:0:0:0:
320,192,44086,1,2,0:0:0:0:
448,192,44347,1,0,0:0:0:0:
448,192,44478,1,0,0:0:0:0:
320,192,44608,1,2,0:0:0:0:
448,192,44869,1,0,0:0:0:0:
448,192,44999,1,0,0:0:0:0:
320,192,45130,1,2,0:0:0:0:
448,192,45391,1,0,0:0:0:0:
448,192,45521,1,0,0:0:0:0:
320,192,45652,1,2,0:0:0:0:
448,192,45782,1,0,0:0:0:0:
320,192,45913,1,2,0:0:0:0:
