osu file format v14

[General]
AudioFilename: audio.mp3
AudioLeadIn: 0
PreviewTime: 94422
Countdown: 0
SampleSet: None
StackLeniency: 0.7
Mode: 1
LetterboxInBreaks: 0
WidescreenStoryboard: 0

[Editor]
Bookmarks: 10872,44472,52572,62172,63672,94872,109272,114072,118872,123672,128472
DistanceSpacing: 0.8
BeatDivisor: 4
GridSize: 32
TimelineZoom: 1.3

[Metadata]
Title:Minamo no Sakura, Yume wa Sakayume
TitleUnicode:水面の桜、夢は逆夢
Artist:otetsu
ArtistUnicode:otetsu
Creator:alunv
Version:Oni
Source:
Tags:巡音ルカ megurine luka vocaloid
BeatmapID:1757796
BeatmapSetID:839719

[Difficulty]
HPDrainRate:5
CircleSize:5
OverallDifficulty:6
ApproachRate:5
SliderMultiplier:1.4
SliderTickRate:1

[Events]
//Background and Video events
//Break Periods
//Storyboard Layer 0 (Background)
//Storyboard Layer 1 (Fail)
//Storyboard Layer 2 (Pass)
//Storyboard Layer 3 (Foreground)
//Storyboard Sound Samples

[TimingPoints]
1272,300,4,1,0,50,1,0
1272,-133.333333333333,4,1,0,50,0,0
39672,-100,4,1,0,80,0,0
44472,-100,4,1,0,90,0,0
94872,-100,4,1,0,100,0,1
114072,-100,4,1,0,90,0,0

[HitObjects]
256,192,1272,5,0,0:0:0:0:
256,192,2472,1,0,0:0:0:0:
256,192,3072,1,8,0:0:0:0:
256,192,3672,1,0,0:0:0:0:
256,192,4872,1,8,0:0:0:0:
256,192,6072,1,0,0:0:0:0:
256,192,7272,1,0,0:0:0:0:
256,192,8472,12,0,9672,0:0:0:0:
256,192,10272,5,8,0:0:0:0:
256,192,10872,1,4,0:0:0:0:
256,192,11472,1,0,0:0:0:0:
256,192,12072,1,8,0:0:0:0:
256,192,12672,1,0,0:0:0:0:
256,192,12972,1,8,0:0:0:0:
256,192,13272,1,8,0:0:0:0:
256,192,13872,1,0,0:0:0:0:
256,192,14472,1,8,0:0:0:0:
256,192,15072,1,8,0:0:0:0:
256,192,15372,1,0,0:0:0:0:
256,192,15672,1,8,0:0:0:0:
256,192,16272,1,8,0:0:0:0:
256,192,16572,1,8,0:0:0:0:
256,192,16872,1,0,0:0:0:0:
256,192,17472,1,8,0:0:0:0:
256,192,18072,1,0,0:0:0:0:
256,192,18672,1,8,0:0:0:0:
256,192,18972,1,0,0:0:0:0:
256,192,19572,1,0,0:0:0:0:
256,192,19872,1,8,0:0:0:0:
256,192,20472,1,4,0:0:0:0:
256,192,21072,1,0,0:0:0:0:
256,192,21672,1,8,0:0:0:0:
256,192,22272,1,0,0:0:0:0:
256,192,22572,1,8,0:0:0:0:
256,192,22872,1,8,0:0:0:0:
256,192,23472,1,0,0:0:0:0:
256,192,24072,1,8,0:0:0:0:
256,192,24672,1,8,0:0:0:0:
256,192,24972,1,0,0:0:0:0:
256,192,25272,1,0,0:0:0:0:
256,192,25872,1,8,0:0:0:0:
256,192,26472,1,8,0:0:0:0:
256,192,26772,1,0,0:0:0:0:
256,192,27072,1,8,0:0:0:0:
256,192,27672,1,0,0:0:0:0:
256,192,28272,1,8,0:0:0:0:
256,192,28872,1,8,0:0:0:0:
256,192,30072,1,4,0:0:0:0:
256,192,30672,1,0,0:0:0:0:
256,192,31272,1,8,0:0:0:0:
256,192,31872,1,8,0:0:0:0:
256,192,32172,1,8,0:0:0:0:
256,192,32472,1,0,0:0:0:0:
256,192,33072,1,0,0:0:0:0:
256,192,33372,1,0,0:0:0:0:
256,192,33672,1,8,0:0:0:0:
256,192,34272,1,0,0:0:0:0:
256,192,34572,1,8,0:0:0:0:
256,192,34872,1,0,0:0:0:0:
256,192,35472,1,0,0:0:0:0:
256,192,36072,1,8,0:0:0:0:
256,192,36672,1,8,0:0:0:0:
256,192,36972,1,8,0:0:0:0:
256,192,37272,1,0,0:0:0:0:
256,192,37872,1,0,0:0:0:0:
256,192,38472,1,8,0:0:0:0:
256,192,39072,1,0,0:0:0:0:
256,192,39672,1,4,0:0:0:0:
256,192,39822,1,0,0:0:0:0:
256,192,39972,1,8,0:0:0:0:
256,192,40122,1,0,0:0:0:0:
256,192,40197,1,0,0:0:0:0:
256,192,40272,1,0,0:0:0:0:
256,192,40422,1,8,0:0:0:0:
256,192,40572,1,0,0:0:0:0:
256,192,40872,1,8,0:0:0:0:
256,192,41022,1,0,0:0:0:0:
256,192,41097,1,0,0:0:0:0:
256,192,41172,1,0,0:0:0:0:
256,192,41322,1,8,0:0:0:0:
256,192,41472,1,0,0:0:0:0:
256,192,41622,1,8,0:0:0:0:
256,192,41772,1,8,0:0:0:0:
256,192,42072,1,0,0:0:0:0:
256,192,42222,1,0,0:0:0:0:
256,192,42297,1,0,0:0:0:0:
256,192,42372,1,8,0:0:0:0:
256,192,42522,1,0,0:0:0:0:
256,192,42672,1,8,0:0:0:0:
256,192,42822,1,8,0:0:0:0:
256,192,42972,1,0,0:0:0:0:
256,192,43272,1,12,0:0:0:0:
256,192,43572,1,0,0:0:0:0:
256,192,43872,2,0,L|96:192,1,140
256,192,44472,5,4,0:0:0:0:
256,192,44772,5,8,0:0:0:0:
256,192,44922,1,0,0:0:0:0:
256,192,44997,1,0,0:0:0:0:
256,192,45072,1,0,0:0:0:0:
256,192,45222,1,0,0:0:0:0:
256,192,45372,1,8,0:0:0:0:
256,192,45522,1,0,0:0:0:0:
256,192,45672,1,0,0:0:0:0:
256,192,45747,1,0,0:0:0:0:
256,192,45822,1,0,0:0:0:0:
256,192,45972,1,8,0:0:0:0:
256,192,46122,1,0,0:0:0:0:
256,192,46197,1,0,0:0:0:0:
256,192,46272,1,8,0:0:0:0:
256,192,46422,1,8,0:0:0:0:
256,192,46572,1,0,0:0:0:0:
256,192,46722,1,8,0:0:0:0:
256,192,46797,1,8,0:0:0:0:
256,192,46872,1,0,0:0:0:0:
256,192,47172,1,8,0:0:0:0:
256,192,47322,1,8,0:0:0:0:
256,192,47472,1,0,0:0:0:0:
256,192,47547,1,0,0:0:0:0:
256,192,47622,1,0,0:0:0:0:
256,192,47772,1,8,0:0:0:0:
256,192,48072,1,0,0:0:0:0:
256,192,48147,1,0,0:0:0:0:
256,192,48222,1,0,0:0:0:0:
256,192,48372,1,8,0:0:0:0:
256,192,48522,1,8,0:0:0:0:
256,192,48672,1,0,0:0:0:0:
256,192,48822,1,8,0:0:0:0:
256,192,48897,1,8,0:0:0:0:
256,192,48972,1,8,0:0:0:0:
256,192,49272,1,4,0:0:0:0:
256,192,49572,1,8,0:0:0:0:
256,192,49722,1,0,0:0:0:0:
256,192,49797,1,0,0:0:0:0:
256,192,49872,1,0,0:0:0:0:
256,192,50022,1,0,0:0:0:0:
256,192,50172,1,8,0:0:0:0:
256,192,50322,1,8,0:0:0:0:
256,192,50397,1,8,0:0:0:0:
256,192,50472,1,0,0:0:0:0:
256,192,50622,1,0,0:0:0:0:
256,192,50772,1,8,0:0:0:0:
256,192,51072,1,0,0:0:0:0:
256,192,51222,1,0,0:0:0:0:
256,192,51372,1,8,0:0:0:0:
256,192,51522,1,0,0:0:0:0:
256,192,51597,1,0,0:0:0:0:
256,192,51672,1,0,0:0:0:0:
256,192,51972,1,8,0:0:0:0:
256,192,52122,1,8,0:0:0:0:
256,192,52272,1,0,0:0:0:0:
256,192,52572,1,8,0:0:0:0:
256,192,52722,1,0,0:0:0:0:
256,192,52797,1,0,0:0:0:0:
256,192,52872,1,8,0:0:0:0:
256,192,53022,1,8,0:0:0:0:
256,192,53172,1,0,0:0:0:0:
256,192,53322,1,0,0:0:0:0:
256,192,53472,1,8,0:0:0:0:
256,192,53622,1,8,0:0:0:0:
256,192,53697,1,8,0:0:0:0:
256,192,53772,1,0,0:0:0:0:
256,192,54072,5,4,0:0:0:0:
256,192,54372,1,8,0:0:0:0:
256,192,54522,1,0,0:0:0:0:
256,192,54597,1,0,0:0:0:0:
256,192,54672,1,0,0:0:0:0:
256,192,54822,1,0,0:0:0:0:
256,192,54972,1,8,0:0:0:0:
256,192,55122,1,0,0:0:0:0:
256,192,55272,1,0,0:0:0:0:
256,192,55347,1,0,0:0:0:0:
256,192,55422,1,0,0:0:0:0:
256,192,55572,1,8,0:0:0:0:
256,192,55722,1,0,0:0:0:0:
256,192,55797,1,0,0:0:0:0:
256,192,55872,1,8,0:0:0:0:
256,192,56022,1,8,0:0:0:0:
256,192,56172,1,0,0:0:0:0:
256,192,56322,1,8,0:0:0:0:
256,192,56397,1,8,0:0:0:0:
256,192,56472,1,0,0:0:0:0:
256,192,56772,1,8,0:0:0:0:
256,192,56922,1,8,0:0:0:0:
256,192,57072,1,0,0:0:0:0:
256,192,57147,1,0,0:0:0:0:
256,192,57222,1,0,0:0:0:0:
256,192,57372,1,8,0:0:0:0:
256,192,57672,1,0,0:0:0:0:
256,192,57747,1,0,0:0:0:0:
256,192,57822,1,0,0:0:0:0:
256,192,57972,1,8,0:0:0:0:
256,192,58122,1,8,0:0:0:0:
256,192,58272,1,0,0:0:0:0:
256,192,58422,1,8,0:0:0:0:
256,192,58497,1,8,0:0:0:0:
256,192,58572,1,8,0:0:0:0:
256,192,58872,1,4,0:0:0:0:
256,192,59172,1,8,0:0:0:0:
256,192,59322,1,0,0:0:0:0:
256,192,59397,1,0,0:0:0:0:
256,192,59472,1,0,0:0:0:0:
256,192,59622,1,0,0:0:0:0:
256,192,59772,1,8,0:0:0:0:
256,192,59922,1,8,0:0:0:0:
256,192,59997,1,8,0:0:0:0:
256,192,60072,1,0,0:0:0:0:
256,192,60222,1,0,0:0:0:0:
256,192,60372,1,8,0:0:0:0:
256,192,60672,1,0,0:0:0:0:
256,192,60972,1,8,0:0:0:0:
256,192,61122,1,0,0:0:0:0:
256,192,61197,1,0,0:0:0:0:
256,192,61272,1,0,0:0:0:0:
256,192,61422,1,0,0:0:0:0:
256,192,61572,1,8,0:0:0:0:
256,192,61722,1,8,0:0:0:0:
256,192,61872,1,0,0:0:0:0:
256,192,62172,1,8,0:0:0:0:
256,192,62322,1,0,0:0:0:0:
256,192,62397,1,0,0:0:0:0:
256,192,62472,1,8,0:0:0:0:
256,192,62622,1,8,0:0:0:0:
256,192,62772,1,0,0:0:0:0:
256,192,62922,1,0,0:0:0:0:
256,192,63072,1,8,0:0:0:0:
256,192,63222,1,8,0:0:0:0:
256,192,63297,1,8,0:0:0:0:
256,192,63372,1,0,0:0:0:0:
256,192,63672,1,4,0:0:0:0:
256,192,63972,1,8,0:0:0:0:
256,192,64122,1,0,0:0:0:0:
256,192,64422,1,0,0:0:0:0:
256,192,64572,1,8,0:0:0:0:
256,192,64722,1,8,0:0:0:0:
256,192,65022,1,0,0:0:0:0:
256,192,65172,1,8,0:0:0:0:
256,192,65472,1,8,0:0:0:0:
256,192,65772,1,8,0:0:0:0:
256,192,65922,1,8,0:0:0:0:
256,192,66072,1,0,0:0:0:0:
256,192,66372,1,8,0:0:0:0:
256,192,66522,1,0,0:0:0:0:
256,192,66822,1,0,0:0:0:0:
256,192,66972,1,8,0:0:0:0:
256,192,67122,1,0,0:0:0:0:
256,192,67422,1,0,0:0:0:0:
256,192,67572,1,8,0:0:0:0:
256,192,67872,1,0,0:0:0:0:
256,192,68022,1,0,0:0:0:0:
256,192,68172,1,8,0:0:0:0:
256,192,68472,1,0,0:0:0:0:
256,192,68772,1,8,0:0:0:0:
256,192,68922,1,0,0:0:0:0:
256,192,69222,1,0,0:0:0:0:
256,192,69372,1,8,0:0:0:0:
256,192,69522,1,0,0:0:0:0:
256,192,69672,1,8,0:0:0:0:
256,192,69972,1,8,0:0:0:0:
256,192,70122,1,0,0:0:0:0:
256,192,70422,1,0,0:0:0:0:
256,192,70572,1,8,0:0:0:0:
256,192,70722,1,8,0:0:0:0:
256,192,70872,1,0,0:0:0:0:
256,192,71172,1,0,0:0:0:0:
256,192,71322,1,8,0:0:0:0:
256,192,71622,1,0,0:0:0:0:
256,192,71772,1,8,0:0:0:0:
256,192,71922,1,0,0:0:0:0:
256,192,72222,1,8,0:0:0:0:
256,192,72372,1,8,0:0:0:0:
256,192,72672,1,0,0:0:0:0:
256,192,72822,1,8,0:0:0:0:
256,192,72972,1,8,0:0:0:0:
256,192,73272,1,4,0:0:0:0:
256,192,73572,1,8,0:0:0:0:
256,192,73722,1,0,0:0:0:0:
256,192,74022,1,0,0:0:0:0:
256,192,74172,1,8,0:0:0:0:
256,192,74322,1,8,0:0:0:0:
256,192,74472,1,0,0:0:0:0:
256,192,74622,1,0,0:0:0:0:
256,192,74772,1,8,0:0:0:0:
256,192,75072,1,0,0:0:0:0:
256,192,75372,1,8,0:0:0:0:
256,192,75522,1,0,0:0:0:0:
256,192,75672,1,0,0:0:0:0:
256,192,75972,1,8,0:0:0:0:
256,192,76122,1,8,0:0:0:0:
256,192,76422,1,0,0:0:0:0:
256,192,76572,1,8,0:0:0:0:
256,192,76722,1,0,0:0:0:0:
256,192,77022,1,0,0:0:0:0:
256,192,77172,1,8,0:0:0:0:
256,192,77472,1,0,0:0:0:0:
256,192,77772,1,8,0:0:0:0:
256,192,77922,1,8,0:0:0:0:
256,192,78072,1,0,0:0:0:0:
256,192,78372,1,8,0:0:0:0:
256,192,78672,1,8,0:0:0:0:
256,192,78822,1,0,0:0:0:0:
256,192,78972,1,0,0:0:0:0:
256,192,79122,1,8,0:0:0:0:
256,192,79272,1,0,0:0:0:0:
256,192,79572,1,8,0:0:0:0:
256,192,79872,1,0,0:0:0:0:
256,192,80022,1,0,0:0:0:0:
256,192,80172,1,8,0:0:0:0:
256,192,80322,1,0,0:0:0:0:
256,192,80622,1,8,0:0:0:0:
256,192,80772,1,8,0:0:0:0:
256,192,80922,1,0,0:0:0:0:
256,192,81072,1,8,0:0:0:0:
256,192,81372,1,8,0:0:0:0:
256,192,81672,1,0,0:0:0:0:
256,192,81822,1,0,0:0:0:0:
256,192,81972,1,8,0:0:0:0:
256,192,82122,1,8,0:0:0:0:
256,192,82272,1,0,0:0:0:0:
256,192,82572,1,8,0:0:0:0:
256,192,82872,1,4,0:0:0:0:
256,192,83172,1,8,0:0:0:0:
256,192,83322,1,8,0:0:0:0:
256,192,83472,1,0,0:0:0:0:
256,192,83547,1,0,0:0:0:0:
256,192,83622,1,0,0:0:0:0:
256,192,83772,1,8,0:0:0:0:
256,192,84072,1,0,0:0:0:0:
256,192,84372,1,8,0:0:0:0:
256,192,84522,1,0,0:0:0:0:
256,192,84597,1,0,0:0:0:0:
256,192,84672,1,0,0:0:0:0:
256,192,84822,1,0,0:0:0:0:
256,192,84972,1,8,0:0:0:0:
256,192,85272,1,8,0:0:0:0:
256,192,85572,1,0,0:0:0:0:
256,192,85722,1,8,0:0:0:0:
256,192,85872,1,0,0:0:0:0:
256,192,86022,1,0,0:0:0:0:
256,192,86172,1,8,0:0:0:0:
256,192,86247,1,8,0:0:0:0:
256,192,86322,1,8,0:0:0:0:
256,192,86472,1,0,0:0:0:0:
256,192,86772,1,8,0:0:0:0:
256,192,86922,1,0,0:0:0:0:
256,192,87072,1,0,0:0:0:0:
256,192,87372,1,8,0:0:0:0:
256,192,87672,1,4,0:0:0:0:
256,192,87972,1,8,0:0:0:0:
256,192,88272,1,8,0:0:0:0:
256,192,88572,1,0,0:0:0:0:
256,192,88722,1,8,0:0:0:0:
256,192,88872,1,8,0:0:0:0:
256,192,89022,1,0,0:0:0:0:
256,192,89172,1,8,0:0:0:0:
256,192,89472,1,0,0:0:0:0:
256,192,89772,1,8,0:0:0:0:
256,192,89922,1,8,0:0:0:0:
256,192,90072,1,0,0:0:0:0:
256,192,90372,1,8,0:0:0:0:
256,192,90672,1,0,0:0:0:0:
256,192,90972,1,8,0:0:0:0:
256,192,91272,1,4,0:0:0:0:
256,192,91872,1,12,0:0:0:0:
256,192,92472,1,4,0:0:0:0:
256,192,92772,1,8,0:0:0:0:
256,192,93072,1,0,0:0:0:0:
256,192,93222,1,8,0:0:0:0:
256,192,93372,1,8,0:0:0:0:
256,192,93672,2,4,L|96:192,2,140
256,192,94572,1,0,0:0:0:0:
256,192,94722,1,0,0:0:0:0:
256,192,94872,1,12,0:0:0:0:
256,192,95172,1,0,0:0:0:0:
256,192,95322,1,0,0:0:0:0:
256,192,95472,1,12,0:0:0:0:
256,192,95772,1,0,0:0:0:0:
256,192,95922,1,8,0:0:0:0:
256,192,96072,1,8,0:0:0:0:
256,192,96222,1,0,0:0:0:0:
256,192,96297,1,0,0:0:0:0:
256,192,96372,1,0,0:0:0:0:
256,192,96522,1,8,0:0:0:0:
256,192,96672,1,4,0:0:0:0:
256,192,96972,1,8,0:0:0:0:
256,192,97122,1,0,0:0:0:0:
256,192,97197,1,0,0:0:0:0:
256,192,97272,1,8,0:0:0:0:
256,192,97422,1,8,0:0:0:0:
256,192,97572,1,0,0:0:0:0:
256,192,97647,1,0,0:0:0:0:
256,192,97722,1,0,0:0:0:0:
256,192,97797,1,0,0:0:0:0:
256,192,97872,1,8,0:0:0:0:
256,192,98022,1,0,0:0:0:0:
256,192,98172,1,8,0:0:0:0:
256,192,98322,1,8,0:0:0:0:
256,192,98472,1,0,0:0:0:0:
256,192,98772,1,8,0:0:0:0:
256,192,98922,1,0,0:0:0:0:
256,192,98997,1,0,0:0:0:0:
256,192,99072,1,0,0:0:0:0:
256,192,99222,1,0,0:0:0:0:
256,192,99372,1,8,0:0:0:0:
256,192,99672,1,4,0:0:0:0:
256,192,99972,5,8,0:0:0:0:
256,192,100122,1,8,0:0:0:0:
256,192,100272,1,0,0:0:0:0:
256,192,100347,1,0,0:0:0:0:
256,192,100422,1,0,0:0:0:0:
256,192,100572,1,8,0:0:0:0:
256,192,100647,1,8,0:0:0:0:
256,192,100722,1,0,0:0:0:0:
256,192,100872,1,8,0:0:0:0:
256,192,101172,1,8,0:0:0:0:
256,192,101322,1,0,0:0:0:0:
256,192,101397,1,0,0:0:0:0:
256,192,101472,1,8,0:0:0:0:
256,192,101547,1,8,0:0:0:0:
256,192,101622,1,0,0:0:0:0:
256,192,101772,1,8,0:0:0:0:
256,192,101922,1,0,0:0:0:0:
256,192,102072,1,8,0:0:0:0:
256,192,102222,1,0,0:0:0:0:
256,192,102297,1,0,0:0:0:0:
256,192,102372,1,0,0:0:0:0:
256,192,102522,1,8,0:0:0:0:
256,192,102672,1,0,0:0:0:0:
256,192,102972,1,8,0:0:0:0:
256,192,103122,1,0,0:0:0:0:
256,192,103197,1,0,0:0:0:0:
256,192,103272,1,0,0:0:0:0:
256,192,103422,1,8,0:0:0:0:
256,192,103497,1,0,0:0:0:0:
256,192,103572,1,8,0:0:0:0:
256,192,103722,1,0,0:0:0:0:
256,192,103872,1,8,0:0:0:0:
256,192,104172,1,8,0:0:0:0:
256,192,104322,1,8,0:0:0:0:
256,192,104472,1,4,0:0:0:0:
256,192,104772,1,8,0:0:0:0:
256,192,104922,1,8,0:0:0:0:
256,192,105072,1,4,0:0:0:0:
256,192,105372,1,8,0:0:0:0:
256,192,105522,1,8,0:0:0:0:
256,192,105672,1,0,0:0:0:0:
256,192,105822,1,8,0:0:0:0:
256,192,105897,1,8,0:0:0:0:
256,192,105972,1,8,0:0:0:0:
256,192,106122,1,0,0:0:0:0:
256,192,106272,1,12,0:0:0:0:
256,192,106572,5,8,0:0:0:0:
256,192,106722,1,0,0:0:0:0:
256,192,106797,1,0,0:0:0:0:
256,192,106872,1,8,0:0:0:0:
256,192,107022,1,8,0:0:0:0:
256,192,107172,1,0,0:0:0:0:
256,192,107322,1,8,0:0:0:0:
256,192,107397,1,8,0:0:0:0:
256,192,107472,1,0,0:0:0:0:
256,192,107622,1,0,0:0:0:0:
256,192,107772,1,8,0:0:0:0:
256,192,107922,1,0,0:0:0:0:
256,192,107997,1,8,0:0:0:0:
256,192,108072,1,0,0:0:0:0:
256,192,108372,1,8,0:0:0:0:
256,192,108522,1,0,0:0:0:0:
256,192,108672,1,0,0:0:0:0:
256,192,108972,1,8,0:0:0:0:
256,192,109272,1,4,0:0:0:0:
256,192,109572,1,8,0:0:0:0:
256,192,109722,1,0,0:0:0:0:
256,192,109797,1,8,0:0:0:0:
256,192,109872,1,8,0:0:0:0:
256,192,110022,1,8,0:0:0:0:
256,192,110172,1,0,0:0:0:0:
256,192,110322,1,0,0:0:0:0:
256,192,110397,1,0,0:0:0:0:
256,192,110472,1,8,0:0:0:0:
256,192,110622,1,8,0:0:0:0:
256,192,110772,1,0,0:0:0:0:
256,192,111072,1,0,0:0:0:0:
256,192,111222,1,8,0:0:0:0:
256,192,111297,1,8,0:0:0:0:
256,192,111372,1,0,0:0:0:0:
256,192,111522,1,8,0:0:0:0:
256,192,111672,1,4,0:0:0:0:
256,192,111972,1,8,0:0:0:0:
256,192,112272,1,0,0:0:0:0:
256,192,112422,1,0,0:0:0:0:
256,192,112572,1,8,0:0:0:0:
256,192,112722,1,0,0:0:0:0:
256,192,112872,1,4,0:0:0:0:
256,192,113172,1,8,0:0:0:0:
256,192,113322,1,0,0:0:0:0:
256,192,113472,1,0,0:0:0:0:
256,192,113622,1,8,0:0:0:0:
256,192,113697,1,8,0:0:0:0:
256,192,113772,1,8,0:0:0:0:
256,192,114072,1,12,0:0:0:0:
256,192,114372,1,8,0:0:0:0:
256,192,114522,1,0,0:0:0:0:
256,192,114597,1,8,0:0:0:0:
256,192,114672,1,8,0:0:0:0:
256,192,114822,1,0,0:0:0:0:
256,192,114972,1,8,0:0:0:0:
256,192,115122,1,8,0:0:0:0:
256,192,115272,1,0,0:0:0:0:
256,192,115572,1,8,0:0:0:0:
256,192,115872,1,0,0:0:0:0:
256,192,116022,1,8,0:0:0:0:
256,192,116097,1,8,0:0:0:0:
256,192,116172,1,0,0:0:0:0:
256,192,116322,1,8,0:0:0:0:
256,192,116472,1,0,0:0:0:0:
256,192,116547,1,0,0:0:0:0:
256,192,116622,1,0,0:0:0:0:
256,192,116697,1,0,0:0:0:0:
256,192,116772,1,8,0:0:0:0:
256,192,116922,1,0,0:0:0:0:
256,192,117072,1,8,0:0:0:0:
256,192,117222,1,8,0:0:0:0:
256,192,117372,1,0,0:0:0:0:
256,192,117672,1,8,0:0:0:0:
256,192,117747,1,0,0:0:0:0:
256,192,117822,1,8,0:0:0:0:
256,192,117972,1,0,0:0:0:0:
256,192,118122,1,0,0:0:0:0:
256,192,118272,1,8,0:0:0:0:
256,192,118422,1,0,0:0:0:0:
256,192,118497,1,0,0:0:0:0:
256,192,118572,1,8,0:0:0:0:
256,192,118872,1,8,0:0:0:0:
256,192,119172,1,8,0:0:0:0:
256,192,119322,1,0,0:0:0:0:
256,192,119397,1,8,0:0:0:0:
256,192,119472,1,8,0:0:0:0:
256,192,119622,1,0,0:0:0:0:
256,192,119772,1,8,0:0:0:0:
256,192,119922,1,8,0:0:0:0:
256,192,120072,1,0,0:0:0:0:
256,192,120372,1,8,0:0:0:0:
256,192,120672,1,8,0:0:0:0:
256,192,120822,1,0,0:0:0:0:
256,192,120897,1,0,0:0:0:0:
256,192,120972,1,0,0:0:0:0:
256,192,121122,1,8,0:0:0:0:
256,192,121272,1,0,0:0:0:0:
256,192,121422,1,8,0:0:0:0:
256,192,121497,1,0,0:0:0:0:
256,192,121572,1,8,0:0:0:0:
256,192,121647,1,8,0:0:0:0:
256,192,121722,1,0,0:0:0:0:
256,192,121872,1,8,0:0:0:0:
256,192,122022,1,0,0:0:0:0:
256,192,122172,1,8,0:0:0:0:
256,192,122472,1,8,0:0:0:0:
256,192,122622,1,0,0:0:0:0:
256,192,122772,1,8,0:0:0:0:
256,192,122847,1,8,0:0:0:0:
256,192,122922,1,8,0:0:0:0:
256,192,123072,1,0,0:0:0:0:
256,192,123222,1,8,0:0:0:0:
256,192,123297,1,8,0:0:0:0:
256,192,123372,1,0,0:0:0:0:
256,192,123672,1,12,0:0:0:0:
256,192,123972,1,8,0:0:0:0:
256,192,124122,1,0,0:0:0:0:
256,192,124197,1,8,0:0:0:0:
256,192,124272,1,8,0:0:0:0:
256,192,124422,1,0,0:0:0:0:
256,192,124572,1,8,0:0:0:0:
256,192,124722,1,8,0:0:0:0:
256,192,124872,1,0,0:0:0:0:
256,192,125172,1,8,0:0:0:0:
256,192,125472,1,0,0:0:0:0:
256,192,125622,1,8,0:0:0:0:
256,192,125697,1,8,0:0:0:0:
256,192,125772,1,0,0:0:0:0:
256,192,125922,1,8,0:0:0:0:
256,192,126072,1,0,0:0:0:0:
256,192,126147,1,0,0:0:0:0:
256,192,126222,1,0,0:0:0:0:
256,192,126297,1,0,0:0:0:0:
256,192,126372,1,8,0:0:0:0:
256,192,126522,1,0,0:0:0:0:
256,192,126672,1,8,0:0:0:0:
256,192,126972,1,8,0:0:0:0:
256,192,127122,1,0,0:0:0:0:
256,192,127272,1,8,0:0:0:0:
256,192,127347,1,0,0:0:0:0:
256,192,127422,1,8,0:0:0:0:
256,192,127572,1,0,0:0:0:0:
256,192,127722,1,0,0:0:0:0:
256,192,127872,1,8,0:0:0:0:
256,192,128022,1,0,0:0:0:0:
256,192,128097,1,0,0:0:0:0:
256,192,128172,1,8,0:0:0:0:
256,192,128472,1,8,0:0:0:0:
256,192,128772,1,8,0:0:0:0:
256,192,128922,1,0,0:0:0:0:
256,192,128997,1,8,0:0:0:0:
256,192,129072,1,8,0:0:0:0:
256,192,129222,1,0,0:0:0:0:
256,192,129372,1,8,0:0:0:0:
256,192,129522,1,8,0:0:0:0:
256,192,129672,1,0,0:0:0:0:
256,192,129972,1,8,0:0:0:0:
256,192,130272,1,8,0:0:0:0:
256,192,130422,1,0,0:0:0:0:
256,192,130497,1,0,0:0:0:0:
256,192,130572,1,0,0:0:0:0:
256,192,130722,1,8,0:0:0:0:
256,192,130872,1,0,0:0:0:0:
256,192,131022,1,8,0:0:0:0:
256,192,131097,1,0,0:0:0:0:
256,192,131172,1,8,0:0:0:0:
256,192,131247,1,8,0:0:0:0:
256,192,131322,1,0,0:0:0:0:
256,192,131472,1,8,0:0:0:0:
256,192,131622,1,0,0:0:0:0:
256,192,131772,1,8,0:0:0:0:
256,192,132072,1,8,0:0:0:0:
256,192,132222,1,0,0:0:0:0:
256,192,132372,1,0,0:0:0:0:
256,192,132672,1,12,0:0:0:0:
