osu file format v14

[General]
AudioFilename: audio.mp3
AudioLeadIn: 0
PreviewTime: 94422
Countdown: 0
SampleSet: None
StackLeniency: 0.7
Mode: 1
LetterboxInBreaks: 0
WidescreenStoryboard: 1

[Editor]
Bookmarks: 10872,44472,52572,62172,63672,94872,109272,114072,118872,123672,128472
DistanceSpacing: 0.8
BeatDivisor: 1
GridSize: 32
TimelineZoom: 0.3999998

[Metadata]
Title:Minamo no Sakura, Yume wa Sakayume
TitleUnicode:水面の桜、夢は逆夢
Artist:otetsu
ArtistUnicode:otetsu
Creator:alunv
Version:Kantan
Source:
Tags:巡音ルカ megurine luka vocaloid
BeatmapID:1757795
BeatmapSetID:839719

[Difficulty]
HPDrainRate:7
CircleSize:5
OverallDifficulty:2.5
ApproachRate:5
SliderMultiplier:1.4
SliderTickRate:1

[Events]
//Background and Video events
//Break Periods
//Storyboard Layer 0 (Background)
//Storyboard Layer 1 (Fail)
//Storyboard Layer 2 (Pass)
//Storyboard Layer 3 (Foreground)
//Storyboard Sound Samples

[TimingPoints]
1272,300,4,1,0,50,1,0
1272,-133.333333333333,4,1,0,50,0,0
39672,-133.333333333333,4,1,0,80,0,0
44472,-133.333333333333,4,1,0,90,0,0
94872,-133.333333333333,4,1,0,100,0,1
114072,-133.333333333333,4,1,0,90,0,0

[HitObjects]
256,192,1272,5,0,0:0:0:0:
256,192,2472,1,0,0:0:0:0:
256,192,3672,1,8,0:0:0:0:
256,192,4872,1,0,0:0:0:0:
256,192,6072,1,8,0:0:0:0:
256,192,7272,1,0,0:0:0:0:
256,192,8472,12,0,9672,0:0:0:0:
256,192,10872,5,4,0:0:0:0:
256,192,11472,1,0,0:0:0:0:
256,192,12072,1,8,0:0:0:0:
256,192,12672,1,0,0:0:0:0:
256,192,12972,1,0,0:0:0:0:
256,192,13272,1,8,0:0:0:0:
256,192,14472,1,8,0:0:0:0:
256,192,15072,1,0,0:0:0:0:
256,192,15372,1,0,0:0:0:0:
256,192,15672,1,0,0:0:0:0:
256,192,16272,1,8,0:0:0:0:
256,192,16572,1,8,0:0:0:0:
256,192,16872,1,8,0:0:0:0:
256,192,17472,1,0,0:0:0:0:
256,192,18072,1,8,0:0:0:0:
256,192,19272,1,0,0:0:0:0:
256,192,20472,1,4,0:0:0:0:
256,192,21072,1,0,0:0:0:0:
256,192,21672,1,8,0:0:0:0:
256,192,22272,1,0,0:0:0:0:
256,192,22572,1,8,0:0:0:0:
256,192,22872,1,8,0:0:0:0:
256,192,24072,1,8,0:0:0:0:
256,192,24672,1,0,0:0:0:0:
256,192,24972,1,0,0:0:0:0:
256,192,25272,1,0,0:0:0:0:
256,192,25872,1,8,0:0:0:0:
256,192,26472,1,0,0:0:0:0:
256,192,27072,1,0,0:0:0:0:
256,192,27672,1,8,0:0:0:0:
256,192,28872,1,8,0:0:0:0:
256,192,30072,1,4,0:0:0:0:
256,192,30672,1,0,0:0:0:0:
256,192,31272,1,8,0:0:0:0:
256,192,31872,1,0,0:0:0:0:
256,192,32172,1,8,0:0:0:0:
256,192,32472,1,0,0:0:0:0:
256,192,33072,1,8,0:0:0:0:
256,192,33672,1,8,0:0:0:0:
256,192,34872,1,8,0:0:0:0:
256,192,35472,1,0,0:0:0:0:
256,192,36072,1,8,0:0:0:0:
256,192,36672,1,0,0:0:0:0:
256,192,36972,1,0,0:0:0:0:
256,192,37272,1,8,0:0:0:0:
256,192,38472,1,8,0:0:0:0:
256,192,39672,1,4,0:0:0:0:
256,192,40272,1,0,0:0:0:0:
256,192,40872,1,0,0:0:0:0:
256,192,41172,1,0,0:0:0:0:
256,192,41472,1,0,0:0:0:0:
256,192,42072,1,8,0:0:0:0:
256,192,42672,1,8,0:0:0:0:
256,192,43272,12,0,43872,0:0:0:0:
256,192,44472,5,4,0:0:0:0:
256,192,45072,1,8,0:0:0:0:
256,192,45672,1,0,0:0:0:0:
256,192,45972,1,0,0:0:0:0:
256,192,46272,1,8,0:0:0:0:
256,192,46872,1,8,0:0:0:0:
256,192,47472,1,0,0:0:0:0:
256,192,48072,1,0,0:0:0:0:
256,192,48372,1,8,0:0:0:0:
256,192,48672,1,8,0:0:0:0:
256,192,49272,1,0,0:0:0:0:
256,192,50472,1,8,0:0:0:0:
256,192,51072,1,0,0:0:0:0:
256,192,51672,1,8,0:0:0:0:
256,192,52272,1,8,0:0:0:0:
256,192,52872,1,0,0:0:0:0:
256,192,53172,1,0,0:0:0:0:
256,192,53472,1,0,0:0:0:0:
256,192,54072,5,4,0:0:0:0:
256,192,55272,1,0,0:0:0:0:
256,192,55872,1,8,0:0:0:0:
256,192,56472,1,8,0:0:0:0:
256,192,57072,1,0,0:0:0:0:
256,192,57672,1,0,0:0:0:0:
256,192,57972,1,8,0:0:0:0:
256,192,58272,1,8,0:0:0:0:
256,192,58872,1,0,0:0:0:0:
256,192,60072,1,8,0:0:0:0:
256,192,60672,1,0,0:0:0:0:
256,192,61272,1,8,0:0:0:0:
256,192,61872,1,8,0:0:0:0:
256,192,62472,1,0,0:0:0:0:
256,192,62772,1,0,0:0:0:0:
256,192,63072,1,0,0:0:0:0:
256,192,63672,1,4,0:0:0:0:
256,192,64872,1,8,0:0:0:0:
256,192,65472,1,0,0:0:0:0:
256,192,65772,1,0,0:0:0:0:
256,192,66072,1,8,0:0:0:0:
256,192,66672,1,0,0:0:0:0:
256,192,67272,1,8,0:0:0:0:
256,192,68472,1,8,0:0:0:0:
256,192,69072,1,0,0:0:0:0:
256,192,69672,1,8,0:0:0:0:
256,192,69972,1,8,0:0:0:0:
256,192,70272,1,8,0:0:0:0:
256,192,70872,1,0,0:0:0:0:
256,192,71472,1,8,0:0:0:0:
256,192,73272,1,4,0:0:0:0:
256,192,73872,1,8,0:0:0:0:
256,192,74472,1,0,0:0:0:0:
256,192,74772,1,0,0:0:0:0:
256,192,75072,1,0,0:0:0:0:
256,192,75672,1,8,0:0:0:0:
256,192,76272,1,0,0:0:0:0:
256,192,76872,1,8,0:0:0:0:
256,192,78072,1,0,0:0:0:0:
256,192,78672,1,8,0:0:0:0:
256,192,78972,1,0,0:0:0:0:
256,192,79272,1,0,0:0:0:0:
256,192,79872,1,8,0:0:0:0:
256,192,80172,1,8,0:0:0:0:
256,192,80472,1,8,0:0:0:0:
256,192,81672,1,0,0:0:0:0:
256,192,82872,1,4,0:0:0:0:
256,192,84072,1,8,0:0:0:0:
256,192,84672,1,0,0:0:0:0:
256,192,84972,1,8,0:0:0:0:
256,192,85272,1,8,0:0:0:0:
256,192,85872,1,8,0:0:0:0:
256,192,86472,1,0,0:0:0:0:
256,192,87672,1,8,0:0:0:0:
256,192,88272,1,0,0:0:0:0:
256,192,88872,1,8,0:0:0:0:
256,192,89172,1,8,0:0:0:0:
256,192,89472,1,8,0:0:0:0:
256,192,90072,1,0,0:0:0:0:
256,192,90672,1,0,0:0:0:0:
256,192,91272,1,8,0:0:0:0:
256,192,92472,1,4,0:0:0:0:
256,192,93072,1,8,0:0:0:0:
256,192,93672,2,4,L|128:192,2,105.000004005432
256,192,94872,1,12,0:0:0:0:
256,192,95472,1,8,0:0:0:0:
256,192,96072,1,0,0:0:0:0:
256,192,96372,1,0,0:0:0:0:
256,192,96672,1,8,0:0:0:0:
256,192,97272,1,8,0:0:0:0:
256,192,97872,1,0,0:0:0:0:
256,192,98172,1,0,0:0:0:0:
256,192,98472,1,0,0:0:0:0:
256,192,99072,1,8,0:0:0:0:
256,192,99672,1,4,0:0:0:0:
256,192,100272,1,8,0:0:0:0:
256,192,100872,1,8,0:0:0:0:
256,192,101472,1,0,0:0:0:0:
256,192,101772,1,0,0:0:0:0:
256,192,102072,1,0,0:0:0:0:
256,192,102672,1,8,0:0:0:0:
256,192,103272,1,0,0:0:0:0:
256,192,104472,1,4,0:0:0:0:
256,192,105072,1,8,0:0:0:0:
256,192,105672,1,0,0:0:0:0:
256,192,105972,1,0,0:0:0:0:
256,192,106272,1,8,0:0:0:0:
256,192,106872,1,0,0:0:0:0:
256,192,107472,1,8,0:0:0:0:
256,192,107772,1,0,0:0:0:0:
256,192,108072,1,8,0:0:0:0:
256,192,108672,1,0,0:0:0:0:
256,192,109272,1,4,0:0:0:0:
256,192,109872,1,8,0:0:0:0:
256,192,110472,1,8,0:0:0:0:
256,192,111072,1,0,0:0:0:0:
256,192,111372,1,0,0:0:0:0:
256,192,111672,1,0,0:0:0:0:
256,192,112272,1,8,0:0:0:0:
256,192,112872,1,0,0:0:0:0:
256,192,114072,1,4,0:0:0:0:
256,192,114672,1,0,0:0:0:0:
256,192,115272,1,8,0:0:0:0:
256,192,115872,1,8,0:0:0:0:
256,192,116472,1,0,0:0:0:0:
256,192,116772,1,8,0:0:0:0:
256,192,117072,1,0,0:0:0:0:
256,192,117672,1,0,0:0:0:0:
256,192,118272,1,8,0:0:0:0:
256,192,118872,1,4,0:0:0:0:
256,192,119472,1,0,0:0:0:0:
256,192,120072,1,8,0:0:0:0:
256,192,120672,1,8,0:0:0:0:
256,192,121272,1,0,0:0:0:0:
256,192,121572,1,8,0:0:0:0:
256,192,121872,1,8,0:0:0:0:
256,192,122472,1,8,0:0:0:0:
256,192,123672,1,4,0:0:0:0:
256,192,124272,1,0,0:0:0:0:
256,192,124872,1,8,0:0:0:0:
256,192,125472,1,8,0:0:0:0:
256,192,126072,1,0,0:0:0:0:
256,192,126372,1,0,0:0:0:0:
256,192,126672,1,8,0:0:0:0:
256,192,127272,1,8,0:0:0:0:
256,192,127872,1,0,0:0:0:0:
256,192,128472,1,4,0:0:0:0:
256,192,129072,1,0,0:0:0:0:
256,192,129672,1,8,0:0:0:0:
256,192,130272,1,8,0:0:0:0:
256,192,130872,1,8,0:0:0:0:
256,192,131172,1,0,0:0:0:0:
256,192,131472,1,8,0:0:0:0:
256,192,132072,1,0,0:0:0:0:
256,192,132672,1,12,0:0:0:0:
