osu file format v14

[General]
AudioFilename: audio.mp3
AudioLeadIn: 0
PreviewTime: -1
Countdown: 0
SampleSet: Soft
StackLeniency: 1
Mode: 0
LetterboxInBreaks: 0
WidescreenStoryboard: 0

[Editor]
DistanceSpacing: 1.9
BeatDivisor: 12
GridSize: 8
TimelineZoom: 2.4

[Metadata]
Title:ren chon catch
TitleUnicode:ren chon catch
Artist:otaco kjjj
ArtistUnicode:otaco kjjj
Creator:yukilixozo
Version:ren chon izana
Source:non non biyori renge ren chon
Tags:non non biyori renge kawaii desu waifu loli catch
BeatmapID:1278914
BeatmapSetID:605312

[Difficulty]
HPDrainRate:8
CircleSize:5
OverallDifficulty:8.5
ApproachRate:10
SliderMultiplier:1.80000000596047
SliderTickRate:3

[Events]
//Background and Video events
Video,0,"catch.mp4"
0,0,"Non-Non-Biyori-5.png",0,0
//Break Periods
//Storyboard Layer 0 (Background)
//Storyboard Layer 1 (Fail)
//Storyboard Layer 2 (Pass)
//Storyboard Layer 3 (Foreground)
//Storyboard Sound Samples

[TimingPoints]
249.049805073892,103.147724733105,4,2,0,100,1,0

[HitObjects]
136,144,9274,5,0,0:0:0:0:
208,112,9532,1,0,0:0:0:0:
288,168,9764,1,0,0:0:0:0:
280,248,10048,1,0,0:0:0:0:
352,208,10280,1,0,0:0:0:0:
224,216,10512,1,0,0:0:0:0:
208,272,10718,1,0,0:0:0:0:
280,184,10873,1,0,0:0:0:0:
304,280,11002,1,0,0:0:0:0:
376,128,11260,1,0,0:0:0:0:
216,144,11492,1,0,0:0:0:0:
352,240,11672,1,0,0:0:0:0:
208,232,11750,1,0,0:0:0:0:
296,160,12033,1,0,0:0:0:0:
256,280,12188,1,0,0:0:0:0:
392,176,12317,1,0,0:0:0:0:
208,136,12523,1,0,0:0:0:0:
120,256,12626,1,0,0:0:0:0:
328,232,12729,1,0,0:0:0:0:
152,192,12910,1,0,0:0:0:0:
296,136,13039,1,0,0:0:0:0:
248,192,13400,5,0,0:0:0:0:
312,288,13555,1,0,0:0:0:0:
456,192,13684,1,0,0:0:0:0:
368,152,13916,1,0,0:0:0:0:
256,64,14148,1,0,0:0:0:0:
120,104,14328,1,0,0:0:0:0:
112,208,14535,1,0,0:0:0:0:
320,288,14767,1,0,0:0:0:0:
416,112,15102,1,0,0:0:0:0:
232,168,15308,1,0,0:0:0:0:
176,304,15566,1,0,0:0:0:0:
104,176,15695,1,0,0:0:0:0:
192,104,15979,1,0,0:0:0:0:
376,176,16082,1,0,0:0:0:0:
280,272,16546,1,0,0:0:0:0:
224,176,17113,1,0,0:0:0:0:
376,96,17294,1,0,0:0:0:0:
392,248,17526,1,0,0:0:0:0:
272,72,17681,1,0,0:0:0:0:
128,128,17887,1,0,0:0:0:0:
384,120,18274,1,0,0:0:0:0:
304,272,18377,1,0,0:0:0:0:
456,88,18557,1,0,0:0:0:0:
176,96,18815,1,0,0:0:0:0:
336,200,19099,1,0,0:0:0:0:
400,320,19331,1,0,0:0:0:0:
432,192,19589,1,0,0:0:0:0:
216,304,19692,1,0,0:0:0:0:
240,72,20027,1,0,0:0:0:0:
96,80,20182,1,0,0:0:0:0:
336,48,20388,1,0,0:0:0:0:
112,232,20646,1,0,0:0:0:0:
136,224,20827,1,0,0:0:0:0:
224,232,21059,1,0,0:0:0:0:
296,288,21316,1,0,0:0:0:0:
336,96,21394,1,0,0:0:0:0:
392,184,21600,5,0,0:0:0:0:
224,72,21729,1,0,0:0:0:0:
56,248,21910,5,0,0:0:0:0:
232,176,22245,1,0,0:0:0:0:
360,88,22400,1,0,0:0:0:0:
208,320,22606,1,0,0:0:0:0:
144,112,22838,1,0,0:0:0:0:
312,240,23147,1,0,0:0:0:0:
120,304,23354,1,0,0:0:0:0:
200,176,23612,1,0,0:0:0:0:
248,72,23740,1,0,0:0:0:0:
376,232,23973,1,0,0:0:0:0:
448,104,24101,1,0,0:0:0:0:
128,112,24334,1,0,0:0:0:0:
208,160,24617,1,0,0:0:0:0:
288,176,25185,5,0,0:0:0:0:
248,80,25339,1,0,0:0:0:0:
352,216,25520,1,0,0:0:0:0:
192,184,25700,1,0,0:0:0:0:
344,120,25958,1,0,0:0:0:0:
256,72,26293,1,0,0:0:0:0:
72,176,26371,1,0,0:0:0:0:
432,296,26603,1,0,0:0:0:0:
488,96,26835,1,0,0:0:0:0:
344,104,27067,1,0,0:0:0:0:
192,64,27299,1,0,0:0:0:0:
96,288,27763,1,0,0:0:0:0:
368,296,27995,1,0,0:0:0:0:
360,152,28150,1,0,0:0:0:0:
504,256,28356,1,0,0:0:0:0:
416,320,28846,1,0,0:0:0:0:
304,152,29181,1,0,0:0:0:0:
256,288,29414,1,0,0:0:0:0:
464,128,29568,1,0,0:0:0:0:
160,176,29723,1,0,0:0:0:0:
336,288,29955,1,0,0:0:0:0:
360,128,30084,1,0,0:0:0:0:
120,304,30187,1,0,0:0:0:0:
256,160,30290,1,0,0:0:0:0:
256,160,30419,1,0,0:0:0:0:
224,112,30522,1,0,0:0:0:0:
112,88,30677,1,0,0:0:0:0:
144,208,30987,1,0,0:0:0:0:
168,216,31141,1,0,0:0:0:0:
176,56,31425,1,0,0:0:0:0:
264,304,31657,1,0,0:0:0:0:
312,152,31966,1,0,0:0:0:0:
160,200,32147,1,0,0:0:0:0:
400,112,32353,1,0,0:0:0:0:
376,240,32585,1,0,0:0:0:0:
208,64,32766,1,0,0:0:0:0:
32,256,32895,1,0,0:0:0:0:
248,176,33024,1,0,0:0:0:0:
264,296,33178,1,0,0:0:0:0:
440,144,33411,1,0,0:0:0:0:
296,120,33823,1,0,0:0:0:0:
168,128,34029,1,0,0:0:0:0:
272,72,34184,1,0,0:0:0:0:
416,256,34442,1,0,0:0:0:0:
344,24,34597,1,0,0:0:0:0:
328,144,34803,1,0,0:0:0:0:
176,232,35009,1,0,0:0:0:0:
272,280,35190,1,0,0:0:0:0:
112,64,35422,1,0,0:0:0:0:
368,176,35602,1,0,0:0:0:0:
288,224,35783,1,0,0:0:0:0:
224,144,36118,1,0,0:0:0:0:
296,336,36221,1,0,0:0:0:0:
408,112,36350,1,0,0:0:0:0:
80,184,36479,1,0,0:0:0:0:
464,232,36608,1,0,0:0:0:0:
280,72,36711,1,0,0:0:0:0:
432,96,36969,5,0,0:0:0:0:
208,256,37150,1,0,0:0:0:0:
104,88,37408,5,0,0:0:0:0:
256,176,37511,1,0,0:0:0:0:
488,128,37691,1,0,0:0:0:0:
344,208,37820,1,0,0:0:0:0:
360,96,38001,1,0,0:0:0:0:
208,264,38181,1,0,0:0:0:0:
208,64,38362,1,0,0:0:0:0:
304,272,38516,1,0,0:0:0:0:
416,208,38671,1,0,0:0:0:0:
464,104,38852,5,0,0:0:0:0:
256,192,39135,12,0,39342,0:0:0:0:
336,160,39445,5,0,0:0:0:0:
176,72,39651,1,0,0:0:0:0:
192,272,39935,1,0,0:0:0:0:
312,152,40193,5,0,0:0:0:0:
56,224,40321,1,0,0:0:0:0:
456,256,40476,1,0,0:0:0:0:
480,88,40708,1,0,0:0:0:0:
184,80,40915,1,0,0:0:0:0:
208,272,41198,1,0,0:0:0:0:
352,192,41637,5,0,0:0:0:0:
256,88,41817,1,0,0:0:0:0:
80,224,42075,1,0,0:0:0:0:
240,296,42230,1,0,0:0:0:0:
480,128,42462,1,0,0:0:0:0:
320,72,42694,1,0,0:0:0:0:
160,56,42874,1,0,0:0:0:0:
40,136,43055,1,0,0:0:0:0:
232,224,43261,1,0,0:0:0:0:
104,344,43493,1,0,0:0:0:0:
408,80,43725,1,0,0:0:0:0:
152,64,43957,1,0,0:0:0:0:
360,256,44112,1,0,0:0:0:0:
448,256,44241,1,0,0:0:0:0:
64,112,44447,1,0,0:0:0:0:
472,80,44628,1,0,0:0:0:0:
224,264,44731,5,0,0:0:0:0:
160,56,44808,1,0,0:0:0:0:
392,104,44989,1,0,0:0:0:0:
48,296,45092,1,0,0:0:0:0:
32,112,45221,1,0,0:0:0:0:
200,232,45556,1,0,0:0:0:0:
368,176,45711,1,0,0:0:0:0:
160,160,45840,1,0,0:0:0:0:
336,104,46124,1,0,0:0:0:0:
176,80,46407,1,0,0:0:0:0:
288,32,46536,1,0,0:0:0:0:
240,192,46768,1,0,0:0:0:0:
408,256,47000,1,0,0:0:0:0:
400,112,47284,1,0,0:0:0:0:
136,104,47490,1,0,0:0:0:0:
104,272,47748,1,0,0:0:0:0:
224,80,47851,1,0,0:0:0:0:
280,168,48135,1,0,0:0:0:0:
120,192,48264,1,0,0:0:0:0:
208,352,48496,1,0,0:0:0:0:
184,176,48728,5,0,0:0:0:0:
256,72,49270,1,0,0:0:0:0:
208,200,49527,1,0,0:0:0:0:
392,112,49682,1,0,0:0:0:0:
384,336,49785,1,0,0:0:0:0:
112,112,49888,1,0,0:0:0:0:
328,232,50069,1,0,0:0:0:0:
104,256,50404,1,0,0:0:0:0:
424,192,50559,1,0,0:0:0:0:
224,136,50714,1,0,0:0:0:0:
64,40,50971,1,0,0:0:0:0:
72,312,51255,1,0,0:0:0:0:
400,312,51513,1,0,0:0:0:0:
224,208,51719,1,0,0:0:0:0:
328,160,51951,1,0,0:0:0:0:
80,112,52132,1,0,0:0:0:0:
256,192,52287,12,0,52931,0:0:0:0:
296,232,53060,5,0,0:0:0:0:
80,112,53499,1,0,0:0:0:0:
184,40,53756,1,0,0:0:0:0:
384,328,53885,1,0,0:0:0:0:
488,88,54143,1,0,0:0:0:0:
72,152,54375,1,0,0:0:0:0:
248,240,54556,1,0,0:0:0:0:
424,312,54762,1,0,0:0:0:0:
176,104,55020,1,0,0:0:0:0:
96,56,55278,1,0,0:0:0:0:
448,320,55536,1,0,0:0:0:0:
424,80,55768,1,0,0:0:0:0:
112,168,55948,1,0,0:0:0:0:
64,32,56155,1,0,0:0:0:0:
64,336,56284,1,0,0:0:0:0:
184,208,56541,5,0,0:0:0:0:
64,168,56774,1,0,0:0:0:0:
384,160,57315,1,0,0:0:0:0:
240,184,57521,1,0,0:0:0:0:
336,96,57753,1,0,0:0:0:0:
312,232,57882,1,0,0:0:0:0:
416,120,58140,1,0,0:0:0:0:
384,208,58450,1,0,0:0:0:0:
184,240,58579,1,0,0:0:0:0:
320,128,58759,1,0,0:0:0:0:
296,256,59017,1,0,0:0:0:0:
232,128,59249,1,0,0:0:0:0:
336,120,59507,1,0,0:0:0:0:
96,48,59920,1,0,0:0:0:0:
176,232,60203,1,0,0:0:0:0:
272,184,60384,1,0,0:0:0:0:
232,248,60616,5,0,0:0:0:0:
392,152,60719,1,0,0:0:0:0:
104,216,60848,1,0,0:0:0:0:
288,112,60977,1,0,0:0:0:0:
256,192,61003,12,0,65021,0:0:0:0:
