osu file format v14

[General]
AudioFilename: Dan_gamma.mp3
AudioLeadIn: 0
PreviewTime: 23583
Countdown: 0
SampleSet: Soft
StackLeniency: 0.7
Mode: 3
LetterboxInBreaks: 0
SpecialStyle: 0
WidescreenStoryboard: 1

[Editor]
DistanceSpacing: 0.3
BeatDivisor: 4
GridSize: 32
TimelineZoom: 2.2

[Metadata]
Title:Regular Dan Phase III
TitleUnicode:Regular Dan Phase III
Artist:osu!mania 7K Dan Course
ArtistUnicode:osu!mania 7K Dan Course
Creator:Jinjin
Version:Gamma Dan
Source:
Tags:rain- blocko jinjin spoonguy scytheleg gazer stellabee ubiquity ueotan mario paint time regression mix for bms helblinde solace of oblivion samba master satoh land puru toki maidable remix beta blue white crazystars getty vs dj dia fox4 raize shk identity part u1 high-speed egoism 440 vertex gamma silvia leaf paraclete manabu namiki tenshi true final boss goreshit najimi breakers dj technorch nijuu silentroom finixe rokina icicle stinger lunaticsounds rinjuu ereharmonika remixed by kors k der wald frums we want to run eleharmonica
BeatmapID:1979885
BeatmapSetID:930218

[Difficulty]
HPDrainRate:8
CircleSize:7
OverallDifficulty:8.5
ApproachRate:5
SliderMultiplier:1.4
SliderTickRate:1

[Events]
//Background and Video events
0,0,"Dan_Gamma.png",0,0
//Break Periods
2,111641,122044
2,215353,228096
2,348680,359056
//Storyboard Layer 0 (Background)
//Storyboard Layer 1 (Fail)
//Storyboard Layer 2 (Pass)
//Storyboard Layer 3 (Foreground)
//Storyboard Layer 4 (Overlay)
//Storyboard Sound Samples

[TimingPoints]
3441,428.571428571429,4,2,0,0,1,0
3441,-66.6666666666667,4,2,0,0,0,0
123244,272.727272727273,4,2,0,0,1,0
123244,-105.263157894737,4,2,0,0,0,0
229296,200,4,2,0,0,1,0
229296,-142.857142857143,4,2,0,0,0,0
293280,200,4,2,0,0,1,0
293280,-142.857142857143,4,2,0,0,0,0
360256,285.714285714286,4,2,0,0,1,0

[HitObjects]
329,192,3441,5,0,0:0:0:0:
475,192,3441,1,0,0:0:0:0:
109,192,3441,1,0,0:0:0:0:
36,192,3441,1,0,0:0:0:0:
402,192,3548,1,0,0:0:0:0:
475,192,3548,1,0,0:0:0:0:
182,192,3548,1,0,0:0:0:0:
329,192,3655,1,0,0:0:0:0:
36,192,3655,1,0,0:0:0:0:
109,192,3655,1,0,0:0:0:0:
256,192,3762,1,0,0:0:0:0:
36,192,3869,1,0,0:0:0:0:
182,192,3869,1,0,0:0:0:0:
402,192,3869,1,0,0:0:0:0:
475,192,3869,1,0,0:0:0:0:
182,192,3976,1,0,0:0:0:0:
36,192,3976,1,0,0:0:0:0:
329,192,3976,1,0,0:0:0:0:
109,192,4083,1,0,0:0:0:0:
256,192,4083,1,0,0:0:0:0:
475,192,4083,1,0,0:0:0:0:
402,192,4083,1,0,0:0:0:0:
256,192,4191,1,0,0:0:0:0:
402,192,4191,1,0,0:0:0:0:
182,192,4298,1,0,0:0:0:0:
36,192,4298,1,0,0:0:0:0:
402,192,4298,1,0,0:0:0:0:
475,192,4405,1,0,0:0:0:0:
329,192,4405,1,0,0:0:0:0:
182,192,4512,1,0,0:0:0:0:
329,192,4512,1,0,0:0:0:0:
109,192,4512,1,0,0:0:0:0:
256,192,4619,1,0,0:0:0:0:
36,192,4726,1,0,0:0:0:0:
109,192,4726,1,0,0:0:0:0:
329,192,4726,1,0,0:0:0:0:
475,192,4726,1,0,0:0:0:0:
109,192,4833,1,0,0:0:0:0:
475,192,4833,1,0,0:0:0:0:
256,192,4833,1,0,0:0:0:0:
402,192,4941,1,0,0:0:0:0:
182,192,4941,1,0,0:0:0:0:
475,192,5048,1,0,0:0:0:0:
182,192,5048,1,0,0:0:0:0:
36,192,5048,1,0,0:0:0:0:
109,192,5155,1,0,0:0:0:0:
36,192,5155,1,0,0:0:0:0:
256,192,5155,1,0,0:0:0:0:
402,192,5155,1,0,0:0:0:0:
475,192,5262,1,0,0:0:0:0:
329,192,5262,1,0,0:0:0:0:
182,192,5369,1,0,0:0:0:0:
329,192,5369,1,0,0:0:0:0:
36,192,5369,1,0,0:0:0:0:
256,192,5476,1,0,0:0:0:0:
109,192,5583,1,0,0:0:0:0:
182,192,5583,1,0,0:0:0:0:
402,192,5583,1,0,0:0:0:0:
475,192,5583,1,0,0:0:0:0:
329,192,5691,1,0,0:0:0:0:
182,192,5691,1,0,0:0:0:0:
36,192,5798,1,0,0:0:0:0:
109,192,5798,1,0,0:0:0:0:
256,192,5798,1,0,0:0:0:0:
402,192,5798,1,0,0:0:0:0:
475,192,5798,1,0,0:0:0:0:
256,192,5905,1,0,0:0:0:0:
36,192,5905,1,0,0:0:0:0:
475,192,6012,1,0,0:0:0:0:
36,192,6012,1,0,0:0:0:0:
182,192,6012,1,0,0:0:0:0:
402,192,6012,1,0,0:0:0:0:
182,192,6119,1,0,0:0:0:0:
329,192,6119,1,0,0:0:0:0:
109,192,6226,1,0,0:0:0:0:
36,192,6226,1,0,0:0:0:0:
329,192,6226,1,0,0:0:0:0:
402,192,6226,1,0,0:0:0:0:
475,192,6226,1,0,0:0:0:0:
182,192,6333,1,0,0:0:0:0:
36,192,6441,1,0,0:0:0:0:
256,192,6441,1,0,0:0:0:0:
109,192,6441,1,0,0:0:0:0:
329,192,6441,1,0,0:0:0:0:
256,192,6655,1,0,0:0:0:0:
402,192,6655,1,0,0:0:0:0:
475,192,6655,1,0,0:0:0:0:
182,192,6655,1,0,0:0:0:0:
36,192,6869,1,0,0:0:0:0:
182,192,6869,1,0,0:0:0:0:
475,192,6869,1,0,0:0:0:0:
329,192,6869,1,0,0:0:0:0:
475,192,6976,1,0,0:0:0:0:
256,192,6976,1,0,0:0:0:0:
109,192,6976,1,0,0:0:0:0:
36,192,7083,1,0,0:0:0:0:
329,192,7083,1,0,0:0:0:0:
402,192,7083,1,0,0:0:0:0:
182,192,7083,1,0,0:0:0:0:
329,192,7191,1,0,0:0:0:0:
256,192,7298,1,0,0:0:0:0:
109,192,7298,1,0,0:0:0:0:
402,192,7298,1,0,0:0:0:0:
475,192,7298,1,0,0:0:0:0:
109,192,7405,1,0,0:0:0:0:
36,192,7512,1,0,0:0:0:0:
329,192,7512,1,0,0:0:0:0:
402,192,7512,1,0,0:0:0:0:
475,192,7512,1,0,0:0:0:0:
182,192,7512,1,0,0:0:0:0:
182,192,7619,1,0,0:0:0:0:
329,192,7619,1,0,0:0:0:0:
109,192,7726,1,0,0:0:0:0:
475,192,7726,1,0,0:0:0:0:
402,192,7726,1,0,0:0:0:0:
182,192,7833,1,0,0:0:0:0:
475,192,7833,1,0,0:0:0:0:
109,192,7941,1,0,0:0:0:0:
36,192,7941,1,0,0:0:0:0:
256,192,7941,1,0,0:0:0:0:
402,192,7941,1,0,0:0:0:0:
109,192,8048,1,0,0:0:0:0:
329,192,8048,1,0,0:0:0:0:
182,192,8155,1,0,0:0:0:0:
36,192,8155,1,0,0:0:0:0:
402,192,8155,1,0,0:0:0:0:
475,192,8155,1,0,0:0:0:0:
182,192,8262,1,0,0:0:0:0:
256,192,8369,1,0,0:0:0:0:
402,192,8369,1,0,0:0:0:0:
475,192,8369,1,0,0:0:0:0:
109,192,8369,1,0,0:0:0:0:
256,192,8476,1,0,0:0:0:0:
36,192,8476,1,0,0:0:0:0:
329,192,8583,1,0,0:0:0:0:
109,192,8583,1,0,0:0:0:0:
182,192,8583,1,0,0:0:0:0:
475,192,8583,1,0,0:0:0:0:
402,192,8583,1,0,0:0:0:0:
329,192,8691,1,0,0:0:0:0:
182,192,8691,1,0,0:0:0:0:
109,192,8798,1,0,0:0:0:0:
256,192,8798,1,0,0:0:0:0:
475,192,8798,1,0,0:0:0:0:
402,192,8798,1,0,0:0:0:0:
36,192,8798,1,0,0:0:0:0:
109,192,8905,1,0,0:0:0:0:
36,192,8905,1,0,0:0:0:0:
329,192,8905,1,0,0:0:0:0:
182,192,9012,1,0,0:0:0:0:
256,192,9012,1,0,0:0:0:0:
402,192,9012,1,0,0:0:0:0:
475,192,9012,1,0,0:0:0:0:
182,192,9119,1,0,0:0:0:0:
402,192,9119,1,0,0:0:0:0:
36,192,9119,1,0,0:0:0:0:
109,192,9226,1,0,0:0:0:0:
329,192,9226,1,0,0:0:0:0:
475,192,9226,1,0,0:0:0:0:
109,192,9333,1,0,0:0:0:0:
329,192,9333,1,0,0:0:0:0:
182,192,9441,1,0,0:0:0:0:
402,192,9441,1,0,0:0:0:0:
36,192,9441,1,0,0:0:0:0:
475,192,9441,1,0,0:0:0:0:
36,192,9548,1,0,0:0:0:0:
475,192,9548,1,0,0:0:0:0:
256,192,9548,1,0,0:0:0:0:
109,192,9655,1,0,0:0:0:0:
329,192,9655,1,0,0:0:0:0:
402,192,9655,1,0,0:0:0:0:
182,192,9655,1,0,0:0:0:0:
182,192,9762,1,0,0:0:0:0:
329,192,9762,1,0,0:0:0:0:
109,192,9869,1,0,0:0:0:0:
402,192,9869,1,0,0:0:0:0:
256,192,9869,1,0,0:0:0:0:
109,192,9976,1,0,0:0:0:0:
402,192,9976,1,0,0:0:0:0:
36,192,10083,1,0,0:0:0:0:
182,192,10083,1,0,0:0:0:0:
329,192,10083,1,0,0:0:0:0:
475,192,10083,1,0,0:0:0:0:
182,192,10191,1,0,0:0:0:0:
329,192,10191,1,0,0:0:0:0:
36,192,10298,1,0,0:0:0:0:
256,192,10298,1,0,0:0:0:0:
402,192,10298,1,0,0:0:0:0:
475,192,10298,1,0,0:0:0:0:
109,192,10298,1,0,0:0:0:0:
36,192,10405,1,0,0:0:0:0:
475,192,10405,1,0,0:0:0:0:
256,192,10405,1,0,0:0:0:0:
402,192,10405,1,0,0:0:0:0:
475,192,10512,1,0,0:0:0:0:
36,192,10512,1,0,0:0:0:0:
256,192,10512,1,0,0:0:0:0:
402,192,10512,1,0,0:0:0:0:
109,192,10726,1,0,0:0:0:0:
36,192,10726,1,0,0:0:0:0:
256,192,10726,1,0,0:0:0:0:
402,192,10726,1,0,0:0:0:0:
36,192,10941,1,0,0:0:0:0:
182,192,10941,1,0,0:0:0:0:
329,192,10941,1,0,0:0:0:0:
402,192,11155,1,0,0:0:0:0:
475,192,11155,1,0,0:0:0:0:
109,192,11155,1,0,0:0:0:0:
182,192,11155,1,0,0:0:0:0:
402,192,11262,1,0,0:0:0:0:
475,192,11262,1,0,0:0:0:0:
109,192,11262,1,0,0:0:0:0:
182,192,11262,1,0,0:0:0:0:
402,192,11369,1,0,0:0:0:0:
475,192,11369,1,0,0:0:0:0:
109,192,11369,1,0,0:0:0:0:
256,192,11369,1,0,0:0:0:0:
182,192,11369,1,0,0:0:0:0:
182,192,11583,1,0,0:0:0:0:
36,192,11583,1,0,0:0:0:0:
329,192,11583,1,0,0:0:0:0:
475,192,11583,1,0,0:0:0:0:
402,192,11691,1,0,0:0:0:0:
329,192,11798,1,0,0:0:0:0:
182,192,11798,1,0,0:0:0:0:
109,192,11798,1,0,0:0:0:0:
109,192,12012,1,0,0:0:0:0:
36,192,12012,1,0,0:0:0:0:
256,192,12012,1,0,0:0:0:0:
402,192,12012,1,0,0:0:0:0:
475,192,12012,1,0,0:0:0:0:
109,192,12119,1,0,0:0:0:0:
256,192,12119,1,0,0:0:0:0:
402,192,12119,1,0,0:0:0:0:
475,192,12119,1,0,0:0:0:0:
402,192,12226,1,0,0:0:0:0:
256,192,12226,1,0,0:0:0:0:
109,192,12226,1,0,0:0:0:0:
475,192,12226,1,0,0:0:0:0:
182,192,12441,1,0,0:0:0:0:
329,192,12441,1,0,0:0:0:0:
402,192,12441,1,0,0:0:0:0:
475,192,12441,1,0,0:0:0:0:
256,192,12655,1,0,0:0:0:0:
475,192,12655,1,0,0:0:0:0:
402,192,12655,1,0,0:0:0:0:
109,192,12869,1,0,0:0:0:0:
36,192,12869,1,0,0:0:0:0:
329,192,12869,1,0,0:0:0:0:
182,192,12869,1,0,0:0:0:0:
329,192,12976,1,0,0:0:0:0:
109,192,12976,1,0,0:0:0:0:
36,192,12976,1,0,0:0:0:0:
182,192,12976,1,0,0:0:0:0:
36,192,13083,1,0,0:0:0:0:
109,192,13083,1,0,0:0:0:0:
329,192,13083,1,0,0:0:0:0:
475,192,13083,1,0,0:0:0:0:
182,192,13083,1,0,0:0:0:0:
256,192,13191,1,0,0:0:0:0:
402,192,13298,1,0,0:0:0:0:
475,192,13298,1,0,0:0:0:0:
182,192,13298,1,0,0:0:0:0:
109,192,13298,1,0,0:0:0:0:
329,192,13512,1,0,0:0:0:0:
182,192,13512,1,0,0:0:0:0:
109,192,13512,1,0,0:0:0:0:
329,192,13619,1,0,0:0:0:0:
109,192,13726,1,0,0:0:0:0:
256,192,13726,1,0,0:0:0:0:
475,192,13726,1,0,0:0:0:0:
402,192,13726,1,0,0:0:0:0:
36,192,13726,1,0,0:0:0:0:
475,192,13833,1,0,0:0:0:0:
256,192,13833,1,0,0:0:0:0:
109,192,13833,1,0,0:0:0:0:
36,192,13833,1,0,0:0:0:0:
109,192,13941,1,0,0:0:0:0:
256,192,13941,1,0,0:0:0:0:
475,192,13941,1,0,0:0:0:0:
36,192,13941,1,0,0:0:0:0:
182,192,14155,1,0,0:0:0:0:
36,192,14155,1,0,0:0:0:0:
475,192,14155,1,0,0:0:0:0:
402,192,14155,1,0,0:0:0:0:
182,192,14369,1,0,0:0:0:0:
36,192,14369,1,0,0:0:0:0:
329,192,14369,1,0,0:0:0:0:
402,192,14476,1,0,0:0:0:0:
109,192,14583,1,0,0:0:0:0:
329,192,14583,1,0,0:0:0:0:
256,192,14583,1,0,0:0:0:0:
36,192,14583,1,0,0:0:0:0:
329,192,14691,1,0,0:0:0:0:
109,192,14691,1,0,0:0:0:0:
256,192,14691,1,0,0:0:0:0:
36,192,14691,1,0,0:0:0:0:
109,192,14798,1,0,0:0:0:0:
329,192,14798,1,0,0:0:0:0:
256,192,14798,1,0,0:0:0:0:
475,192,14798,1,0,0:0:0:0:
36,192,14798,1,0,0:0:0:0:
182,192,15012,1,0,0:0:0:0:
36,192,15012,1,0,0:0:0:0:
402,192,15012,1,0,0:0:0:0:
475,192,15012,1,0,0:0:0:0:
182,192,15119,1,0,0:0:0:0:
109,192,15226,1,0,0:0:0:0:
36,192,15226,1,0,0:0:0:0:
329,192,15226,1,0,0:0:0:0:
182,192,15441,1,0,0:0:0:0:
256,192,15441,1,0,0:0:0:0:
402,192,15441,1,0,0:0:0:0:
475,192,15441,1,0,0:0:0:0:
329,192,15441,1,0,0:0:0:0:
182,192,15548,1,0,0:0:0:0:
402,192,15548,1,0,0:0:0:0:
475,192,15548,1,0,0:0:0:0:
329,192,15548,1,0,0:0:0:0:
182,192,15655,1,0,0:0:0:0:
402,192,15655,1,0,0:0:0:0:
475,192,15655,1,0,0:0:0:0:
329,192,15655,1,0,0:0:0:0:
109,192,15869,1,0,0:0:0:0:
36,192,15869,1,0,0:0:0:0:
329,192,15869,1,0,0:0:0:0:
475,192,15869,1,0,0:0:0:0:
256,192,15976,1,0,0:0:0:0:
329,192,16083,1,0,0:0:0:0:
475,192,16083,1,0,0:0:0:0:
182,192,16083,1,0,0:0:0:0:
109,192,16083,1,0,0:0:0:0:
182,192,16191,1,0,0:0:0:0:
329,192,16298,1,0,0:0:0:0:
36,192,16298,1,0,0:0:0:0:
109,192,16298,1,0,0:0:0:0:
402,192,16298,1,0,0:0:0:0:
329,192,16405,1,0,0:0:0:0:
109,192,16405,1,0,0:0:0:0:
36,192,16405,1,0,0:0:0:0:
402,192,16405,1,0,0:0:0:0:
329,192,16512,1,0,0:0:0:0:
36,192,16512,1,0,0:0:0:0:
109,192,16512,1,0,0:0:0:0:
475,192,16512,1,0,0:0:0:0:
402,192,16512,1,0,0:0:0:0:
256,192,16619,1,0,0:0:0:0:
182,192,16726,1,0,0:0:0:0:
402,192,16726,1,0,0:0:0:0:
475,192,16726,1,0,0:0:0:0:
36,192,16726,1,0,0:0:0:0:
182,192,16833,1,0,0:0:0:0:
329,192,16833,1,0,0:0:0:0:
182,192,16941,1,0,0:0:0:0:
402,192,16941,1,0,0:0:0:0:
256,192,16941,1,0,0:0:0:0:
182,192,17048,1,0,0:0:0:0:
402,192,17048,1,0,0:0:0:0:
109,192,17155,1,0,0:0:0:0:
36,192,17155,1,0,0:0:0:0:
256,192,17155,1,0,0:0:0:0:
329,192,17155,1,0,0:0:0:0:
475,192,17155,1,0,0:0:0:0:
256,192,17262,1,0,0:0:0:0:
36,192,17262,1,0,0:0:0:0:
475,192,17262,1,0,0:0:0:0:
182,192,17262,1,0,0:0:0:0:
256,192,17369,1,0,0:0:0:0:
36,192,17369,1,0,0:0:0:0:
475,192,17369,1,0,0:0:0:0:
182,192,17369,1,0,0:0:0:0:
329,192,17476,1,0,0:0:0:0:
182,192,17583,1,0,0:0:0:0:
109,192,17583,1,0,0:0:0:0:
402,192,17583,1,0,0:0:0:0:
475,192,17583,1,0,0:0:0:0:
36,192,17583,1,0,0:0:0:0:
256,192,17691,1,0,0:0:0:0:
36,192,17798,1,0,0:0:0:0:
182,192,17798,1,0,0:0:0:0:
329,192,17798,1,0,0:0:0:0:
182,192,17905,1,0,0:0:0:0:
402,192,17905,1,0,0:0:0:0:
109,192,18012,1,0,0:0:0:0:
36,192,18012,1,0,0:0:0:0:
256,192,18012,1,0,0:0:0:0:
475,192,18012,1,0,0:0:0:0:
329,192,18012,1,0,0:0:0:0:
256,192,18119,1,0,0:0:0:0:
109,192,18119,1,0,0:0:0:0:
402,192,18119,1,0,0:0:0:0:
36,192,18119,1,0,0:0:0:0:
109,192,18226,1,0,0:0:0:0:
256,192,18226,1,0,0:0:0:0:
475,192,18226,1,0,0:0:0:0:
329,192,18226,1,0,0:0:0:0:
182,192,18333,1,0,0:0:0:0:
36,192,18441,1,0,0:0:0:0:
109,192,18441,1,0,0:0:0:0:
329,192,18441,1,0,0:0:0:0:
475,192,18441,1,0,0:0:0:0:
109,192,18548,1,0,0:0:0:0:
36,192,18548,1,0,0:0:0:0:
256,192,18548,1,0,0:0:0:0:
182,192,18655,1,0,0:0:0:0:
402,192,18655,1,0,0:0:0:0:
475,192,18655,1,0,0:0:0:0:
182,192,18762,1,0,0:0:0:0:
109,192,18869,1,0,0:0:0:0:
36,192,18869,1,0,0:0:0:0:
256,192,18869,1,0,0:0:0:0:
475,192,18869,1,0,0:0:0:0:
329,192,18869,1,0,0:0:0:0:
329,192,18976,1,0,0:0:0:0:
475,192,18976,1,0,0:0:0:0:
182,192,18976,1,0,0:0:0:0:
36,192,18976,1,0,0:0:0:0:
329,192,19083,1,0,0:0:0:0:
475,192,19083,1,0,0:0:0:0:
256,192,19083,1,0,0:0:0:0:
109,192,19083,1,0,0:0:0:0:
182,192,19191,1,0,0:0:0:0:
256,192,19298,1,0,0:0:0:0:
109,192,19298,1,0,0:0:0:0:
36,192,19298,1,0,0:0:0:0:
402,192,19298,1,0,0:0:0:0:
475,192,19298,1,0,0:0:0:0:
182,192,19405,1,0,0:0:0:0:
329,192,19405,1,0,0:0:0:0:
36,192,19512,1,0,0:0:0:0:
402,192,19512,1,0,0:0:0:0:
475,192,19512,1,0,0:0:0:0:
182,192,19512,1,0,0:0:0:0:
402,192,19619,1,0,0:0:0:0:
109,192,19726,1,0,0:0:0:0:
36,192,19726,1,0,0:0:0:0:
182,192,19726,1,0,0:0:0:0:
329,192,19726,1,0,0:0:0:0:
109,192,19833,1,0,0:0:0:0:
182,192,19833,1,0,0:0:0:0:
256,192,19833,1,0,0:0:0:0:
402,192,19833,1,0,0:0:0:0:
182,192,19941,1,0,0:0:0:0:
109,192,19941,1,0,0:0:0:0:
329,192,19941,1,0,0:0:0:0:
475,192,19941,1,0,0:0:0:0:
402,192,20048,1,0,0:0:0:0:
109,192,20155,1,0,0:0:0:0:
36,192,20155,1,0,0:0:0:0:
256,192,20155,1,0,0:0:0:0:
329,192,20155,1,0,0:0:0:0:
475,192,20155,1,0,0:0:0:0:
109,192,20262,1,0,0:0:0:0:
182,192,20262,1,0,0:0:0:0:
182,192,20369,1,0,0:0:0:0:
329,192,20369,1,0,0:0:0:0:
475,192,20369,1,0,0:0:0:0:
109,192,20476,1,0,0:0:0:0:
36,192,20583,1,0,0:0:0:0:
109,192,20583,1,0,0:0:0:0:
256,192,20583,1,0,0:0:0:0:
402,192,20583,1,0,0:0:0:0:
475,192,20583,1,0,0:0:0:0:
256,192,20691,1,0,0:0:0:0:
402,192,20691,1,0,0:0:0:0:
182,192,20691,1,0,0:0:0:0:
475,192,20691,1,0,0:0:0:0:
256,192,20798,1,0,0:0:0:0:
402,192,20798,1,0,0:0:0:0:
36,192,20798,1,0,0:0:0:0:
109,192,20798,1,0,0:0:0:0:
329,192,20905,1,0,0:0:0:0:
109,192,21012,1,0,0:0:0:0:
36,192,21012,1,0,0:0:0:0:
402,192,21012,1,0,0:0:0:0:
475,192,21012,1,0,0:0:0:0:
256,192,21012,1,0,0:0:0:0:
256,192,21119,1,0,0:0:0:0:
402,192,21119,1,0,0:0:0:0:
182,192,21226,1,0,0:0:0:0:
109,192,21226,1,0,0:0:0:0:
329,192,21226,1,0,0:0:0:0:
475,192,21226,1,0,0:0:0:0:
109,192,21333,1,0,0:0:0:0:
329,192,21441,1,0,0:0:0:0:
475,192,21441,1,0,0:0:0:0:
402,192,21441,1,0,0:0:0:0:
36,192,21441,1,0,0:0:0:0:
256,192,21441,1,0,0:0:0:0:
329,192,21548,1,0,0:0:0:0:
402,192,21548,1,0,0:0:0:0:
36,192,21548,1,0,0:0:0:0:
182,192,21548,1,0,0:0:0:0:
109,192,21655,1,0,0:0:0:0:
256,192,21655,1,0,0:0:0:0:
402,192,21655,1,0,0:0:0:0:
475,192,21655,1,0,0:0:0:0:
182,192,21762,1,0,0:0:0:0:
36,192,21869,1,0,0:0:0:0:
109,192,21869,1,0,0:0:0:0:
329,192,21869,1,0,0:0:0:0:
402,192,21869,1,0,0:0:0:0:
475,192,21869,1,0,0:0:0:0:
256,192,21869,1,0,0:0:0:0:
475,192,21976,1,0,0:0:0:0:
182,192,21976,1,0,0:0:0:0:
329,192,21976,1,0,0:0:0:0:
402,192,21976,1,0,0:0:0:0:
109,192,22083,1,0,0:0:0:0:
36,192,22083,1,0,0:0:0:0:
182,192,22191,1,0,0:0:0:0:
329,192,22191,1,0,0:0:0:0:
182,192,22298,1,0,0:0:0:0:
256,192,22298,1,0,0:0:0:0:
402,192,22298,1,0,0:0:0:0:
475,192,22298,1,0,0:0:0:0:
36,192,22298,1,0,0:0:0:0:
402,192,22405,1,0,0:0:0:0:
109,192,22405,1,0,0:0:0:0:
109,192,22512,1,0,0:0:0:0:
256,192,22512,1,0,0:0:0:0:
329,192,22512,1,0,0:0:0:0:
475,192,22512,1,0,0:0:0:0:
329,192,22619,1,0,0:0:0:0:
36,192,22619,1,0,0:0:0:0:
109,192,22726,1,0,0:0:0:0:
182,192,22726,1,0,0:0:0:0:
256,192,22726,1,0,0:0:0:0:
402,192,22726,1,0,0:0:0:0:
475,192,22726,1,0,0:0:0:0:
109,192,22833,1,0,0:0:0:0:
256,192,22833,1,0,0:0:0:0:
329,192,22941,1,0,0:0:0:0:
182,192,22941,1,0,0:0:0:0:
36,192,22941,1,0,0:0:0:0:
475,192,22941,1,0,0:0:0:0:
182,192,23048,1,0,0:0:0:0:
36,192,23048,1,0,0:0:0:0:
109,192,23155,1,0,0:0:0:0:
256,192,23155,1,0,0:0:0:0:
329,192,23155,1,0,0:0:0:0:
402,192,23155,1,0,0:0:0:0:
475,192,23155,1,0,0:0:0:0:
475,192,23262,1,0,0:0:0:0:
329,192,23262,1,0,0:0:0:0:
182,192,23262,1,0,0:0:0:0:
475,192,23369,1,0,0:0:0:0:
36,192,23369,1,0,0:0:0:0:
109,192,23369,1,0,0:0:0:0:
256,192,23369,1,0,0:0:0:0:
256,192,23476,1,0,0:0:0:0:
36,192,23476,1,0,0:0:0:0:
109,192,23583,1,0,0:0:0:0:
182,192,23583,1,0,0:0:0:0:
329,192,23583,1,0,0:0:0:0:
475,192,23583,1,0,0:0:0:0:
36,192,23691,1,0,0:0:0:0:
109,192,23691,1,0,0:0:0:0:
256,192,23691,1,0,0:0:0:0:
402,192,23691,1,0,0:0:0:0:
36,192,23798,1,0,0:0:0:0:
182,192,23798,1,0,0:0:0:0:
329,192,23798,1,0,0:0:0:0:
109,192,23905,1,0,0:0:0:0:
402,192,23905,1,0,0:0:0:0:
475,192,23905,1,0,0:0:0:0:
256,192,23905,1,0,0:0:0:0:
109,192,24012,1,0,0:0:0:0:
36,192,24012,1,0,0:0:0:0:
256,192,24012,1,0,0:0:0:0:
329,192,24012,1,0,0:0:0:0:
475,192,24012,1,0,0:0:0:0:
329,192,24119,1,0,0:0:0:0:
182,192,24119,1,0,0:0:0:0:
109,192,24226,1,0,0:0:0:0:
256,192,24226,1,0,0:0:0:0:
475,192,24226,1,0,0:0:0:0:
402,192,24226,1,0,0:0:0:0:
109,192,24333,1,0,0:0:0:0:
256,192,24333,1,0,0:0:0:0:
329,192,24333,1,0,0:0:0:0:
182,192,24441,1,0,0:0:0:0:
36,192,24441,1,0,0:0:0:0:
402,192,24441,1,0,0:0:0:0:
475,192,24441,1,0,0:0:0:0:
256,192,24548,1,0,0:0:0:0:
402,192,24548,1,0,0:0:0:0:
109,192,24548,1,0,0:0:0:0:
182,192,24655,1,0,0:0:0:0:
329,192,24655,1,0,0:0:0:0:
475,192,24655,1,0,0:0:0:0:
36,192,24655,1,0,0:0:0:0:
329,192,24762,1,0,0:0:0:0:
475,192,24762,1,0,0:0:0:0:
109,192,24762,1,0,0:0:0:0:
256,192,24869,1,0,0:0:0:0:
402,192,24869,1,0,0:0:0:0:
109,192,24869,1,0,0:0:0:0:
182,192,24976,1,0,0:0:0:0:
329,192,24976,1,0,0:0:0:0:
109,192,25083,1,0,0:0:0:0:
256,192,25083,1,0,0:0:0:0:
402,192,25083,1,0,0:0:0:0:
475,192,25083,1,0,0:0:0:0:
36,192,25083,1,0,0:0:0:0:
256,192,25191,1,0,0:0:0:0:
329,192,25298,1,0,0:0:0:0:
402,192,25298,1,0,0:0:0:0:
475,192,25298,1,0,0:0:0:0:
109,192,25298,1,0,0:0:0:0:
36,192,25298,1,0,0:0:0:0:
182,192,25298,1,0,0:0:0:0:
329,192,25405,1,0,0:0:0:0:
402,192,25405,1,0,0:0:0:0:
36,192,25405,1,0,0:0:0:0:
256,192,25512,1,0,0:0:0:0:
475,192,25512,1,0,0:0:0:0:
109,192,25512,1,0,0:0:0:0:
182,192,25619,1,0,0:0:0:0:
329,192,25619,1,0,0:0:0:0:
475,192,25619,1,0,0:0:0:0:
256,192,25726,1,0,0:0:0:0:
475,192,25726,1,0,0:0:0:0:
36,192,25726,1,0,0:0:0:0:
109,192,25726,1,0,0:0:0:0:
402,192,25726,1,0,0:0:0:0:
182,192,25833,1,0,0:0:0:0:
402,192,25833,1,0,0:0:0:0:
36,192,25833,1,0,0:0:0:0:
109,192,25941,1,0,0:0:0:0:
256,192,25941,1,0,0:0:0:0:
329,192,25941,1,0,0:0:0:0:
36,192,26048,1,0,0:0:0:0:
182,192,26048,1,0,0:0:0:0:
475,192,26048,1,0,0:0:0:0:
402,192,26048,1,0,0:0:0:0:
256,192,26155,1,0,0:0:0:0:
402,192,26155,1,0,0:0:0:0:
475,192,26155,1,0,0:0:0:0:
109,192,26155,1,0,0:0:0:0:
182,192,26262,1,0,0:0:0:0:
329,192,26262,1,0,0:0:0:0:
36,192,26369,1,0,0:0:0:0:
109,192,26369,1,0,0:0:0:0:
256,192,26369,1,0,0:0:0:0:
402,192,26369,1,0,0:0:0:0:
475,192,26369,1,0,0:0:0:0:
256,192,26476,1,0,0:0:0:0:
402,192,26476,1,0,0:0:0:0:
109,192,26583,1,0,0:0:0:0:
36,192,26583,1,0,0:0:0:0:
182,192,26583,1,0,0:0:0:0:
329,192,26583,1,0,0:0:0:0:
182,192,26691,1,0,0:0:0:0:
329,192,26691,1,0,0:0:0:0:
256,192,26798,1,0,0:0:0:0:
402,192,26798,1,0,0:0:0:0:
475,192,26798,1,0,0:0:0:0:
109,192,26798,1,0,0:0:0:0:
36,192,26798,1,0,0:0:0:0:
402,192,26905,1,0,0:0:0:0:
256,192,26905,1,0,0:0:0:0:
329,192,27012,1,0,0:0:0:0:
182,192,27012,1,0,0:0:0:0:
475,192,27012,1,0,0:0:0:0:
36,192,27012,1,0,0:0:0:0:
109,192,27012,1,0,0:0:0:0:
475,192,27119,1,0,0:0:0:0:
256,192,27119,1,0,0:0:0:0:
182,192,27226,1,0,0:0:0:0:
329,192,27226,1,0,0:0:0:0:
402,192,27226,1,0,0:0:0:0:
36,192,27226,1,0,0:0:0:0:
109,192,27226,1,0,0:0:0:0:
329,192,27333,1,0,0:0:0:0:
402,192,27333,1,0,0:0:0:0:
109,192,27333,1,0,0:0:0:0:
109,192,27441,1,0,0:0:0:0:
36,192,27441,1,0,0:0:0:0:
256,192,27441,1,0,0:0:0:0:
475,192,27441,1,0,0:0:0:0:
182,192,27441,1,0,0:0:0:0:
182,192,27548,1,0,0:0:0:0:
329,192,27548,1,0,0:0:0:0:
402,192,27548,1,0,0:0:0:0:
475,192,27655,1,0,0:0:0:0:
256,192,27655,1,0,0:0:0:0:
109,192,27655,1,0,0:0:0:0:
36,192,27655,1,0,0:0:0:0:
329,192,27655,1,0,0:0:0:0:
182,192,27762,1,0,0:0:0:0:
402,192,27762,1,0,0:0:0:0:
36,192,27869,1,0,0:0:0:0:
109,192,27869,1,0,0:0:0:0:
256,192,27869,1,0,0:0:0:0:
329,192,27869,1,0,0:0:0:0:
475,192,27869,1,0,0:0:0:0:
329,192,27976,1,0,0:0:0:0:
109,192,27976,1,0,0:0:0:0:
36,192,28083,1,0,0:0:0:0:
182,192,28083,1,0,0:0:0:0:
402,192,28083,1,0,0:0:0:0:
475,192,28083,1,0,0:0:0:0:
256,192,28083,1,0,0:0:0:0:
402,192,28191,1,0,0:0:0:0:
182,192,28191,1,0,0:0:0:0:
475,192,28191,1,0,0:0:0:0:
109,192,28298,1,0,0:0:0:0:
36,192,28298,1,0,0:0:0:0:
329,192,28298,1,0,0:0:0:0:
256,192,28298,1,0,0:0:0:0:
109,192,28405,1,0,0:0:0:0:
256,192,28405,1,0,0:0:0:0:
36,192,28405,1,0,0:0:0:0:
182,192,28512,1,0,0:0:0:0:
329,192,28512,1,0,0:0:0:0:
475,192,28512,1,0,0:0:0:0:
402,192,28512,1,0,0:0:0:0:
182,192,28619,1,0,0:0:0:0:
329,192,28619,1,0,0:0:0:0:
256,192,28726,1,0,0:0:0:0:
475,192,28726,1,0,0:0:0:0:
36,192,28726,1,0,0:0:0:0:
109,192,28726,1,0,0:0:0:0:
402,192,28833,1,0,0:0:0:0:
475,192,28833,1,0,0:0:0:0:
182,192,28833,1,0,0:0:0:0:
36,192,28833,1,0,0:0:0:0:
329,192,28941,1,0,0:0:0:0:
402,192,28941,1,0,0:0:0:0:
109,192,28941,1,0,0:0:0:0:
182,192,29048,1,0,0:0:0:0:
256,192,29048,1,0,0:0:0:0:
36,192,29155,1,0,0:0:0:0:
109,192,29155,1,0,0:0:0:0:
182,192,29155,1,0,0:0:0:0:
329,192,29155,1,0,0:0:0:0:
402,192,29155,1,0,0:0:0:0:
475,192,29155,1,0,0:0:0:0:
109,192,29262,1,0,0:0:0:0:
329,192,29262,1,0,0:0:0:0:
182,192,29369,1,0,0:0:0:0:
402,192,29369,1,0,0:0:0:0:
475,192,29369,1,0,0:0:0:0:
36,192,29369,1,0,0:0:0:0:
329,192,29476,1,0,0:0:0:0:
182,192,29476,1,0,0:0:0:0:
402,192,29476,1,0,0:0:0:0:
36,192,29583,1,0,0:0:0:0:
256,192,29583,1,0,0:0:0:0:
109,192,29583,1,0,0:0:0:0:
475,192,29583,1,0,0:0:0:0:
109,192,29691,1,0,0:0:0:0:
36,192,29691,1,0,0:0:0:0:
329,192,29691,1,0,0:0:0:0:
256,192,29798,1,0,0:0:0:0:
402,192,29798,1,0,0:0:0:0:
182,192,29798,1,0,0:0:0:0:
475,192,29798,1,0,0:0:0:0:
256,192,29905,1,0,0:0:0:0:
402,192,29905,1,0,0:0:0:0:
475,192,29905,1,0,0:0:0:0:
36,192,30012,1,0,0:0:0:0:
109,192,30012,1,0,0:0:0:0:
182,192,30012,1,0,0:0:0:0:
329,192,30012,1,0,0:0:0:0:
109,192,30119,1,0,0:0:0:0:
36,192,30119,1,0,0:0:0:0:
329,192,30119,1,0,0:0:0:0:
109,192,30226,1,0,0:0:0:0:
36,192,30226,1,0,0:0:0:0:
329,192,30226,1,0,0:0:0:0:
36,192,30333,1,0,0:0:0:0:
109,192,30333,1,0,0:0:0:0:
329,192,30333,1,0,0:0:0:0:
182,192,30441,1,0,0:0:0:0:
256,192,30441,1,0,0:0:0:0:
475,192,30441,1,0,0:0:0:0:
402,192,30441,1,0,0:0:0:0:
256,192,30655,1,0,0:0:0:0:
256,192,30762,1,0,0:0:0:0:
329,192,30869,1,0,0:0:0:0:
475,192,30869,1,0,0:0:0:0:
182,192,30869,1,0,0:0:0:0:
36,192,30869,1,0,0:0:0:0:
109,192,30976,1,0,0:0:0:0:
256,192,30976,1,0,0:0:0:0:
475,192,30976,1,0,0:0:0:0:
182,192,31083,1,0,0:0:0:0:
256,192,31083,1,0,0:0:0:0:
36,192,31083,1,0,0:0:0:0:
329,192,31083,1,0,0:0:0:0:
402,192,31191,1,0,0:0:0:0:
182,192,31191,1,0,0:0:0:0:
109,192,31191,1,0,0:0:0:0:
329,192,31298,1,0,0:0:0:0:
475,192,31298,1,0,0:0:0:0:
256,192,31298,1,0,0:0:0:0:
36,192,31298,1,0,0:0:0:0:
109,192,31298,1,0,0:0:0:0:
182,192,31405,1,0,0:0:0:0:
329,192,31405,1,0,0:0:0:0:
402,192,31405,1,0,0:0:0:0:
109,192,31512,1,0,0:0:0:0:
36,192,31512,1,0,0:0:0:0:
256,192,31512,1,0,0:0:0:0:
475,192,31512,1,0,0:0:0:0:
182,192,31619,1,0,0:0:0:0:
109,192,31619,1,0,0:0:0:0:
329,192,31619,1,0,0:0:0:0:
256,192,31726,1,0,0:0:0:0:
475,192,31726,1,0,0:0:0:0:
402,192,31726,1,0,0:0:0:0:
36,192,31726,1,0,0:0:0:0:
182,192,31833,1,0,0:0:0:0:
329,192,31833,1,0,0:0:0:0:
402,192,31833,1,0,0:0:0:0:
109,192,31941,1,0,0:0:0:0:
36,192,31941,1,0,0:0:0:0:
256,192,31941,1,0,0:0:0:0:
475,192,31941,1,0,0:0:0:0:
182,192,32048,1,0,0:0:0:0:
329,192,32048,1,0,0:0:0:0:
402,192,32048,1,0,0:0:0:0:
475,192,32155,1,0,0:0:0:0:
109,192,32155,1,0,0:0:0:0:
36,192,32155,1,0,0:0:0:0:
256,192,32155,1,0,0:0:0:0:
329,192,32155,1,0,0:0:0:0:
182,192,32262,1,0,0:0:0:0:
475,192,32262,1,0,0:0:0:0:
36,192,32262,1,0,0:0:0:0:
329,192,32369,1,0,0:0:0:0:
182,192,32369,1,0,0:0:0:0:
402,192,32369,1,0,0:0:0:0:
109,192,32369,1,0,0:0:0:0:
109,192,32476,1,0,0:0:0:0:
402,192,32476,1,0,0:0:0:0:
256,192,32476,1,0,0:0:0:0:
329,192,32583,1,0,0:0:0:0:
475,192,32583,1,0,0:0:0:0:
182,192,32583,1,0,0:0:0:0:
36,192,32583,1,0,0:0:0:0:
329,192,32691,1,0,0:0:0:0:
475,192,32691,1,0,0:0:0:0:
182,192,32691,1,0,0:0:0:0:
36,192,32798,1,0,0:0:0:0:
109,192,32798,1,0,0:0:0:0:
256,192,32798,1,0,0:0:0:0:
109,192,32905,1,0,0:0:0:0:
182,192,32905,1,0,0:0:0:0:
402,192,32905,1,0,0:0:0:0:
36,192,33012,1,0,0:0:0:0:
256,192,33012,1,0,0:0:0:0:
329,192,33012,1,0,0:0:0:0:
402,192,33012,1,0,0:0:0:0:
475,192,33012,1,0,0:0:0:0:
182,192,33119,1,0,0:0:0:0:
329,192,33119,1,0,0:0:0:0:
109,192,33119,1,0,0:0:0:0:
256,192,33226,1,0,0:0:0:0:
109,192,33226,1,0,0:0:0:0:
36,192,33226,1,0,0:0:0:0:
475,192,33226,1,0,0:0:0:0:
182,192,33333,1,0,0:0:0:0:
402,192,33333,1,0,0:0:0:0:
329,192,33333,1,0,0:0:0:0:
475,192,33441,1,0,0:0:0:0:
256,192,33441,1,0,0:0:0:0:
109,192,33441,1,0,0:0:0:0:
36,192,33441,1,0,0:0:0:0:
402,192,33441,1,0,0:0:0:0:
109,192,33548,1,0,0:0:0:0:
256,192,33548,1,0,0:0:0:0:
475,192,33548,1,0,0:0:0:0:
182,192,33655,1,0,0:0:0:0:
329,192,33655,1,0,0:0:0:0:
36,192,33655,1,0,0:0:0:0:
402,192,33762,1,0,0:0:0:0:
182,192,33762,1,0,0:0:0:0:
475,192,33762,1,0,0:0:0:0:
36,192,33869,1,0,0:0:0:0:
109,192,33869,1,0,0:0:0:0:
329,192,33869,1,0,0:0:0:0:
475,192,33869,1,0,0:0:0:0:
256,192,33869,1,0,0:0:0:0:
182,192,33976,1,0,0:0:0:0:
329,192,33976,1,0,0:0:0:0:
402,192,33976,1,0,0:0:0:0:
109,192,34083,1,0,0:0:0:0:
256,192,34083,1,0,0:0:0:0:
36,192,34083,1,0,0:0:0:0:
402,192,34083,1,0,0:0:0:0:
109,192,34191,1,0,0:0:0:0:
36,192,34191,1,0,0:0:0:0:
256,192,34191,1,0,0:0:0:0:
109,192,34298,1,0,0:0:0:0:
36,192,34298,1,0,0:0:0:0:
329,192,34298,1,0,0:0:0:0:
402,192,34298,1,0,0:0:0:0:
475,192,34298,1,0,0:0:0:0:
402,192,34405,1,0,0:0:0:0:
256,192,34405,1,0,0:0:0:0:
475,192,34405,1,0,0:0:0:0:
182,192,34512,1,0,0:0:0:0:
109,192,34512,1,0,0:0:0:0:
329,192,34512,1,0,0:0:0:0:
36,192,34512,1,0,0:0:0:0:
109,192,34619,1,0,0:0:0:0:
256,192,34619,1,0,0:0:0:0:
402,192,34619,1,0,0:0:0:0:
182,192,34726,1,0,0:0:0:0:
36,192,34726,1,0,0:0:0:0:
329,192,34726,1,0,0:0:0:0:
475,192,34726,1,0,0:0:0:0:
329,192,34833,1,0,0:0:0:0:
475,192,34833,1,0,0:0:0:0:
182,192,34833,1,0,0:0:0:0:
402,192,34941,1,0,0:0:0:0:
36,192,34941,1,0,0:0:0:0:
109,192,34941,1,0,0:0:0:0:
36,192,35048,1,0,0:0:0:0:
109,192,35048,1,0,0:0:0:0:
256,192,35048,1,0,0:0:0:0:
329,192,35048,1,0,0:0:0:0:
182,192,35155,1,0,0:0:0:0:
256,192,35155,1,0,0:0:0:0:
402,192,35155,1,0,0:0:0:0:
475,192,35155,1,0,0:0:0:0:
329,192,35262,1,0,0:0:0:0:
109,192,35262,1,0,0:0:0:0:
36,192,35262,1,0,0:0:0:0:
402,192,35262,1,0,0:0:0:0:
182,192,35369,1,0,0:0:0:0:
256,192,35369,1,0,0:0:0:0:
475,192,35369,1,0,0:0:0:0:
36,192,35369,1,0,0:0:0:0:
109,192,35476,1,0,0:0:0:0:
256,192,35476,1,0,0:0:0:0:
402,192,35476,1,0,0:0:0:0:
182,192,35583,1,0,0:0:0:0:
36,192,35583,1,0,0:0:0:0:
329,192,35583,1,0,0:0:0:0:
402,192,35583,1,0,0:0:0:0:
475,192,35583,1,0,0:0:0:0:
475,192,35691,1,0,0:0:0:0:
182,192,35691,1,0,0:0:0:0:
329,192,35691,1,0,0:0:0:0:
402,192,35798,1,0,0:0:0:0:
256,192,35798,1,0,0:0:0:0:
109,192,35798,1,0,0:0:0:0:
36,192,35798,1,0,0:0:0:0:
182,192,35905,1,0,0:0:0:0:
329,192,35905,1,0,0:0:0:0:
36,192,35905,1,0,0:0:0:0:
109,192,36012,1,0,0:0:0:0:
36,192,36012,1,0,0:0:0:0:
256,192,36012,1,0,0:0:0:0:
402,192,36012,1,0,0:0:0:0:
475,192,36012,1,0,0:0:0:0:
182,192,36119,1,0,0:0:0:0:
329,192,36119,1,0,0:0:0:0:
109,192,36119,1,0,0:0:0:0:
256,192,36226,1,0,0:0:0:0:
402,192,36226,1,0,0:0:0:0:
475,192,36226,1,0,0:0:0:0:
36,192,36226,1,0,0:0:0:0:
182,192,36333,1,0,0:0:0:0:
329,192,36333,1,0,0:0:0:0:
109,192,36333,1,0,0:0:0:0:
109,192,36441,1,0,0:0:0:0:
36,192,36441,1,0,0:0:0:0:
256,192,36441,1,0,0:0:0:0:
475,192,36441,1,0,0:0:0:0:
402,192,36441,1,0,0:0:0:0:
182,192,36548,1,0,0:0:0:0:
329,192,36548,1,0,0:0:0:0:
402,192,36548,1,0,0:0:0:0:
256,192,36655,1,0,0:0:0:0:
36,192,36655,1,0,0:0:0:0:
109,192,36655,1,0,0:0:0:0:
256,192,36762,1,0,0:0:0:0:
402,192,36762,1,0,0:0:0:0:
475,192,36762,1,0,0:0:0:0:
182,192,36869,1,0,0:0:0:0:
36,192,36869,1,0,0:0:0:0:
329,192,36869,1,0,0:0:0:0:
329,192,36976,1,0,0:0:0:0:
182,192,36976,1,0,0:0:0:0:
182,192,37083,1,0,0:0:0:0:
329,192,37083,1,0,0:0:0:0:
475,192,37083,1,0,0:0:0:0:
329,192,37191,1,0,0:0:0:0:
182,192,37191,1,0,0:0:0:0:
109,192,37298,1,0,0:0:0:0:
36,192,37298,1,0,0:0:0:0:
256,192,37298,1,0,0:0:0:0:
402,192,37298,1,0,0:0:0:0:
475,192,37298,1,0,0:0:0:0:
109,192,37405,1,0,0:0:0:0:
36,192,37405,1,0,0:0:0:0:
402,192,37405,1,0,0:0:0:0:
475,192,37405,1,0,0:0:0:0:
109,192,37512,1,0,0:0:0:0:
36,192,37512,1,0,0:0:0:0:
402,192,37512,1,0,0:0:0:0:
475,192,37512,1,0,0:0:0:0:
402,192,37726,1,0,0:0:0:0:
475,192,37726,1,0,0:0:0:0:
256,192,37726,1,0,0:0:0:0:
182,192,37726,1,0,0:0:0:0:
36,192,37726,1,0,0:0:0:0:
182,192,37833,1,0,0:0:0:0:
329,192,37833,1,0,0:0:0:0:
402,192,37941,1,0,0:0:0:0:
256,192,37941,1,0,0:0:0:0:
36,192,37941,1,0,0:0:0:0:
109,192,37941,1,0,0:0:0:0:
402,192,38048,1,0,0:0:0:0:
182,192,38048,1,0,0:0:0:0:
109,192,38048,1,0,0:0:0:0:
329,192,38155,1,0,0:0:0:0:
475,192,38155,1,0,0:0:0:0:
256,192,38155,1,0,0:0:0:0:
36,192,38155,1,0,0:0:0:0:
256,192,38262,1,0,0:0:0:0:
109,192,38262,1,0,0:0:0:0:
329,192,38369,1,0,0:0:0:0:
182,192,38369,1,0,0:0:0:0:
36,192,38369,1,0,0:0:0:0:
475,192,38369,1,0,0:0:0:0:
402,192,38369,1,0,0:0:0:0:
402,192,38476,1,0,0:0:0:0:
475,192,38476,1,0,0:0:0:0:
182,192,38476,1,0,0:0:0:0:
36,192,38583,1,0,0:0:0:0:
109,192,38583,1,0,0:0:0:0:
256,192,38583,1,0,0:0:0:0:
402,192,38691,1,0,0:0:0:0:
329,192,38691,1,0,0:0:0:0:
182,192,38691,1,0,0:0:0:0:
402,192,38798,1,0,0:0:0:0:
256,192,38798,1,0,0:0:0:0:
109,192,38798,1,0,0:0:0:0:
36,192,38798,1,0,0:0:0:0:
475,192,38798,1,0,0:0:0:0:
256,192,38905,1,0,0:0:0:0:
109,192,38905,1,0,0:0:0:0:
182,192,39012,1,0,0:0:0:0:
36,192,39012,1,0,0:0:0:0:
402,192,39012,1,0,0:0:0:0:
475,192,39012,1,0,0:0:0:0:
329,192,39012,1,0,0:0:0:0:
402,192,39119,1,0,0:0:0:0:
109,192,39119,1,0,0:0:0:0:
329,192,39119,1,0,0:0:0:0:
182,192,39226,1,0,0:0:0:0:
256,192,39226,1,0,0:0:0:0:
36,192,39226,1,0,0:0:0:0:
475,192,39226,1,0,0:0:0:0:
402,192,39333,1,0,0:0:0:0:
182,192,39333,1,0,0:0:0:0:
36,192,39333,1,0,0:0:0:0:
256,192,39333,1,0,0:0:0:0:
182,192,39441,1,0,0:0:0:0:
36,192,39441,1,0,0:0:0:0:
475,192,39441,1,0,0:0:0:0:
329,192,39441,1,0,0:0:0:0:
256,192,39441,1,0,0:0:0:0:
475,192,39548,1,0,0:0:0:0:
329,192,39548,1,0,0:0:0:0:
109,192,39548,1,0,0:0:0:0:
402,192,39655,1,0,0:0:0:0:
256,192,39655,1,0,0:0:0:0:
182,192,39655,1,0,0:0:0:0:
402,192,39762,1,0,0:0:0:0:
36,192,39762,1,0,0:0:0:0:
109,192,39762,1,0,0:0:0:0:
256,192,39762,1,0,0:0:0:0:
329,192,39869,1,0,0:0:0:0:
109,192,39869,1,0,0:0:0:0:
36,192,39869,1,0,0:0:0:0:
475,192,39869,1,0,0:0:0:0:
256,192,39976,1,0,0:0:0:0:
182,192,39976,1,0,0:0:0:0:
329,192,40083,1,0,0:0:0:0:
475,192,40083,1,0,0:0:0:0:
402,192,40083,1,0,0:0:0:0:
182,192,40083,1,0,0:0:0:0:
36,192,40083,1,0,0:0:0:0:
256,192,40191,1,0,0:0:0:0:
36,192,40191,1,0,0:0:0:0:
402,192,40298,1,0,0:0:0:0:
475,192,40298,1,0,0:0:0:0:
329,192,40298,1,0,0:0:0:0:
109,192,40298,1,0,0:0:0:0:
182,192,40298,1,0,0:0:0:0:
402,192,40405,1,0,0:0:0:0:
475,192,40405,1,0,0:0:0:0:
256,192,40512,1,0,0:0:0:0:
109,192,40512,1,0,0:0:0:0:
36,192,40512,1,0,0:0:0:0:
402,192,40512,1,0,0:0:0:0:
475,192,40512,1,0,0:0:0:0:
36,192,40619,1,0,0:0:0:0:
109,192,40619,1,0,0:0:0:0:
256,192,40726,1,0,0:0:0:0:
182,192,40726,1,0,0:0:0:0:
329,192,40726,1,0,0:0:0:0:
475,192,40726,1,0,0:0:0:0:
402,192,40726,1,0,0:0:0:0:
402,192,40833,1,0,0:0:0:0:
256,192,40833,1,0,0:0:0:0:
329,192,40941,1,0,0:0:0:0:
182,192,40941,1,0,0:0:0:0:
109,192,40941,1,0,0:0:0:0:
475,192,40941,1,0,0:0:0:0:
36,192,40941,1,0,0:0:0:0:
329,192,41048,1,0,0:0:0:0:
182,192,41048,1,0,0:0:0:0:
402,192,41155,1,0,0:0:0:0:
475,192,41155,1,0,0:0:0:0:
256,192,41155,1,0,0:0:0:0:
36,192,41155,1,0,0:0:0:0:
109,192,41155,1,0,0:0:0:0:
329,192,41262,1,0,0:0:0:0:
182,192,41262,1,0,0:0:0:0:
402,192,41262,1,0,0:0:0:0:
36,192,41369,1,0,0:0:0:0:
256,192,41369,1,0,0:0:0:0:
329,192,41369,1,0,0:0:0:0:
475,192,41369,1,0,0:0:0:0:
109,192,41369,1,0,0:0:0:0:
182,192,41476,1,0,0:0:0:0:
109,192,41476,1,0,0:0:0:0:
329,192,41583,1,0,0:0:0:0:
475,192,41583,1,0,0:0:0:0:
402,192,41583,1,0,0:0:0:0:
256,192,41583,1,0,0:0:0:0:
182,192,41583,1,0,0:0:0:0:
36,192,41583,1,0,0:0:0:0:
329,192,41691,1,0,0:0:0:0:
36,192,41691,1,0,0:0:0:0:
475,192,41798,1,0,0:0:0:0:
329,192,41798,1,0,0:0:0:0:
109,192,41798,1,0,0:0:0:0:
36,192,41798,1,0,0:0:0:0:
182,192,41798,1,0,0:0:0:0:
109,192,41905,1,0,0:0:0:0:
256,192,41905,1,0,0:0:0:0:
402,192,42012,1,0,0:0:0:0:
475,192,42012,1,0,0:0:0:0:
182,192,42012,1,0,0:0:0:0:
329,192,42012,1,0,0:0:0:0:
182,192,42119,1,0,0:0:0:0:
329,192,42119,1,0,0:0:0:0:
402,192,42226,1,0,0:0:0:0:
256,192,42226,1,0,0:0:0:0:
36,192,42226,1,0,0:0:0:0:
109,192,42226,1,0,0:0:0:0:
475,192,42226,1,0,0:0:0:0:
109,192,42333,1,0,0:0:0:0:
329,192,42333,1,0,0:0:0:0:
36,192,42333,1,0,0:0:0:0:
256,192,42441,1,0,0:0:0:0:
182,192,42441,1,0,0:0:0:0:
475,192,42441,1,0,0:0:0:0:
402,192,42441,1,0,0:0:0:0:
109,192,42548,1,0,0:0:0:0:
36,192,42548,1,0,0:0:0:0:
329,192,42548,1,0,0:0:0:0:
182,192,42655,1,0,0:0:0:0:
475,192,42655,1,0,0:0:0:0:
402,192,42655,1,0,0:0:0:0:
402,192,42762,1,0,0:0:0:0:
256,192,42762,1,0,0:0:0:0:
475,192,42869,1,0,0:0:0:0:
329,192,42869,1,0,0:0:0:0:
182,192,42869,1,0,0:0:0:0:
109,192,42869,1,0,0:0:0:0:
36,192,42869,1,0,0:0:0:0:
329,192,42976,1,0,0:0:0:0:
109,192,42976,1,0,0:0:0:0:
182,192,42976,1,0,0:0:0:0:
402,192,43083,1,0,0:0:0:0:
256,192,43083,1,0,0:0:0:0:
36,192,43083,1,0,0:0:0:0:
475,192,43083,1,0,0:0:0:0:
109,192,43191,1,0,0:0:0:0:
402,192,43191,1,0,0:0:0:0:
256,192,43191,1,0,0:0:0:0:
329,192,43298,1,0,0:0:0:0:
475,192,43298,1,0,0:0:0:0:
182,192,43298,1,0,0:0:0:0:
36,192,43298,1,0,0:0:0:0:
402,192,43405,1,0,0:0:0:0:
475,192,43405,1,0,0:0:0:0:
256,192,43405,1,0,0:0:0:0:
182,192,43512,1,0,0:0:0:0:
109,192,43512,1,0,0:0:0:0:
329,192,43512,1,0,0:0:0:0:
36,192,43512,1,0,0:0:0:0:
256,192,43619,1,0,0:0:0:0:
109,192,43619,1,0,0:0:0:0:
36,192,43619,1,0,0:0:0:0:
475,192,43726,1,0,0:0:0:0:
402,192,43726,1,0,0:0:0:0:
329,192,43726,1,0,0:0:0:0:
182,192,43726,1,0,0:0:0:0:
402,192,43833,1,0,0:0:0:0:
475,192,43833,1,0,0:0:0:0:
182,192,43833,1,0,0:0:0:0:
402,192,43941,1,0,0:0:0:0:
475,192,43941,1,0,0:0:0:0:
182,192,43941,1,0,0:0:0:0:
475,192,44048,1,0,0:0:0:0:
402,192,44048,1,0,0:0:0:0:
182,192,44048,1,0,0:0:0:0:
329,192,44155,1,0,0:0:0:0:
256,192,44155,1,0,0:0:0:0:
36,192,44155,1,0,0:0:0:0:
109,192,44155,1,0,0:0:0:0:
256,192,44369,1,0,0:0:0:0:
256,192,44476,1,0,0:0:0:0:
182,192,44583,1,0,0:0:0:0:
36,192,44583,1,0,0:0:0:0:
329,192,44583,1,0,0:0:0:0:
475,192,44583,1,0,0:0:0:0:
402,192,44691,1,0,0:0:0:0:
182,192,44691,1,0,0:0:0:0:
109,192,44691,1,0,0:0:0:0:
36,192,44798,1,0,0:0:0:0:
256,192,44798,1,0,0:0:0:0:
475,192,44798,1,0,0:0:0:0:
182,192,44798,1,0,0:0:0:0:
402,192,44905,1,0,0:0:0:0:
109,192,44905,1,0,0:0:0:0:
329,192,44905,1,0,0:0:0:0:
182,192,45012,1,0,0:0:0:0:
36,192,45012,1,0,0:0:0:0:
256,192,45012,1,0,0:0:0:0:
475,192,45012,1,0,0:0:0:0:
402,192,45012,1,0,0:0:0:0:
329,192,45119,1,0,0:0:0:0:
182,192,45119,1,0,0:0:0:0:
109,192,45119,1,0,0:0:0:0:
402,192,45226,1,0,0:0:0:0:
475,192,45226,1,0,0:0:0:0:
256,192,45226,1,0,0:0:0:0:
36,192,45226,1,0,0:0:0:0:
402,192,45333,1,0,0:0:0:0:
475,192,45333,1,0,0:0:0:0:
182,192,45333,1,0,0:0:0:0:
256,192,45441,1,0,0:0:0:0:
36,192,45441,1,0,0:0:0:0:
109,192,45441,1,0,0:0:0:0:
475,192,45441,1,0,0:0:0:0:
402,192,45441,1,0,0:0:0:0:
329,192,45548,1,0,0:0:0:0:
182,192,45548,1,0,0:0:0:0:
36,192,45548,1,0,0:0:0:0:
109,192,45655,1,0,0:0:0:0:
475,192,45655,1,0,0:0:0:0:
256,192,45655,1,0,0:0:0:0:
36,192,45655,1,0,0:0:0:0:
329,192,45762,1,0,0:0:0:0:
109,192,45762,1,0,0:0:0:0:
402,192,45762,1,0,0:0:0:0:
36,192,45869,1,0,0:0:0:0:
402,192,45869,1,0,0:0:0:0:
475,192,45869,1,0,0:0:0:0:
256,192,45869,1,0,0:0:0:0:
182,192,45869,1,0,0:0:0:0:
329,192,45976,1,0,0:0:0:0:
109,192,45976,1,0,0:0:0:0:
36,192,45976,1,0,0:0:0:0:
182,192,46083,1,0,0:0:0:0:
475,192,46083,1,0,0:0:0:0:
329,192,46083,1,0,0:0:0:0:
402,192,46191,1,0,0:0:0:0:
256,192,46191,1,0,0:0:0:0:
109,192,46191,1,0,0:0:0:0:
256,192,46298,1,0,0:0:0:0:
182,192,46298,1,0,0:0:0:0:
36,192,46298,1,0,0:0:0:0:
329,192,46298,1,0,0:0:0:0:
475,192,46298,1,0,0:0:0:0:
182,192,46405,1,0,0:0:0:0:
36,192,46405,1,0,0:0:0:0:
475,192,46405,1,0,0:0:0:0:
475,192,46512,1,0,0:0:0:0:
329,192,46512,1,0,0:0:0:0:
402,192,46512,1,0,0:0:0:0:
109,192,46512,1,0,0:0:0:0:
402,192,46619,1,0,0:0:0:0:
329,192,46619,1,0,0:0:0:0:
182,192,46619,1,0,0:0:0:0:
475,192,46726,1,0,0:0:0:0:
256,192,46726,1,0,0:0:0:0:
109,192,46726,1,0,0:0:0:0:
36,192,46726,1,0,0:0:0:0:
329,192,46833,1,0,0:0:0:0:
182,192,46833,1,0,0:0:0:0:
402,192,46833,1,0,0:0:0:0:
256,192,46941,1,0,0:0:0:0:
402,192,46941,1,0,0:0:0:0:
475,192,46941,1,0,0:0:0:0:
36,192,46941,1,0,0:0:0:0:
109,192,46941,1,0,0:0:0:0:
329,192,47048,1,0,0:0:0:0:
36,192,47048,1,0,0:0:0:0:
109,192,47048,1,0,0:0:0:0:
182,192,47155,1,0,0:0:0:0:
256,192,47155,1,0,0:0:0:0:
402,192,47155,1,0,0:0:0:0:
475,192,47155,1,0,0:0:0:0:
402,192,47262,1,0,0:0:0:0:
36,192,47262,1,0,0:0:0:0:
256,192,47262,1,0,0:0:0:0:
402,192,47369,1,0,0:0:0:0:
329,192,47369,1,0,0:0:0:0:
182,192,47369,1,0,0:0:0:0:
256,192,47476,1,0,0:0:0:0:
109,192,47476,1,0,0:0:0:0:
475,192,47476,1,0,0:0:0:0:
475,192,47583,1,0,0:0:0:0:
402,192,47583,1,0,0:0:0:0:
182,192,47583,1,0,0:0:0:0:
36,192,47583,1,0,0:0:0:0:
329,192,47583,1,0,0:0:0:0:
182,192,47691,1,0,0:0:0:0:
36,192,47691,1,0,0:0:0:0:
329,192,47691,1,0,0:0:0:0:
402,192,47798,1,0,0:0:0:0:
256,192,47798,1,0,0:0:0:0:
109,192,47798,1,0,0:0:0:0:
475,192,47798,1,0,0:0:0:0:
329,192,47905,1,0,0:0:0:0:
182,192,47905,1,0,0:0:0:0:
475,192,47905,1,0,0:0:0:0:
402,192,48012,1,0,0:0:0:0:
475,192,48012,1,0,0:0:0:0:
256,192,48012,1,0,0:0:0:0:
109,192,48012,1,0,0:0:0:0:
36,192,48012,1,0,0:0:0:0:
109,192,48119,1,0,0:0:0:0:
36,192,48119,1,0,0:0:0:0:
329,192,48119,1,0,0:0:0:0:
256,192,48226,1,0,0:0:0:0:
475,192,48226,1,0,0:0:0:0:
182,192,48226,1,0,0:0:0:0:
329,192,48333,1,0,0:0:0:0:
402,192,48333,1,0,0:0:0:0:
182,192,48333,1,0,0:0:0:0:
402,192,48441,1,0,0:0:0:0:
475,192,48441,1,0,0:0:0:0:
36,192,48441,1,0,0:0:0:0:
256,192,48441,1,0,0:0:0:0:
109,192,48441,1,0,0:0:0:0:
256,192,48548,1,0,0:0:0:0:
109,192,48548,1,0,0:0:0:0:
329,192,48548,1,0,0:0:0:0:
182,192,48655,1,0,0:0:0:0:
36,192,48655,1,0,0:0:0:0:
402,192,48655,1,0,0:0:0:0:
329,192,48655,1,0,0:0:0:0:
475,192,48762,1,0,0:0:0:0:
256,192,48762,1,0,0:0:0:0:
109,192,48762,1,0,0:0:0:0:
402,192,48869,1,0,0:0:0:0:
329,192,48869,1,0,0:0:0:0:
182,192,48869,1,0,0:0:0:0:
36,192,48869,1,0,0:0:0:0:
182,192,48976,1,0,0:0:0:0:
402,192,48976,1,0,0:0:0:0:
36,192,48976,1,0,0:0:0:0:
329,192,49083,1,0,0:0:0:0:
256,192,49083,1,0,0:0:0:0:
475,192,49083,1,0,0:0:0:0:
109,192,49083,1,0,0:0:0:0:
402,192,49191,1,0,0:0:0:0:
256,192,49191,1,0,0:0:0:0:
182,192,49191,1,0,0:0:0:0:
329,192,49298,1,0,0:0:0:0:
475,192,49298,1,0,0:0:0:0:
182,192,49298,1,0,0:0:0:0:
109,192,49298,1,0,0:0:0:0:
36,192,49298,1,0,0:0:0:0:
36,192,49405,1,0,0:0:0:0:
329,192,49405,1,0,0:0:0:0:
109,192,49405,1,0,0:0:0:0:
256,192,49512,1,0,0:0:0:0:
402,192,49512,1,0,0:0:0:0:
475,192,49512,1,0,0:0:0:0:
182,192,49512,1,0,0:0:0:0:
329,192,49619,1,0,0:0:0:0:
182,192,49619,1,0,0:0:0:0:
109,192,49619,1,0,0:0:0:0:
402,192,49726,1,0,0:0:0:0:
475,192,49726,1,0,0:0:0:0:
256,192,49726,1,0,0:0:0:0:
109,192,49726,1,0,0:0:0:0:
36,192,49726,1,0,0:0:0:0:
402,192,49833,1,0,0:0:0:0:
329,192,49833,1,0,0:0:0:0:
182,192,49833,1,0,0:0:0:0:
256,192,49941,1,0,0:0:0:0:
109,192,49941,1,0,0:0:0:0:
36,192,49941,1,0,0:0:0:0:
475,192,49941,1,0,0:0:0:0:
329,192,50048,1,0,0:0:0:0:
182,192,50048,1,0,0:0:0:0:
109,192,50048,1,0,0:0:0:0:
402,192,50155,1,0,0:0:0:0:
475,192,50155,1,0,0:0:0:0:
256,192,50155,1,0,0:0:0:0:
36,192,50155,1,0,0:0:0:0:
182,192,50155,1,0,0:0:0:0:
402,192,50262,1,0,0:0:0:0:
329,192,50262,1,0,0:0:0:0:
109,192,50262,1,0,0:0:0:0:
256,192,50369,1,0,0:0:0:0:
36,192,50369,1,0,0:0:0:0:
475,192,50369,1,0,0:0:0:0:
182,192,50369,1,0,0:0:0:0:
256,192,50476,1,0,0:0:0:0:
109,192,50476,1,0,0:0:0:0:
402,192,50476,1,0,0:0:0:0:
329,192,50583,1,0,0:0:0:0:
475,192,50583,1,0,0:0:0:0:
182,192,50583,1,0,0:0:0:0:
36,192,50691,1,0,0:0:0:0:
109,192,50691,1,0,0:0:0:0:
256,192,50691,1,0,0:0:0:0:
329,192,50798,1,0,0:0:0:0:
182,192,50798,1,0,0:0:0:0:
109,192,50798,1,0,0:0:0:0:
402,192,50798,1,0,0:0:0:0:
36,192,50798,1,0,0:0:0:0:
475,192,50798,1,0,0:0:0:0:
402,192,50905,1,0,0:0:0:0:
475,192,50905,1,0,0:0:0:0:
256,192,50905,1,0,0:0:0:0:
36,192,51012,1,0,0:0:0:0:
109,192,51012,1,0,0:0:0:0:
182,192,51012,1,0,0:0:0:0:
329,192,51066,1,0,0:0:0:0:
402,192,51066,1,0,0:0:0:0:
475,192,51066,1,0,0:0:0:0:
36,192,51119,1,0,0:0:0:0:
109,192,51119,1,0,0:0:0:0:
182,192,51119,1,0,0:0:0:0:
329,192,51173,1,0,0:0:0:0:
402,192,51173,1,0,0:0:0:0:
475,192,51173,1,0,0:0:0:0:
36,192,51226,1,0,0:0:0:0:
109,192,51226,1,0,0:0:0:0:
182,192,51226,1,0,0:0:0:0:
329,192,51280,1,0,0:0:0:0:
402,192,51280,1,0,0:0:0:0:
475,192,51280,1,0,0:0:0:0:
36,192,51333,1,0,0:0:0:0:
109,192,51333,1,0,0:0:0:0:
182,192,51333,1,0,0:0:0:0:
329,192,51387,1,0,0:0:0:0:
402,192,51387,1,0,0:0:0:0:
475,192,51387,1,0,0:0:0:0:
182,192,51441,1,0,0:0:0:0:
109,192,51441,1,0,0:0:0:0:
36,192,51441,1,0,0:0:0:0:
109,192,52298,1,0,0:0:0:0:
182,192,52298,1,0,0:0:0:0:
402,192,52298,1,0,0:0:0:0:
475,192,52298,1,0,0:0:0:0:
329,192,52298,1,0,0:0:0:0:
36,192,52298,1,0,0:0:0:0:
182,192,53155,1,0,0:0:0:0:
109,192,53155,1,0,0:0:0:0:
36,192,53155,1,0,0:0:0:0:
329,192,53155,1,0,0:0:0:0:
402,192,53155,1,0,0:0:0:0:
475,192,53155,1,0,0:0:0:0:
182,192,53583,1,0,0:0:0:0:
109,192,53583,1,0,0:0:0:0:
329,192,53583,1,0,0:0:0:0:
475,192,53583,1,0,0:0:0:0:
402,192,53583,1,0,0:0:0:0:
36,192,53583,1,0,0:0:0:0:
182,192,54012,1,0,0:0:0:0:
182,192,54119,1,0,0:0:0:0:
329,192,54226,1,0,0:0:0:0:
329,192,54333,1,0,0:0:0:0:
182,192,54441,1,0,0:0:0:0:
329,192,54494,1,0,0:0:0:0:
182,192,54548,1,0,0:0:0:0:
329,192,54601,1,0,0:0:0:0:
182,192,54655,1,0,0:0:0:0:
329,192,54708,1,0,0:0:0:0:
182,192,54762,1,0,0:0:0:0:
329,192,54816,1,0,0:0:0:0:
475,192,54869,1,0,0:0:0:0:
402,192,54869,1,0,0:0:0:0:
256,192,54869,1,0,0:0:0:0:
109,192,54869,1,0,0:0:0:0:
36,192,54869,1,0,0:0:0:0:
475,192,54976,1,0,0:0:0:0:
36,192,54976,1,0,0:0:0:0:
256,192,54976,1,0,0:0:0:0:
109,192,54976,1,0,0:0:0:0:
36,192,55083,1,0,0:0:0:0:
475,192,55083,1,0,0:0:0:0:
256,192,55083,1,0,0:0:0:0:
109,192,55083,1,0,0:0:0:0:
402,192,55298,1,0,0:0:0:0:
475,192,55298,1,0,0:0:0:0:
256,192,55298,1,0,0:0:0:0:
109,192,55298,1,0,0:0:0:0:
475,192,55512,1,0,0:0:0:0:
329,192,55512,1,0,0:0:0:0:
182,192,55512,1,0,0:0:0:0:
109,192,55726,1,0,0:0:0:0:
36,192,55726,1,0,0:0:0:0:
402,192,55726,1,0,0:0:0:0:
475,192,55726,1,0,0:0:0:0:
109,192,55833,1,0,0:0:0:0:
36,192,55833,1,0,0:0:0:0:
402,192,55833,1,0,0:0:0:0:
475,192,55833,1,0,0:0:0:0:
109,192,55941,1,0,0:0:0:0:
36,192,55941,1,0,0:0:0:0:
402,192,55941,1,0,0:0:0:0:
256,192,55941,1,0,0:0:0:0:
475,192,55941,1,0,0:0:0:0:
329,192,56155,1,0,0:0:0:0:
475,192,56155,1,0,0:0:0:0:
182,192,56155,1,0,0:0:0:0:
36,192,56155,1,0,0:0:0:0:
109,192,56262,1,0,0:0:0:0:
182,192,56369,1,0,0:0:0:0:
329,192,56369,1,0,0:0:0:0:
475,192,56369,1,0,0:0:0:0:
402,192,56583,1,0,0:0:0:0:
475,192,56583,1,0,0:0:0:0:
256,192,56583,1,0,0:0:0:0:
109,192,56583,1,0,0:0:0:0:
182,192,56583,1,0,0:0:0:0:
402,192,56691,1,0,0:0:0:0:
256,192,56691,1,0,0:0:0:0:
109,192,56691,1,0,0:0:0:0:
182,192,56691,1,0,0:0:0:0:
109,192,56798,1,0,0:0:0:0:
256,192,56798,1,0,0:0:0:0:
402,192,56798,1,0,0:0:0:0:
182,192,56798,1,0,0:0:0:0:
329,192,57012,1,0,0:0:0:0:
182,192,57012,1,0,0:0:0:0:
109,192,57012,1,0,0:0:0:0:
36,192,57012,1,0,0:0:0:0:
256,192,57226,1,0,0:0:0:0:
36,192,57226,1,0,0:0:0:0:
109,192,57226,1,0,0:0:0:0:
402,192,57441,1,0,0:0:0:0:
475,192,57441,1,0,0:0:0:0:
182,192,57441,1,0,0:0:0:0:
329,192,57441,1,0,0:0:0:0:
182,192,57548,1,0,0:0:0:0:
402,192,57548,1,0,0:0:0:0:
475,192,57548,1,0,0:0:0:0:
329,192,57548,1,0,0:0:0:0:
475,192,57655,1,0,0:0:0:0:
402,192,57655,1,0,0:0:0:0:
182,192,57655,1,0,0:0:0:0:
36,192,57655,1,0,0:0:0:0:
329,192,57655,1,0,0:0:0:0:
256,192,57762,1,0,0:0:0:0:
109,192,57869,1,0,0:0:0:0:
36,192,57869,1,0,0:0:0:0:
329,192,57869,1,0,0:0:0:0:
402,192,57869,1,0,0:0:0:0:
182,192,58083,1,0,0:0:0:0:
329,192,58083,1,0,0:0:0:0:
475,192,58083,1,0,0:0:0:0:
182,192,58191,1,0,0:0:0:0:
402,192,58298,1,0,0:0:0:0:
256,192,58298,1,0,0:0:0:0:
36,192,58298,1,0,0:0:0:0:
109,192,58298,1,0,0:0:0:0:
475,192,58298,1,0,0:0:0:0:
36,192,58405,1,0,0:0:0:0:
256,192,58405,1,0,0:0:0:0:
402,192,58405,1,0,0:0:0:0:
475,192,58405,1,0,0:0:0:0:
402,192,58512,1,0,0:0:0:0:
256,192,58512,1,0,0:0:0:0:
36,192,58512,1,0,0:0:0:0:
475,192,58512,1,0,0:0:0:0:
329,192,58726,1,0,0:0:0:0:
475,192,58726,1,0,0:0:0:0:
36,192,58726,1,0,0:0:0:0:
109,192,58726,1,0,0:0:0:0:
329,192,58941,1,0,0:0:0:0:
475,192,58941,1,0,0:0:0:0:
182,192,58941,1,0,0:0:0:0:
109,192,59048,1,0,0:0:0:0:
402,192,59155,1,0,0:0:0:0:
182,192,59155,1,0,0:0:0:0:
256,192,59155,1,0,0:0:0:0:
475,192,59155,1,0,0:0:0:0:
182,192,59262,1,0,0:0:0:0:
402,192,59262,1,0,0:0:0:0:
256,192,59262,1,0,0:0:0:0:
475,192,59262,1,0,0:0:0:0:
402,192,59369,1,0,0:0:0:0:
182,192,59369,1,0,0:0:0:0:
256,192,59369,1,0,0:0:0:0:
36,192,59369,1,0,0:0:0:0:
475,192,59369,1,0,0:0:0:0:
329,192,59583,1,0,0:0:0:0:
475,192,59583,1,0,0:0:0:0:
109,192,59583,1,0,0:0:0:0:
36,192,59583,1,0,0:0:0:0:
329,192,59691,1,0,0:0:0:0:
402,192,59798,1,0,0:0:0:0:
475,192,59798,1,0,0:0:0:0:
182,192,59798,1,0,0:0:0:0:
329,192,60012,1,0,0:0:0:0:
256,192,60012,1,0,0:0:0:0:
109,192,60012,1,0,0:0:0:0:
36,192,60012,1,0,0:0:0:0:
182,192,60012,1,0,0:0:0:0:
329,192,60119,1,0,0:0:0:0:
109,192,60119,1,0,0:0:0:0:
36,192,60119,1,0,0:0:0:0:
182,192,60119,1,0,0:0:0:0:
329,192,60226,1,0,0:0:0:0:
109,192,60226,1,0,0:0:0:0:
36,192,60226,1,0,0:0:0:0:
182,192,60226,1,0,0:0:0:0:
402,192,60441,1,0,0:0:0:0:
475,192,60441,1,0,0:0:0:0:
182,192,60441,1,0,0:0:0:0:
36,192,60441,1,0,0:0:0:0:
256,192,60548,1,0,0:0:0:0:
182,192,60655,1,0,0:0:0:0:
36,192,60655,1,0,0:0:0:0:
329,192,60655,1,0,0:0:0:0:
402,192,60655,1,0,0:0:0:0:
329,192,60762,1,0,0:0:0:0:
182,192,60869,1,0,0:0:0:0:
475,192,60869,1,0,0:0:0:0:
402,192,60869,1,0,0:0:0:0:
109,192,60869,1,0,0:0:0:0:
182,192,60976,1,0,0:0:0:0:
402,192,60976,1,0,0:0:0:0:
475,192,60976,1,0,0:0:0:0:
109,192,60976,1,0,0:0:0:0:
182,192,61083,1,0,0:0:0:0:
475,192,61083,1,0,0:0:0:0:
402,192,61083,1,0,0:0:0:0:
36,192,61083,1,0,0:0:0:0:
109,192,61083,1,0,0:0:0:0:
182,192,61191,1,0,0:0:0:0:
329,192,61298,1,0,0:0:0:0:
109,192,61298,1,0,0:0:0:0:
36,192,61298,1,0,0:0:0:0:
475,192,61298,1,0,0:0:0:0:
329,192,61405,1,0,0:0:0:0:
182,192,61405,1,0,0:0:0:0:
329,192,61512,1,0,0:0:0:0:
109,192,61512,1,0,0:0:0:0:
256,192,61512,1,0,0:0:0:0:
329,192,61619,1,0,0:0:0:0:
109,192,61619,1,0,0:0:0:0:
402,192,61726,1,0,0:0:0:0:
475,192,61726,1,0,0:0:0:0:
256,192,61726,1,0,0:0:0:0:
182,192,61726,1,0,0:0:0:0:
36,192,61726,1,0,0:0:0:0:
256,192,61833,1,0,0:0:0:0:
475,192,61833,1,0,0:0:0:0:
36,192,61833,1,0,0:0:0:0:
329,192,61833,1,0,0:0:0:0:
256,192,61941,1,0,0:0:0:0:
475,192,61941,1,0,0:0:0:0:
36,192,61941,1,0,0:0:0:0:
329,192,61941,1,0,0:0:0:0:
182,192,62048,1,0,0:0:0:0:
329,192,62155,1,0,0:0:0:0:
402,192,62155,1,0,0:0:0:0:
109,192,62155,1,0,0:0:0:0:
36,192,62155,1,0,0:0:0:0:
475,192,62155,1,0,0:0:0:0:
256,192,62262,1,0,0:0:0:0:
475,192,62369,1,0,0:0:0:0:
329,192,62369,1,0,0:0:0:0:
182,192,62369,1,0,0:0:0:0:
329,192,62476,1,0,0:0:0:0:
109,192,62476,1,0,0:0:0:0:
402,192,62583,1,0,0:0:0:0:
475,192,62583,1,0,0:0:0:0:
256,192,62583,1,0,0:0:0:0:
36,192,62583,1,0,0:0:0:0:
182,192,62583,1,0,0:0:0:0:
256,192,62691,1,0,0:0:0:0:
402,192,62691,1,0,0:0:0:0:
109,192,62691,1,0,0:0:0:0:
475,192,62691,1,0,0:0:0:0:
402,192,62798,1,0,0:0:0:0:
256,192,62798,1,0,0:0:0:0:
36,192,62798,1,0,0:0:0:0:
475,192,62798,1,0,0:0:0:0:
329,192,62905,1,0,0:0:0:0:
475,192,63012,1,0,0:0:0:0:
402,192,63012,1,0,0:0:0:0:
182,192,63012,1,0,0:0:0:0:
36,192,63012,1,0,0:0:0:0:
402,192,63119,1,0,0:0:0:0:
475,192,63119,1,0,0:0:0:0:
256,192,63119,1,0,0:0:0:0:
329,192,63226,1,0,0:0:0:0:
109,192,63226,1,0,0:0:0:0:
36,192,63226,1,0,0:0:0:0:
329,192,63333,1,0,0:0:0:0:
109,192,63333,1,0,0:0:0:0:
402,192,63441,1,0,0:0:0:0:
475,192,63441,1,0,0:0:0:0:
256,192,63441,1,0,0:0:0:0:
36,192,63441,1,0,0:0:0:0:
182,192,63441,1,0,0:0:0:0:
182,192,63548,1,0,0:0:0:0:
36,192,63548,1,0,0:0:0:0:
329,192,63548,1,0,0:0:0:0:
475,192,63548,1,0,0:0:0:0:
182,192,63655,1,0,0:0:0:0:
36,192,63655,1,0,0:0:0:0:
256,192,63655,1,0,0:0:0:0:
475,192,63655,1,0,0:0:0:0:
329,192,63762,1,0,0:0:0:0:
256,192,63869,1,0,0:0:0:0:
402,192,63869,1,0,0:0:0:0:
475,192,63869,1,0,0:0:0:0:
109,192,63869,1,0,0:0:0:0:
36,192,63869,1,0,0:0:0:0:
329,192,63976,1,0,0:0:0:0:
182,192,63976,1,0,0:0:0:0:
475,192,64083,1,0,0:0:0:0:
109,192,64083,1,0,0:0:0:0:
36,192,64083,1,0,0:0:0:0:
329,192,64083,1,0,0:0:0:0:
256,192,64191,1,0,0:0:0:0:
109,192,64191,1,0,0:0:0:0:
402,192,64298,1,0,0:0:0:0:
475,192,64298,1,0,0:0:0:0:
329,192,64298,1,0,0:0:0:0:
182,192,64298,1,0,0:0:0:0:
402,192,64405,1,0,0:0:0:0:
329,192,64405,1,0,0:0:0:0:
256,192,64405,1,0,0:0:0:0:
109,192,64405,1,0,0:0:0:0:
329,192,64512,1,0,0:0:0:0:
402,192,64512,1,0,0:0:0:0:
182,192,64512,1,0,0:0:0:0:
36,192,64512,1,0,0:0:0:0:
109,192,64619,1,0,0:0:0:0:
402,192,64726,1,0,0:0:0:0:
475,192,64726,1,0,0:0:0:0:
256,192,64726,1,0,0:0:0:0:
182,192,64726,1,0,0:0:0:0:
36,192,64726,1,0,0:0:0:0:
402,192,64833,1,0,0:0:0:0:
329,192,64833,1,0,0:0:0:0:
329,192,64941,1,0,0:0:0:0:
182,192,64941,1,0,0:0:0:0:
36,192,64941,1,0,0:0:0:0:
182,192,65048,1,0,0:0:0:0:
475,192,65155,1,0,0:0:0:0:
402,192,65155,1,0,0:0:0:0:
256,192,65155,1,0,0:0:0:0:
109,192,65155,1,0,0:0:0:0:
36,192,65155,1,0,0:0:0:0:
256,192,65262,1,0,0:0:0:0:
109,192,65262,1,0,0:0:0:0:
329,192,65262,1,0,0:0:0:0:
36,192,65262,1,0,0:0:0:0:
256,192,65369,1,0,0:0:0:0:
109,192,65369,1,0,0:0:0:0:
475,192,65369,1,0,0:0:0:0:
36,192,65369,1,0,0:0:0:0:
329,192,65476,1,0,0:0:0:0:
402,192,65583,1,0,0:0:0:0:
475,192,65583,1,0,0:0:0:0:
109,192,65583,1,0,0:0:0:0:
36,192,65583,1,0,0:0:0:0:
256,192,65583,1,0,0:0:0:0:
256,192,65691,1,0,0:0:0:0:
109,192,65691,1,0,0:0:0:0:
329,192,65798,1,0,0:0:0:0:
402,192,65798,1,0,0:0:0:0:
182,192,65798,1,0,0:0:0:0:
36,192,65798,1,0,0:0:0:0:
256,192,65905,1,0,0:0:0:0:
182,192,66012,1,0,0:0:0:0:
36,192,66012,1,0,0:0:0:0:
109,192,66012,1,0,0:0:0:0:
475,192,66012,1,0,0:0:0:0:
256,192,66012,1,0,0:0:0:0:
182,192,66119,1,0,0:0:0:0:
109,192,66119,1,0,0:0:0:0:
475,192,66119,1,0,0:0:0:0:
329,192,66119,1,0,0:0:0:0:
402,192,66226,1,0,0:0:0:0:
256,192,66226,1,0,0:0:0:0:
109,192,66226,1,0,0:0:0:0:
36,192,66226,1,0,0:0:0:0:
329,192,66333,1,0,0:0:0:0:
475,192,66441,1,0,0:0:0:0:
402,192,66441,1,0,0:0:0:0:
182,192,66441,1,0,0:0:0:0:
109,192,66441,1,0,0:0:0:0:
36,192,66441,1,0,0:0:0:0:
256,192,66441,1,0,0:0:0:0:
329,192,66548,1,0,0:0:0:0:
182,192,66548,1,0,0:0:0:0:
109,192,66548,1,0,0:0:0:0:
36,192,66548,1,0,0:0:0:0:
402,192,66655,1,0,0:0:0:0:
475,192,66655,1,0,0:0:0:0:
329,192,66762,1,0,0:0:0:0:
182,192,66762,1,0,0:0:0:0:
329,192,66869,1,0,0:0:0:0:
256,192,66869,1,0,0:0:0:0:
109,192,66869,1,0,0:0:0:0:
36,192,66869,1,0,0:0:0:0:
475,192,66869,1,0,0:0:0:0:
109,192,66976,1,0,0:0:0:0:
402,192,66976,1,0,0:0:0:0:
402,192,67083,1,0,0:0:0:0:
256,192,67083,1,0,0:0:0:0:
182,192,67083,1,0,0:0:0:0:
36,192,67083,1,0,0:0:0:0:
109,192,67191,1,0,0:0:0:0:
475,192,67191,1,0,0:0:0:0:
329,192,67191,1,0,0:0:0:0:
329,192,67298,1,0,0:0:0:0:
109,192,67298,1,0,0:0:0:0:
36,192,67298,1,0,0:0:0:0:
475,192,67298,1,0,0:0:0:0:
256,192,67298,1,0,0:0:0:0:
402,192,67405,1,0,0:0:0:0:
182,192,67405,1,0,0:0:0:0:
36,192,67405,1,0,0:0:0:0:
329,192,67512,1,0,0:0:0:0:
475,192,67512,1,0,0:0:0:0:
109,192,67512,1,0,0:0:0:0:
256,192,67512,1,0,0:0:0:0:
329,192,67619,1,0,0:0:0:0:
475,192,67619,1,0,0:0:0:0:
402,192,67726,1,0,0:0:0:0:
256,192,67726,1,0,0:0:0:0:
182,192,67726,1,0,0:0:0:0:
109,192,67726,1,0,0:0:0:0:
36,192,67726,1,0,0:0:0:0:
36,192,67833,1,0,0:0:0:0:
109,192,67833,1,0,0:0:0:0:
182,192,67833,1,0,0:0:0:0:
256,192,67941,1,0,0:0:0:0:
475,192,67941,1,0,0:0:0:0:
402,192,67941,1,0,0:0:0:0:
182,192,67941,1,0,0:0:0:0:
109,192,67941,1,0,0:0:0:0:
36,192,67941,1,0,0:0:0:0:
329,192,67941,1,0,0:0:0:0:
402,192,68048,1,0,0:0:0:0:
475,192,68048,1,0,0:0:0:0:
329,192,68048,1,0,0:0:0:0:
182,192,68155,1,0,0:0:0:0:
109,192,68155,1,0,0:0:0:0:
36,192,68155,1,0,0:0:0:0:
329,192,68208,1,0,0:0:0:0:
402,192,68208,1,0,0:0:0:0:
475,192,68208,1,0,0:0:0:0:
36,192,68262,1,0,0:0:0:0:
182,192,68262,1,0,0:0:0:0:
109,192,68262,1,0,0:0:0:0:
329,192,68316,1,0,0:0:0:0:
402,192,68316,1,0,0:0:0:0:
475,192,68316,1,0,0:0:0:0:
182,192,68369,1,0,0:0:0:0:
109,192,68369,1,0,0:0:0:0:
36,192,68369,1,0,0:0:0:0:
329,192,68423,1,0,0:0:0:0:
402,192,68423,1,0,0:0:0:0:
475,192,68423,1,0,0:0:0:0:
182,192,68476,1,0,0:0:0:0:
109,192,68476,1,0,0:0:0:0:
36,192,68476,1,0,0:0:0:0:
329,192,68530,1,0,0:0:0:0:
402,192,68530,1,0,0:0:0:0:
475,192,68530,1,0,0:0:0:0:
256,192,68583,1,0,0:0:0:0:
36,192,69869,1,0,0:0:0:0:
109,192,69976,1,0,0:0:0:0:
182,192,70083,1,0,0:0:0:0:
256,192,70191,1,0,0:0:0:0:
475,192,70298,1,0,0:0:0:0:
36,192,70298,1,0,0:0:0:0:
109,192,70298,1,0,0:0:0:0:
182,192,70298,1,0,0:0:0:0:
329,192,70298,1,0,0:0:0:0:
256,192,70298,1,0,0:0:0:0:
182,192,70619,1,0,0:0:0:0:
402,192,70941,1,0,0:0:0:0:
329,192,71369,1,0,0:0:0:0:
109,192,71798,1,0,0:0:0:0:
182,192,71905,1,0,0:0:0:0:
256,192,72012,1,0,0:0:0:0:
182,192,72333,1,0,0:0:0:0:
475,192,72655,1,0,0:0:0:0:
329,192,73083,1,0,0:0:0:0:
182,192,73512,1,0,0:0:0:0:
109,192,73512,1,0,0:0:0:0:
36,192,73512,1,0,0:0:0:0:
329,192,73512,1,0,0:0:0:0:
402,192,73512,1,0,0:0:0:0:
475,192,73512,1,0,0:0:0:0:
182,192,73726,1,0,0:0:0:0:
109,192,73726,1,0,0:0:0:0:
36,192,73726,1,0,0:0:0:0:
402,192,73726,1,0,0:0:0:0:
329,192,73726,1,0,0:0:0:0:
475,192,73726,1,0,0:0:0:0:
256,192,74369,1,0,0:0:0:0:
182,192,75226,1,0,0:0:0:0:
256,192,75655,1,0,0:0:0:0:
182,192,75869,1,0,0:0:0:0:
109,192,76083,1,0,0:0:0:0:
36,192,77155,1,0,0:0:0:0:
109,192,77155,1,0,0:0:0:0:
182,192,77155,1,0,0:0:0:0:
329,192,77155,1,0,0:0:0:0:
475,192,77155,1,0,0:0:0:0:
402,192,77155,1,0,0:0:0:0:
256,192,77262,1,0,0:0:0:0:
182,192,77369,1,0,0:0:0:0:
256,192,77369,1,0,0:0:0:0:
109,192,77476,1,0,0:0:0:0:
256,192,77476,1,0,0:0:0:0:
36,192,77583,1,0,0:0:0:0:
329,192,77583,1,0,0:0:0:0:
475,192,77583,1,0,0:0:0:0:
182,192,77583,1,0,0:0:0:0:
329,192,77691,1,0,0:0:0:0:
182,192,77691,1,0,0:0:0:0:
329,192,77798,1,0,0:0:0:0:
109,192,77798,1,0,0:0:0:0:
329,192,77905,1,0,0:0:0:0:
182,192,77905,1,0,0:0:0:0:
36,192,78012,1,0,0:0:0:0:
256,192,78012,1,0,0:0:0:0:
475,192,78012,1,0,0:0:0:0:
36,192,78119,1,0,0:0:0:0:
402,192,78119,1,0,0:0:0:0:
36,192,78226,1,0,0:0:0:0:
329,192,78226,1,0,0:0:0:0:
36,192,78333,1,0,0:0:0:0:
402,192,78333,1,0,0:0:0:0:
475,192,78441,1,0,0:0:0:0:
109,192,78441,1,0,0:0:0:0:
256,192,78441,1,0,0:0:0:0:
475,192,78548,1,0,0:0:0:0:
182,192,78548,1,0,0:0:0:0:
475,192,78655,1,0,0:0:0:0:
36,192,78655,1,0,0:0:0:0:
475,192,78762,1,0,0:0:0:0:
109,192,78762,1,0,0:0:0:0:
182,192,78869,1,0,0:0:0:0:
329,192,78869,1,0,0:0:0:0:
36,192,78869,1,0,0:0:0:0:
256,192,78976,1,0,0:0:0:0:
36,192,78976,1,0,0:0:0:0:
109,192,79083,1,0,0:0:0:0:
36,192,79083,1,0,0:0:0:0:
182,192,79191,1,0,0:0:0:0:
36,192,79191,1,0,0:0:0:0:
256,192,79298,1,0,0:0:0:0:
36,192,79298,1,0,0:0:0:0:
402,192,79298,1,0,0:0:0:0:
256,192,79405,1,0,0:0:0:0:
109,192,79405,1,0,0:0:0:0:
256,192,79512,1,0,0:0:0:0:
475,192,79512,1,0,0:0:0:0:
256,192,79619,1,0,0:0:0:0:
402,192,79619,1,0,0:0:0:0:
329,192,79726,1,0,0:0:0:0:
109,192,79726,1,0,0:0:0:0:
36,192,79726,1,0,0:0:0:0:
329,192,79833,1,0,0:0:0:0:
182,192,79833,1,0,0:0:0:0:
329,192,79941,1,0,0:0:0:0:
36,192,79941,1,0,0:0:0:0:
329,192,80048,1,0,0:0:0:0:
109,192,80048,1,0,0:0:0:0:
182,192,80155,1,0,0:0:0:0:
475,192,80155,1,0,0:0:0:0:
256,192,80155,1,0,0:0:0:0:
182,192,80262,1,0,0:0:0:0:
402,192,80262,1,0,0:0:0:0:
182,192,80369,1,0,0:0:0:0:
329,192,80369,1,0,0:0:0:0:
182,192,80476,1,0,0:0:0:0:
402,192,80476,1,0,0:0:0:0:
109,192,80583,1,0,0:0:0:0:
36,192,80583,1,0,0:0:0:0:
256,192,80583,1,0,0:0:0:0:
475,192,80583,1,0,0:0:0:0:
109,192,80691,1,0,0:0:0:0:
182,192,80691,1,0,0:0:0:0:
329,192,80691,1,0,0:0:0:0:
256,192,80798,1,0,0:0:0:0:
402,192,80798,1,0,0:0:0:0:
475,192,80798,1,0,0:0:0:0:
36,192,80798,1,0,0:0:0:0:
182,192,80905,1,0,0:0:0:0:
109,192,80905,1,0,0:0:0:0:
329,192,80905,1,0,0:0:0:0:
256,192,81012,1,0,0:0:0:0:
402,192,81012,1,0,0:0:0:0:
475,192,81012,1,0,0:0:0:0:
36,192,81012,1,0,0:0:0:0:
182,192,81119,1,0,0:0:0:0:
402,192,81119,1,0,0:0:0:0:
475,192,81119,1,0,0:0:0:0:
329,192,81226,1,0,0:0:0:0:
109,192,81226,1,0,0:0:0:0:
36,192,81226,1,0,0:0:0:0:
256,192,81226,1,0,0:0:0:0:
182,192,81333,1,0,0:0:0:0:
329,192,81333,1,0,0:0:0:0:
402,192,81333,1,0,0:0:0:0:
109,192,81441,1,0,0:0:0:0:
36,192,81441,1,0,0:0:0:0:
256,192,81441,1,0,0:0:0:0:
475,192,81441,1,0,0:0:0:0:
109,192,81548,1,0,0:0:0:0:
329,192,81548,1,0,0:0:0:0:
36,192,81548,1,0,0:0:0:0:
182,192,81655,1,0,0:0:0:0:
256,192,81655,1,0,0:0:0:0:
402,192,81655,1,0,0:0:0:0:
475,192,81655,1,0,0:0:0:0:
109,192,81762,1,0,0:0:0:0:
329,192,81762,1,0,0:0:0:0:
182,192,81869,1,0,0:0:0:0:
36,192,81869,1,0,0:0:0:0:
402,192,81869,1,0,0:0:0:0:
475,192,81869,1,0,0:0:0:0:
256,192,81869,1,0,0:0:0:0:
329,192,81976,1,0,0:0:0:0:
109,192,81976,1,0,0:0:0:0:
182,192,82083,1,0,0:0:0:0:
329,192,82083,1,0,0:0:0:0:
36,192,82083,1,0,0:0:0:0:
475,192,82083,1,0,0:0:0:0:
182,192,82191,1,0,0:0:0:0:
402,192,82298,1,0,0:0:0:0:
475,192,82298,1,0,0:0:0:0:
256,192,82298,1,0,0:0:0:0:
109,192,82298,1,0,0:0:0:0:
36,192,82298,1,0,0:0:0:0:
402,192,82405,1,0,0:0:0:0:
475,192,82405,1,0,0:0:0:0:
256,192,82405,1,0,0:0:0:0:
475,192,82512,1,0,0:0:0:0:
402,192,82512,1,0,0:0:0:0:
182,192,82512,1,0,0:0:0:0:
402,192,82619,1,0,0:0:0:0:
475,192,82619,1,0,0:0:0:0:
182,192,82619,1,0,0:0:0:0:
109,192,82726,1,0,0:0:0:0:
36,192,82726,1,0,0:0:0:0:
256,192,82726,1,0,0:0:0:0:
109,192,82833,1,0,0:0:0:0:
36,192,82833,1,0,0:0:0:0:
256,192,82833,1,0,0:0:0:0:
109,192,82941,1,0,0:0:0:0:
36,192,82941,1,0,0:0:0:0:
329,192,82941,1,0,0:0:0:0:
109,192,83048,1,0,0:0:0:0:
36,192,83048,1,0,0:0:0:0:
329,192,83048,1,0,0:0:0:0:
475,192,83155,1,0,0:0:0:0:
402,192,83155,1,0,0:0:0:0:
256,192,83155,1,0,0:0:0:0:
182,192,83155,1,0,0:0:0:0:
256,192,83262,1,0,0:0:0:0:
182,192,83262,1,0,0:0:0:0:
402,192,83262,1,0,0:0:0:0:
475,192,83262,1,0,0:0:0:0:
329,192,83369,1,0,0:0:0:0:
256,192,83369,1,0,0:0:0:0:
109,192,83369,1,0,0:0:0:0:
36,192,83369,1,0,0:0:0:0:
109,192,83476,1,0,0:0:0:0:
36,192,83476,1,0,0:0:0:0:
256,192,83476,1,0,0:0:0:0:
329,192,83476,1,0,0:0:0:0:
329,192,83583,1,0,0:0:0:0:
402,192,83583,1,0,0:0:0:0:
475,192,83583,1,0,0:0:0:0:
182,192,83637,1,0,0:0:0:0:
109,192,83637,1,0,0:0:0:0:
36,192,83637,1,0,0:0:0:0:
329,192,83691,1,0,0:0:0:0:
402,192,83691,1,0,0:0:0:0:
475,192,83691,1,0,0:0:0:0:
182,192,83744,1,0,0:0:0:0:
109,192,83744,1,0,0:0:0:0:
36,192,83744,1,0,0:0:0:0:
329,192,83798,1,0,0:0:0:0:
402,192,83798,1,0,0:0:0:0:
475,192,83798,1,0,0:0:0:0:
182,192,83851,1,0,0:0:0:0:
109,192,83851,1,0,0:0:0:0:
36,192,83851,1,0,0:0:0:0:
329,192,83905,1,0,0:0:0:0:
402,192,83905,1,0,0:0:0:0:
475,192,83905,1,0,0:0:0:0:
182,192,83958,1,0,0:0:0:0:
109,192,83958,1,0,0:0:0:0:
36,192,83958,1,0,0:0:0:0:
329,192,84012,1,0,0:0:0:0:
475,192,84012,1,0,0:0:0:0:
402,192,84012,1,0,0:0:0:0:
256,192,84012,1,0,0:0:0:0:
182,192,84119,1,0,0:0:0:0:
109,192,84119,1,0,0:0:0:0:
36,192,84119,1,0,0:0:0:0:
109,192,84226,1,0,0:0:0:0:
182,192,84226,1,0,0:0:0:0:
329,192,84226,1,0,0:0:0:0:
475,192,84226,1,0,0:0:0:0:
36,192,84333,1,0,0:0:0:0:
256,192,84333,1,0,0:0:0:0:
475,192,84333,1,0,0:0:0:0:
329,192,84333,1,0,0:0:0:0:
182,192,84441,1,0,0:0:0:0:
109,192,84441,1,0,0:0:0:0:
256,192,84441,1,0,0:0:0:0:
402,192,84441,1,0,0:0:0:0:
36,192,84548,1,0,0:0:0:0:
109,192,84548,1,0,0:0:0:0:
329,192,84548,1,0,0:0:0:0:
256,192,84655,1,0,0:0:0:0:
182,192,84655,1,0,0:0:0:0:
109,192,84655,1,0,0:0:0:0:
402,192,84655,1,0,0:0:0:0:
475,192,84655,1,0,0:0:0:0:
182,192,84762,1,0,0:0:0:0:
329,192,84762,1,0,0:0:0:0:
402,192,84762,1,0,0:0:0:0:
109,192,84869,1,0,0:0:0:0:
36,192,84869,1,0,0:0:0:0:
256,192,84869,1,0,0:0:0:0:
182,192,84976,1,0,0:0:0:0:
329,192,84976,1,0,0:0:0:0:
402,192,84976,1,0,0:0:0:0:
475,192,84976,1,0,0:0:0:0:
109,192,85083,1,0,0:0:0:0:
475,192,85083,1,0,0:0:0:0:
329,192,85083,1,0,0:0:0:0:
36,192,85083,1,0,0:0:0:0:
402,192,85083,1,0,0:0:0:0:
109,192,85191,1,0,0:0:0:0:
36,192,85191,1,0,0:0:0:0:
256,192,85191,1,0,0:0:0:0:
182,192,85298,1,0,0:0:0:0:
329,192,85298,1,0,0:0:0:0:
475,192,85298,1,0,0:0:0:0:
402,192,85298,1,0,0:0:0:0:
109,192,85298,1,0,0:0:0:0:
182,192,85405,1,0,0:0:0:0:
475,192,85405,1,0,0:0:0:0:
329,192,85405,1,0,0:0:0:0:
256,192,85512,1,0,0:0:0:0:
36,192,85512,1,0,0:0:0:0:
329,192,85512,1,0,0:0:0:0:
256,192,85619,1,0,0:0:0:0:
109,192,85619,1,0,0:0:0:0:
402,192,85619,1,0,0:0:0:0:
36,192,85726,1,0,0:0:0:0:
109,192,85726,1,0,0:0:0:0:
182,192,85726,1,0,0:0:0:0:
402,192,85726,1,0,0:0:0:0:
475,192,85726,1,0,0:0:0:0:
182,192,85833,1,0,0:0:0:0:
402,192,85833,1,0,0:0:0:0:
329,192,85833,1,0,0:0:0:0:
36,192,85941,1,0,0:0:0:0:
109,192,85941,1,0,0:0:0:0:
256,192,85941,1,0,0:0:0:0:
475,192,85941,1,0,0:0:0:0:
329,192,85941,1,0,0:0:0:0:
182,192,86048,1,0,0:0:0:0:
402,192,86048,1,0,0:0:0:0:
109,192,86155,1,0,0:0:0:0:
36,192,86155,1,0,0:0:0:0:
256,192,86155,1,0,0:0:0:0:
329,192,86155,1,0,0:0:0:0:
475,192,86155,1,0,0:0:0:0:
109,192,86262,1,0,0:0:0:0:
329,192,86262,1,0,0:0:0:0:
475,192,86262,1,0,0:0:0:0:
109,192,86369,1,0,0:0:0:0:
36,192,86369,1,0,0:0:0:0:
182,192,86369,1,0,0:0:0:0:
256,192,86369,1,0,0:0:0:0:
402,192,86369,1,0,0:0:0:0:
182,192,86476,1,0,0:0:0:0:
402,192,86476,1,0,0:0:0:0:
329,192,86476,1,0,0:0:0:0:
256,192,86583,1,0,0:0:0:0:
475,192,86583,1,0,0:0:0:0:
36,192,86583,1,0,0:0:0:0:
109,192,86583,1,0,0:0:0:0:
109,192,86691,1,0,0:0:0:0:
256,192,86691,1,0,0:0:0:0:
182,192,86798,1,0,0:0:0:0:
36,192,86798,1,0,0:0:0:0:
329,192,86798,1,0,0:0:0:0:
475,192,86798,1,0,0:0:0:0:
402,192,86798,1,0,0:0:0:0:
182,192,86905,1,0,0:0:0:0:
329,192,86905,1,0,0:0:0:0:
402,192,86905,1,0,0:0:0:0:
36,192,87012,1,0,0:0:0:0:
256,192,87012,1,0,0:0:0:0:
329,192,87012,1,0,0:0:0:0:
402,192,87012,1,0,0:0:0:0:
475,192,87012,1,0,0:0:0:0:
109,192,87012,1,0,0:0:0:0:
36,192,87119,1,0,0:0:0:0:
256,192,87119,1,0,0:0:0:0:
475,192,87119,1,0,0:0:0:0:
182,192,87226,1,0,0:0:0:0:
329,192,87226,1,0,0:0:0:0:
109,192,87226,1,0,0:0:0:0:
182,192,87333,1,0,0:0:0:0:
402,192,87333,1,0,0:0:0:0:
109,192,87441,1,0,0:0:0:0:
36,192,87441,1,0,0:0:0:0:
329,192,87441,1,0,0:0:0:0:
402,192,87441,1,0,0:0:0:0:
475,192,87441,1,0,0:0:0:0:
36,192,87548,1,0,0:0:0:0:
182,192,87548,1,0,0:0:0:0:
256,192,87548,1,0,0:0:0:0:
402,192,87548,1,0,0:0:0:0:
109,192,87655,1,0,0:0:0:0:
329,192,87655,1,0,0:0:0:0:
182,192,87655,1,0,0:0:0:0:
256,192,87762,1,0,0:0:0:0:
402,192,87762,1,0,0:0:0:0:
475,192,87762,1,0,0:0:0:0:
36,192,87762,1,0,0:0:0:0:
475,192,87869,1,0,0:0:0:0:
109,192,87869,1,0,0:0:0:0:
182,192,87869,1,0,0:0:0:0:
329,192,87869,1,0,0:0:0:0:
402,192,87869,1,0,0:0:0:0:
182,192,87976,1,0,0:0:0:0:
329,192,87976,1,0,0:0:0:0:
109,192,88083,1,0,0:0:0:0:
36,192,88083,1,0,0:0:0:0:
256,192,88083,1,0,0:0:0:0:
402,192,88083,1,0,0:0:0:0:
475,192,88083,1,0,0:0:0:0:
36,192,88191,1,0,0:0:0:0:
109,192,88191,1,0,0:0:0:0:
256,192,88191,1,0,0:0:0:0:
329,192,88191,1,0,0:0:0:0:
182,192,88298,1,0,0:0:0:0:
329,192,88298,1,0,0:0:0:0:
402,192,88298,1,0,0:0:0:0:
475,192,88298,1,0,0:0:0:0:
109,192,88405,1,0,0:0:0:0:
256,192,88405,1,0,0:0:0:0:
36,192,88405,1,0,0:0:0:0:
36,192,88512,1,0,0:0:0:0:
109,192,88512,1,0,0:0:0:0:
182,192,88512,1,0,0:0:0:0:
329,192,88512,1,0,0:0:0:0:
402,192,88512,1,0,0:0:0:0:
475,192,88512,1,0,0:0:0:0:
182,192,88619,1,0,0:0:0:0:
329,192,88619,1,0,0:0:0:0:
256,192,88726,1,0,0:0:0:0:
402,192,88726,1,0,0:0:0:0:
475,192,88726,1,0,0:0:0:0:
109,192,88726,1,0,0:0:0:0:
36,192,88726,1,0,0:0:0:0:
182,192,88833,1,0,0:0:0:0:
36,192,88833,1,0,0:0:0:0:
329,192,88833,1,0,0:0:0:0:
402,192,88941,1,0,0:0:0:0:
109,192,88941,1,0,0:0:0:0:
402,192,89048,1,0,0:0:0:0:
256,192,89048,1,0,0:0:0:0:
182,192,89048,1,0,0:0:0:0:
109,192,89155,1,0,0:0:0:0:
36,192,89155,1,0,0:0:0:0:
182,192,89155,1,0,0:0:0:0:
256,192,89155,1,0,0:0:0:0:
475,192,89155,1,0,0:0:0:0:
109,192,89262,1,0,0:0:0:0:
329,192,89262,1,0,0:0:0:0:
402,192,89262,1,0,0:0:0:0:
182,192,89369,1,0,0:0:0:0:
36,192,89369,1,0,0:0:0:0:
402,192,89369,1,0,0:0:0:0:
329,192,89369,1,0,0:0:0:0:
256,192,89476,1,0,0:0:0:0:
475,192,89476,1,0,0:0:0:0:
182,192,89583,1,0,0:0:0:0:
402,192,89583,1,0,0:0:0:0:
36,192,89583,1,0,0:0:0:0:
109,192,89583,1,0,0:0:0:0:
182,192,89691,1,0,0:0:0:0:
402,192,89691,1,0,0:0:0:0:
109,192,89798,1,0,0:0:0:0:
475,192,89798,1,0,0:0:0:0:
329,192,89798,1,0,0:0:0:0:
256,192,89798,1,0,0:0:0:0:
329,192,89905,1,0,0:0:0:0:
109,192,89905,1,0,0:0:0:0:
182,192,90012,1,0,0:0:0:0:
402,192,90012,1,0,0:0:0:0:
36,192,90012,1,0,0:0:0:0:
182,192,90119,1,0,0:0:0:0:
329,192,90119,1,0,0:0:0:0:
109,192,90119,1,0,0:0:0:0:
109,192,90226,1,0,0:0:0:0:
256,192,90226,1,0,0:0:0:0:
402,192,90226,1,0,0:0:0:0:
329,192,90333,1,0,0:0:0:0:
402,192,90333,1,0,0:0:0:0:
182,192,90333,1,0,0:0:0:0:
109,192,90441,1,0,0:0:0:0:
36,192,90441,1,0,0:0:0:0:
256,192,90441,1,0,0:0:0:0:
475,192,90441,1,0,0:0:0:0:
402,192,90441,1,0,0:0:0:0:
182,192,90548,1,0,0:0:0:0:
329,192,90548,1,0,0:0:0:0:
256,192,90655,1,0,0:0:0:0:
109,192,90655,1,0,0:0:0:0:
402,192,90655,1,0,0:0:0:0:
256,192,90762,1,0,0:0:0:0:
36,192,90762,1,0,0:0:0:0:
475,192,90762,1,0,0:0:0:0:
109,192,90869,1,0,0:0:0:0:
182,192,90869,1,0,0:0:0:0:
36,192,90869,1,0,0:0:0:0:
329,192,90869,1,0,0:0:0:0:
475,192,90869,1,0,0:0:0:0:
402,192,90869,1,0,0:0:0:0:
109,192,90976,1,0,0:0:0:0:
182,192,90976,1,0,0:0:0:0:
402,192,91083,1,0,0:0:0:0:
475,192,91083,1,0,0:0:0:0:
329,192,91083,1,0,0:0:0:0:
256,192,91083,1,0,0:0:0:0:
109,192,91191,1,0,0:0:0:0:
182,192,91191,1,0,0:0:0:0:
36,192,91298,1,0,0:0:0:0:
109,192,91298,1,0,0:0:0:0:
182,192,91298,1,0,0:0:0:0:
256,192,91298,1,0,0:0:0:0:
329,192,91298,1,0,0:0:0:0:
402,192,91298,1,0,0:0:0:0:
475,192,91298,1,0,0:0:0:0:
329,192,91405,1,0,0:0:0:0:
402,192,91405,1,0,0:0:0:0:
256,192,91512,1,0,0:0:0:0:
109,192,91512,1,0,0:0:0:0:
475,192,91512,1,0,0:0:0:0:
36,192,91512,1,0,0:0:0:0:
182,192,91619,1,0,0:0:0:0:
329,192,91619,1,0,0:0:0:0:
182,192,91726,1,0,0:0:0:0:
109,192,91726,1,0,0:0:0:0:
36,192,91726,1,0,0:0:0:0:
256,192,91726,1,0,0:0:0:0:
329,192,91726,1,0,0:0:0:0:
475,192,91726,1,0,0:0:0:0:
402,192,91726,1,0,0:0:0:0:
109,192,91833,1,0,0:0:0:0:
36,192,91833,1,0,0:0:0:0:
182,192,91941,1,0,0:0:0:0:
329,192,91941,1,0,0:0:0:0:
402,192,91941,1,0,0:0:0:0:
475,192,91941,1,0,0:0:0:0:
36,192,92048,1,0,0:0:0:0:
109,192,92048,1,0,0:0:0:0:
36,192,92155,1,0,0:0:0:0:
109,192,92155,1,0,0:0:0:0:
182,192,92155,1,0,0:0:0:0:
256,192,92155,1,0,0:0:0:0:
329,192,92155,1,0,0:0:0:0:
402,192,92155,1,0,0:0:0:0:
475,192,92155,1,0,0:0:0:0:
329,192,92262,1,0,0:0:0:0:
402,192,92262,1,0,0:0:0:0:
475,192,92262,1,0,0:0:0:0:
182,192,92369,1,0,0:0:0:0:
109,192,92369,1,0,0:0:0:0:
36,192,92369,1,0,0:0:0:0:
256,192,92369,1,0,0:0:0:0:
329,192,92476,1,0,0:0:0:0:
182,192,92476,1,0,0:0:0:0:
36,192,92583,1,0,0:0:0:0:
109,192,92583,1,0,0:0:0:0:
256,192,92583,1,0,0:0:0:0:
475,192,92583,1,0,0:0:0:0:
402,192,92583,1,0,0:0:0:0:
402,192,92691,1,0,0:0:0:0:
36,192,92691,1,0,0:0:0:0:
109,192,92798,1,0,0:0:0:0:
182,192,92798,1,0,0:0:0:0:
256,192,92798,1,0,0:0:0:0:
329,192,92798,1,0,0:0:0:0:
402,192,92905,1,0,0:0:0:0:
475,192,92905,1,0,0:0:0:0:
402,192,93012,1,0,0:0:0:0:
475,192,93012,1,0,0:0:0:0:
329,192,93012,1,0,0:0:0:0:
256,192,93012,1,0,0:0:0:0:
109,192,93012,1,0,0:0:0:0:
36,192,93012,1,0,0:0:0:0:
182,192,93012,1,0,0:0:0:0:
109,192,93119,1,0,0:0:0:0:
256,192,93119,1,0,0:0:0:0:
329,192,93226,1,0,0:0:0:0:
475,192,93226,1,0,0:0:0:0:
182,192,93226,1,0,0:0:0:0:
402,192,93226,1,0,0:0:0:0:
109,192,93333,1,0,0:0:0:0:
36,192,93333,1,0,0:0:0:0:
36,192,93441,1,0,0:0:0:0:
109,192,93441,1,0,0:0:0:0:
182,192,93441,1,0,0:0:0:0:
256,192,93441,1,0,0:0:0:0:
329,192,93441,1,0,0:0:0:0:
402,192,93441,1,0,0:0:0:0:
475,192,93441,1,0,0:0:0:0:
182,192,93548,1,0,0:0:0:0:
329,192,93548,1,0,0:0:0:0:
256,192,93655,1,0,0:0:0:0:
36,192,93655,1,0,0:0:0:0:
402,192,93655,1,0,0:0:0:0:
109,192,93655,1,0,0:0:0:0:
329,192,93762,1,0,0:0:0:0:
475,192,93762,1,0,0:0:0:0:
256,192,93869,1,0,0:0:0:0:
182,192,93869,1,0,0:0:0:0:
109,192,93869,1,0,0:0:0:0:
36,192,93869,1,0,0:0:0:0:
329,192,93869,1,0,0:0:0:0:
402,192,93869,1,0,0:0:0:0:
475,192,93869,1,0,0:0:0:0:
182,192,93976,1,0,0:0:0:0:
109,192,93976,1,0,0:0:0:0:
475,192,94083,1,0,0:0:0:0:
256,192,94083,1,0,0:0:0:0:
36,192,94083,1,0,0:0:0:0:
329,192,94083,1,0,0:0:0:0:
402,192,94191,1,0,0:0:0:0:
182,192,94191,1,0,0:0:0:0:
109,192,94298,1,0,0:0:0:0:
36,192,94298,1,0,0:0:0:0:
182,192,94298,1,0,0:0:0:0:
329,192,94298,1,0,0:0:0:0:
475,192,94298,1,0,0:0:0:0:
329,192,94405,1,0,0:0:0:0:
475,192,94405,1,0,0:0:0:0:
182,192,94512,1,0,0:0:0:0:
256,192,94512,1,0,0:0:0:0:
402,192,94512,1,0,0:0:0:0:
36,192,94512,1,0,0:0:0:0:
329,192,94619,1,0,0:0:0:0:
109,192,94619,1,0,0:0:0:0:
36,192,94726,1,0,0:0:0:0:
109,192,94726,1,0,0:0:0:0:
256,192,94726,1,0,0:0:0:0:
329,192,94726,1,0,0:0:0:0:
475,192,94726,1,0,0:0:0:0:
402,192,94726,1,0,0:0:0:0:
182,192,94726,1,0,0:0:0:0:
475,192,94833,1,0,0:0:0:0:
402,192,94833,1,0,0:0:0:0:
36,192,94941,1,0,0:0:0:0:
329,192,94941,1,0,0:0:0:0:
256,192,94941,1,0,0:0:0:0:
182,192,95048,1,0,0:0:0:0:
109,192,95048,1,0,0:0:0:0:
36,192,95155,1,0,0:0:0:0:
109,192,95155,1,0,0:0:0:0:
256,192,95155,1,0,0:0:0:0:
329,192,95155,1,0,0:0:0:0:
402,192,95155,1,0,0:0:0:0:
475,192,95155,1,0,0:0:0:0:
182,192,95155,1,0,0:0:0:0:
329,192,95262,1,0,0:0:0:0:
402,192,95262,1,0,0:0:0:0:
475,192,95369,1,0,0:0:0:0:
109,192,95369,1,0,0:0:0:0:
36,192,95369,1,0,0:0:0:0:
256,192,95369,1,0,0:0:0:0:
182,192,95476,1,0,0:0:0:0:
329,192,95476,1,0,0:0:0:0:
36,192,95583,1,0,0:0:0:0:
109,192,95583,1,0,0:0:0:0:
182,192,95583,1,0,0:0:0:0:
329,192,95583,1,0,0:0:0:0:
475,192,95583,1,0,0:0:0:0:
256,192,95583,1,0,0:0:0:0:
402,192,95583,1,0,0:0:0:0:
402,192,95691,1,0,0:0:0:0:
475,192,95691,1,0,0:0:0:0:
329,192,95798,1,0,0:0:0:0:
256,192,95798,1,0,0:0:0:0:
182,192,95798,1,0,0:0:0:0:
36,192,95905,1,0,0:0:0:0:
109,192,95905,1,0,0:0:0:0:
36,192,96012,1,0,0:0:0:0:
182,192,96012,1,0,0:0:0:0:
475,192,96012,1,0,0:0:0:0:
329,192,96012,1,0,0:0:0:0:
256,192,96012,1,0,0:0:0:0:
109,192,96012,1,0,0:0:0:0:
402,192,96012,1,0,0:0:0:0:
402,192,96119,1,0,0:0:0:0:
329,192,96119,1,0,0:0:0:0:
475,192,96226,1,0,0:0:0:0:
36,192,96226,1,0,0:0:0:0:
182,192,96226,1,0,0:0:0:0:
256,192,96226,1,0,0:0:0:0:
182,192,96333,1,0,0:0:0:0:
402,192,96333,1,0,0:0:0:0:
329,192,96333,1,0,0:0:0:0:
109,192,96441,1,0,0:0:0:0:
36,192,96441,1,0,0:0:0:0:
402,192,96441,1,0,0:0:0:0:
475,192,96441,1,0,0:0:0:0:
256,192,96441,1,0,0:0:0:0:
329,192,96548,1,0,0:0:0:0:
182,192,96548,1,0,0:0:0:0:
256,192,96655,1,0,0:0:0:0:
475,192,96655,1,0,0:0:0:0:
402,192,96655,1,0,0:0:0:0:
109,192,96655,1,0,0:0:0:0:
36,192,96655,1,0,0:0:0:0:
109,192,96762,1,0,0:0:0:0:
256,192,96762,1,0,0:0:0:0:
182,192,96869,1,0,0:0:0:0:
329,192,96869,1,0,0:0:0:0:
402,192,96869,1,0,0:0:0:0:
475,192,96869,1,0,0:0:0:0:
36,192,96869,1,0,0:0:0:0:
256,192,96976,1,0,0:0:0:0:
402,192,96976,1,0,0:0:0:0:
109,192,97083,1,0,0:0:0:0:
36,192,97083,1,0,0:0:0:0:
182,192,97083,1,0,0:0:0:0:
329,192,97083,1,0,0:0:0:0:
475,192,97083,1,0,0:0:0:0:
109,192,97191,1,0,0:0:0:0:
36,192,97191,1,0,0:0:0:0:
256,192,97191,1,0,0:0:0:0:
329,192,97298,1,0,0:0:0:0:
402,192,97298,1,0,0:0:0:0:
475,192,97298,1,0,0:0:0:0:
182,192,97351,1,0,0:0:0:0:
109,192,97351,1,0,0:0:0:0:
36,192,97351,1,0,0:0:0:0:
329,192,97405,1,0,0:0:0:0:
475,192,97405,1,0,0:0:0:0:
402,192,97405,1,0,0:0:0:0:
182,192,97458,1,0,0:0:0:0:
109,192,97458,1,0,0:0:0:0:
36,192,97458,1,0,0:0:0:0:
329,192,97512,1,0,0:0:0:0:
402,192,97512,1,0,0:0:0:0:
475,192,97512,1,0,0:0:0:0:
182,192,97566,1,0,0:0:0:0:
109,192,97566,1,0,0:0:0:0:
36,192,97566,1,0,0:0:0:0:
329,192,97619,1,0,0:0:0:0:
402,192,97619,1,0,0:0:0:0:
475,192,97619,1,0,0:0:0:0:
36,192,97673,1,0,0:0:0:0:
109,192,97673,1,0,0:0:0:0:
182,192,97673,1,0,0:0:0:0:
329,192,97726,1,0,0:0:0:0:
402,192,97726,1,0,0:0:0:0:
475,192,97726,1,0,0:0:0:0:
256,192,97726,1,0,0:0:0:0:
256,192,97833,1,0,0:0:0:0:
109,192,97833,1,0,0:0:0:0:
36,192,97833,1,0,0:0:0:0:
329,192,97941,1,0,0:0:0:0:
402,192,97941,1,0,0:0:0:0:
182,192,97941,1,0,0:0:0:0:
475,192,97941,1,0,0:0:0:0:
36,192,98048,1,0,0:0:0:0:
256,192,98048,1,0,0:0:0:0:
109,192,98048,1,0,0:0:0:0:
36,192,98155,1,0,0:0:0:0:
109,192,98155,1,0,0:0:0:0:
256,192,98155,1,0,0:0:0:0:
402,192,98155,1,0,0:0:0:0:
475,192,98155,1,0,0:0:0:0:
182,192,98262,1,0,0:0:0:0:
329,192,98262,1,0,0:0:0:0:
256,192,98369,1,0,0:0:0:0:
475,192,98369,1,0,0:0:0:0:
109,192,98369,1,0,0:0:0:0:
329,192,98369,1,0,0:0:0:0:
36,192,98369,1,0,0:0:0:0:
182,192,98476,1,0,0:0:0:0:
109,192,98476,1,0,0:0:0:0:
329,192,98476,1,0,0:0:0:0:
475,192,98476,1,0,0:0:0:0:
402,192,98583,1,0,0:0:0:0:
36,192,98583,1,0,0:0:0:0:
256,192,98583,1,0,0:0:0:0:
109,192,98691,1,0,0:0:0:0:
182,192,98691,1,0,0:0:0:0:
329,192,98691,1,0,0:0:0:0:
475,192,98691,1,0,0:0:0:0:
109,192,98798,1,0,0:0:0:0:
182,192,98798,1,0,0:0:0:0:
329,192,98798,1,0,0:0:0:0:
475,192,98798,1,0,0:0:0:0:
402,192,98905,1,0,0:0:0:0:
36,192,98905,1,0,0:0:0:0:
256,192,98905,1,0,0:0:0:0:
182,192,99012,1,0,0:0:0:0:
36,192,99012,1,0,0:0:0:0:
475,192,99012,1,0,0:0:0:0:
329,192,99012,1,0,0:0:0:0:
109,192,99012,1,0,0:0:0:0:
256,192,99119,1,0,0:0:0:0:
402,192,99119,1,0,0:0:0:0:
256,192,99226,1,0,0:0:0:0:
109,192,99226,1,0,0:0:0:0:
329,192,99226,1,0,0:0:0:0:
256,192,99333,1,0,0:0:0:0:
109,192,99333,1,0,0:0:0:0:
475,192,99333,1,0,0:0:0:0:
475,192,99441,1,0,0:0:0:0:
402,192,99441,1,0,0:0:0:0:
329,192,99441,1,0,0:0:0:0:
182,192,99441,1,0,0:0:0:0:
36,192,99441,1,0,0:0:0:0:
329,192,99548,1,0,0:0:0:0:
182,192,99548,1,0,0:0:0:0:
475,192,99655,1,0,0:0:0:0:
402,192,99655,1,0,0:0:0:0:
256,192,99655,1,0,0:0:0:0:
36,192,99655,1,0,0:0:0:0:
109,192,99655,1,0,0:0:0:0:
402,192,99762,1,0,0:0:0:0:
256,192,99762,1,0,0:0:0:0:
109,192,99762,1,0,0:0:0:0:
329,192,99869,1,0,0:0:0:0:
475,192,99869,1,0,0:0:0:0:
182,192,99869,1,0,0:0:0:0:
36,192,99869,1,0,0:0:0:0:
182,192,99976,1,0,0:0:0:0:
36,192,99976,1,0,0:0:0:0:
402,192,100083,1,0,0:0:0:0:
475,192,100083,1,0,0:0:0:0:
329,192,100083,1,0,0:0:0:0:
256,192,100083,1,0,0:0:0:0:
109,192,100083,1,0,0:0:0:0:
402,192,100191,1,0,0:0:0:0:
475,192,100191,1,0,0:0:0:0:
182,192,100191,1,0,0:0:0:0:
36,192,100191,1,0,0:0:0:0:
256,192,100298,1,0,0:0:0:0:
182,192,100298,1,0,0:0:0:0:
36,192,100298,1,0,0:0:0:0:
329,192,100298,1,0,0:0:0:0:
329,192,100405,1,0,0:0:0:0:
109,192,100405,1,0,0:0:0:0:
402,192,100512,1,0,0:0:0:0:
475,192,100512,1,0,0:0:0:0:
256,192,100512,1,0,0:0:0:0:
36,192,100512,1,0,0:0:0:0:
182,192,100512,1,0,0:0:0:0:
329,192,100619,1,0,0:0:0:0:
402,192,100619,1,0,0:0:0:0:
109,192,100619,1,0,0:0:0:0:
475,192,100726,1,0,0:0:0:0:
256,192,100726,1,0,0:0:0:0:
182,192,100726,1,0,0:0:0:0:
36,192,100726,1,0,0:0:0:0:
402,192,100726,1,0,0:0:0:0:
329,192,100833,1,0,0:0:0:0:
109,192,100833,1,0,0:0:0:0:
182,192,100941,1,0,0:0:0:0:
256,192,100941,1,0,0:0:0:0:
402,192,100941,1,0,0:0:0:0:
182,192,101048,1,0,0:0:0:0:
329,192,101048,1,0,0:0:0:0:
402,192,101155,1,0,0:0:0:0:
475,192,101155,1,0,0:0:0:0:
256,192,101155,1,0,0:0:0:0:
109,192,101155,1,0,0:0:0:0:
36,192,101155,1,0,0:0:0:0:
475,192,101262,1,0,0:0:0:0:
329,192,101262,1,0,0:0:0:0:
109,192,101262,1,0,0:0:0:0:
402,192,101369,1,0,0:0:0:0:
329,192,101369,1,0,0:0:0:0:
182,192,101369,1,0,0:0:0:0:
36,192,101369,1,0,0:0:0:0:
256,192,101476,1,0,0:0:0:0:
109,192,101476,1,0,0:0:0:0:
475,192,101476,1,0,0:0:0:0:
475,192,101583,1,0,0:0:0:0:
402,192,101583,1,0,0:0:0:0:
329,192,101583,1,0,0:0:0:0:
182,192,101583,1,0,0:0:0:0:
109,192,101583,1,0,0:0:0:0:
109,192,101691,1,0,0:0:0:0:
256,192,101691,1,0,0:0:0:0:
329,192,101798,1,0,0:0:0:0:
402,192,101798,1,0,0:0:0:0:
475,192,101798,1,0,0:0:0:0:
182,192,101798,1,0,0:0:0:0:
36,192,101798,1,0,0:0:0:0:
475,192,101905,1,0,0:0:0:0:
256,192,101905,1,0,0:0:0:0:
109,192,101905,1,0,0:0:0:0:
402,192,102012,1,0,0:0:0:0:
182,192,102012,1,0,0:0:0:0:
329,192,102012,1,0,0:0:0:0:
36,192,102012,1,0,0:0:0:0:
36,192,102119,1,0,0:0:0:0:
256,192,102119,1,0,0:0:0:0:
109,192,102119,1,0,0:0:0:0:
475,192,102226,1,0,0:0:0:0:
402,192,102226,1,0,0:0:0:0:
329,192,102226,1,0,0:0:0:0:
109,192,102226,1,0,0:0:0:0:
182,192,102226,1,0,0:0:0:0:
329,192,102333,1,0,0:0:0:0:
402,192,102333,1,0,0:0:0:0:
36,192,102333,1,0,0:0:0:0:
182,192,102441,1,0,0:0:0:0:
256,192,102441,1,0,0:0:0:0:
36,192,102441,1,0,0:0:0:0:
402,192,102441,1,0,0:0:0:0:
475,192,102441,1,0,0:0:0:0:
256,192,102548,1,0,0:0:0:0:
329,192,102548,1,0,0:0:0:0:
109,192,102548,1,0,0:0:0:0:
182,192,102655,1,0,0:0:0:0:
402,192,102655,1,0,0:0:0:0:
475,192,102655,1,0,0:0:0:0:
182,192,102762,1,0,0:0:0:0:
329,192,102762,1,0,0:0:0:0:
36,192,102762,1,0,0:0:0:0:
402,192,102869,1,0,0:0:0:0:
475,192,102869,1,0,0:0:0:0:
256,192,102869,1,0,0:0:0:0:
109,192,102869,1,0,0:0:0:0:
36,192,102869,1,0,0:0:0:0:
402,192,102976,1,0,0:0:0:0:
182,192,102976,1,0,0:0:0:0:
329,192,103083,1,0,0:0:0:0:
475,192,103083,1,0,0:0:0:0:
256,192,103083,1,0,0:0:0:0:
109,192,103083,1,0,0:0:0:0:
36,192,103083,1,0,0:0:0:0:
329,192,103191,1,0,0:0:0:0:
109,192,103191,1,0,0:0:0:0:
182,192,103298,1,0,0:0:0:0:
36,192,103298,1,0,0:0:0:0:
475,192,103298,1,0,0:0:0:0:
402,192,103298,1,0,0:0:0:0:
329,192,103405,1,0,0:0:0:0:
182,192,103405,1,0,0:0:0:0:
402,192,103512,1,0,0:0:0:0:
36,192,103512,1,0,0:0:0:0:
109,192,103512,1,0,0:0:0:0:
256,192,103512,1,0,0:0:0:0:
475,192,103512,1,0,0:0:0:0:
256,192,103619,1,0,0:0:0:0:
402,192,103619,1,0,0:0:0:0:
329,192,103726,1,0,0:0:0:0:
109,192,103726,1,0,0:0:0:0:
36,192,103726,1,0,0:0:0:0:
329,192,103833,1,0,0:0:0:0:
182,192,103833,1,0,0:0:0:0:
402,192,103833,1,0,0:0:0:0:
402,192,103941,1,0,0:0:0:0:
256,192,103941,1,0,0:0:0:0:
109,192,103941,1,0,0:0:0:0:
182,192,104048,1,0,0:0:0:0:
109,192,104048,1,0,0:0:0:0:
329,192,104048,1,0,0:0:0:0:
402,192,104155,1,0,0:0:0:0:
475,192,104155,1,0,0:0:0:0:
256,192,104155,1,0,0:0:0:0:
36,192,104155,1,0,0:0:0:0:
109,192,104155,1,0,0:0:0:0:
182,192,104262,1,0,0:0:0:0:
36,192,104262,1,0,0:0:0:0:
256,192,104369,1,0,0:0:0:0:
109,192,104369,1,0,0:0:0:0:
402,192,104369,1,0,0:0:0:0:
256,192,104476,1,0,0:0:0:0:
182,192,104476,1,0,0:0:0:0:
475,192,104476,1,0,0:0:0:0:
182,192,104583,1,0,0:0:0:0:
109,192,104583,1,0,0:0:0:0:
329,192,104583,1,0,0:0:0:0:
402,192,104583,1,0,0:0:0:0:
475,192,104583,1,0,0:0:0:0:
36,192,104583,1,0,0:0:0:0:
329,192,104691,1,0,0:0:0:0:
402,192,104691,1,0,0:0:0:0:
256,192,104798,1,0,0:0:0:0:
109,192,104798,1,0,0:0:0:0:
36,192,104798,1,0,0:0:0:0:
475,192,104798,1,0,0:0:0:0:
109,192,104905,1,0,0:0:0:0:
36,192,104905,1,0,0:0:0:0:
109,192,105012,1,0,0:0:0:0:
36,192,105012,1,0,0:0:0:0:
182,192,105012,1,0,0:0:0:0:
256,192,105012,1,0,0:0:0:0:
329,192,105012,1,0,0:0:0:0:
402,192,105012,1,0,0:0:0:0:
475,192,105012,1,0,0:0:0:0:
256,192,105119,1,0,0:0:0:0:
402,192,105119,1,0,0:0:0:0:
182,192,105226,1,0,0:0:0:0:
36,192,105226,1,0,0:0:0:0:
329,192,105226,1,0,0:0:0:0:
109,192,105226,1,0,0:0:0:0:
402,192,105333,1,0,0:0:0:0:
475,192,105333,1,0,0:0:0:0:
182,192,105441,1,0,0:0:0:0:
109,192,105441,1,0,0:0:0:0:
36,192,105441,1,0,0:0:0:0:
256,192,105441,1,0,0:0:0:0:
329,192,105441,1,0,0:0:0:0:
402,192,105441,1,0,0:0:0:0:
475,192,105441,1,0,0:0:0:0:
109,192,105548,1,0,0:0:0:0:
36,192,105548,1,0,0:0:0:0:
182,192,105548,1,0,0:0:0:0:
329,192,105655,1,0,0:0:0:0:
256,192,105655,1,0,0:0:0:0:
402,192,105655,1,0,0:0:0:0:
475,192,105655,1,0,0:0:0:0:
182,192,105762,1,0,0:0:0:0:
36,192,105762,1,0,0:0:0:0:
36,192,105869,1,0,0:0:0:0:
109,192,105869,1,0,0:0:0:0:
182,192,105869,1,0,0:0:0:0:
256,192,105869,1,0,0:0:0:0:
329,192,105869,1,0,0:0:0:0:
402,192,105869,1,0,0:0:0:0:
475,192,105869,1,0,0:0:0:0:
329,192,105976,1,0,0:0:0:0:
402,192,105976,1,0,0:0:0:0:
109,192,106083,1,0,0:0:0:0:
36,192,106083,1,0,0:0:0:0:
256,192,106083,1,0,0:0:0:0:
475,192,106083,1,0,0:0:0:0:
182,192,106191,1,0,0:0:0:0:
329,192,106191,1,0,0:0:0:0:
36,192,106298,1,0,0:0:0:0:
109,192,106298,1,0,0:0:0:0:
256,192,106298,1,0,0:0:0:0:
329,192,106298,1,0,0:0:0:0:
402,192,106298,1,0,0:0:0:0:
475,192,106298,1,0,0:0:0:0:
182,192,106298,1,0,0:0:0:0:
109,192,106405,1,0,0:0:0:0:
36,192,106405,1,0,0:0:0:0:
256,192,106405,1,0,0:0:0:0:
329,192,106512,1,0,0:0:0:0:
402,192,106512,1,0,0:0:0:0:
475,192,106512,1,0,0:0:0:0:
182,192,106512,1,0,0:0:0:0:
109,192,106619,1,0,0:0:0:0:
36,192,106619,1,0,0:0:0:0:
475,192,106726,1,0,0:0:0:0:
182,192,106726,1,0,0:0:0:0:
329,192,106726,1,0,0:0:0:0:
402,192,106726,1,0,0:0:0:0:
256,192,106726,1,0,0:0:0:0:
256,192,106833,1,0,0:0:0:0:
109,192,106833,1,0,0:0:0:0:
109,192,106941,1,0,0:0:0:0:
36,192,106941,1,0,0:0:0:0:
256,192,106941,1,0,0:0:0:0:
475,192,106941,1,0,0:0:0:0:
182,192,106941,1,0,0:0:0:0:
329,192,106941,1,0,0:0:0:0:
402,192,106941,1,0,0:0:0:0:
475,192,107048,1,0,0:0:0:0:
402,192,107048,1,0,0:0:0:0:
182,192,107155,1,0,0:0:0:0:
256,192,107155,1,0,0:0:0:0:
329,192,107155,1,0,0:0:0:0:
36,192,107155,1,0,0:0:0:0:
182,192,107262,1,0,0:0:0:0:
329,192,107262,1,0,0:0:0:0:
36,192,107369,1,0,0:0:0:0:
109,192,107369,1,0,0:0:0:0:
256,192,107369,1,0,0:0:0:0:
475,192,107369,1,0,0:0:0:0:
402,192,107369,1,0,0:0:0:0:
182,192,107476,1,0,0:0:0:0:
329,192,107476,1,0,0:0:0:0:
36,192,107583,1,0,0:0:0:0:
182,192,107583,1,0,0:0:0:0:
329,192,107583,1,0,0:0:0:0:
402,192,107583,1,0,0:0:0:0:
475,192,107583,1,0,0:0:0:0:
256,192,107583,1,0,0:0:0:0:
109,192,107583,1,0,0:0:0:0:
402,192,107691,1,0,0:0:0:0:
475,192,107691,1,0,0:0:0:0:
256,192,107691,1,0,0:0:0:0:
36,192,107798,1,0,0:0:0:0:
109,192,107798,1,0,0:0:0:0:
182,192,107798,1,0,0:0:0:0:
329,192,107798,1,0,0:0:0:0:
402,192,107905,1,0,0:0:0:0:
182,192,107905,1,0,0:0:0:0:
36,192,107905,1,0,0:0:0:0:
109,192,107905,1,0,0:0:0:0:
329,192,108012,1,0,0:0:0:0:
475,192,108012,1,0,0:0:0:0:
182,192,108012,1,0,0:0:0:0:
109,192,108012,1,0,0:0:0:0:
36,192,108012,1,0,0:0:0:0:
402,192,108119,1,0,0:0:0:0:
256,192,108119,1,0,0:0:0:0:
182,192,108226,1,0,0:0:0:0:
36,192,108226,1,0,0:0:0:0:
329,192,108226,1,0,0:0:0:0:
475,192,108226,1,0,0:0:0:0:
329,192,108333,1,0,0:0:0:0:
475,192,108333,1,0,0:0:0:0:
36,192,108441,1,0,0:0:0:0:
109,192,108441,1,0,0:0:0:0:
182,192,108441,1,0,0:0:0:0:
256,192,108441,1,0,0:0:0:0:
329,192,108441,1,0,0:0:0:0:
402,192,108441,1,0,0:0:0:0:
475,192,108441,1,0,0:0:0:0:
256,192,108548,1,0,0:0:0:0:
329,192,108655,1,0,0:0:0:0:
475,192,108655,1,0,0:0:0:0:
256,192,108655,1,0,0:0:0:0:
36,192,108655,1,0,0:0:0:0:
182,192,108655,1,0,0:0:0:0:
36,192,108762,1,0,0:0:0:0:
182,192,108762,1,0,0:0:0:0:
36,192,108869,1,0,0:0:0:0:
109,192,108869,1,0,0:0:0:0:
182,192,108869,1,0,0:0:0:0:
256,192,108869,1,0,0:0:0:0:
329,192,108869,1,0,0:0:0:0:
402,192,108869,1,0,0:0:0:0:
475,192,108869,1,0,0:0:0:0:
475,192,108976,1,0,0:0:0:0:
402,192,108976,1,0,0:0:0:0:
329,192,108976,1,0,0:0:0:0:
182,192,109083,1,0,0:0:0:0:
329,192,109083,1,0,0:0:0:0:
256,192,109083,1,0,0:0:0:0:
402,192,109083,1,0,0:0:0:0:
475,192,109083,1,0,0:0:0:0:
36,192,109083,1,0,0:0:0:0:
109,192,109083,1,0,0:0:0:0:
109,192,109191,1,0,0:0:0:0:
36,192,109191,1,0,0:0:0:0:
182,192,109191,1,0,0:0:0:0:
36,192,109298,1,0,0:0:0:0:
109,192,109298,1,0,0:0:0:0:
182,192,109298,1,0,0:0:0:0:
256,192,109298,1,0,0:0:0:0:
475,192,109298,1,0,0:0:0:0:
402,192,109298,1,0,0:0:0:0:
329,192,109298,1,0,0:0:0:0:
329,192,109405,1,0,0:0:0:0:
475,192,109405,1,0,0:0:0:0:
256,192,109512,1,0,0:0:0:0:
402,192,109512,1,0,0:0:0:0:
182,192,109619,1,0,0:0:0:0:
329,192,109619,1,0,0:0:0:0:
36,192,109726,1,0,0:0:0:0:
109,192,109726,1,0,0:0:0:0:
402,192,109726,1,0,0:0:0:0:
475,192,109726,1,0,0:0:0:0:
256,192,109726,1,0,0:0:0:0:
402,192,109833,1,0,0:0:0:0:
475,192,109833,1,0,0:0:0:0:
256,192,109833,1,0,0:0:0:0:
182,192,109941,1,0,0:0:0:0:
109,192,109941,1,0,0:0:0:0:
329,192,109941,1,0,0:0:0:0:
36,192,109941,1,0,0:0:0:0:
109,192,110048,1,0,0:0:0:0:
182,192,110048,1,0,0:0:0:0:
329,192,110048,1,0,0:0:0:0:
36,192,110155,1,0,0:0:0:0:
256,192,110155,1,0,0:0:0:0:
402,192,110155,1,0,0:0:0:0:
475,192,110155,1,0,0:0:0:0:
36,192,110262,1,0,0:0:0:0:
182,192,110262,1,0,0:0:0:0:
256,192,110262,1,0,0:0:0:0:
109,192,110369,1,0,0:0:0:0:
329,192,110369,1,0,0:0:0:0:
402,192,110369,1,0,0:0:0:0:
475,192,110369,1,0,0:0:0:0:
182,192,110476,1,0,0:0:0:0:
329,192,110476,1,0,0:0:0:0:
36,192,110583,1,0,0:0:0:0:
109,192,110583,1,0,0:0:0:0:
475,192,110583,1,0,0:0:0:0:
256,192,110583,1,0,0:0:0:0:
402,192,110583,1,0,0:0:0:0:
109,192,110691,1,0,0:0:0:0:
36,192,110691,1,0,0:0:0:0:
402,192,110691,1,0,0:0:0:0:
475,192,110691,1,0,0:0:0:0:
182,192,110798,1,0,0:0:0:0:
329,192,110798,1,0,0:0:0:0:
256,192,110798,1,0,0:0:0:0:
182,192,110905,1,0,0:0:0:0:
329,192,110905,1,0,0:0:0:0:
256,192,110905,1,0,0:0:0:0:
36,192,111012,1,0,0:0:0:0:
109,192,111012,1,0,0:0:0:0:
402,192,111012,1,0,0:0:0:0:
475,192,111012,1,0,0:0:0:0:
256,192,111066,1,0,0:0:0:0:
329,192,111066,1,0,0:0:0:0:
182,192,111066,1,0,0:0:0:0:
36,192,111119,1,0,0:0:0:0:
109,192,111119,1,0,0:0:0:0:
402,192,111119,1,0,0:0:0:0:
475,192,111119,1,0,0:0:0:0:
182,192,111173,1,0,0:0:0:0:
256,192,111173,1,0,0:0:0:0:
329,192,111173,1,0,0:0:0:0:
402,192,111226,1,0,0:0:0:0:
475,192,111226,1,0,0:0:0:0:
109,192,111226,1,0,0:0:0:0:
36,192,111226,1,0,0:0:0:0:
182,192,111280,1,0,0:0:0:0:
256,192,111280,1,0,0:0:0:0:
329,192,111280,1,0,0:0:0:0:
36,192,111333,1,0,0:0:0:0:
109,192,111333,1,0,0:0:0:0:
402,192,111333,1,0,0:0:0:0:
475,192,111333,1,0,0:0:0:0:
182,192,111387,1,0,0:0:0:0:
256,192,111387,1,0,0:0:0:0:
329,192,111387,1,0,0:0:0:0:
402,192,111441,1,0,0:0:0:0:
475,192,111441,1,0,0:0:0:0:
109,192,111441,1,0,0:0:0:0:
36,192,111441,1,0,0:0:0:0:
36,192,123244,5,0,0:0:0:0:
402,192,123244,1,0,0:0:0:0:
475,192,123244,1,0,0:0:0:0:
256,192,123244,1,0,0:0:0:0:
109,192,123244,1,0,0:0:0:0:
329,192,124880,1,0,0:0:0:0:
329,192,125153,1,0,0:0:0:0:
329,192,125425,1,0,0:0:0:0:
329,192,125698,1,0,0:0:0:0:
329,192,125971,1,0,0:0:0:0:
329,192,126244,1,0,0:0:0:0:
329,192,126516,1,0,0:0:0:0:
329,192,126789,1,0,0:0:0:0:
329,192,127062,1,0,0:0:0:0:
329,192,127334,1,0,0:0:0:0:
402,192,127607,1,0,0:0:0:0:
182,192,127607,1,0,0:0:0:0:
109,192,127607,1,0,0:0:0:0:
329,192,127744,1,0,0:0:0:0:
329,192,127812,1,0,0:0:0:0:
182,192,127880,1,0,0:0:0:0:
329,192,127880,1,0,0:0:0:0:
109,192,128153,1,0,0:0:0:0:
402,192,128153,1,0,0:0:0:0:
109,192,128221,1,0,0:0:0:0:
109,192,128289,1,0,0:0:0:0:
109,192,128357,1,0,0:0:0:0:
329,192,128425,1,0,0:0:0:0:
182,192,128425,1,0,0:0:0:0:
109,192,128698,1,0,0:0:0:0:
109,192,128971,1,0,0:0:0:0:
256,192,128971,1,0,0:0:0:0:
402,192,129107,1,0,0:0:0:0:
109,192,129244,1,0,0:0:0:0:
109,192,129516,1,0,0:0:0:0:
475,192,129789,1,0,0:0:0:0:
182,192,129789,1,0,0:0:0:0:
36,192,129789,1,0,0:0:0:0:
329,192,129925,1,0,0:0:0:0:
329,192,129994,1,0,0:0:0:0:
109,192,130062,1,0,0:0:0:0:
329,192,130062,1,0,0:0:0:0:
402,192,130334,1,0,0:0:0:0:
182,192,130334,1,0,0:0:0:0:
182,192,130403,1,0,0:0:0:0:
182,192,130471,1,0,0:0:0:0:
182,192,130539,1,0,0:0:0:0:
109,192,130607,1,0,0:0:0:0:
329,192,130607,1,0,0:0:0:0:
256,192,130880,1,0,0:0:0:0:
182,192,131153,1,0,0:0:0:0:
329,192,131289,1,0,0:0:0:0:
475,192,131971,1,0,0:0:0:0:
36,192,131971,1,0,0:0:0:0:
329,192,131971,1,0,0:0:0:0:
109,192,131971,1,0,0:0:0:0:
182,192,131971,1,0,0:0:0:0:
256,192,132107,1,0,0:0:0:0:
402,192,132107,1,0,0:0:0:0:
36,192,132107,1,0,0:0:0:0:
109,192,132107,1,0,0:0:0:0:
329,192,132244,1,0,0:0:0:0:
475,192,132244,1,0,0:0:0:0:
36,192,132244,1,0,0:0:0:0:
182,192,132244,1,0,0:0:0:0:
256,192,132380,1,0,0:0:0:0:
402,192,132380,1,0,0:0:0:0:
109,192,132380,1,0,0:0:0:0:
182,192,132380,1,0,0:0:0:0:
475,192,132516,1,0,0:0:0:0:
256,192,132516,1,0,0:0:0:0:
329,192,132516,1,0,0:0:0:0:
36,192,132516,1,0,0:0:0:0:
109,192,132516,1,0,0:0:0:0:
402,192,132653,1,0,0:0:0:0:
182,192,132653,1,0,0:0:0:0:
402,192,132721,1,0,0:0:0:0:
182,192,132721,1,0,0:0:0:0:
475,192,132789,1,0,0:0:0:0:
329,192,132789,1,0,0:0:0:0:
256,192,132789,1,0,0:0:0:0:
109,192,132789,1,0,0:0:0:0:
36,192,132789,1,0,0:0:0:0:
329,192,132925,1,0,0:0:0:0:
402,192,132925,1,0,0:0:0:0:
182,192,132925,1,0,0:0:0:0:
109,192,132925,1,0,0:0:0:0:
329,192,133062,1,0,0:0:0:0:
475,192,133062,1,0,0:0:0:0:
182,192,133062,1,0,0:0:0:0:
36,192,133062,1,0,0:0:0:0:
256,192,133062,1,0,0:0:0:0:
109,192,133198,1,0,0:0:0:0:
402,192,133198,1,0,0:0:0:0:
256,192,133198,1,0,0:0:0:0:
475,192,133334,1,0,0:0:0:0:
36,192,133334,1,0,0:0:0:0:
329,192,133334,1,0,0:0:0:0:
182,192,133334,1,0,0:0:0:0:
109,192,133334,1,0,0:0:0:0:
256,192,133471,1,0,0:0:0:0:
402,192,133471,1,0,0:0:0:0:
36,192,133471,1,0,0:0:0:0:
182,192,133471,1,0,0:0:0:0:
329,192,133607,1,0,0:0:0:0:
109,192,133607,1,0,0:0:0:0:
182,192,133675,1,0,0:0:0:0:
475,192,133675,1,0,0:0:0:0:
36,192,133744,1,0,0:0:0:0:
329,192,133744,1,0,0:0:0:0:
109,192,133812,1,0,0:0:0:0:
402,192,133812,1,0,0:0:0:0:
475,192,133880,1,0,0:0:0:0:
182,192,133880,1,0,0:0:0:0:
256,192,133880,1,0,0:0:0:0:
109,192,133948,1,0,0:0:0:0:
36,192,133948,1,0,0:0:0:0:
329,192,133948,1,0,0:0:0:0:
475,192,134016,1,0,0:0:0:0:
256,192,134016,1,0,0:0:0:0:
182,192,134016,1,0,0:0:0:0:
329,192,134153,1,0,0:0:0:0:
402,192,134153,1,0,0:0:0:0:
36,192,134153,1,0,0:0:0:0:
109,192,134153,1,0,0:0:0:0:
329,192,134289,1,0,0:0:0:0:
475,192,134289,1,0,0:0:0:0:
182,192,134289,1,0,0:0:0:0:
109,192,134289,1,0,0:0:0:0:
256,192,134425,1,0,0:0:0:0:
402,192,134425,1,0,0:0:0:0:
36,192,134425,1,0,0:0:0:0:
182,192,134425,1,0,0:0:0:0:
256,192,134562,1,0,0:0:0:0:
109,192,134562,1,0,0:0:0:0:
329,192,134562,1,0,0:0:0:0:
475,192,134562,1,0,0:0:0:0:
329,192,134698,1,0,0:0:0:0:
402,192,134698,1,0,0:0:0:0:
36,192,134698,1,0,0:0:0:0:
182,192,134698,1,0,0:0:0:0:
182,192,134834,1,0,0:0:0:0:
36,192,134834,1,0,0:0:0:0:
402,192,134971,1,0,0:0:0:0:
475,192,134971,1,0,0:0:0:0:
329,192,134971,1,0,0:0:0:0:
256,192,134971,1,0,0:0:0:0:
109,192,134971,1,0,0:0:0:0:
256,192,135107,1,0,0:0:0:0:
402,192,135107,1,0,0:0:0:0:
36,192,135107,1,0,0:0:0:0:
182,192,135107,1,0,0:0:0:0:
329,192,135244,1,0,0:0:0:0:
475,192,135244,1,0,0:0:0:0:
256,192,135244,1,0,0:0:0:0:
36,192,135244,1,0,0:0:0:0:
109,192,135244,1,0,0:0:0:0:
329,192,135380,1,0,0:0:0:0:
402,192,135380,1,0,0:0:0:0:
182,192,135380,1,0,0:0:0:0:
109,192,135380,1,0,0:0:0:0:
402,192,135516,1,0,0:0:0:0:
475,192,135516,1,0,0:0:0:0:
256,192,135516,1,0,0:0:0:0:
36,192,135516,1,0,0:0:0:0:
182,192,135516,1,0,0:0:0:0:
329,192,135653,1,0,0:0:0:0:
402,192,135653,1,0,0:0:0:0:
109,192,135653,1,0,0:0:0:0:
182,192,135653,1,0,0:0:0:0:
329,192,135789,1,0,0:0:0:0:
475,192,135789,1,0,0:0:0:0:
256,192,135789,1,0,0:0:0:0:
109,192,135789,1,0,0:0:0:0:
36,192,135789,1,0,0:0:0:0:
402,192,135925,1,0,0:0:0:0:
256,192,135925,1,0,0:0:0:0:
182,192,135925,1,0,0:0:0:0:
109,192,136062,1,0,0:0:0:0:
182,192,136062,1,0,0:0:0:0:
329,192,136062,1,0,0:0:0:0:
475,192,136062,1,0,0:0:0:0:
402,192,136130,1,0,0:0:0:0:
256,192,136130,1,0,0:0:0:0:
36,192,136130,1,0,0:0:0:0:
329,192,136198,1,0,0:0:0:0:
182,192,136198,1,0,0:0:0:0:
109,192,136198,1,0,0:0:0:0:
402,192,136334,1,0,0:0:0:0:
475,192,136334,1,0,0:0:0:0:
36,192,136334,1,0,0:0:0:0:
256,192,136334,1,0,0:0:0:0:
329,192,136471,1,0,0:0:0:0:
182,192,136471,1,0,0:0:0:0:
109,192,136471,1,0,0:0:0:0:
329,192,136539,1,0,0:0:0:0:
256,192,136607,1,0,0:0:0:0:
36,192,136607,1,0,0:0:0:0:
402,192,136607,1,0,0:0:0:0:
475,192,136607,1,0,0:0:0:0:
182,192,136675,1,0,0:0:0:0:
402,192,136744,1,0,0:0:0:0:
329,192,136744,1,0,0:0:0:0:
109,192,136744,1,0,0:0:0:0:
475,192,136880,1,0,0:0:0:0:
256,192,136880,1,0,0:0:0:0:
182,192,136880,1,0,0:0:0:0:
109,192,136948,1,0,0:0:0:0:
402,192,136971,1,0,0:0:0:0:
475,192,137016,1,0,0:0:0:0:
329,192,137016,1,0,0:0:0:0:
182,192,137016,1,0,0:0:0:0:
109,192,137084,1,0,0:0:0:0:
256,192,137153,1,0,0:0:0:0:
402,192,137153,1,0,0:0:0:0:
36,192,137153,1,0,0:0:0:0:
182,192,137153,1,0,0:0:0:0:
475,192,137153,1,0,0:0:0:0:
402,192,137289,1,0,0:0:0:0:
109,192,137289,1,0,0:0:0:0:
475,192,137289,1,0,0:0:0:0:
329,192,137289,1,0,0:0:0:0:
402,192,137425,1,0,0:0:0:0:
475,192,137425,1,0,0:0:0:0:
256,192,137425,1,0,0:0:0:0:
36,192,137425,1,0,0:0:0:0:
182,192,137425,1,0,0:0:0:0:
329,192,137562,1,0,0:0:0:0:
182,192,137562,1,0,0:0:0:0:
109,192,137562,1,0,0:0:0:0:
402,192,137698,1,0,0:0:0:0:
475,192,137698,1,0,0:0:0:0:
36,192,137698,1,0,0:0:0:0:
256,192,137698,1,0,0:0:0:0:
402,192,137834,1,0,0:0:0:0:
475,192,137834,1,0,0:0:0:0:
256,192,137834,1,0,0:0:0:0:
36,192,137834,1,0,0:0:0:0:
109,192,137834,1,0,0:0:0:0:
182,192,137971,1,0,0:0:0:0:
329,192,137971,1,0,0:0:0:0:
475,192,138062,1,0,0:0:0:0:
256,192,138107,1,0,0:0:0:0:
109,192,138107,1,0,0:0:0:0:
402,192,138153,1,0,0:0:0:0:
36,192,138175,1,0,0:0:0:0:
475,192,138244,1,0,0:0:0:0:
329,192,138244,1,0,0:0:0:0:
182,192,138244,1,0,0:0:0:0:
402,192,138312,1,0,0:0:0:0:
109,192,138312,1,0,0:0:0:0:
36,192,138380,1,0,0:0:0:0:
475,192,138380,1,0,0:0:0:0:
182,192,138380,1,0,0:0:0:0:
329,192,138380,1,0,0:0:0:0:
109,192,138448,1,0,0:0:0:0:
402,192,138448,1,0,0:0:0:0:
475,192,138516,1,0,0:0:0:0:
36,192,138516,1,0,0:0:0:0:
256,192,138516,1,0,0:0:0:0:
329,192,138653,1,0,0:0:0:0:
475,192,138653,1,0,0:0:0:0:
36,192,138653,1,0,0:0:0:0:
182,192,138653,1,0,0:0:0:0:
402,192,138789,1,0,0:0:0:0:
475,192,138789,1,0,0:0:0:0:
109,192,138789,1,0,0:0:0:0:
256,192,138789,1,0,0:0:0:0:
256,192,138925,1,0,0:0:0:0:
36,192,138925,1,0,0:0:0:0:
182,192,138925,1,0,0:0:0:0:
402,192,139062,1,0,0:0:0:0:
475,192,139062,1,0,0:0:0:0:
109,192,139062,1,0,0:0:0:0:
329,192,139062,1,0,0:0:0:0:
329,192,139130,1,0,0:0:0:0:
256,192,139198,1,0,0:0:0:0:
36,192,139198,1,0,0:0:0:0:
182,192,139198,1,0,0:0:0:0:
182,192,139266,1,0,0:0:0:0:
402,192,139334,1,0,0:0:0:0:
475,192,139334,1,0,0:0:0:0:
109,192,139334,1,0,0:0:0:0:
329,192,139334,1,0,0:0:0:0:
256,192,139471,1,0,0:0:0:0:
329,192,139471,1,0,0:0:0:0:
36,192,139471,1,0,0:0:0:0:
182,192,139471,1,0,0:0:0:0:
402,192,139607,1,0,0:0:0:0:
475,192,139607,1,0,0:0:0:0:
36,192,139607,1,0,0:0:0:0:
182,192,139607,1,0,0:0:0:0:
109,192,139698,1,0,0:0:0:0:
329,192,139744,1,0,0:0:0:0:
256,192,139744,1,0,0:0:0:0:
36,192,139744,1,0,0:0:0:0:
329,192,139880,1,0,0:0:0:0:
402,192,139880,1,0,0:0:0:0:
36,192,139880,1,0,0:0:0:0:
182,192,139880,1,0,0:0:0:0:
109,192,139971,1,0,0:0:0:0:
36,192,140016,1,0,0:0:0:0:
256,192,140016,1,0,0:0:0:0:
402,192,140016,1,0,0:0:0:0:
475,192,140016,1,0,0:0:0:0:
182,192,140153,1,0,0:0:0:0:
329,192,140153,1,0,0:0:0:0:
36,192,140153,1,0,0:0:0:0:
109,192,140153,1,0,0:0:0:0:
402,192,140221,1,0,0:0:0:0:
256,192,140244,1,0,0:0:0:0:
182,192,140289,1,0,0:0:0:0:
475,192,140289,1,0,0:0:0:0:
402,192,140357,1,0,0:0:0:0:
36,192,140425,1,0,0:0:0:0:
182,192,140425,1,0,0:0:0:0:
329,192,140425,1,0,0:0:0:0:
109,192,140494,1,0,0:0:0:0:
402,192,140494,1,0,0:0:0:0:
256,192,140562,1,0,0:0:0:0:
182,192,140562,1,0,0:0:0:0:
475,192,140562,1,0,0:0:0:0:
109,192,140630,1,0,0:0:0:0:
402,192,140630,1,0,0:0:0:0:
475,192,140698,1,0,0:0:0:0:
256,192,140698,1,0,0:0:0:0:
329,192,140698,1,0,0:0:0:0:
36,192,140698,1,0,0:0:0:0:
329,192,140766,1,0,0:0:0:0:
182,192,140766,1,0,0:0:0:0:
256,192,140834,1,0,0:0:0:0:
402,192,140834,1,0,0:0:0:0:
109,192,140834,1,0,0:0:0:0:
329,192,140971,1,0,0:0:0:0:
475,192,140971,1,0,0:0:0:0:
36,192,140971,1,0,0:0:0:0:
182,192,140971,1,0,0:0:0:0:
182,192,141039,1,0,0:0:0:0:
402,192,141039,1,0,0:0:0:0:
256,192,141107,1,0,0:0:0:0:
109,192,141107,1,0,0:0:0:0:
329,192,141175,1,0,0:0:0:0:
182,192,141244,1,0,0:0:0:0:
36,192,141244,1,0,0:0:0:0:
402,192,141244,1,0,0:0:0:0:
475,192,141244,1,0,0:0:0:0:
256,192,141312,1,0,0:0:0:0:
402,192,141380,1,0,0:0:0:0:
329,192,141380,1,0,0:0:0:0:
109,192,141380,1,0,0:0:0:0:
182,192,141448,1,0,0:0:0:0:
256,192,141516,1,0,0:0:0:0:
475,192,141516,1,0,0:0:0:0:
329,192,141516,1,0,0:0:0:0:
36,192,141584,1,0,0:0:0:0:
182,192,141584,1,0,0:0:0:0:
475,192,141653,1,0,0:0:0:0:
109,192,141653,1,0,0:0:0:0:
402,192,141653,1,0,0:0:0:0:
256,192,141698,1,0,0:0:0:0:
329,192,141721,1,0,0:0:0:0:
36,192,141789,1,0,0:0:0:0:
402,192,141789,1,0,0:0:0:0:
182,192,141789,1,0,0:0:0:0:
182,192,141857,1,0,0:0:0:0:
329,192,141857,1,0,0:0:0:0:
475,192,141925,1,0,0:0:0:0:
256,192,141925,1,0,0:0:0:0:
109,192,141925,1,0,0:0:0:0:
329,192,141994,1,0,0:0:0:0:
402,192,142062,1,0,0:0:0:0:
475,192,142062,1,0,0:0:0:0:
182,192,142062,1,0,0:0:0:0:
36,192,142062,1,0,0:0:0:0:
256,192,142130,1,0,0:0:0:0:
329,192,142198,1,0,0:0:0:0:
182,192,142198,1,0,0:0:0:0:
109,192,142198,1,0,0:0:0:0:
256,192,142266,1,0,0:0:0:0:
402,192,142334,1,0,0:0:0:0:
475,192,142334,1,0,0:0:0:0:
109,192,142334,1,0,0:0:0:0:
36,192,142334,1,0,0:0:0:0:
329,192,142403,1,0,0:0:0:0:
182,192,142403,1,0,0:0:0:0:
402,192,142471,1,0,0:0:0:0:
256,192,142471,1,0,0:0:0:0:
182,192,142539,1,0,0:0:0:0:
109,192,142539,1,0,0:0:0:0:
36,192,142607,1,0,0:0:0:0:
475,192,142607,1,0,0:0:0:0:
329,192,142607,1,0,0:0:0:0:
402,192,142675,1,0,0:0:0:0:
256,192,142675,1,0,0:0:0:0:
36,192,142744,1,0,0:0:0:0:
182,192,142744,1,0,0:0:0:0:
329,192,142812,1,0,0:0:0:0:
109,192,142846,1,0,0:0:0:0:
256,192,142880,1,0,0:0:0:0:
475,192,142880,1,0,0:0:0:0:
402,192,142880,1,0,0:0:0:0:
36,192,142948,1,0,0:0:0:0:
182,192,142948,1,0,0:0:0:0:
475,192,143016,1,0,0:0:0:0:
402,192,143016,1,0,0:0:0:0:
329,192,143016,1,0,0:0:0:0:
182,192,143084,1,0,0:0:0:0:
109,192,143084,1,0,0:0:0:0:
402,192,143153,1,0,0:0:0:0:
256,192,143153,1,0,0:0:0:0:
109,192,143221,1,0,0:0:0:0:
36,192,143221,1,0,0:0:0:0:
475,192,143289,1,0,0:0:0:0:
329,192,143289,1,0,0:0:0:0:
182,192,143289,1,0,0:0:0:0:
36,192,143357,1,0,0:0:0:0:
109,192,143357,1,0,0:0:0:0:
475,192,143425,1,0,0:0:0:0:
329,192,143425,1,0,0:0:0:0:
256,192,143425,1,0,0:0:0:0:
109,192,143494,1,0,0:0:0:0:
182,192,143494,1,0,0:0:0:0:
402,192,143562,1,0,0:0:0:0:
329,192,143562,1,0,0:0:0:0:
109,192,143630,1,0,0:0:0:0:
182,192,143630,1,0,0:0:0:0:
475,192,143698,1,0,0:0:0:0:
36,192,143698,1,0,0:0:0:0:
256,192,143698,1,0,0:0:0:0:
402,192,143766,1,0,0:0:0:0:
329,192,143766,1,0,0:0:0:0:
256,192,143834,1,0,0:0:0:0:
109,192,143834,1,0,0:0:0:0:
36,192,143834,1,0,0:0:0:0:
182,192,143880,1,0,0:0:0:0:
475,192,143971,1,0,0:0:0:0:
329,192,143971,1,0,0:0:0:0:
109,192,143971,1,0,0:0:0:0:
402,192,143971,1,0,0:0:0:0:
182,192,144039,1,0,0:0:0:0:
36,192,144039,1,0,0:0:0:0:
256,192,144107,1,0,0:0:0:0:
475,192,144107,1,0,0:0:0:0:
329,192,144107,1,0,0:0:0:0:
36,192,144175,1,0,0:0:0:0:
109,192,144175,1,0,0:0:0:0:
402,192,144244,1,0,0:0:0:0:
256,192,144244,1,0,0:0:0:0:
182,192,144244,1,0,0:0:0:0:
36,192,144312,1,0,0:0:0:0:
109,192,144312,1,0,0:0:0:0:
402,192,144380,1,0,0:0:0:0:
475,192,144380,1,0,0:0:0:0:
329,192,144380,1,0,0:0:0:0:
182,192,144448,1,0,0:0:0:0:
256,192,144448,1,0,0:0:0:0:
475,192,144516,1,0,0:0:0:0:
109,192,144516,1,0,0:0:0:0:
36,192,144516,1,0,0:0:0:0:
402,192,144584,1,0,0:0:0:0:
329,192,144584,1,0,0:0:0:0:
182,192,144653,1,0,0:0:0:0:
109,192,144653,1,0,0:0:0:0:
475,192,144653,1,0,0:0:0:0:
329,192,144721,1,0,0:0:0:0:
256,192,144721,1,0,0:0:0:0:
402,192,144789,1,0,0:0:0:0:
475,192,144789,1,0,0:0:0:0:
36,192,144789,1,0,0:0:0:0:
109,192,144789,1,0,0:0:0:0:
329,192,144857,1,0,0:0:0:0:
182,192,144857,1,0,0:0:0:0:
475,192,144925,1,0,0:0:0:0:
36,192,144925,1,0,0:0:0:0:
256,192,144925,1,0,0:0:0:0:
402,192,144971,1,0,0:0:0:0:
109,192,144971,1,0,0:0:0:0:
329,192,145016,1,0,0:0:0:0:
182,192,145016,1,0,0:0:0:0:
475,192,145062,1,0,0:0:0:0:
36,192,145062,1,0,0:0:0:0:
256,192,145062,1,0,0:0:0:0:
402,192,145153,1,0,0:0:0:0:
329,192,145198,1,0,0:0:0:0:
182,192,145198,1,0,0:0:0:0:
109,192,145198,1,0,0:0:0:0:
402,192,145266,1,0,0:0:0:0:
36,192,145334,1,0,0:0:0:0:
109,192,145334,1,0,0:0:0:0:
329,192,145334,1,0,0:0:0:0:
256,192,145334,1,0,0:0:0:0:
182,192,145471,1,0,0:0:0:0:
256,192,145471,1,0,0:0:0:0:
402,192,145471,1,0,0:0:0:0:
36,192,145471,1,0,0:0:0:0:
475,192,145471,1,0,0:0:0:0:
329,192,145607,1,0,0:0:0:0:
182,192,145607,1,0,0:0:0:0:
109,192,145607,1,0,0:0:0:0:
402,192,145675,1,0,0:0:0:0:
256,192,145744,1,0,0:0:0:0:
182,192,145744,1,0,0:0:0:0:
329,192,145789,1,0,0:0:0:0:
109,192,145812,1,0,0:0:0:0:
402,192,145880,1,0,0:0:0:0:
182,192,145880,1,0,0:0:0:0:
475,192,145880,1,0,0:0:0:0:
256,192,145880,1,0,0:0:0:0:
329,192,145971,1,0,0:0:0:0:
36,192,146016,1,0,0:0:0:0:
109,192,146016,1,0,0:0:0:0:
402,192,146016,1,0,0:0:0:0:
475,192,146016,1,0,0:0:0:0:
256,192,146062,1,0,0:0:0:0:
475,192,146153,1,0,0:0:0:0:
109,192,146153,1,0,0:0:0:0:
182,192,146153,1,0,0:0:0:0:
329,192,146153,1,0,0:0:0:0:
256,192,146289,1,0,0:0:0:0:
402,192,146289,1,0,0:0:0:0:
36,192,146289,1,0,0:0:0:0:
182,192,146289,1,0,0:0:0:0:
329,192,146425,1,0,0:0:0:0:
475,192,146425,1,0,0:0:0:0:
109,192,146425,1,0,0:0:0:0:
182,192,146425,1,0,0:0:0:0:
475,192,146562,1,0,0:0:0:0:
402,192,146562,1,0,0:0:0:0:
256,192,146562,1,0,0:0:0:0:
36,192,146562,1,0,0:0:0:0:
182,192,146562,1,0,0:0:0:0:
329,192,146698,1,0,0:0:0:0:
256,192,146698,1,0,0:0:0:0:
109,192,146698,1,0,0:0:0:0:
36,192,146698,1,0,0:0:0:0:
475,192,146834,1,0,0:0:0:0:
402,192,146834,1,0,0:0:0:0:
182,192,146834,1,0,0:0:0:0:
256,192,146834,1,0,0:0:0:0:
36,192,146903,1,0,0:0:0:0:
109,192,146903,1,0,0:0:0:0:
475,192,146971,1,0,0:0:0:0:
402,192,146971,1,0,0:0:0:0:
329,192,146971,1,0,0:0:0:0:
36,192,147039,1,0,0:0:0:0:
109,192,147039,1,0,0:0:0:0:
182,192,147039,1,0,0:0:0:0:
475,192,147107,1,0,0:0:0:0:
402,192,147107,1,0,0:0:0:0:
329,192,147107,1,0,0:0:0:0:
36,192,147175,1,0,0:0:0:0:
109,192,147175,1,0,0:0:0:0:
182,192,147175,1,0,0:0:0:0:
36,192,147244,1,0,0:0:0:0:
109,192,147244,1,0,0:0:0:0:
182,192,147244,1,0,0:0:0:0:
329,192,147244,1,0,0:0:0:0:
402,192,147244,1,0,0:0:0:0:
475,192,147244,1,0,0:0:0:0:
109,192,147380,1,0,0:0:0:0:
402,192,147380,1,0,0:0:0:0:
256,192,147380,1,0,0:0:0:0:
182,192,147380,1,0,0:0:0:0:
475,192,147425,1,0,0:0:0:0:
329,192,147516,1,0,0:0:0:0:
256,192,147516,1,0,0:0:0:0:
36,192,147516,1,0,0:0:0:0:
182,192,147607,1,0,0:0:0:0:
329,192,147653,1,0,0:0:0:0:
402,192,147653,1,0,0:0:0:0:
109,192,147653,1,0,0:0:0:0:
36,192,147653,1,0,0:0:0:0:
402,192,147789,1,0,0:0:0:0:
475,192,147789,1,0,0:0:0:0:
182,192,147789,1,0,0:0:0:0:
256,192,147789,1,0,0:0:0:0:
36,192,147857,1,0,0:0:0:0:
329,192,147857,1,0,0:0:0:0:
109,192,147857,1,0,0:0:0:0:
475,192,147925,1,0,0:0:0:0:
402,192,147925,1,0,0:0:0:0:
182,192,147925,1,0,0:0:0:0:
329,192,147994,1,0,0:0:0:0:
36,192,147994,1,0,0:0:0:0:
109,192,147994,1,0,0:0:0:0:
402,192,148062,1,0,0:0:0:0:
475,192,148062,1,0,0:0:0:0:
182,192,148062,1,0,0:0:0:0:
256,192,148062,1,0,0:0:0:0:
256,192,148198,1,0,0:0:0:0:
329,192,148198,1,0,0:0:0:0:
109,192,148198,1,0,0:0:0:0:
36,192,148198,1,0,0:0:0:0:
402,192,148334,1,0,0:0:0:0:
475,192,148334,1,0,0:0:0:0:
256,192,148334,1,0,0:0:0:0:
182,192,148334,1,0,0:0:0:0:
36,192,148334,1,0,0:0:0:0:
402,192,148471,1,0,0:0:0:0:
329,192,148471,1,0,0:0:0:0:
109,192,148471,1,0,0:0:0:0:
182,192,148471,1,0,0:0:0:0:
475,192,148516,1,0,0:0:0:0:
256,192,148607,1,0,0:0:0:0:
109,192,148607,1,0,0:0:0:0:
36,192,148607,1,0,0:0:0:0:
402,192,148744,1,0,0:0:0:0:
475,192,148744,1,0,0:0:0:0:
182,192,148744,1,0,0:0:0:0:
329,192,148744,1,0,0:0:0:0:
109,192,148880,1,0,0:0:0:0:
36,192,148880,1,0,0:0:0:0:
256,192,148880,1,0,0:0:0:0:
402,192,148948,1,0,0:0:0:0:
329,192,149016,1,0,0:0:0:0:
182,192,149016,1,0,0:0:0:0:
109,192,149084,1,0,0:0:0:0:
475,192,149153,1,0,0:0:0:0:
402,192,149153,1,0,0:0:0:0:
256,192,149153,1,0,0:0:0:0:
329,192,149221,1,0,0:0:0:0:
182,192,149221,1,0,0:0:0:0:
256,192,149289,1,0,0:0:0:0:
109,192,149289,1,0,0:0:0:0:
36,192,149289,1,0,0:0:0:0:
329,192,149357,1,0,0:0:0:0:
182,192,149357,1,0,0:0:0:0:
109,192,149425,1,0,0:0:0:0:
36,192,149425,1,0,0:0:0:0:
475,192,149425,1,0,0:0:0:0:
256,192,149425,1,0,0:0:0:0:
402,192,149425,1,0,0:0:0:0:
402,192,149562,1,0,0:0:0:0:
475,192,149562,1,0,0:0:0:0:
256,192,149562,1,0,0:0:0:0:
36,192,149562,1,0,0:0:0:0:
109,192,149562,1,0,0:0:0:0:
329,192,149698,1,0,0:0:0:0:
402,192,149698,1,0,0:0:0:0:
182,192,149698,1,0,0:0:0:0:
109,192,149698,1,0,0:0:0:0:
36,192,149698,1,0,0:0:0:0:
402,192,149834,1,0,0:0:0:0:
475,192,149834,1,0,0:0:0:0:
329,192,149834,1,0,0:0:0:0:
109,192,149834,1,0,0:0:0:0:
182,192,149834,1,0,0:0:0:0:
329,192,149971,1,0,0:0:0:0:
475,192,149971,1,0,0:0:0:0:
256,192,149971,1,0,0:0:0:0:
36,192,149971,1,0,0:0:0:0:
182,192,149971,1,0,0:0:0:0:
109,192,150062,1,0,0:0:0:0:
402,192,150107,1,0,0:0:0:0:
182,192,150198,1,0,0:0:0:0:
36,192,150244,1,0,0:0:0:0:
329,192,150244,1,0,0:0:0:0:
329,192,150334,1,0,0:0:0:0:
475,192,150380,1,0,0:0:0:0:
109,192,150380,1,0,0:0:0:0:
182,192,150380,1,0,0:0:0:0:
256,192,150380,1,0,0:0:0:0:
402,192,150380,1,0,0:0:0:0:
329,192,150516,1,0,0:0:0:0:
402,192,150516,1,0,0:0:0:0:
256,192,150516,1,0,0:0:0:0:
109,192,150516,1,0,0:0:0:0:
36,192,150516,1,0,0:0:0:0:
475,192,150653,1,0,0:0:0:0:
402,192,150653,1,0,0:0:0:0:
329,192,150653,1,0,0:0:0:0:
182,192,150653,1,0,0:0:0:0:
36,192,150653,1,0,0:0:0:0:
329,192,150789,1,0,0:0:0:0:
475,192,150789,1,0,0:0:0:0:
256,192,150789,1,0,0:0:0:0:
109,192,150789,1,0,0:0:0:0:
36,192,150789,1,0,0:0:0:0:
402,192,150925,1,0,0:0:0:0:
475,192,150925,1,0,0:0:0:0:
256,192,150925,1,0,0:0:0:0:
182,192,150925,1,0,0:0:0:0:
109,192,150925,1,0,0:0:0:0:
329,192,151062,1,0,0:0:0:0:
402,192,151062,1,0,0:0:0:0:
182,192,151062,1,0,0:0:0:0:
36,192,151062,1,0,0:0:0:0:
109,192,151062,1,0,0:0:0:0:
475,192,151198,1,0,0:0:0:0:
182,192,151198,1,0,0:0:0:0:
36,192,151198,1,0,0:0:0:0:
256,192,151198,1,0,0:0:0:0:
109,192,151266,1,0,0:0:0:0:
402,192,151266,1,0,0:0:0:0:
329,192,151266,1,0,0:0:0:0:
256,192,151334,1,0,0:0:0:0:
475,192,151334,1,0,0:0:0:0:
36,192,151334,1,0,0:0:0:0:
182,192,151334,1,0,0:0:0:0:
402,192,151403,1,0,0:0:0:0:
329,192,151403,1,0,0:0:0:0:
402,192,151880,1,0,0:0:0:0:
475,192,151880,1,0,0:0:0:0:
329,192,151880,1,0,0:0:0:0:
109,192,151880,1,0,0:0:0:0:
182,192,151880,1,0,0:0:0:0:
256,192,152016,1,0,0:0:0:0:
402,192,152016,1,0,0:0:0:0:
329,192,152016,1,0,0:0:0:0:
109,192,152016,1,0,0:0:0:0:
36,192,152016,1,0,0:0:0:0:
402,192,152153,1,0,0:0:0:0:
475,192,152153,1,0,0:0:0:0:
256,192,152153,1,0,0:0:0:0:
36,192,152153,1,0,0:0:0:0:
182,192,152153,1,0,0:0:0:0:
402,192,152289,1,0,0:0:0:0:
475,192,152289,1,0,0:0:0:0:
329,192,152289,1,0,0:0:0:0:
109,192,152289,1,0,0:0:0:0:
182,192,152289,1,0,0:0:0:0:
329,192,152562,1,0,0:0:0:0:
402,192,152562,1,0,0:0:0:0:
109,192,152562,1,0,0:0:0:0:
182,192,152562,1,0,0:0:0:0:
36,192,152562,1,0,0:0:0:0:
475,192,152698,1,0,0:0:0:0:
182,192,152698,1,0,0:0:0:0:
329,192,152698,1,0,0:0:0:0:
109,192,152698,1,0,0:0:0:0:
256,192,152698,1,0,0:0:0:0:
402,192,152834,1,0,0:0:0:0:
475,192,152834,1,0,0:0:0:0:
256,192,152834,1,0,0:0:0:0:
36,192,152834,1,0,0:0:0:0:
182,192,152834,1,0,0:0:0:0:
329,192,152971,1,0,0:0:0:0:
475,192,152971,1,0,0:0:0:0:
256,192,152971,1,0,0:0:0:0:
109,192,152971,1,0,0:0:0:0:
36,192,152971,1,0,0:0:0:0:
402,192,153107,1,0,0:0:0:0:
36,192,153107,1,0,0:0:0:0:
329,192,153107,1,0,0:0:0:0:
109,192,153107,1,0,0:0:0:0:
182,192,153107,1,0,0:0:0:0:
475,192,153244,1,0,0:0:0:0:
109,192,153244,1,0,0:0:0:0:
402,192,153244,1,0,0:0:0:0:
182,192,153244,1,0,0:0:0:0:
256,192,153244,1,0,0:0:0:0:
329,192,153380,1,0,0:0:0:0:
475,192,153380,1,0,0:0:0:0:
256,192,153380,1,0,0:0:0:0:
36,192,153380,1,0,0:0:0:0:
182,192,153380,1,0,0:0:0:0:
329,192,153516,1,0,0:0:0:0:
402,192,153516,1,0,0:0:0:0:
256,192,153516,1,0,0:0:0:0:
36,192,153516,1,0,0:0:0:0:
109,192,153516,1,0,0:0:0:0:
475,192,154062,1,0,0:0:0:0:
36,192,154062,1,0,0:0:0:0:
402,192,154062,1,0,0:0:0:0:
182,192,154062,1,0,0:0:0:0:
256,192,154062,1,0,0:0:0:0:
329,192,154198,1,0,0:0:0:0:
402,192,154198,1,0,0:0:0:0:
256,192,154198,1,0,0:0:0:0:
36,192,154198,1,0,0:0:0:0:
109,192,154198,1,0,0:0:0:0:
475,192,154334,1,0,0:0:0:0:
402,192,154334,1,0,0:0:0:0:
329,192,154334,1,0,0:0:0:0:
109,192,154334,1,0,0:0:0:0:
182,192,154334,1,0,0:0:0:0:
329,192,154471,1,0,0:0:0:0:
475,192,154471,1,0,0:0:0:0:
256,192,154471,1,0,0:0:0:0:
36,192,154471,1,0,0:0:0:0:
182,192,154471,1,0,0:0:0:0:
109,192,154607,1,0,0:0:0:0:
402,192,154607,1,0,0:0:0:0:
402,192,154698,1,0,0:0:0:0:
182,192,154698,1,0,0:0:0:0:
402,192,154880,1,0,0:0:0:0:
475,192,154880,1,0,0:0:0:0:
329,192,154880,1,0,0:0:0:0:
109,192,154880,1,0,0:0:0:0:
182,192,154880,1,0,0:0:0:0:
329,192,155016,1,0,0:0:0:0:
402,192,155016,1,0,0:0:0:0:
256,192,155016,1,0,0:0:0:0:
36,192,155016,1,0,0:0:0:0:
109,192,155016,1,0,0:0:0:0:
402,192,155153,1,0,0:0:0:0:
475,192,155153,1,0,0:0:0:0:
256,192,155153,1,0,0:0:0:0:
182,192,155153,1,0,0:0:0:0:
36,192,155153,1,0,0:0:0:0:
329,192,155289,1,0,0:0:0:0:
475,192,155289,1,0,0:0:0:0:
182,192,155289,1,0,0:0:0:0:
109,192,155289,1,0,0:0:0:0:
36,192,155289,1,0,0:0:0:0:
402,192,155425,1,0,0:0:0:0:
475,192,155425,1,0,0:0:0:0:
329,192,155425,1,0,0:0:0:0:
109,192,155425,1,0,0:0:0:0:
256,192,155425,1,0,0:0:0:0:
475,192,155562,1,0,0:0:0:0:
329,192,155562,1,0,0:0:0:0:
36,192,155562,1,0,0:0:0:0:
182,192,155562,1,0,0:0:0:0:
256,192,155630,1,0,0:0:0:0:
402,192,155630,1,0,0:0:0:0:
109,192,155630,1,0,0:0:0:0:
329,192,155698,1,0,0:0:0:0:
475,192,155698,1,0,0:0:0:0:
182,192,155698,1,0,0:0:0:0:
36,192,155698,1,0,0:0:0:0:
402,192,155834,1,0,0:0:0:0:
475,192,155834,1,0,0:0:0:0:
256,192,155834,1,0,0:0:0:0:
109,192,155834,1,0,0:0:0:0:
36,192,155834,1,0,0:0:0:0:
402,192,156107,1,0,0:0:0:0:
256,192,156107,1,0,0:0:0:0:
475,192,156107,1,0,0:0:0:0:
36,192,156107,1,0,0:0:0:0:
182,192,156175,1,0,0:0:0:0:
329,192,156175,1,0,0:0:0:0:
109,192,156175,1,0,0:0:0:0:
475,192,156244,1,0,0:0:0:0:
36,192,156244,1,0,0:0:0:0:
256,192,156244,1,0,0:0:0:0:
402,192,156244,1,0,0:0:0:0:
475,192,156380,1,0,0:0:0:0:
402,192,156380,1,0,0:0:0:0:
329,192,156380,1,0,0:0:0:0:
182,192,156380,1,0,0:0:0:0:
109,192,156380,1,0,0:0:0:0:
329,192,156516,1,0,0:0:0:0:
475,192,156516,1,0,0:0:0:0:
256,192,156516,1,0,0:0:0:0:
36,192,156516,1,0,0:0:0:0:
109,192,156516,1,0,0:0:0:0:
256,192,156653,1,0,0:0:0:0:
329,192,156653,1,0,0:0:0:0:
109,192,156653,1,0,0:0:0:0:
182,192,156653,1,0,0:0:0:0:
36,192,156653,1,0,0:0:0:0:
475,192,156925,1,0,0:0:0:0:
182,192,156925,1,0,0:0:0:0:
402,192,156925,1,0,0:0:0:0:
109,192,156925,1,0,0:0:0:0:
256,192,156925,1,0,0:0:0:0:
329,192,157062,1,0,0:0:0:0:
402,192,157062,1,0,0:0:0:0:
182,192,157062,1,0,0:0:0:0:
36,192,157062,1,0,0:0:0:0:
109,192,157062,1,0,0:0:0:0:
36,192,157198,1,0,0:0:0:0:
109,192,157198,1,0,0:0:0:0:
475,192,157198,1,0,0:0:0:0:
256,192,157198,1,0,0:0:0:0:
402,192,157198,1,0,0:0:0:0:
329,192,157334,1,0,0:0:0:0:
475,192,157334,1,0,0:0:0:0:
256,192,157334,1,0,0:0:0:0:
36,192,157334,1,0,0:0:0:0:
182,192,157334,1,0,0:0:0:0:
402,192,157471,1,0,0:0:0:0:
475,192,157471,1,0,0:0:0:0:
329,192,157471,1,0,0:0:0:0:
109,192,157471,1,0,0:0:0:0:
182,192,157471,1,0,0:0:0:0:
329,192,157607,1,0,0:0:0:0:
402,192,157607,1,0,0:0:0:0:
256,192,157607,1,0,0:0:0:0:
36,192,157607,1,0,0:0:0:0:
109,192,157607,1,0,0:0:0:0:
475,192,157744,1,0,0:0:0:0:
256,192,157744,1,0,0:0:0:0:
402,192,157744,1,0,0:0:0:0:
182,192,157744,1,0,0:0:0:0:
109,192,157744,1,0,0:0:0:0:
329,192,157880,1,0,0:0:0:0:
402,192,157880,1,0,0:0:0:0:
256,192,157880,1,0,0:0:0:0:
36,192,157880,1,0,0:0:0:0:
109,192,157880,1,0,0:0:0:0:
475,192,158153,1,0,0:0:0:0:
402,192,158153,1,0,0:0:0:0:
256,192,158153,1,0,0:0:0:0:
36,192,158153,1,0,0:0:0:0:
109,192,158153,1,0,0:0:0:0:
329,192,158289,1,0,0:0:0:0:
182,192,158289,1,0,0:0:0:0:
475,192,158334,1,0,0:0:0:0:
109,192,158357,1,0,0:0:0:0:
329,192,158425,1,0,0:0:0:0:
182,192,158425,1,0,0:0:0:0:
402,192,158494,1,0,0:0:0:0:
256,192,158562,1,0,0:0:0:0:
36,192,158562,1,0,0:0:0:0:
109,192,158562,1,0,0:0:0:0:
329,192,158607,1,0,0:0:0:0:
182,192,158698,1,0,0:0:0:0:
109,192,158698,1,0,0:0:0:0:
402,192,158698,1,0,0:0:0:0:
475,192,158698,1,0,0:0:0:0:
329,192,158766,1,0,0:0:0:0:
182,192,158834,1,0,0:0:0:0:
36,192,158834,1,0,0:0:0:0:
402,192,158834,1,0,0:0:0:0:
475,192,158834,1,0,0:0:0:0:
329,192,158903,1,0,0:0:0:0:
36,192,158971,1,0,0:0:0:0:
182,192,158971,1,0,0:0:0:0:
109,192,158971,1,0,0:0:0:0:
402,192,158971,1,0,0:0:0:0:
475,192,158971,1,0,0:0:0:0:
329,192,159107,1,0,0:0:0:0:
256,192,159107,1,0,0:0:0:0:
182,192,159107,1,0,0:0:0:0:
36,192,159244,1,0,0:0:0:0:
109,192,159244,1,0,0:0:0:0:
402,192,159244,1,0,0:0:0:0:
475,192,159244,1,0,0:0:0:0:
256,192,159334,1,0,0:0:0:0:
182,192,159380,1,0,0:0:0:0:
329,192,159380,1,0,0:0:0:0:
182,192,159448,1,0,0:0:0:0:
329,192,159448,1,0,0:0:0:0:
109,192,159516,1,0,0:0:0:0:
36,192,159516,1,0,0:0:0:0:
475,192,159516,1,0,0:0:0:0:
256,192,159516,1,0,0:0:0:0:
402,192,159516,1,0,0:0:0:0:
329,192,159607,1,0,0:0:0:0:
36,192,159653,1,0,0:0:0:0:
109,192,159653,1,0,0:0:0:0:
402,192,159698,1,0,0:0:0:0:
256,192,159721,1,0,0:0:0:0:
109,192,159721,1,0,0:0:0:0:
36,192,159721,1,0,0:0:0:0:
475,192,159789,1,0,0:0:0:0:
329,192,159789,1,0,0:0:0:0:
182,192,159789,1,0,0:0:0:0:
256,192,159925,1,0,0:0:0:0:
109,192,159925,1,0,0:0:0:0:
329,192,159959,1,0,0:0:0:0:
402,192,159994,1,0,0:0:0:0:
475,192,160028,1,0,0:0:0:0:
256,192,160062,1,0,0:0:0:0:
36,192,160062,1,0,0:0:0:0:
182,192,160062,1,0,0:0:0:0:
109,192,160198,1,0,0:0:0:0:
402,192,160198,1,0,0:0:0:0:
329,192,160198,1,0,0:0:0:0:
182,192,160266,1,0,0:0:0:0:
402,192,160334,1,0,0:0:0:0:
475,192,160334,1,0,0:0:0:0:
256,192,160334,1,0,0:0:0:0:
109,192,160334,1,0,0:0:0:0:
36,192,160471,1,0,0:0:0:0:
475,192,160471,1,0,0:0:0:0:
182,192,160471,1,0,0:0:0:0:
329,192,160471,1,0,0:0:0:0:
475,192,160539,1,0,0:0:0:0:
329,192,160539,1,0,0:0:0:0:
256,192,160607,1,0,0:0:0:0:
109,192,160607,1,0,0:0:0:0:
329,192,160675,1,0,0:0:0:0:
36,192,160698,1,0,0:0:0:0:
402,192,160744,1,0,0:0:0:0:
182,192,160744,1,0,0:0:0:0:
256,192,160789,1,0,0:0:0:0:
402,192,160812,1,0,0:0:0:0:
329,192,160880,1,0,0:0:0:0:
475,192,160880,1,0,0:0:0:0:
109,192,160880,1,0,0:0:0:0:
36,192,160880,1,0,0:0:0:0:
182,192,160948,1,0,0:0:0:0:
329,192,161016,1,0,0:0:0:0:
109,192,161016,1,0,0:0:0:0:
36,192,161016,1,0,0:0:0:0:
182,192,161084,1,0,0:0:0:0:
475,192,161153,1,0,0:0:0:0:
329,192,161153,1,0,0:0:0:0:
402,192,161153,1,0,0:0:0:0:
109,192,161153,1,0,0:0:0:0:
36,192,161153,1,0,0:0:0:0:
256,192,161289,1,0,0:0:0:0:
182,192,161289,1,0,0:0:0:0:
109,192,161323,1,0,0:0:0:0:
329,192,161357,1,0,0:0:0:0:
36,192,161357,1,0,0:0:0:0:
182,192,161425,1,0,0:0:0:0:
475,192,161425,1,0,0:0:0:0:
402,192,161425,1,0,0:0:0:0:
329,192,161516,1,0,0:0:0:0:
109,192,161562,1,0,0:0:0:0:
256,192,161562,1,0,0:0:0:0:
402,192,161607,1,0,0:0:0:0:
36,192,161698,1,0,0:0:0:0:
329,192,161698,1,0,0:0:0:0:
182,192,161698,1,0,0:0:0:0:
475,192,161698,1,0,0:0:0:0:
109,192,161766,1,0,0:0:0:0:
402,192,161789,1,0,0:0:0:0:
256,192,161834,1,0,0:0:0:0:
329,192,161880,1,0,0:0:0:0:
256,192,161903,1,0,0:0:0:0:
475,192,161971,1,0,0:0:0:0:
36,192,161971,1,0,0:0:0:0:
402,192,161971,1,0,0:0:0:0:
182,192,161971,1,0,0:0:0:0:
109,192,161971,1,0,0:0:0:0:
256,192,162062,1,0,0:0:0:0:
36,192,162107,1,0,0:0:0:0:
109,192,162107,1,0,0:0:0:0:
329,192,162107,1,0,0:0:0:0:
329,192,162175,1,0,0:0:0:0:
402,192,162244,1,0,0:0:0:0:
475,192,162244,1,0,0:0:0:0:
256,192,162244,1,0,0:0:0:0:
36,192,162244,1,0,0:0:0:0:
182,192,162244,1,0,0:0:0:0:
109,192,162334,1,0,0:0:0:0:
402,192,162380,1,0,0:0:0:0:
256,192,162380,1,0,0:0:0:0:
182,192,162380,1,0,0:0:0:0:
329,192,162516,1,0,0:0:0:0:
475,192,162516,1,0,0:0:0:0:
256,192,162516,1,0,0:0:0:0:
109,192,162516,1,0,0:0:0:0:
36,192,162516,1,0,0:0:0:0:
402,192,162607,1,0,0:0:0:0:
36,192,162653,1,0,0:0:0:0:
182,192,162653,1,0,0:0:0:0:
109,192,162789,1,0,0:0:0:0:
329,192,162789,1,0,0:0:0:0:
475,192,162789,1,0,0:0:0:0:
256,192,162789,1,0,0:0:0:0:
402,192,162789,1,0,0:0:0:0:
182,192,162925,1,0,0:0:0:0:
36,192,162925,1,0,0:0:0:0:
475,192,162925,1,0,0:0:0:0:
329,192,162925,1,0,0:0:0:0:
402,192,162925,1,0,0:0:0:0:
182,192,163062,1,0,0:0:0:0:
109,192,163062,1,0,0:0:0:0:
402,192,163130,1,0,0:0:0:0:
329,192,163130,1,0,0:0:0:0:
182,192,163198,1,0,0:0:0:0:
109,192,163198,1,0,0:0:0:0:
402,192,163266,1,0,0:0:0:0:
329,192,163266,1,0,0:0:0:0:
256,192,163334,1,0,0:0:0:0:
475,192,163334,1,0,0:0:0:0:
36,192,163334,1,0,0:0:0:0:
109,192,163334,1,0,0:0:0:0:
329,192,163425,1,0,0:0:0:0:
475,192,163471,1,0,0:0:0:0:
256,192,163471,1,0,0:0:0:0:
109,192,163471,1,0,0:0:0:0:
402,192,163607,1,0,0:0:0:0:
475,192,163607,1,0,0:0:0:0:
36,192,163607,1,0,0:0:0:0:
182,192,163607,1,0,0:0:0:0:
329,192,163641,1,0,0:0:0:0:
256,192,163675,1,0,0:0:0:0:
109,192,163709,1,0,0:0:0:0:
402,192,163744,1,0,0:0:0:0:
475,192,163789,1,0,0:0:0:0:
182,192,163789,1,0,0:0:0:0:
36,192,163880,1,0,0:0:0:0:
109,192,163880,1,0,0:0:0:0:
256,192,163880,1,0,0:0:0:0:
329,192,163880,1,0,0:0:0:0:
475,192,164016,1,0,0:0:0:0:
402,192,164016,1,0,0:0:0:0:
182,192,164016,1,0,0:0:0:0:
182,192,164084,1,0,0:0:0:0:
256,192,164153,1,0,0:0:0:0:
329,192,164153,1,0,0:0:0:0:
36,192,164153,1,0,0:0:0:0:
109,192,164153,1,0,0:0:0:0:
109,192,164289,1,0,0:0:0:0:
475,192,164289,1,0,0:0:0:0:
402,192,164289,1,0,0:0:0:0:
256,192,164334,1,0,0:0:0:0:
182,192,164357,1,0,0:0:0:0:
329,192,164357,1,0,0:0:0:0:
475,192,164425,1,0,0:0:0:0:
402,192,164425,1,0,0:0:0:0:
109,192,164425,1,0,0:0:0:0:
36,192,164562,1,0,0:0:0:0:
329,192,164562,1,0,0:0:0:0:
256,192,164562,1,0,0:0:0:0:
182,192,164562,1,0,0:0:0:0:
402,192,164698,1,0,0:0:0:0:
475,192,164698,1,0,0:0:0:0:
109,192,164698,1,0,0:0:0:0:
329,192,164698,1,0,0:0:0:0:
182,192,164789,1,0,0:0:0:0:
402,192,164834,1,0,0:0:0:0:
256,192,164834,1,0,0:0:0:0:
36,192,164834,1,0,0:0:0:0:
402,192,164971,1,0,0:0:0:0:
475,192,164971,1,0,0:0:0:0:
329,192,164971,1,0,0:0:0:0:
182,192,164971,1,0,0:0:0:0:
109,192,164971,1,0,0:0:0:0:
256,192,165062,1,0,0:0:0:0:
329,192,165107,1,0,0:0:0:0:
36,192,165107,1,0,0:0:0:0:
109,192,165153,1,0,0:0:0:0:
402,192,165175,1,0,0:0:0:0:
182,192,165198,1,0,0:0:0:0:
475,192,165244,1,0,0:0:0:0:
256,192,165244,1,0,0:0:0:0:
109,192,165312,1,0,0:0:0:0:
402,192,165334,1,0,0:0:0:0:
329,192,165380,1,0,0:0:0:0:
182,192,165380,1,0,0:0:0:0:
329,192,165448,1,0,0:0:0:0:
182,192,165448,1,0,0:0:0:0:
36,192,165516,1,0,0:0:0:0:
402,192,165516,1,0,0:0:0:0:
256,192,165516,1,0,0:0:0:0:
475,192,165607,1,0,0:0:0:0:
329,192,165653,1,0,0:0:0:0:
182,192,165653,1,0,0:0:0:0:
109,192,165653,1,0,0:0:0:0:
256,192,165721,1,0,0:0:0:0:
182,192,165789,1,0,0:0:0:0:
36,192,165789,1,0,0:0:0:0:
402,192,165789,1,0,0:0:0:0:
256,192,165857,1,0,0:0:0:0:
475,192,165880,1,0,0:0:0:0:
109,192,165925,1,0,0:0:0:0:
329,192,165925,1,0,0:0:0:0:
402,192,165971,1,0,0:0:0:0:
256,192,165994,1,0,0:0:0:0:
475,192,166062,1,0,0:0:0:0:
36,192,166062,1,0,0:0:0:0:
182,192,166062,1,0,0:0:0:0:
402,192,166153,1,0,0:0:0:0:
256,192,166198,1,0,0:0:0:0:
329,192,166198,1,0,0:0:0:0:
109,192,166244,1,0,0:0:0:0:
182,192,166334,1,0,0:0:0:0:
36,192,166334,1,0,0:0:0:0:
402,192,166334,1,0,0:0:0:0:
475,192,166334,1,0,0:0:0:0:
109,192,166425,1,0,0:0:0:0:
329,192,166471,1,0,0:0:0:0:
256,192,166471,1,0,0:0:0:0:
329,192,166539,1,0,0:0:0:0:
475,192,166607,1,0,0:0:0:0:
256,192,166607,1,0,0:0:0:0:
402,192,166607,1,0,0:0:0:0:
109,192,166607,1,0,0:0:0:0:
36,192,166607,1,0,0:0:0:0:
329,192,166744,1,0,0:0:0:0:
402,192,166744,1,0,0:0:0:0:
182,192,166744,1,0,0:0:0:0:
109,192,166744,1,0,0:0:0:0:
475,192,166789,1,0,0:0:0:0:
402,192,166880,1,0,0:0:0:0:
109,192,166880,1,0,0:0:0:0:
36,192,166880,1,0,0:0:0:0:
256,192,166914,1,0,0:0:0:0:
329,192,166948,1,0,0:0:0:0:
36,192,167016,1,0,0:0:0:0:
256,192,167050,1,0,0:0:0:0:
329,192,167084,1,0,0:0:0:0:
109,192,167119,1,0,0:0:0:0:
182,192,167153,1,0,0:0:0:0:
402,192,167221,1,0,0:0:0:0:
109,192,167255,1,0,0:0:0:0:
182,192,167289,1,0,0:0:0:0:
402,192,167357,1,0,0:0:0:0:
256,192,167425,1,0,0:0:0:0:
475,192,167494,1,0,0:0:0:0:
402,192,167528,1,0,0:0:0:0:
36,192,167562,1,0,0:0:0:0:
256,192,167596,1,0,0:0:0:0:
109,192,167630,1,0,0:0:0:0:
329,192,167664,1,0,0:0:0:0:
182,192,167698,1,0,0:0:0:0:
402,192,167732,1,0,0:0:0:0:
256,192,167766,1,0,0:0:0:0:
475,192,167800,1,0,0:0:0:0:
182,192,167834,1,0,0:0:0:0:
402,192,167869,1,0,0:0:0:0:
109,192,167903,1,0,0:0:0:0:
329,192,167937,1,0,0:0:0:0:
256,192,167971,1,0,0:0:0:0:
36,192,167971,1,0,0:0:0:0:
475,192,167971,1,0,0:0:0:0:
329,192,168244,1,0,0:0:0:0:
109,192,168380,1,0,0:0:0:0:
329,192,168516,1,0,0:0:0:0:
475,192,168516,1,0,0:0:0:0:
36,192,168516,1,0,0:0:0:0:
182,192,168516,1,0,0:0:0:0:
475,192,168789,1,0,0:0:0:0:
402,192,168925,1,0,0:0:0:0:
329,192,169062,1,0,0:0:0:0:
329,192,169607,1,0,0:0:0:0:
475,192,169607,1,0,0:0:0:0:
36,192,169607,1,0,0:0:0:0:
182,192,169607,1,0,0:0:0:0:
256,192,169744,1,0,0:0:0:0:
182,192,170084,1,0,0:0:0:0:
109,192,170153,1,0,0:0:0:0:
182,192,170425,1,0,0:0:0:0:
182,192,170698,1,0,0:0:0:0:
475,192,170698,1,0,0:0:0:0:
329,192,170698,1,0,0:0:0:0:
36,192,170698,1,0,0:0:0:0:
402,192,170971,1,0,0:0:0:0:
36,192,171107,1,0,0:0:0:0:
36,192,171653,1,0,0:0:0:0:
182,192,171789,1,0,0:0:0:0:
36,192,171789,1,0,0:0:0:0:
329,192,171789,1,0,0:0:0:0:
475,192,171789,1,0,0:0:0:0:
402,192,172334,1,0,0:0:0:0:
475,192,172334,1,0,0:0:0:0:
36,192,172334,1,0,0:0:0:0:
109,192,172334,1,0,0:0:0:0:
182,192,172380,1,0,0:0:0:0:
256,192,172425,1,0,0:0:0:0:
402,192,172471,1,0,0:0:0:0:
329,192,172471,1,0,0:0:0:0:
256,192,172607,1,0,0:0:0:0:
329,192,172607,1,0,0:0:0:0:
475,192,172607,1,0,0:0:0:0:
109,192,172607,1,0,0:0:0:0:
36,192,172607,1,0,0:0:0:0:
182,192,172675,1,0,0:0:0:0:
475,192,172698,1,0,0:0:0:0:
329,192,172744,1,0,0:0:0:0:
36,192,172744,1,0,0:0:0:0:
109,192,172744,1,0,0:0:0:0:
475,192,172789,1,0,0:0:0:0:
182,192,172812,1,0,0:0:0:0:
256,192,172880,1,0,0:0:0:0:
475,192,172880,1,0,0:0:0:0:
329,192,172880,1,0,0:0:0:0:
402,192,172880,1,0,0:0:0:0:
109,192,172948,1,0,0:0:0:0:
36,192,172948,1,0,0:0:0:0:
182,192,173016,1,0,0:0:0:0:
402,192,173016,1,0,0:0:0:0:
329,192,173016,1,0,0:0:0:0:
36,192,173084,1,0,0:0:0:0:
109,192,173084,1,0,0:0:0:0:
402,192,173153,1,0,0:0:0:0:
475,192,173153,1,0,0:0:0:0:
182,192,173153,1,0,0:0:0:0:
256,192,173153,1,0,0:0:0:0:
475,192,173289,1,0,0:0:0:0:
182,192,173289,1,0,0:0:0:0:
329,192,173289,1,0,0:0:0:0:
36,192,173289,1,0,0:0:0:0:
109,192,173289,1,0,0:0:0:0:
402,192,173425,1,0,0:0:0:0:
475,192,173425,1,0,0:0:0:0:
256,192,173425,1,0,0:0:0:0:
36,192,173425,1,0,0:0:0:0:
182,192,173494,1,0,0:0:0:0:
475,192,173562,1,0,0:0:0:0:
109,192,173562,1,0,0:0:0:0:
329,192,173607,1,0,0:0:0:0:
256,192,173630,1,0,0:0:0:0:
36,192,173698,1,0,0:0:0:0:
402,192,173698,1,0,0:0:0:0:
182,192,173698,1,0,0:0:0:0:
402,192,173789,1,0,0:0:0:0:
182,192,173789,1,0,0:0:0:0:
475,192,173834,1,0,0:0:0:0:
256,192,173834,1,0,0:0:0:0:
329,192,173880,1,0,0:0:0:0:
109,192,173880,1,0,0:0:0:0:
182,192,173971,1,0,0:0:0:0:
402,192,173971,1,0,0:0:0:0:
256,192,173971,1,0,0:0:0:0:
36,192,173971,1,0,0:0:0:0:
475,192,173971,1,0,0:0:0:0:
329,192,173971,1,0,0:0:0:0:
36,192,174244,1,0,0:0:0:0:
329,192,174244,1,0,0:0:0:0:
109,192,174244,1,0,0:0:0:0:
182,192,174244,1,0,0:0:0:0:
475,192,174312,1,0,0:0:0:0:
402,192,174334,1,0,0:0:0:0:
256,192,174334,1,0,0:0:0:0:
182,192,174380,1,0,0:0:0:0:
109,192,174425,1,0,0:0:0:0:
329,192,174425,1,0,0:0:0:0:
402,192,174516,1,0,0:0:0:0:
475,192,174516,1,0,0:0:0:0:
182,192,174516,1,0,0:0:0:0:
36,192,174516,1,0,0:0:0:0:
256,192,174516,1,0,0:0:0:0:
329,192,174789,1,0,0:0:0:0:
402,192,174789,1,0,0:0:0:0:
182,192,174789,1,0,0:0:0:0:
109,192,174789,1,0,0:0:0:0:
36,192,174857,1,0,0:0:0:0:
475,192,174880,1,0,0:0:0:0:
256,192,174880,1,0,0:0:0:0:
109,192,174925,1,0,0:0:0:0:
402,192,174971,1,0,0:0:0:0:
329,192,174971,1,0,0:0:0:0:
182,192,174994,1,0,0:0:0:0:
329,192,175062,1,0,0:0:0:0:
109,192,175062,1,0,0:0:0:0:
475,192,175062,1,0,0:0:0:0:
256,192,175062,1,0,0:0:0:0:
36,192,175062,1,0,0:0:0:0:
402,192,175198,1,0,0:0:0:0:
256,192,175198,1,0,0:0:0:0:
36,192,175198,1,0,0:0:0:0:
182,192,175198,1,0,0:0:0:0:
256,192,175334,1,0,0:0:0:0:
109,192,175334,1,0,0:0:0:0:
329,192,175334,1,0,0:0:0:0:
475,192,175334,1,0,0:0:0:0:
475,192,175425,1,0,0:0:0:0:
329,192,175425,1,0,0:0:0:0:
36,192,175471,1,0,0:0:0:0:
109,192,175471,1,0,0:0:0:0:
182,192,175471,1,0,0:0:0:0:
475,192,175516,1,0,0:0:0:0:
329,192,175516,1,0,0:0:0:0:
402,192,175607,1,0,0:0:0:0:
36,192,175607,1,0,0:0:0:0:
109,192,175607,1,0,0:0:0:0:
256,192,175607,1,0,0:0:0:0:
475,192,175744,1,0,0:0:0:0:
329,192,175744,1,0,0:0:0:0:
182,192,175778,1,0,0:0:0:0:
109,192,175812,1,0,0:0:0:0:
36,192,175846,1,0,0:0:0:0:
402,192,175880,1,0,0:0:0:0:
256,192,175880,1,0,0:0:0:0:
475,192,176016,1,0,0:0:0:0:
109,192,176016,1,0,0:0:0:0:
402,192,176016,1,0,0:0:0:0:
182,192,176016,1,0,0:0:0:0:
329,192,176016,1,0,0:0:0:0:
256,192,176153,1,0,0:0:0:0:
402,192,176153,1,0,0:0:0:0:
36,192,176153,1,0,0:0:0:0:
109,192,176153,1,0,0:0:0:0:
475,192,176289,1,0,0:0:0:0:
182,192,176289,1,0,0:0:0:0:
329,192,176289,1,0,0:0:0:0:
182,192,176357,1,0,0:0:0:0:
329,192,176357,1,0,0:0:0:0:
256,192,176425,1,0,0:0:0:0:
475,192,176425,1,0,0:0:0:0:
36,192,176425,1,0,0:0:0:0:
109,192,176425,1,0,0:0:0:0:
402,192,176562,1,0,0:0:0:0:
109,192,176562,1,0,0:0:0:0:
182,192,176562,1,0,0:0:0:0:
329,192,176562,1,0,0:0:0:0:
109,192,176698,1,0,0:0:0:0:
36,192,176698,1,0,0:0:0:0:
475,192,176698,1,0,0:0:0:0:
256,192,176698,1,0,0:0:0:0:
402,192,176698,1,0,0:0:0:0:
402,192,176971,1,0,0:0:0:0:
109,192,176971,1,0,0:0:0:0:
36,192,176971,1,0,0:0:0:0:
329,192,177107,1,0,0:0:0:0:
36,192,177244,1,0,0:0:0:0:
109,192,177244,1,0,0:0:0:0:
36,192,177516,1,0,0:0:0:0:
109,192,177516,1,0,0:0:0:0:
402,192,177516,1,0,0:0:0:0:
109,192,177789,1,0,0:0:0:0:
36,192,177789,1,0,0:0:0:0:
475,192,177789,1,0,0:0:0:0:
402,192,177834,1,0,0:0:0:0:
329,192,177880,1,0,0:0:0:0:
256,192,177925,1,0,0:0:0:0:
329,192,177971,1,0,0:0:0:0:
402,192,178016,1,0,0:0:0:0:
475,192,178062,1,0,0:0:0:0:
109,192,178062,1,0,0:0:0:0:
36,192,178062,1,0,0:0:0:0:
182,192,178198,1,0,0:0:0:0:
182,192,178266,1,0,0:0:0:0:
329,192,178334,1,0,0:0:0:0:
256,192,178334,1,0,0:0:0:0:
109,192,178334,1,0,0:0:0:0:
36,192,178334,1,0,0:0:0:0:
256,192,178471,1,0,0:0:0:0:
36,192,178607,1,0,0:0:0:0:
402,192,178607,1,0,0:0:0:0:
256,192,178607,1,0,0:0:0:0:
109,192,178607,1,0,0:0:0:0:
109,192,178880,1,0,0:0:0:0:
36,192,178880,1,0,0:0:0:0:
475,192,178880,1,0,0:0:0:0:
329,192,178880,1,0,0:0:0:0:
36,192,179153,1,0,0:0:0:0:
109,192,179153,1,0,0:0:0:0:
402,192,179153,1,0,0:0:0:0:
36,192,179425,1,0,0:0:0:0:
109,192,179425,1,0,0:0:0:0:
329,192,179425,1,0,0:0:0:0:
36,192,179698,1,0,0:0:0:0:
109,192,179698,1,0,0:0:0:0:
256,192,179698,1,0,0:0:0:0:
402,192,179971,1,0,0:0:0:0:
475,192,179971,1,0,0:0:0:0:
256,192,179971,1,0,0:0:0:0:
36,192,179971,1,0,0:0:0:0:
109,192,179971,1,0,0:0:0:0:
109,192,180107,1,0,0:0:0:0:
329,192,180107,1,0,0:0:0:0:
402,192,180175,1,0,0:0:0:0:
475,192,180244,1,0,0:0:0:0:
256,192,180244,1,0,0:0:0:0:
182,192,180244,1,0,0:0:0:0:
329,192,180244,1,0,0:0:0:0:
36,192,180312,1,0,0:0:0:0:
402,192,180380,1,0,0:0:0:0:
182,192,180380,1,0,0:0:0:0:
36,192,180448,1,0,0:0:0:0:
256,192,180516,1,0,0:0:0:0:
329,192,180516,1,0,0:0:0:0:
182,192,180516,1,0,0:0:0:0:
475,192,180584,1,0,0:0:0:0:
109,192,180653,1,0,0:0:0:0:
329,192,180653,1,0,0:0:0:0:
475,192,180721,1,0,0:0:0:0:
256,192,180789,1,0,0:0:0:0:
329,192,180789,1,0,0:0:0:0:
182,192,180789,1,0,0:0:0:0:
36,192,180857,1,0,0:0:0:0:
402,192,180925,1,0,0:0:0:0:
182,192,180925,1,0,0:0:0:0:
36,192,180994,1,0,0:0:0:0:
475,192,181062,1,0,0:0:0:0:
329,192,181062,1,0,0:0:0:0:
182,192,181062,1,0,0:0:0:0:
109,192,181096,1,0,0:0:0:0:
256,192,181130,1,0,0:0:0:0:
402,192,181164,1,0,0:0:0:0:
182,192,181198,1,0,0:0:0:0:
475,192,181198,1,0,0:0:0:0:
36,192,181198,1,0,0:0:0:0:
329,192,181266,1,0,0:0:0:0:
402,192,181334,1,0,0:0:0:0:
109,192,181334,1,0,0:0:0:0:
182,192,181334,1,0,0:0:0:0:
475,192,181403,1,0,0:0:0:0:
36,192,181425,1,0,0:0:0:0:
402,192,181471,1,0,0:0:0:0:
256,192,181471,1,0,0:0:0:0:
109,192,181516,1,0,0:0:0:0:
475,192,181539,1,0,0:0:0:0:
402,192,181607,1,0,0:0:0:0:
329,192,181607,1,0,0:0:0:0:
182,192,181607,1,0,0:0:0:0:
256,192,181675,1,0,0:0:0:0:
109,192,181675,1,0,0:0:0:0:
475,192,181744,1,0,0:0:0:0:
36,192,181744,1,0,0:0:0:0:
329,192,181812,1,0,0:0:0:0:
256,192,181812,1,0,0:0:0:0:
36,192,181880,1,0,0:0:0:0:
402,192,181880,1,0,0:0:0:0:
182,192,181880,1,0,0:0:0:0:
109,192,181880,1,0,0:0:0:0:
402,192,182016,1,0,0:0:0:0:
475,192,182016,1,0,0:0:0:0:
256,192,182016,1,0,0:0:0:0:
36,192,182016,1,0,0:0:0:0:
109,192,182016,1,0,0:0:0:0:
329,192,182084,1,0,0:0:0:0:
402,192,182153,1,0,0:0:0:0:
109,192,182153,1,0,0:0:0:0:
182,192,182153,1,0,0:0:0:0:
475,192,182153,1,0,0:0:0:0:
256,192,182221,1,0,0:0:0:0:
36,192,182289,1,0,0:0:0:0:
109,192,182289,1,0,0:0:0:0:
475,192,182357,1,0,0:0:0:0:
402,192,182357,1,0,0:0:0:0:
329,192,182357,1,0,0:0:0:0:
182,192,182425,1,0,0:0:0:0:
475,192,182425,1,0,0:0:0:0:
329,192,182425,1,0,0:0:0:0:
402,192,182425,1,0,0:0:0:0:
475,192,182494,1,0,0:0:0:0:
402,192,182494,1,0,0:0:0:0:
329,192,182494,1,0,0:0:0:0:
182,192,182562,1,0,0:0:0:0:
36,192,182562,1,0,0:0:0:0:
109,192,182562,1,0,0:0:0:0:
256,192,182630,1,0,0:0:0:0:
36,192,182698,1,0,0:0:0:0:
109,192,182698,1,0,0:0:0:0:
329,192,182698,1,0,0:0:0:0:
402,192,182698,1,0,0:0:0:0:
475,192,182698,1,0,0:0:0:0:
36,192,182834,1,0,0:0:0:0:
329,192,182834,1,0,0:0:0:0:
256,192,182834,1,0,0:0:0:0:
109,192,182903,1,0,0:0:0:0:
182,192,182903,1,0,0:0:0:0:
256,192,182971,1,0,0:0:0:0:
475,192,182971,1,0,0:0:0:0:
402,192,182971,1,0,0:0:0:0:
329,192,183039,1,0,0:0:0:0:
36,192,183039,1,0,0:0:0:0:
109,192,183073,1,0,0:0:0:0:
402,192,183107,1,0,0:0:0:0:
182,192,183107,1,0,0:0:0:0:
256,192,183141,1,0,0:0:0:0:
329,192,183175,1,0,0:0:0:0:
109,192,183244,1,0,0:0:0:0:
182,192,183244,1,0,0:0:0:0:
36,192,183244,1,0,0:0:0:0:
475,192,183244,1,0,0:0:0:0:
402,192,183244,1,0,0:0:0:0:
256,192,183380,1,0,0:0:0:0:
109,192,183425,1,0,0:0:0:0:
329,192,183448,1,0,0:0:0:0:
182,192,183471,1,0,0:0:0:0:
256,192,183516,1,0,0:0:0:0:
475,192,183516,1,0,0:0:0:0:
402,192,183516,1,0,0:0:0:0:
109,192,183584,1,0,0:0:0:0:
36,192,183584,1,0,0:0:0:0:
402,192,183653,1,0,0:0:0:0:
329,192,183653,1,0,0:0:0:0:
182,192,183653,1,0,0:0:0:0:
109,192,183721,1,0,0:0:0:0:
475,192,183789,1,0,0:0:0:0:
402,192,183789,1,0,0:0:0:0:
36,192,183789,1,0,0:0:0:0:
256,192,183789,1,0,0:0:0:0:
329,192,183925,1,0,0:0:0:0:
109,192,183925,1,0,0:0:0:0:
182,192,183925,1,0,0:0:0:0:
402,192,183994,1,0,0:0:0:0:
36,192,184062,1,0,0:0:0:0:
109,192,184062,1,0,0:0:0:0:
256,192,184062,1,0,0:0:0:0:
475,192,184062,1,0,0:0:0:0:
182,192,184130,1,0,0:0:0:0:
36,192,184153,1,0,0:0:0:0:
402,192,184198,1,0,0:0:0:0:
329,192,184198,1,0,0:0:0:0:
182,192,184244,1,0,0:0:0:0:
109,192,184244,1,0,0:0:0:0:
475,192,184334,1,0,0:0:0:0:
36,192,184334,1,0,0:0:0:0:
256,192,184334,1,0,0:0:0:0:
402,192,184334,1,0,0:0:0:0:
182,192,184403,1,0,0:0:0:0:
475,192,184471,1,0,0:0:0:0:
329,192,184471,1,0,0:0:0:0:
109,192,184471,1,0,0:0:0:0:
182,192,184539,1,0,0:0:0:0:
36,192,184607,1,0,0:0:0:0:
402,192,184607,1,0,0:0:0:0:
256,192,184607,1,0,0:0:0:0:
402,192,184698,1,0,0:0:0:0:
256,192,184698,1,0,0:0:0:0:
475,192,184744,1,0,0:0:0:0:
109,192,184744,1,0,0:0:0:0:
36,192,184744,1,0,0:0:0:0:
329,192,184789,1,0,0:0:0:0:
182,192,184789,1,0,0:0:0:0:
402,192,184880,1,0,0:0:0:0:
475,192,184880,1,0,0:0:0:0:
256,192,184880,1,0,0:0:0:0:
109,192,184880,1,0,0:0:0:0:
329,192,185016,1,0,0:0:0:0:
182,192,185016,1,0,0:0:0:0:
36,192,185016,1,0,0:0:0:0:
256,192,185084,1,0,0:0:0:0:
109,192,185084,1,0,0:0:0:0:
329,192,185153,1,0,0:0:0:0:
475,192,185153,1,0,0:0:0:0:
182,192,185153,1,0,0:0:0:0:
36,192,185153,1,0,0:0:0:0:
475,192,185289,1,0,0:0:0:0:
109,192,185289,1,0,0:0:0:0:
256,192,185289,1,0,0:0:0:0:
402,192,185289,1,0,0:0:0:0:
329,192,185425,1,0,0:0:0:0:
402,192,185425,1,0,0:0:0:0:
182,192,185425,1,0,0:0:0:0:
36,192,185425,1,0,0:0:0:0:
109,192,185425,1,0,0:0:0:0:
256,192,185562,1,0,0:0:0:0:
329,192,185562,1,0,0:0:0:0:
182,192,185562,1,0,0:0:0:0:
36,192,185562,1,0,0:0:0:0:
109,192,185562,1,0,0:0:0:0:
402,192,185698,1,0,0:0:0:0:
475,192,185698,1,0,0:0:0:0:
182,192,185698,1,0,0:0:0:0:
36,192,185698,1,0,0:0:0:0:
109,192,185698,1,0,0:0:0:0:
36,192,185834,1,0,0:0:0:0:
182,192,185834,1,0,0:0:0:0:
109,192,185834,1,0,0:0:0:0:
329,192,185834,1,0,0:0:0:0:
402,192,185834,1,0,0:0:0:0:
475,192,185971,1,0,0:0:0:0:
256,192,185971,1,0,0:0:0:0:
256,192,186039,1,0,0:0:0:0:
402,192,186062,1,0,0:0:0:0:
182,192,186107,1,0,0:0:0:0:
182,192,186175,1,0,0:0:0:0:
402,192,186244,1,0,0:0:0:0:
475,192,186244,1,0,0:0:0:0:
329,192,186244,1,0,0:0:0:0:
109,192,186244,1,0,0:0:0:0:
36,192,186244,1,0,0:0:0:0:
329,192,186380,1,0,0:0:0:0:
402,192,186380,1,0,0:0:0:0:
256,192,186380,1,0,0:0:0:0:
109,192,186380,1,0,0:0:0:0:
36,192,186380,1,0,0:0:0:0:
182,192,186516,1,0,0:0:0:0:
109,192,186516,1,0,0:0:0:0:
475,192,186516,1,0,0:0:0:0:
329,192,186516,1,0,0:0:0:0:
402,192,186516,1,0,0:0:0:0:
329,192,186653,1,0,0:0:0:0:
402,192,186653,1,0,0:0:0:0:
256,192,186653,1,0,0:0:0:0:
109,192,186653,1,0,0:0:0:0:
182,192,186653,1,0,0:0:0:0:
475,192,186789,1,0,0:0:0:0:
402,192,186789,1,0,0:0:0:0:
256,192,186789,1,0,0:0:0:0:
36,192,186789,1,0,0:0:0:0:
109,192,186789,1,0,0:0:0:0:
329,192,186925,1,0,0:0:0:0:
475,192,186925,1,0,0:0:0:0:
256,192,186925,1,0,0:0:0:0:
182,192,186925,1,0,0:0:0:0:
36,192,186925,1,0,0:0:0:0:
402,192,187062,1,0,0:0:0:0:
36,192,187062,1,0,0:0:0:0:
182,192,187062,1,0,0:0:0:0:
329,192,187062,1,0,0:0:0:0:
475,192,187130,1,0,0:0:0:0:
256,192,187130,1,0,0:0:0:0:
109,192,187130,1,0,0:0:0:0:
329,192,187198,1,0,0:0:0:0:
402,192,187198,1,0,0:0:0:0:
182,192,187198,1,0,0:0:0:0:
36,192,187198,1,0,0:0:0:0:
475,192,187266,1,0,0:0:0:0:
256,192,187266,1,0,0:0:0:0:
402,192,187744,1,0,0:0:0:0:
329,192,187744,1,0,0:0:0:0:
256,192,187744,1,0,0:0:0:0:
36,192,187744,1,0,0:0:0:0:
109,192,187744,1,0,0:0:0:0:
475,192,187880,1,0,0:0:0:0:
256,192,187880,1,0,0:0:0:0:
329,192,187880,1,0,0:0:0:0:
109,192,187880,1,0,0:0:0:0:
182,192,187880,1,0,0:0:0:0:
402,192,188016,1,0,0:0:0:0:
475,192,188016,1,0,0:0:0:0:
256,192,188016,1,0,0:0:0:0:
36,192,188016,1,0,0:0:0:0:
182,192,188016,1,0,0:0:0:0:
329,192,188153,1,0,0:0:0:0:
402,192,188153,1,0,0:0:0:0:
36,192,188153,1,0,0:0:0:0:
256,192,188153,1,0,0:0:0:0:
109,192,188153,1,0,0:0:0:0:
402,192,188425,1,0,0:0:0:0:
475,192,188425,1,0,0:0:0:0:
329,192,188425,1,0,0:0:0:0:
182,192,188425,1,0,0:0:0:0:
109,192,188425,1,0,0:0:0:0:
402,192,188562,1,0,0:0:0:0:
475,192,188562,1,0,0:0:0:0:
256,192,188562,1,0,0:0:0:0:
36,192,188562,1,0,0:0:0:0:
109,192,188562,1,0,0:0:0:0:
256,192,188698,1,0,0:0:0:0:
475,192,188698,1,0,0:0:0:0:
329,192,188698,1,0,0:0:0:0:
182,192,188698,1,0,0:0:0:0:
36,192,188698,1,0,0:0:0:0:
329,192,188834,1,0,0:0:0:0:
402,192,188834,1,0,0:0:0:0:
256,192,188834,1,0,0:0:0:0:
109,192,188834,1,0,0:0:0:0:
182,192,188834,1,0,0:0:0:0:
329,192,188971,1,0,0:0:0:0:
475,192,188971,1,0,0:0:0:0:
182,192,188971,1,0,0:0:0:0:
36,192,188971,1,0,0:0:0:0:
109,192,188971,1,0,0:0:0:0:
475,192,189107,1,0,0:0:0:0:
109,192,189107,1,0,0:0:0:0:
402,192,189107,1,0,0:0:0:0:
36,192,189107,1,0,0:0:0:0:
256,192,189107,1,0,0:0:0:0:
402,192,189244,1,0,0:0:0:0:
475,192,189244,1,0,0:0:0:0:
36,192,189244,1,0,0:0:0:0:
182,192,189244,1,0,0:0:0:0:
329,192,189244,1,0,0:0:0:0:
329,192,189380,1,0,0:0:0:0:
36,192,189380,1,0,0:0:0:0:
256,192,189380,1,0,0:0:0:0:
109,192,189380,1,0,0:0:0:0:
182,192,189380,1,0,0:0:0:0:
402,192,189789,1,0,0:0:0:0:
475,192,189789,1,0,0:0:0:0:
329,192,189789,1,0,0:0:0:0:
109,192,189789,1,0,0:0:0:0:
36,192,189789,1,0,0:0:0:0:
182,192,189789,1,0,0:0:0:0:
256,192,190062,1,0,0:0:0:0:
256,192,190198,1,0,0:0:0:0:
256,192,190334,1,0,0:0:0:0:
256,192,190471,1,0,0:0:0:0:
256,192,190607,1,0,0:0:0:0:
256,192,190744,1,0,0:0:0:0:
402,192,190880,1,0,0:0:0:0:
109,192,190880,1,0,0:0:0:0:
256,192,190880,1,0,0:0:0:0:
256,192,191016,1,0,0:0:0:0:
402,192,191153,1,0,0:0:0:0:
109,192,191153,1,0,0:0:0:0:
256,192,191153,1,0,0:0:0:0:
256,192,191289,1,0,0:0:0:0:
256,192,191425,1,0,0:0:0:0:
256,192,191562,1,0,0:0:0:0:
256,192,191698,1,0,0:0:0:0:
182,192,191698,1,0,0:0:0:0:
329,192,191766,1,0,0:0:0:0:
256,192,191834,1,0,0:0:0:0:
182,192,191834,1,0,0:0:0:0:
329,192,191903,1,0,0:0:0:0:
402,192,191971,1,0,0:0:0:0:
475,192,191971,1,0,0:0:0:0:
256,192,191971,1,0,0:0:0:0:
109,192,191971,1,0,0:0:0:0:
36,192,191971,1,0,0:0:0:0:
36,192,192244,1,0,0:0:0:0:
256,192,192244,1,0,0:0:0:0:
182,192,192244,1,0,0:0:0:0:
329,192,192244,1,0,0:0:0:0:
402,192,192278,1,0,0:0:0:0:
109,192,192334,1,0,0:0:0:0:
329,192,192380,1,0,0:0:0:0:
475,192,192414,1,0,0:0:0:0:
182,192,192425,1,0,0:0:0:0:
182,192,192516,1,0,0:0:0:0:
36,192,192516,1,0,0:0:0:0:
329,192,192516,1,0,0:0:0:0:
402,192,192550,1,0,0:0:0:0:
109,192,192607,1,0,0:0:0:0:
329,192,192653,1,0,0:0:0:0:
475,192,192687,1,0,0:0:0:0:
182,192,192698,1,0,0:0:0:0:
256,192,192789,1,0,0:0:0:0:
109,192,192789,1,0,0:0:0:0:
329,192,192789,1,0,0:0:0:0:
36,192,192789,1,0,0:0:0:0:
402,192,192823,1,0,0:0:0:0:
182,192,192880,1,0,0:0:0:0:
329,192,192925,1,0,0:0:0:0:
475,192,192959,1,0,0:0:0:0:
109,192,192971,1,0,0:0:0:0:
402,192,193062,1,0,0:0:0:0:
256,192,193062,1,0,0:0:0:0:
36,192,193062,1,0,0:0:0:0:
182,192,193130,1,0,0:0:0:0:
475,192,193153,1,0,0:0:0:0:
109,192,193153,1,0,0:0:0:0:
256,192,193244,1,0,0:0:0:0:
329,192,193266,1,0,0:0:0:0:
402,192,193334,1,0,0:0:0:0:
475,192,193334,1,0,0:0:0:0:
36,192,193334,1,0,0:0:0:0:
109,192,193334,1,0,0:0:0:0:
182,192,193403,1,0,0:0:0:0:
329,192,193471,1,0,0:0:0:0:
109,192,193516,1,0,0:0:0:0:
256,192,193516,1,0,0:0:0:0:
36,192,193607,1,0,0:0:0:0:
402,192,193607,1,0,0:0:0:0:
182,192,193607,1,0,0:0:0:0:
475,192,193607,1,0,0:0:0:0:
256,192,193675,1,0,0:0:0:0:
329,192,193744,1,0,0:0:0:0:
109,192,193744,1,0,0:0:0:0:
402,192,193789,1,0,0:0:0:0:
182,192,193789,1,0,0:0:0:0:
475,192,193880,1,0,0:0:0:0:
36,192,193880,1,0,0:0:0:0:
256,192,193880,1,0,0:0:0:0:
329,192,194016,1,0,0:0:0:0:
402,192,194016,1,0,0:0:0:0:
109,192,194016,1,0,0:0:0:0:
182,192,194016,1,0,0:0:0:0:
475,192,194153,1,0,0:0:0:0:
402,192,194153,1,0,0:0:0:0:
256,192,194153,1,0,0:0:0:0:
36,192,194153,1,0,0:0:0:0:
109,192,194153,1,0,0:0:0:0:
475,192,194425,1,0,0:0:0:0:
402,192,194425,1,0,0:0:0:0:
109,192,194425,1,0,0:0:0:0:
36,192,194425,1,0,0:0:0:0:
256,192,194425,1,0,0:0:0:0:
329,192,194516,1,0,0:0:0:0:
182,192,194562,1,0,0:0:0:0:
109,192,194596,1,0,0:0:0:0:
402,192,194607,1,0,0:0:0:0:
329,192,194698,1,0,0:0:0:0:
475,192,194698,1,0,0:0:0:0:
182,192,194698,1,0,0:0:0:0:
36,192,194732,1,0,0:0:0:0:
329,192,194789,1,0,0:0:0:0:
182,192,194834,1,0,0:0:0:0:
109,192,194869,1,0,0:0:0:0:
402,192,194880,1,0,0:0:0:0:
475,192,194971,1,0,0:0:0:0:
329,192,194971,1,0,0:0:0:0:
182,192,194971,1,0,0:0:0:0:
256,192,194971,1,0,0:0:0:0:
36,192,195005,1,0,0:0:0:0:
402,192,195062,1,0,0:0:0:0:
182,192,195107,1,0,0:0:0:0:
109,192,195141,1,0,0:0:0:0:
329,192,195153,1,0,0:0:0:0:
475,192,195244,1,0,0:0:0:0:
256,192,195244,1,0,0:0:0:0:
36,192,195244,1,0,0:0:0:0:
402,192,195312,1,0,0:0:0:0:
182,192,195334,1,0,0:0:0:0:
329,192,195380,1,0,0:0:0:0:
182,192,195425,1,0,0:0:0:0:
402,192,195448,1,0,0:0:0:0:
256,192,195516,1,0,0:0:0:0:
475,192,195516,1,0,0:0:0:0:
109,192,195516,1,0,0:0:0:0:
36,192,195516,1,0,0:0:0:0:
329,192,195584,1,0,0:0:0:0:
182,192,195653,1,0,0:0:0:0:
402,192,195653,1,0,0:0:0:0:
109,192,195721,1,0,0:0:0:0:
475,192,195789,1,0,0:0:0:0:
329,192,195789,1,0,0:0:0:0:
256,192,195789,1,0,0:0:0:0:
182,192,195880,1,0,0:0:0:0:
36,192,195880,1,0,0:0:0:0:
256,192,195925,1,0,0:0:0:0:
475,192,195971,1,0,0:0:0:0:
402,192,195971,1,0,0:0:0:0:
329,192,196062,1,0,0:0:0:0:
256,192,196062,1,0,0:0:0:0:
109,192,196062,1,0,0:0:0:0:
402,192,196153,1,0,0:0:0:0:
36,192,196198,1,0,0:0:0:0:
182,192,196198,1,0,0:0:0:0:
329,192,196244,1,0,0:0:0:0:
109,192,196266,1,0,0:0:0:0:
402,192,196334,1,0,0:0:0:0:
475,192,196334,1,0,0:0:0:0:
36,192,196334,1,0,0:0:0:0:
182,192,196334,1,0,0:0:0:0:
109,192,196471,1,0,0:0:0:0:
329,192,196471,1,0,0:0:0:0:
256,192,196471,1,0,0:0:0:0:
402,192,196607,1,0,0:0:0:0:
475,192,196607,1,0,0:0:0:0:
182,192,196607,1,0,0:0:0:0:
36,192,196607,1,0,0:0:0:0:
109,192,196744,1,0,0:0:0:0:
256,192,196744,1,0,0:0:0:0:
475,192,196744,1,0,0:0:0:0:
329,192,196778,1,0,0:0:0:0:
182,192,196880,1,0,0:0:0:0:
256,192,196880,1,0,0:0:0:0:
475,192,196880,1,0,0:0:0:0:
36,192,196880,1,0,0:0:0:0:
402,192,196914,1,0,0:0:0:0:
182,192,197016,1,0,0:0:0:0:
109,192,197016,1,0,0:0:0:0:
475,192,197016,1,0,0:0:0:0:
329,192,197050,1,0,0:0:0:0:
182,192,197153,1,0,0:0:0:0:
256,192,197153,1,0,0:0:0:0:
475,192,197153,1,0,0:0:0:0:
36,192,197153,1,0,0:0:0:0:
402,192,197187,1,0,0:0:0:0:
182,192,197289,1,0,0:0:0:0:
109,192,197289,1,0,0:0:0:0:
475,192,197289,1,0,0:0:0:0:
329,192,197323,1,0,0:0:0:0:
109,192,197425,1,0,0:0:0:0:
402,192,197425,1,0,0:0:0:0:
36,192,197425,1,0,0:0:0:0:
256,192,197425,1,0,0:0:0:0:
182,192,197494,1,0,0:0:0:0:
475,192,197516,1,0,0:0:0:0:
329,192,197516,1,0,0:0:0:0:
109,192,197562,1,0,0:0:0:0:
475,192,197607,1,0,0:0:0:0:
329,192,197607,1,0,0:0:0:0:
182,192,197630,1,0,0:0:0:0:
36,192,197698,1,0,0:0:0:0:
402,192,197698,1,0,0:0:0:0:
256,192,197698,1,0,0:0:0:0:
329,192,197834,1,0,0:0:0:0:
182,192,197834,1,0,0:0:0:0:
109,192,197834,1,0,0:0:0:0:
402,192,197880,1,0,0:0:0:0:
36,192,197971,1,0,0:0:0:0:
475,192,197971,1,0,0:0:0:0:
256,192,197971,1,0,0:0:0:0:
109,192,198062,1,0,0:0:0:0:
182,192,198107,1,0,0:0:0:0:
402,192,198107,1,0,0:0:0:0:
329,192,198107,1,0,0:0:0:0:
402,192,198244,1,0,0:0:0:0:
475,192,198244,1,0,0:0:0:0:
256,192,198244,1,0,0:0:0:0:
36,192,198244,1,0,0:0:0:0:
109,192,198244,1,0,0:0:0:0:
329,192,198380,1,0,0:0:0:0:
402,192,198380,1,0,0:0:0:0:
182,192,198380,1,0,0:0:0:0:
109,192,198380,1,0,0:0:0:0:
402,192,198516,1,0,0:0:0:0:
256,192,198516,1,0,0:0:0:0:
109,192,198516,1,0,0:0:0:0:
36,192,198516,1,0,0:0:0:0:
475,192,198516,1,0,0:0:0:0:
329,192,198607,1,0,0:0:0:0:
182,192,198653,1,0,0:0:0:0:
475,192,198789,1,0,0:0:0:0:
402,192,198789,1,0,0:0:0:0:
329,192,198789,1,0,0:0:0:0:
182,192,198789,1,0,0:0:0:0:
256,192,198789,1,0,0:0:0:0:
182,192,198925,1,0,0:0:0:0:
256,192,198971,1,0,0:0:0:0:
402,192,199062,1,0,0:0:0:0:
475,192,199062,1,0,0:0:0:0:
329,192,199062,1,0,0:0:0:0:
109,192,199062,1,0,0:0:0:0:
36,192,199062,1,0,0:0:0:0:
36,192,199153,1,0,0:0:0:0:
109,192,199153,1,0,0:0:0:0:
329,192,199198,1,0,0:0:0:0:
256,192,199198,1,0,0:0:0:0:
109,192,199244,1,0,0:0:0:0:
36,192,199244,1,0,0:0:0:0:
256,192,199334,1,0,0:0:0:0:
182,192,199334,1,0,0:0:0:0:
402,192,199334,1,0,0:0:0:0:
475,192,199334,1,0,0:0:0:0:
475,192,199425,1,0,0:0:0:0:
402,192,199425,1,0,0:0:0:0:
182,192,199471,1,0,0:0:0:0:
109,192,199471,1,0,0:0:0:0:
475,192,199516,1,0,0:0:0:0:
402,192,199516,1,0,0:0:0:0:
329,192,199607,1,0,0:0:0:0:
109,192,199607,1,0,0:0:0:0:
36,192,199607,1,0,0:0:0:0:
475,192,199698,1,0,0:0:0:0:
182,192,199744,1,0,0:0:0:0:
256,192,199744,1,0,0:0:0:0:
109,192,199812,1,0,0:0:0:0:
402,192,199812,1,0,0:0:0:0:
36,192,199880,1,0,0:0:0:0:
329,192,199880,1,0,0:0:0:0:
475,192,199880,1,0,0:0:0:0:
256,192,199948,1,0,0:0:0:0:
36,192,200016,1,0,0:0:0:0:
475,192,200016,1,0,0:0:0:0:
402,192,200016,1,0,0:0:0:0:
109,192,200016,1,0,0:0:0:0:
329,192,200062,1,0,0:0:0:0:
182,192,200062,1,0,0:0:0:0:
256,192,200153,1,0,0:0:0:0:
256,192,200425,1,0,0:0:0:0:
256,192,200698,1,0,0:0:0:0:
329,192,200698,1,0,0:0:0:0:
36,192,200698,1,0,0:0:0:0:
475,192,200698,1,0,0:0:0:0:
109,192,200698,1,0,0:0:0:0:
182,192,200766,1,0,0:0:0:0:
256,192,200834,1,0,0:0:0:0:
402,192,200834,1,0,0:0:0:0:
109,192,200834,1,0,0:0:0:0:
402,192,200903,1,0,0:0:0:0:
182,192,200903,1,0,0:0:0:0:
329,192,200971,1,0,0:0:0:0:
36,192,200971,1,0,0:0:0:0:
475,192,200971,1,0,0:0:0:0:
256,192,201039,1,0,0:0:0:0:
109,192,201039,1,0,0:0:0:0:
402,192,201062,1,0,0:0:0:0:
329,192,201107,1,0,0:0:0:0:
36,192,201107,1,0,0:0:0:0:
182,192,201175,1,0,0:0:0:0:
475,192,201244,1,0,0:0:0:0:
109,192,201244,1,0,0:0:0:0:
256,192,201244,1,0,0:0:0:0:
402,192,201244,1,0,0:0:0:0:
402,192,201312,1,0,0:0:0:0:
182,192,201334,1,0,0:0:0:0:
329,192,201380,1,0,0:0:0:0:
475,192,201380,1,0,0:0:0:0:
36,192,201380,1,0,0:0:0:0:
109,192,201380,1,0,0:0:0:0:
256,192,201448,1,0,0:0:0:0:
109,192,201448,1,0,0:0:0:0:
475,192,201516,1,0,0:0:0:0:
402,192,201516,1,0,0:0:0:0:
182,192,201516,1,0,0:0:0:0:
36,192,201584,1,0,0:0:0:0:
256,192,201607,1,0,0:0:0:0:
109,192,201653,1,0,0:0:0:0:
182,192,201653,1,0,0:0:0:0:
329,192,201653,1,0,0:0:0:0:
36,192,201721,1,0,0:0:0:0:
256,192,201789,1,0,0:0:0:0:
475,192,201789,1,0,0:0:0:0:
402,192,201789,1,0,0:0:0:0:
182,192,201857,1,0,0:0:0:0:
109,192,201857,1,0,0:0:0:0:
475,192,201925,1,0,0:0:0:0:
402,192,201925,1,0,0:0:0:0:
329,192,201925,1,0,0:0:0:0:
256,192,201994,1,0,0:0:0:0:
109,192,202062,1,0,0:0:0:0:
36,192,202062,1,0,0:0:0:0:
402,192,202130,1,0,0:0:0:0:
329,192,202130,1,0,0:0:0:0:
475,192,202153,1,0,0:0:0:0:
36,192,202198,1,0,0:0:0:0:
109,192,202198,1,0,0:0:0:0:
182,192,202198,1,0,0:0:0:0:
329,192,202266,1,0,0:0:0:0:
256,192,202266,1,0,0:0:0:0:
36,192,202334,1,0,0:0:0:0:
109,192,202334,1,0,0:0:0:0:
402,192,202334,1,0,0:0:0:0:
475,192,202334,1,0,0:0:0:0:
329,192,202403,1,0,0:0:0:0:
182,192,202425,1,0,0:0:0:0:
402,192,202471,1,0,0:0:0:0:
109,192,202516,1,0,0:0:0:0:
329,192,202539,1,0,0:0:0:0:
475,192,202607,1,0,0:0:0:0:
256,192,202607,1,0,0:0:0:0:
182,192,202607,1,0,0:0:0:0:
36,192,202675,1,0,0:0:0:0:
402,192,202698,1,0,0:0:0:0:
109,192,202744,1,0,0:0:0:0:
329,192,202789,1,0,0:0:0:0:
475,192,202789,1,0,0:0:0:0:
182,192,202812,1,0,0:0:0:0:
256,192,202846,1,0,0:0:0:0:
109,192,202880,1,0,0:0:0:0:
36,192,202880,1,0,0:0:0:0:
402,192,202880,1,0,0:0:0:0:
329,192,202948,1,0,0:0:0:0:
182,192,203016,1,0,0:0:0:0:
475,192,203016,1,0,0:0:0:0:
402,192,203016,1,0,0:0:0:0:
36,192,203062,1,0,0:0:0:0:
182,192,203084,1,0,0:0:0:0:
109,192,203153,1,0,0:0:0:0:
329,192,203153,1,0,0:0:0:0:
256,192,203153,1,0,0:0:0:0:
475,192,203221,1,0,0:0:0:0:
36,192,203244,1,0,0:0:0:0:
182,192,203289,1,0,0:0:0:0:
329,192,203289,1,0,0:0:0:0:
256,192,203357,1,0,0:0:0:0:
402,192,203357,1,0,0:0:0:0:
475,192,203425,1,0,0:0:0:0:
36,192,203425,1,0,0:0:0:0:
109,192,203425,1,0,0:0:0:0:
256,192,203494,1,0,0:0:0:0:
402,192,203516,1,0,0:0:0:0:
329,192,203562,1,0,0:0:0:0:
182,192,203562,1,0,0:0:0:0:
109,192,203562,1,0,0:0:0:0:
475,192,203607,1,0,0:0:0:0:
256,192,203630,1,0,0:0:0:0:
329,192,203698,1,0,0:0:0:0:
109,192,203698,1,0,0:0:0:0:
36,192,203698,1,0,0:0:0:0:
182,192,203766,1,0,0:0:0:0:
402,192,203766,1,0,0:0:0:0:
36,192,203834,1,0,0:0:0:0:
329,192,203834,1,0,0:0:0:0:
182,192,203903,1,0,0:0:0:0:
402,192,203903,1,0,0:0:0:0:
256,192,203971,1,0,0:0:0:0:
36,192,203971,1,0,0:0:0:0:
109,192,203971,1,0,0:0:0:0:
402,192,204039,1,0,0:0:0:0:
475,192,204039,1,0,0:0:0:0:
109,192,204107,1,0,0:0:0:0:
329,192,204107,1,0,0:0:0:0:
182,192,204107,1,0,0:0:0:0:
36,192,204175,1,0,0:0:0:0:
475,192,204244,1,0,0:0:0:0:
402,192,204244,1,0,0:0:0:0:
256,192,204244,1,0,0:0:0:0:
109,192,204312,1,0,0:0:0:0:
36,192,204312,1,0,0:0:0:0:
402,192,204380,1,0,0:0:0:0:
329,192,204380,1,0,0:0:0:0:
182,192,204380,1,0,0:0:0:0:
475,192,204448,1,0,0:0:0:0:
256,192,204516,1,0,0:0:0:0:
402,192,204516,1,0,0:0:0:0:
36,192,204516,1,0,0:0:0:0:
109,192,204516,1,0,0:0:0:0:
109,192,204584,1,0,0:0:0:0:
475,192,204653,1,0,0:0:0:0:
329,192,204653,1,0,0:0:0:0:
182,192,204653,1,0,0:0:0:0:
256,192,204721,1,0,0:0:0:0:
36,192,204789,1,0,0:0:0:0:
109,192,204789,1,0,0:0:0:0:
402,192,204789,1,0,0:0:0:0:
475,192,204789,1,0,0:0:0:0:
182,192,204857,1,0,0:0:0:0:
329,192,204880,1,0,0:0:0:0:
36,192,204925,1,0,0:0:0:0:
256,192,204925,1,0,0:0:0:0:
109,192,204925,1,0,0:0:0:0:
402,192,204971,1,0,0:0:0:0:
182,192,204994,1,0,0:0:0:0:
329,192,205028,1,0,0:0:0:0:
109,192,205062,1,0,0:0:0:0:
256,192,205062,1,0,0:0:0:0:
36,192,205062,1,0,0:0:0:0:
475,192,205062,1,0,0:0:0:0:
402,192,205130,1,0,0:0:0:0:
329,192,205198,1,0,0:0:0:0:
109,192,205198,1,0,0:0:0:0:
329,192,205266,1,0,0:0:0:0:
182,192,205266,1,0,0:0:0:0:
256,192,205334,1,0,0:0:0:0:
36,192,205334,1,0,0:0:0:0:
475,192,205334,1,0,0:0:0:0:
402,192,205403,1,0,0:0:0:0:
109,192,205403,1,0,0:0:0:0:
182,192,205471,1,0,0:0:0:0:
475,192,205471,1,0,0:0:0:0:
36,192,205471,1,0,0:0:0:0:
329,192,205539,1,0,0:0:0:0:
182,192,205607,1,0,0:0:0:0:
109,192,205607,1,0,0:0:0:0:
256,192,205607,1,0,0:0:0:0:
402,192,205607,1,0,0:0:0:0:
182,192,205675,1,0,0:0:0:0:
329,192,205744,1,0,0:0:0:0:
475,192,205744,1,0,0:0:0:0:
36,192,205744,1,0,0:0:0:0:
109,192,205812,1,0,0:0:0:0:
329,192,205812,1,0,0:0:0:0:
475,192,205880,1,0,0:0:0:0:
256,192,205880,1,0,0:0:0:0:
182,192,205880,1,0,0:0:0:0:
402,192,205948,1,0,0:0:0:0:
329,192,205971,1,0,0:0:0:0:
475,192,206016,1,0,0:0:0:0:
36,192,206016,1,0,0:0:0:0:
256,192,206062,1,0,0:0:0:0:
402,192,206084,1,0,0:0:0:0:
109,192,206084,1,0,0:0:0:0:
36,192,206153,1,0,0:0:0:0:
329,192,206153,1,0,0:0:0:0:
182,192,206153,1,0,0:0:0:0:
475,192,206221,1,0,0:0:0:0:
402,192,206221,1,0,0:0:0:0:
182,192,206289,1,0,0:0:0:0:
329,192,206289,1,0,0:0:0:0:
256,192,206289,1,0,0:0:0:0:
109,192,206334,1,0,0:0:0:0:
36,192,206357,1,0,0:0:0:0:
182,192,206425,1,0,0:0:0:0:
329,192,206425,1,0,0:0:0:0:
402,192,206494,1,0,0:0:0:0:
475,192,206494,1,0,0:0:0:0:
36,192,206562,1,0,0:0:0:0:
109,192,206562,1,0,0:0:0:0:
256,192,206562,1,0,0:0:0:0:
329,192,206607,1,0,0:0:0:0:
109,192,206630,1,0,0:0:0:0:
182,192,206698,1,0,0:0:0:0:
475,192,206698,1,0,0:0:0:0:
402,192,206698,1,0,0:0:0:0:
256,192,206766,1,0,0:0:0:0:
36,192,206789,1,0,0:0:0:0:
329,192,206789,1,0,0:0:0:0:
182,192,206834,1,0,0:0:0:0:
402,192,206880,1,0,0:0:0:0:
109,192,206903,1,0,0:0:0:0:
475,192,206971,1,0,0:0:0:0:
256,192,206971,1,0,0:0:0:0:
182,192,206971,1,0,0:0:0:0:
109,192,207039,1,0,0:0:0:0:
329,192,207039,1,0,0:0:0:0:
36,192,207062,1,0,0:0:0:0:
402,192,207107,1,0,0:0:0:0:
109,192,207153,1,0,0:0:0:0:
329,192,207175,1,0,0:0:0:0:
182,192,207209,1,0,0:0:0:0:
256,192,207244,1,0,0:0:0:0:
36,192,207244,1,0,0:0:0:0:
475,192,207244,1,0,0:0:0:0:
402,192,207312,1,0,0:0:0:0:
182,192,207380,1,0,0:0:0:0:
109,192,207380,1,0,0:0:0:0:
329,192,207380,1,0,0:0:0:0:
475,192,207425,1,0,0:0:0:0:
329,192,207448,1,0,0:0:0:0:
109,192,207516,1,0,0:0:0:0:
256,192,207516,1,0,0:0:0:0:
36,192,207516,1,0,0:0:0:0:
402,192,207584,1,0,0:0:0:0:
475,192,207607,1,0,0:0:0:0:
36,192,207653,1,0,0:0:0:0:
182,192,207653,1,0,0:0:0:0:
329,192,207653,1,0,0:0:0:0:
256,192,207698,1,0,0:0:0:0:
402,192,207721,1,0,0:0:0:0:
329,192,207789,1,0,0:0:0:0:
36,192,207789,1,0,0:0:0:0:
109,192,207789,1,0,0:0:0:0:
475,192,207857,1,0,0:0:0:0:
182,192,207880,1,0,0:0:0:0:
402,192,207925,1,0,0:0:0:0:
256,192,207925,1,0,0:0:0:0:
109,192,207971,1,0,0:0:0:0:
329,192,207994,1,0,0:0:0:0:
402,192,208062,1,0,0:0:0:0:
475,192,208062,1,0,0:0:0:0:
36,192,208062,1,0,0:0:0:0:
182,192,208130,1,0,0:0:0:0:
256,192,208130,1,0,0:0:0:0:
109,192,208153,1,0,0:0:0:0:
329,192,208198,1,0,0:0:0:0:
402,192,208198,1,0,0:0:0:0:
182,192,208266,1,0,0:0:0:0:
256,192,208266,1,0,0:0:0:0:
329,192,208334,1,0,0:0:0:0:
36,192,208334,1,0,0:0:0:0:
109,192,208334,1,0,0:0:0:0:
402,192,208403,1,0,0:0:0:0:
475,192,208403,1,0,0:0:0:0:
256,192,208471,1,0,0:0:0:0:
329,192,208471,1,0,0:0:0:0:
182,192,208471,1,0,0:0:0:0:
36,192,208539,1,0,0:0:0:0:
475,192,208607,1,0,0:0:0:0:
402,192,208607,1,0,0:0:0:0:
182,192,208607,1,0,0:0:0:0:
109,192,208675,1,0,0:0:0:0:
36,192,208675,1,0,0:0:0:0:
256,192,208744,1,0,0:0:0:0:
329,192,208744,1,0,0:0:0:0:
182,192,208744,1,0,0:0:0:0:
109,192,208812,1,0,0:0:0:0:
475,192,208812,1,0,0:0:0:0:
402,192,208880,1,0,0:0:0:0:
182,192,208880,1,0,0:0:0:0:
36,192,208880,1,0,0:0:0:0:
329,192,208880,1,0,0:0:0:0:
256,192,208948,1,0,0:0:0:0:
109,192,208948,1,0,0:0:0:0:
475,192,209016,1,0,0:0:0:0:
402,192,209016,1,0,0:0:0:0:
182,192,209016,1,0,0:0:0:0:
329,192,209084,1,0,0:0:0:0:
109,192,209153,1,0,0:0:0:0:
256,192,209153,1,0,0:0:0:0:
36,192,209153,1,0,0:0:0:0:
402,192,209153,1,0,0:0:0:0:
475,192,209153,1,0,0:0:0:0:
182,192,209221,1,0,0:0:0:0:
329,192,209244,1,0,0:0:0:0:
256,192,209289,1,0,0:0:0:0:
109,192,209289,1,0,0:0:0:0:
402,192,209334,1,0,0:0:0:0:
182,192,209357,1,0,0:0:0:0:
329,192,209391,1,0,0:0:0:0:
109,192,209425,1,0,0:0:0:0:
256,192,209425,1,0,0:0:0:0:
36,192,209425,1,0,0:0:0:0:
475,192,209425,1,0,0:0:0:0:
402,192,209494,1,0,0:0:0:0:
109,192,209562,1,0,0:0:0:0:
36,192,209562,1,0,0:0:0:0:
475,192,209562,1,0,0:0:0:0:
256,192,209562,1,0,0:0:0:0:
182,192,209607,1,0,0:0:0:0:
329,192,209607,1,0,0:0:0:0:
402,192,209971,1,0,0:0:0:0:
475,192,209971,1,0,0:0:0:0:
182,192,209971,1,0,0:0:0:0:
109,192,209971,1,0,0:0:0:0:
36,192,210039,1,0,0:0:0:0:
329,192,210039,1,0,0:0:0:0:
256,192,210039,1,0,0:0:0:0:
402,192,210107,1,0,0:0:0:0:
475,192,210107,1,0,0:0:0:0:
109,192,210107,1,0,0:0:0:0:
182,192,210107,1,0,0:0:0:0:
402,192,210516,1,0,0:0:0:0:
475,192,210516,1,0,0:0:0:0:
329,192,210516,1,0,0:0:0:0:
182,192,210516,1,0,0:0:0:0:
256,192,210516,1,0,0:0:0:0:
256,192,210653,1,0,0:0:0:0:
329,192,210653,1,0,0:0:0:0:
182,192,210653,1,0,0:0:0:0:
36,192,210653,1,0,0:0:0:0:
109,192,210653,1,0,0:0:0:0:
329,192,210789,1,0,0:0:0:0:
402,192,210789,1,0,0:0:0:0:
256,192,210789,1,0,0:0:0:0:
109,192,210789,1,0,0:0:0:0:
182,192,210789,1,0,0:0:0:0:
402,192,210925,1,0,0:0:0:0:
475,192,210925,1,0,0:0:0:0:
329,192,210925,1,0,0:0:0:0:
182,192,210925,1,0,0:0:0:0:
256,192,210925,1,0,0:0:0:0:
402,192,211062,1,0,0:0:0:0:
475,192,211062,1,0,0:0:0:0:
256,192,211062,1,0,0:0:0:0:
36,192,211062,1,0,0:0:0:0:
109,192,211062,1,0,0:0:0:0:
475,192,211198,1,0,0:0:0:0:
402,192,211198,1,0,0:0:0:0:
329,192,211198,1,0,0:0:0:0:
182,192,211198,1,0,0:0:0:0:
256,192,211198,1,0,0:0:0:0:
329,192,211334,1,0,0:0:0:0:
256,192,211334,1,0,0:0:0:0:
182,192,211334,1,0,0:0:0:0:
36,192,211334,1,0,0:0:0:0:
109,192,211334,1,0,0:0:0:0:
329,192,211471,1,0,0:0:0:0:
402,192,211471,1,0,0:0:0:0:
475,192,211471,1,0,0:0:0:0:
109,192,211471,1,0,0:0:0:0:
182,192,211471,1,0,0:0:0:0:
256,192,211471,1,0,0:0:0:0:
329,192,211744,1,0,0:0:0:0:
182,192,211744,1,0,0:0:0:0:
256,192,211744,1,0,0:0:0:0:
36,192,211744,1,0,0:0:0:0:
109,192,211744,1,0,0:0:0:0:
329,192,211880,1,0,0:0:0:0:
402,192,211880,1,0,0:0:0:0:
256,192,211880,1,0,0:0:0:0:
109,192,211880,1,0,0:0:0:0:
182,192,211880,1,0,0:0:0:0:
402,192,212016,1,0,0:0:0:0:
475,192,212016,1,0,0:0:0:0:
329,192,212016,1,0,0:0:0:0:
182,192,212016,1,0,0:0:0:0:
256,192,212016,1,0,0:0:0:0:
329,192,212153,1,0,0:0:0:0:
402,192,212153,1,0,0:0:0:0:
256,192,212153,1,0,0:0:0:0:
109,192,212153,1,0,0:0:0:0:
182,192,212153,1,0,0:0:0:0:
109,192,212289,1,0,0:0:0:0:
256,192,212289,1,0,0:0:0:0:
475,192,212289,1,0,0:0:0:0:
329,192,212289,1,0,0:0:0:0:
182,192,212289,1,0,0:0:0:0:
36,192,212289,1,0,0:0:0:0:
329,192,212562,1,0,0:0:0:0:
402,192,212562,1,0,0:0:0:0:
256,192,212562,1,0,0:0:0:0:
36,192,212562,1,0,0:0:0:0:
109,192,212562,1,0,0:0:0:0:
402,192,212698,1,0,0:0:0:0:
475,192,212698,1,0,0:0:0:0:
329,192,212698,1,0,0:0:0:0:
109,192,212698,1,0,0:0:0:0:
182,192,212698,1,0,0:0:0:0:
475,192,212834,1,0,0:0:0:0:
36,192,212834,1,0,0:0:0:0:
402,192,212834,1,0,0:0:0:0:
182,192,212834,1,0,0:0:0:0:
256,192,212834,1,0,0:0:0:0:
402,192,212971,1,0,0:0:0:0:
475,192,212971,1,0,0:0:0:0:
329,192,212971,1,0,0:0:0:0:
109,192,212971,1,0,0:0:0:0:
182,192,212971,1,0,0:0:0:0:
329,192,213107,1,0,0:0:0:0:
402,192,213107,1,0,0:0:0:0:
475,192,213107,1,0,0:0:0:0:
36,192,213107,1,0,0:0:0:0:
109,192,213107,1,0,0:0:0:0:
256,192,213107,1,0,0:0:0:0:
475,192,213380,1,0,0:0:0:0:
109,192,213380,1,0,0:0:0:0:
329,192,213380,1,0,0:0:0:0:
36,192,213380,1,0,0:0:0:0:
182,192,213380,1,0,0:0:0:0:
402,192,213516,1,0,0:0:0:0:
36,192,213516,1,0,0:0:0:0:
256,192,213516,1,0,0:0:0:0:
109,192,213516,1,0,0:0:0:0:
182,192,213516,1,0,0:0:0:0:
329,192,213653,1,0,0:0:0:0:
475,192,213653,1,0,0:0:0:0:
256,192,213653,1,0,0:0:0:0:
109,192,213653,1,0,0:0:0:0:
182,192,213653,1,0,0:0:0:0:
182,192,213789,1,0,0:0:0:0:
402,192,213789,1,0,0:0:0:0:
256,192,213789,1,0,0:0:0:0:
36,192,213789,1,0,0:0:0:0:
109,192,213789,1,0,0:0:0:0:
329,192,213925,1,0,0:0:0:0:
475,192,213925,1,0,0:0:0:0:
402,192,213925,1,0,0:0:0:0:
36,192,213925,1,0,0:0:0:0:
109,192,213925,1,0,0:0:0:0:
182,192,213925,1,0,0:0:0:0:
329,192,214198,1,0,0:0:0:0:
475,192,214198,1,0,0:0:0:0:
36,192,214198,1,0,0:0:0:0:
182,192,214198,1,0,0:0:0:0:
256,192,214266,1,0,0:0:0:0:
402,192,214266,1,0,0:0:0:0:
109,192,214266,1,0,0:0:0:0:
182,192,214334,1,0,0:0:0:0:
36,192,214334,1,0,0:0:0:0:
329,192,214334,1,0,0:0:0:0:
475,192,214334,1,0,0:0:0:0:
475,192,214471,1,0,0:0:0:0:
182,192,214471,1,0,0:0:0:0:
329,192,214471,1,0,0:0:0:0:
109,192,214471,1,0,0:0:0:0:
36,192,214471,1,0,0:0:0:0:
402,192,214471,1,0,0:0:0:0:
329,192,214744,1,0,0:0:0:0:
402,192,214744,1,0,0:0:0:0:
182,192,214744,1,0,0:0:0:0:
109,192,214744,1,0,0:0:0:0:
475,192,214812,1,0,0:0:0:0:
256,192,214812,1,0,0:0:0:0:
36,192,214812,1,0,0:0:0:0:
329,192,214880,1,0,0:0:0:0:
402,192,214880,1,0,0:0:0:0:
109,192,214880,1,0,0:0:0:0:
182,192,214880,1,0,0:0:0:0:
402,192,215016,1,0,0:0:0:0:
475,192,215016,1,0,0:0:0:0:
256,192,215016,1,0,0:0:0:0:
36,192,215016,1,0,0:0:0:0:
109,192,215016,1,0,0:0:0:0:
329,192,215153,1,0,0:0:0:0:
402,192,215153,1,0,0:0:0:0:
475,192,215153,1,0,0:0:0:0:
182,192,215153,1,0,0:0:0:0:
109,192,215153,1,0,0:0:0:0:
36,192,215153,1,0,0:0:0:0:
475,192,229296,5,0,0:0:0:0:
329,192,229296,1,0,0:0:0:0:
36,192,229296,1,0,0:0:0:0:
402,192,230096,1,0,0:0:0:0:
182,192,230496,1,0,0:0:0:0:
329,192,230896,1,0,0:0:0:0:
256,192,231696,1,0,0:0:0:0:
109,192,232096,1,0,0:0:0:0:
182,192,232496,1,0,0:0:0:0:
256,192,233296,1,0,0:0:0:0:
329,192,233696,1,0,0:0:0:0:
329,192,234096,1,0,0:0:0:0:
182,192,234696,1,0,0:0:0:0:
109,192,234796,1,0,0:0:0:0:
182,192,234896,1,0,0:0:0:0:
36,192,235696,1,0,0:0:0:0:
182,192,236496,1,0,0:0:0:0:
256,192,236896,1,0,0:0:0:0:
329,192,237296,1,0,0:0:0:0:
256,192,238096,1,0,0:0:0:0:
182,192,238496,1,0,0:0:0:0:
109,192,238896,1,0,0:0:0:0:
109,192,239696,1,0,0:0:0:0:
329,192,240096,1,0,0:0:0:0:
256,192,240496,1,0,0:0:0:0:
402,192,241296,1,0,0:0:0:0:
182,192,241896,1,0,0:0:0:0:
329,192,241946,1,0,0:0:0:0:
182,192,241996,1,0,0:0:0:0:
329,192,242046,1,0,0:0:0:0:
402,192,242096,1,0,0:0:0:0:
475,192,242096,1,0,0:0:0:0:
109,192,242096,1,0,0:0:0:0:
36,192,242096,1,0,0:0:0:0:
182,192,242196,1,0,0:0:0:0:
402,192,242296,1,0,0:0:0:0:
329,192,242296,1,0,0:0:0:0:
182,192,242396,1,0,0:0:0:0:
36,192,242496,1,0,0:0:0:0:
109,192,242596,1,0,0:0:0:0:
402,192,242696,1,0,0:0:0:0:
256,192,242696,1,0,0:0:0:0:
182,192,242796,1,0,0:0:0:0:
475,192,242896,1,0,0:0:0:0:
329,192,242896,1,0,0:0:0:0:
109,192,242896,1,0,0:0:0:0:
256,192,242996,1,0,0:0:0:0:
475,192,243096,1,0,0:0:0:0:
402,192,243096,1,0,0:0:0:0:
182,192,243096,1,0,0:0:0:0:
256,192,243196,1,0,0:0:0:0:
109,192,243296,1,0,0:0:0:0:
329,192,243296,1,0,0:0:0:0:
329,192,243396,1,0,0:0:0:0:
182,192,243396,1,0,0:0:0:0:
475,192,243496,1,0,0:0:0:0:
256,192,243496,1,0,0:0:0:0:
109,192,243496,1,0,0:0:0:0:
329,192,243596,1,0,0:0:0:0:
182,192,243596,1,0,0:0:0:0:
402,192,243696,1,0,0:0:0:0:
256,192,243796,1,0,0:0:0:0:
109,192,243796,1,0,0:0:0:0:
475,192,243896,1,0,0:0:0:0:
329,192,243896,1,0,0:0:0:0:
36,192,243996,1,0,0:0:0:0:
182,192,243996,1,0,0:0:0:0:
256,192,244096,1,0,0:0:0:0:
109,192,244196,1,0,0:0:0:0:
402,192,244296,1,0,0:0:0:0:
329,192,244296,1,0,0:0:0:0:
182,192,244396,1,0,0:0:0:0:
475,192,244496,1,0,0:0:0:0:
256,192,244496,1,0,0:0:0:0:
36,192,244596,1,0,0:0:0:0:
329,192,244696,1,0,0:0:0:0:
402,192,244696,1,0,0:0:0:0:
182,192,244696,1,0,0:0:0:0:
109,192,244796,1,0,0:0:0:0:
475,192,244896,1,0,0:0:0:0:
256,192,244896,1,0,0:0:0:0:
36,192,244996,1,0,0:0:0:0:
256,192,244996,1,0,0:0:0:0:
329,192,245096,1,0,0:0:0:0:
109,192,245096,1,0,0:0:0:0:
256,192,245196,1,0,0:0:0:0:
36,192,245196,1,0,0:0:0:0:
402,192,245296,1,0,0:0:0:0:
329,192,245396,1,0,0:0:0:0:
182,192,245396,1,0,0:0:0:0:
256,192,245496,1,0,0:0:0:0:
109,192,245496,1,0,0:0:0:0:
36,192,245596,1,0,0:0:0:0:
182,192,245596,1,0,0:0:0:0:
402,192,245696,1,0,0:0:0:0:
256,192,245796,1,0,0:0:0:0:
109,192,245796,1,0,0:0:0:0:
182,192,245896,1,0,0:0:0:0:
329,192,245896,1,0,0:0:0:0:
402,192,245996,1,0,0:0:0:0:
256,192,245996,1,0,0:0:0:0:
475,192,246096,1,0,0:0:0:0:
329,192,246096,1,0,0:0:0:0:
109,192,246196,1,0,0:0:0:0:
402,192,246296,1,0,0:0:0:0:
256,192,246296,1,0,0:0:0:0:
109,192,246396,1,0,0:0:0:0:
329,192,246496,1,0,0:0:0:0:
182,192,246496,1,0,0:0:0:0:
109,192,246596,1,0,0:0:0:0:
329,192,246696,1,0,0:0:0:0:
182,192,246696,1,0,0:0:0:0:
402,192,246796,1,0,0:0:0:0:
256,192,246796,1,0,0:0:0:0:
475,192,246896,1,0,0:0:0:0:
329,192,246896,1,0,0:0:0:0:
36,192,246896,1,0,0:0:0:0:
109,192,246996,1,0,0:0:0:0:
402,192,246996,1,0,0:0:0:0:
329,192,247096,1,0,0:0:0:0:
182,192,247096,1,0,0:0:0:0:
475,192,247196,1,0,0:0:0:0:
402,192,247196,1,0,0:0:0:0:
109,192,247296,1,0,0:0:0:0:
182,192,247396,1,0,0:0:0:0:
329,192,247396,1,0,0:0:0:0:
402,192,247496,1,0,0:0:0:0:
256,192,247496,1,0,0:0:0:0:
475,192,247596,1,0,0:0:0:0:
329,192,247596,1,0,0:0:0:0:
402,192,247696,1,0,0:0:0:0:
182,192,247696,1,0,0:0:0:0:
256,192,247796,1,0,0:0:0:0:
329,192,247896,1,0,0:0:0:0:
109,192,247896,1,0,0:0:0:0:
256,192,247996,1,0,0:0:0:0:
402,192,248096,1,0,0:0:0:0:
182,192,248096,1,0,0:0:0:0:
256,192,248196,1,0,0:0:0:0:
329,192,248296,1,0,0:0:0:0:
109,192,248296,1,0,0:0:0:0:
402,192,248396,1,0,0:0:0:0:
182,192,248396,1,0,0:0:0:0:
256,192,248496,1,0,0:0:0:0:
475,192,248496,1,0,0:0:0:0:
36,192,248496,1,0,0:0:0:0:
109,192,248496,1,0,0:0:0:0:
329,192,248546,1,0,0:0:0:0:
182,192,248596,1,0,0:0:0:0:
402,192,248646,1,0,0:0:0:0:
109,192,248696,1,0,0:0:0:0:
256,192,248746,1,0,0:0:0:0:
475,192,248796,1,0,0:0:0:0:
329,192,248846,1,0,0:0:0:0:
36,192,248896,1,0,0:0:0:0:
182,192,248946,1,0,0:0:0:0:
402,192,248996,1,0,0:0:0:0:
256,192,249046,1,0,0:0:0:0:
109,192,249096,1,0,0:0:0:0:
329,192,249146,1,0,0:0:0:0:
182,192,249196,1,0,0:0:0:0:
475,192,249246,1,0,0:0:0:0:
36,192,249296,1,0,0:0:0:0:
256,192,249296,1,0,0:0:0:0:
402,192,249346,1,0,0:0:0:0:
109,192,249396,1,0,0:0:0:0:
329,192,249446,1,0,0:0:0:0:
182,192,249496,1,0,0:0:0:0:
475,192,249546,1,0,0:0:0:0:
36,192,249596,1,0,0:0:0:0:
256,192,249646,1,0,0:0:0:0:
402,192,249696,1,0,0:0:0:0:
109,192,249746,1,0,0:0:0:0:
329,192,249796,1,0,0:0:0:0:
475,192,249846,1,0,0:0:0:0:
182,192,249896,1,0,0:0:0:0:
36,192,249946,1,0,0:0:0:0:
402,192,249996,1,0,0:0:0:0:
256,192,250046,1,0,0:0:0:0:
475,192,250096,1,0,0:0:0:0:
109,192,250096,1,0,0:0:0:0:
329,192,250146,1,0,0:0:0:0:
182,192,250196,1,0,0:0:0:0:
402,192,250246,1,0,0:0:0:0:
36,192,250296,1,0,0:0:0:0:
256,192,250346,1,0,0:0:0:0:
109,192,250396,1,0,0:0:0:0:
329,192,250446,1,0,0:0:0:0:
475,192,250496,1,0,0:0:0:0:
182,192,250546,1,0,0:0:0:0:
36,192,250596,1,0,0:0:0:0:
256,192,250646,1,0,0:0:0:0:
402,192,250696,1,0,0:0:0:0:
109,192,250746,1,0,0:0:0:0:
329,192,250796,1,0,0:0:0:0:
182,192,250846,1,0,0:0:0:0:
475,192,250896,1,0,0:0:0:0:
36,192,250896,1,0,0:0:0:0:
256,192,250946,1,0,0:0:0:0:
402,192,250996,1,0,0:0:0:0:
109,192,251046,1,0,0:0:0:0:
182,192,251096,1,0,0:0:0:0:
329,192,251146,1,0,0:0:0:0:
475,192,251196,1,0,0:0:0:0:
256,192,251246,1,0,0:0:0:0:
36,192,251296,1,0,0:0:0:0:
182,192,251346,1,0,0:0:0:0:
402,192,251396,1,0,0:0:0:0:
329,192,251446,1,0,0:0:0:0:
109,192,251496,1,0,0:0:0:0:
36,192,251546,1,0,0:0:0:0:
256,192,251596,1,0,0:0:0:0:
475,192,251646,1,0,0:0:0:0:
109,192,251696,1,0,0:0:0:0:
182,192,251696,1,0,0:0:0:0:
329,192,251746,1,0,0:0:0:0:
402,192,251796,1,0,0:0:0:0:
256,192,251846,1,0,0:0:0:0:
36,192,251896,1,0,0:0:0:0:
182,192,251946,1,0,0:0:0:0:
329,192,251996,1,0,0:0:0:0:
475,192,252046,1,0,0:0:0:0:
109,192,252096,1,0,0:0:0:0:
36,192,252146,1,0,0:0:0:0:
256,192,252196,1,0,0:0:0:0:
402,192,252246,1,0,0:0:0:0:
182,192,252296,1,0,0:0:0:0:
329,192,252346,1,0,0:0:0:0:
109,192,252396,1,0,0:0:0:0:
256,192,252446,1,0,0:0:0:0:
475,192,252496,1,0,0:0:0:0:
402,192,252496,1,0,0:0:0:0:
182,192,252546,1,0,0:0:0:0:
36,192,252596,1,0,0:0:0:0:
329,192,252646,1,0,0:0:0:0:
109,192,252696,1,0,0:0:0:0:
475,192,252746,1,0,0:0:0:0:
256,192,252796,1,0,0:0:0:0:
402,192,252846,1,0,0:0:0:0:
182,192,252896,1,0,0:0:0:0:
36,192,252946,1,0,0:0:0:0:
329,192,252996,1,0,0:0:0:0:
109,192,253046,1,0,0:0:0:0:
475,192,253096,1,0,0:0:0:0:
256,192,253146,1,0,0:0:0:0:
402,192,253196,1,0,0:0:0:0:
182,192,253246,1,0,0:0:0:0:
329,192,253296,1,0,0:0:0:0:
36,192,253296,1,0,0:0:0:0:
475,192,253346,1,0,0:0:0:0:
109,192,253396,1,0,0:0:0:0:
256,192,253446,1,0,0:0:0:0:
402,192,253496,1,0,0:0:0:0:
182,192,253546,1,0,0:0:0:0:
36,192,253596,1,0,0:0:0:0:
329,192,253646,1,0,0:0:0:0:
109,192,253696,1,0,0:0:0:0:
475,192,253746,1,0,0:0:0:0:
182,192,253796,1,0,0:0:0:0:
256,192,253846,1,0,0:0:0:0:
402,192,253896,1,0,0:0:0:0:
36,192,253946,1,0,0:0:0:0:
329,192,253996,1,0,0:0:0:0:
109,192,254046,1,0,0:0:0:0:
475,192,254096,1,0,0:0:0:0:
256,192,254096,1,0,0:0:0:0:
182,192,254146,1,0,0:0:0:0:
36,192,254196,1,0,0:0:0:0:
402,192,254246,1,0,0:0:0:0:
109,192,254296,1,0,0:0:0:0:
329,192,254346,1,0,0:0:0:0:
475,192,254396,1,0,0:0:0:0:
182,192,254446,1,0,0:0:0:0:
402,192,254496,1,0,0:0:0:0:
256,192,254546,1,0,0:0:0:0:
36,192,254596,1,0,0:0:0:0:
109,192,254646,1,0,0:0:0:0:
329,192,254696,1,0,0:0:0:0:
182,192,254746,1,0,0:0:0:0:
36,192,254796,1,0,0:0:0:0:
256,192,254846,1,0,0:0:0:0:
475,192,254896,1,0,0:0:0:0:
402,192,254896,1,0,0:0:0:0:
109,192,254896,1,0,0:0:0:0:
182,192,254946,1,0,0:0:0:0:
329,192,254996,1,0,0:0:0:0:
36,192,255046,1,0,0:0:0:0:
475,192,255096,1,0,0:0:0:0:
256,192,255096,1,0,0:0:0:0:
109,192,255096,1,0,0:0:0:0:
402,192,255146,1,0,0:0:0:0:
182,192,255196,1,0,0:0:0:0:
329,192,255246,1,0,0:0:0:0:
256,192,255296,1,0,0:0:0:0:
109,192,255296,1,0,0:0:0:0:
36,192,255296,1,0,0:0:0:0:
475,192,255346,1,0,0:0:0:0:
182,192,255396,1,0,0:0:0:0:
329,192,255446,1,0,0:0:0:0:
256,192,255496,1,0,0:0:0:0:
36,192,255496,1,0,0:0:0:0:
402,192,255496,1,0,0:0:0:0:
109,192,255546,1,0,0:0:0:0:
329,192,255596,1,0,0:0:0:0:
475,192,255646,1,0,0:0:0:0:
36,192,255696,1,0,0:0:0:0:
402,192,255696,1,0,0:0:0:0:
182,192,255696,1,0,0:0:0:0:
256,192,255746,1,0,0:0:0:0:
329,192,255796,1,0,0:0:0:0:
475,192,255846,1,0,0:0:0:0:
402,192,255896,1,0,0:0:0:0:
182,192,255896,1,0,0:0:0:0:
109,192,255896,1,0,0:0:0:0:
256,192,255946,1,0,0:0:0:0:
36,192,255996,1,0,0:0:0:0:
109,192,256046,1,0,0:0:0:0:
402,192,256096,1,0,0:0:0:0:
182,192,256096,1,0,0:0:0:0:
475,192,256096,1,0,0:0:0:0:
329,192,256146,1,0,0:0:0:0:
256,192,256196,1,0,0:0:0:0:
109,192,256246,1,0,0:0:0:0:
402,192,256296,1,0,0:0:0:0:
182,192,256296,1,0,0:0:0:0:
36,192,256296,1,0,0:0:0:0:
329,192,256346,1,0,0:0:0:0:
109,192,256396,1,0,0:0:0:0:
256,192,256446,1,0,0:0:0:0:
182,192,256496,1,0,0:0:0:0:
402,192,256496,1,0,0:0:0:0:
475,192,256496,1,0,0:0:0:0:
36,192,256546,1,0,0:0:0:0:
329,192,256596,1,0,0:0:0:0:
109,192,256646,1,0,0:0:0:0:
36,192,256696,1,0,0:0:0:0:
475,192,256696,1,0,0:0:0:0:
256,192,256696,1,0,0:0:0:0:
402,192,256746,1,0,0:0:0:0:
182,192,256796,1,0,0:0:0:0:
329,192,256846,1,0,0:0:0:0:
475,192,256896,1,0,0:0:0:0:
256,192,256896,1,0,0:0:0:0:
109,192,256896,1,0,0:0:0:0:
36,192,256946,1,0,0:0:0:0:
402,192,256996,1,0,0:0:0:0:
329,192,257046,1,0,0:0:0:0:
475,192,257096,1,0,0:0:0:0:
109,192,257096,1,0,0:0:0:0:
182,192,257096,1,0,0:0:0:0:
256,192,257146,1,0,0:0:0:0:
402,192,257196,1,0,0:0:0:0:
36,192,257246,1,0,0:0:0:0:
475,192,257296,1,0,0:0:0:0:
329,192,257296,1,0,0:0:0:0:
109,192,257296,1,0,0:0:0:0:
256,192,257346,1,0,0:0:0:0:
182,192,257396,1,0,0:0:0:0:
36,192,257446,1,0,0:0:0:0:
402,192,257496,1,0,0:0:0:0:
329,192,257496,1,0,0:0:0:0:
109,192,257496,1,0,0:0:0:0:
256,192,257546,1,0,0:0:0:0:
475,192,257596,1,0,0:0:0:0:
182,192,257646,1,0,0:0:0:0:
402,192,257696,1,0,0:0:0:0:
329,192,257696,1,0,0:0:0:0:
36,192,257696,1,0,0:0:0:0:
109,192,257746,1,0,0:0:0:0:
256,192,257796,1,0,0:0:0:0:
475,192,257846,1,0,0:0:0:0:
402,192,257896,1,0,0:0:0:0:
36,192,257896,1,0,0:0:0:0:
182,192,257896,1,0,0:0:0:0:
329,192,257946,1,0,0:0:0:0:
109,192,257996,1,0,0:0:0:0:
256,192,258046,1,0,0:0:0:0:
36,192,258096,1,0,0:0:0:0:
402,192,258096,1,0,0:0:0:0:
475,192,258096,1,0,0:0:0:0:
329,192,258146,1,0,0:0:0:0:
182,192,258196,1,0,0:0:0:0:
109,192,258246,1,0,0:0:0:0:
475,192,258296,1,0,0:0:0:0:
402,192,258296,1,0,0:0:0:0:
256,192,258296,1,0,0:0:0:0:
36,192,258346,1,0,0:0:0:0:
182,192,258396,1,0,0:0:0:0:
329,192,258446,1,0,0:0:0:0:
256,192,258496,1,0,0:0:0:0:
109,192,258496,1,0,0:0:0:0:
36,192,258496,1,0,0:0:0:0:
402,192,258546,1,0,0:0:0:0:
475,192,258596,1,0,0:0:0:0:
182,192,258646,1,0,0:0:0:0:
256,192,258696,1,0,0:0:0:0:
36,192,258696,1,0,0:0:0:0:
329,192,258696,1,0,0:0:0:0:
402,192,258746,1,0,0:0:0:0:
109,192,258796,1,0,0:0:0:0:
256,192,258846,1,0,0:0:0:0:
182,192,258896,1,0,0:0:0:0:
475,192,258896,1,0,0:0:0:0:
329,192,258896,1,0,0:0:0:0:
36,192,258946,1,0,0:0:0:0:
256,192,258996,1,0,0:0:0:0:
109,192,259046,1,0,0:0:0:0:
182,192,259096,1,0,0:0:0:0:
402,192,259096,1,0,0:0:0:0:
329,192,259096,1,0,0:0:0:0:
36,192,259146,1,0,0:0:0:0:
256,192,259196,1,0,0:0:0:0:
109,192,259246,1,0,0:0:0:0:
182,192,259296,1,0,0:0:0:0:
475,192,259296,1,0,0:0:0:0:
402,192,259296,1,0,0:0:0:0:
329,192,259346,1,0,0:0:0:0:
256,192,259396,1,0,0:0:0:0:
109,192,259446,1,0,0:0:0:0:
402,192,259496,1,0,0:0:0:0:
182,192,259496,1,0,0:0:0:0:
36,192,259496,1,0,0:0:0:0:
475,192,259546,1,0,0:0:0:0:
329,192,259596,1,0,0:0:0:0:
182,192,259646,1,0,0:0:0:0:
402,192,259696,1,0,0:0:0:0:
256,192,259696,1,0,0:0:0:0:
109,192,259696,1,0,0:0:0:0:
475,192,259746,1,0,0:0:0:0:
329,192,259796,1,0,0:0:0:0:
182,192,259846,1,0,0:0:0:0:
402,192,259896,1,0,0:0:0:0:
109,192,259896,1,0,0:0:0:0:
36,192,259896,1,0,0:0:0:0:
256,192,259946,1,0,0:0:0:0:
329,192,259996,1,0,0:0:0:0:
182,192,260046,1,0,0:0:0:0:
475,192,260096,1,0,0:0:0:0:
402,192,260096,1,0,0:0:0:0:
109,192,260096,1,0,0:0:0:0:
256,192,260146,1,0,0:0:0:0:
36,192,260196,1,0,0:0:0:0:
182,192,260246,1,0,0:0:0:0:
475,192,260296,1,0,0:0:0:0:
402,192,260296,1,0,0:0:0:0:
329,192,260296,1,0,0:0:0:0:
109,192,260346,1,0,0:0:0:0:
256,192,260396,1,0,0:0:0:0:
402,192,260446,1,0,0:0:0:0:
36,192,260496,1,0,0:0:0:0:
109,192,260496,1,0,0:0:0:0:
182,192,260496,1,0,0:0:0:0:
329,192,260546,1,0,0:0:0:0:
256,192,260596,1,0,0:0:0:0:
109,192,260646,1,0,0:0:0:0:
182,192,260696,1,0,0:0:0:0:
475,192,260696,1,0,0:0:0:0:
402,192,260696,1,0,0:0:0:0:
36,192,260746,1,0,0:0:0:0:
256,192,260796,1,0,0:0:0:0:
329,192,260846,1,0,0:0:0:0:
475,192,260896,1,0,0:0:0:0:
109,192,260896,1,0,0:0:0:0:
182,192,260946,1,0,0:0:0:0:
402,192,260946,1,0,0:0:0:0:
36,192,260996,1,0,0:0:0:0:
256,192,260996,1,0,0:0:0:0:
329,192,261046,1,0,0:0:0:0:
402,192,261096,1,0,0:0:0:0:
109,192,261096,1,0,0:0:0:0:
475,192,261146,1,0,0:0:0:0:
182,192,261146,1,0,0:0:0:0:
36,192,261196,1,0,0:0:0:0:
256,192,261196,1,0,0:0:0:0:
329,192,261246,1,0,0:0:0:0:
475,192,261296,1,0,0:0:0:0:
109,192,261296,1,0,0:0:0:0:
402,192,261296,1,0,0:0:0:0:
182,192,261346,1,0,0:0:0:0:
256,192,261396,1,0,0:0:0:0:
36,192,261446,1,0,0:0:0:0:
402,192,261496,1,0,0:0:0:0:
475,192,261496,1,0,0:0:0:0:
109,192,261496,1,0,0:0:0:0:
329,192,261546,1,0,0:0:0:0:
182,192,261596,1,0,0:0:0:0:
36,192,261646,1,0,0:0:0:0:
475,192,261696,1,0,0:0:0:0:
256,192,261696,1,0,0:0:0:0:
109,192,261696,1,0,0:0:0:0:
402,192,261746,1,0,0:0:0:0:
182,192,261796,1,0,0:0:0:0:
329,192,261846,1,0,0:0:0:0:
256,192,261896,1,0,0:0:0:0:
109,192,261896,1,0,0:0:0:0:
36,192,261896,1,0,0:0:0:0:
475,192,261946,1,0,0:0:0:0:
402,192,261996,1,0,0:0:0:0:
329,192,262046,1,0,0:0:0:0:
36,192,262096,1,0,0:0:0:0:
109,192,262096,1,0,0:0:0:0:
182,192,262096,1,0,0:0:0:0:
256,192,262146,1,0,0:0:0:0:
402,192,262196,1,0,0:0:0:0:
475,192,262246,1,0,0:0:0:0:
109,192,262296,1,0,0:0:0:0:
329,192,262296,1,0,0:0:0:0:
182,192,262296,1,0,0:0:0:0:
256,192,262346,1,0,0:0:0:0:
402,192,262396,1,0,0:0:0:0:
36,192,262446,1,0,0:0:0:0:
329,192,262496,1,0,0:0:0:0:
475,192,262496,1,0,0:0:0:0:
182,192,262496,1,0,0:0:0:0:
109,192,262546,1,0,0:0:0:0:
256,192,262596,1,0,0:0:0:0:
182,192,262646,1,0,0:0:0:0:
329,192,262696,1,0,0:0:0:0:
475,192,262696,1,0,0:0:0:0:
402,192,262696,1,0,0:0:0:0:
109,192,262746,1,0,0:0:0:0:
256,192,262796,1,0,0:0:0:0:
402,192,262846,1,0,0:0:0:0:
329,192,262896,1,0,0:0:0:0:
36,192,262896,1,0,0:0:0:0:
182,192,262896,1,0,0:0:0:0:
475,192,262946,1,0,0:0:0:0:
402,192,262996,1,0,0:0:0:0:
256,192,263046,1,0,0:0:0:0:
329,192,263096,1,0,0:0:0:0:
36,192,263096,1,0,0:0:0:0:
109,192,263096,1,0,0:0:0:0:
475,192,263146,1,0,0:0:0:0:
182,192,263196,1,0,0:0:0:0:
402,192,263246,1,0,0:0:0:0:
36,192,263296,1,0,0:0:0:0:
256,192,263296,1,0,0:0:0:0:
329,192,263296,1,0,0:0:0:0:
109,192,263346,1,0,0:0:0:0:
182,192,263396,1,0,0:0:0:0:
402,192,263446,1,0,0:0:0:0:
36,192,263496,1,0,0:0:0:0:
329,192,263496,1,0,0:0:0:0:
475,192,263496,1,0,0:0:0:0:
256,192,263546,1,0,0:0:0:0:
109,192,263596,1,0,0:0:0:0:
182,192,263646,1,0,0:0:0:0:
475,192,263696,1,0,0:0:0:0:
402,192,263696,1,0,0:0:0:0:
329,192,263696,1,0,0:0:0:0:
36,192,263746,1,0,0:0:0:0:
109,192,263796,1,0,0:0:0:0:
256,192,263846,1,0,0:0:0:0:
182,192,263896,1,0,0:0:0:0:
475,192,263896,1,0,0:0:0:0:
402,192,263896,1,0,0:0:0:0:
109,192,263946,1,0,0:0:0:0:
329,192,263996,1,0,0:0:0:0:
256,192,264046,1,0,0:0:0:0:
475,192,264096,1,0,0:0:0:0:
36,192,264096,1,0,0:0:0:0:
182,192,264096,1,0,0:0:0:0:
402,192,264146,1,0,0:0:0:0:
329,192,264196,1,0,0:0:0:0:
109,192,264246,1,0,0:0:0:0:
475,192,264296,1,0,0:0:0:0:
256,192,264296,1,0,0:0:0:0:
36,192,264296,1,0,0:0:0:0:
329,192,264346,1,0,0:0:0:0:
402,192,264396,1,0,0:0:0:0:
182,192,264446,1,0,0:0:0:0:
475,192,264496,1,0,0:0:0:0:
36,192,264496,1,0,0:0:0:0:
256,192,264496,1,0,0:0:0:0:
329,192,264546,1,0,0:0:0:0:
109,192,264596,1,0,0:0:0:0:
182,192,264646,1,0,0:0:0:0:
475,192,264696,1,0,0:0:0:0:
402,192,264696,1,0,0:0:0:0:
256,192,264696,1,0,0:0:0:0:
36,192,264746,1,0,0:0:0:0:
109,192,264796,1,0,0:0:0:0:
256,192,264846,1,0,0:0:0:0:
182,192,264896,1,0,0:0:0:0:
402,192,264896,1,0,0:0:0:0:
329,192,264896,1,0,0:0:0:0:
36,192,264946,1,0,0:0:0:0:
256,192,264996,1,0,0:0:0:0:
109,192,265046,1,0,0:0:0:0:
182,192,265096,1,0,0:0:0:0:
475,192,265096,1,0,0:0:0:0:
402,192,265096,1,0,0:0:0:0:
36,192,265146,1,0,0:0:0:0:
329,192,265196,1,0,0:0:0:0:
109,192,265246,1,0,0:0:0:0:
475,192,265296,1,0,0:0:0:0:
402,192,265296,1,0,0:0:0:0:
256,192,265296,1,0,0:0:0:0:
182,192,265346,1,0,0:0:0:0:
36,192,265396,1,0,0:0:0:0:
329,192,265446,1,0,0:0:0:0:
475,192,265496,1,0,0:0:0:0:
256,192,265496,1,0,0:0:0:0:
109,192,265496,1,0,0:0:0:0:
402,192,265546,1,0,0:0:0:0:
182,192,265596,1,0,0:0:0:0:
36,192,265646,1,0,0:0:0:0:
329,192,265696,1,0,0:0:0:0:
256,192,265696,1,0,0:0:0:0:
109,192,265696,1,0,0:0:0:0:
475,192,265746,1,0,0:0:0:0:
182,192,265796,1,0,0:0:0:0:
402,192,265846,1,0,0:0:0:0:
329,192,265896,1,0,0:0:0:0:
109,192,265896,1,0,0:0:0:0:
36,192,265896,1,0,0:0:0:0:
256,192,265946,1,0,0:0:0:0:
475,192,265996,1,0,0:0:0:0:
182,192,266046,1,0,0:0:0:0:
402,192,266096,1,0,0:0:0:0:
329,192,266096,1,0,0:0:0:0:
36,192,266096,1,0,0:0:0:0:
109,192,266146,1,0,0:0:0:0:
256,192,266196,1,0,0:0:0:0:
402,192,266246,1,0,0:0:0:0:
36,192,266296,1,0,0:0:0:0:
182,192,266296,1,0,0:0:0:0:
475,192,266296,1,0,0:0:0:0:
329,192,266346,1,0,0:0:0:0:
109,192,266396,1,0,0:0:0:0:
256,192,266446,1,0,0:0:0:0:
182,192,266496,1,0,0:0:0:0:
475,192,266496,1,0,0:0:0:0:
402,192,266496,1,0,0:0:0:0:
36,192,266546,1,0,0:0:0:0:
329,192,266596,1,0,0:0:0:0:
109,192,266646,1,0,0:0:0:0:
182,192,266696,1,0,0:0:0:0:
402,192,266696,1,0,0:0:0:0:
256,192,266696,1,0,0:0:0:0:
36,192,266746,1,0,0:0:0:0:
329,192,266796,1,0,0:0:0:0:
256,192,266846,1,0,0:0:0:0:
36,192,266896,1,0,0:0:0:0:
109,192,266896,1,0,0:0:0:0:
182,192,266896,1,0,0:0:0:0:
475,192,266946,1,0,0:0:0:0:
402,192,266946,1,0,0:0:0:0:
256,192,266996,1,0,0:0:0:0:
329,192,266996,1,0,0:0:0:0:
109,192,267046,1,0,0:0:0:0:
182,192,267046,1,0,0:0:0:0:
475,192,267096,1,0,0:0:0:0:
36,192,267096,1,0,0:0:0:0:
329,192,267146,1,0,0:0:0:0:
402,192,267146,1,0,0:0:0:0:
182,192,267196,1,0,0:0:0:0:
256,192,267196,1,0,0:0:0:0:
36,192,267246,1,0,0:0:0:0:
109,192,267246,1,0,0:0:0:0:
475,192,267296,1,0,0:0:0:0:
402,192,267296,1,0,0:0:0:0:
329,192,267296,1,0,0:0:0:0:
109,192,267346,1,0,0:0:0:0:
36,192,267346,1,0,0:0:0:0:
256,192,267396,1,0,0:0:0:0:
182,192,267396,1,0,0:0:0:0:
402,192,267446,1,0,0:0:0:0:
329,192,267446,1,0,0:0:0:0:
36,192,267496,1,0,0:0:0:0:
475,192,267496,1,0,0:0:0:0:
182,192,267546,1,0,0:0:0:0:
109,192,267546,1,0,0:0:0:0:
329,192,267596,1,0,0:0:0:0:
256,192,267596,1,0,0:0:0:0:
475,192,267646,1,0,0:0:0:0:
402,192,267646,1,0,0:0:0:0:
109,192,267696,1,0,0:0:0:0:
36,192,267696,1,0,0:0:0:0:
182,192,267696,1,0,0:0:0:0:
329,192,267746,1,0,0:0:0:0:
475,192,267796,1,0,0:0:0:0:
402,192,267796,1,0,0:0:0:0:
256,192,267846,1,0,0:0:0:0:
182,192,267896,1,0,0:0:0:0:
36,192,267896,1,0,0:0:0:0:
329,192,267946,1,0,0:0:0:0:
475,192,267996,1,0,0:0:0:0:
109,192,268046,1,0,0:0:0:0:
402,192,268096,1,0,0:0:0:0:
256,192,268096,1,0,0:0:0:0:
182,192,268146,1,0,0:0:0:0:
36,192,268196,1,0,0:0:0:0:
329,192,268246,1,0,0:0:0:0:
475,192,268296,1,0,0:0:0:0:
109,192,268296,1,0,0:0:0:0:
256,192,268346,1,0,0:0:0:0:
402,192,268396,1,0,0:0:0:0:
182,192,268446,1,0,0:0:0:0:
109,192,268496,1,0,0:0:0:0:
36,192,268496,1,0,0:0:0:0:
329,192,268546,1,0,0:0:0:0:
256,192,268596,1,0,0:0:0:0:
182,192,268646,1,0,0:0:0:0:
475,192,268696,1,0,0:0:0:0:
402,192,268696,1,0,0:0:0:0:
329,192,268746,1,0,0:0:0:0:
109,192,268796,1,0,0:0:0:0:
256,192,268846,1,0,0:0:0:0:
475,192,268896,1,0,0:0:0:0:
402,192,268896,1,0,0:0:0:0:
36,192,268946,1,0,0:0:0:0:
329,192,268996,1,0,0:0:0:0:
182,192,268996,1,0,0:0:0:0:
402,192,269046,1,0,0:0:0:0:
256,192,269096,1,0,0:0:0:0:
109,192,269096,1,0,0:0:0:0:
475,192,269146,1,0,0:0:0:0:
329,192,269196,1,0,0:0:0:0:
182,192,269196,1,0,0:0:0:0:
36,192,269246,1,0,0:0:0:0:
475,192,269296,1,0,0:0:0:0:
402,192,269296,1,0,0:0:0:0:
256,192,269296,1,0,0:0:0:0:
109,192,269346,1,0,0:0:0:0:
182,192,269396,1,0,0:0:0:0:
329,192,269396,1,0,0:0:0:0:
402,192,269446,1,0,0:0:0:0:
109,192,269496,1,0,0:0:0:0:
36,192,269496,1,0,0:0:0:0:
256,192,269546,1,0,0:0:0:0:
475,192,269596,1,0,0:0:0:0:
329,192,269596,1,0,0:0:0:0:
182,192,269646,1,0,0:0:0:0:
109,192,269696,1,0,0:0:0:0:
256,192,269746,1,0,0:0:0:0:
402,192,269796,1,0,0:0:0:0:
182,192,269846,1,0,0:0:0:0:
109,192,269896,1,0,0:0:0:0:
36,192,269896,1,0,0:0:0:0:
329,192,269946,1,0,0:0:0:0:
475,192,269996,1,0,0:0:0:0:
182,192,270046,1,0,0:0:0:0:
402,192,270096,1,0,0:0:0:0:
256,192,270096,1,0,0:0:0:0:
36,192,270146,1,0,0:0:0:0:
109,192,270196,1,0,0:0:0:0:
329,192,270246,1,0,0:0:0:0:
475,192,270296,1,0,0:0:0:0:
182,192,270296,1,0,0:0:0:0:
36,192,270346,1,0,0:0:0:0:
109,192,270396,1,0,0:0:0:0:
256,192,270446,1,0,0:0:0:0:
402,192,270496,1,0,0:0:0:0:
329,192,270496,1,0,0:0:0:0:
182,192,270546,1,0,0:0:0:0:
475,192,270596,1,0,0:0:0:0:
36,192,270596,1,0,0:0:0:0:
109,192,270646,1,0,0:0:0:0:
329,192,270696,1,0,0:0:0:0:
256,192,270696,1,0,0:0:0:0:
402,192,270746,1,0,0:0:0:0:
182,192,270796,1,0,0:0:0:0:
256,192,270846,1,0,0:0:0:0:
36,192,270896,1,0,0:0:0:0:
475,192,270896,1,0,0:0:0:0:
329,192,270896,1,0,0:0:0:0:
109,192,270946,1,0,0:0:0:0:
182,192,270996,1,0,0:0:0:0:
402,192,270996,1,0,0:0:0:0:
256,192,271046,1,0,0:0:0:0:
475,192,271096,1,0,0:0:0:0:
329,192,271096,1,0,0:0:0:0:
109,192,271146,1,0,0:0:0:0:
402,192,271196,1,0,0:0:0:0:
256,192,271196,1,0,0:0:0:0:
182,192,271246,1,0,0:0:0:0:
36,192,271296,1,0,0:0:0:0:
329,192,271346,1,0,0:0:0:0:
256,192,271396,1,0,0:0:0:0:
109,192,271396,1,0,0:0:0:0:
402,192,271446,1,0,0:0:0:0:
475,192,271496,1,0,0:0:0:0:
182,192,271496,1,0,0:0:0:0:
36,192,271546,1,0,0:0:0:0:
402,192,271596,1,0,0:0:0:0:
256,192,271596,1,0,0:0:0:0:
109,192,271646,1,0,0:0:0:0:
475,192,271696,1,0,0:0:0:0:
329,192,271696,1,0,0:0:0:0:
182,192,271746,1,0,0:0:0:0:
36,192,271796,1,0,0:0:0:0:
256,192,271796,1,0,0:0:0:0:
402,192,271846,1,0,0:0:0:0:
329,192,271896,1,0,0:0:0:0:
109,192,271896,1,0,0:0:0:0:
182,192,271946,1,0,0:0:0:0:
475,192,271996,1,0,0:0:0:0:
256,192,271996,1,0,0:0:0:0:
36,192,272046,1,0,0:0:0:0:
402,192,272096,1,0,0:0:0:0:
329,192,272096,1,0,0:0:0:0:
182,192,272146,1,0,0:0:0:0:
109,192,272196,1,0,0:0:0:0:
256,192,272246,1,0,0:0:0:0:
475,192,272296,1,0,0:0:0:0:
402,192,272296,1,0,0:0:0:0:
182,192,272346,1,0,0:0:0:0:
109,192,272396,1,0,0:0:0:0:
36,192,272396,1,0,0:0:0:0:
329,192,272446,1,0,0:0:0:0:
475,192,272496,1,0,0:0:0:0:
402,192,272496,1,0,0:0:0:0:
256,192,272496,1,0,0:0:0:0:
182,192,272546,1,0,0:0:0:0:
329,192,272596,1,0,0:0:0:0:
109,192,272596,1,0,0:0:0:0:
402,192,272646,1,0,0:0:0:0:
36,192,272696,1,0,0:0:0:0:
256,192,272746,1,0,0:0:0:0:
475,192,272796,1,0,0:0:0:0:
182,192,272796,1,0,0:0:0:0:
109,192,272846,1,0,0:0:0:0:
329,192,272896,1,0,0:0:0:0:
256,192,272946,1,0,0:0:0:0:
475,192,272996,1,0,0:0:0:0:
402,192,272996,1,0,0:0:0:0:
182,192,273046,1,0,0:0:0:0:
256,192,273096,1,0,0:0:0:0:
329,192,273096,1,0,0:0:0:0:
36,192,273146,1,0,0:0:0:0:
182,192,273196,1,0,0:0:0:0:
109,192,273196,1,0,0:0:0:0:
402,192,273246,1,0,0:0:0:0:
475,192,273296,1,0,0:0:0:0:
256,192,273296,1,0,0:0:0:0:
329,192,273346,1,0,0:0:0:0:
182,192,273396,1,0,0:0:0:0:
256,192,273446,1,0,0:0:0:0:
402,192,273496,1,0,0:0:0:0:
329,192,273496,1,0,0:0:0:0:
475,192,273496,1,0,0:0:0:0:
36,192,273546,1,0,0:0:0:0:
109,192,273546,1,0,0:0:0:0:
182,192,273546,1,0,0:0:0:0:
475,192,273596,1,0,0:0:0:0:
402,192,273596,1,0,0:0:0:0:
329,192,273596,1,0,0:0:0:0:
36,192,273646,1,0,0:0:0:0:
109,192,273646,1,0,0:0:0:0:
182,192,273646,1,0,0:0:0:0:
475,192,273696,1,0,0:0:0:0:
402,192,273696,1,0,0:0:0:0:
256,192,273746,1,0,0:0:0:0:
109,192,273796,1,0,0:0:0:0:
329,192,273796,1,0,0:0:0:0:
182,192,273846,1,0,0:0:0:0:
402,192,273896,1,0,0:0:0:0:
256,192,273896,1,0,0:0:0:0:
36,192,273946,1,0,0:0:0:0:
329,192,273996,1,0,0:0:0:0:
109,192,273996,1,0,0:0:0:0:
475,192,274046,1,0,0:0:0:0:
402,192,274096,1,0,0:0:0:0:
36,192,274096,1,0,0:0:0:0:
182,192,274096,1,0,0:0:0:0:
256,192,274146,1,0,0:0:0:0:
475,192,274196,1,0,0:0:0:0:
329,192,274196,1,0,0:0:0:0:
109,192,274246,1,0,0:0:0:0:
182,192,274296,1,0,0:0:0:0:
402,192,274296,1,0,0:0:0:0:
256,192,274346,1,0,0:0:0:0:
36,192,274396,1,0,0:0:0:0:
109,192,274446,1,0,0:0:0:0:
329,192,274496,1,0,0:0:0:0:
182,192,274496,1,0,0:0:0:0:
475,192,274546,1,0,0:0:0:0:
256,192,274596,1,0,0:0:0:0:
36,192,274646,1,0,0:0:0:0:
402,192,274696,1,0,0:0:0:0:
109,192,274696,1,0,0:0:0:0:
329,192,274746,1,0,0:0:0:0:
182,192,274796,1,0,0:0:0:0:
256,192,274846,1,0,0:0:0:0:
402,192,274896,1,0,0:0:0:0:
36,192,274896,1,0,0:0:0:0:
182,192,274946,1,0,0:0:0:0:
329,192,274996,1,0,0:0:0:0:
109,192,275046,1,0,0:0:0:0:
475,192,275096,1,0,0:0:0:0:
402,192,275096,1,0,0:0:0:0:
256,192,275146,1,0,0:0:0:0:
36,192,275196,1,0,0:0:0:0:
182,192,275246,1,0,0:0:0:0:
402,192,275296,1,0,0:0:0:0:
329,192,275296,1,0,0:0:0:0:
109,192,275346,1,0,0:0:0:0:
475,192,275396,1,0,0:0:0:0:
256,192,275396,1,0,0:0:0:0:
36,192,275446,1,0,0:0:0:0:
402,192,275496,1,0,0:0:0:0:
182,192,275496,1,0,0:0:0:0:
329,192,275546,1,0,0:0:0:0:
109,192,275596,1,0,0:0:0:0:
256,192,275596,1,0,0:0:0:0:
36,192,275646,1,0,0:0:0:0:
475,192,275696,1,0,0:0:0:0:
402,192,275696,1,0,0:0:0:0:
182,192,275696,1,0,0:0:0:0:
109,192,275746,1,0,0:0:0:0:
256,192,275796,1,0,0:0:0:0:
329,192,275796,1,0,0:0:0:0:
475,192,275846,1,0,0:0:0:0:
182,192,275896,1,0,0:0:0:0:
36,192,275896,1,0,0:0:0:0:
256,192,275946,1,0,0:0:0:0:
475,192,275996,1,0,0:0:0:0:
329,192,275996,1,0,0:0:0:0:
109,192,276046,1,0,0:0:0:0:
182,192,276096,1,0,0:0:0:0:
329,192,276146,1,0,0:0:0:0:
402,192,276196,1,0,0:0:0:0:
256,192,276246,1,0,0:0:0:0:
182,192,276296,1,0,0:0:0:0:
36,192,276296,1,0,0:0:0:0:
329,192,276346,1,0,0:0:0:0:
475,192,276396,1,0,0:0:0:0:
109,192,276446,1,0,0:0:0:0:
402,192,276496,1,0,0:0:0:0:
256,192,276496,1,0,0:0:0:0:
182,192,276546,1,0,0:0:0:0:
36,192,276596,1,0,0:0:0:0:
329,192,276646,1,0,0:0:0:0:
475,192,276696,1,0,0:0:0:0:
256,192,276696,1,0,0:0:0:0:
109,192,276746,1,0,0:0:0:0:
182,192,276796,1,0,0:0:0:0:
402,192,276846,1,0,0:0:0:0:
36,192,276896,1,0,0:0:0:0:
329,192,276896,1,0,0:0:0:0:
109,192,276946,1,0,0:0:0:0:
475,192,276996,1,0,0:0:0:0:
182,192,276996,1,0,0:0:0:0:
402,192,277046,1,0,0:0:0:0:
36,192,277096,1,0,0:0:0:0:
256,192,277096,1,0,0:0:0:0:
329,192,277146,1,0,0:0:0:0:
109,192,277196,1,0,0:0:0:0:
182,192,277246,1,0,0:0:0:0:
36,192,277296,1,0,0:0:0:0:
475,192,277296,1,0,0:0:0:0:
329,192,277296,1,0,0:0:0:0:
256,192,277346,1,0,0:0:0:0:
109,192,277396,1,0,0:0:0:0:
402,192,277396,1,0,0:0:0:0:
182,192,277446,1,0,0:0:0:0:
475,192,277496,1,0,0:0:0:0:
329,192,277496,1,0,0:0:0:0:
256,192,277546,1,0,0:0:0:0:
402,192,277596,1,0,0:0:0:0:
36,192,277596,1,0,0:0:0:0:
109,192,277646,1,0,0:0:0:0:
182,192,277696,1,0,0:0:0:0:
329,192,277746,1,0,0:0:0:0:
475,192,277796,1,0,0:0:0:0:
109,192,277796,1,0,0:0:0:0:
402,192,277846,1,0,0:0:0:0:
256,192,277896,1,0,0:0:0:0:
36,192,277896,1,0,0:0:0:0:
182,192,277946,1,0,0:0:0:0:
402,192,277996,1,0,0:0:0:0:
329,192,277996,1,0,0:0:0:0:
109,192,278046,1,0,0:0:0:0:
475,192,278096,1,0,0:0:0:0:
256,192,278096,1,0,0:0:0:0:
182,192,278146,1,0,0:0:0:0:
36,192,278196,1,0,0:0:0:0:
329,192,278196,1,0,0:0:0:0:
402,192,278246,1,0,0:0:0:0:
475,192,278296,1,0,0:0:0:0:
109,192,278296,1,0,0:0:0:0:
182,192,278346,1,0,0:0:0:0:
402,192,278396,1,0,0:0:0:0:
256,192,278396,1,0,0:0:0:0:
329,192,278446,1,0,0:0:0:0:
109,192,278496,1,0,0:0:0:0:
36,192,278496,1,0,0:0:0:0:
182,192,278546,1,0,0:0:0:0:
402,192,278596,1,0,0:0:0:0:
256,192,278646,1,0,0:0:0:0:
475,192,278696,1,0,0:0:0:0:
329,192,278696,1,0,0:0:0:0:
109,192,278746,1,0,0:0:0:0:
182,192,278796,1,0,0:0:0:0:
36,192,278796,1,0,0:0:0:0:
329,192,278846,1,0,0:0:0:0:
475,192,278896,1,0,0:0:0:0:
109,192,278896,1,0,0:0:0:0:
402,192,278896,1,0,0:0:0:0:
256,192,278946,1,0,0:0:0:0:
329,192,278996,1,0,0:0:0:0:
182,192,278996,1,0,0:0:0:0:
402,192,279046,1,0,0:0:0:0:
36,192,279096,1,0,0:0:0:0:
256,192,279146,1,0,0:0:0:0:
475,192,279196,1,0,0:0:0:0:
109,192,279196,1,0,0:0:0:0:
182,192,279246,1,0,0:0:0:0:
402,192,279296,1,0,0:0:0:0:
329,192,279346,1,0,0:0:0:0:
182,192,279396,1,0,0:0:0:0:
36,192,279396,1,0,0:0:0:0:
256,192,279446,1,0,0:0:0:0:
109,192,279496,1,0,0:0:0:0:
402,192,279496,1,0,0:0:0:0:
329,192,279546,1,0,0:0:0:0:
182,192,279596,1,0,0:0:0:0:
36,192,279596,1,0,0:0:0:0:
256,192,279646,1,0,0:0:0:0:
402,192,279696,1,0,0:0:0:0:
329,192,279696,1,0,0:0:0:0:
109,192,279746,1,0,0:0:0:0:
182,192,279746,1,0,0:0:0:0:
402,192,279796,1,0,0:0:0:0:
329,192,279796,1,0,0:0:0:0:
109,192,279846,1,0,0:0:0:0:
182,192,279846,1,0,0:0:0:0:
402,192,279896,1,0,0:0:0:0:
329,192,279896,1,0,0:0:0:0:
109,192,279946,1,0,0:0:0:0:
182,192,279946,1,0,0:0:0:0:
402,192,279996,1,0,0:0:0:0:
329,192,279996,1,0,0:0:0:0:
109,192,280046,1,0,0:0:0:0:
182,192,280046,1,0,0:0:0:0:
475,192,280096,1,0,0:0:0:0:
402,192,280096,1,0,0:0:0:0:
329,192,280096,1,0,0:0:0:0:
36,192,280146,1,0,0:0:0:0:
109,192,280146,1,0,0:0:0:0:
182,192,280146,1,0,0:0:0:0:
475,192,280196,1,0,0:0:0:0:
402,192,280196,1,0,0:0:0:0:
329,192,280196,1,0,0:0:0:0:
36,192,280246,1,0,0:0:0:0:
109,192,280246,1,0,0:0:0:0:
182,192,280246,1,0,0:0:0:0:
475,192,280296,1,0,0:0:0:0:
402,192,280296,1,0,0:0:0:0:
329,192,280296,1,0,0:0:0:0:
36,192,280346,1,0,0:0:0:0:
109,192,280346,1,0,0:0:0:0:
182,192,280346,1,0,0:0:0:0:
475,192,280396,1,0,0:0:0:0:
402,192,280396,1,0,0:0:0:0:
329,192,280396,1,0,0:0:0:0:
36,192,280446,1,0,0:0:0:0:
109,192,280446,1,0,0:0:0:0:
182,192,280446,1,0,0:0:0:0:
475,192,280496,1,0,0:0:0:0:
402,192,280496,1,0,0:0:0:0:
256,192,280496,1,0,0:0:0:0:
329,192,280796,1,0,0:0:0:0:
402,192,281096,1,0,0:0:0:0:
475,192,281296,1,0,0:0:0:0:
402,192,281596,1,0,0:0:0:0:
182,192,281896,1,0,0:0:0:0:
329,192,282096,1,0,0:0:0:0:
182,192,282396,1,0,0:0:0:0:
329,192,282696,1,0,0:0:0:0:
36,192,282896,1,0,0:0:0:0:
109,192,283696,1,0,0:0:0:0:
402,192,283696,1,0,0:0:0:0:
329,192,283696,1,0,0:0:0:0:
182,192,283796,1,0,0:0:0:0:
329,192,283896,1,0,0:0:0:0:
182,192,283996,1,0,0:0:0:0:
109,192,283996,1,0,0:0:0:0:
402,192,284096,1,0,0:0:0:0:
256,192,284096,1,0,0:0:0:0:
182,192,284196,1,0,0:0:0:0:
109,192,284196,1,0,0:0:0:0:
402,192,284296,1,0,0:0:0:0:
329,192,284296,1,0,0:0:0:0:
109,192,284396,1,0,0:0:0:0:
182,192,284396,1,0,0:0:0:0:
402,192,284496,1,0,0:0:0:0:
475,192,284496,1,0,0:0:0:0:
256,192,284496,1,0,0:0:0:0:
36,192,284596,1,0,0:0:0:0:
329,192,284696,1,0,0:0:0:0:
182,192,284696,1,0,0:0:0:0:
36,192,284796,1,0,0:0:0:0:
329,192,284896,1,0,0:0:0:0:
109,192,284896,1,0,0:0:0:0:
182,192,284996,1,0,0:0:0:0:
402,192,284996,1,0,0:0:0:0:
475,192,285096,1,0,0:0:0:0:
256,192,285096,1,0,0:0:0:0:
36,192,285196,1,0,0:0:0:0:
109,192,285196,1,0,0:0:0:0:
475,192,285296,1,0,0:0:0:0:
329,192,285296,1,0,0:0:0:0:
182,192,285296,1,0,0:0:0:0:
36,192,285396,1,0,0:0:0:0:
329,192,285496,1,0,0:0:0:0:
109,192,285496,1,0,0:0:0:0:
36,192,285596,1,0,0:0:0:0:
256,192,285696,1,0,0:0:0:0:
109,192,285796,1,0,0:0:0:0:
402,192,285796,1,0,0:0:0:0:
475,192,285896,1,0,0:0:0:0:
182,192,285896,1,0,0:0:0:0:
109,192,285996,1,0,0:0:0:0:
402,192,285996,1,0,0:0:0:0:
36,192,286096,1,0,0:0:0:0:
475,192,286096,1,0,0:0:0:0:
256,192,286096,1,0,0:0:0:0:
182,192,286196,1,0,0:0:0:0:
402,192,286296,1,0,0:0:0:0:
329,192,286296,1,0,0:0:0:0:
109,192,286396,1,0,0:0:0:0:
182,192,286396,1,0,0:0:0:0:
256,192,286496,1,0,0:0:0:0:
402,192,286596,1,0,0:0:0:0:
36,192,286596,1,0,0:0:0:0:
329,192,286646,1,0,0:0:0:0:
402,192,286696,1,0,0:0:0:0:
109,192,286696,1,0,0:0:0:0:
475,192,286796,1,0,0:0:0:0:
182,192,286796,1,0,0:0:0:0:
36,192,286896,1,0,0:0:0:0:
475,192,286896,1,0,0:0:0:0:
256,192,286896,1,0,0:0:0:0:
182,192,287196,1,0,0:0:0:0:
329,192,287496,1,0,0:0:0:0:
182,192,287696,1,0,0:0:0:0:
109,192,287696,1,0,0:0:0:0:
402,192,287696,1,0,0:0:0:0:
329,192,287996,1,0,0:0:0:0:
475,192,288296,1,0,0:0:0:0:
182,192,288496,1,0,0:0:0:0:
109,192,288496,1,0,0:0:0:0:
475,192,288496,1,0,0:0:0:0:
402,192,288796,1,0,0:0:0:0:
329,192,289096,1,0,0:0:0:0:
182,192,289296,1,0,0:0:0:0:
109,192,289296,1,0,0:0:0:0:
256,192,289296,1,0,0:0:0:0:
475,192,290096,1,0,0:0:0:0:
329,192,290096,1,0,0:0:0:0:
182,192,290096,1,0,0:0:0:0:
36,192,290196,1,0,0:0:0:0:
402,192,290296,1,0,0:0:0:0:
256,192,290296,1,0,0:0:0:0:
109,192,290396,1,0,0:0:0:0:
182,192,290496,1,0,0:0:0:0:
256,192,290596,1,0,0:0:0:0:
109,192,290596,1,0,0:0:0:0:
36,192,290596,1,0,0:0:0:0:
402,192,290696,1,0,0:0:0:0:
329,192,290696,1,0,0:0:0:0:
182,192,290796,1,0,0:0:0:0:
109,192,290796,1,0,0:0:0:0:
256,192,290896,1,0,0:0:0:0:
475,192,290896,1,0,0:0:0:0:
402,192,290896,1,0,0:0:0:0:
109,192,290996,1,0,0:0:0:0:
475,192,291096,1,0,0:0:0:0:
329,192,291096,1,0,0:0:0:0:
109,192,291196,1,0,0:0:0:0:
36,192,291296,1,0,0:0:0:0:
329,192,291296,1,0,0:0:0:0:
402,192,291396,1,0,0:0:0:0:
109,192,291396,1,0,0:0:0:0:
475,192,291496,1,0,0:0:0:0:
182,192,291496,1,0,0:0:0:0:
256,192,291596,1,0,0:0:0:0:
475,192,291696,1,0,0:0:0:0:
402,192,291696,1,0,0:0:0:0:
109,192,291696,1,0,0:0:0:0:
182,192,291796,1,0,0:0:0:0:
329,192,291796,1,0,0:0:0:0:
256,192,291896,1,0,0:0:0:0:
109,192,291896,1,0,0:0:0:0:
475,192,291996,1,0,0:0:0:0:
36,192,291996,1,0,0:0:0:0:
182,192,291996,1,0,0:0:0:0:
329,192,292096,1,0,0:0:0:0:
256,192,292196,1,0,0:0:0:0:
182,192,292196,1,0,0:0:0:0:
36,192,292196,1,0,0:0:0:0:
475,192,292296,1,0,0:0:0:0:
329,192,292296,1,0,0:0:0:0:
256,192,292396,1,0,0:0:0:0:
182,192,292396,1,0,0:0:0:0:
36,192,292396,1,0,0:0:0:0:
329,192,292496,1,0,0:0:0:0:
475,192,292496,1,0,0:0:0:0:
402,192,292496,1,0,0:0:0:0:
256,192,292596,1,0,0:0:0:0:
109,192,292596,1,0,0:0:0:0:
329,192,292646,1,0,0:0:0:0:
182,192,292696,1,0,0:0:0:0:
475,192,292696,1,0,0:0:0:0:
402,192,292696,1,0,0:0:0:0:
109,192,292796,1,0,0:0:0:0:
36,192,292796,1,0,0:0:0:0:
475,192,292896,1,0,0:0:0:0:
402,192,292896,1,0,0:0:0:0:
256,192,292896,1,0,0:0:0:0:
36,192,292996,1,0,0:0:0:0:
182,192,292996,1,0,0:0:0:0:
109,192,292996,1,0,0:0:0:0:
402,192,293096,1,0,0:0:0:0:
475,192,293096,1,0,0:0:0:0:
329,192,293096,1,0,0:0:0:0:
256,192,293196,1,0,0:0:0:0:
182,192,293196,1,0,0:0:0:0:
109,192,293196,1,0,0:0:0:0:
402,192,293280,1,0,0:0:0:0:
475,192,293280,1,0,0:0:0:0:
329,192,293280,1,0,0:0:0:0:
109,192,293330,1,0,0:0:0:0:
36,192,293330,1,0,0:0:0:0:
256,192,293380,1,0,0:0:0:0:
182,192,293380,1,0,0:0:0:0:
402,192,293430,1,0,0:0:0:0:
329,192,293430,1,0,0:0:0:0:
36,192,293480,1,0,0:0:0:0:
475,192,293480,1,0,0:0:0:0:
182,192,293530,1,0,0:0:0:0:
109,192,293530,1,0,0:0:0:0:
329,192,293580,1,0,0:0:0:0:
256,192,293580,1,0,0:0:0:0:
475,192,293630,1,0,0:0:0:0:
402,192,293630,1,0,0:0:0:0:
36,192,293680,1,0,0:0:0:0:
109,192,293680,1,0,0:0:0:0:
182,192,293680,1,0,0:0:0:0:
475,192,293730,1,0,0:0:0:0:
402,192,293730,1,0,0:0:0:0:
256,192,293780,1,0,0:0:0:0:
329,192,293780,1,0,0:0:0:0:
109,192,293830,1,0,0:0:0:0:
182,192,293830,1,0,0:0:0:0:
475,192,293880,1,0,0:0:0:0:
36,192,293880,1,0,0:0:0:0:
402,192,293930,1,0,0:0:0:0:
329,192,293930,1,0,0:0:0:0:
182,192,293980,1,0,0:0:0:0:
256,192,293980,1,0,0:0:0:0:
36,192,294030,1,0,0:0:0:0:
109,192,294030,1,0,0:0:0:0:
475,192,294080,1,0,0:0:0:0:
256,192,294080,1,0,0:0:0:0:
329,192,294080,1,0,0:0:0:0:
402,192,294080,1,0,0:0:0:0:
182,192,294130,1,0,0:0:0:0:
36,192,294180,1,0,0:0:0:0:
109,192,294230,1,0,0:0:0:0:
256,192,294280,1,0,0:0:0:0:
402,192,294330,1,0,0:0:0:0:
109,192,294380,1,0,0:0:0:0:
182,192,294380,1,0,0:0:0:0:
36,192,294380,1,0,0:0:0:0:
475,192,294380,1,0,0:0:0:0:
329,192,294430,1,0,0:0:0:0:
256,192,294480,1,0,0:0:0:0:
402,192,294530,1,0,0:0:0:0:
182,192,294580,1,0,0:0:0:0:
109,192,294630,1,0,0:0:0:0:
256,192,294680,1,0,0:0:0:0:
36,192,294680,1,0,0:0:0:0:
329,192,294680,1,0,0:0:0:0:
475,192,294680,1,0,0:0:0:0:
182,192,294730,1,0,0:0:0:0:
402,192,294780,1,0,0:0:0:0:
329,192,294830,1,0,0:0:0:0:
256,192,294880,1,0,0:0:0:0:
475,192,294880,1,0,0:0:0:0:
109,192,294880,1,0,0:0:0:0:
36,192,294880,1,0,0:0:0:0:
402,192,294930,1,0,0:0:0:0:
182,192,294980,1,0,0:0:0:0:
329,192,295030,1,0,0:0:0:0:
109,192,295080,1,0,0:0:0:0:
256,192,295130,1,0,0:0:0:0:
36,192,295180,1,0,0:0:0:0:
182,192,295180,1,0,0:0:0:0:
402,192,295180,1,0,0:0:0:0:
475,192,295180,1,0,0:0:0:0:
329,192,295230,1,0,0:0:0:0:
109,192,295280,1,0,0:0:0:0:
256,192,295330,1,0,0:0:0:0:
402,192,295380,1,0,0:0:0:0:
182,192,295430,1,0,0:0:0:0:
109,192,295480,1,0,0:0:0:0:
475,192,295480,1,0,0:0:0:0:
329,192,295480,1,0,0:0:0:0:
36,192,295480,1,0,0:0:0:0:
256,192,295530,1,0,0:0:0:0:
402,192,295580,1,0,0:0:0:0:
182,192,295630,1,0,0:0:0:0:
475,192,295680,1,0,0:0:0:0:
256,192,295680,1,0,0:0:0:0:
36,192,295680,1,0,0:0:0:0:
329,192,295680,1,0,0:0:0:0:
109,192,295730,1,0,0:0:0:0:
182,192,295780,1,0,0:0:0:0:
402,192,295830,1,0,0:0:0:0:
329,192,295880,1,0,0:0:0:0:
256,192,295930,1,0,0:0:0:0:
182,192,295980,1,0,0:0:0:0:
402,192,295980,1,0,0:0:0:0:
36,192,295980,1,0,0:0:0:0:
475,192,295980,1,0,0:0:0:0:
109,192,296030,1,0,0:0:0:0:
329,192,296080,1,0,0:0:0:0:
256,192,296130,1,0,0:0:0:0:
182,192,296180,1,0,0:0:0:0:
36,192,296230,1,0,0:0:0:0:
475,192,296280,1,0,0:0:0:0:
256,192,296280,1,0,0:0:0:0:
329,192,296280,1,0,0:0:0:0:
402,192,296280,1,0,0:0:0:0:
109,192,296330,1,0,0:0:0:0:
182,192,296380,1,0,0:0:0:0:
329,192,296430,1,0,0:0:0:0:
36,192,296480,1,0,0:0:0:0:
109,192,296480,1,0,0:0:0:0:
475,192,296480,1,0,0:0:0:0:
256,192,296480,1,0,0:0:0:0:
402,192,296530,1,0,0:0:0:0:
182,192,296580,1,0,0:0:0:0:
329,192,296630,1,0,0:0:0:0:
109,192,296680,1,0,0:0:0:0:
256,192,296730,1,0,0:0:0:0:
402,192,296780,1,0,0:0:0:0:
475,192,296830,1,0,0:0:0:0:
182,192,296880,1,0,0:0:0:0:
36,192,296930,1,0,0:0:0:0:
329,192,296980,1,0,0:0:0:0:
109,192,297030,1,0,0:0:0:0:
402,192,297080,1,0,0:0:0:0:
256,192,297130,1,0,0:0:0:0:
182,192,297180,1,0,0:0:0:0:
329,192,297230,1,0,0:0:0:0:
475,192,297280,1,0,0:0:0:0:
256,192,297280,1,0,0:0:0:0:
36,192,297280,1,0,0:0:0:0:
402,192,297280,1,0,0:0:0:0:
109,192,297330,1,0,0:0:0:0:
182,192,297380,1,0,0:0:0:0:
329,192,297430,1,0,0:0:0:0:
475,192,297480,1,0,0:0:0:0:
256,192,297530,1,0,0:0:0:0:
109,192,297580,1,0,0:0:0:0:
182,192,297580,1,0,0:0:0:0:
36,192,297580,1,0,0:0:0:0:
402,192,297580,1,0,0:0:0:0:
329,192,297630,1,0,0:0:0:0:
256,192,297680,1,0,0:0:0:0:
109,192,297730,1,0,0:0:0:0:
182,192,297780,1,0,0:0:0:0:
329,192,297830,1,0,0:0:0:0:
256,192,297880,1,0,0:0:0:0:
36,192,297880,1,0,0:0:0:0:
402,192,297880,1,0,0:0:0:0:
475,192,297880,1,0,0:0:0:0:
109,192,297930,1,0,0:0:0:0:
182,192,297980,1,0,0:0:0:0:
329,192,298030,1,0,0:0:0:0:
256,192,298080,1,0,0:0:0:0:
475,192,298080,1,0,0:0:0:0:
109,192,298080,1,0,0:0:0:0:
36,192,298080,1,0,0:0:0:0:
402,192,298130,1,0,0:0:0:0:
329,192,298180,1,0,0:0:0:0:
182,192,298230,1,0,0:0:0:0:
109,192,298280,1,0,0:0:0:0:
36,192,298330,1,0,0:0:0:0:
256,192,298380,1,0,0:0:0:0:
182,192,298380,1,0,0:0:0:0:
402,192,298380,1,0,0:0:0:0:
475,192,298380,1,0,0:0:0:0:
109,192,298430,1,0,0:0:0:0:
329,192,298480,1,0,0:0:0:0:
182,192,298530,1,0,0:0:0:0:
256,192,298580,1,0,0:0:0:0:
329,192,298630,1,0,0:0:0:0:
109,192,298680,1,0,0:0:0:0:
475,192,298680,1,0,0:0:0:0:
402,192,298680,1,0,0:0:0:0:
36,192,298680,1,0,0:0:0:0:
256,192,298730,1,0,0:0:0:0:
182,192,298780,1,0,0:0:0:0:
109,192,298830,1,0,0:0:0:0:
475,192,298880,1,0,0:0:0:0:
329,192,298880,1,0,0:0:0:0:
36,192,298880,1,0,0:0:0:0:
402,192,298880,1,0,0:0:0:0:
256,192,298930,1,0,0:0:0:0:
182,192,298980,1,0,0:0:0:0:
329,192,299030,1,0,0:0:0:0:
402,192,299080,1,0,0:0:0:0:
109,192,299130,1,0,0:0:0:0:
182,192,299180,1,0,0:0:0:0:
402,192,299180,1,0,0:0:0:0:
256,192,299180,1,0,0:0:0:0:
475,192,299180,1,0,0:0:0:0:
36,192,299230,1,0,0:0:0:0:
329,192,299280,1,0,0:0:0:0:
109,192,299330,1,0,0:0:0:0:
182,192,299380,1,0,0:0:0:0:
256,192,299430,1,0,0:0:0:0:
475,192,299480,1,0,0:0:0:0:
36,192,299480,1,0,0:0:0:0:
329,192,299480,1,0,0:0:0:0:
402,192,299480,1,0,0:0:0:0:
109,192,299530,1,0,0:0:0:0:
182,192,299580,1,0,0:0:0:0:
402,192,299630,1,0,0:0:0:0:
36,192,299680,1,0,0:0:0:0:
109,192,299680,1,0,0:0:0:0:
475,192,299680,1,0,0:0:0:0:
256,192,299680,1,0,0:0:0:0:
329,192,299730,1,0,0:0:0:0:
182,192,299780,1,0,0:0:0:0:
256,192,299830,1,0,0:0:0:0:
402,192,299880,1,0,0:0:0:0:
109,192,299930,1,0,0:0:0:0:
182,192,299980,1,0,0:0:0:0:
329,192,300030,1,0,0:0:0:0:
256,192,300080,1,0,0:0:0:0:
109,192,300080,1,0,0:0:0:0:
36,192,300080,1,0,0:0:0:0:
475,192,300130,1,0,0:0:0:0:
402,192,300130,1,0,0:0:0:0:
329,192,300180,1,0,0:0:0:0:
182,192,300180,1,0,0:0:0:0:
36,192,300230,1,0,0:0:0:0:
109,192,300230,1,0,0:0:0:0:
475,192,300280,1,0,0:0:0:0:
402,192,300280,1,0,0:0:0:0:
256,192,300280,1,0,0:0:0:0:
109,192,300330,1,0,0:0:0:0:
36,192,300330,1,0,0:0:0:0:
329,192,300380,1,0,0:0:0:0:
182,192,300380,1,0,0:0:0:0:
475,192,300430,1,0,0:0:0:0:
402,192,300430,1,0,0:0:0:0:
36,192,300480,1,0,0:0:0:0:
256,192,300480,1,0,0:0:0:0:
109,192,300480,1,0,0:0:0:0:
329,192,300530,1,0,0:0:0:0:
182,192,300580,1,0,0:0:0:0:
402,192,300630,1,0,0:0:0:0:
109,192,300680,1,0,0:0:0:0:
329,192,300730,1,0,0:0:0:0:
36,192,300780,1,0,0:0:0:0:
475,192,300780,1,0,0:0:0:0:
182,192,300780,1,0,0:0:0:0:
256,192,300780,1,0,0:0:0:0:
402,192,300830,1,0,0:0:0:0:
109,192,300880,1,0,0:0:0:0:
329,192,300930,1,0,0:0:0:0:
256,192,300980,1,0,0:0:0:0:
109,192,301030,1,0,0:0:0:0:
402,192,301080,1,0,0:0:0:0:
475,192,301080,1,0,0:0:0:0:
182,192,301080,1,0,0:0:0:0:
36,192,301080,1,0,0:0:0:0:
329,192,301130,1,0,0:0:0:0:
109,192,301180,1,0,0:0:0:0:
256,192,301230,1,0,0:0:0:0:
182,192,301280,1,0,0:0:0:0:
36,192,301280,1,0,0:0:0:0:
329,192,301280,1,0,0:0:0:0:
475,192,301280,1,0,0:0:0:0:
402,192,301330,1,0,0:0:0:0:
109,192,301380,1,0,0:0:0:0:
256,192,301430,1,0,0:0:0:0:
329,192,301480,1,0,0:0:0:0:
182,192,301530,1,0,0:0:0:0:
402,192,301580,1,0,0:0:0:0:
475,192,301580,1,0,0:0:0:0:
36,192,301580,1,0,0:0:0:0:
256,192,301580,1,0,0:0:0:0:
109,192,301630,1,0,0:0:0:0:
182,192,301680,1,0,0:0:0:0:
329,192,301730,1,0,0:0:0:0:
402,192,301780,1,0,0:0:0:0:
256,192,301830,1,0,0:0:0:0:
182,192,301880,1,0,0:0:0:0:
36,192,301880,1,0,0:0:0:0:
109,192,301880,1,0,0:0:0:0:
475,192,301880,1,0,0:0:0:0:
329,192,301930,1,0,0:0:0:0:
402,192,301980,1,0,0:0:0:0:
256,192,302030,1,0,0:0:0:0:
36,192,302080,1,0,0:0:0:0:
329,192,302080,1,0,0:0:0:0:
475,192,302080,1,0,0:0:0:0:
109,192,302080,1,0,0:0:0:0:
182,192,302130,1,0,0:0:0:0:
256,192,302180,1,0,0:0:0:0:
402,192,302230,1,0,0:0:0:0:
109,192,302280,1,0,0:0:0:0:
182,192,302330,1,0,0:0:0:0:
36,192,302380,1,0,0:0:0:0:
475,192,302380,1,0,0:0:0:0:
256,192,302380,1,0,0:0:0:0:
329,192,302380,1,0,0:0:0:0:
109,192,302430,1,0,0:0:0:0:
402,192,302480,1,0,0:0:0:0:
182,192,302530,1,0,0:0:0:0:
329,192,302580,1,0,0:0:0:0:
109,192,302630,1,0,0:0:0:0:
256,192,302680,1,0,0:0:0:0:
402,192,302680,1,0,0:0:0:0:
475,192,302680,1,0,0:0:0:0:
36,192,302680,1,0,0:0:0:0:
182,192,302730,1,0,0:0:0:0:
329,192,302780,1,0,0:0:0:0:
109,192,302830,1,0,0:0:0:0:
475,192,302880,1,0,0:0:0:0:
256,192,302880,1,0,0:0:0:0:
36,192,302880,1,0,0:0:0:0:
402,192,302880,1,0,0:0:0:0:
182,192,302930,1,0,0:0:0:0:
329,192,302980,1,0,0:0:0:0:
256,192,303030,1,0,0:0:0:0:
109,192,303080,1,0,0:0:0:0:
182,192,303130,1,0,0:0:0:0:
402,192,303180,1,0,0:0:0:0:
329,192,303230,1,0,0:0:0:0:
182,192,303280,1,0,0:0:0:0:
36,192,303330,1,0,0:0:0:0:
329,192,303380,1,0,0:0:0:0:
182,192,303430,1,0,0:0:0:0:
475,192,303480,1,0,0:0:0:0:
329,192,303530,1,0,0:0:0:0:
109,192,303580,1,0,0:0:0:0:
256,192,303630,1,0,0:0:0:0:
36,192,303680,1,0,0:0:0:0:
402,192,303680,1,0,0:0:0:0:
475,192,303680,1,0,0:0:0:0:
182,192,303680,1,0,0:0:0:0:
329,192,303730,1,0,0:0:0:0:
109,192,303780,1,0,0:0:0:0:
256,192,303830,1,0,0:0:0:0:
402,192,303880,1,0,0:0:0:0:
182,192,303930,1,0,0:0:0:0:
36,192,303980,1,0,0:0:0:0:
475,192,303980,1,0,0:0:0:0:
109,192,303980,1,0,0:0:0:0:
329,192,303980,1,0,0:0:0:0:
256,192,304030,1,0,0:0:0:0:
402,192,304080,1,0,0:0:0:0:
182,192,304130,1,0,0:0:0:0:
329,192,304180,1,0,0:0:0:0:
109,192,304230,1,0,0:0:0:0:
402,192,304280,1,0,0:0:0:0:
475,192,304280,1,0,0:0:0:0:
256,192,304280,1,0,0:0:0:0:
36,192,304280,1,0,0:0:0:0:
182,192,304330,1,0,0:0:0:0:
329,192,304380,1,0,0:0:0:0:
109,192,304430,1,0,0:0:0:0:
182,192,304480,1,0,0:0:0:0:
256,192,304480,1,0,0:0:0:0:
402,192,304480,1,0,0:0:0:0:
475,192,304480,1,0,0:0:0:0:
36,192,304530,1,0,0:0:0:0:
329,192,304580,1,0,0:0:0:0:
182,192,304630,1,0,0:0:0:0:
402,192,304680,1,0,0:0:0:0:
256,192,304730,1,0,0:0:0:0:
329,192,304780,1,0,0:0:0:0:
475,192,304780,1,0,0:0:0:0:
36,192,304780,1,0,0:0:0:0:
109,192,304780,1,0,0:0:0:0:
182,192,304830,1,0,0:0:0:0:
402,192,304880,1,0,0:0:0:0:
329,192,304930,1,0,0:0:0:0:
109,192,304980,1,0,0:0:0:0:
182,192,305030,1,0,0:0:0:0:
256,192,305080,1,0,0:0:0:0:
36,192,305080,1,0,0:0:0:0:
402,192,305080,1,0,0:0:0:0:
475,192,305080,1,0,0:0:0:0:
109,192,305130,1,0,0:0:0:0:
329,192,305180,1,0,0:0:0:0:
182,192,305230,1,0,0:0:0:0:
36,192,305280,1,0,0:0:0:0:
256,192,305280,1,0,0:0:0:0:
475,192,305280,1,0,0:0:0:0:
402,192,305280,1,0,0:0:0:0:
109,192,305330,1,0,0:0:0:0:
329,192,305380,1,0,0:0:0:0:
182,192,305430,1,0,0:0:0:0:
256,192,305480,1,0,0:0:0:0:
402,192,305530,1,0,0:0:0:0:
36,192,305580,1,0,0:0:0:0:
475,192,305580,1,0,0:0:0:0:
109,192,305580,1,0,0:0:0:0:
329,192,305580,1,0,0:0:0:0:
182,192,305630,1,0,0:0:0:0:
256,192,305680,1,0,0:0:0:0:
36,192,305730,1,0,0:0:0:0:
402,192,305780,1,0,0:0:0:0:
182,192,305830,1,0,0:0:0:0:
256,192,305880,1,0,0:0:0:0:
329,192,305880,1,0,0:0:0:0:
475,192,305880,1,0,0:0:0:0:
109,192,305880,1,0,0:0:0:0:
36,192,305930,1,0,0:0:0:0:
182,192,305980,1,0,0:0:0:0:
329,192,306030,1,0,0:0:0:0:
475,192,306080,1,0,0:0:0:0:
402,192,306080,1,0,0:0:0:0:
36,192,306080,1,0,0:0:0:0:
109,192,306105,1,0,0:0:0:0:
182,192,306130,1,0,0:0:0:0:
256,192,306155,1,0,0:0:0:0:
329,192,306180,1,0,0:0:0:0:
109,192,306230,1,0,0:0:0:0:
475,192,306280,1,0,0:0:0:0:
402,192,306280,1,0,0:0:0:0:
36,192,306330,1,0,0:0:0:0:
182,192,306380,1,0,0:0:0:0:
329,192,306380,1,0,0:0:0:0:
109,192,306430,1,0,0:0:0:0:
402,192,306480,1,0,0:0:0:0:
256,192,306480,1,0,0:0:0:0:
182,192,306530,1,0,0:0:0:0:
475,192,306580,1,0,0:0:0:0:
329,192,306580,1,0,0:0:0:0:
256,192,306680,1,0,0:0:0:0:
109,192,306680,1,0,0:0:0:0:
36,192,306680,1,0,0:0:0:0:
402,192,306780,1,0,0:0:0:0:
329,192,306780,1,0,0:0:0:0:
182,192,306780,1,0,0:0:0:0:
109,192,306880,1,0,0:0:0:0:
256,192,306880,1,0,0:0:0:0:
475,192,306880,1,0,0:0:0:0:
36,192,306880,1,0,0:0:0:0:
402,192,306930,1,0,0:0:0:0:
182,192,306980,1,0,0:0:0:0:
329,192,307030,1,0,0:0:0:0:
36,192,307080,1,0,0:0:0:0:
109,192,307130,1,0,0:0:0:0:
182,192,307180,1,0,0:0:0:0:
475,192,307180,1,0,0:0:0:0:
402,192,307180,1,0,0:0:0:0:
256,192,307180,1,0,0:0:0:0:
36,192,307230,1,0,0:0:0:0:
329,192,307280,1,0,0:0:0:0:
109,192,307330,1,0,0:0:0:0:
256,192,307380,1,0,0:0:0:0:
182,192,307430,1,0,0:0:0:0:
402,192,307480,1,0,0:0:0:0:
475,192,307480,1,0,0:0:0:0:
329,192,307480,1,0,0:0:0:0:
36,192,307480,1,0,0:0:0:0:
109,192,307530,1,0,0:0:0:0:
256,192,307580,1,0,0:0:0:0:
402,192,307630,1,0,0:0:0:0:
182,192,307680,1,0,0:0:0:0:
36,192,307680,1,0,0:0:0:0:
329,192,307680,1,0,0:0:0:0:
475,192,307680,1,0,0:0:0:0:
109,192,307730,1,0,0:0:0:0:
256,192,307780,1,0,0:0:0:0:
402,192,307830,1,0,0:0:0:0:
182,192,307880,1,0,0:0:0:0:
329,192,307930,1,0,0:0:0:0:
109,192,307980,1,0,0:0:0:0:
475,192,307980,1,0,0:0:0:0:
36,192,307980,1,0,0:0:0:0:
256,192,307980,1,0,0:0:0:0:
402,192,308030,1,0,0:0:0:0:
182,192,308080,1,0,0:0:0:0:
329,192,308130,1,0,0:0:0:0:
256,192,308180,1,0,0:0:0:0:
109,192,308230,1,0,0:0:0:0:
182,192,308280,1,0,0:0:0:0:
36,192,308280,1,0,0:0:0:0:
402,192,308280,1,0,0:0:0:0:
475,192,308280,1,0,0:0:0:0:
329,192,308330,1,0,0:0:0:0:
109,192,308380,1,0,0:0:0:0:
256,192,308430,1,0,0:0:0:0:
36,192,308480,1,0,0:0:0:0:
329,192,308480,1,0,0:0:0:0:
475,192,308480,1,0,0:0:0:0:
402,192,308480,1,0,0:0:0:0:
182,192,308530,1,0,0:0:0:0:
109,192,308580,1,0,0:0:0:0:
256,192,308630,1,0,0:0:0:0:
402,192,308680,1,0,0:0:0:0:
182,192,308730,1,0,0:0:0:0:
36,192,308780,1,0,0:0:0:0:
475,192,308780,1,0,0:0:0:0:
109,192,308780,1,0,0:0:0:0:
329,192,308780,1,0,0:0:0:0:
256,192,308830,1,0,0:0:0:0:
402,192,308880,1,0,0:0:0:0:
182,192,308930,1,0,0:0:0:0:
36,192,308980,1,0,0:0:0:0:
329,192,309030,1,0,0:0:0:0:
256,192,309080,1,0,0:0:0:0:
402,192,309080,1,0,0:0:0:0:
475,192,309080,1,0,0:0:0:0:
109,192,309080,1,0,0:0:0:0:
36,192,309130,1,0,0:0:0:0:
329,192,309180,1,0,0:0:0:0:
182,192,309230,1,0,0:0:0:0:
475,192,309280,1,0,0:0:0:0:
109,192,309280,1,0,0:0:0:0:
36,192,309280,1,0,0:0:0:0:
402,192,309280,1,0,0:0:0:0:
256,192,309330,1,0,0:0:0:0:
329,192,309380,1,0,0:0:0:0:
182,192,309430,1,0,0:0:0:0:
402,192,309480,1,0,0:0:0:0:
256,192,309530,1,0,0:0:0:0:
109,192,309580,1,0,0:0:0:0:
329,192,309630,1,0,0:0:0:0:
182,192,309680,1,0,0:0:0:0:
36,192,309730,1,0,0:0:0:0:
256,192,309780,1,0,0:0:0:0:
402,192,309830,1,0,0:0:0:0:
109,192,309880,1,0,0:0:0:0:
475,192,309880,1,0,0:0:0:0:
182,192,309930,1,0,0:0:0:0:
36,192,309980,1,0,0:0:0:0:
329,192,309980,1,0,0:0:0:0:
402,192,310030,1,0,0:0:0:0:
182,192,310080,1,0,0:0:0:0:
109,192,310080,1,0,0:0:0:0:
256,192,310080,1,0,0:0:0:0:
475,192,310080,1,0,0:0:0:0:
329,192,310130,1,0,0:0:0:0:
36,192,310180,1,0,0:0:0:0:
402,192,310230,1,0,0:0:0:0:
182,192,310280,1,0,0:0:0:0:
256,192,310330,1,0,0:0:0:0:
109,192,310380,1,0,0:0:0:0:
329,192,310380,1,0,0:0:0:0:
36,192,310380,1,0,0:0:0:0:
475,192,310380,1,0,0:0:0:0:
402,192,310430,1,0,0:0:0:0:
182,192,310480,1,0,0:0:0:0:
329,192,310530,1,0,0:0:0:0:
109,192,310580,1,0,0:0:0:0:
256,192,310630,1,0,0:0:0:0:
182,192,310680,1,0,0:0:0:0:
36,192,310680,1,0,0:0:0:0:
402,192,310680,1,0,0:0:0:0:
475,192,310680,1,0,0:0:0:0:
329,192,310730,1,0,0:0:0:0:
109,192,310780,1,0,0:0:0:0:
256,192,310830,1,0,0:0:0:0:
402,192,310880,1,0,0:0:0:0:
475,192,310880,1,0,0:0:0:0:
182,192,310880,1,0,0:0:0:0:
36,192,310880,1,0,0:0:0:0:
329,192,310930,1,0,0:0:0:0:
109,192,310980,1,0,0:0:0:0:
256,192,311030,1,0,0:0:0:0:
402,192,311080,1,0,0:0:0:0:
182,192,311130,1,0,0:0:0:0:
36,192,311180,1,0,0:0:0:0:
256,192,311180,1,0,0:0:0:0:
329,192,311180,1,0,0:0:0:0:
475,192,311180,1,0,0:0:0:0:
109,192,311230,1,0,0:0:0:0:
182,192,311280,1,0,0:0:0:0:
402,192,311330,1,0,0:0:0:0:
329,192,311380,1,0,0:0:0:0:
109,192,311430,1,0,0:0:0:0:
402,192,311480,1,0,0:0:0:0:
475,192,311480,1,0,0:0:0:0:
182,192,311480,1,0,0:0:0:0:
36,192,311480,1,0,0:0:0:0:
256,192,311530,1,0,0:0:0:0:
329,192,311580,1,0,0:0:0:0:
109,192,311630,1,0,0:0:0:0:
475,192,311680,1,0,0:0:0:0:
182,192,311680,1,0,0:0:0:0:
36,192,311680,1,0,0:0:0:0:
402,192,311680,1,0,0:0:0:0:
329,192,311730,1,0,0:0:0:0:
256,192,311780,1,0,0:0:0:0:
109,192,311830,1,0,0:0:0:0:
182,192,311880,1,0,0:0:0:0:
329,192,311930,1,0,0:0:0:0:
109,192,311980,1,0,0:0:0:0:
402,192,311980,1,0,0:0:0:0:
36,192,311980,1,0,0:0:0:0:
475,192,311980,1,0,0:0:0:0:
256,192,312030,1,0,0:0:0:0:
329,192,312080,1,0,0:0:0:0:
182,192,312130,1,0,0:0:0:0:
402,192,312180,1,0,0:0:0:0:
36,192,312230,1,0,0:0:0:0:
475,192,312280,1,0,0:0:0:0:
109,192,312280,1,0,0:0:0:0:
256,192,312280,1,0,0:0:0:0:
329,192,312280,1,0,0:0:0:0:
182,192,312330,1,0,0:0:0:0:
402,192,312380,1,0,0:0:0:0:
329,192,312430,1,0,0:0:0:0:
36,192,312480,1,0,0:0:0:0:
109,192,312480,1,0,0:0:0:0:
475,192,312480,1,0,0:0:0:0:
256,192,312480,1,0,0:0:0:0:
182,192,312530,1,0,0:0:0:0:
402,192,312580,1,0,0:0:0:0:
329,192,312630,1,0,0:0:0:0:
36,192,312680,1,0,0:0:0:0:
182,192,312730,1,0,0:0:0:0:
402,192,312780,1,0,0:0:0:0:
256,192,312830,1,0,0:0:0:0:
475,192,312880,1,0,0:0:0:0:
36,192,312880,1,0,0:0:0:0:
109,192,312880,1,0,0:0:0:0:
402,192,312930,1,0,0:0:0:0:
329,192,312930,1,0,0:0:0:0:
256,192,312980,1,0,0:0:0:0:
182,192,312980,1,0,0:0:0:0:
36,192,313030,1,0,0:0:0:0:
109,192,313030,1,0,0:0:0:0:
475,192,313080,1,0,0:0:0:0:
402,192,313080,1,0,0:0:0:0:
329,192,313080,1,0,0:0:0:0:
109,192,313130,1,0,0:0:0:0:
36,192,313130,1,0,0:0:0:0:
256,192,313180,1,0,0:0:0:0:
182,192,313180,1,0,0:0:0:0:
402,192,313230,1,0,0:0:0:0:
329,192,313230,1,0,0:0:0:0:
109,192,313280,1,0,0:0:0:0:
182,192,313280,1,0,0:0:0:0:
475,192,313280,1,0,0:0:0:0:
36,192,313280,1,0,0:0:0:0:
256,192,313330,1,0,0:0:0:0:
402,192,313380,1,0,0:0:0:0:
329,192,313430,1,0,0:0:0:0:
182,192,313480,1,0,0:0:0:0:
36,192,313530,1,0,0:0:0:0:
475,192,313580,1,0,0:0:0:0:
402,192,313580,1,0,0:0:0:0:
256,192,313580,1,0,0:0:0:0:
109,192,313580,1,0,0:0:0:0:
329,192,313630,1,0,0:0:0:0:
182,192,313680,1,0,0:0:0:0:
36,192,313730,1,0,0:0:0:0:
256,192,313780,1,0,0:0:0:0:
475,192,313830,1,0,0:0:0:0:
329,192,313880,1,0,0:0:0:0:
402,192,313880,1,0,0:0:0:0:
109,192,313880,1,0,0:0:0:0:
182,192,313880,1,0,0:0:0:0:
36,192,313930,1,0,0:0:0:0:
256,192,313980,1,0,0:0:0:0:
182,192,314030,1,0,0:0:0:0:
402,192,314080,1,0,0:0:0:0:
329,192,314080,1,0,0:0:0:0:
109,192,314080,1,0,0:0:0:0:
475,192,314080,1,0,0:0:0:0:
36,192,314130,1,0,0:0:0:0:
256,192,314180,1,0,0:0:0:0:
182,192,314230,1,0,0:0:0:0:
402,192,314280,1,0,0:0:0:0:
329,192,314330,1,0,0:0:0:0:
109,192,314380,1,0,0:0:0:0:
36,192,314430,1,0,0:0:0:0:
475,192,314480,1,0,0:0:0:0:
402,192,314480,1,0,0:0:0:0:
256,192,314480,1,0,0:0:0:0:
182,192,314530,1,0,0:0:0:0:
329,192,314580,1,0,0:0:0:0:
109,192,314630,1,0,0:0:0:0:
256,192,314680,1,0,0:0:0:0:
402,192,314730,1,0,0:0:0:0:
182,192,314780,1,0,0:0:0:0:
329,192,314830,1,0,0:0:0:0:
256,192,314880,1,0,0:0:0:0:
475,192,314880,1,0,0:0:0:0:
36,192,314880,1,0,0:0:0:0:
109,192,314880,1,0,0:0:0:0:
402,192,314930,1,0,0:0:0:0:
182,192,314980,1,0,0:0:0:0:
329,192,315030,1,0,0:0:0:0:
36,192,315080,1,0,0:0:0:0:
109,192,315130,1,0,0:0:0:0:
402,192,315180,1,0,0:0:0:0:
182,192,315180,1,0,0:0:0:0:
256,192,315180,1,0,0:0:0:0:
475,192,315180,1,0,0:0:0:0:
36,192,315230,1,0,0:0:0:0:
329,192,315280,1,0,0:0:0:0:
109,192,315330,1,0,0:0:0:0:
256,192,315380,1,0,0:0:0:0:
182,192,315430,1,0,0:0:0:0:
475,192,315480,1,0,0:0:0:0:
329,192,315480,1,0,0:0:0:0:
36,192,315480,1,0,0:0:0:0:
402,192,315480,1,0,0:0:0:0:
109,192,315530,1,0,0:0:0:0:
256,192,315580,1,0,0:0:0:0:
402,192,315630,1,0,0:0:0:0:
109,192,315680,1,0,0:0:0:0:
36,192,315680,1,0,0:0:0:0:
475,192,315680,1,0,0:0:0:0:
182,192,315680,1,0,0:0:0:0:
329,192,315730,1,0,0:0:0:0:
256,192,315780,1,0,0:0:0:0:
36,192,315830,1,0,0:0:0:0:
182,192,315880,1,0,0:0:0:0:
402,192,315930,1,0,0:0:0:0:
329,192,315980,1,0,0:0:0:0:
109,192,316030,1,0,0:0:0:0:
256,192,316080,1,0,0:0:0:0:
475,192,316130,1,0,0:0:0:0:
182,192,316180,1,0,0:0:0:0:
402,192,316230,1,0,0:0:0:0:
329,192,316280,1,0,0:0:0:0:
36,192,316280,1,0,0:0:0:0:
109,192,316330,1,0,0:0:0:0:
475,192,316380,1,0,0:0:0:0:
256,192,316380,1,0,0:0:0:0:
182,192,316430,1,0,0:0:0:0:
475,192,316480,1,0,0:0:0:0:
36,192,316480,1,0,0:0:0:0:
109,192,316480,1,0,0:0:0:0:
402,192,316480,1,0,0:0:0:0:
329,192,316530,1,0,0:0:0:0:
182,192,316580,1,0,0:0:0:0:
36,192,316630,1,0,0:0:0:0:
256,192,316680,1,0,0:0:0:0:
402,192,316730,1,0,0:0:0:0:
109,192,316780,1,0,0:0:0:0:
329,192,316780,1,0,0:0:0:0:
36,192,316780,1,0,0:0:0:0:
475,192,316780,1,0,0:0:0:0:
182,192,316830,1,0,0:0:0:0:
256,192,316880,1,0,0:0:0:0:
402,192,316930,1,0,0:0:0:0:
109,192,316980,1,0,0:0:0:0:
329,192,317030,1,0,0:0:0:0:
256,192,317080,1,0,0:0:0:0:
36,192,317080,1,0,0:0:0:0:
182,192,317080,1,0,0:0:0:0:
475,192,317080,1,0,0:0:0:0:
402,192,317130,1,0,0:0:0:0:
109,192,317180,1,0,0:0:0:0:
329,192,317230,1,0,0:0:0:0:
256,192,317280,1,0,0:0:0:0:
475,192,317280,1,0,0:0:0:0:
182,192,317280,1,0,0:0:0:0:
36,192,317280,1,0,0:0:0:0:
402,192,317330,1,0,0:0:0:0:
109,192,317380,1,0,0:0:0:0:
329,192,317430,1,0,0:0:0:0:
182,192,317480,1,0,0:0:0:0:
36,192,317530,1,0,0:0:0:0:
109,192,317580,1,0,0:0:0:0:
256,192,317580,1,0,0:0:0:0:
402,192,317580,1,0,0:0:0:0:
475,192,317580,1,0,0:0:0:0:
329,192,317630,1,0,0:0:0:0:
182,192,317680,1,0,0:0:0:0:
36,192,317730,1,0,0:0:0:0:
256,192,317780,1,0,0:0:0:0:
402,192,317830,1,0,0:0:0:0:
109,192,317880,1,0,0:0:0:0:
475,192,317880,1,0,0:0:0:0:
329,192,317880,1,0,0:0:0:0:
36,192,317880,1,0,0:0:0:0:
182,192,317930,1,0,0:0:0:0:
256,192,317980,1,0,0:0:0:0:
36,192,318030,1,0,0:0:0:0:
475,192,318080,1,0,0:0:0:0:
329,192,318080,1,0,0:0:0:0:
109,192,318080,1,0,0:0:0:0:
402,192,318080,1,0,0:0:0:0:
182,192,318130,1,0,0:0:0:0:
256,192,318180,1,0,0:0:0:0:
475,192,318230,1,0,0:0:0:0:
329,192,318280,1,0,0:0:0:0:
182,192,318330,1,0,0:0:0:0:
109,192,318380,1,0,0:0:0:0:
402,192,318380,1,0,0:0:0:0:
36,192,318380,1,0,0:0:0:0:
475,192,318380,1,0,0:0:0:0:
256,192,318430,1,0,0:0:0:0:
329,192,318480,1,0,0:0:0:0:
182,192,318530,1,0,0:0:0:0:
36,192,318580,1,0,0:0:0:0:
109,192,318630,1,0,0:0:0:0:
475,192,318680,1,0,0:0:0:0:
256,192,318680,1,0,0:0:0:0:
329,192,318680,1,0,0:0:0:0:
402,192,318680,1,0,0:0:0:0:
182,192,318730,1,0,0:0:0:0:
36,192,318780,1,0,0:0:0:0:
109,192,318830,1,0,0:0:0:0:
402,192,318880,1,0,0:0:0:0:
329,192,318880,1,0,0:0:0:0:
475,192,318880,1,0,0:0:0:0:
256,192,318930,1,0,0:0:0:0:
182,192,318980,1,0,0:0:0:0:
36,192,318980,1,0,0:0:0:0:
329,192,319030,1,0,0:0:0:0:
109,192,319080,1,0,0:0:0:0:
475,192,319080,1,0,0:0:0:0:
256,192,319130,1,0,0:0:0:0:
402,192,319180,1,0,0:0:0:0:
329,192,319180,1,0,0:0:0:0:
475,192,319230,1,0,0:0:0:0:
36,192,319280,1,0,0:0:0:0:
109,192,319305,1,0,0:0:0:0:
182,192,319330,1,0,0:0:0:0:
256,192,319355,1,0,0:0:0:0:
329,192,319380,1,0,0:0:0:0:
402,192,319405,1,0,0:0:0:0:
36,192,319430,1,0,0:0:0:0:
475,192,319430,1,0,0:0:0:0:
109,192,319455,1,0,0:0:0:0:
182,192,319480,1,0,0:0:0:0:
256,192,319505,1,0,0:0:0:0:
329,192,319530,1,0,0:0:0:0:
402,192,319555,1,0,0:0:0:0:
36,192,319580,1,0,0:0:0:0:
475,192,319580,1,0,0:0:0:0:
109,192,319605,1,0,0:0:0:0:
182,192,319630,1,0,0:0:0:0:
256,192,319655,1,0,0:0:0:0:
329,192,319680,1,0,0:0:0:0:
475,192,319680,1,0,0:0:0:0:
402,192,319680,1,0,0:0:0:0:
36,192,319730,1,0,0:0:0:0:
329,192,319780,1,0,0:0:0:0:
109,192,319780,1,0,0:0:0:0:
182,192,319830,1,0,0:0:0:0:
475,192,319880,1,0,0:0:0:0:
256,192,319880,1,0,0:0:0:0:
402,192,319880,1,0,0:0:0:0:
109,192,319930,1,0,0:0:0:0:
36,192,319980,1,0,0:0:0:0:
329,192,319980,1,0,0:0:0:0:
182,192,320030,1,0,0:0:0:0:
402,192,320080,1,0,0:0:0:0:
256,192,320080,1,0,0:0:0:0:
475,192,320080,1,0,0:0:0:0:
109,192,320130,1,0,0:0:0:0:
329,192,320180,1,0,0:0:0:0:
182,192,320230,1,0,0:0:0:0:
256,192,320280,1,0,0:0:0:0:
475,192,320280,1,0,0:0:0:0:
36,192,320280,1,0,0:0:0:0:
402,192,320330,1,0,0:0:0:0:
329,192,320380,1,0,0:0:0:0:
182,192,320380,1,0,0:0:0:0:
36,192,320430,1,0,0:0:0:0:
475,192,320480,1,0,0:0:0:0:
109,192,320480,1,0,0:0:0:0:
402,192,320480,1,0,0:0:0:0:
256,192,320530,1,0,0:0:0:0:
329,192,320580,1,0,0:0:0:0:
182,192,320580,1,0,0:0:0:0:
36,192,320630,1,0,0:0:0:0:
109,192,320680,1,0,0:0:0:0:
475,192,320680,1,0,0:0:0:0:
402,192,320680,1,0,0:0:0:0:
256,192,320730,1,0,0:0:0:0:
182,192,320780,1,0,0:0:0:0:
329,192,320780,1,0,0:0:0:0:
402,192,320830,1,0,0:0:0:0:
109,192,320880,1,0,0:0:0:0:
475,192,320880,1,0,0:0:0:0:
36,192,320880,1,0,0:0:0:0:
182,192,320930,1,0,0:0:0:0:
402,192,320980,1,0,0:0:0:0:
256,192,320980,1,0,0:0:0:0:
36,192,321030,1,0,0:0:0:0:
109,192,321080,1,0,0:0:0:0:
329,192,321080,1,0,0:0:0:0:
475,192,321080,1,0,0:0:0:0:
182,192,321130,1,0,0:0:0:0:
256,192,321180,1,0,0:0:0:0:
402,192,321180,1,0,0:0:0:0:
475,192,321230,1,0,0:0:0:0:
329,192,321280,1,0,0:0:0:0:
109,192,321280,1,0,0:0:0:0:
36,192,321280,1,0,0:0:0:0:
256,192,321330,1,0,0:0:0:0:
475,192,321380,1,0,0:0:0:0:
182,192,321380,1,0,0:0:0:0:
402,192,321430,1,0,0:0:0:0:
329,192,321480,1,0,0:0:0:0:
36,192,321480,1,0,0:0:0:0:
256,192,321480,1,0,0:0:0:0:
109,192,321530,1,0,0:0:0:0:
402,192,321580,1,0,0:0:0:0:
182,192,321630,1,0,0:0:0:0:
36,192,321680,1,0,0:0:0:0:
256,192,321680,1,0,0:0:0:0:
329,192,321680,1,0,0:0:0:0:
475,192,321730,1,0,0:0:0:0:
402,192,321780,1,0,0:0:0:0:
109,192,321780,1,0,0:0:0:0:
182,192,321830,1,0,0:0:0:0:
36,192,321880,1,0,0:0:0:0:
475,192,321880,1,0,0:0:0:0:
329,192,321880,1,0,0:0:0:0:
256,192,321930,1,0,0:0:0:0:
182,192,321980,1,0,0:0:0:0:
109,192,321980,1,0,0:0:0:0:
402,192,322030,1,0,0:0:0:0:
36,192,322080,1,0,0:0:0:0:
329,192,322080,1,0,0:0:0:0:
475,192,322080,1,0,0:0:0:0:
182,192,322130,1,0,0:0:0:0:
109,192,322180,1,0,0:0:0:0:
402,192,322180,1,0,0:0:0:0:
329,192,322230,1,0,0:0:0:0:
36,192,322280,1,0,0:0:0:0:
182,192,322280,1,0,0:0:0:0:
475,192,322280,1,0,0:0:0:0:
256,192,322330,1,0,0:0:0:0:
402,192,322380,1,0,0:0:0:0:
109,192,322380,1,0,0:0:0:0:
329,192,322430,1,0,0:0:0:0:
36,192,322480,1,0,0:0:0:0:
182,192,322480,1,0,0:0:0:0:
475,192,322480,1,0,0:0:0:0:
402,192,322530,1,0,0:0:0:0:
109,192,322580,1,0,0:0:0:0:
256,192,322580,1,0,0:0:0:0:
329,192,322630,1,0,0:0:0:0:
36,192,322680,1,0,0:0:0:0:
475,192,322680,1,0,0:0:0:0:
402,192,322680,1,0,0:0:0:0:
109,192,322730,1,0,0:0:0:0:
182,192,322780,1,0,0:0:0:0:
329,192,322780,1,0,0:0:0:0:
256,192,322830,1,0,0:0:0:0:
475,192,322880,1,0,0:0:0:0:
109,192,322880,1,0,0:0:0:0:
36,192,322880,1,0,0:0:0:0:
182,192,322930,1,0,0:0:0:0:
402,192,322980,1,0,0:0:0:0:
329,192,322980,1,0,0:0:0:0:
475,192,323030,1,0,0:0:0:0:
36,192,323080,1,0,0:0:0:0:
109,192,323080,1,0,0:0:0:0:
256,192,323080,1,0,0:0:0:0:
402,192,323130,1,0,0:0:0:0:
182,192,323180,1,0,0:0:0:0:
329,192,323180,1,0,0:0:0:0:
36,192,323230,1,0,0:0:0:0:
256,192,323280,1,0,0:0:0:0:
402,192,323280,1,0,0:0:0:0:
475,192,323280,1,0,0:0:0:0:
109,192,323330,1,0,0:0:0:0:
329,192,323380,1,0,0:0:0:0:
182,192,323380,1,0,0:0:0:0:
36,192,323430,1,0,0:0:0:0:
256,192,323480,1,0,0:0:0:0:
475,192,323480,1,0,0:0:0:0:
402,192,323480,1,0,0:0:0:0:
109,192,323530,1,0,0:0:0:0:
36,192,323580,1,0,0:0:0:0:
182,192,323580,1,0,0:0:0:0:
256,192,323630,1,0,0:0:0:0:
329,192,323680,1,0,0:0:0:0:
109,192,323680,1,0,0:0:0:0:
402,192,323680,1,0,0:0:0:0:
475,192,323730,1,0,0:0:0:0:
182,192,323780,1,0,0:0:0:0:
256,192,323780,1,0,0:0:0:0:
402,192,323830,1,0,0:0:0:0:
329,192,323880,1,0,0:0:0:0:
109,192,323880,1,0,0:0:0:0:
36,192,323880,1,0,0:0:0:0:
475,192,323930,1,0,0:0:0:0:
402,192,323980,1,0,0:0:0:0:
256,192,323980,1,0,0:0:0:0:
182,192,324030,1,0,0:0:0:0:
329,192,324080,1,0,0:0:0:0:
36,192,324080,1,0,0:0:0:0:
109,192,324080,1,0,0:0:0:0:
475,192,324130,1,0,0:0:0:0:
402,192,324180,1,0,0:0:0:0:
256,192,324180,1,0,0:0:0:0:
182,192,324230,1,0,0:0:0:0:
109,192,324280,1,0,0:0:0:0:
329,192,324280,1,0,0:0:0:0:
475,192,324280,1,0,0:0:0:0:
36,192,324330,1,0,0:0:0:0:
402,192,324380,1,0,0:0:0:0:
182,192,324380,1,0,0:0:0:0:
256,192,324430,1,0,0:0:0:0:
109,192,324480,1,0,0:0:0:0:
329,192,324480,1,0,0:0:0:0:
475,192,324480,1,0,0:0:0:0:
182,192,324530,1,0,0:0:0:0:
256,192,324580,1,0,0:0:0:0:
36,192,324580,1,0,0:0:0:0:
402,192,324630,1,0,0:0:0:0:
109,192,324680,1,0,0:0:0:0:
329,192,324680,1,0,0:0:0:0:
475,192,324680,1,0,0:0:0:0:
256,192,324730,1,0,0:0:0:0:
402,192,324780,1,0,0:0:0:0:
182,192,324780,1,0,0:0:0:0:
475,192,324830,1,0,0:0:0:0:
36,192,324880,1,0,0:0:0:0:
109,192,324880,1,0,0:0:0:0:
329,192,324880,1,0,0:0:0:0:
256,192,324930,1,0,0:0:0:0:
182,192,324980,1,0,0:0:0:0:
475,192,324980,1,0,0:0:0:0:
329,192,325030,1,0,0:0:0:0:
36,192,325080,1,0,0:0:0:0:
109,192,325080,1,0,0:0:0:0:
402,192,325080,1,0,0:0:0:0:
182,192,325130,1,0,0:0:0:0:
475,192,325180,1,0,0:0:0:0:
256,192,325180,1,0,0:0:0:0:
109,192,325230,1,0,0:0:0:0:
36,192,325280,1,0,0:0:0:0:
402,192,325280,1,0,0:0:0:0:
329,192,325280,1,0,0:0:0:0:
182,192,325330,1,0,0:0:0:0:
109,192,325380,1,0,0:0:0:0:
256,192,325380,1,0,0:0:0:0:
329,192,325430,1,0,0:0:0:0:
402,192,325480,1,0,0:0:0:0:
475,192,325480,1,0,0:0:0:0:
36,192,325480,1,0,0:0:0:0:
109,192,325505,1,0,0:0:0:0:
182,192,325530,1,0,0:0:0:0:
256,192,325555,1,0,0:0:0:0:
402,192,325580,1,0,0:0:0:0:
329,192,325580,1,0,0:0:0:0:
475,192,325630,1,0,0:0:0:0:
36,192,325630,1,0,0:0:0:0:
182,192,325680,1,0,0:0:0:0:
109,192,325680,1,0,0:0:0:0:
256,192,325730,1,0,0:0:0:0:
475,192,325780,1,0,0:0:0:0:
36,192,325780,1,0,0:0:0:0:
329,192,325780,1,0,0:0:0:0:
402,192,325780,1,0,0:0:0:0:
109,192,325830,1,0,0:0:0:0:
256,192,325880,1,0,0:0:0:0:
182,192,325880,1,0,0:0:0:0:
329,192,325980,1,0,0:0:0:0:
475,192,325980,1,0,0:0:0:0:
402,192,325980,1,0,0:0:0:0:
36,192,326030,1,0,0:0:0:0:
182,192,326030,1,0,0:0:0:0:
109,192,326030,1,0,0:0:0:0:
475,192,326080,1,0,0:0:0:0:
402,192,326080,1,0,0:0:0:0:
329,192,326080,1,0,0:0:0:0:
256,192,326130,1,0,0:0:0:0:
182,192,326180,1,0,0:0:0:0:
109,192,326180,1,0,0:0:0:0:
475,192,326230,1,0,0:0:0:0:
329,192,326280,1,0,0:0:0:0:
36,192,326280,1,0,0:0:0:0:
402,192,326280,1,0,0:0:0:0:
182,192,326330,1,0,0:0:0:0:
256,192,326380,1,0,0:0:0:0:
109,192,326430,1,0,0:0:0:0:
36,192,326480,1,0,0:0:0:0:
475,192,326480,1,0,0:0:0:0:
402,192,326480,1,0,0:0:0:0:
182,192,326530,1,0,0:0:0:0:
109,192,326580,1,0,0:0:0:0:
329,192,326580,1,0,0:0:0:0:
256,192,326630,1,0,0:0:0:0:
182,192,326680,1,0,0:0:0:0:
402,192,326680,1,0,0:0:0:0:
475,192,326680,1,0,0:0:0:0:
36,192,326730,1,0,0:0:0:0:
329,192,326780,1,0,0:0:0:0:
109,192,326780,1,0,0:0:0:0:
182,192,326830,1,0,0:0:0:0:
475,192,326880,1,0,0:0:0:0:
402,192,326880,1,0,0:0:0:0:
256,192,326880,1,0,0:0:0:0:
36,192,326930,1,0,0:0:0:0:
329,192,326980,1,0,0:0:0:0:
109,192,326980,1,0,0:0:0:0:
475,192,327030,1,0,0:0:0:0:
402,192,327080,1,0,0:0:0:0:
36,192,327080,1,0,0:0:0:0:
256,192,327080,1,0,0:0:0:0:
182,192,327130,1,0,0:0:0:0:
329,192,327180,1,0,0:0:0:0:
109,192,327180,1,0,0:0:0:0:
475,192,327230,1,0,0:0:0:0:
182,192,327280,1,0,0:0:0:0:
36,192,327280,1,0,0:0:0:0:
402,192,327280,1,0,0:0:0:0:
256,192,327330,1,0,0:0:0:0:
109,192,327380,1,0,0:0:0:0:
329,192,327380,1,0,0:0:0:0:
475,192,327430,1,0,0:0:0:0:
182,192,327480,1,0,0:0:0:0:
36,192,327480,1,0,0:0:0:0:
402,192,327480,1,0,0:0:0:0:
329,192,327530,1,0,0:0:0:0:
475,192,327580,1,0,0:0:0:0:
256,192,327580,1,0,0:0:0:0:
109,192,327630,1,0,0:0:0:0:
182,192,327680,1,0,0:0:0:0:
402,192,327680,1,0,0:0:0:0:
329,192,327680,1,0,0:0:0:0:
36,192,327730,1,0,0:0:0:0:
109,192,327780,1,0,0:0:0:0:
256,192,327780,1,0,0:0:0:0:
329,192,327830,1,0,0:0:0:0:
182,192,327880,1,0,0:0:0:0:
475,192,327880,1,0,0:0:0:0:
402,192,327880,1,0,0:0:0:0:
36,192,327930,1,0,0:0:0:0:
256,192,327980,1,0,0:0:0:0:
329,192,327980,1,0,0:0:0:0:
109,192,328030,1,0,0:0:0:0:
475,192,328080,1,0,0:0:0:0:
402,192,328080,1,0,0:0:0:0:
182,192,328080,1,0,0:0:0:0:
329,192,328130,1,0,0:0:0:0:
36,192,328180,1,0,0:0:0:0:
256,192,328180,1,0,0:0:0:0:
109,192,328230,1,0,0:0:0:0:
475,192,328280,1,0,0:0:0:0:
182,192,328280,1,0,0:0:0:0:
329,192,328280,1,0,0:0:0:0:
36,192,328330,1,0,0:0:0:0:
256,192,328380,1,0,0:0:0:0:
402,192,328380,1,0,0:0:0:0:
182,192,328430,1,0,0:0:0:0:
36,192,328480,1,0,0:0:0:0:
109,192,328480,1,0,0:0:0:0:
329,192,328480,1,0,0:0:0:0:
475,192,328530,1,0,0:0:0:0:
182,192,328580,1,0,0:0:0:0:
402,192,328580,1,0,0:0:0:0:
256,192,328630,1,0,0:0:0:0:
329,192,328680,1,0,0:0:0:0:
36,192,328680,1,0,0:0:0:0:
109,192,328680,1,0,0:0:0:0:
475,192,328730,1,0,0:0:0:0:
402,192,328780,1,0,0:0:0:0:
182,192,328780,1,0,0:0:0:0:
256,192,328830,1,0,0:0:0:0:
36,192,328880,1,0,0:0:0:0:
475,192,328880,1,0,0:0:0:0:
329,192,328880,1,0,0:0:0:0:
109,192,328930,1,0,0:0:0:0:
256,192,328980,1,0,0:0:0:0:
182,192,328980,1,0,0:0:0:0:
402,192,329030,1,0,0:0:0:0:
36,192,329080,1,0,0:0:0:0:
329,192,329080,1,0,0:0:0:0:
475,192,329080,1,0,0:0:0:0:
182,192,329130,1,0,0:0:0:0:
256,192,329180,1,0,0:0:0:0:
109,192,329180,1,0,0:0:0:0:
402,192,329230,1,0,0:0:0:0:
36,192,329280,1,0,0:0:0:0:
475,192,329280,1,0,0:0:0:0:
182,192,329280,1,0,0:0:0:0:
329,192,329330,1,0,0:0:0:0:
109,192,329380,1,0,0:0:0:0:
402,192,329430,1,0,0:0:0:0:
36,192,329480,1,0,0:0:0:0:
182,192,329480,1,0,0:0:0:0:
475,192,329480,1,0,0:0:0:0:
256,192,329530,1,0,0:0:0:0:
109,192,329580,1,0,0:0:0:0:
402,192,329580,1,0,0:0:0:0:
256,192,329630,1,0,0:0:0:0:
329,192,329680,1,0,0:0:0:0:
475,192,329680,1,0,0:0:0:0:
182,192,329680,1,0,0:0:0:0:
36,192,329730,1,0,0:0:0:0:
402,192,329780,1,0,0:0:0:0:
109,192,329780,1,0,0:0:0:0:
329,192,329830,1,0,0:0:0:0:
256,192,329880,1,0,0:0:0:0:
36,192,329880,1,0,0:0:0:0:
475,192,329880,1,0,0:0:0:0:
182,192,329930,1,0,0:0:0:0:
329,192,329980,1,0,0:0:0:0:
402,192,329980,1,0,0:0:0:0:
109,192,330030,1,0,0:0:0:0:
36,192,330080,1,0,0:0:0:0:
475,192,330080,1,0,0:0:0:0:
256,192,330080,1,0,0:0:0:0:
329,192,330130,1,0,0:0:0:0:
109,192,330180,1,0,0:0:0:0:
402,192,330180,1,0,0:0:0:0:
182,192,330230,1,0,0:0:0:0:
36,192,330280,1,0,0:0:0:0:
256,192,330280,1,0,0:0:0:0:
329,192,330280,1,0,0:0:0:0:
475,192,330330,1,0,0:0:0:0:
109,192,330380,1,0,0:0:0:0:
182,192,330380,1,0,0:0:0:0:
402,192,330430,1,0,0:0:0:0:
256,192,330480,1,0,0:0:0:0:
36,192,330480,1,0,0:0:0:0:
329,192,330480,1,0,0:0:0:0:
109,192,330530,1,0,0:0:0:0:
475,192,330580,1,0,0:0:0:0:
182,192,330580,1,0,0:0:0:0:
402,192,330630,1,0,0:0:0:0:
109,192,330680,1,0,0:0:0:0:
329,192,330680,1,0,0:0:0:0:
36,192,330680,1,0,0:0:0:0:
256,192,330730,1,0,0:0:0:0:
475,192,330780,1,0,0:0:0:0:
182,192,330780,1,0,0:0:0:0:
329,192,330830,1,0,0:0:0:0:
109,192,330880,1,0,0:0:0:0:
36,192,330880,1,0,0:0:0:0:
402,192,330880,1,0,0:0:0:0:
256,192,330930,1,0,0:0:0:0:
182,192,330980,1,0,0:0:0:0:
475,192,330980,1,0,0:0:0:0:
329,192,331030,1,0,0:0:0:0:
36,192,331080,1,0,0:0:0:0:
256,192,331080,1,0,0:0:0:0:
109,192,331080,1,0,0:0:0:0:
402,192,331130,1,0,0:0:0:0:
182,192,331180,1,0,0:0:0:0:
475,192,331180,1,0,0:0:0:0:
256,192,331230,1,0,0:0:0:0:
329,192,331280,1,0,0:0:0:0:
402,192,331280,1,0,0:0:0:0:
109,192,331280,1,0,0:0:0:0:
36,192,331330,1,0,0:0:0:0:
475,192,331380,1,0,0:0:0:0:
182,192,331380,1,0,0:0:0:0:
402,192,331430,1,0,0:0:0:0:
36,192,331480,1,0,0:0:0:0:
109,192,331480,1,0,0:0:0:0:
256,192,331480,1,0,0:0:0:0:
329,192,331530,1,0,0:0:0:0:
475,192,331580,1,0,0:0:0:0:
182,192,331580,1,0,0:0:0:0:
256,192,331630,1,0,0:0:0:0:
475,192,331680,1,0,0:0:0:0:
402,192,331680,1,0,0:0:0:0:
329,192,331680,1,0,0:0:0:0:
36,192,331730,1,0,0:0:0:0:
109,192,331730,1,0,0:0:0:0:
256,192,331780,1,0,0:0:0:0:
182,192,331780,1,0,0:0:0:0:
402,192,331830,1,0,0:0:0:0:
329,192,331830,1,0,0:0:0:0:
36,192,331880,1,0,0:0:0:0:
475,192,331880,1,0,0:0:0:0:
182,192,331930,1,0,0:0:0:0:
109,192,331930,1,0,0:0:0:0:
329,192,331980,1,0,0:0:0:0:
256,192,331980,1,0,0:0:0:0:
475,192,332030,1,0,0:0:0:0:
402,192,332030,1,0,0:0:0:0:
109,192,332080,1,0,0:0:0:0:
36,192,332080,1,0,0:0:0:0:
182,192,332105,1,0,0:0:0:0:
256,192,332130,1,0,0:0:0:0:
329,192,332155,1,0,0:0:0:0:
402,192,332180,1,0,0:0:0:0:
36,192,332205,1,0,0:0:0:0:
475,192,332205,1,0,0:0:0:0:
109,192,332230,1,0,0:0:0:0:
182,192,332255,1,0,0:0:0:0:
256,192,332280,1,0,0:0:0:0:
329,192,332305,1,0,0:0:0:0:
402,192,332330,1,0,0:0:0:0:
36,192,332355,1,0,0:0:0:0:
475,192,332355,1,0,0:0:0:0:
109,192,332380,1,0,0:0:0:0:
182,192,332405,1,0,0:0:0:0:
256,192,332430,1,0,0:0:0:0:
329,192,332455,1,0,0:0:0:0:
36,192,332480,1,0,0:0:0:0:
475,192,332480,1,0,0:0:0:0:
402,192,332480,1,0,0:0:0:0:
109,192,332580,1,0,0:0:0:0:
329,192,332680,1,0,0:0:0:0:
402,192,332680,1,0,0:0:0:0:
109,192,332780,1,0,0:0:0:0:
182,192,332980,1,0,0:0:0:0:
402,192,333080,1,0,0:0:0:0:
329,192,333080,1,0,0:0:0:0:
182,192,333180,1,0,0:0:0:0:
475,192,333280,1,0,0:0:0:0:
402,192,333280,1,0,0:0:0:0:
256,192,333280,1,0,0:0:0:0:
109,192,333380,1,0,0:0:0:0:
329,192,333480,1,0,0:0:0:0:
182,192,333480,1,0,0:0:0:0:
402,192,333580,1,0,0:0:0:0:
256,192,333680,1,0,0:0:0:0:
109,192,333680,1,0,0:0:0:0:
36,192,333680,1,0,0:0:0:0:
329,192,333780,1,0,0:0:0:0:
182,192,333880,1,0,0:0:0:0:
329,192,333980,1,0,0:0:0:0:
109,192,334080,1,0,0:0:0:0:
475,192,334080,1,0,0:0:0:0:
402,192,334080,1,0,0:0:0:0:
182,192,334180,1,0,0:0:0:0:
402,192,334280,1,0,0:0:0:0:
329,192,334280,1,0,0:0:0:0:
182,192,334380,1,0,0:0:0:0:
182,192,334580,1,0,0:0:0:0:
402,192,334680,1,0,0:0:0:0:
329,192,334680,1,0,0:0:0:0:
182,192,334780,1,0,0:0:0:0:
402,192,334880,1,0,0:0:0:0:
36,192,334880,1,0,0:0:0:0:
256,192,334880,1,0,0:0:0:0:
109,192,334980,1,0,0:0:0:0:
329,192,335080,1,0,0:0:0:0:
182,192,335080,1,0,0:0:0:0:
36,192,335180,1,0,0:0:0:0:
402,192,335280,1,0,0:0:0:0:
256,192,335280,1,0,0:0:0:0:
109,192,335380,1,0,0:0:0:0:
182,192,335480,1,0,0:0:0:0:
109,192,335580,1,0,0:0:0:0:
475,192,335680,1,0,0:0:0:0:
402,192,335680,1,0,0:0:0:0:
256,192,335680,1,0,0:0:0:0:
36,192,335780,1,0,0:0:0:0:
182,192,335880,1,0,0:0:0:0:
36,192,335980,1,0,0:0:0:0:
182,192,336180,1,0,0:0:0:0:
109,192,336180,1,0,0:0:0:0:
402,192,336280,1,0,0:0:0:0:
329,192,336280,1,0,0:0:0:0:
109,192,336380,1,0,0:0:0:0:
182,192,336380,1,0,0:0:0:0:
475,192,336480,1,0,0:0:0:0:
402,192,336480,1,0,0:0:0:0:
256,192,336480,1,0,0:0:0:0:
36,192,336580,1,0,0:0:0:0:
182,192,336680,1,0,0:0:0:0:
36,192,336780,1,0,0:0:0:0:
256,192,336880,1,0,0:0:0:0:
475,192,336880,1,0,0:0:0:0:
329,192,336880,1,0,0:0:0:0:
109,192,336980,1,0,0:0:0:0:
182,192,337080,1,0,0:0:0:0:
36,192,337180,1,0,0:0:0:0:
475,192,337280,1,0,0:0:0:0:
109,192,337280,1,0,0:0:0:0:
256,192,337280,1,0,0:0:0:0:
329,192,337380,1,0,0:0:0:0:
182,192,337480,1,0,0:0:0:0:
402,192,337480,1,0,0:0:0:0:
329,192,337580,1,0,0:0:0:0:
329,192,337780,1,0,0:0:0:0:
182,192,337880,1,0,0:0:0:0:
402,192,337880,1,0,0:0:0:0:
329,192,337980,1,0,0:0:0:0:
256,192,338080,1,0,0:0:0:0:
36,192,338080,1,0,0:0:0:0:
109,192,338080,1,0,0:0:0:0:
402,192,338180,1,0,0:0:0:0:
329,192,338280,1,0,0:0:0:0:
182,192,338280,1,0,0:0:0:0:
109,192,338380,1,0,0:0:0:0:
402,192,338480,1,0,0:0:0:0:
256,192,338480,1,0,0:0:0:0:
329,192,338580,1,0,0:0:0:0:
182,192,338580,1,0,0:0:0:0:
402,192,338680,1,0,0:0:0:0:
256,192,338680,1,0,0:0:0:0:
475,192,338780,1,0,0:0:0:0:
329,192,338780,1,0,0:0:0:0:
402,192,338880,1,0,0:0:0:0:
109,192,338880,1,0,0:0:0:0:
36,192,338880,1,0,0:0:0:0:
182,192,338980,1,0,0:0:0:0:
475,192,339080,1,0,0:0:0:0:
329,192,339080,1,0,0:0:0:0:
182,192,339180,1,0,0:0:0:0:
182,192,339380,1,0,0:0:0:0:
475,192,339480,1,0,0:0:0:0:
329,192,339480,1,0,0:0:0:0:
182,192,339580,1,0,0:0:0:0:
475,192,339680,1,0,0:0:0:0:
402,192,339680,1,0,0:0:0:0:
256,192,339680,1,0,0:0:0:0:
109,192,339780,1,0,0:0:0:0:
329,192,339880,1,0,0:0:0:0:
182,192,339880,1,0,0:0:0:0:
402,192,339980,1,0,0:0:0:0:
36,192,340080,1,0,0:0:0:0:
109,192,340080,1,0,0:0:0:0:
256,192,340080,1,0,0:0:0:0:
329,192,340180,1,0,0:0:0:0:
36,192,340280,1,0,0:0:0:0:
182,192,340280,1,0,0:0:0:0:
256,192,340380,1,0,0:0:0:0:
475,192,340480,1,0,0:0:0:0:
329,192,340480,1,0,0:0:0:0:
109,192,340480,1,0,0:0:0:0:
182,192,340580,1,0,0:0:0:0:
402,192,340680,1,0,0:0:0:0:
256,192,340680,1,0,0:0:0:0:
109,192,340780,1,0,0:0:0:0:
109,192,340980,1,0,0:0:0:0:
402,192,341080,1,0,0:0:0:0:
329,192,341080,1,0,0:0:0:0:
109,192,341180,1,0,0:0:0:0:
475,192,341280,1,0,0:0:0:0:
402,192,341280,1,0,0:0:0:0:
256,192,341280,1,0,0:0:0:0:
109,192,341380,1,0,0:0:0:0:
329,192,341480,1,0,0:0:0:0:
182,192,341480,1,0,0:0:0:0:
109,192,341580,1,0,0:0:0:0:
475,192,341680,1,0,0:0:0:0:
402,192,341680,1,0,0:0:0:0:
256,192,341680,1,0,0:0:0:0:
36,192,341780,1,0,0:0:0:0:
182,192,341780,1,0,0:0:0:0:
256,192,341880,1,0,0:0:0:0:
109,192,341880,1,0,0:0:0:0:
329,192,341980,1,0,0:0:0:0:
182,192,341980,1,0,0:0:0:0:
402,192,342080,1,0,0:0:0:0:
36,192,342080,1,0,0:0:0:0:
256,192,342080,1,0,0:0:0:0:
109,192,342180,1,0,0:0:0:0:
329,192,342280,1,0,0:0:0:0:
109,192,342380,1,0,0:0:0:0:
109,192,342580,1,0,0:0:0:0:
329,192,342680,1,0,0:0:0:0:
256,192,342680,1,0,0:0:0:0:
109,192,342780,1,0,0:0:0:0:
329,192,342880,1,0,0:0:0:0:
402,192,342880,1,0,0:0:0:0:
182,192,342980,1,0,0:0:0:0:
329,192,343080,1,0,0:0:0:0:
182,192,343180,1,0,0:0:0:0:
475,192,343280,1,0,0:0:0:0:
402,192,343280,1,0,0:0:0:0:
256,192,343280,1,0,0:0:0:0:
329,192,343380,1,0,0:0:0:0:
109,192,343380,1,0,0:0:0:0:
402,192,343480,1,0,0:0:0:0:
182,192,343480,1,0,0:0:0:0:
329,192,343580,1,0,0:0:0:0:
109,192,343580,1,0,0:0:0:0:
475,192,343680,1,0,0:0:0:0:
256,192,343680,1,0,0:0:0:0:
36,192,343680,1,0,0:0:0:0:
329,192,343880,1,0,0:0:0:0:
182,192,343980,1,0,0:0:0:0:
109,192,344180,1,0,0:0:0:0:
182,192,344180,1,0,0:0:0:0:
402,192,344280,1,0,0:0:0:0:
329,192,344280,1,0,0:0:0:0:
109,192,344380,1,0,0:0:0:0:
182,192,344380,1,0,0:0:0:0:
475,192,344480,1,0,0:0:0:0:
402,192,344480,1,0,0:0:0:0:
256,192,344480,1,0,0:0:0:0:
109,192,344580,1,0,0:0:0:0:
36,192,344580,1,0,0:0:0:0:
329,192,344680,1,0,0:0:0:0:
256,192,344680,1,0,0:0:0:0:
36,192,344780,1,0,0:0:0:0:
109,192,344780,1,0,0:0:0:0:
402,192,344880,1,0,0:0:0:0:
182,192,344880,1,0,0:0:0:0:
475,192,344980,1,0,0:0:0:0:
256,192,344980,1,0,0:0:0:0:
329,192,345080,1,0,0:0:0:0:
36,192,345080,1,0,0:0:0:0:
402,192,345180,1,0,0:0:0:0:
109,192,345180,1,0,0:0:0:0:
475,192,345280,1,0,0:0:0:0:
256,192,345280,128,0,348480:0:0:0:0:
329,192,345280,1,0,0:0:0:0:
182,192,345280,1,0,0:0:0:0:
36,192,345280,1,0,0:0:0:0:
329,192,360256,5,0,0:0:0:0:
475,192,360256,1,0,0:0:0:0:
402,192,360827,1,0,0:0:0:0:
256,192,360827,1,0,0:0:0:0:
329,192,361398,1,0,0:0:0:0:
182,192,361398,1,0,0:0:0:0:
402,192,362541,1,0,0:0:0:0:
256,192,362541,1,0,0:0:0:0:
329,192,363113,1,0,0:0:0:0:
182,192,363113,1,0,0:0:0:0:
256,192,363684,1,0,0:0:0:0:
109,192,363684,1,0,0:0:0:0:
402,192,364827,1,0,0:0:0:0:
256,192,364827,1,0,0:0:0:0:
109,192,365684,1,0,0:0:0:0:
256,192,365684,1,0,0:0:0:0:
402,192,365970,1,0,0:0:0:0:
256,192,365970,1,0,0:0:0:0:
475,192,366541,1,0,0:0:0:0:
329,192,366541,1,0,0:0:0:0:
402,192,367113,1,0,0:0:0:0:
256,192,367113,1,0,0:0:0:0:
329,192,367970,1,0,0:0:0:0:
182,192,367970,1,0,0:0:0:0:
182,192,368256,1,0,0:0:0:0:
329,192,368256,1,0,0:0:0:0:
475,192,369398,1,0,0:0:0:0:
329,192,369398,1,0,0:0:0:0:
36,192,369970,1,0,0:0:0:0:
182,192,369970,1,0,0:0:0:0:
475,192,370541,1,0,0:0:0:0:
329,192,370541,1,0,0:0:0:0:
475,192,371684,1,0,0:0:0:0:
402,192,371684,1,0,0:0:0:0:
402,192,372256,1,0,0:0:0:0:
329,192,372256,1,0,0:0:0:0:
329,192,372827,1,0,0:0:0:0:
256,192,372827,1,0,0:0:0:0:
475,192,373970,1,0,0:0:0:0:
329,192,373970,1,0,0:0:0:0:
182,192,374541,1,0,0:0:0:0:
36,192,374541,1,0,0:0:0:0:
329,192,375113,1,0,0:0:0:0:
182,192,375113,1,0,0:0:0:0:
475,192,375684,1,0,0:0:0:0:
329,192,375684,1,0,0:0:0:0:
475,192,376256,1,0,0:0:0:0:
402,192,376256,1,0,0:0:0:0:
402,192,376827,1,0,0:0:0:0:
256,192,376827,1,0,0:0:0:0:
329,192,377113,1,0,0:0:0:0:
182,192,377113,1,0,0:0:0:0:
402,192,377398,1,0,0:0:0:0:
475,192,377398,1,0,0:0:0:0:
256,192,377398,1,0,0:0:0:0:
109,192,377470,1,0,0:0:0:0:
329,192,377541,1,0,0:0:0:0:
182,192,377541,1,0,0:0:0:0:
402,192,377613,1,0,0:0:0:0:
256,192,377684,1,0,0:0:0:0:
36,192,377684,1,0,0:0:0:0:
109,192,377756,1,0,0:0:0:0:
329,192,377827,1,0,0:0:0:0:
475,192,377827,1,0,0:0:0:0:
182,192,377898,1,0,0:0:0:0:
402,192,377970,1,0,0:0:0:0:
256,192,377970,1,0,0:0:0:0:
182,192,378041,1,0,0:0:0:0:
36,192,378113,1,0,0:0:0:0:
475,192,378113,1,0,0:0:0:0:
329,192,378113,1,0,0:0:0:0:
109,192,378184,1,0,0:0:0:0:
402,192,378256,1,0,0:0:0:0:
256,192,378256,1,0,0:0:0:0:
182,192,378327,1,0,0:0:0:0:
109,192,378398,1,0,0:0:0:0:
475,192,378398,1,0,0:0:0:0:
329,192,378398,1,0,0:0:0:0:
256,192,378470,1,0,0:0:0:0:
402,192,378541,1,0,0:0:0:0:
475,192,378541,1,0,0:0:0:0:
182,192,378541,1,0,0:0:0:0:
36,192,378541,1,0,0:0:0:0:
109,192,378613,1,0,0:0:0:0:
329,192,378613,1,0,0:0:0:0:
475,192,378684,1,0,0:0:0:0:
402,192,378684,1,0,0:0:0:0:
256,192,378684,1,0,0:0:0:0:
36,192,378756,1,0,0:0:0:0:
182,192,378756,1,0,0:0:0:0:
475,192,378827,1,0,0:0:0:0:
256,192,378827,1,0,0:0:0:0:
329,192,378827,1,0,0:0:0:0:
109,192,378827,1,0,0:0:0:0:
402,192,378898,1,0,0:0:0:0:
36,192,378970,1,0,0:0:0:0:
182,192,378970,1,0,0:0:0:0:
256,192,379041,1,0,0:0:0:0:
329,192,379041,1,0,0:0:0:0:
402,192,379113,1,0,0:0:0:0:
475,192,379113,1,0,0:0:0:0:
109,192,379113,1,0,0:0:0:0:
36,192,379113,1,0,0:0:0:0:
329,192,379184,1,0,0:0:0:0:
182,192,379184,1,0,0:0:0:0:
402,192,379256,1,0,0:0:0:0:
475,192,379256,1,0,0:0:0:0:
109,192,379256,1,0,0:0:0:0:
36,192,379256,1,0,0:0:0:0:
256,192,379327,1,0,0:0:0:0:
329,192,379398,1,0,0:0:0:0:
475,192,379398,1,0,0:0:0:0:
182,192,379398,1,0,0:0:0:0:
36,192,379398,1,0,0:0:0:0:
256,192,379470,1,0,0:0:0:0:
109,192,379470,1,0,0:0:0:0:
329,192,379541,1,0,0:0:0:0:
182,192,379541,1,0,0:0:0:0:
402,192,379613,1,0,0:0:0:0:
256,192,379613,1,0,0:0:0:0:
109,192,379684,1,0,0:0:0:0:
36,192,379684,1,0,0:0:0:0:
329,192,379684,1,0,0:0:0:0:
475,192,379684,1,0,0:0:0:0:
402,192,379756,1,0,0:0:0:0:
182,192,379756,1,0,0:0:0:0:
329,192,379827,1,0,0:0:0:0:
36,192,379827,1,0,0:0:0:0:
109,192,379827,1,0,0:0:0:0:
475,192,379898,1,0,0:0:0:0:
402,192,379898,1,0,0:0:0:0:
256,192,379898,1,0,0:0:0:0:
182,192,379970,1,0,0:0:0:0:
329,192,379970,1,0,0:0:0:0:
256,192,380041,1,0,0:0:0:0:
109,192,380041,1,0,0:0:0:0:
475,192,380113,1,0,0:0:0:0:
329,192,380113,1,0,0:0:0:0:
182,192,380113,1,0,0:0:0:0:
402,192,380113,1,0,0:0:0:0:
256,192,380184,1,0,0:0:0:0:
36,192,380184,1,0,0:0:0:0:
475,192,380256,1,0,0:0:0:0:
402,192,380256,1,0,0:0:0:0:
109,192,380256,1,0,0:0:0:0:
329,192,380327,1,0,0:0:0:0:
182,192,380327,1,0,0:0:0:0:
256,192,380398,1,0,0:0:0:0:
36,192,380398,1,0,0:0:0:0:
109,192,380398,1,0,0:0:0:0:
402,192,380470,1,0,0:0:0:0:
182,192,380470,1,0,0:0:0:0:
109,192,380541,1,0,0:0:0:0:
475,192,380541,1,0,0:0:0:0:
329,192,380541,1,0,0:0:0:0:
182,192,380613,1,0,0:0:0:0:
402,192,380613,1,0,0:0:0:0:
329,192,380684,1,0,0:0:0:0:
256,192,380684,1,0,0:0:0:0:
36,192,380684,1,0,0:0:0:0:
475,192,380756,1,0,0:0:0:0:
109,192,380756,1,0,0:0:0:0:
402,192,380827,1,0,0:0:0:0:
256,192,380827,1,0,0:0:0:0:
182,192,380827,1,0,0:0:0:0:
36,192,380898,1,0,0:0:0:0:
329,192,380898,1,0,0:0:0:0:
182,192,380970,1,0,0:0:0:0:
109,192,380970,1,0,0:0:0:0:
402,192,381041,1,0,0:0:0:0:
256,192,381041,1,0,0:0:0:0:
329,192,381113,1,0,0:0:0:0:
475,192,381113,1,0,0:0:0:0:
36,192,381113,1,0,0:0:0:0:
109,192,381113,1,0,0:0:0:0:
402,192,381184,1,0,0:0:0:0:
182,192,381184,1,0,0:0:0:0:
36,192,381256,1,0,0:0:0:0:
256,192,381256,1,0,0:0:0:0:
329,192,381327,1,0,0:0:0:0:
109,192,381327,1,0,0:0:0:0:
475,192,381398,1,0,0:0:0:0:
402,192,381398,1,0,0:0:0:0:
182,192,381398,1,0,0:0:0:0:
109,192,381470,1,0,0:0:0:0:
329,192,381470,1,0,0:0:0:0:
36,192,381470,1,0,0:0:0:0:
475,192,381541,1,0,0:0:0:0:
402,192,381541,1,0,0:0:0:0:
182,192,381541,1,0,0:0:0:0:
256,192,381613,1,0,0:0:0:0:
402,192,381684,1,0,0:0:0:0:
475,192,381684,1,0,0:0:0:0:
329,192,381684,1,0,0:0:0:0:
36,192,381684,1,0,0:0:0:0:
109,192,381684,1,0,0:0:0:0:
256,192,381756,1,0,0:0:0:0:
182,192,381756,1,0,0:0:0:0:
109,192,381827,1,0,0:0:0:0:
329,192,381827,1,0,0:0:0:0:
256,192,381898,1,0,0:0:0:0:
182,192,381898,1,0,0:0:0:0:
36,192,381970,1,0,0:0:0:0:
109,192,381970,1,0,0:0:0:0:
402,192,381970,1,0,0:0:0:0:
475,192,381970,1,0,0:0:0:0:
256,192,382041,1,0,0:0:0:0:
329,192,382041,1,0,0:0:0:0:
109,192,382113,1,0,0:0:0:0:
182,192,382113,1,0,0:0:0:0:
402,192,382184,1,0,0:0:0:0:
329,192,382184,1,0,0:0:0:0:
256,192,382256,1,0,0:0:0:0:
475,192,382256,1,0,0:0:0:0:
36,192,382256,1,0,0:0:0:0:
109,192,382256,1,0,0:0:0:0:
402,192,382327,1,0,0:0:0:0:
329,192,382327,1,0,0:0:0:0:
36,192,382398,1,0,0:0:0:0:
182,192,382398,1,0,0:0:0:0:
109,192,382470,1,0,0:0:0:0:
329,192,382470,1,0,0:0:0:0:
256,192,382470,1,0,0:0:0:0:
182,192,382541,1,0,0:0:0:0:
402,192,382541,1,0,0:0:0:0:
36,192,382541,1,0,0:0:0:0:
475,192,382541,1,0,0:0:0:0:
256,192,382613,1,0,0:0:0:0:
329,192,382613,1,0,0:0:0:0:
36,192,382684,1,0,0:0:0:0:
109,192,382684,1,0,0:0:0:0:
329,192,382756,1,0,0:0:0:0:
182,192,382756,1,0,0:0:0:0:
475,192,382827,1,0,0:0:0:0:
109,192,382827,1,0,0:0:0:0:
256,192,382827,1,0,0:0:0:0:
402,192,382827,1,0,0:0:0:0:
329,192,382898,1,0,0:0:0:0:
182,192,382898,1,0,0:0:0:0:
256,192,382970,1,0,0:0:0:0:
36,192,382970,1,0,0:0:0:0:
402,192,383041,1,0,0:0:0:0:
109,192,383041,1,0,0:0:0:0:
475,192,383113,1,0,0:0:0:0:
36,192,383113,1,0,0:0:0:0:
182,192,383113,1,0,0:0:0:0:
329,192,383113,1,0,0:0:0:0:
402,192,383184,1,0,0:0:0:0:
256,192,383184,1,0,0:0:0:0:
329,192,383256,1,0,0:0:0:0:
182,192,383256,1,0,0:0:0:0:
109,192,383256,1,0,0:0:0:0:
402,192,383327,1,0,0:0:0:0:
475,192,383327,1,0,0:0:0:0:
36,192,383398,1,0,0:0:0:0:
182,192,383398,1,0,0:0:0:0:
256,192,383398,1,0,0:0:0:0:
109,192,383398,1,0,0:0:0:0:
475,192,383470,1,0,0:0:0:0:
329,192,383470,1,0,0:0:0:0:
36,192,383541,1,0,0:0:0:0:
182,192,383541,1,0,0:0:0:0:
256,192,383613,1,0,0:0:0:0:
109,192,383613,1,0,0:0:0:0:
402,192,383684,1,0,0:0:0:0:
329,192,383684,1,0,0:0:0:0:
182,192,383684,1,0,0:0:0:0:
256,192,383756,1,0,0:0:0:0:
475,192,383756,1,0,0:0:0:0:
109,192,383827,1,0,0:0:0:0:
402,192,383827,1,0,0:0:0:0:
36,192,383827,1,0,0:0:0:0:
329,192,383898,1,0,0:0:0:0:
182,192,383898,1,0,0:0:0:0:
475,192,383970,1,0,0:0:0:0:
109,192,383970,1,0,0:0:0:0:
256,192,383970,1,0,0:0:0:0:
402,192,383970,1,0,0:0:0:0:
182,192,384041,1,0,0:0:0:0:
329,192,384113,1,0,0:0:0:0:
36,192,384113,1,0,0:0:0:0:
402,192,384184,1,0,0:0:0:0:
256,192,384184,1,0,0:0:0:0:
329,192,384256,1,0,0:0:0:0:
475,192,384256,1,0,0:0:0:0:
109,192,384256,1,0,0:0:0:0:
182,192,384256,1,0,0:0:0:0:
256,192,384327,1,0,0:0:0:0:
36,192,384327,1,0,0:0:0:0:
182,192,384398,1,0,0:0:0:0:
475,192,384398,1,0,0:0:0:0:
402,192,384398,1,0,0:0:0:0:
109,192,384398,1,0,0:0:0:0:
256,192,384470,1,0,0:0:0:0:
329,192,384470,1,0,0:0:0:0:
402,192,384541,1,0,0:0:0:0:
475,192,384541,1,0,0:0:0:0:
109,192,384541,1,0,0:0:0:0:
36,192,384541,1,0,0:0:0:0:
182,192,384613,1,0,0:0:0:0:
36,192,384684,1,0,0:0:0:0:
329,192,384684,1,0,0:0:0:0:
256,192,384684,1,0,0:0:0:0:
109,192,384756,1,0,0:0:0:0:
475,192,384827,1,0,0:0:0:0:
329,192,384827,1,0,0:0:0:0:
182,192,384827,1,0,0:0:0:0:
402,192,384827,1,0,0:0:0:0:
109,192,384898,1,0,0:0:0:0:
36,192,384898,1,0,0:0:0:0:
256,192,384898,1,0,0:0:0:0:
475,192,384970,1,0,0:0:0:0:
402,192,384970,1,0,0:0:0:0:
182,192,384970,1,0,0:0:0:0:
329,192,385041,1,0,0:0:0:0:
402,192,385113,1,0,0:0:0:0:
475,192,385113,1,0,0:0:0:0:
256,192,385113,1,0,0:0:0:0:
109,192,385113,1,0,0:0:0:0:
36,192,385113,1,0,0:0:0:0:
329,192,385184,1,0,0:0:0:0:
182,192,385184,1,0,0:0:0:0:
109,192,385256,1,0,0:0:0:0:
256,192,385256,1,0,0:0:0:0:
329,192,385327,1,0,0:0:0:0:
182,192,385327,1,0,0:0:0:0:
475,192,385398,1,0,0:0:0:0:
36,192,385398,1,0,0:0:0:0:
256,192,385398,1,0,0:0:0:0:
402,192,385398,1,0,0:0:0:0:
182,192,385470,1,0,0:0:0:0:
109,192,385470,1,0,0:0:0:0:
475,192,385541,1,0,0:0:0:0:
329,192,385541,1,0,0:0:0:0:
402,192,385613,1,0,0:0:0:0:
256,192,385613,1,0,0:0:0:0:
182,192,385684,1,0,0:0:0:0:
329,192,385684,1,0,0:0:0:0:
36,192,385684,1,0,0:0:0:0:
109,192,385684,1,0,0:0:0:0:
475,192,385756,1,0,0:0:0:0:
402,192,385756,1,0,0:0:0:0:
109,192,385827,1,0,0:0:0:0:
256,192,385827,1,0,0:0:0:0:
36,192,385898,1,0,0:0:0:0:
182,192,385898,1,0,0:0:0:0:
329,192,385970,1,0,0:0:0:0:
475,192,385970,1,0,0:0:0:0:
402,192,385970,1,0,0:0:0:0:
36,192,386041,1,0,0:0:0:0:
109,192,386041,1,0,0:0:0:0:
182,192,386041,1,0,0:0:0:0:
475,192,386113,1,0,0:0:0:0:
329,192,386113,1,0,0:0:0:0:
256,192,386113,1,0,0:0:0:0:
36,192,386184,1,0,0:0:0:0:
182,192,386184,1,0,0:0:0:0:
256,192,386256,1,0,0:0:0:0:
475,192,386256,1,0,0:0:0:0:
109,192,386256,1,0,0:0:0:0:
402,192,386256,1,0,0:0:0:0:
329,192,386327,1,0,0:0:0:0:
182,192,386327,1,0,0:0:0:0:
256,192,386398,1,0,0:0:0:0:
109,192,386398,1,0,0:0:0:0:
36,192,386398,1,0,0:0:0:0:
329,192,386470,1,0,0:0:0:0:
182,192,386470,1,0,0:0:0:0:
402,192,386470,1,0,0:0:0:0:
109,192,386541,1,0,0:0:0:0:
36,192,386541,1,0,0:0:0:0:
256,192,386541,1,0,0:0:0:0:
475,192,386541,1,0,0:0:0:0:
329,192,386613,1,0,0:0:0:0:
475,192,386684,1,0,0:0:0:0:
109,192,386684,1,0,0:0:0:0:
182,192,386684,1,0,0:0:0:0:
402,192,386684,1,0,0:0:0:0:
329,192,386756,1,0,0:0:0:0:
36,192,386756,1,0,0:0:0:0:
402,192,386827,1,0,0:0:0:0:
475,192,386827,1,0,0:0:0:0:
109,192,386827,1,0,0:0:0:0:
182,192,386827,1,0,0:0:0:0:
256,192,386898,1,0,0:0:0:0:
329,192,386970,1,0,0:0:0:0:
475,192,386970,1,0,0:0:0:0:
36,192,386970,1,0,0:0:0:0:
109,192,386970,1,0,0:0:0:0:
256,192,387041,1,0,0:0:0:0:
182,192,387041,1,0,0:0:0:0:
329,192,387113,1,0,0:0:0:0:
475,192,387113,1,0,0:0:0:0:
109,192,387113,1,0,0:0:0:0:
36,192,387113,1,0,0:0:0:0:
402,192,387184,1,0,0:0:0:0:
182,192,387184,1,0,0:0:0:0:
256,192,387256,1,0,0:0:0:0:
329,192,387327,1,0,0:0:0:0:
109,192,387327,1,0,0:0:0:0:
402,192,387398,1,0,0:0:0:0:
475,192,387398,1,0,0:0:0:0:
182,192,387398,1,0,0:0:0:0:
36,192,387398,1,0,0:0:0:0:
256,192,387470,1,0,0:0:0:0:
329,192,387541,1,0,0:0:0:0:
109,192,387541,1,0,0:0:0:0:
182,192,387613,1,0,0:0:0:0:
402,192,387613,1,0,0:0:0:0:
329,192,387684,1,0,0:0:0:0:
475,192,387684,1,0,0:0:0:0:
256,192,387684,1,0,0:0:0:0:
36,192,387684,1,0,0:0:0:0:
109,192,387684,1,0,0:0:0:0:
182,192,387756,1,0,0:0:0:0:
402,192,387827,1,0,0:0:0:0:
329,192,387827,1,0,0:0:0:0:
256,192,387898,1,0,0:0:0:0:
402,192,387970,1,0,0:0:0:0:
475,192,387970,1,0,0:0:0:0:
36,192,387970,1,0,0:0:0:0:
182,192,387970,1,0,0:0:0:0:
109,192,387970,1,0,0:0:0:0:
329,192,388041,1,0,0:0:0:0:
256,192,388113,1,0,0:0:0:0:
109,192,388113,1,0,0:0:0:0:
402,192,388184,1,0,0:0:0:0:
329,192,388256,1,0,0:0:0:0:
475,192,388256,1,0,0:0:0:0:
109,192,388256,1,0,0:0:0:0:
182,192,388256,1,0,0:0:0:0:
36,192,388256,1,0,0:0:0:0:
402,192,388327,1,0,0:0:0:0:
329,192,388398,1,0,0:0:0:0:
182,192,388398,1,0,0:0:0:0:
109,192,388470,1,0,0:0:0:0:
402,192,388541,1,0,0:0:0:0:
475,192,388541,1,0,0:0:0:0:
256,192,388541,1,0,0:0:0:0:
36,192,388541,1,0,0:0:0:0:
182,192,388541,1,0,0:0:0:0:
329,192,388613,1,0,0:0:0:0:
256,192,388684,1,0,0:0:0:0:
36,192,388684,1,0,0:0:0:0:
109,192,388756,1,0,0:0:0:0:
402,192,388827,1,0,0:0:0:0:
475,192,388827,1,0,0:0:0:0:
329,192,388827,1,0,0:0:0:0:
182,192,388827,1,0,0:0:0:0:
36,192,388827,1,0,0:0:0:0:
256,192,388898,1,0,0:0:0:0:
109,192,388898,1,0,0:0:0:0:
475,192,388970,1,0,0:0:0:0:
402,192,388970,1,0,0:0:0:0:
182,192,388970,1,0,0:0:0:0:
36,192,389041,1,0,0:0:0:0:
329,192,389041,1,0,0:0:0:0:
475,192,389113,1,0,0:0:0:0:
402,192,389113,1,0,0:0:0:0:
109,192,389113,1,0,0:0:0:0:
256,192,389113,1,0,0:0:0:0:
329,192,389184,1,0,0:0:0:0:
182,192,389184,1,0,0:0:0:0:
256,192,389256,1,0,0:0:0:0:
109,192,389256,1,0,0:0:0:0:
36,192,389256,1,0,0:0:0:0:
475,192,389327,1,0,0:0:0:0:
402,192,389327,1,0,0:0:0:0:
36,192,389398,1,0,0:0:0:0:
329,192,389398,1,0,0:0:0:0:
182,192,389398,1,0,0:0:0:0:
109,192,389398,1,0,0:0:0:0:
402,192,389470,1,0,0:0:0:0:
256,192,389470,1,0,0:0:0:0:
329,192,389541,1,0,0:0:0:0:
109,192,389541,1,0,0:0:0:0:
182,192,389541,1,0,0:0:0:0:
256,192,389613,1,0,0:0:0:0:
329,192,389684,1,0,0:0:0:0:
475,192,389684,1,0,0:0:0:0:
402,192,389684,1,0,0:0:0:0:
36,192,389684,1,0,0:0:0:0:
109,192,389684,1,0,0:0:0:0:
256,192,389756,1,0,0:0:0:0:
182,192,389756,1,0,0:0:0:0:
402,192,389827,1,0,0:0:0:0:
329,192,389827,1,0,0:0:0:0:
182,192,389898,1,0,0:0:0:0:
109,192,389898,1,0,0:0:0:0:
475,192,389970,1,0,0:0:0:0:
36,192,389970,1,0,0:0:0:0:
256,192,389970,1,0,0:0:0:0:
402,192,389970,1,0,0:0:0:0:
329,192,390041,1,0,0:0:0:0:
36,192,390113,1,0,0:0:0:0:
402,192,390113,1,0,0:0:0:0:
109,192,390113,1,0,0:0:0:0:
256,192,390113,1,0,0:0:0:0:
182,192,390184,1,0,0:0:0:0:
109,192,390256,1,0,0:0:0:0:
36,192,390256,1,0,0:0:0:0:
475,192,390256,1,0,0:0:0:0:
329,192,390256,1,0,0:0:0:0:
402,192,390256,1,0,0:0:0:0:
256,192,390327,1,0,0:0:0:0:
329,192,390398,1,0,0:0:0:0:
475,192,390398,1,0,0:0:0:0:
182,192,390398,1,0,0:0:0:0:
109,192,390398,1,0,0:0:0:0:
402,192,390470,1,0,0:0:0:0:
329,192,390541,1,0,0:0:0:0:
475,192,390541,1,0,0:0:0:0:
256,192,390541,1,0,0:0:0:0:
36,192,390541,1,0,0:0:0:0:
109,192,390541,1,0,0:0:0:0:
182,192,390613,1,0,0:0:0:0:
256,192,390684,1,0,0:0:0:0:
109,192,390684,1,0,0:0:0:0:
329,192,390684,1,0,0:0:0:0:
475,192,390684,1,0,0:0:0:0:
36,192,390756,1,0,0:0:0:0:
182,192,390756,1,0,0:0:0:0:
256,192,390827,1,0,0:0:0:0:
475,192,390827,1,0,0:0:0:0:
109,192,390827,1,0,0:0:0:0:
402,192,390827,1,0,0:0:0:0:
329,192,390898,1,0,0:0:0:0:
256,192,390970,1,0,0:0:0:0:
182,192,390970,1,0,0:0:0:0:
36,192,390970,1,0,0:0:0:0:
402,192,391041,1,0,0:0:0:0:
329,192,391113,1,0,0:0:0:0:
475,192,391113,1,0,0:0:0:0:
109,192,391113,1,0,0:0:0:0:
36,192,391113,1,0,0:0:0:0:
402,192,391184,1,0,0:0:0:0:
256,192,391184,1,0,0:0:0:0:
109,192,391256,1,0,0:0:0:0:
329,192,391256,1,0,0:0:0:0:
182,192,391256,1,0,0:0:0:0:
475,192,391327,1,0,0:0:0:0:
256,192,391327,1,0,0:0:0:0:
109,192,391398,1,0,0:0:0:0:
36,192,391398,1,0,0:0:0:0:
402,192,391398,1,0,0:0:0:0:
182,192,391398,1,0,0:0:0:0:
256,192,391470,1,0,0:0:0:0:
329,192,391470,1,0,0:0:0:0:
475,192,391541,1,0,0:0:0:0:
36,192,391541,1,0,0:0:0:0:
109,192,391541,1,0,0:0:0:0:
329,192,391613,1,0,0:0:0:0:
182,192,391613,1,0,0:0:0:0:
475,192,391684,1,0,0:0:0:0:
109,192,391684,1,0,0:0:0:0:
256,192,391684,1,0,0:0:0:0:
402,192,391684,1,0,0:0:0:0:
329,192,391756,1,0,0:0:0:0:
36,192,391756,1,0,0:0:0:0:
256,192,391827,1,0,0:0:0:0:
402,192,391827,1,0,0:0:0:0:
182,192,391827,1,0,0:0:0:0:
475,192,391898,1,0,0:0:0:0:
109,192,391898,1,0,0:0:0:0:
182,192,391970,1,0,0:0:0:0:
329,192,391970,1,0,0:0:0:0:
36,192,391970,1,0,0:0:0:0:
402,192,391970,1,0,0:0:0:0:
109,192,392041,1,0,0:0:0:0:
256,192,392041,1,0,0:0:0:0:
475,192,392113,1,0,0:0:0:0:
402,192,392113,1,0,0:0:0:0:
182,192,392113,1,0,0:0:0:0:
329,192,392184,1,0,0:0:0:0:
36,192,392184,1,0,0:0:0:0:
109,192,392184,1,0,0:0:0:0:
402,192,392256,1,0,0:0:0:0:
475,192,392256,1,0,0:0:0:0:
182,192,392256,1,0,0:0:0:0:
256,192,392256,1,0,0:0:0:0:
36,192,392327,1,0,0:0:0:0:
329,192,392398,1,0,0:0:0:0:
256,192,392398,1,0,0:0:0:0:
109,192,392398,1,0,0:0:0:0:
182,192,392470,1,0,0:0:0:0:
402,192,392470,1,0,0:0:0:0:
475,192,392541,1,0,0:0:0:0:
109,192,392541,1,0,0:0:0:0:
36,192,392541,1,0,0:0:0:0:
329,192,392541,1,0,0:0:0:0:
256,192,392613,1,0,0:0:0:0:
475,192,392684,1,0,0:0:0:0:
402,192,392684,1,0,0:0:0:0:
182,192,392684,1,0,0:0:0:0:
109,192,392756,1,0,0:0:0:0:
329,192,392756,1,0,0:0:0:0:
402,192,392827,1,0,0:0:0:0:
475,192,392827,1,0,0:0:0:0:
36,192,392827,1,0,0:0:0:0:
256,192,392827,1,0,0:0:0:0:
109,192,392898,1,0,0:0:0:0:
36,192,392970,1,0,0:0:0:0:
329,192,392970,1,0,0:0:0:0:
182,192,392970,1,0,0:0:0:0:
402,192,393041,1,0,0:0:0:0:
256,192,393041,1,0,0:0:0:0:
475,192,393113,1,0,0:0:0:0:
182,192,393113,1,0,0:0:0:0:
109,192,393113,1,0,0:0:0:0:
329,192,393113,1,0,0:0:0:0:
36,192,393184,1,0,0:0:0:0:
475,192,393256,1,0,0:0:0:0:
402,192,393256,1,0,0:0:0:0:
256,192,393256,1,0,0:0:0:0:
329,192,393327,1,0,0:0:0:0:
182,192,393327,1,0,0:0:0:0:
475,192,393398,1,0,0:0:0:0:
402,192,393398,1,0,0:0:0:0:
256,192,393398,1,0,0:0:0:0:
109,192,393398,1,0,0:0:0:0:
36,192,393398,1,0,0:0:0:0:
329,192,393470,1,0,0:0:0:0:
182,192,393470,1,0,0:0:0:0:
36,192,393541,1,0,0:0:0:0:
109,192,393541,1,0,0:0:0:0:
256,192,393541,1,0,0:0:0:0:
475,192,393613,1,0,0:0:0:0:
402,192,393613,1,0,0:0:0:0:
109,192,393684,1,0,0:0:0:0:
36,192,393684,1,0,0:0:0:0:
329,192,393684,1,0,0:0:0:0:
182,192,393684,1,0,0:0:0:0:
256,192,393756,1,0,0:0:0:0:
402,192,393756,1,0,0:0:0:0:
36,192,393827,1,0,0:0:0:0:
475,192,393827,1,0,0:0:0:0:
329,192,393827,1,0,0:0:0:0:
402,192,393898,1,0,0:0:0:0:
182,192,393898,1,0,0:0:0:0:
109,192,393898,1,0,0:0:0:0:
475,192,393970,1,0,0:0:0:0:
36,192,393970,1,0,0:0:0:0:
256,192,393970,1,0,0:0:0:0:
329,192,393970,1,0,0:0:0:0:
109,192,394041,1,0,0:0:0:0:
182,192,394041,1,0,0:0:0:0:
475,192,394113,1,0,0:0:0:0:
402,192,394113,1,0,0:0:0:0:
329,192,394113,1,0,0:0:0:0:
109,192,394184,1,0,0:0:0:0:
256,192,394184,1,0,0:0:0:0:
402,192,394256,1,0,0:0:0:0:
475,192,394256,1,0,0:0:0:0:
36,192,394256,1,0,0:0:0:0:
182,192,394256,1,0,0:0:0:0:
256,192,394327,1,0,0:0:0:0:
329,192,394327,1,0,0:0:0:0:
182,192,394398,1,0,0:0:0:0:
36,192,394398,1,0,0:0:0:0:
109,192,394398,1,0,0:0:0:0:
402,192,394470,1,0,0:0:0:0:
256,192,394470,1,0,0:0:0:0:
329,192,394541,1,0,0:0:0:0:
475,192,394541,1,0,0:0:0:0:
109,192,394541,1,0,0:0:0:0:
36,192,394541,1,0,0:0:0:0:
182,192,394613,1,0,0:0:0:0:
475,192,394684,1,0,0:0:0:0:
402,192,394684,1,0,0:0:0:0:
256,192,394684,1,0,0:0:0:0:
329,192,394756,1,0,0:0:0:0:
256,192,394827,1,0,0:0:0:0:
402,192,394827,1,0,0:0:0:0:
109,192,394827,1,0,0:0:0:0:
182,192,394827,1,0,0:0:0:0:
36,192,394827,1,0,0:0:0:0:
475,192,394898,1,0,0:0:0:0:
36,192,394970,1,0,0:0:0:0:
329,192,394970,1,0,0:0:0:0:
182,192,394970,1,0,0:0:0:0:
109,192,394970,1,0,0:0:0:0:
402,192,395041,1,0,0:0:0:0:
36,192,395113,1,0,0:0:0:0:
475,192,395113,1,0,0:0:0:0:
256,192,395113,1,0,0:0:0:0:
182,192,395113,1,0,0:0:0:0:
402,192,395184,1,0,0:0:0:0:
475,192,395256,1,0,0:0:0:0:
256,192,395256,1,0,0:0:0:0:
36,192,395256,1,0,0:0:0:0:
329,192,395256,1,0,0:0:0:0:
109,192,395256,1,0,0:0:0:0:
182,192,395327,1,0,0:0:0:0:
475,192,395398,1,0,0:0:0:0:
109,192,395398,1,0,0:0:0:0:
256,192,395398,1,0,0:0:0:0:
402,192,395398,1,0,0:0:0:0:
329,192,395470,1,0,0:0:0:0:
256,192,395541,1,0,0:0:0:0:
475,192,395541,1,0,0:0:0:0:
182,192,395541,1,0,0:0:0:0:
36,192,395541,1,0,0:0:0:0:
402,192,395613,1,0,0:0:0:0:
329,192,395684,1,0,0:0:0:0:
475,192,395684,1,0,0:0:0:0:
182,192,395684,1,0,0:0:0:0:
109,192,395684,1,0,0:0:0:0:
36,192,395684,1,0,0:0:0:0:
402,192,395756,1,0,0:0:0:0:
256,192,395756,1,0,0:0:0:0:
36,192,395827,1,0,0:0:0:0:
182,192,395827,1,0,0:0:0:0:
329,192,395827,1,0,0:0:0:0:
109,192,395898,1,0,0:0:0:0:
402,192,395898,1,0,0:0:0:0:
182,192,395970,1,0,0:0:0:0:
36,192,395970,1,0,0:0:0:0:
256,192,395970,1,0,0:0:0:0:
475,192,395970,1,0,0:0:0:0:
329,192,396041,1,0,0:0:0:0:
402,192,396113,1,0,0:0:0:0:
475,192,396113,1,0,0:0:0:0:
109,192,396113,1,0,0:0:0:0:
182,192,396113,1,0,0:0:0:0:
36,192,396184,1,0,0:0:0:0:
256,192,396184,1,0,0:0:0:0:
402,192,396256,1,0,0:0:0:0:
329,192,396256,1,0,0:0:0:0:
182,192,396256,1,0,0:0:0:0:
256,192,396327,1,0,0:0:0:0:
109,192,396327,1,0,0:0:0:0:
475,192,396398,1,0,0:0:0:0:
402,192,396398,1,0,0:0:0:0:
36,192,396398,1,0,0:0:0:0:
182,192,396470,1,0,0:0:0:0:
329,192,396470,1,0,0:0:0:0:
256,192,396541,1,0,0:0:0:0:
475,192,396541,1,0,0:0:0:0:
109,192,396541,1,0,0:0:0:0:
36,192,396541,1,0,0:0:0:0:
182,192,396613,1,0,0:0:0:0:
402,192,396613,1,0,0:0:0:0:
109,192,396684,1,0,0:0:0:0:
475,192,396684,1,0,0:0:0:0:
329,192,396684,1,0,0:0:0:0:
36,192,396684,1,0,0:0:0:0:
256,192,396756,1,0,0:0:0:0:
329,192,396827,1,0,0:0:0:0:
402,192,396827,1,0,0:0:0:0:
475,192,396827,1,0,0:0:0:0:
182,192,396827,1,0,0:0:0:0:
109,192,396827,1,0,0:0:0:0:
36,192,396827,1,0,0:0:0:0:
256,192,396898,1,0,0:0:0:0:
402,192,396970,1,0,0:0:0:0:
475,192,396970,1,0,0:0:0:0:
329,192,396970,1,0,0:0:0:0:
36,192,396970,1,0,0:0:0:0:
109,192,396970,1,0,0:0:0:0:
256,192,397041,1,0,0:0:0:0:
402,192,397113,1,0,0:0:0:0:
475,192,397113,1,0,0:0:0:0:
36,192,397113,1,0,0:0:0:0:
182,192,397113,1,0,0:0:0:0:
109,192,397113,1,0,0:0:0:0:
256,192,397184,1,0,0:0:0:0:
109,192,397256,1,0,0:0:0:0:
36,192,397256,1,0,0:0:0:0:
475,192,397256,1,0,0:0:0:0:
329,192,397256,1,0,0:0:0:0:
402,192,397256,1,0,0:0:0:0:
329,192,397541,1,0,0:0:0:0:
475,192,397541,1,0,0:0:0:0:
256,192,397541,1,0,0:0:0:0:
36,192,397541,1,0,0:0:0:0:
109,192,397541,1,0,0:0:0:0:
475,192,397684,1,0,0:0:0:0:
36,192,397684,1,0,0:0:0:0:
329,192,397684,1,0,0:0:0:0:
182,192,397684,1,0,0:0:0:0:
109,192,397684,1,0,0:0:0:0:
475,192,397827,1,0,0:0:0:0:
36,192,397827,1,0,0:0:0:0:
402,192,397827,1,0,0:0:0:0:
109,192,397827,1,0,0:0:0:0:
256,192,397827,1,0,0:0:0:0:
475,192,397970,1,0,0:0:0:0:
402,192,397970,1,0,0:0:0:0:
329,192,397970,1,0,0:0:0:0:
36,192,398041,1,0,0:0:0:0:
109,192,398041,1,0,0:0:0:0:
182,192,398041,1,0,0:0:0:0:
329,192,398113,1,0,0:0:0:0:
402,192,398113,1,0,0:0:0:0:
256,192,398113,1,0,0:0:0:0:
109,192,398184,1,0,0:0:0:0:
36,192,398184,1,0,0:0:0:0:
182,192,398184,1,0,0:0:0:0:
475,192,398256,1,0,0:0:0:0:
402,192,398256,1,0,0:0:0:0:
329,192,398256,1,0,0:0:0:0:
256,192,398327,1,0,0:0:0:0:
182,192,398327,1,0,0:0:0:0:
109,192,398327,1,0,0:0:0:0:
475,192,398398,1,0,0:0:0:0:
402,192,398398,1,0,0:0:0:0:
329,192,398398,1,0,0:0:0:0:
182,192,398470,1,0,0:0:0:0:
109,192,398470,1,0,0:0:0:0:
36,192,398470,1,0,0:0:0:0:
402,192,398541,1,0,0:0:0:0:
329,192,398541,1,0,0:0:0:0:
256,192,398541,1,0,0:0:0:0:
36,192,398613,1,0,0:0:0:0:
109,192,398613,1,0,0:0:0:0:
182,192,398613,1,0,0:0:0:0:
475,192,398684,1,0,0:0:0:0:
402,192,398684,1,0,0:0:0:0:
329,192,398684,1,0,0:0:0:0:
109,192,398756,1,0,0:0:0:0:
182,192,398756,1,0,0:0:0:0:
256,192,398756,1,0,0:0:0:0:
475,192,398827,1,0,0:0:0:0:
36,192,398827,1,0,0:0:0:0:
402,192,398851,1,0,0:0:0:0:
329,192,398875,1,0,0:0:0:0:
256,192,398898,1,0,0:0:0:0:
182,192,398922,1,0,0:0:0:0:
109,192,398946,1,0,0:0:0:0:
475,192,398970,1,0,0:0:0:0:
36,192,398970,1,0,0:0:0:0:
402,192,398994,1,0,0:0:0:0:
329,192,399017,1,0,0:0:0:0:
256,192,399041,1,0,0:0:0:0:
182,192,399065,1,0,0:0:0:0:
109,192,399089,1,0,0:0:0:0:
475,192,399113,1,0,0:0:0:0:
402,192,399113,1,0,0:0:0:0:
36,192,399113,1,0,0:0:0:0:
256,192,399256,1,0,0:0:0:0:
402,192,399256,1,0,0:0:0:0:
109,192,399256,1,0,0:0:0:0:
329,192,399327,1,0,0:0:0:0:
182,192,399327,1,0,0:0:0:0:
475,192,399398,1,0,0:0:0:0:
256,192,399398,1,0,0:0:0:0:
402,192,399398,1,0,0:0:0:0:
36,192,399398,1,0,0:0:0:0:
109,192,399398,1,0,0:0:0:0:
402,192,399541,1,0,0:0:0:0:
475,192,399541,1,0,0:0:0:0:
256,192,399541,1,0,0:0:0:0:
109,192,399541,1,0,0:0:0:0:
36,192,399541,1,0,0:0:0:0:
329,192,399684,1,0,0:0:0:0:
402,192,399684,1,0,0:0:0:0:
182,192,399684,1,0,0:0:0:0:
109,192,399684,1,0,0:0:0:0:
329,192,399827,1,0,0:0:0:0:
402,192,399827,1,0,0:0:0:0:
182,192,399827,1,0,0:0:0:0:
109,192,399827,1,0,0:0:0:0:
402,192,399970,1,0,0:0:0:0:
475,192,399970,1,0,0:0:0:0:
182,192,399970,1,0,0:0:0:0:
329,192,399970,1,0,0:0:0:0:
36,192,400041,1,0,0:0:0:0:
109,192,400041,1,0,0:0:0:0:
256,192,400041,1,0,0:0:0:0:
402,192,400113,1,0,0:0:0:0:
182,192,400113,1,0,0:0:0:0:
329,192,400113,1,0,0:0:0:0:
109,192,400184,1,0,0:0:0:0:
256,192,400184,1,0,0:0:0:0:
402,192,400256,1,0,0:0:0:0:
475,192,400256,1,0,0:0:0:0:
329,192,400256,1,0,0:0:0:0:
36,192,400256,1,0,0:0:0:0:
182,192,400256,1,0,0:0:0:0:
256,192,400327,1,0,0:0:0:0:
36,192,400398,1,0,0:0:0:0:
109,192,400398,1,0,0:0:0:0:
402,192,400470,1,0,0:0:0:0:
329,192,400470,1,0,0:0:0:0:
256,192,400541,1,0,0:0:0:0:
109,192,400541,1,0,0:0:0:0:
182,192,400541,1,0,0:0:0:0:
475,192,400613,1,0,0:0:0:0:
402,192,400613,1,0,0:0:0:0:
109,192,400684,1,0,0:0:0:0:
36,192,400684,1,0,0:0:0:0:
402,192,400756,1,0,0:0:0:0:
329,192,400756,1,0,0:0:0:0:
36,192,400827,1,0,0:0:0:0:
475,192,400827,1,0,0:0:0:0:
256,192,400827,1,0,0:0:0:0:
109,192,400827,1,0,0:0:0:0:
402,192,400898,1,0,0:0:0:0:
329,192,400898,1,0,0:0:0:0:
109,192,400970,1,0,0:0:0:0:
182,192,400970,1,0,0:0:0:0:
329,192,401041,1,0,0:0:0:0:
256,192,401041,1,0,0:0:0:0:
402,192,401113,1,0,0:0:0:0:
475,192,401113,1,0,0:0:0:0:
36,192,401113,1,0,0:0:0:0:
109,192,401113,1,0,0:0:0:0:
329,192,401184,1,0,0:0:0:0:
182,192,401184,1,0,0:0:0:0:
109,192,401256,1,0,0:0:0:0:
36,192,401256,1,0,0:0:0:0:
402,192,401256,1,0,0:0:0:0:
475,192,401256,1,0,0:0:0:0:
329,192,401327,1,0,0:0:0:0:
182,192,401327,1,0,0:0:0:0:
256,192,401398,1,0,0:0:0:0:
402,192,401398,1,0,0:0:0:0:
36,192,401470,1,0,0:0:0:0:
109,192,401470,1,0,0:0:0:0:
256,192,401541,1,0,0:0:0:0:
475,192,401541,1,0,0:0:0:0:
329,192,401541,1,0,0:0:0:0:
109,192,401613,1,0,0:0:0:0:
182,192,401613,1,0,0:0:0:0:
402,192,401684,1,0,0:0:0:0:
475,192,401684,1,0,0:0:0:0:
329,192,401684,1,0,0:0:0:0:
256,192,401756,1,0,0:0:0:0:
182,192,401756,1,0,0:0:0:0:
109,192,401827,1,0,0:0:0:0:
36,192,401827,1,0,0:0:0:0:
256,192,401898,1,0,0:0:0:0:
182,192,401898,1,0,0:0:0:0:
475,192,401970,1,0,0:0:0:0:
402,192,401970,1,0,0:0:0:0:
329,192,401970,1,0,0:0:0:0:
109,192,402041,1,0,0:0:0:0:
36,192,402041,1,0,0:0:0:0:
329,192,402113,1,0,0:0:0:0:
256,192,402113,1,0,0:0:0:0:
182,192,402113,1,0,0:0:0:0:
475,192,402184,1,0,0:0:0:0:
402,192,402184,1,0,0:0:0:0:
182,192,402256,1,0,0:0:0:0:
109,192,402256,1,0,0:0:0:0:
36,192,402256,1,0,0:0:0:0:
329,192,402327,1,0,0:0:0:0:
256,192,402327,1,0,0:0:0:0:
475,192,402398,1,0,0:0:0:0:
402,192,402398,1,0,0:0:0:0:
256,192,402470,1,0,0:0:0:0:
329,192,402470,1,0,0:0:0:0:
36,192,402541,1,0,0:0:0:0:
109,192,402541,1,0,0:0:0:0:
182,192,402541,1,0,0:0:0:0:
475,192,402577,1,0,0:0:0:0:
402,192,402613,1,0,0:0:0:0:
329,192,402648,1,0,0:0:0:0:
36,192,402684,1,0,0:0:0:0:
109,192,402708,1,0,0:0:0:0:
182,192,402732,1,0,0:0:0:0:
256,192,402756,1,0,0:0:0:0:
329,192,402779,1,0,0:0:0:0:
402,192,402803,1,0,0:0:0:0:
36,192,402827,1,0,0:0:0:0:
109,192,402827,1,0,0:0:0:0:
475,192,402827,1,0,0:0:0:0:
256,192,402898,1,0,0:0:0:0:
182,192,402898,1,0,0:0:0:0:
475,192,402970,1,0,0:0:0:0:
402,192,402970,1,0,0:0:0:0:
329,192,402970,1,0,0:0:0:0:
109,192,403041,1,0,0:0:0:0:
182,192,403041,1,0,0:0:0:0:
36,192,403113,1,0,0:0:0:0:
329,192,403113,1,0,0:0:0:0:
256,192,403113,1,0,0:0:0:0:
109,192,403184,1,0,0:0:0:0:
182,192,403184,1,0,0:0:0:0:
475,192,403256,1,0,0:0:0:0:
402,192,403256,1,0,0:0:0:0:
329,192,403256,1,0,0:0:0:0:
182,192,403327,1,0,0:0:0:0:
256,192,403327,1,0,0:0:0:0:
109,192,403398,1,0,0:0:0:0:
36,192,403398,1,0,0:0:0:0:
475,192,403470,1,0,0:0:0:0:
329,192,403470,1,0,0:0:0:0:
402,192,403470,1,0,0:0:0:0:
182,192,403541,1,0,0:0:0:0:
109,192,403541,1,0,0:0:0:0:
36,192,403541,1,0,0:0:0:0:
329,192,403613,1,0,0:0:0:0:
256,192,403613,1,0,0:0:0:0:
109,192,403684,1,0,0:0:0:0:
36,192,403684,1,0,0:0:0:0:
402,192,403684,1,0,0:0:0:0:
475,192,403684,1,0,0:0:0:0:
329,192,403756,1,0,0:0:0:0:
256,192,403756,1,0,0:0:0:0:
36,192,403827,1,0,0:0:0:0:
182,192,403827,1,0,0:0:0:0:
256,192,403898,1,0,0:0:0:0:
109,192,403898,1,0,0:0:0:0:
329,192,403970,1,0,0:0:0:0:
475,192,403970,1,0,0:0:0:0:
182,192,403970,1,0,0:0:0:0:
402,192,403970,1,0,0:0:0:0:
36,192,404041,1,0,0:0:0:0:
109,192,404041,1,0,0:0:0:0:
475,192,404113,1,0,0:0:0:0:
329,192,404113,1,0,0:0:0:0:
402,192,404184,1,0,0:0:0:0:
256,192,404184,1,0,0:0:0:0:
182,192,404256,1,0,0:0:0:0:
329,192,404256,1,0,0:0:0:0:
109,192,404256,1,0,0:0:0:0:
36,192,404256,1,0,0:0:0:0:
475,192,404327,1,0,0:0:0:0:
402,192,404327,1,0,0:0:0:0:
256,192,404398,1,0,0:0:0:0:
182,192,404398,1,0,0:0:0:0:
109,192,404398,1,0,0:0:0:0:
402,192,404470,1,0,0:0:0:0:
329,192,404470,1,0,0:0:0:0:
256,192,404541,1,0,0:0:0:0:
475,192,404541,1,0,0:0:0:0:
36,192,404541,1,0,0:0:0:0:
109,192,404541,1,0,0:0:0:0:
329,192,404613,1,0,0:0:0:0:
182,192,404613,1,0,0:0:0:0:
475,192,404684,1,0,0:0:0:0:
36,192,404684,1,0,0:0:0:0:
256,192,404684,1,0,0:0:0:0:
402,192,404684,1,0,0:0:0:0:
182,192,404756,1,0,0:0:0:0:
109,192,404756,1,0,0:0:0:0:
36,192,404827,1,0,0:0:0:0:
329,192,404827,1,0,0:0:0:0:
256,192,404827,1,0,0:0:0:0:
475,192,404827,1,0,0:0:0:0:
475,192,404970,1,0,0:0:0:0:
402,192,404970,1,0,0:0:0:0:
329,192,404970,1,0,0:0:0:0:
109,192,405041,1,0,0:0:0:0:
182,192,405041,1,0,0:0:0:0:
475,192,405113,1,0,0:0:0:0:
402,192,405113,1,0,0:0:0:0:
329,192,405113,1,0,0:0:0:0:
109,192,405184,1,0,0:0:0:0:
182,192,405184,1,0,0:0:0:0:
475,192,405256,1,0,0:0:0:0:
402,192,405256,1,0,0:0:0:0:
329,192,405256,1,0,0:0:0:0:
182,192,405327,1,0,0:0:0:0:
36,192,405327,1,0,0:0:0:0:
475,192,405398,1,0,0:0:0:0:
329,192,405398,1,0,0:0:0:0:
256,192,405398,1,0,0:0:0:0:
36,192,405470,1,0,0:0:0:0:
109,192,405470,1,0,0:0:0:0:
256,192,405541,1,0,0:0:0:0:
402,192,405541,1,0,0:0:0:0:
182,192,405541,1,0,0:0:0:0:
475,192,405613,1,0,0:0:0:0:
329,192,405613,1,0,0:0:0:0:
256,192,405684,1,0,0:0:0:0:
36,192,405684,1,0,0:0:0:0:
109,192,405684,1,0,0:0:0:0:
329,192,405756,1,0,0:0:0:0:
402,192,405756,1,0,0:0:0:0:
182,192,405827,1,0,0:0:0:0:
36,192,405827,1,0,0:0:0:0:
109,192,405827,1,0,0:0:0:0:
329,192,405898,1,0,0:0:0:0:
256,192,405898,1,0,0:0:0:0:
402,192,405970,1,0,0:0:0:0:
475,192,405970,1,0,0:0:0:0:
36,192,405970,1,0,0:0:0:0:
109,192,405970,1,0,0:0:0:0:
329,192,406041,1,0,0:0:0:0:
182,192,406041,1,0,0:0:0:0:
36,192,406113,1,0,0:0:0:0:
256,192,406113,1,0,0:0:0:0:
475,192,406184,1,0,0:0:0:0:
402,192,406184,1,0,0:0:0:0:
109,192,406184,1,0,0:0:0:0:
256,192,406256,1,0,0:0:0:0:
329,192,406256,1,0,0:0:0:0:
182,192,406256,1,0,0:0:0:0:
36,192,406327,1,0,0:0:0:0:
402,192,406327,1,0,0:0:0:0:
329,192,406398,1,0,0:0:0:0:
182,192,406398,1,0,0:0:0:0:
109,192,406398,1,0,0:0:0:0:
475,192,406470,1,0,0:0:0:0:
256,192,406470,1,0,0:0:0:0:
329,192,406541,1,0,0:0:0:0:
402,192,406541,1,0,0:0:0:0:
36,192,406541,1,0,0:0:0:0:
109,192,406541,1,0,0:0:0:0:
475,192,406613,1,0,0:0:0:0:
256,192,406613,1,0,0:0:0:0:
36,192,406684,1,0,0:0:0:0:
402,192,406684,1,0,0:0:0:0:
182,192,406684,1,0,0:0:0:0:
329,192,406756,1,0,0:0:0:0:
109,192,406756,1,0,0:0:0:0:
402,192,406827,1,0,0:0:0:0:
475,192,406827,1,0,0:0:0:0:
256,192,406827,1,0,0:0:0:0:
182,192,406863,1,0,0:0:0:0:
36,192,406898,1,0,0:0:0:0:
329,192,406934,1,0,0:0:0:0:
109,192,406970,1,0,0:0:0:0:
402,192,407006,1,0,0:0:0:0:
182,192,407041,1,0,0:0:0:0:
329,192,407077,1,0,0:0:0:0:
256,192,407113,1,0,0:0:0:0:
36,192,407113,1,0,0:0:0:0:
475,192,407113,1,0,0:0:0:0:
182,192,407184,1,0,0:0:0:0:
402,192,407184,1,0,0:0:0:0:
329,192,407256,1,0,0:0:0:0:
36,192,407256,1,0,0:0:0:0:
256,192,407327,1,0,0:0:0:0:
402,192,407327,1,0,0:0:0:0:
109,192,407327,1,0,0:0:0:0:
36,192,407398,1,0,0:0:0:0:
475,192,407398,1,0,0:0:0:0:
182,192,407398,1,0,0:0:0:0:
402,192,407470,1,0,0:0:0:0:
329,192,407470,1,0,0:0:0:0:
36,192,407541,1,0,0:0:0:0:
109,192,407541,1,0,0:0:0:0:
256,192,407541,1,0,0:0:0:0:
182,192,407613,1,0,0:0:0:0:
475,192,407613,1,0,0:0:0:0:
256,192,407684,1,0,0:0:0:0:
109,192,407684,1,0,0:0:0:0:
329,192,407684,1,0,0:0:0:0:
402,192,407684,1,0,0:0:0:0:
36,192,407756,1,0,0:0:0:0:
182,192,407756,1,0,0:0:0:0:
475,192,407827,1,0,0:0:0:0:
329,192,407827,1,0,0:0:0:0:
109,192,407898,1,0,0:0:0:0:
256,192,407898,1,0,0:0:0:0:
475,192,407970,1,0,0:0:0:0:
329,192,407970,1,0,0:0:0:0:
36,192,407970,1,0,0:0:0:0:
182,192,407970,1,0,0:0:0:0:
329,192,408065,1,0,0:0:0:0:
182,192,408065,1,0,0:0:0:0:
329,192,408160,1,0,0:0:0:0:
182,192,408160,1,0,0:0:0:0:
475,192,408256,1,0,0:0:0:0:
402,192,408256,1,0,0:0:0:0:
256,192,408256,1,0,0:0:0:0:
109,192,408256,1,0,0:0:0:0:
36,192,408327,1,0,0:0:0:0:
182,192,408327,1,0,0:0:0:0:
402,192,408398,1,0,0:0:0:0:
329,192,408398,1,0,0:0:0:0:
36,192,408470,1,0,0:0:0:0:
182,192,408470,1,0,0:0:0:0:
256,192,408541,1,0,0:0:0:0:
475,192,408541,1,0,0:0:0:0:
402,192,408541,1,0,0:0:0:0:
109,192,408613,1,0,0:0:0:0:
182,192,408613,1,0,0:0:0:0:
402,192,408684,1,0,0:0:0:0:
329,192,408684,1,0,0:0:0:0:
256,192,408756,1,0,0:0:0:0:
109,192,408756,1,0,0:0:0:0:
36,192,408756,1,0,0:0:0:0:
475,192,408827,1,0,0:0:0:0:
329,192,408827,1,0,0:0:0:0:
182,192,408827,1,0,0:0:0:0:
402,192,408827,1,0,0:0:0:0:
256,192,408898,1,0,0:0:0:0:
109,192,408898,1,0,0:0:0:0:
402,192,408970,1,0,0:0:0:0:
36,192,408970,1,0,0:0:0:0:
182,192,408970,1,0,0:0:0:0:
329,192,409041,1,0,0:0:0:0:
475,192,409113,1,0,0:0:0:0:
402,192,409113,1,0,0:0:0:0:
109,192,409113,1,0,0:0:0:0:
256,192,409113,1,0,0:0:0:0:
329,192,409256,1,0,0:0:0:0:
475,192,409256,1,0,0:0:0:0:
36,192,409256,1,0,0:0:0:0:
182,192,409256,1,0,0:0:0:0:
475,192,409398,1,0,0:0:0:0:
36,192,409398,1,0,0:0:0:0:
402,192,409398,1,0,0:0:0:0:
109,192,409398,1,0,0:0:0:0:
256,192,409398,1,0,0:0:0:0:
256,192,409494,1,0,0:0:0:0:
109,192,409494,1,0,0:0:0:0:
109,192,409589,1,0,0:0:0:0:
256,192,409589,1,0,0:0:0:0:
475,192,409684,1,0,0:0:0:0:
36,192,409684,1,0,0:0:0:0:
182,192,409684,1,0,0:0:0:0:
329,192,409684,1,0,0:0:0:0:
256,192,409779,1,0,0:0:0:0:
402,192,409779,1,0,0:0:0:0:
402,192,409875,1,0,0:0:0:0:
256,192,409875,1,0,0:0:0:0:
256,192,409970,1,0,0:0:0:0:
402,192,409970,1,0,0:0:0:0:
36,192,409970,1,0,0:0:0:0:
109,192,409970,1,0,0:0:0:0:
475,192,410041,1,0,0:0:0:0:
329,192,410041,1,0,0:0:0:0:
36,192,410113,1,0,0:0:0:0:
109,192,410113,1,0,0:0:0:0:
182,192,410113,1,0,0:0:0:0:
475,192,410184,1,0,0:0:0:0:
329,192,410184,1,0,0:0:0:0:
182,192,410256,1,0,0:0:0:0:
109,192,410256,1,0,0:0:0:0:
256,192,410256,1,0,0:0:0:0:
475,192,410327,1,0,0:0:0:0:
329,192,410327,1,0,0:0:0:0:
182,192,410398,1,0,0:0:0:0:
36,192,410398,1,0,0:0:0:0:
402,192,410470,1,0,0:0:0:0:
256,192,410470,1,0,0:0:0:0:
329,192,410541,1,0,0:0:0:0:
475,192,410541,1,0,0:0:0:0:
109,192,410541,1,0,0:0:0:0:
36,192,410541,1,0,0:0:0:0:
256,192,410613,1,0,0:0:0:0:
402,192,410684,1,0,0:0:0:0:
182,192,410684,1,0,0:0:0:0:
109,192,410756,1,0,0:0:0:0:
329,192,410756,1,0,0:0:0:0:
256,192,410827,1,0,0:0:0:0:
36,192,410827,1,0,0:0:0:0:
402,192,410827,1,0,0:0:0:0:
475,192,410827,1,0,0:0:0:0:
329,192,410898,1,0,0:0:0:0:
182,192,410898,1,0,0:0:0:0:
109,192,410970,1,0,0:0:0:0:
402,192,410970,1,0,0:0:0:0:
256,192,410970,1,0,0:0:0:0:
475,192,411041,1,0,0:0:0:0:
329,192,411041,1,0,0:0:0:0:
402,192,411113,1,0,0:0:0:0:
36,192,411113,1,0,0:0:0:0:
182,192,411113,1,0,0:0:0:0:
109,192,411184,1,0,0:0:0:0:
256,192,411184,1,0,0:0:0:0:
182,192,411256,1,0,0:0:0:0:
475,192,411256,1,0,0:0:0:0:
329,192,411256,1,0,0:0:0:0:
109,192,411327,1,0,0:0:0:0:
402,192,411327,1,0,0:0:0:0:
475,192,411398,1,0,0:0:0:0:
256,192,411398,1,0,0:0:0:0:
36,192,411398,1,0,0:0:0:0:
182,192,411434,1,0,0:0:0:0:
329,192,411470,1,0,0:0:0:0:
109,192,411506,1,0,0:0:0:0:
402,192,411541,1,0,0:0:0:0:
182,192,411577,1,0,0:0:0:0:
329,192,411613,1,0,0:0:0:0:
256,192,411648,1,0,0:0:0:0:
475,192,411684,1,0,0:0:0:0:
402,192,411684,1,0,0:0:0:0:
36,192,411684,1,0,0:0:0:0:
109,192,411684,1,0,0:0:0:0:
182,192,411756,1,0,0:0:0:0:
475,192,411827,1,0,0:0:0:0:
329,192,411827,1,0,0:0:0:0:
256,192,411827,1,0,0:0:0:0:
402,192,411898,1,0,0:0:0:0:
36,192,411898,1,0,0:0:0:0:
109,192,411898,1,0,0:0:0:0:
475,192,411970,1,0,0:0:0:0:
256,192,411970,1,0,0:0:0:0:
182,192,411970,1,0,0:0:0:0:
109,192,412041,1,0,0:0:0:0:
329,192,412041,1,0,0:0:0:0:
402,192,412113,1,0,0:0:0:0:
256,192,412113,1,0,0:0:0:0:
36,192,412113,1,0,0:0:0:0:
329,192,412184,1,0,0:0:0:0:
182,192,412184,1,0,0:0:0:0:
475,192,412256,1,0,0:0:0:0:
256,192,412256,1,0,0:0:0:0:
109,192,412256,1,0,0:0:0:0:
402,192,412327,1,0,0:0:0:0:
329,192,412327,1,0,0:0:0:0:
475,192,412398,1,0,0:0:0:0:
36,192,412398,1,0,0:0:0:0:
182,192,412398,1,0,0:0:0:0:
256,192,412470,1,0,0:0:0:0:
109,192,412470,1,0,0:0:0:0:
182,192,412541,1,0,0:0:0:0:
402,192,412541,1,0,0:0:0:0:
329,192,412541,1,0,0:0:0:0:
109,192,412636,1,0,0:0:0:0:
402,192,412636,1,0,0:0:0:0:
329,192,412636,1,0,0:0:0:0:
402,192,412732,1,0,0:0:0:0:
329,192,412732,1,0,0:0:0:0:
182,192,412732,1,0,0:0:0:0:
36,192,412827,1,0,0:0:0:0:
109,192,412827,1,0,0:0:0:0:
256,192,412827,1,0,0:0:0:0:
475,192,412827,1,0,0:0:0:0:
402,192,412898,1,0,0:0:0:0:
329,192,412898,1,0,0:0:0:0:
475,192,412970,1,0,0:0:0:0:
36,192,412970,1,0,0:0:0:0:
182,192,412970,1,0,0:0:0:0:
329,192,413041,1,0,0:0:0:0:
256,192,413041,1,0,0:0:0:0:
402,192,413113,1,0,0:0:0:0:
36,192,413113,1,0,0:0:0:0:
109,192,413113,1,0,0:0:0:0:
256,192,413184,1,0,0:0:0:0:
182,192,413184,1,0,0:0:0:0:
36,192,413256,1,0,0:0:0:0:
475,192,413256,1,0,0:0:0:0:
329,192,413256,1,0,0:0:0:0:
182,192,413327,1,0,0:0:0:0:
109,192,413327,1,0,0:0:0:0:
475,192,413398,1,0,0:0:0:0:
402,192,413398,1,0,0:0:0:0:
256,192,413398,1,0,0:0:0:0:
182,192,413470,1,0,0:0:0:0:
329,192,413470,1,0,0:0:0:0:
402,192,413541,1,0,0:0:0:0:
475,192,413541,1,0,0:0:0:0:
256,192,413541,1,0,0:0:0:0:
109,192,413541,1,0,0:0:0:0:
36,192,413541,1,0,0:0:0:0:
182,192,413613,1,0,0:0:0:0:
109,192,413684,1,0,0:0:0:0:
329,192,413684,1,0,0:0:0:0:
475,192,413684,1,0,0:0:0:0:
36,192,413684,1,0,0:0:0:0:
402,192,413684,1,0,0:0:0:0:
402,192,413827,1,0,0:0:0:0:
475,192,413827,1,0,0:0:0:0:
256,192,413827,1,0,0:0:0:0:
109,192,413827,1,0,0:0:0:0:
36,192,413827,1,0,0:0:0:0:
475,192,413970,1,0,0:0:0:0:
329,192,413970,1,0,0:0:0:0:
402,192,413970,1,0,0:0:0:0:
182,192,413970,1,0,0:0:0:0:
36,192,413970,1,0,0:0:0:0:
329,192,414065,1,0,0:0:0:0:
475,192,414065,1,0,0:0:0:0:
402,192,414065,1,0,0:0:0:0:
329,192,414160,1,0,0:0:0:0:
475,192,414160,1,0,0:0:0:0:
402,192,414160,1,0,0:0:0:0:
36,192,414256,1,0,0:0:0:0:
109,192,414256,1,0,0:0:0:0:
182,192,414256,1,0,0:0:0:0:
182,192,414351,1,0,0:0:0:0:
109,192,414351,1,0,0:0:0:0:
36,192,414351,1,0,0:0:0:0:
36,192,414446,1,0,0:0:0:0:
109,192,414446,1,0,0:0:0:0:
182,192,414446,1,0,0:0:0:0:
475,192,414541,1,0,0:0:0:0:
402,192,414541,1,0,0:0:0:0:
329,192,414541,1,0,0:0:0:0:
329,192,414636,1,0,0:0:0:0:
402,192,414636,1,0,0:0:0:0:
475,192,414636,1,0,0:0:0:0:
475,192,414732,1,0,0:0:0:0:
402,192,414732,1,0,0:0:0:0:
329,192,414732,1,0,0:0:0:0:
36,192,414827,1,0,0:0:0:0:
109,192,414851,1,0,0:0:0:0:
182,192,414875,1,0,0:0:0:0:
256,192,414898,1,0,0:0:0:0:
329,192,414922,1,0,0:0:0:0:
402,192,414946,1,0,0:0:0:0:
36,192,414970,1,0,0:0:0:0:
475,192,414970,1,0,0:0:0:0:
109,192,414994,1,0,0:0:0:0:
182,192,415017,1,0,0:0:0:0:
256,192,415041,1,0,0:0:0:0:
329,192,415065,1,0,0:0:0:0:
402,192,415089,1,0,0:0:0:0:
36,192,415113,1,0,0:0:0:0:
475,192,415113,1,0,0:0:0:0:
109,192,415398,1,0,0:0:0:0:
182,192,415541,1,0,0:0:0:0:
256,192,415684,1,0,0:0:0:0:
109,192,415970,1,0,0:0:0:0:
402,192,416256,1,0,0:0:0:0:
182,192,416684,1,0,0:0:0:0:
182,192,416970,1,0,0:0:0:0:
329,192,417113,1,0,0:0:0:0:
109,192,417256,1,0,0:0:0:0:
402,192,417398,1,0,0:0:0:0:
36,192,417684,1,0,0:0:0:0:
182,192,417827,1,0,0:0:0:0:
329,192,417970,1,0,0:0:0:0:
109,192,418256,1,0,0:0:0:0:
256,192,418398,1,0,0:0:0:0:
402,192,418541,1,0,0:0:0:0:
182,192,418970,1,0,0:0:0:0:
182,192,419256,1,0,0:0:0:0:
36,192,419541,1,0,0:0:0:0:
475,192,419684,1,0,0:0:0:0:
109,192,419970,1,0,0:0:0:0:
182,192,420113,1,0,0:0:0:0:
402,192,420256,1,0,0:0:0:0:
182,192,420398,1,0,0:0:0:0:
329,192,420541,1,0,0:0:0:0:
402,192,420684,1,0,0:0:0:0:
36,192,420827,1,0,0:0:0:0:
475,192,420827,1,0,0:0:0:0:
182,192,421113,1,0,0:0:0:0:
402,192,421398,1,0,0:0:0:0:
182,192,421684,1,0,0:0:0:0:
329,192,421970,1,0,0:0:0:0:
182,192,422398,1,0,0:0:0:0:
109,192,422827,1,0,0:0:0:0:
329,192,422827,1,0,0:0:0:0:
402,192,422970,1,0,0:0:0:0:
109,192,423113,1,0,0:0:0:0:
329,192,423113,1,0,0:0:0:0:
256,192,423398,1,0,0:0:0:0:
182,192,423684,1,0,0:0:0:0:
109,192,423970,1,0,0:0:0:0:
109,192,424256,1,0,0:0:0:0:
329,192,424256,1,0,0:0:0:0:
402,192,424256,1,0,0:0:0:0:
36,192,424256,1,0,0:0:0:0:
182,192,424256,1,0,0:0:0:0:
475,192,424256,1,0,0:0:0:0:
475,192,424470,1,0,0:0:0:0:
475,192,424684,1,0,0:0:0:0:
475,192,424898,1,0,0:0:0:0:
182,192,425398,1,0,0:0:0:0:
182,192,425613,1,0,0:0:0:0:
182,192,425827,1,0,0:0:0:0:
182,192,426041,1,0,0:0:0:0:
182,192,426256,1,0,0:0:0:0:
329,192,426541,1,0,0:0:0:0:
329,192,426756,1,0,0:0:0:0:
329,192,426970,1,0,0:0:0:0:
329,192,427184,1,0,0:0:0:0:
329,192,427398,1,0,0:0:0:0:
36,192,427684,1,0,0:0:0:0:
36,192,427898,1,0,0:0:0:0:
36,192,428113,1,0,0:0:0:0:
36,192,428327,1,0,0:0:0:0:
36,192,428541,1,0,0:0:0:0:
402,192,428827,1,0,0:0:0:0:
402,192,429041,1,0,0:0:0:0:
402,192,429256,1,0,0:0:0:0:
402,192,429470,1,0,0:0:0:0:
402,192,429684,1,0,0:0:0:0:
109,192,429970,1,0,0:0:0:0:
109,192,430184,1,0,0:0:0:0:
109,192,430398,1,0,0:0:0:0:
109,192,430613,1,0,0:0:0:0:
109,192,430827,1,0,0:0:0:0:
256,192,431113,1,0,0:0:0:0:
256,192,431327,1,0,0:0:0:0:
256,192,431541,1,0,0:0:0:0:
256,192,431756,1,0,0:0:0:0:
256,192,431970,1,0,0:0:0:0:
182,192,432256,1,0,0:0:0:0:
36,192,432327,1,0,0:0:0:0:
256,192,432398,1,0,0:0:0:0:
109,192,432470,1,0,0:0:0:0:
329,192,432541,1,0,0:0:0:0:
182,192,432613,1,0,0:0:0:0:
402,192,432684,1,0,0:0:0:0:
256,192,432756,1,0,0:0:0:0:
475,192,432827,1,0,0:0:0:0:
329,192,432898,1,0,0:0:0:0:
475,192,432970,1,0,0:0:0:0:
256,192,433041,1,0,0:0:0:0:
402,192,433113,1,0,0:0:0:0:
182,192,433184,1,0,0:0:0:0:
329,192,433256,1,0,0:0:0:0:
109,192,433327,1,0,0:0:0:0:
475,192,433398,1,0,0:0:0:0:
402,192,433398,1,0,0:0:0:0:
256,192,433398,1,0,0:0:0:0:
36,192,433470,1,0,0:0:0:0:
182,192,433470,1,0,0:0:0:0:
256,192,433541,1,0,0:0:0:0:
109,192,433613,1,0,0:0:0:0:
475,192,433613,1,0,0:0:0:0:
329,192,433613,1,0,0:0:0:0:
182,192,433684,1,0,0:0:0:0:
475,192,433756,1,0,0:0:0:0:
329,192,433756,1,0,0:0:0:0:
109,192,433756,1,0,0:0:0:0:
256,192,433827,1,0,0:0:0:0:
402,192,433898,1,0,0:0:0:0:
36,192,433898,1,0,0:0:0:0:
182,192,433898,1,0,0:0:0:0:
475,192,433970,1,0,0:0:0:0:
109,192,433970,1,0,0:0:0:0:
329,192,433970,1,0,0:0:0:0:
256,192,434041,1,0,0:0:0:0:
36,192,434113,1,0,0:0:0:0:
402,192,434113,1,0,0:0:0:0:
182,192,434113,1,0,0:0:0:0:
329,192,434184,1,0,0:0:0:0:
475,192,434256,1,0,0:0:0:0:
256,192,434256,1,0,0:0:0:0:
109,192,434256,1,0,0:0:0:0:
182,192,434327,1,0,0:0:0:0:
36,192,434398,1,0,0:0:0:0:
402,192,434398,1,0,0:0:0:0:
329,192,434398,1,0,0:0:0:0:
256,192,434470,1,0,0:0:0:0:
109,192,434470,1,0,0:0:0:0:
402,192,434541,1,0,0:0:0:0:
182,192,434541,1,0,0:0:0:0:
475,192,434541,1,0,0:0:0:0:
36,192,434613,1,0,0:0:0:0:
329,192,434613,1,0,0:0:0:0:
109,192,434684,1,0,0:0:0:0:
256,192,434756,1,0,0:0:0:0:
402,192,434756,1,0,0:0:0:0:
475,192,434756,1,0,0:0:0:0:
182,192,434827,1,0,0:0:0:0:
109,192,434898,1,0,0:0:0:0:
329,192,434898,1,0,0:0:0:0:
402,192,434970,1,0,0:0:0:0:
36,192,434970,1,0,0:0:0:0:
256,192,434970,1,0,0:0:0:0:
329,192,435041,1,0,0:0:0:0:
182,192,435041,1,0,0:0:0:0:
109,192,435113,1,0,0:0:0:0:
256,192,435113,1,0,0:0:0:0:
475,192,435184,1,0,0:0:0:0:
402,192,435184,1,0,0:0:0:0:
182,192,435256,1,0,0:0:0:0:
329,192,435256,1,0,0:0:0:0:
36,192,435327,1,0,0:0:0:0:
109,192,435327,1,0,0:0:0:0:
475,192,435398,1,0,0:0:0:0:
402,192,435398,1,0,0:0:0:0:
256,192,435398,1,0,0:0:0:0:
329,192,435470,1,0,0:0:0:0:
182,192,435470,1,0,0:0:0:0:
256,192,435541,1,0,0:0:0:0:
109,192,435541,1,0,0:0:0:0:
36,192,435613,1,0,0:0:0:0:
182,192,435613,1,0,0:0:0:0:
475,192,435684,1,0,0:0:0:0:
402,192,435684,1,0,0:0:0:0:
329,192,435684,1,0,0:0:0:0:
256,192,435756,1,0,0:0:0:0:
109,192,435756,1,0,0:0:0:0:
182,192,435827,1,0,0:0:0:0:
36,192,435898,1,0,0:0:0:0:
402,192,435898,1,0,0:0:0:0:
329,192,435898,1,0,0:0:0:0:
475,192,435970,1,0,0:0:0:0:
256,192,435970,1,0,0:0:0:0:
109,192,435970,1,0,0:0:0:0:
329,192,436041,1,0,0:0:0:0:
402,192,436113,1,0,0:0:0:0:
36,192,436113,1,0,0:0:0:0:
182,192,436113,1,0,0:0:0:0:
256,192,436184,1,0,0:0:0:0:
109,192,436184,1,0,0:0:0:0:
329,192,436256,1,0,0:0:0:0:
475,192,436327,1,0,0:0:0:0:
402,192,436327,1,0,0:0:0:0:
182,192,436327,1,0,0:0:0:0:
36,192,436398,1,0,0:0:0:0:
256,192,436398,1,0,0:0:0:0:
109,192,436398,1,0,0:0:0:0:
182,192,436470,1,0,0:0:0:0:
329,192,436470,1,0,0:0:0:0:
475,192,436541,1,0,0:0:0:0:
402,192,436541,1,0,0:0:0:0:
256,192,436541,1,0,0:0:0:0:
109,192,436613,1,0,0:0:0:0:
36,192,436613,1,0,0:0:0:0:
329,192,436684,1,0,0:0:0:0:
182,192,436684,1,0,0:0:0:0:
36,192,436756,1,0,0:0:0:0:
109,192,436756,1,0,0:0:0:0:
402,192,436827,1,0,0:0:0:0:
256,192,436827,1,0,0:0:0:0:
109,192,436898,1,0,0:0:0:0:
182,192,436898,1,0,0:0:0:0:
329,192,436970,1,0,0:0:0:0:
475,192,437041,1,0,0:0:0:0:
256,192,437041,1,0,0:0:0:0:
36,192,437041,1,0,0:0:0:0:
109,192,437113,1,0,0:0:0:0:
182,192,437113,1,0,0:0:0:0:
402,192,437113,1,0,0:0:0:0:
329,192,437184,1,0,0:0:0:0:
256,192,437256,1,0,0:0:0:0:
109,192,437256,1,0,0:0:0:0:
36,192,437256,1,0,0:0:0:0:
475,192,437327,1,0,0:0:0:0:
402,192,437327,1,0,0:0:0:0:
182,192,437327,1,0,0:0:0:0:
329,192,437398,1,0,0:0:0:0:
182,192,437470,1,0,0:0:0:0:
36,192,437470,1,0,0:0:0:0:
109,192,437470,1,0,0:0:0:0:
256,192,437541,1,0,0:0:0:0:
475,192,437541,1,0,0:0:0:0:
402,192,437541,1,0,0:0:0:0:
182,192,437613,1,0,0:0:0:0:
329,192,437684,1,0,0:0:0:0:
402,192,437684,1,0,0:0:0:0:
109,192,437684,1,0,0:0:0:0:
182,192,437756,1,0,0:0:0:0:
256,192,437756,1,0,0:0:0:0:
475,192,437827,1,0,0:0:0:0:
402,192,437827,1,0,0:0:0:0:
182,192,437898,1,0,0:0:0:0:
109,192,437898,1,0,0:0:0:0:
36,192,437970,1,0,0:0:0:0:
329,192,437970,1,0,0:0:0:0:
256,192,437970,1,0,0:0:0:0:
109,192,438041,1,0,0:0:0:0:
329,192,438113,1,0,0:0:0:0:
475,192,438113,1,0,0:0:0:0:
182,192,438113,1,0,0:0:0:0:
402,192,438184,1,0,0:0:0:0:
36,192,438184,1,0,0:0:0:0:
256,192,438184,1,0,0:0:0:0:
109,192,438256,1,0,0:0:0:0:
475,192,438327,1,0,0:0:0:0:
329,192,438327,1,0,0:0:0:0:
182,192,438327,1,0,0:0:0:0:
109,192,438398,1,0,0:0:0:0:
475,192,438470,1,0,0:0:0:0:
402,192,438470,1,0,0:0:0:0:
256,192,438470,1,0,0:0:0:0:
329,192,438541,1,0,0:0:0:0:
36,192,438541,1,0,0:0:0:0:
182,192,438541,1,0,0:0:0:0:
402,192,438613,1,0,0:0:0:0:
475,192,438684,1,0,0:0:0:0:
256,192,438684,1,0,0:0:0:0:
109,192,438684,1,0,0:0:0:0:
36,192,438756,1,0,0:0:0:0:
402,192,438827,1,0,0:0:0:0:
329,192,438827,1,0,0:0:0:0:
182,192,438827,1,0,0:0:0:0:
109,192,438898,1,0,0:0:0:0:
475,192,438970,1,0,0:0:0:0:
402,192,438970,1,0,0:0:0:0:
256,192,438970,1,0,0:0:0:0:
182,192,439041,1,0,0:0:0:0:
329,192,439113,1,0,0:0:0:0:
475,192,439113,1,0,0:0:0:0:
109,192,439113,1,0,0:0:0:0:
36,192,439113,1,0,0:0:0:0:
402,192,439184,1,0,0:0:0:0:
256,192,439184,1,0,0:0:0:0:
182,192,439256,1,0,0:0:0:0:
329,192,439327,1,0,0:0:0:0:
475,192,439327,1,0,0:0:0:0:
109,192,439327,1,0,0:0:0:0:
36,192,439327,1,0,0:0:0:0:
256,192,439398,1,0,0:0:0:0:
475,192,439470,1,0,0:0:0:0:
402,192,439470,1,0,0:0:0:0:
182,192,439470,1,0,0:0:0:0:
329,192,439541,1,0,0:0:0:0:
36,192,439541,1,0,0:0:0:0:
109,192,439541,1,0,0:0:0:0:
256,192,439613,1,0,0:0:0:0:
182,192,439613,1,0,0:0:0:0:
402,192,439684,1,0,0:0:0:0:
36,192,439684,1,0,0:0:0:0:
475,192,439684,1,0,0:0:0:0:
256,192,439756,1,0,0:0:0:0:
109,192,439756,1,0,0:0:0:0:
329,192,439827,1,0,0:0:0:0:
475,192,439827,1,0,0:0:0:0:
182,192,439898,1,0,0:0:0:0:
109,192,439898,1,0,0:0:0:0:
402,192,439970,1,0,0:0:0:0:
329,192,439970,1,0,0:0:0:0:
182,192,440041,1,0,0:0:0:0:
36,192,440041,1,0,0:0:0:0:
475,192,440113,1,0,0:0:0:0:
402,192,440113,1,0,0:0:0:0:
256,192,440184,1,0,0:0:0:0:
109,192,440184,1,0,0:0:0:0:
402,192,440256,1,0,0:0:0:0:
475,192,440256,1,0,0:0:0:0:
182,192,440256,1,0,0:0:0:0:
36,192,440256,1,0,0:0:0:0:
256,192,440327,1,0,0:0:0:0:
109,192,440398,1,0,0:0:0:0:
402,192,440398,1,0,0:0:0:0:
329,192,440398,1,0,0:0:0:0:
182,192,440470,1,0,0:0:0:0:
36,192,440541,1,0,0:0:0:0:
329,192,440541,1,0,0:0:0:0:
256,192,440541,1,0,0:0:0:0:
109,192,440613,1,0,0:0:0:0:
475,192,440684,1,0,0:0:0:0:
256,192,440684,1,0,0:0:0:0:
182,192,440684,1,0,0:0:0:0:
402,192,440756,1,0,0:0:0:0:
329,192,440827,1,0,0:0:0:0:
36,192,440827,1,0,0:0:0:0:
109,192,440827,1,0,0:0:0:0:
182,192,440898,1,0,0:0:0:0:
402,192,440898,1,0,0:0:0:0:
109,192,440970,1,0,0:0:0:0:
256,192,440970,1,0,0:0:0:0:
475,192,440970,1,0,0:0:0:0:
36,192,441041,1,0,0:0:0:0:
329,192,441041,1,0,0:0:0:0:
475,192,441113,1,0,0:0:0:0:
109,192,441113,1,0,0:0:0:0:
402,192,441113,1,0,0:0:0:0:
329,192,441184,1,0,0:0:0:0:
182,192,441184,1,0,0:0:0:0:
475,192,441256,1,0,0:0:0:0:
36,192,441256,1,0,0:0:0:0:
256,192,441256,1,0,0:0:0:0:
109,192,441327,1,0,0:0:0:0:
402,192,441327,1,0,0:0:0:0:
329,192,441398,1,0,0:0:0:0:
182,192,441398,1,0,0:0:0:0:
402,192,441470,1,0,0:0:0:0:
256,192,441470,1,0,0:0:0:0:
109,192,441541,1,0,0:0:0:0:
36,192,441541,1,0,0:0:0:0:
329,192,441613,1,0,0:0:0:0:
182,192,441613,1,0,0:0:0:0:
475,192,441684,1,0,0:0:0:0:
402,192,441684,1,0,0:0:0:0:
36,192,441756,1,0,0:0:0:0:
256,192,441756,1,0,0:0:0:0:
329,192,441827,1,0,0:0:0:0:
109,192,441827,1,0,0:0:0:0:
256,192,441898,1,0,0:0:0:0:
475,192,441898,1,0,0:0:0:0:
402,192,441970,1,0,0:0:0:0:
182,192,441970,1,0,0:0:0:0:
36,192,441970,1,0,0:0:0:0:
256,192,442041,1,0,0:0:0:0:
109,192,442041,1,0,0:0:0:0:
329,192,442113,1,0,0:0:0:0:
182,192,442113,1,0,0:0:0:0:
256,192,442184,1,0,0:0:0:0:
109,192,442184,1,0,0:0:0:0:
182,192,442256,1,0,0:0:0:0:
329,192,442256,1,0,0:0:0:0:
402,192,442327,1,0,0:0:0:0:
256,192,442327,1,0,0:0:0:0:
329,192,442398,1,0,0:0:0:0:
182,192,442398,1,0,0:0:0:0:
402,192,442470,1,0,0:0:0:0:
256,192,442470,1,0,0:0:0:0:
109,192,442541,1,0,0:0:0:0:
36,192,442541,1,0,0:0:0:0:
329,192,442541,1,0,0:0:0:0:
475,192,442541,1,0,0:0:0:0:
182,192,442613,1,0,0:0:0:0:
475,192,442684,1,0,0:0:0:0:
36,192,442684,1,0,0:0:0:0:
256,192,442684,1,0,0:0:0:0:
402,192,442684,1,0,0:0:0:0:
329,192,442756,1,0,0:0:0:0:
109,192,442756,1,0,0:0:0:0:
475,192,442827,1,0,0:0:0:0:
402,192,442827,1,0,0:0:0:0:
182,192,442827,1,0,0:0:0:0:
256,192,442898,1,0,0:0:0:0:
329,192,442970,1,0,0:0:0:0:
402,192,442970,1,0,0:0:0:0:
36,192,442970,1,0,0:0:0:0:
109,192,442970,1,0,0:0:0:0:
256,192,443041,1,0,0:0:0:0:
475,192,443113,1,0,0:0:0:0:
402,192,443113,1,0,0:0:0:0:
182,192,443113,1,0,0:0:0:0:
109,192,443113,1,0,0:0:0:0:
329,192,443184,1,0,0:0:0:0:
182,192,443256,1,0,0:0:0:0:
402,192,443256,1,0,0:0:0:0:
36,192,443256,1,0,0:0:0:0:
109,192,443256,1,0,0:0:0:0:
475,192,443327,1,0,0:0:0:0:
256,192,443327,1,0,0:0:0:0:
329,192,443398,1,0,0:0:0:0:
109,192,443398,1,0,0:0:0:0:
36,192,443398,1,0,0:0:0:0:
402,192,443470,1,0,0:0:0:0:
182,192,443470,1,0,0:0:0:0:
36,192,443541,1,0,0:0:0:0:
475,192,443541,1,0,0:0:0:0:
256,192,443541,1,0,0:0:0:0:
402,192,443613,1,0,0:0:0:0:
182,192,443613,1,0,0:0:0:0:
109,192,443684,1,0,0:0:0:0:
475,192,443684,1,0,0:0:0:0:
329,192,443684,1,0,0:0:0:0:
256,192,443684,1,0,0:0:0:0:
36,192,443756,1,0,0:0:0:0:
182,192,443756,1,0,0:0:0:0:
109,192,443827,1,0,0:0:0:0:
475,192,443827,1,0,0:0:0:0:
329,192,443827,1,0,0:0:0:0:
402,192,443898,1,0,0:0:0:0:
256,192,443898,1,0,0:0:0:0:
36,192,443970,1,0,0:0:0:0:
475,192,443970,1,0,0:0:0:0:
182,192,443970,1,0,0:0:0:0:
329,192,443970,1,0,0:0:0:0:
109,192,444041,1,0,0:0:0:0:
329,192,444113,1,0,0:0:0:0:
475,192,444113,1,0,0:0:0:0:
402,192,444113,1,0,0:0:0:0:
109,192,444184,1,0,0:0:0:0:
256,192,444184,1,0,0:0:0:0:
182,192,444184,1,0,0:0:0:0:
36,192,444256,1,0,0:0:0:0:
475,192,444256,1,0,0:0:0:0:
402,192,444256,1,0,0:0:0:0:
182,192,444327,1,0,0:0:0:0:
256,192,444327,1,0,0:0:0:0:
329,192,444327,1,0,0:0:0:0:
475,192,444398,1,0,0:0:0:0:
109,192,444398,1,0,0:0:0:0:
36,192,444398,1,0,0:0:0:0:
182,192,444470,1,0,0:0:0:0:
402,192,444470,1,0,0:0:0:0:
36,192,444541,1,0,0:0:0:0:
109,192,444541,1,0,0:0:0:0:
475,192,444541,1,0,0:0:0:0:
256,192,444541,1,0,0:0:0:0:
402,192,444613,1,0,0:0:0:0:
329,192,444613,1,0,0:0:0:0:
109,192,444684,1,0,0:0:0:0:
256,192,444684,1,0,0:0:0:0:
182,192,444756,1,0,0:0:0:0:
36,192,444756,1,0,0:0:0:0:
256,192,444827,1,0,0:0:0:0:
109,192,444827,1,0,0:0:0:0:
402,192,444827,1,0,0:0:0:0:
475,192,444827,1,0,0:0:0:0:
329,192,444898,1,0,0:0:0:0:
109,192,444970,1,0,0:0:0:0:
36,192,444970,1,0,0:0:0:0:
402,192,445041,1,0,0:0:0:0:
475,192,445041,1,0,0:0:0:0:
182,192,445041,1,0,0:0:0:0:
256,192,445041,1,0,0:0:0:0:
36,192,445113,1,0,0:0:0:0:
182,192,445184,1,0,0:0:0:0:
109,192,445184,1,0,0:0:0:0:
402,192,445256,1,0,0:0:0:0:
475,192,445256,1,0,0:0:0:0:
256,192,445256,1,0,0:0:0:0:
329,192,445256,1,0,0:0:0:0:
182,192,445327,1,0,0:0:0:0:
36,192,445398,1,0,0:0:0:0:
109,192,445398,1,0,0:0:0:0:
329,192,445470,1,0,0:0:0:0:
402,192,445470,1,0,0:0:0:0:
182,192,445470,1,0,0:0:0:0:
256,192,445470,1,0,0:0:0:0:
475,192,445541,1,0,0:0:0:0:
329,192,445613,1,0,0:0:0:0:
402,192,445613,1,0,0:0:0:0:
182,192,445684,1,0,0:0:0:0:
256,192,445684,1,0,0:0:0:0:
36,192,445684,1,0,0:0:0:0:
109,192,445684,1,0,0:0:0:0:
475,192,445756,1,0,0:0:0:0:
402,192,445756,1,0,0:0:0:0:
329,192,445756,1,0,0:0:0:0:
182,192,445827,1,0,0:0:0:0:
36,192,445827,1,0,0:0:0:0:
109,192,445827,1,0,0:0:0:0:
402,192,445898,1,0,0:0:0:0:
329,192,445898,1,0,0:0:0:0:
256,192,445898,1,0,0:0:0:0:
475,192,445970,1,0,0:0:0:0:
182,192,445970,1,0,0:0:0:0:
36,192,445970,1,0,0:0:0:0:
109,192,445970,1,0,0:0:0:0:
402,192,446041,1,0,0:0:0:0:
182,192,446113,1,0,0:0:0:0:
329,192,446113,1,0,0:0:0:0:
256,192,446184,1,0,0:0:0:0:
475,192,446184,1,0,0:0:0:0:
36,192,446184,1,0,0:0:0:0:
109,192,446184,1,0,0:0:0:0:
329,192,446256,1,0,0:0:0:0:
109,192,446327,1,0,0:0:0:0:
182,192,446327,1,0,0:0:0:0:
475,192,446398,1,0,0:0:0:0:
36,192,446398,1,0,0:0:0:0:
256,192,446398,1,0,0:0:0:0:
402,192,446398,1,0,0:0:0:0:
109,192,446470,1,0,0:0:0:0:
329,192,446541,1,0,0:0:0:0:
182,192,446541,1,0,0:0:0:0:
402,192,446613,1,0,0:0:0:0:
475,192,446613,1,0,0:0:0:0:
256,192,446613,1,0,0:0:0:0:
36,192,446613,1,0,0:0:0:0:
182,192,446684,1,0,0:0:0:0:
329,192,446756,1,0,0:0:0:0:
109,192,446756,1,0,0:0:0:0:
402,192,446827,1,0,0:0:0:0:
475,192,446827,1,0,0:0:0:0:
36,192,446827,1,0,0:0:0:0:
256,192,446827,1,0,0:0:0:0:
329,192,446898,1,0,0:0:0:0:
182,192,446898,1,0,0:0:0:0:
475,192,446970,1,0,0:0:0:0:
256,192,446970,1,0,0:0:0:0:
109,192,446970,1,0,0:0:0:0:
182,192,447041,1,0,0:0:0:0:
329,192,447041,1,0,0:0:0:0:
109,192,447113,1,0,0:0:0:0:
402,192,447113,1,0,0:0:0:0:
475,192,447113,1,0,0:0:0:0:
36,192,447113,1,0,0:0:0:0:
256,192,447113,1,0,0:0:0:0:
182,192,447184,1,0,0:0:0:0:
36,192,447256,1,0,0:0:0:0:
475,192,447256,1,0,0:0:0:0:
256,192,447256,1,0,0:0:0:0:
329,192,447256,1,0,0:0:0:0:
402,192,447327,1,0,0:0:0:0:
109,192,447327,1,0,0:0:0:0:
475,192,447398,1,0,0:0:0:0:
36,192,447398,1,0,0:0:0:0:
182,192,447398,1,0,0:0:0:0:
329,192,447398,1,0,0:0:0:0:
109,192,447470,1,0,0:0:0:0:
256,192,447470,1,0,0:0:0:0:
182,192,447541,1,0,0:0:0:0:
402,192,447541,1,0,0:0:0:0:
329,192,447541,1,0,0:0:0:0:
256,192,447613,1,0,0:0:0:0:
36,192,447613,1,0,0:0:0:0:
475,192,447684,1,0,0:0:0:0:
182,192,447684,1,0,0:0:0:0:
109,192,447684,1,0,0:0:0:0:
402,192,447684,1,0,0:0:0:0:
256,192,447756,1,0,0:0:0:0:
329,192,447827,1,0,0:0:0:0:
402,192,447827,1,0,0:0:0:0:
109,192,447827,1,0,0:0:0:0:
36,192,447827,1,0,0:0:0:0:
256,192,447898,1,0,0:0:0:0:
402,192,447970,1,0,0:0:0:0:
475,192,447970,1,0,0:0:0:0:
182,192,447970,1,0,0:0:0:0:
109,192,447970,1,0,0:0:0:0:
256,192,448041,1,0,0:0:0:0:
109,192,448113,1,0,0:0:0:0:
36,192,448113,1,0,0:0:0:0:
329,192,448113,1,0,0:0:0:0:
402,192,448113,1,0,0:0:0:0:
182,192,448184,1,0,0:0:0:0:
109,192,448256,1,0,0:0:0:0:
36,192,448256,1,0,0:0:0:0:
475,192,448256,1,0,0:0:0:0:
256,192,448256,1,0,0:0:0:0:
402,192,448256,1,0,0:0:0:0:
329,192,448327,1,0,0:0:0:0:
36,192,448398,1,0,0:0:0:0:
256,192,448398,1,0,0:0:0:0:
182,192,448398,1,0,0:0:0:0:
109,192,448470,1,0,0:0:0:0:
329,192,448470,1,0,0:0:0:0:
402,192,448470,1,0,0:0:0:0:
475,192,448541,1,0,0:0:0:0:
256,192,448541,1,0,0:0:0:0:
182,192,448541,1,0,0:0:0:0:
109,192,448613,1,0,0:0:0:0:
329,192,448613,1,0,0:0:0:0:
402,192,448684,1,0,0:0:0:0:
475,192,448684,1,0,0:0:0:0:
36,192,448684,1,0,0:0:0:0:
182,192,448684,1,0,0:0:0:0:
109,192,448756,1,0,0:0:0:0:
256,192,448756,1,0,0:0:0:0:
402,192,448827,1,0,0:0:0:0:
475,192,448827,1,0,0:0:0:0:
182,192,448827,1,0,0:0:0:0:
329,192,448827,1,0,0:0:0:0:
36,192,448898,1,0,0:0:0:0:
329,192,448970,1,0,0:0:0:0:
402,192,448970,1,0,0:0:0:0:
109,192,448970,1,0,0:0:0:0:
256,192,448970,1,0,0:0:0:0:
475,192,449041,1,0,0:0:0:0:
256,192,449113,1,0,0:0:0:0:
329,192,449113,1,0,0:0:0:0:
36,192,449113,1,0,0:0:0:0:
182,192,449113,1,0,0:0:0:0:
402,192,449184,1,0,0:0:0:0:
182,192,449256,1,0,0:0:0:0:
256,192,449256,1,0,0:0:0:0:
36,192,449256,1,0,0:0:0:0:
109,192,449256,1,0,0:0:0:0:
329,192,449327,1,0,0:0:0:0:
402,192,449398,5,0,0:0:0:0:
36,192,449398,1,0,0:0:0:0:
182,192,449398,1,0,0:0:0:0:
109,192,449398,1,0,0:0:0:0:
475,192,449398,1,0,0:0:0:0:
329,192,449470,1,0,0:0:0:0:
256,192,449470,1,0,0:0:0:0:
402,192,449541,1,0,0:0:0:0:
475,192,449541,1,0,0:0:0:0:
109,192,449541,1,0,0:0:0:0:
36,192,449541,1,0,0:0:0:0:
256,192,449613,1,0,0:0:0:0:
182,192,449613,1,0,0:0:0:0:
329,192,449684,1,0,0:0:0:0:
36,192,449684,1,0,0:0:0:0:
475,192,449684,1,0,0:0:0:0:
402,192,449684,1,0,0:0:0:0:
256,192,449756,1,0,0:0:0:0:
182,192,449756,1,0,0:0:0:0:
109,192,449756,1,0,0:0:0:0:
36,192,449827,1,0,0:0:0:0:
475,192,449827,1,0,0:0:0:0:
402,192,449827,1,0,0:0:0:0:
329,192,449898,1,0,0:0:0:0:
256,192,449898,1,0,0:0:0:0:
182,192,449898,1,0,0:0:0:0:
475,192,449970,1,0,0:0:0:0:
36,192,449970,1,0,0:0:0:0:
109,192,449970,1,0,0:0:0:0:
256,192,450041,1,0,0:0:0:0:
329,192,450041,1,0,0:0:0:0:
109,192,450113,1,0,0:0:0:0:
36,192,450113,1,0,0:0:0:0:
182,192,450113,1,0,0:0:0:0:
402,192,450113,1,0,0:0:0:0:
475,192,450184,1,0,0:0:0:0:
256,192,450184,1,0,0:0:0:0:
329,192,450256,1,0,0:0:0:0:
402,192,450256,1,0,0:0:0:0:
36,192,450256,1,0,0:0:0:0:
109,192,450256,1,0,0:0:0:0:
256,192,450327,1,0,0:0:0:0:
182,192,450327,1,0,0:0:0:0:
36,192,450398,1,0,0:0:0:0:
329,192,450398,1,0,0:0:0:0:
402,192,450398,1,0,0:0:0:0:
475,192,450398,1,0,0:0:0:0:
256,192,450470,1,0,0:0:0:0:
109,192,450470,1,0,0:0:0:0:
402,192,450541,1,0,0:0:0:0:
475,192,450541,1,0,0:0:0:0:
182,192,450541,128,0,451541:0:0:0:0:
329,192,450541,1,0,0:0:0:0:
329,192,451113,128,0,451541:0:0:0:0:
402,192,451684,1,0,0:0:0:0:
475,192,451684,1,0,0:0:0:0:
256,192,451684,1,0,0:0:0:0:
36,192,451684,1,0,0:0:0:0:
109,192,451684,1,0,0:0:0:0:
182,192,451756,1,0,0:0:0:0:
329,192,451756,1,0,0:0:0:0:
256,192,451827,1,0,0:0:0:0:
109,192,451827,1,0,0:0:0:0:
182,192,451898,1,0,0:0:0:0:
402,192,451898,1,0,0:0:0:0:
256,192,451970,1,0,0:0:0:0:
475,192,451970,1,0,0:0:0:0:
329,192,451970,1,0,0:0:0:0:
36,192,451970,1,0,0:0:0:0:
182,192,452041,1,0,0:0:0:0:
109,192,452041,1,0,0:0:0:0:
475,192,452113,1,0,0:0:0:0:
329,192,452113,1,0,0:0:0:0:
182,192,452184,1,0,0:0:0:0:
256,192,452184,1,0,0:0:0:0:
402,192,452256,1,0,0:0:0:0:
475,192,452256,1,0,0:0:0:0:
109,192,452256,1,0,0:0:0:0:
36,192,452256,1,0,0:0:0:0:
256,192,452327,1,0,0:0:0:0:
329,192,452327,1,0,0:0:0:0:
475,192,452398,1,0,0:0:0:0:
402,192,452398,1,0,0:0:0:0:
109,192,452398,1,0,0:0:0:0:
329,192,452470,1,0,0:0:0:0:
182,192,452470,1,0,0:0:0:0:
475,192,452541,1,0,0:0:0:0:
256,192,452541,1,0,0:0:0:0:
36,192,452541,1,0,0:0:0:0:
109,192,452541,1,0,0:0:0:0:
329,192,452613,1,0,0:0:0:0:
402,192,452613,1,0,0:0:0:0:
109,192,452684,1,0,0:0:0:0:
182,192,452684,1,0,0:0:0:0:
402,192,452756,1,0,0:0:0:0:
256,192,452756,1,0,0:0:0:0:
475,192,452827,1,0,0:0:0:0:
109,192,452827,1,0,0:0:0:0:
36,192,452827,1,0,0:0:0:0:
329,192,452827,1,0,0:0:0:0:
256,192,452898,1,0,0:0:0:0:
182,192,452898,1,0,0:0:0:0:
36,192,452970,1,0,0:0:0:0:
109,192,452970,1,0,0:0:0:0:
402,192,452970,1,0,0:0:0:0:
256,192,453041,1,0,0:0:0:0:
329,192,453041,1,0,0:0:0:0:
182,192,453113,1,0,0:0:0:0:
36,192,453113,1,0,0:0:0:0:
402,192,453113,1,0,0:0:0:0:
475,192,453113,1,0,0:0:0:0:
256,192,453184,1,0,0:0:0:0:
109,192,453184,1,0,0:0:0:0:
329,192,453256,1,0,0:0:0:0:
182,192,453256,1,0,0:0:0:0:
36,192,453327,1,0,0:0:0:0:
402,192,453327,1,0,0:0:0:0:
256,192,453327,1,0,0:0:0:0:
182,192,453398,1,0,0:0:0:0:
109,192,453398,1,0,0:0:0:0:
329,192,453398,1,0,0:0:0:0:
475,192,453398,1,0,0:0:0:0:
402,192,453470,1,0,0:0:0:0:
36,192,453470,1,0,0:0:0:0:
109,192,453541,1,0,0:0:0:0:
329,192,453541,1,0,0:0:0:0:
182,192,453541,1,0,0:0:0:0:
475,192,453613,1,0,0:0:0:0:
256,192,453613,1,0,0:0:0:0:
329,192,453684,1,0,0:0:0:0:
402,192,453684,1,0,0:0:0:0:
36,192,453684,1,0,0:0:0:0:
109,192,453684,1,0,0:0:0:0:
256,192,453756,1,0,0:0:0:0:
182,192,453756,1,0,0:0:0:0:
36,192,453827,1,0,0:0:0:0:
475,192,453827,1,0,0:0:0:0:
402,192,453827,1,0,0:0:0:0:
182,192,453898,1,0,0:0:0:0:
109,192,453898,1,0,0:0:0:0:
402,192,453970,1,0,0:0:0:0:
475,192,453970,1,0,0:0:0:0:
256,192,453970,1,0,0:0:0:0:
329,192,453970,1,0,0:0:0:0:
182,192,454041,1,0,0:0:0:0:
36,192,454041,1,0,0:0:0:0:
109,192,454113,1,0,0:0:0:0:
402,192,454113,1,0,0:0:0:0:
256,192,454113,1,0,0:0:0:0:
475,192,454184,1,0,0:0:0:0:
329,192,454184,1,0,0:0:0:0:
256,192,454256,1,0,0:0:0:0:
402,192,454256,1,0,0:0:0:0:
182,192,454256,1,0,0:0:0:0:
36,192,454256,1,0,0:0:0:0:
329,192,454327,1,0,0:0:0:0:
109,192,454327,1,0,0:0:0:0:
475,192,454398,1,0,0:0:0:0:
182,192,454398,1,0,0:0:0:0:
256,192,454470,1,0,0:0:0:0:
36,192,454470,1,0,0:0:0:0:
402,192,454541,1,0,0:0:0:0:
475,192,454541,1,0,0:0:0:0:
109,192,454541,1,0,0:0:0:0:
329,192,454541,1,0,0:0:0:0:
256,192,454613,1,0,0:0:0:0:
182,192,454613,1,0,0:0:0:0:
36,192,454684,1,0,0:0:0:0:
329,192,454684,1,0,0:0:0:0:
402,192,454684,1,0,0:0:0:0:
182,192,454756,1,0,0:0:0:0:
109,192,454756,1,0,0:0:0:0:
475,192,454827,1,0,0:0:0:0:
36,192,454827,1,0,0:0:0:0:
256,192,454827,1,0,0:0:0:0:
402,192,454827,1,0,0:0:0:0:
329,192,454898,1,0,0:0:0:0:
182,192,454898,1,0,0:0:0:0:
256,192,454970,1,0,0:0:0:0:
36,192,454970,1,0,0:0:0:0:
109,192,454970,1,0,0:0:0:0:
329,192,455041,1,0,0:0:0:0:
402,192,455041,1,0,0:0:0:0:
256,192,455113,1,0,0:0:0:0:
475,192,455113,1,0,0:0:0:0:
182,192,455113,1,0,0:0:0:0:
109,192,455113,1,0,0:0:0:0:
402,192,455184,1,0,0:0:0:0:
36,192,455184,1,0,0:0:0:0:
182,192,455256,1,0,0:0:0:0:
329,192,455256,1,0,0:0:0:0:
402,192,455327,1,0,0:0:0:0:
109,192,455327,1,0,0:0:0:0:
475,192,455398,1,0,0:0:0:0:
182,192,455398,1,0,0:0:0:0:
36,192,455398,1,0,0:0:0:0:
256,192,455398,1,0,0:0:0:0:
402,192,455470,1,0,0:0:0:0:
329,192,455470,1,0,0:0:0:0:
182,192,455541,1,0,0:0:0:0:
36,192,455541,1,0,0:0:0:0:
109,192,455541,1,0,0:0:0:0:
329,192,455613,1,0,0:0:0:0:
256,192,455613,1,0,0:0:0:0:
475,192,455613,1,0,0:0:0:0:
182,192,455684,1,0,0:0:0:0:
36,192,455684,1,0,0:0:0:0:
109,192,455684,1,0,0:0:0:0:
329,192,455756,1,0,0:0:0:0:
475,192,455756,1,0,0:0:0:0:
402,192,455756,1,0,0:0:0:0:
109,192,455827,1,0,0:0:0:0:
182,192,455827,1,0,0:0:0:0:
256,192,455827,1,0,0:0:0:0:
475,192,455898,1,0,0:0:0:0:
329,192,455898,1,0,0:0:0:0:
256,192,455970,1,0,0:0:0:0:
402,192,455970,1,0,0:0:0:0:
36,192,455970,1,0,0:0:0:0:
109,192,455970,1,0,0:0:0:0:
182,192,456041,1,0,0:0:0:0:
329,192,456041,1,0,0:0:0:0:
402,192,456113,1,0,0:0:0:0:
256,192,456113,1,0,0:0:0:0:
329,192,456184,1,0,0:0:0:0:
182,192,456184,1,0,0:0:0:0:
402,192,456256,1,0,0:0:0:0:
475,192,456256,1,0,0:0:0:0:
256,192,456256,1,0,0:0:0:0:
109,192,456256,1,0,0:0:0:0:
182,192,456327,1,0,0:0:0:0:
36,192,456327,1,0,0:0:0:0:
475,192,456398,1,0,0:0:0:0:
329,192,456398,1,0,0:0:0:0:
256,192,456470,1,0,0:0:0:0:
109,192,456470,1,0,0:0:0:0:
475,192,456541,1,0,0:0:0:0:
36,192,456541,1,0,0:0:0:0:
182,192,456541,1,0,0:0:0:0:
402,192,456541,1,0,0:0:0:0:
329,192,456613,1,0,0:0:0:0:
256,192,456613,1,0,0:0:0:0:
182,192,456684,1,0,0:0:0:0:
109,192,456684,1,0,0:0:0:0:
402,192,456756,1,0,0:0:0:0:
329,192,456756,1,0,0:0:0:0:
36,192,456827,1,0,0:0:0:0:
475,192,456827,1,0,0:0:0:0:
182,192,456827,1,0,0:0:0:0:
256,192,456827,1,0,0:0:0:0:
329,192,456898,1,0,0:0:0:0:
109,192,456898,1,0,0:0:0:0:
475,192,456970,1,0,0:0:0:0:
402,192,456970,1,0,0:0:0:0:
182,192,456970,1,0,0:0:0:0:
256,192,457041,1,0,0:0:0:0:
36,192,457041,1,0,0:0:0:0:
182,192,457113,1,0,0:0:0:0:
475,192,457113,1,0,0:0:0:0:
402,192,457113,1,0,0:0:0:0:
109,192,457113,1,0,0:0:0:0:
329,192,457113,1,0,0:0:0:0:
256,192,457184,1,0,0:0:0:0:
329,192,457256,1,0,0:0:0:0:
109,192,457256,1,0,0:0:0:0:
36,192,457256,1,0,0:0:0:0:
402,192,457327,1,0,0:0:0:0:
182,192,457327,1,0,0:0:0:0:
36,192,457398,1,0,0:0:0:0:
329,192,457398,1,0,0:0:0:0:
256,192,457398,1,0,0:0:0:0:
475,192,457398,1,0,0:0:0:0:
402,192,457470,1,0,0:0:0:0:
109,192,457470,1,0,0:0:0:0:
329,192,457541,1,0,0:0:0:0:
182,192,457541,1,0,0:0:0:0:
256,192,457613,1,0,0:0:0:0:
109,192,457613,1,0,0:0:0:0:
36,192,457613,1,0,0:0:0:0:
402,192,457684,1,0,0:0:0:0:
475,192,457684,1,0,0:0:0:0:
182,192,457684,1,0,0:0:0:0:
329,192,457684,1,0,0:0:0:0:
256,192,457756,1,0,0:0:0:0:
36,192,457756,1,0,0:0:0:0:
475,192,457827,1,0,0:0:0:0:
182,192,457827,1,0,0:0:0:0:
109,192,457827,1,0,0:0:0:0:
402,192,457898,1,0,0:0:0:0:
329,192,457898,1,0,0:0:0:0:
256,192,457970,1,0,0:0:0:0:
109,192,457970,1,0,0:0:0:0:
36,192,457970,1,0,0:0:0:0:
182,192,458041,1,0,0:0:0:0:
402,192,458041,1,0,0:0:0:0:
329,192,458041,1,0,0:0:0:0:
256,192,458113,1,0,0:0:0:0:
36,192,458113,1,0,0:0:0:0:
109,192,458113,1,0,0:0:0:0:
475,192,458184,1,0,0:0:0:0:
402,192,458184,1,0,0:0:0:0:
329,192,458184,1,0,0:0:0:0:
256,192,458256,1,0,0:0:0:0:
182,192,458256,1,0,0:0:0:0:
109,192,458256,1,0,0:0:0:0:
36,192,458256,1,0,0:0:0:0:
402,192,458327,1,0,0:0:0:0:
475,192,458327,1,0,0:0:0:0:
329,192,458398,1,0,0:0:0:0:
256,192,458398,1,0,0:0:0:0:
109,192,458470,1,0,0:0:0:0:
182,192,458470,1,0,0:0:0:0:
402,192,458541,1,0,0:0:0:0:
475,192,458541,1,0,0:0:0:0:
36,192,458541,1,0,0:0:0:0:
329,192,458541,1,0,0:0:0:0:
256,192,458613,1,0,0:0:0:0:
182,192,458613,1,0,0:0:0:0:
475,192,458684,1,0,0:0:0:0:
402,192,458684,1,0,0:0:0:0:
109,192,458684,1,0,0:0:0:0:
256,192,458756,1,0,0:0:0:0:
329,192,458756,1,0,0:0:0:0:
109,192,458827,1,0,0:0:0:0:
475,192,458827,1,0,0:0:0:0:
402,192,458827,1,0,0:0:0:0:
256,192,458898,1,0,0:0:0:0:
182,192,458898,1,0,0:0:0:0:
402,192,458970,1,0,0:0:0:0:
329,192,458970,1,0,0:0:0:0:
36,192,458970,1,0,0:0:0:0:
182,192,459041,1,0,0:0:0:0:
109,192,459041,1,0,0:0:0:0:
475,192,459113,1,0,0:0:0:0:
329,192,459113,1,0,0:0:0:0:
256,192,459113,1,0,0:0:0:0:
109,192,459184,1,0,0:0:0:0:
36,192,459184,1,0,0:0:0:0:
402,192,459256,1,0,0:0:0:0:
256,192,459256,1,0,0:0:0:0:
182,192,459256,1,0,0:0:0:0:
36,192,459327,1,0,0:0:0:0:
109,192,459327,1,0,0:0:0:0:
256,192,459398,1,0,0:0:0:0:
402,192,459398,1,0,0:0:0:0:
329,192,459398,1,0,0:0:0:0:
475,192,459398,1,0,0:0:0:0:
109,192,459470,1,0,0:0:0:0:
182,192,459470,1,0,0:0:0:0:
402,192,459541,1,0,0:0:0:0:
329,192,459541,1,0,0:0:0:0:
182,192,459613,1,0,0:0:0:0:
36,192,459613,1,0,0:0:0:0:
109,192,459684,5,0,0:0:0:0:
475,192,459684,1,0,0:0:0:0:
256,192,459684,1,0,0:0:0:0:
402,192,459684,1,0,0:0:0:0:
329,192,459684,1,0,0:0:0:0:
182,192,459756,1,0,0:0:0:0:
36,192,459756,1,0,0:0:0:0:
402,192,459827,1,0,0:0:0:0:
256,192,459827,1,0,0:0:0:0:
329,192,459898,1,0,0:0:0:0:
182,192,459898,1,0,0:0:0:0:
109,192,459898,1,0,0:0:0:0:
475,192,459970,1,0,0:0:0:0:
36,192,459970,1,0,0:0:0:0:
256,192,459970,1,0,0:0:0:0:
402,192,460041,1,0,0:0:0:0:
329,192,460041,1,0,0:0:0:0:
109,192,460113,1,0,0:0:0:0:
36,192,460113,1,0,0:0:0:0:
182,192,460113,1,0,0:0:0:0:
475,192,460184,1,0,0:0:0:0:
402,192,460184,1,0,0:0:0:0:
329,192,460184,1,0,0:0:0:0:
182,192,460256,1,0,0:0:0:0:
109,192,460256,1,0,0:0:0:0:
36,192,460256,1,0,0:0:0:0:
475,192,460327,1,0,0:0:0:0:
402,192,460327,1,0,0:0:0:0:
256,192,460327,1,0,0:0:0:0:
109,192,460398,1,0,0:0:0:0:
329,192,460398,1,0,0:0:0:0:
402,192,460470,1,0,0:0:0:0:
182,192,460470,1,0,0:0:0:0:
329,192,460541,1,0,0:0:0:0:
475,192,460541,1,0,0:0:0:0:
256,192,460541,1,0,0:0:0:0:
36,192,460541,1,0,0:0:0:0:
109,192,460541,1,0,0:0:0:0:
182,192,460613,1,0,0:0:0:0:
402,192,460613,1,0,0:0:0:0:
109,192,460684,1,0,0:0:0:0:
329,192,460684,1,0,0:0:0:0:
36,192,460756,1,0,0:0:0:0:
256,192,460756,1,0,0:0:0:0:
109,192,460827,5,0,0:0:0:0:
402,192,460827,1,0,0:0:0:0:
475,192,460827,1,0,0:0:0:0:
329,192,460827,1,0,0:0:0:0:
182,192,460827,1,0,0:0:0:0:
329,192,461113,1,0,0:0:0:0:
402,192,461113,1,0,0:0:0:0:
256,192,461113,1,0,0:0:0:0:
109,192,461113,1,0,0:0:0:0:
36,192,461113,1,0,0:0:0:0:
329,192,461398,1,0,0:0:0:0:
475,192,461398,1,0,0:0:0:0:
402,192,461398,1,0,0:0:0:0:
109,192,461398,1,0,0:0:0:0:
182,192,461398,1,0,0:0:0:0:
329,192,461684,1,0,0:0:0:0:
402,192,461684,1,0,0:0:0:0:
256,192,461684,1,0,0:0:0:0:
109,192,461684,1,0,0:0:0:0:
36,192,461684,1,0,0:0:0:0:
402,192,461970,1,0,0:0:0:0:
475,192,461970,1,0,0:0:0:0:
256,192,461970,1,0,0:0:0:0:
109,192,461970,1,0,0:0:0:0:
36,192,461970,1,0,0:0:0:0:
329,192,462041,1,0,0:0:0:0:
182,192,462041,1,0,0:0:0:0:
402,192,462113,1,0,0:0:0:0:
36,192,462113,1,0,0:0:0:0:
256,192,462113,1,0,0:0:0:0:
182,192,462184,1,0,0:0:0:0:
329,192,462184,1,0,0:0:0:0:
109,192,462184,1,0,0:0:0:0:
402,192,462256,1,0,0:0:0:0:
36,192,462256,1,0,0:0:0:0:
256,192,462256,1,0,0:0:0:0:
475,192,462256,1,0,0:0:0:0:
329,192,462327,1,0,0:0:0:0:
109,192,462327,1,0,0:0:0:0:
256,192,462398,1,0,0:0:0:0:
475,192,462398,1,0,0:0:0:0:
182,192,462398,1,0,0:0:0:0:
109,192,462470,1,0,0:0:0:0:
36,192,462470,1,0,0:0:0:0:
402,192,462470,1,0,0:0:0:0:
329,192,462541,1,0,0:0:0:0:
475,192,462541,1,0,0:0:0:0:
256,192,462541,1,0,0:0:0:0:
182,192,462541,1,0,0:0:0:0:
36,192,462613,1,0,0:0:0:0:
109,192,462613,1,0,0:0:0:0:
329,192,462684,1,0,0:0:0:0:
182,192,462684,1,0,0:0:0:0:
402,192,462684,1,0,0:0:0:0:
475,192,462756,1,0,0:0:0:0:
256,192,462756,1,0,0:0:0:0:
109,192,462756,1,0,0:0:0:0:
182,192,462827,1,0,0:0:0:0:
36,192,462827,1,0,0:0:0:0:
402,192,462827,1,0,0:0:0:0:
329,192,462827,1,0,0:0:0:0:
256,192,462898,1,0,0:0:0:0:
402,192,462970,1,0,0:0:0:0:
475,192,462970,1,0,0:0:0:0:
109,192,462970,1,0,0:0:0:0:
36,192,462970,1,0,0:0:0:0:
329,192,463041,1,0,0:0:0:0:
182,192,463041,1,0,0:0:0:0:
402,192,463113,1,0,0:0:0:0:
475,192,463113,1,0,0:0:0:0:
256,192,463113,1,0,0:0:0:0:
109,192,463113,1,0,0:0:0:0:
36,192,463113,1,0,0:0:0:0:
256,192,463398,1,0,0:0:0:0:
329,192,463398,1,0,0:0:0:0:
182,192,463398,1,0,0:0:0:0:
36,192,463398,1,0,0:0:0:0:
109,192,463398,1,0,0:0:0:0:
329,192,463541,1,0,0:0:0:0:
402,192,463541,1,0,0:0:0:0:
256,192,463541,1,0,0:0:0:0:
109,192,463541,1,0,0:0:0:0:
182,192,463541,1,0,0:0:0:0:
329,192,463827,1,0,0:0:0:0:
402,192,463827,1,0,0:0:0:0:
256,192,463827,1,0,0:0:0:0:
109,192,463827,1,0,0:0:0:0:
182,192,463827,1,0,0:0:0:0:
402,192,464113,1,0,0:0:0:0:
475,192,464113,1,0,0:0:0:0:
329,192,464113,1,0,0:0:0:0:
182,192,464113,1,0,0:0:0:0:
256,192,464113,1,0,0:0:0:0:
475,192,464256,1,0,0:0:0:0:
256,192,464256,1,0,0:0:0:0:
402,192,464256,1,0,0:0:0:0:
36,192,464256,1,0,0:0:0:0:
329,192,464256,1,0,0:0:0:0:
182,192,464327,1,0,0:0:0:0:
109,192,464327,1,0,0:0:0:0:
402,192,464398,1,0,0:0:0:0:
475,192,464398,1,0,0:0:0:0:
329,192,464398,1,0,0:0:0:0:
256,192,464470,1,0,0:0:0:0:
109,192,464470,1,0,0:0:0:0:
36,192,464470,1,0,0:0:0:0:
475,192,464541,1,0,0:0:0:0:
402,192,464541,1,0,0:0:0:0:
182,192,464541,1,0,0:0:0:0:
329,192,464541,1,0,0:0:0:0:
256,192,464613,1,0,0:0:0:0:
109,192,464613,1,0,0:0:0:0:
329,192,464684,1,0,0:0:0:0:
475,192,464684,1,0,0:0:0:0:
36,192,464684,1,0,0:0:0:0:
402,192,464756,1,0,0:0:0:0:
182,192,464756,1,0,0:0:0:0:
109,192,464756,1,0,0:0:0:0:
256,192,464827,1,0,0:0:0:0:
36,192,464827,1,0,0:0:0:0:
329,192,464827,1,0,0:0:0:0:
182,192,464898,1,0,0:0:0:0:
475,192,464898,1,0,0:0:0:0:
402,192,464898,1,0,0:0:0:0:
256,192,464970,1,0,0:0:0:0:
36,192,464970,1,0,0:0:0:0:
109,192,464970,1,0,0:0:0:0:
329,192,465041,1,0,0:0:0:0:
182,192,465041,1,0,0:0:0:0:
36,192,465113,1,0,0:0:0:0:
402,192,465113,1,0,0:0:0:0:
109,192,465113,1,0,0:0:0:0:
475,192,465113,1,0,0:0:0:0:
256,192,465113,1,0,0:0:0:0:
329,192,465184,1,0,0:0:0:0:
182,192,465184,1,0,0:0:0:0:
475,192,465256,1,0,0:0:0:0:
36,192,465256,1,0,0:0:0:0:
256,192,465256,1,0,0:0:0:0:
402,192,465256,1,0,0:0:0:0:
182,192,465327,1,0,0:0:0:0:
109,192,465327,1,0,0:0:0:0:
475,192,465398,1,0,0:0:0:0:
36,192,465398,1,0,0:0:0:0:
402,192,465398,1,0,0:0:0:0:
329,192,465398,1,0,0:0:0:0:
256,192,465398,1,0,0:0:0:0:
329,192,465684,1,0,0:0:0:0:
402,192,465684,1,0,0:0:0:0:
256,192,465684,1,0,0:0:0:0:
182,192,465684,1,0,0:0:0:0:
36,192,465684,1,0,0:0:0:0:
402,192,465970,1,0,0:0:0:0:
475,192,465970,1,0,0:0:0:0:
329,192,465970,1,0,0:0:0:0:
109,192,465970,1,0,0:0:0:0:
256,192,465970,1,0,0:0:0:0:
329,192,466256,1,0,0:0:0:0:
402,192,466256,1,0,0:0:0:0:
256,192,466256,1,0,0:0:0:0:
109,192,466256,1,0,0:0:0:0:
182,192,466256,1,0,0:0:0:0:
475,192,466541,1,0,0:0:0:0:
256,192,466541,1,0,0:0:0:0:
402,192,466541,1,0,0:0:0:0:
36,192,466541,1,0,0:0:0:0:
182,192,466541,1,0,0:0:0:0:
329,192,466613,1,0,0:0:0:0:
109,192,466613,1,0,0:0:0:0:
256,192,466684,1,0,0:0:0:0:
36,192,466684,1,0,0:0:0:0:
182,192,466684,1,0,0:0:0:0:
329,192,466756,1,0,0:0:0:0:
475,192,466756,1,0,0:0:0:0:
402,192,466756,1,0,0:0:0:0:
109,192,466827,1,0,0:0:0:0:
256,192,466827,1,0,0:0:0:0:
182,192,466827,1,0,0:0:0:0:
36,192,466827,1,0,0:0:0:0:
475,192,466898,1,0,0:0:0:0:
402,192,466898,1,0,0:0:0:0:
109,192,466970,1,0,0:0:0:0:
256,192,466970,1,0,0:0:0:0:
329,192,466970,1,0,0:0:0:0:
402,192,467041,1,0,0:0:0:0:
36,192,467041,1,0,0:0:0:0:
182,192,467041,1,0,0:0:0:0:
109,192,467113,1,0,0:0:0:0:
256,192,467113,1,0,0:0:0:0:
475,192,467113,1,0,0:0:0:0:
329,192,467113,1,0,0:0:0:0:
402,192,467184,1,0,0:0:0:0:
182,192,467184,1,0,0:0:0:0:
329,192,467256,1,0,0:0:0:0:
109,192,467256,1,0,0:0:0:0:
36,192,467256,1,0,0:0:0:0:
475,192,467327,1,0,0:0:0:0:
182,192,467327,1,0,0:0:0:0:
256,192,467327,1,0,0:0:0:0:
109,192,467398,1,0,0:0:0:0:
36,192,467398,1,0,0:0:0:0:
402,192,467398,1,0,0:0:0:0:
329,192,467398,1,0,0:0:0:0:
182,192,467470,1,0,0:0:0:0:
475,192,467541,1,0,0:0:0:0:
36,192,467541,1,0,0:0:0:0:
256,192,467541,1,0,0:0:0:0:
329,192,467541,1,0,0:0:0:0:
109,192,467613,1,0,0:0:0:0:
402,192,467613,1,0,0:0:0:0:
36,192,467684,1,0,0:0:0:0:
182,192,467684,1,0,0:0:0:0:
256,192,467684,1,0,0:0:0:0:
329,192,467684,1,0,0:0:0:0:
475,192,467684,1,0,0:0:0:0:
475,192,467970,1,0,0:0:0:0:
36,192,467970,1,0,0:0:0:0:
402,192,467970,1,0,0:0:0:0:
182,192,467970,1,0,0:0:0:0:
329,192,467970,1,0,0:0:0:0:
402,192,468113,1,0,0:0:0:0:
475,192,468113,1,0,0:0:0:0:
329,192,468113,1,0,0:0:0:0:
109,192,468113,1,0,0:0:0:0:
256,192,468113,1,0,0:0:0:0:
402,192,468398,1,0,0:0:0:0:
475,192,468398,1,0,0:0:0:0:
329,192,468398,1,0,0:0:0:0:
109,192,468398,1,0,0:0:0:0:
256,192,468398,1,0,0:0:0:0:
329,192,468684,1,0,0:0:0:0:
256,192,468684,1,0,0:0:0:0:
182,192,468684,1,0,0:0:0:0:
36,192,468684,1,0,0:0:0:0:
109,192,468684,1,0,0:0:0:0:
475,192,468827,1,0,0:0:0:0:
402,192,468827,1,0,0:0:0:0:
182,192,468827,1,0,0:0:0:0:
109,192,468827,1,0,0:0:0:0:
36,192,468827,1,0,0:0:0:0:
256,192,468898,1,0,0:0:0:0:
329,192,468898,1,0,0:0:0:0:
402,192,468970,1,0,0:0:0:0:
109,192,468970,1,0,0:0:0:0:
36,192,468970,1,0,0:0:0:0:
256,192,469041,1,0,0:0:0:0:
182,192,469041,1,0,0:0:0:0:
475,192,469113,1,0,0:0:0:0:
36,192,469113,1,0,0:0:0:0:
329,192,469113,1,0,0:0:0:0:
402,192,469113,1,0,0:0:0:0:
182,192,469184,1,0,0:0:0:0:
109,192,469184,1,0,0:0:0:0:
475,192,469256,1,0,0:0:0:0:
402,192,469256,1,0,0:0:0:0:
256,192,469256,1,0,0:0:0:0:
182,192,469327,1,0,0:0:0:0:
329,192,469327,1,0,0:0:0:0:
256,192,469398,1,0,0:0:0:0:
475,192,469398,1,0,0:0:0:0:
109,192,469398,1,0,0:0:0:0:
36,192,469398,1,0,0:0:0:0:
402,192,469470,1,0,0:0:0:0:
329,192,469470,1,0,0:0:0:0:
475,192,469541,1,0,0:0:0:0:
256,192,469541,1,0,0:0:0:0:
109,192,469541,1,0,0:0:0:0:
36,192,469541,1,0,0:0:0:0:
182,192,469613,1,0,0:0:0:0:
36,192,469684,1,0,0:0:0:0:
109,192,469684,1,0,0:0:0:0:
329,192,469684,1,0,0:0:0:0:
475,192,469684,1,0,0:0:0:0:
402,192,469756,1,0,0:0:0:0:
256,192,469756,1,0,0:0:0:0:
109,192,469827,1,0,0:0:0:0:
329,192,469827,1,0,0:0:0:0:
182,192,469827,1,0,0:0:0:0:
256,192,469898,1,0,0:0:0:0:
182,192,469970,1,0,0:0:0:0:
475,192,469970,1,0,0:0:0:0:
36,192,469970,1,0,0:0:0:0:
402,192,469970,1,0,0:0:0:0:
256,192,470041,1,0,0:0:0:0:
329,192,470041,1,0,0:0:0:0:
402,192,470113,1,0,0:0:0:0:
109,192,470113,1,0,0:0:0:0:
36,192,470113,1,0,0:0:0:0:
256,192,470184,1,0,0:0:0:0:
182,192,470184,1,0,0:0:0:0:
475,192,470256,1,0,0:0:0:0:
36,192,470256,1,0,0:0:0:0:
329,192,470256,1,0,0:0:0:0:
402,192,470256,1,0,0:0:0:0:
182,192,470327,1,0,0:0:0:0:
109,192,470327,1,0,0:0:0:0:
475,192,470398,1,0,0:0:0:0:
402,192,470398,1,0,0:0:0:0:
256,192,470398,1,0,0:0:0:0:
182,192,470470,1,0,0:0:0:0:
329,192,470470,1,0,0:0:0:0:
256,192,470541,1,0,0:0:0:0:
475,192,470541,1,0,0:0:0:0:
109,192,470541,1,0,0:0:0:0:
36,192,470541,1,0,0:0:0:0:
402,192,470613,1,0,0:0:0:0:
329,192,470613,1,0,0:0:0:0:
475,192,470684,1,0,0:0:0:0:
256,192,470684,1,0,0:0:0:0:
109,192,470684,1,0,0:0:0:0:
36,192,470684,1,0,0:0:0:0:
182,192,470756,1,0,0:0:0:0:
36,192,470827,1,0,0:0:0:0:
109,192,470827,1,0,0:0:0:0:
329,192,470827,1,0,0:0:0:0:
475,192,470827,1,0,0:0:0:0:
402,192,470898,1,0,0:0:0:0:
256,192,470898,1,0,0:0:0:0:
109,192,470970,1,0,0:0:0:0:
329,192,470970,1,0,0:0:0:0:
182,192,470970,1,0,0:0:0:0:
256,192,471041,1,0,0:0:0:0:
475,192,471113,1,0,0:0:0:0:
182,192,471113,1,0,0:0:0:0:
36,192,471113,1,0,0:0:0:0:
402,192,471113,1,0,0:0:0:0:
256,192,471184,1,0,0:0:0:0:
329,192,471184,1,0,0:0:0:0:
402,192,471256,1,0,0:0:0:0:
109,192,471256,1,0,0:0:0:0:
36,192,471256,1,0,0:0:0:0:
256,192,471327,1,0,0:0:0:0:
182,192,471327,1,0,0:0:0:0:
475,192,471398,1,0,0:0:0:0:
36,192,471398,1,0,0:0:0:0:
329,192,471398,1,0,0:0:0:0:
402,192,471398,1,0,0:0:0:0:
182,192,471470,1,0,0:0:0:0:
109,192,471470,1,0,0:0:0:0:
329,192,471541,1,0,0:0:0:0:
402,192,471541,1,0,0:0:0:0:
256,192,471613,1,0,0:0:0:0:
109,192,471613,1,0,0:0:0:0:
182,192,471684,1,0,0:0:0:0:
36,192,471684,1,0,0:0:0:0:
475,192,471684,1,0,0:0:0:0:
402,192,471684,1,0,0:0:0:0:
329,192,471756,1,0,0:0:0:0:
256,192,471756,1,0,0:0:0:0:
36,192,471827,1,0,0:0:0:0:
109,192,471827,1,0,0:0:0:0:
402,192,471827,1,0,0:0:0:0:
182,192,471898,1,0,0:0:0:0:
256,192,471898,1,0,0:0:0:0:
329,192,471970,1,0,0:0:0:0:
402,192,471970,1,0,0:0:0:0:
475,192,471970,1,0,0:0:0:0:
36,192,471970,1,0,0:0:0:0:
109,192,472041,1,0,0:0:0:0:
182,192,472041,1,0,0:0:0:0:
256,192,472113,1,0,0:0:0:0:
402,192,472113,1,0,0:0:0:0:
475,192,472113,1,0,0:0:0:0:
329,192,472184,1,0,0:0:0:0:
182,192,472184,1,0,0:0:0:0:
109,192,472256,1,0,0:0:0:0:
36,192,472256,1,0,0:0:0:0:
256,192,472256,1,0,0:0:0:0:
475,192,472256,1,0,0:0:0:0:
402,192,472327,1,0,0:0:0:0:
329,192,472327,1,0,0:0:0:0:
109,192,472398,1,0,0:0:0:0:
182,192,472398,1,0,0:0:0:0:
329,192,472470,1,0,0:0:0:0:
256,192,472470,1,0,0:0:0:0:
109,192,472541,1,0,0:0:0:0:
36,192,472541,1,0,0:0:0:0:
402,192,472541,1,0,0:0:0:0:
475,192,472541,1,0,0:0:0:0:
256,192,472613,1,0,0:0:0:0:
182,192,472613,1,0,0:0:0:0:
402,192,472684,1,0,0:0:0:0:
329,192,472684,1,0,0:0:0:0:
182,192,472756,1,0,0:0:0:0:
36,192,472827,1,0,0:0:0:0:
109,192,472827,1,0,0:0:0:0:
402,192,472827,1,0,0:0:0:0:
475,192,472827,1,0,0:0:0:0:
256,192,472898,1,0,0:0:0:0:
182,192,472898,1,0,0:0:0:0:
329,192,472898,1,0,0:0:0:0:
402,192,472970,1,0,0:0:0:0:
475,192,472970,1,0,0:0:0:0:
109,192,472970,1,0,0:0:0:0:
36,192,472970,1,0,0:0:0:0:
256,192,473041,1,0,0:0:0:0:
182,192,473041,1,0,0:0:0:0:
329,192,473041,1,0,0:0:0:0:
329,192,473398,1,0,0:0:0:0:
402,192,473398,1,0,0:0:0:0:
475,192,473398,1,0,0:0:0:0:
36,192,473398,1,0,0:0:0:0:
109,192,473398,1,0,0:0:0:0:
182,192,473398,1,0,0:0:0:0:
329,192,473541,1,0,0:0:0:0:
475,192,473541,1,0,0:0:0:0:
256,192,473541,1,0,0:0:0:0:
182,192,473541,1,0,0:0:0:0:
109,192,473541,1,0,0:0:0:0:
402,192,473684,1,0,0:0:0:0:
36,192,473684,1,0,0:0:0:0:
329,192,473684,1,0,0:0:0:0:
182,192,473684,1,0,0:0:0:0:
256,192,473684,1,0,0:0:0:0:
475,192,473827,1,0,0:0:0:0:
109,192,473827,1,0,0:0:0:0:
402,192,473827,1,0,0:0:0:0:
256,192,473827,1,0,0:0:0:0:
329,192,473827,1,0,0:0:0:0:
402,192,473970,1,0,0:0:0:0:
329,192,473970,1,0,0:0:0:0:
475,192,473970,1,0,0:0:0:0:
36,192,473970,1,0,0:0:0:0:
109,192,473970,1,0,0:0:0:0:
182,192,473970,1,0,0:0:0:0:
402,192,474113,1,0,0:0:0:0:
475,192,474113,1,0,0:0:0:0:
256,192,474113,1,0,0:0:0:0:
182,192,474113,1,0,0:0:0:0:
109,192,474113,1,0,0:0:0:0:
256,192,474256,1,0,0:0:0:0:
475,192,474256,1,0,0:0:0:0:
329,192,474256,1,0,0:0:0:0:
36,192,474256,1,0,0:0:0:0:
109,192,474256,1,0,0:0:0:0:
402,192,474398,1,0,0:0:0:0:
36,192,474398,1,0,0:0:0:0:
329,192,474398,1,0,0:0:0:0:
182,192,474398,1,0,0:0:0:0:
109,192,474398,1,0,0:0:0:0:
329,192,474541,1,0,0:0:0:0:
402,192,474541,1,0,0:0:0:0:
475,192,474541,1,0,0:0:0:0:
256,192,474541,1,0,0:0:0:0:
109,192,474541,1,0,0:0:0:0:
36,192,474541,1,0,0:0:0:0:
402,192,474684,1,0,0:0:0:0:
256,192,474684,1,0,0:0:0:0:
475,192,474684,1,0,0:0:0:0:
182,192,474684,1,0,0:0:0:0:
109,192,474684,1,0,0:0:0:0:
475,192,474827,1,0,0:0:0:0:
182,192,474827,1,0,0:0:0:0:
329,192,474827,1,0,0:0:0:0:
256,192,474827,1,0,0:0:0:0:
36,192,474827,1,0,0:0:0:0:
402,192,474970,1,0,0:0:0:0:
329,192,474970,1,0,0:0:0:0:
182,192,474970,1,0,0:0:0:0:
109,192,474970,1,0,0:0:0:0:
36,192,474970,1,0,0:0:0:0:
402,192,475113,1,0,0:0:0:0:
475,192,475113,1,0,0:0:0:0:
36,192,475113,1,0,0:0:0:0:
182,192,475113,1,0,0:0:0:0:
109,192,475113,1,0,0:0:0:0:
256,192,475113,1,0,0:0:0:0:
329,192,475256,1,0,0:0:0:0:
402,192,475256,1,0,0:0:0:0:
475,192,475256,1,0,0:0:0:0:
256,192,475256,1,0,0:0:0:0:
182,192,475256,1,0,0:0:0:0:
329,192,475398,1,0,0:0:0:0:
475,192,475398,1,0,0:0:0:0:
256,192,475398,1,0,0:0:0:0:
109,192,475398,1,0,0:0:0:0:
36,192,475398,1,0,0:0:0:0:
402,192,475541,1,0,0:0:0:0:
475,192,475541,1,0,0:0:0:0:
329,192,475541,1,0,0:0:0:0:
182,192,475541,1,0,0:0:0:0:
109,192,475541,1,0,0:0:0:0:
182,192,475684,1,0,0:0:0:0:
402,192,475684,1,0,0:0:0:0:
475,192,475684,1,0,0:0:0:0:
36,192,475684,1,0,0:0:0:0:
109,192,475684,1,0,0:0:0:0:
256,192,475684,1,0,0:0:0:0:
36,192,475827,1,0,0:0:0:0:
256,192,475827,1,0,0:0:0:0:
109,192,475827,1,0,0:0:0:0:
329,192,475827,1,0,0:0:0:0:
402,192,475827,1,0,0:0:0:0:
402,192,475970,1,0,0:0:0:0:
475,192,475970,1,0,0:0:0:0:
329,192,475970,1,0,0:0:0:0:
109,192,475970,1,0,0:0:0:0:
182,192,475970,1,0,0:0:0:0:
329,192,476113,1,0,0:0:0:0:
475,192,476113,1,0,0:0:0:0:
256,192,476113,1,0,0:0:0:0:
36,192,476113,1,0,0:0:0:0:
182,192,476113,1,0,0:0:0:0:
256,192,476256,1,0,0:0:0:0:
402,192,476256,1,0,0:0:0:0:
475,192,476256,1,0,0:0:0:0:
109,192,476256,1,0,0:0:0:0:
36,192,476256,1,0,0:0:0:0:
182,192,476256,1,0,0:0:0:0:
402,192,476398,1,0,0:0:0:0:
475,192,476398,1,0,0:0:0:0:
329,192,476398,1,0,0:0:0:0:
109,192,476398,1,0,0:0:0:0:
256,192,476398,1,0,0:0:0:0:
329,192,476541,1,0,0:0:0:0:
402,192,476541,1,0,0:0:0:0:
256,192,476541,1,0,0:0:0:0:
36,192,476541,1,0,0:0:0:0:
182,192,476541,1,0,0:0:0:0:
402,192,476684,1,0,0:0:0:0:
475,192,476684,1,0,0:0:0:0:
182,192,476684,1,0,0:0:0:0:
36,192,476684,1,0,0:0:0:0:
109,192,476684,1,0,0:0:0:0:
182,192,476827,1,0,0:0:0:0:
109,192,476827,1,0,0:0:0:0:
36,192,476827,1,0,0:0:0:0:
329,192,476827,1,0,0:0:0:0:
475,192,476827,1,0,0:0:0:0:
256,192,476827,1,0,0:0:0:0:
402,192,476970,1,0,0:0:0:0:
475,192,476970,1,0,0:0:0:0:
329,192,476970,1,0,0:0:0:0:
109,192,476970,1,0,0:0:0:0:
256,192,476970,1,0,0:0:0:0:
402,192,477113,1,0,0:0:0:0:
329,192,477113,1,0,0:0:0:0:
256,192,477113,1,0,0:0:0:0:
182,192,477113,1,0,0:0:0:0:
36,192,477113,1,0,0:0:0:0:
402,192,477256,1,0,0:0:0:0:
36,192,477256,1,0,0:0:0:0:
475,192,477256,1,0,0:0:0:0:
109,192,477256,1,0,0:0:0:0:
182,192,477256,1,0,0:0:0:0:
402,192,477398,1,0,0:0:0:0:
475,192,477398,1,0,0:0:0:0:
256,192,477398,1,0,0:0:0:0:
182,192,477398,1,0,0:0:0:0:
109,192,477398,1,0,0:0:0:0:
329,192,477398,1,0,0:0:0:0:
329,192,477541,1,0,0:0:0:0:
475,192,477541,1,0,0:0:0:0:
256,192,477541,1,0,0:0:0:0:
36,192,477541,1,0,0:0:0:0:
109,192,477541,1,0,0:0:0:0:
402,192,477684,1,0,0:0:0:0:
475,192,477684,1,0,0:0:0:0:
256,192,477684,1,0,0:0:0:0:
182,192,477684,1,0,0:0:0:0:
36,192,477684,1,0,0:0:0:0:
329,192,477827,1,0,0:0:0:0:
402,192,477827,1,0,0:0:0:0:
182,192,477827,1,0,0:0:0:0:
109,192,477827,1,0,0:0:0:0:
36,192,477827,1,0,0:0:0:0:
329,192,477970,1,0,0:0:0:0:
402,192,477970,1,0,0:0:0:0:
475,192,477970,1,0,0:0:0:0:
36,192,477970,1,0,0:0:0:0:
109,192,477970,1,0,0:0:0:0:
256,192,477970,1,0,0:0:0:0:
329,192,478113,1,0,0:0:0:0:
475,192,478113,1,0,0:0:0:0:
256,192,478113,1,0,0:0:0:0:
182,192,478113,1,0,0:0:0:0:
109,192,478113,1,0,0:0:0:0:
402,192,478256,1,0,0:0:0:0:
475,192,478256,1,0,0:0:0:0:
256,192,478256,1,0,0:0:0:0:
36,192,478256,1,0,0:0:0:0:
182,192,478256,1,0,0:0:0:0:
329,192,478398,1,0,0:0:0:0:
402,192,478398,1,0,0:0:0:0:
182,192,478398,1,0,0:0:0:0:
109,192,478398,1,0,0:0:0:0:
36,192,478398,1,0,0:0:0:0:
329,192,478541,1,0,0:0:0:0:
402,192,478541,1,0,0:0:0:0:
475,192,478541,1,0,0:0:0:0:
109,192,478541,1,0,0:0:0:0:
36,192,478541,1,0,0:0:0:0:
256,192,478541,1,0,0:0:0:0:
475,192,478684,1,0,0:0:0:0:
329,192,478684,1,0,0:0:0:0:
109,192,478684,1,0,0:0:0:0:
256,192,478684,1,0,0:0:0:0:
182,192,478684,1,0,0:0:0:0:
402,192,478827,1,0,0:0:0:0:
475,192,478827,1,0,0:0:0:0:
256,192,478827,1,0,0:0:0:0:
36,192,478827,1,0,0:0:0:0:
182,192,478827,1,0,0:0:0:0:
329,192,478970,1,0,0:0:0:0:
402,192,478970,1,0,0:0:0:0:
182,192,478970,1,0,0:0:0:0:
109,192,478970,1,0,0:0:0:0:
36,192,478970,1,0,0:0:0:0:
329,192,479113,1,0,0:0:0:0:
402,192,479113,1,0,0:0:0:0:
475,192,479113,1,0,0:0:0:0:
36,192,479113,1,0,0:0:0:0:
109,192,479113,1,0,0:0:0:0:
256,192,479113,1,0,0:0:0:0:
475,192,479256,1,0,0:0:0:0:
329,192,479256,1,0,0:0:0:0:
256,192,479256,1,0,0:0:0:0:
182,192,479256,1,0,0:0:0:0:
109,192,479256,1,0,0:0:0:0:
402,192,479398,1,0,0:0:0:0:
475,192,479398,1,0,0:0:0:0:
182,192,479398,1,0,0:0:0:0:
36,192,479398,1,0,0:0:0:0:
109,192,479398,1,0,0:0:0:0:
329,192,479541,1,0,0:0:0:0:
402,192,479541,1,0,0:0:0:0:
182,192,479541,1,0,0:0:0:0:
36,192,479541,1,0,0:0:0:0:
256,192,479541,1,0,0:0:0:0:
256,192,479684,1,0,0:0:0:0:
329,192,479684,1,0,0:0:0:0:
475,192,479684,1,0,0:0:0:0:
36,192,479684,1,0,0:0:0:0:
109,192,479684,1,0,0:0:0:0:
182,192,479684,1,0,0:0:0:0:
402,192,479827,1,0,0:0:0:0:
475,192,479827,1,0,0:0:0:0:
329,192,479827,1,0,0:0:0:0:
109,192,479827,1,0,0:0:0:0:
256,192,479827,1,0,0:0:0:0:
402,192,479970,1,0,0:0:0:0:
475,192,479970,1,0,0:0:0:0:
109,192,479970,1,0,0:0:0:0:
182,192,479970,1,0,0:0:0:0:
36,192,479970,1,0,0:0:0:0:
329,192,480113,1,0,0:0:0:0:
402,192,480113,1,0,0:0:0:0:
256,192,480113,1,0,0:0:0:0:
36,192,480113,1,0,0:0:0:0:
182,192,480113,1,0,0:0:0:0:
256,192,480256,1,0,0:0:0:0:
329,192,480256,1,0,0:0:0:0:
475,192,480256,1,0,0:0:0:0:
109,192,480256,1,0,0:0:0:0:
36,192,480256,1,0,0:0:0:0:
182,192,480256,1,0,0:0:0:0:
329,192,480398,1,0,0:0:0:0:
402,192,480398,1,0,0:0:0:0:
256,192,480398,1,0,0:0:0:0:
109,192,480398,1,0,0:0:0:0:
36,192,480398,1,0,0:0:0:0:
109,192,480541,1,0,0:0:0:0:
256,192,480541,1,0,0:0:0:0:
182,192,480541,1,0,0:0:0:0:
402,192,480541,1,0,0:0:0:0:
475,192,480541,1,0,0:0:0:0:
402,192,480684,1,0,0:0:0:0:
475,192,480684,1,0,0:0:0:0:
329,192,480684,1,0,0:0:0:0:
36,192,480684,1,0,0:0:0:0:
182,192,480684,1,0,0:0:0:0:
256,192,480827,1,0,0:0:0:0:
329,192,480827,1,0,0:0:0:0:
475,192,480827,1,0,0:0:0:0:
109,192,480827,1,0,0:0:0:0:
36,192,480827,1,0,0:0:0:0:
182,192,480827,1,0,0:0:0:0:
402,192,480970,1,0,0:0:0:0:
36,192,480970,1,0,0:0:0:0:
329,192,480970,1,0,0:0:0:0:
109,192,480970,1,0,0:0:0:0:
256,192,480970,1,0,0:0:0:0:
402,192,481113,1,0,0:0:0:0:
475,192,481113,1,0,0:0:0:0:
256,192,481113,1,0,0:0:0:0:
109,192,481113,1,0,0:0:0:0:
182,192,481113,1,0,0:0:0:0:
329,192,481256,1,0,0:0:0:0:
475,192,481256,1,0,0:0:0:0:
256,192,481256,1,0,0:0:0:0:
36,192,481256,1,0,0:0:0:0:
182,192,481256,1,0,0:0:0:0:
402,192,481398,1,0,0:0:0:0:
329,192,481398,1,0,0:0:0:0:
475,192,481398,1,0,0:0:0:0:
36,192,481398,1,0,0:0:0:0:
109,192,481398,1,0,0:0:0:0:
182,192,481398,1,0,0:0:0:0:
256,192,481470,1,0,0:0:0:0:
402,192,481541,1,0,0:0:0:0:
109,192,481541,1,0,0:0:0:0:
182,192,481613,1,0,0:0:0:0:
109,192,481684,1,0,0:0:0:0:
475,192,481684,1,0,0:0:0:0:
329,192,481684,1,0,0:0:0:0:
256,192,481756,1,0,0:0:0:0:
182,192,481827,1,0,0:0:0:0:
36,192,481827,1,0,0:0:0:0:
402,192,481898,1,0,0:0:0:0:
329,192,481898,1,0,0:0:0:0:
256,192,481970,1,0,0:0:0:0:
109,192,481970,1,0,0:0:0:0:
36,192,481970,1,0,0:0:0:0:
402,192,482041,1,0,0:0:0:0:
329,192,482113,1,0,0:0:0:0:
182,192,482113,1,0,0:0:0:0:
475,192,482113,1,0,0:0:0:0:
36,192,482184,1,0,0:0:0:0:
402,192,482256,1,0,0:0:0:0:
256,192,482256,1,0,0:0:0:0:
109,192,482256,1,0,0:0:0:0:
475,192,482327,1,0,0:0:0:0:
36,192,482398,1,0,0:0:0:0:
329,192,482398,1,0,0:0:0:0:
182,192,482398,1,0,0:0:0:0:
402,192,482470,1,0,0:0:0:0:
256,192,482470,1,0,0:0:0:0:
109,192,482470,1,0,0:0:0:0:
329,192,482541,1,0,0:0:0:0:
475,192,482541,1,0,0:0:0:0:
36,192,482541,1,0,0:0:0:0:
182,192,482541,1,0,0:0:0:0:
256,192,482613,1,0,0:0:0:0:
402,192,482684,1,0,0:0:0:0:
36,192,482684,1,0,0:0:0:0:
109,192,482684,1,0,0:0:0:0:
182,192,482756,1,0,0:0:0:0:
329,192,482756,1,0,0:0:0:0:
109,192,482827,1,0,0:0:0:0:
256,192,482827,1,0,0:0:0:0:
402,192,482827,1,0,0:0:0:0:
475,192,482827,1,0,0:0:0:0:
182,192,482898,1,0,0:0:0:0:
36,192,482898,1,0,0:0:0:0:
329,192,482970,1,0,0:0:0:0:
256,192,482970,1,0,0:0:0:0:
402,192,482970,1,0,0:0:0:0:
109,192,482970,1,0,0:0:0:0:
475,192,483041,1,0,0:0:0:0:
182,192,483041,1,0,0:0:0:0:
329,192,483113,1,0,0:0:0:0:
402,192,483113,1,0,0:0:0:0:
36,192,483113,1,0,0:0:0:0:
109,192,483113,1,0,0:0:0:0:
182,192,483184,1,0,0:0:0:0:
256,192,483184,1,0,0:0:0:0:
402,192,483256,1,0,0:0:0:0:
475,192,483256,1,0,0:0:0:0:
109,192,483256,1,0,0:0:0:0:
36,192,483256,1,0,0:0:0:0:
182,192,483327,1,0,0:0:0:0:
329,192,483327,1,0,0:0:0:0:
475,192,483398,1,0,0:0:0:0:
36,192,483398,1,0,0:0:0:0:
256,192,483398,1,0,0:0:0:0:
402,192,483398,1,0,0:0:0:0:
329,192,483470,1,0,0:0:0:0:
109,192,483470,1,0,0:0:0:0:
475,192,483541,1,0,0:0:0:0:
402,192,483541,1,0,0:0:0:0:
182,192,483541,1,0,0:0:0:0:
36,192,483613,1,0,0:0:0:0:
256,192,483613,1,0,0:0:0:0:
475,192,483684,1,0,0:0:0:0:
109,192,483684,1,0,0:0:0:0:
402,192,483684,1,0,0:0:0:0:
182,192,483684,1,0,0:0:0:0:
329,192,483684,1,0,0:0:0:0:
256,192,483756,1,0,0:0:0:0:
329,192,483827,1,0,0:0:0:0:
402,192,483827,1,0,0:0:0:0:
36,192,483827,1,0,0:0:0:0:
109,192,483827,1,0,0:0:0:0:
256,192,483898,1,0,0:0:0:0:
182,192,483898,1,0,0:0:0:0:
109,192,483970,1,0,0:0:0:0:
36,192,483970,1,0,0:0:0:0:
402,192,483970,1,0,0:0:0:0:
475,192,483970,1,0,0:0:0:0:
329,192,484041,1,0,0:0:0:0:
182,192,484041,1,0,0:0:0:0:
36,192,484113,1,0,0:0:0:0:
256,192,484113,1,0,0:0:0:0:
402,192,484184,1,0,0:0:0:0:
109,192,484184,1,0,0:0:0:0:
475,192,484256,1,0,0:0:0:0:
36,192,484256,1,0,0:0:0:0:
329,192,484256,1,0,0:0:0:0:
182,192,484256,1,0,0:0:0:0:
402,192,484327,1,0,0:0:0:0:
256,192,484327,1,0,0:0:0:0:
329,192,484398,1,0,0:0:0:0:
36,192,484398,1,0,0:0:0:0:
109,192,484398,1,0,0:0:0:0:
475,192,484470,1,0,0:0:0:0:
256,192,484470,1,0,0:0:0:0:
182,192,484470,1,0,0:0:0:0:
402,192,484541,1,0,0:0:0:0:
36,192,484541,1,0,0:0:0:0:
109,192,484541,1,0,0:0:0:0:
256,192,484613,1,0,0:0:0:0:
475,192,484613,1,0,0:0:0:0:
329,192,484613,1,0,0:0:0:0:
36,192,484684,1,0,0:0:0:0:
109,192,484684,1,0,0:0:0:0:
182,192,484684,1,0,0:0:0:0:
402,192,484756,1,0,0:0:0:0:
329,192,484756,1,0,0:0:0:0:
182,192,484827,1,0,0:0:0:0:
475,192,484827,1,0,0:0:0:0:
256,192,484827,1,0,0:0:0:0:
109,192,484827,1,0,0:0:0:0:
329,192,484898,1,0,0:0:0:0:
475,192,484970,1,0,0:0:0:0:
256,192,484970,1,0,0:0:0:0:
402,192,484970,1,0,0:0:0:0:
36,192,484970,1,0,0:0:0:0:
109,192,484970,1,0,0:0:0:0:
329,192,485041,1,0,0:0:0:0:
182,192,485041,1,0,0:0:0:0:
402,192,485113,1,0,0:0:0:0:
36,192,485113,1,0,0:0:0:0:
109,192,485113,1,0,0:0:0:0:
256,192,485113,1,0,0:0:0:0:
182,192,485184,1,0,0:0:0:0:
475,192,485184,1,0,0:0:0:0:
36,192,485256,1,0,0:0:0:0:
329,192,485256,1,0,0:0:0:0:
256,192,485256,1,0,0:0:0:0:
182,192,485327,1,0,0:0:0:0:
109,192,485327,1,0,0:0:0:0:
402,192,485398,1,0,0:0:0:0:
36,192,485398,1,0,0:0:0:0:
475,192,485398,1,0,0:0:0:0:
256,192,485398,1,0,0:0:0:0:
329,192,485398,1,0,0:0:0:0:
109,192,485470,1,0,0:0:0:0:
402,192,485541,1,0,0:0:0:0:
256,192,485541,1,0,0:0:0:0:
182,192,485541,1,0,0:0:0:0:
109,192,485613,1,0,0:0:0:0:
475,192,485613,1,0,0:0:0:0:
329,192,485613,1,0,0:0:0:0:
402,192,485684,1,0,0:0:0:0:
182,192,485684,1,0,0:0:0:0:
36,192,485684,1,0,0:0:0:0:
329,192,485756,1,0,0:0:0:0:
256,192,485756,1,0,0:0:0:0:
475,192,485827,1,0,0:0:0:0:
36,192,485827,1,0,0:0:0:0:
109,192,485827,1,0,0:0:0:0:
329,192,485898,1,0,0:0:0:0:
182,192,485898,1,0,0:0:0:0:
256,192,485970,1,0,0:0:0:0:
402,192,485970,1,0,0:0:0:0:
475,192,485970,1,0,0:0:0:0:
109,192,485970,1,0,0:0:0:0:
36,192,485970,1,0,0:0:0:0:
182,192,486041,1,0,0:0:0:0:
475,192,486113,1,0,0:0:0:0:
109,192,486113,1,0,0:0:0:0:
329,192,486113,1,0,0:0:0:0:
402,192,486113,1,0,0:0:0:0:
182,192,486184,1,0,0:0:0:0:
256,192,486184,1,0,0:0:0:0:
329,192,486256,1,0,0:0:0:0:
402,192,486256,1,0,0:0:0:0:
36,192,486256,1,0,0:0:0:0:
109,192,486256,1,0,0:0:0:0:
475,192,486327,1,0,0:0:0:0:
256,192,486327,1,0,0:0:0:0:
109,192,486398,1,0,0:0:0:0:
402,192,486398,1,0,0:0:0:0:
182,192,486398,1,0,0:0:0:0:
36,192,486398,1,0,0:0:0:0:
256,192,486470,1,0,0:0:0:0:
329,192,486470,1,0,0:0:0:0:
182,192,486541,1,0,0:0:0:0:
109,192,486541,1,0,0:0:0:0:
402,192,486541,1,0,0:0:0:0:
475,192,486541,1,0,0:0:0:0:
36,192,486613,1,0,0:0:0:0:
329,192,486613,1,0,0:0:0:0:
256,192,486684,1,0,0:0:0:0:
475,192,486684,1,0,0:0:0:0:
109,192,486684,1,0,0:0:0:0:
182,192,486684,1,0,0:0:0:0:
402,192,486756,1,0,0:0:0:0:
329,192,486756,1,0,0:0:0:0:
182,192,486827,1,0,0:0:0:0:
475,192,486827,1,0,0:0:0:0:
36,192,486827,1,0,0:0:0:0:
109,192,486827,1,0,0:0:0:0:
329,192,486898,1,0,0:0:0:0:
256,192,486898,1,0,0:0:0:0:
36,192,486970,1,0,0:0:0:0:
182,192,486970,1,0,0:0:0:0:
402,192,486970,1,0,0:0:0:0:
256,192,487041,1,0,0:0:0:0:
109,192,487041,1,0,0:0:0:0:
402,192,487113,1,0,0:0:0:0:
475,192,487113,1,0,0:0:0:0:
182,192,487113,1,0,0:0:0:0:
329,192,487113,1,0,0:0:0:0:
36,192,487184,1,0,0:0:0:0:
109,192,487184,1,0,0:0:0:0:
329,192,487256,1,0,0:0:0:0:
256,192,487256,1,0,0:0:0:0:
182,192,487256,1,0,0:0:0:0:
475,192,487327,1,0,0:0:0:0:
402,192,487327,1,0,0:0:0:0:
256,192,487398,1,0,0:0:0:0:
36,192,487398,1,0,0:0:0:0:
109,192,487398,1,0,0:0:0:0:
182,192,487470,1,0,0:0:0:0:
329,192,487470,1,0,0:0:0:0:
475,192,487541,1,0,0:0:0:0:
402,192,487541,1,0,0:0:0:0:
256,192,487541,1,0,0:0:0:0:
329,192,487613,1,0,0:0:0:0:
36,192,487613,1,0,0:0:0:0:
109,192,487613,1,0,0:0:0:0:
402,192,487684,1,0,0:0:0:0:
475,192,487684,1,0,0:0:0:0:
182,192,487684,1,0,0:0:0:0:
256,192,487684,1,0,0:0:0:0:
329,192,487756,1,0,0:0:0:0:
109,192,487756,1,0,0:0:0:0:
36,192,487827,1,0,0:0:0:0:
256,192,487827,1,0,0:0:0:0:
182,192,487827,1,0,0:0:0:0:
402,192,487827,1,0,0:0:0:0:
329,192,487898,1,0,0:0:0:0:
109,192,487898,1,0,0:0:0:0:
256,192,487970,1,0,0:0:0:0:
182,192,487970,1,0,0:0:0:0:
402,192,487970,1,0,0:0:0:0:
475,192,487970,1,0,0:0:0:0:
109,192,488041,1,0,0:0:0:0:
36,192,488041,1,0,0:0:0:0:
402,192,488113,1,0,0:0:0:0:
475,192,488113,1,0,0:0:0:0:
256,192,488113,1,0,0:0:0:0:
329,192,488113,1,0,0:0:0:0:
109,192,488184,1,0,0:0:0:0:
182,192,488184,1,0,0:0:0:0:
402,192,488256,1,0,0:0:0:0:
475,192,488256,1,0,0:0:0:0:
36,192,488256,1,0,0:0:0:0:
329,192,488256,1,0,0:0:0:0:
256,192,488327,1,0,0:0:0:0:
109,192,488327,1,0,0:0:0:0:
475,192,488398,1,0,0:0:0:0:
329,192,488398,1,0,0:0:0:0:
182,192,488398,1,0,0:0:0:0:
36,192,488470,1,0,0:0:0:0:
109,192,488470,1,0,0:0:0:0:
182,192,488541,1,0,0:0:0:0:
475,192,488541,1,0,0:0:0:0:
256,192,488541,1,0,0:0:0:0:
329,192,488541,1,0,0:0:0:0:
402,192,488613,1,0,0:0:0:0:
329,192,488684,1,0,0:0:0:0:
36,192,488684,1,0,0:0:0:0:
109,192,488684,1,0,0:0:0:0:
182,192,488756,1,0,0:0:0:0:
256,192,488756,1,0,0:0:0:0:
475,192,488756,1,0,0:0:0:0:
36,192,488827,1,0,0:0:0:0:
329,192,488827,1,0,0:0:0:0:
402,192,488827,1,0,0:0:0:0:
109,192,488827,1,0,0:0:0:0:
475,192,488898,1,0,0:0:0:0:
256,192,488898,1,0,0:0:0:0:
109,192,488970,1,0,0:0:0:0:
36,192,488970,1,0,0:0:0:0:
182,192,488970,1,0,0:0:0:0:
329,192,488970,1,0,0:0:0:0:
256,192,489041,1,0,0:0:0:0:
402,192,489041,1,0,0:0:0:0:
329,192,489113,1,0,0:0:0:0:
475,192,489113,1,0,0:0:0:0:
182,192,489113,1,0,0:0:0:0:
36,192,489113,1,0,0:0:0:0:
256,192,489184,1,0,0:0:0:0:
109,192,489184,1,0,0:0:0:0:
402,192,489256,1,0,0:0:0:0:
475,192,489256,1,0,0:0:0:0:
182,192,489256,1,0,0:0:0:0:
329,192,489256,1,0,0:0:0:0:
36,192,489327,1,0,0:0:0:0:
182,192,489398,1,0,0:0:0:0:
109,192,489398,1,0,0:0:0:0:
329,192,489398,1,0,0:0:0:0:
402,192,489398,1,0,0:0:0:0:
475,192,489398,1,0,0:0:0:0:
256,192,489470,1,0,0:0:0:0:
329,192,489541,1,0,0:0:0:0:
402,192,489541,1,0,0:0:0:0:
109,192,489541,1,0,0:0:0:0:
36,192,489541,1,0,0:0:0:0:
256,192,489613,1,0,0:0:0:0:
182,192,489613,1,0,0:0:0:0:
329,192,489684,1,0,0:0:0:0:
109,192,489684,1,0,0:0:0:0:
402,192,489684,1,0,0:0:0:0:
475,192,489684,1,0,0:0:0:0:
256,192,489756,1,0,0:0:0:0:
36,192,489756,1,0,0:0:0:0:
182,192,489756,1,0,0:0:0:0:
475,192,489827,1,0,0:0:0:0:
402,192,489827,1,0,0:0:0:0:
109,192,489827,1,0,0:0:0:0:
256,192,489898,1,0,0:0:0:0:
329,192,489898,1,0,0:0:0:0:
402,192,489970,1,0,0:0:0:0:
475,192,489970,1,0,0:0:0:0:
36,192,489970,1,0,0:0:0:0:
182,192,489970,1,0,0:0:0:0:
329,192,490041,1,0,0:0:0:0:
109,192,490041,1,0,0:0:0:0:
256,192,490113,1,0,0:0:0:0:
475,192,490113,1,0,0:0:0:0:
182,192,490113,1,0,0:0:0:0:
329,192,490184,1,0,0:0:0:0:
402,192,490184,1,0,0:0:0:0:
36,192,490184,1,0,0:0:0:0:
475,192,490256,1,0,0:0:0:0:
256,192,490256,1,0,0:0:0:0:
109,192,490256,1,0,0:0:0:0:
182,192,490256,1,0,0:0:0:0:
402,192,490327,1,0,0:0:0:0:
36,192,490327,1,0,0:0:0:0:
256,192,490398,1,0,0:0:0:0:
329,192,490398,1,0,0:0:0:0:
109,192,490398,1,0,0:0:0:0:
182,192,490470,1,0,0:0:0:0:
475,192,490470,1,0,0:0:0:0:
402,192,490541,5,0,0:0:0:0:
36,192,490541,1,0,0:0:0:0:
109,192,490541,1,0,0:0:0:0:
256,192,490541,1,0,0:0:0:0:
329,192,490541,1,0,0:0:0:0:
475,192,490613,1,0,0:0:0:0:
182,192,490613,1,0,0:0:0:0:
36,192,490684,1,0,0:0:0:0:
109,192,490684,1,0,0:0:0:0:
329,192,490684,1,0,0:0:0:0:
402,192,490684,1,0,0:0:0:0:
182,192,490756,1,0,0:0:0:0:
256,192,490756,1,0,0:0:0:0:
402,192,490827,1,0,0:0:0:0:
329,192,490827,1,0,0:0:0:0:
36,192,490827,1,0,0:0:0:0:
475,192,490827,1,0,0:0:0:0:
182,192,490898,1,0,0:0:0:0:
256,192,490898,1,0,0:0:0:0:
109,192,490898,1,0,0:0:0:0:
475,192,490970,1,0,0:0:0:0:
402,192,490970,1,0,0:0:0:0:
36,192,490970,1,0,0:0:0:0:
182,192,491041,1,0,0:0:0:0:
256,192,491041,1,0,0:0:0:0:
329,192,491041,1,0,0:0:0:0:
402,192,491113,1,0,0:0:0:0:
475,192,491113,1,0,0:0:0:0:
109,192,491113,1,0,0:0:0:0:
36,192,491113,1,0,0:0:0:0:
182,192,491184,1,0,0:0:0:0:
329,192,491184,1,0,0:0:0:0:
256,192,491256,1,0,0:0:0:0:
36,192,491256,1,0,0:0:0:0:
475,192,491256,1,0,0:0:0:0:
109,192,491327,1,0,0:0:0:0:
329,192,491327,1,0,0:0:0:0:
402,192,491327,1,0,0:0:0:0:
182,192,491398,1,0,0:0:0:0:
475,192,491398,1,0,0:0:0:0:
36,192,491398,1,0,0:0:0:0:
256,192,491470,1,0,0:0:0:0:
402,192,491470,1,0,0:0:0:0:
329,192,491541,1,0,0:0:0:0:
182,192,491541,1,0,0:0:0:0:
402,192,491613,1,0,0:0:0:0:
256,192,491613,1,0,0:0:0:0:
109,192,491613,1,0,0:0:0:0:
36,192,491684,5,0,0:0:0:0:
182,192,491684,1,0,0:0:0:0:
329,192,491684,1,0,0:0:0:0:
475,192,491684,1,0,0:0:0:0:
475,192,491898,1,0,0:0:0:0:
36,192,491898,1,0,0:0:0:0:
36,192,492113,1,0,0:0:0:0:
475,192,492113,1,0,0:0:0:0:
475,192,492327,1,0,0:0:0:0:
36,192,492327,1,0,0:0:0:0:
36,192,492541,1,0,0:0:0:0:
475,192,492541,1,0,0:0:0:0:
475,192,492756,1,0,0:0:0:0:
36,192,492756,1,0,0:0:0:0:
475,192,492970,1,0,0:0:0:0:
36,192,492970,1,0,0:0:0:0:
475,192,493184,1,0,0:0:0:0:
36,192,493184,1,0,0:0:0:0:
256,192,493398,128,0,493684:0:0:0:0:
402,192,493970,1,0,0:0:0:0:
182,192,493970,1,0,0:0:0:0:
475,192,493970,1,0,0:0:0:0:
256,192,493970,1,0,0:0:0:0:
36,192,494041,1,0,0:0:0:0:
109,192,494041,1,0,0:0:0:0:
329,192,494041,1,0,0:0:0:0:
402,192,494113,1,0,0:0:0:0:
475,192,494113,1,0,0:0:0:0:
182,192,494113,1,0,0:0:0:0:
256,192,494113,1,0,0:0:0:0:
109,192,494184,1,0,0:0:0:0:
329,192,494256,1,0,0:0:0:0:
182,192,494256,1,0,0:0:0:0:
36,192,494256,1,0,0:0:0:0:
109,192,494327,1,0,0:0:0:0:
256,192,494327,1,0,0:0:0:0:
402,192,494327,1,0,0:0:0:0:
475,192,494327,1,0,0:0:0:0:
36,192,494398,1,0,0:0:0:0:
182,192,494398,1,0,0:0:0:0:
329,192,494398,1,0,0:0:0:0:
475,192,494470,1,0,0:0:0:0:
402,192,494470,1,0,0:0:0:0:
182,192,494541,1,0,0:0:0:0:
36,192,494541,1,0,0:0:0:0:
109,192,494541,1,0,0:0:0:0:
475,192,494613,1,0,0:0:0:0:
256,192,494613,1,0,0:0:0:0:
329,192,494613,1,0,0:0:0:0:
402,192,494613,1,0,0:0:0:0:
36,192,494684,1,0,0:0:0:0:
182,192,494684,1,0,0:0:0:0:
109,192,494684,1,0,0:0:0:0:
256,192,494756,1,0,0:0:0:0:
402,192,494756,1,0,0:0:0:0:
329,192,494756,1,0,0:0:0:0:
36,192,494827,1,0,0:0:0:0:
109,192,494827,1,0,0:0:0:0:
475,192,494827,1,0,0:0:0:0:
182,192,494898,1,0,0:0:0:0:
402,192,494898,1,0,0:0:0:0:
329,192,494898,1,0,0:0:0:0:
256,192,494970,1,0,0:0:0:0:
36,192,494970,1,0,0:0:0:0:
109,192,494970,1,0,0:0:0:0:
475,192,495041,1,0,0:0:0:0:
402,192,495041,1,0,0:0:0:0:
329,192,495041,1,0,0:0:0:0:
109,192,495113,1,0,0:0:0:0:
182,192,495113,1,0,0:0:0:0:
256,192,495113,1,0,0:0:0:0:
475,192,495184,1,0,0:0:0:0:
402,192,495184,1,0,0:0:0:0:
329,192,495184,1,0,0:0:0:0:
36,192,495256,1,0,0:0:0:0:
109,192,495256,1,0,0:0:0:0:
182,192,495256,1,0,0:0:0:0:
402,192,495327,1,0,0:0:0:0:
329,192,495327,1,0,0:0:0:0:
256,192,495327,1,0,0:0:0:0:
475,192,495398,1,0,0:0:0:0:
36,192,495398,1,0,0:0:0:0:
109,192,495398,1,0,0:0:0:0:
329,192,495470,1,0,0:0:0:0:
256,192,495470,1,0,0:0:0:0:
182,192,495470,1,0,0:0:0:0:
109,192,495541,1,0,0:0:0:0:
36,192,495541,1,0,0:0:0:0:
402,192,495541,1,0,0:0:0:0:
475,192,495541,1,0,0:0:0:0:
329,192,495613,1,0,0:0:0:0:
256,192,495613,1,0,0:0:0:0:
182,192,495613,1,0,0:0:0:0:
36,192,495684,1,0,0:0:0:0:
475,192,495684,1,0,0:0:0:0:
402,192,495684,1,0,0:0:0:0:
329,192,495756,1,0,0:0:0:0:
182,192,495756,1,0,0:0:0:0:
109,192,495756,1,0,0:0:0:0:
256,192,495827,1,0,0:0:0:0:
329,192,495898,1,0,0:0:0:0:
402,192,495898,1,0,0:0:0:0:
475,192,495898,1,0,0:0:0:0:
109,192,495898,1,0,0:0:0:0:
182,192,495898,1,0,0:0:0:0:
36,192,495898,1,0,0:0:0:0:
256,192,495970,1,0,0:0:0:0:
329,192,496041,1,0,0:0:0:0:
475,192,496041,1,0,0:0:0:0:
402,192,496041,1,0,0:0:0:0:
36,192,496041,1,0,0:0:0:0:
109,192,496041,1,0,0:0:0:0:
182,192,496041,1,0,0:0:0:0:
256,192,496113,1,0,0:0:0:0:
329,192,496184,1,0,0:0:0:0:
402,192,496184,1,0,0:0:0:0:
475,192,496184,1,0,0:0:0:0:
36,192,496184,1,0,0:0:0:0:
109,192,496184,1,0,0:0:0:0:
182,192,496184,1,0,0:0:0:0:
256,192,496256,1,0,0:0:0:0:
109,192,496327,1,0,0:0:0:0:
36,192,496327,1,0,0:0:0:0:
182,192,496398,1,0,0:0:0:0:
256,192,496398,1,0,0:0:0:0:
475,192,496398,1,0,0:0:0:0:
329,192,496398,1,0,0:0:0:0:
402,192,496398,1,0,0:0:0:0:
36,192,496470,1,0,0:0:0:0:
109,192,496470,1,0,0:0:0:0:
475,192,496541,1,0,0:0:0:0:
402,192,496541,1,0,0:0:0:0:
109,192,496613,1,0,0:0:0:0:
36,192,496613,1,0,0:0:0:0:
182,192,496613,1,0,0:0:0:0:
329,192,496613,1,0,0:0:0:0:
256,192,496613,1,0,0:0:0:0:
475,192,496684,1,0,0:0:0:0:
402,192,496684,1,0,0:0:0:0:
109,192,496756,1,0,0:0:0:0:
36,192,496756,1,0,0:0:0:0:
329,192,496827,1,0,0:0:0:0:
475,192,496827,1,0,0:0:0:0:
402,192,496827,1,0,0:0:0:0:
182,192,496827,1,0,0:0:0:0:
256,192,496827,1,0,0:0:0:0:
36,192,496898,1,0,0:0:0:0:
109,192,496898,1,0,0:0:0:0:
329,192,496970,1,0,0:0:0:0:
256,192,496970,1,0,0:0:0:0:
182,192,496970,1,0,0:0:0:0:
109,192,497041,1,0,0:0:0:0:
36,192,497041,1,0,0:0:0:0:
402,192,497041,1,0,0:0:0:0:
475,192,497041,1,0,0:0:0:0:
256,192,497113,1,0,0:0:0:0:
182,192,497113,1,0,0:0:0:0:
402,192,497184,1,0,0:0:0:0:
329,192,497184,1,0,0:0:0:0:
256,192,497256,1,0,0:0:0:0:
475,192,497256,1,0,0:0:0:0:
182,192,497256,1,0,0:0:0:0:
109,192,497256,1,0,0:0:0:0:
36,192,497256,1,0,0:0:0:0:
402,192,497327,1,0,0:0:0:0:
329,192,497327,1,0,0:0:0:0:
109,192,497398,1,0,0:0:0:0:
36,192,497398,1,0,0:0:0:0:
182,192,497398,1,0,0:0:0:0:
475,192,497398,1,0,0:0:0:0:
256,192,497398,1,0,0:0:0:0:
329,192,497470,1,0,0:0:0:0:
402,192,497470,1,0,0:0:0:0:
256,192,497541,1,0,0:0:0:0:
475,192,497613,1,0,0:0:0:0:
182,192,497613,1,0,0:0:0:0:
109,192,497613,1,0,0:0:0:0:
36,192,497613,1,0,0:0:0:0:
329,192,497613,1,0,0:0:0:0:
402,192,497613,1,0,0:0:0:0:
256,192,497684,1,0,0:0:0:0:
329,192,497756,1,0,0:0:0:0:
182,192,497756,1,0,0:0:0:0:
475,192,497827,1,0,0:0:0:0:
402,192,497827,1,0,0:0:0:0:
256,192,497827,1,0,0:0:0:0:
36,192,497827,1,0,0:0:0:0:
109,192,497827,1,0,0:0:0:0:
329,192,497898,1,0,0:0:0:0:
182,192,497898,1,0,0:0:0:0:
402,192,497970,1,0,0:0:0:0:
475,192,497970,1,0,0:0:0:0:
36,192,497970,1,0,0:0:0:0:
256,192,497970,1,0,0:0:0:0:
109,192,497970,1,0,0:0:0:0:
