osu file format v14

[General]
AudioFilename: Dan_Azimuth.mp3
AudioLeadIn: 0
PreviewTime: 38
Countdown: 0
SampleSet: Soft
StackLeniency: 0.7
Mode: 3
LetterboxInBreaks: 0
SpecialStyle: 0
WidescreenStoryboard: 1

[Editor]
DistanceSpacing: 0.3
BeatDivisor: 4
GridSize: 32
TimelineZoom: 2.2

[Metadata]
Title:Regular Dan Phase III
TitleUnicode:Regular Dan Phase III
Artist:osu!mania 7K Dan Course
ArtistUnicode:osu!mania 7K Dan Course
Creator:Jinjin
Version:Azimuth Dan
Source:
Tags:rain- blocko jinjin spoonguy scytheleg gazer stellabee ubiquity ueotan mario paint time regression mix for bms helblinde solace of oblivion samba master satoh land puru toki maidable remix beta blue white crazystars getty vs dj dia fox4 raize shk identity part u1 high-speed egoism 440 vertex gamma silvia leaf paraclete manabu namiki tenshi true final boss goreshit najimi breakers dj technorch nijuu silentroom finixe rokina icicle stinger lunaticsounds rinjuu ereharmonika remixed by kors k der wald frums we want to run eleharmonica
BeatmapID:2030894
BeatmapSetID:930218

[Difficulty]
HPDrainRate:8
CircleSize:7
OverallDifficulty:8.5
ApproachRate:5
SliderMultiplier:1.4
SliderTickRate:1

[Events]
//Background and Video events
0,0,"Dan_Azimuth.png",0,0
//Break Periods
2,128182,137891
2,234358,244552
2,364952,379060
//Storyboard Layer 0 (Background)
//Storyboard Layer 1 (Fail)
//Storyboard Layer 2 (Pass)
//Storyboard Layer 3 (Foreground)
//Storyboard Layer 4 (Overlay)
//Storyboard Sound Samples

[TimingPoints]
38,222.222222222222,4,2,0,0,1,0
38,-121.951219512195,4,2,0,0,0,0
139091,270.27027027027,4,2,0,0,1,0
245752,500,4,2,0,0,1,0
245752,-54.054054054054,4,2,0,0,0,0
256752,375,4,2,0,0,1,0
256752,-71.9424460431655,4,2,0,0,0,0
380260,270.27027027027,4,2,0,0,1,0

[HitObjects]
329,192,38,5,0,0:0:0:0:
256,192,38,1,0,0:0:0:0:
36,192,38,1,0,0:0:0:0:
402,192,38,1,0,0:0:0:0:
182,192,38,1,0,0:0:0:0:
475,192,204,1,0,0:0:0:0:
109,192,260,1,0,0:0:0:0:
256,192,260,1,0,0:0:0:0:
329,192,315,1,0,0:0:0:0:
475,192,371,1,0,0:0:0:0:
402,192,371,1,0,0:0:0:0:
182,192,371,1,0,0:0:0:0:
256,192,482,1,0,0:0:0:0:
36,192,482,1,0,0:0:0:0:
109,192,482,1,0,0:0:0:0:
402,192,537,1,0,0:0:0:0:
329,192,593,1,0,0:0:0:0:
182,192,649,1,0,0:0:0:0:
256,192,704,1,0,0:0:0:0:
109,192,760,1,0,0:0:0:0:
182,192,815,1,0,0:0:0:0:
329,192,871,1,0,0:0:0:0:
256,192,926,1,0,0:0:0:0:
36,192,926,1,0,0:0:0:0:
475,192,926,1,0,0:0:0:0:
182,192,1037,1,0,0:0:0:0:
402,192,1037,1,0,0:0:0:0:
329,192,1093,1,0,0:0:0:0:
402,192,1149,1,0,0:0:0:0:
182,192,1149,1,0,0:0:0:0:
256,192,1204,1,0,0:0:0:0:
475,192,1260,1,0,0:0:0:0:
329,192,1260,1,0,0:0:0:0:
109,192,1260,1,0,0:0:0:0:
36,192,1260,1,0,0:0:0:0:
329,192,1371,1,0,0:0:0:0:
182,192,1426,1,0,0:0:0:0:
256,192,1482,1,0,0:0:0:0:
182,192,1537,1,0,0:0:0:0:
329,192,1593,1,0,0:0:0:0:
475,192,1593,1,0,0:0:0:0:
256,192,1649,1,0,0:0:0:0:
182,192,1704,1,0,0:0:0:0:
402,192,1704,1,0,0:0:0:0:
329,192,1760,1,0,0:0:0:0:
109,192,1815,1,0,0:0:0:0:
256,192,1815,1,0,0:0:0:0:
36,192,1815,1,0,0:0:0:0:
109,192,1926,1,0,0:0:0:0:
256,192,1982,1,0,0:0:0:0:
109,192,2037,1,0,0:0:0:0:
475,192,2037,1,0,0:0:0:0:
402,192,2037,1,0,0:0:0:0:
256,192,2093,1,0,0:0:0:0:
329,192,2149,1,0,0:0:0:0:
182,192,2149,1,0,0:0:0:0:
36,192,2149,1,0,0:0:0:0:
475,192,2260,1,0,0:0:0:0:
256,192,2260,1,0,0:0:0:0:
329,192,2315,1,0,0:0:0:0:
36,192,2371,1,0,0:0:0:0:
475,192,2371,1,0,0:0:0:0:
109,192,2426,1,0,0:0:0:0:
402,192,2426,1,0,0:0:0:0:
256,192,2482,1,0,0:0:0:0:
182,192,2482,1,0,0:0:0:0:
329,192,2482,1,0,0:0:0:0:
475,192,2537,1,0,0:0:0:0:
36,192,2593,1,0,0:0:0:0:
182,192,2593,1,0,0:0:0:0:
256,192,2649,1,0,0:0:0:0:
402,192,2704,1,0,0:0:0:0:
475,192,2704,1,0,0:0:0:0:
36,192,2704,1,0,0:0:0:0:
329,192,2704,1,0,0:0:0:0:
329,192,2815,1,0,0:0:0:0:
182,192,2871,1,0,0:0:0:0:
402,192,2926,1,0,0:0:0:0:
109,192,2926,1,0,0:0:0:0:
475,192,2926,1,0,0:0:0:0:
36,192,2982,1,0,0:0:0:0:
402,192,3037,1,0,0:0:0:0:
109,192,3037,1,0,0:0:0:0:
256,192,3037,1,0,0:0:0:0:
475,192,3037,1,0,0:0:0:0:
182,192,3037,1,0,0:0:0:0:
36,192,3371,1,0,0:0:0:0:
182,192,3371,1,0,0:0:0:0:
475,192,3371,1,0,0:0:0:0:
329,192,3371,1,0,0:0:0:0:
329,192,3482,1,0,0:0:0:0:
475,192,3482,1,0,0:0:0:0:
36,192,3593,1,0,0:0:0:0:
182,192,3593,1,0,0:0:0:0:
329,192,3593,1,0,0:0:0:0:
402,192,3704,1,0,0:0:0:0:
256,192,3704,1,0,0:0:0:0:
182,192,3760,1,0,0:0:0:0:
402,192,3815,1,0,0:0:0:0:
109,192,3815,1,0,0:0:0:0:
182,192,3871,1,0,0:0:0:0:
402,192,3926,1,0,0:0:0:0:
256,192,3926,1,0,0:0:0:0:
36,192,3926,1,0,0:0:0:0:
329,192,4037,1,0,0:0:0:0:
36,192,4037,1,0,0:0:0:0:
475,192,4037,1,0,0:0:0:0:
109,192,4093,1,0,0:0:0:0:
329,192,4149,1,0,0:0:0:0:
256,192,4204,1,0,0:0:0:0:
182,192,4260,1,0,0:0:0:0:
402,192,4315,1,0,0:0:0:0:
329,192,4371,1,0,0:0:0:0:
256,192,4426,1,0,0:0:0:0:
36,192,4482,1,0,0:0:0:0:
475,192,4482,1,0,0:0:0:0:
109,192,4482,1,0,0:0:0:0:
36,192,4593,1,0,0:0:0:0:
329,192,4593,1,0,0:0:0:0:
256,192,4649,1,0,0:0:0:0:
182,192,4704,1,0,0:0:0:0:
109,192,4704,1,0,0:0:0:0:
329,192,4760,1,0,0:0:0:0:
475,192,4815,1,0,0:0:0:0:
402,192,4815,1,0,0:0:0:0:
182,192,4815,1,0,0:0:0:0:
36,192,4815,1,0,0:0:0:0:
402,192,4926,1,0,0:0:0:0:
256,192,4926,1,0,0:0:0:0:
182,192,4982,1,0,0:0:0:0:
329,192,5037,1,0,0:0:0:0:
109,192,5037,1,0,0:0:0:0:
256,192,5093,1,0,0:0:0:0:
36,192,5149,1,0,0:0:0:0:
109,192,5149,1,0,0:0:0:0:
256,192,5204,1,0,0:0:0:0:
475,192,5260,1,0,0:0:0:0:
329,192,5260,1,0,0:0:0:0:
182,192,5315,1,0,0:0:0:0:
109,192,5371,1,0,0:0:0:0:
402,192,5371,1,0,0:0:0:0:
256,192,5371,1,0,0:0:0:0:
475,192,5371,1,0,0:0:0:0:
36,192,5371,1,0,0:0:0:0:
256,192,5482,1,0,0:0:0:0:
109,192,5593,1,0,0:0:0:0:
256,192,5593,1,0,0:0:0:0:
402,192,5593,1,0,0:0:0:0:
475,192,5704,1,0,0:0:0:0:
256,192,5704,1,0,0:0:0:0:
402,192,5704,1,0,0:0:0:0:
36,192,5704,1,0,0:0:0:0:
182,192,5704,1,0,0:0:0:0:
182,192,6037,1,0,0:0:0:0:
475,192,6037,1,0,0:0:0:0:
329,192,6037,1,0,0:0:0:0:
36,192,6037,1,0,0:0:0:0:
329,192,6149,1,0,0:0:0:0:
182,192,6149,1,0,0:0:0:0:
402,192,6260,1,0,0:0:0:0:
475,192,6260,1,0,0:0:0:0:
329,192,6315,1,0,0:0:0:0:
256,192,6315,1,0,0:0:0:0:
109,192,6371,1,0,0:0:0:0:
36,192,6371,1,0,0:0:0:0:
182,192,6426,1,0,0:0:0:0:
256,192,6426,1,0,0:0:0:0:
329,192,6482,1,0,0:0:0:0:
475,192,6482,1,0,0:0:0:0:
109,192,6519,1,0,0:0:0:0:
329,192,6556,1,0,0:0:0:0:
109,192,6593,1,0,0:0:0:0:
329,192,6630,1,0,0:0:0:0:
109,192,6667,1,0,0:0:0:0:
256,192,6704,1,0,0:0:0:0:
475,192,6815,1,0,0:0:0:0:
402,192,6834,1,0,0:0:0:0:
329,192,6852,1,0,0:0:0:0:
36,192,6889,1,0,0:0:0:0:
109,192,6908,1,0,0:0:0:0:
475,192,6926,1,0,0:0:0:0:
402,192,6926,1,0,0:0:0:0:
182,192,6926,1,0,0:0:0:0:
329,192,6954,1,0,0:0:0:0:
36,192,6982,1,0,0:0:0:0:
182,192,7010,1,0,0:0:0:0:
109,192,7010,1,0,0:0:0:0:
475,192,7037,1,0,0:0:0:0:
402,192,7037,1,0,0:0:0:0:
329,192,7065,1,0,0:0:0:0:
36,192,7093,1,0,0:0:0:0:
182,192,7121,1,0,0:0:0:0:
109,192,7121,1,0,0:0:0:0:
329,192,7149,1,0,0:0:0:0:
402,192,7149,1,0,0:0:0:0:
256,192,7149,1,0,0:0:0:0:
475,192,7149,1,0,0:0:0:0:
256,192,7260,1,0,0:0:0:0:
182,192,7371,1,0,0:0:0:0:
109,192,7371,1,0,0:0:0:0:
36,192,7371,1,0,0:0:0:0:
329,192,7371,1,0,0:0:0:0:
475,192,7371,1,0,0:0:0:0:
402,192,7482,1,0,0:0:0:0:
475,192,7482,1,0,0:0:0:0:
329,192,7482,1,0,0:0:0:0:
182,192,7537,1,0,0:0:0:0:
109,192,7537,1,0,0:0:0:0:
475,192,7593,1,0,0:0:0:0:
402,192,7593,1,0,0:0:0:0:
329,192,7593,1,0,0:0:0:0:
256,192,7704,1,0,0:0:0:0:
475,192,7815,1,0,0:0:0:0:
402,192,7815,1,0,0:0:0:0:
256,192,7815,1,0,0:0:0:0:
109,192,7815,1,0,0:0:0:0:
182,192,7926,1,0,0:0:0:0:
109,192,7926,1,0,0:0:0:0:
36,192,7926,1,0,0:0:0:0:
256,192,7982,1,0,0:0:0:0:
329,192,7982,1,0,0:0:0:0:
36,192,8037,1,0,0:0:0:0:
475,192,8037,1,0,0:0:0:0:
109,192,8037,1,0,0:0:0:0:
402,192,8037,1,0,0:0:0:0:
109,192,8149,1,0,0:0:0:0:
256,192,8149,1,0,0:0:0:0:
475,192,8260,1,0,0:0:0:0:
402,192,8260,1,0,0:0:0:0:
329,192,8260,1,0,0:0:0:0:
256,192,8260,1,0,0:0:0:0:
36,192,8371,1,0,0:0:0:0:
109,192,8371,1,0,0:0:0:0:
182,192,8371,1,0,0:0:0:0:
402,192,8426,1,0,0:0:0:0:
329,192,8426,1,0,0:0:0:0:
109,192,8482,1,0,0:0:0:0:
36,192,8482,1,0,0:0:0:0:
182,192,8482,1,0,0:0:0:0:
182,192,8593,1,0,0:0:0:0:
329,192,8593,1,0,0:0:0:0:
36,192,8704,1,0,0:0:0:0:
109,192,8704,1,0,0:0:0:0:
256,192,8704,1,0,0:0:0:0:
402,192,8704,1,0,0:0:0:0:
402,192,8815,1,0,0:0:0:0:
475,192,8815,1,0,0:0:0:0:
329,192,8815,1,0,0:0:0:0:
256,192,8871,1,0,0:0:0:0:
182,192,8871,1,0,0:0:0:0:
36,192,8926,1,0,0:0:0:0:
109,192,8926,1,0,0:0:0:0:
475,192,8926,1,0,0:0:0:0:
329,192,8926,1,0,0:0:0:0:
182,192,9037,1,0,0:0:0:0:
402,192,9037,1,0,0:0:0:0:
182,192,9149,1,0,0:0:0:0:
109,192,9149,1,0,0:0:0:0:
36,192,9149,1,0,0:0:0:0:
256,192,9149,1,0,0:0:0:0:
329,192,9260,1,0,0:0:0:0:
475,192,9260,1,0,0:0:0:0:
402,192,9260,1,0,0:0:0:0:
109,192,9315,1,0,0:0:0:0:
182,192,9315,1,0,0:0:0:0:
329,192,9371,1,0,0:0:0:0:
402,192,9371,1,0,0:0:0:0:
256,192,9371,1,0,0:0:0:0:
109,192,9482,1,0,0:0:0:0:
329,192,9482,1,0,0:0:0:0:
475,192,9593,1,0,0:0:0:0:
402,192,9593,1,0,0:0:0:0:
256,192,9593,1,0,0:0:0:0:
109,192,9593,1,0,0:0:0:0:
182,192,9704,1,0,0:0:0:0:
36,192,9704,1,0,0:0:0:0:
402,192,9704,1,0,0:0:0:0:
256,192,9760,1,0,0:0:0:0:
329,192,9760,1,0,0:0:0:0:
402,192,9815,1,0,0:0:0:0:
475,192,9815,1,0,0:0:0:0:
109,192,9815,1,0,0:0:0:0:
36,192,9815,1,0,0:0:0:0:
329,192,9926,1,0,0:0:0:0:
109,192,9926,1,0,0:0:0:0:
256,192,10037,1,0,0:0:0:0:
402,192,10037,1,0,0:0:0:0:
475,192,10037,1,0,0:0:0:0:
182,192,10037,1,0,0:0:0:0:
182,192,10149,1,0,0:0:0:0:
109,192,10149,1,0,0:0:0:0:
36,192,10149,1,0,0:0:0:0:
329,192,10204,1,0,0:0:0:0:
402,192,10204,1,0,0:0:0:0:
182,192,10260,1,0,0:0:0:0:
36,192,10260,1,0,0:0:0:0:
109,192,10260,1,0,0:0:0:0:
402,192,10371,1,0,0:0:0:0:
256,192,10371,1,0,0:0:0:0:
36,192,10482,1,0,0:0:0:0:
109,192,10482,1,0,0:0:0:0:
256,192,10482,1,0,0:0:0:0:
402,192,10482,1,0,0:0:0:0:
329,192,10593,1,0,0:0:0:0:
475,192,10593,1,0,0:0:0:0:
402,192,10593,1,0,0:0:0:0:
256,192,10649,1,0,0:0:0:0:
182,192,10649,1,0,0:0:0:0:
402,192,10704,1,0,0:0:0:0:
109,192,10704,1,0,0:0:0:0:
475,192,10704,1,0,0:0:0:0:
36,192,10704,1,0,0:0:0:0:
36,192,10815,1,0,0:0:0:0:
256,192,10815,1,0,0:0:0:0:
329,192,10926,1,0,0:0:0:0:
182,192,10926,1,0,0:0:0:0:
109,192,10926,1,0,0:0:0:0:
256,192,10926,1,0,0:0:0:0:
36,192,11037,1,0,0:0:0:0:
402,192,11037,1,0,0:0:0:0:
475,192,11037,1,0,0:0:0:0:
329,192,11093,1,0,0:0:0:0:
182,192,11093,1,0,0:0:0:0:
36,192,11149,1,0,0:0:0:0:
402,192,11149,1,0,0:0:0:0:
475,192,11149,1,0,0:0:0:0:
475,192,11260,1,0,0:0:0:0:
329,192,11260,1,0,0:0:0:0:
182,192,11371,1,0,0:0:0:0:
329,192,11371,1,0,0:0:0:0:
256,192,11371,1,0,0:0:0:0:
402,192,11371,1,0,0:0:0:0:
36,192,11482,1,0,0:0:0:0:
109,192,11482,1,0,0:0:0:0:
256,192,11482,1,0,0:0:0:0:
329,192,11537,1,0,0:0:0:0:
475,192,11537,1,0,0:0:0:0:
402,192,11593,1,0,0:0:0:0:
182,192,11593,1,0,0:0:0:0:
109,192,11593,1,0,0:0:0:0:
36,192,11593,1,0,0:0:0:0:
256,192,11704,1,0,0:0:0:0:
402,192,11704,1,0,0:0:0:0:
182,192,11815,1,0,0:0:0:0:
329,192,11815,1,0,0:0:0:0:
109,192,11815,1,0,0:0:0:0:
402,192,11815,1,0,0:0:0:0:
475,192,11926,1,0,0:0:0:0:
109,192,11926,1,0,0:0:0:0:
36,192,11926,1,0,0:0:0:0:
402,192,11982,1,0,0:0:0:0:
256,192,11982,1,0,0:0:0:0:
36,192,12037,1,0,0:0:0:0:
109,192,12037,1,0,0:0:0:0:
475,192,12037,1,0,0:0:0:0:
329,192,12149,1,0,0:0:0:0:
256,192,12260,1,0,0:0:0:0:
329,192,12260,1,0,0:0:0:0:
182,192,12260,1,0,0:0:0:0:
109,192,12260,1,0,0:0:0:0:
475,192,12371,1,0,0:0:0:0:
402,192,12371,1,0,0:0:0:0:
36,192,12371,1,0,0:0:0:0:
256,192,12426,1,0,0:0:0:0:
182,192,12426,1,0,0:0:0:0:
402,192,12482,1,0,0:0:0:0:
109,192,12482,1,0,0:0:0:0:
36,192,12482,1,0,0:0:0:0:
329,192,12482,1,0,0:0:0:0:
329,192,12593,1,0,0:0:0:0:
475,192,12593,1,0,0:0:0:0:
256,192,12704,1,0,0:0:0:0:
182,192,12704,1,0,0:0:0:0:
109,192,12704,1,0,0:0:0:0:
402,192,12704,1,0,0:0:0:0:
36,192,12815,1,0,0:0:0:0:
475,192,12815,1,0,0:0:0:0:
329,192,12815,1,0,0:0:0:0:
182,192,12871,1,0,0:0:0:0:
109,192,12871,1,0,0:0:0:0:
36,192,12926,1,0,0:0:0:0:
475,192,12926,1,0,0:0:0:0:
329,192,12926,1,0,0:0:0:0:
109,192,13037,1,0,0:0:0:0:
329,192,13149,1,0,0:0:0:0:
256,192,13149,1,0,0:0:0:0:
402,192,13149,1,0,0:0:0:0:
109,192,13149,1,0,0:0:0:0:
36,192,13260,1,0,0:0:0:0:
475,192,13260,1,0,0:0:0:0:
329,192,13260,1,0,0:0:0:0:
256,192,13315,1,0,0:0:0:0:
182,192,13315,1,0,0:0:0:0:
109,192,13371,1,0,0:0:0:0:
475,192,13371,1,0,0:0:0:0:
36,192,13371,1,0,0:0:0:0:
329,192,13371,1,0,0:0:0:0:
109,192,13482,1,0,0:0:0:0:
256,192,13482,1,0,0:0:0:0:
402,192,13593,1,0,0:0:0:0:
36,192,13593,1,0,0:0:0:0:
256,192,13593,1,0,0:0:0:0:
475,192,13593,1,0,0:0:0:0:
475,192,13704,1,0,0:0:0:0:
109,192,13704,1,0,0:0:0:0:
182,192,13704,1,0,0:0:0:0:
256,192,13760,1,0,0:0:0:0:
402,192,13760,1,0,0:0:0:0:
475,192,13815,1,0,0:0:0:0:
182,192,13815,1,0,0:0:0:0:
109,192,13815,1,0,0:0:0:0:
475,192,13926,1,0,0:0:0:0:
182,192,14037,1,0,0:0:0:0:
402,192,14037,1,0,0:0:0:0:
256,192,14037,1,0,0:0:0:0:
36,192,14037,1,0,0:0:0:0:
475,192,14149,1,0,0:0:0:0:
182,192,14149,1,0,0:0:0:0:
329,192,14149,1,0,0:0:0:0:
109,192,14204,1,0,0:0:0:0:
256,192,14204,1,0,0:0:0:0:
329,192,14260,1,0,0:0:0:0:
402,192,14260,1,0,0:0:0:0:
36,192,14260,1,0,0:0:0:0:
182,192,14260,1,0,0:0:0:0:
182,192,14371,1,0,0:0:0:0:
36,192,14371,1,0,0:0:0:0:
475,192,14482,1,0,0:0:0:0:
402,192,14482,1,0,0:0:0:0:
182,192,14482,1,0,0:0:0:0:
329,192,14482,1,0,0:0:0:0:
36,192,14593,1,0,0:0:0:0:
109,192,14593,1,0,0:0:0:0:
256,192,14593,1,0,0:0:0:0:
402,192,14649,1,0,0:0:0:0:
475,192,14649,1,0,0:0:0:0:
256,192,14704,1,0,0:0:0:0:
109,192,14704,1,0,0:0:0:0:
36,192,14704,1,0,0:0:0:0:
256,192,14815,1,0,0:0:0:0:
36,192,14926,1,0,0:0:0:0:
329,192,14926,1,0,0:0:0:0:
402,192,14926,1,0,0:0:0:0:
182,192,14926,1,0,0:0:0:0:
36,192,15037,1,0,0:0:0:0:
402,192,15037,1,0,0:0:0:0:
182,192,15037,1,0,0:0:0:0:
109,192,15093,1,0,0:0:0:0:
256,192,15093,1,0,0:0:0:0:
402,192,15149,1,0,0:0:0:0:
329,192,15149,1,0,0:0:0:0:
475,192,15149,1,0,0:0:0:0:
182,192,15149,1,0,0:0:0:0:
182,192,15260,1,0,0:0:0:0:
182,192,15371,1,0,0:0:0:0:
329,192,15371,1,0,0:0:0:0:
36,192,15371,1,0,0:0:0:0:
402,192,15371,1,0,0:0:0:0:
402,192,15482,1,0,0:0:0:0:
475,192,15482,1,0,0:0:0:0:
256,192,15482,1,0,0:0:0:0:
182,192,15537,1,0,0:0:0:0:
109,192,15537,1,0,0:0:0:0:
475,192,15593,1,0,0:0:0:0:
402,192,15593,1,0,0:0:0:0:
256,192,15593,1,0,0:0:0:0:
36,192,15704,1,0,0:0:0:0:
182,192,15704,1,0,0:0:0:0:
402,192,15815,1,0,0:0:0:0:
475,192,15815,1,0,0:0:0:0:
36,192,15815,1,0,0:0:0:0:
182,192,15815,1,0,0:0:0:0:
256,192,15926,1,0,0:0:0:0:
475,192,15926,1,0,0:0:0:0:
182,192,15926,1,0,0:0:0:0:
329,192,15982,1,0,0:0:0:0:
402,192,15982,1,0,0:0:0:0:
36,192,16037,1,0,0:0:0:0:
256,192,16037,1,0,0:0:0:0:
182,192,16037,1,0,0:0:0:0:
109,192,16037,1,0,0:0:0:0:
109,192,16149,1,0,0:0:0:0:
475,192,16260,1,0,0:0:0:0:
402,192,16260,1,0,0:0:0:0:
109,192,16260,1,0,0:0:0:0:
256,192,16260,1,0,0:0:0:0:
256,192,16371,1,0,0:0:0:0:
36,192,16371,1,0,0:0:0:0:
182,192,16371,1,0,0:0:0:0:
402,192,16426,1,0,0:0:0:0:
329,192,16426,1,0,0:0:0:0:
256,192,16482,1,0,0:0:0:0:
36,192,16482,1,0,0:0:0:0:
182,192,16482,1,0,0:0:0:0:
182,192,16593,1,0,0:0:0:0:
475,192,16704,1,0,0:0:0:0:
36,192,16704,1,0,0:0:0:0:
256,192,16704,1,0,0:0:0:0:
402,192,16704,1,0,0:0:0:0:
36,192,16815,1,0,0:0:0:0:
402,192,16815,1,0,0:0:0:0:
256,192,16815,1,0,0:0:0:0:
182,192,16871,1,0,0:0:0:0:
109,192,16871,1,0,0:0:0:0:
329,192,16926,1,0,0:0:0:0:
256,192,16926,1,0,0:0:0:0:
402,192,16926,1,0,0:0:0:0:
475,192,16926,1,0,0:0:0:0:
329,192,17037,1,0,0:0:0:0:
475,192,17037,1,0,0:0:0:0:
109,192,17149,1,0,0:0:0:0:
182,192,17149,1,0,0:0:0:0:
36,192,17149,1,0,0:0:0:0:
329,192,17149,1,0,0:0:0:0:
402,192,17260,1,0,0:0:0:0:
475,192,17260,1,0,0:0:0:0:
256,192,17260,1,0,0:0:0:0:
109,192,17315,1,0,0:0:0:0:
36,192,17315,1,0,0:0:0:0:
475,192,17371,1,0,0:0:0:0:
402,192,17371,1,0,0:0:0:0:
256,192,17371,1,0,0:0:0:0:
256,192,17482,1,0,0:0:0:0:
109,192,17482,1,0,0:0:0:0:
475,192,17593,1,0,0:0:0:0:
109,192,17593,1,0,0:0:0:0:
182,192,17593,1,0,0:0:0:0:
329,192,17593,1,0,0:0:0:0:
256,192,17704,1,0,0:0:0:0:
475,192,17704,1,0,0:0:0:0:
182,192,17704,1,0,0:0:0:0:
329,192,17760,1,0,0:0:0:0:
402,192,17760,1,0,0:0:0:0:
109,192,17815,1,0,0:0:0:0:
182,192,17815,1,0,0:0:0:0:
36,192,17815,1,0,0:0:0:0:
475,192,17815,1,0,0:0:0:0:
256,192,17926,1,0,0:0:0:0:
109,192,17926,1,0,0:0:0:0:
402,192,18037,1,0,0:0:0:0:
36,192,18037,1,0,0:0:0:0:
329,192,18037,1,0,0:0:0:0:
256,192,18037,1,0,0:0:0:0:
256,192,18149,1,0,0:0:0:0:
475,192,18149,1,0,0:0:0:0:
329,192,18149,1,0,0:0:0:0:
109,192,18204,1,0,0:0:0:0:
36,192,18204,1,0,0:0:0:0:
329,192,18260,1,0,0:0:0:0:
475,192,18260,1,0,0:0:0:0:
256,192,18260,1,0,0:0:0:0:
182,192,18371,1,0,0:0:0:0:
475,192,18371,1,0,0:0:0:0:
256,192,18482,1,0,0:0:0:0:
182,192,18482,1,0,0:0:0:0:
36,192,18482,1,0,0:0:0:0:
329,192,18482,1,0,0:0:0:0:
402,192,18593,1,0,0:0:0:0:
329,192,18593,1,0,0:0:0:0:
36,192,18593,1,0,0:0:0:0:
475,192,18649,1,0,0:0:0:0:
109,192,18649,1,0,0:0:0:0:
182,192,18704,1,0,0:0:0:0:
256,192,18704,1,0,0:0:0:0:
329,192,18704,1,0,0:0:0:0:
402,192,18704,1,0,0:0:0:0:
182,192,18815,1,0,0:0:0:0:
36,192,18815,1,0,0:0:0:0:
329,192,18926,1,0,0:0:0:0:
402,192,18926,1,0,0:0:0:0:
182,192,18926,1,0,0:0:0:0:
256,192,19037,1,0,0:0:0:0:
36,192,19037,1,0,0:0:0:0:
402,192,19037,1,0,0:0:0:0:
109,192,19093,1,0,0:0:0:0:
182,192,19093,1,0,0:0:0:0:
36,192,19149,1,0,0:0:0:0:
402,192,19149,1,0,0:0:0:0:
256,192,19149,1,0,0:0:0:0:
182,192,19260,1,0,0:0:0:0:
329,192,19260,1,0,0:0:0:0:
475,192,19371,1,0,0:0:0:0:
182,192,19371,1,0,0:0:0:0:
329,192,19371,1,0,0:0:0:0:
36,192,19371,1,0,0:0:0:0:
109,192,19482,1,0,0:0:0:0:
329,192,19482,1,0,0:0:0:0:
256,192,19482,1,0,0:0:0:0:
475,192,19537,1,0,0:0:0:0:
402,192,19537,1,0,0:0:0:0:
109,192,19593,1,0,0:0:0:0:
182,192,19593,1,0,0:0:0:0:
256,192,19593,1,0,0:0:0:0:
36,192,19593,1,0,0:0:0:0:
182,192,19704,1,0,0:0:0:0:
329,192,19704,1,0,0:0:0:0:
109,192,19815,1,0,0:0:0:0:
36,192,19815,1,0,0:0:0:0:
182,192,19815,1,0,0:0:0:0:
329,192,19815,1,0,0:0:0:0:
329,192,19926,1,0,0:0:0:0:
475,192,19926,1,0,0:0:0:0:
256,192,19926,1,0,0:0:0:0:
182,192,19982,1,0,0:0:0:0:
109,192,19982,1,0,0:0:0:0:
329,192,20037,1,0,0:0:0:0:
475,192,20037,1,0,0:0:0:0:
256,192,20037,1,0,0:0:0:0:
475,192,20149,1,0,0:0:0:0:
182,192,20149,1,0,0:0:0:0:
36,192,20260,1,0,0:0:0:0:
182,192,20260,1,0,0:0:0:0:
256,192,20260,1,0,0:0:0:0:
329,192,20260,1,0,0:0:0:0:
256,192,20371,1,0,0:0:0:0:
109,192,20371,1,0,0:0:0:0:
329,192,20371,1,0,0:0:0:0:
475,192,20426,1,0,0:0:0:0:
402,192,20426,1,0,0:0:0:0:
36,192,20482,1,0,0:0:0:0:
109,192,20482,1,0,0:0:0:0:
182,192,20482,1,0,0:0:0:0:
329,192,20537,1,0,0:0:0:0:
329,192,20593,1,0,0:0:0:0:
182,192,20649,1,0,0:0:0:0:
109,192,20704,1,0,0:0:0:0:
475,192,20704,1,0,0:0:0:0:
402,192,20760,1,0,0:0:0:0:
402,192,20815,1,0,0:0:0:0:
256,192,20871,1,0,0:0:0:0:
329,192,20926,1,0,0:0:0:0:
109,192,20926,1,0,0:0:0:0:
182,192,20982,1,0,0:0:0:0:
182,192,21037,1,0,0:0:0:0:
256,192,21093,1,0,0:0:0:0:
329,192,21149,1,0,0:0:0:0:
36,192,21149,1,0,0:0:0:0:
109,192,21204,1,0,0:0:0:0:
109,192,21260,1,0,0:0:0:0:
182,192,21315,1,0,0:0:0:0:
36,192,21371,1,0,0:0:0:0:
475,192,21371,1,0,0:0:0:0:
402,192,21371,1,0,0:0:0:0:
256,192,21371,1,0,0:0:0:0:
109,192,21426,1,0,0:0:0:0:
182,192,21482,1,0,0:0:0:0:
402,192,21482,1,0,0:0:0:0:
329,192,21593,1,0,0:0:0:0:
36,192,21593,1,0,0:0:0:0:
109,192,21593,1,0,0:0:0:0:
402,192,21593,1,0,0:0:0:0:
36,192,21704,1,0,0:0:0:0:
109,192,21704,1,0,0:0:0:0:
329,192,21704,1,0,0:0:0:0:
36,192,21815,1,0,0:0:0:0:
329,192,21815,1,0,0:0:0:0:
109,192,21815,1,0,0:0:0:0:
475,192,21815,1,0,0:0:0:0:
182,192,21926,1,0,0:0:0:0:
475,192,21926,1,0,0:0:0:0:
329,192,22037,1,0,0:0:0:0:
109,192,22037,1,0,0:0:0:0:
36,192,22037,1,0,0:0:0:0:
182,192,22037,1,0,0:0:0:0:
36,192,22149,1,0,0:0:0:0:
329,192,22149,1,0,0:0:0:0:
402,192,22260,1,0,0:0:0:0:
36,192,22260,1,0,0:0:0:0:
182,192,22260,1,0,0:0:0:0:
256,192,22260,1,0,0:0:0:0:
475,192,22315,1,0,0:0:0:0:
256,192,22371,1,0,0:0:0:0:
109,192,22371,1,0,0:0:0:0:
36,192,22482,1,0,0:0:0:0:
402,192,22482,1,0,0:0:0:0:
475,192,22482,1,0,0:0:0:0:
109,192,22482,1,0,0:0:0:0:
402,192,22593,1,0,0:0:0:0:
475,192,22593,1,0,0:0:0:0:
182,192,22593,1,0,0:0:0:0:
475,192,22704,1,0,0:0:0:0:
402,192,22704,1,0,0:0:0:0:
182,192,22704,1,0,0:0:0:0:
36,192,22704,1,0,0:0:0:0:
329,192,22815,1,0,0:0:0:0:
36,192,22815,1,0,0:0:0:0:
182,192,22926,1,0,0:0:0:0:
402,192,22926,1,0,0:0:0:0:
109,192,22926,1,0,0:0:0:0:
402,192,23037,1,0,0:0:0:0:
109,192,23037,1,0,0:0:0:0:
329,192,23037,1,0,0:0:0:0:
475,192,23149,1,0,0:0:0:0:
329,192,23149,1,0,0:0:0:0:
36,192,23149,1,0,0:0:0:0:
109,192,23149,1,0,0:0:0:0:
182,192,23204,1,0,0:0:0:0:
256,192,23260,1,0,0:0:0:0:
402,192,23260,1,0,0:0:0:0:
36,192,23371,1,0,0:0:0:0:
109,192,23371,1,0,0:0:0:0:
182,192,23371,1,0,0:0:0:0:
475,192,23371,1,0,0:0:0:0:
182,192,23482,1,0,0:0:0:0:
36,192,23482,1,0,0:0:0:0:
329,192,23482,1,0,0:0:0:0:
329,192,23593,1,0,0:0:0:0:
475,192,23593,1,0,0:0:0:0:
36,192,23593,1,0,0:0:0:0:
182,192,23593,1,0,0:0:0:0:
109,192,23704,1,0,0:0:0:0:
402,192,23704,1,0,0:0:0:0:
329,192,23815,1,0,0:0:0:0:
475,192,23815,1,0,0:0:0:0:
36,192,23815,1,0,0:0:0:0:
256,192,23815,1,0,0:0:0:0:
329,192,23926,1,0,0:0:0:0:
36,192,23926,1,0,0:0:0:0:
182,192,23926,1,0,0:0:0:0:
329,192,24037,1,0,0:0:0:0:
475,192,24037,1,0,0:0:0:0:
182,192,24037,1,0,0:0:0:0:
109,192,24037,1,0,0:0:0:0:
402,192,24093,1,0,0:0:0:0:
109,192,24149,1,0,0:0:0:0:
36,192,24149,1,0,0:0:0:0:
402,192,24260,1,0,0:0:0:0:
182,192,24260,1,0,0:0:0:0:
475,192,24260,1,0,0:0:0:0:
36,192,24260,1,0,0:0:0:0:
402,192,24371,1,0,0:0:0:0:
36,192,24371,1,0,0:0:0:0:
182,192,24371,1,0,0:0:0:0:
256,192,24371,1,0,0:0:0:0:
475,192,24482,1,0,0:0:0:0:
329,192,24482,1,0,0:0:0:0:
182,192,24482,1,0,0:0:0:0:
109,192,24482,1,0,0:0:0:0:
475,192,24593,1,0,0:0:0:0:
329,192,24593,1,0,0:0:0:0:
109,192,24593,1,0,0:0:0:0:
402,192,24704,1,0,0:0:0:0:
36,192,24704,1,0,0:0:0:0:
256,192,24704,1,0,0:0:0:0:
475,192,24704,1,0,0:0:0:0:
109,192,24815,1,0,0:0:0:0:
256,192,24815,1,0,0:0:0:0:
402,192,24815,1,0,0:0:0:0:
329,192,24871,1,0,0:0:0:0:
182,192,24871,1,0,0:0:0:0:
36,192,24926,1,0,0:0:0:0:
475,192,24926,1,0,0:0:0:0:
402,192,24926,1,0,0:0:0:0:
109,192,24982,1,0,0:0:0:0:
475,192,25037,1,0,0:0:0:0:
182,192,25037,1,0,0:0:0:0:
36,192,25149,1,0,0:0:0:0:
109,192,25149,1,0,0:0:0:0:
329,192,25149,1,0,0:0:0:0:
475,192,25149,1,0,0:0:0:0:
329,192,25260,1,0,0:0:0:0:
182,192,25260,1,0,0:0:0:0:
36,192,25260,1,0,0:0:0:0:
475,192,25371,1,0,0:0:0:0:
36,192,25371,1,0,0:0:0:0:
182,192,25371,1,0,0:0:0:0:
329,192,25371,1,0,0:0:0:0:
402,192,25482,1,0,0:0:0:0:
256,192,25482,1,0,0:0:0:0:
36,192,25593,1,0,0:0:0:0:
109,192,25593,1,0,0:0:0:0:
182,192,25593,1,0,0:0:0:0:
329,192,25593,1,0,0:0:0:0:
329,192,25704,1,0,0:0:0:0:
182,192,25704,1,0,0:0:0:0:
402,192,25704,1,0,0:0:0:0:
402,192,25815,1,0,0:0:0:0:
475,192,25815,1,0,0:0:0:0:
256,192,25815,1,0,0:0:0:0:
109,192,25815,1,0,0:0:0:0:
36,192,25871,1,0,0:0:0:0:
109,192,25926,1,0,0:0:0:0:
256,192,25926,1,0,0:0:0:0:
475,192,26037,1,0,0:0:0:0:
36,192,26037,1,0,0:0:0:0:
256,192,26037,1,0,0:0:0:0:
329,192,26037,1,0,0:0:0:0:
36,192,26149,1,0,0:0:0:0:
329,192,26149,1,0,0:0:0:0:
475,192,26149,1,0,0:0:0:0:
256,192,26260,1,0,0:0:0:0:
402,192,26260,1,0,0:0:0:0:
182,192,26260,1,0,0:0:0:0:
109,192,26260,1,0,0:0:0:0:
402,192,26371,1,0,0:0:0:0:
182,192,26371,1,0,0:0:0:0:
256,192,26482,1,0,0:0:0:0:
475,192,26482,1,0,0:0:0:0:
182,192,26482,1,0,0:0:0:0:
36,192,26482,1,0,0:0:0:0:
329,192,26593,1,0,0:0:0:0:
36,192,26593,1,0,0:0:0:0:
256,192,26593,1,0,0:0:0:0:
402,192,26649,1,0,0:0:0:0:
475,192,26649,1,0,0:0:0:0:
256,192,26704,1,0,0:0:0:0:
182,192,26704,1,0,0:0:0:0:
36,192,26704,1,0,0:0:0:0:
109,192,26704,1,0,0:0:0:0:
329,192,26760,1,0,0:0:0:0:
182,192,26815,1,0,0:0:0:0:
402,192,26815,1,0,0:0:0:0:
109,192,26926,1,0,0:0:0:0:
36,192,26926,1,0,0:0:0:0:
402,192,26926,1,0,0:0:0:0:
329,192,26926,1,0,0:0:0:0:
36,192,27037,1,0,0:0:0:0:
109,192,27037,1,0,0:0:0:0:
329,192,27037,1,0,0:0:0:0:
109,192,27149,1,0,0:0:0:0:
475,192,27149,1,0,0:0:0:0:
256,192,27149,1,0,0:0:0:0:
329,192,27149,1,0,0:0:0:0:
256,192,27260,1,0,0:0:0:0:
475,192,27260,1,0,0:0:0:0:
36,192,27260,1,0,0:0:0:0:
182,192,27371,1,0,0:0:0:0:
36,192,27371,1,0,0:0:0:0:
475,192,27371,1,0,0:0:0:0:
402,192,27371,1,0,0:0:0:0:
256,192,27482,1,0,0:0:0:0:
402,192,27482,1,0,0:0:0:0:
36,192,27482,1,0,0:0:0:0:
109,192,27593,1,0,0:0:0:0:
256,192,27593,1,0,0:0:0:0:
402,192,27593,1,0,0:0:0:0:
109,192,27704,1,0,0:0:0:0:
329,192,27704,1,0,0:0:0:0:
109,192,27815,1,0,0:0:0:0:
402,192,27815,1,0,0:0:0:0:
402,192,27926,1,0,0:0:0:0:
182,192,27926,1,0,0:0:0:0:
109,192,28037,1,0,0:0:0:0:
402,192,28037,1,0,0:0:0:0:
109,192,28149,1,0,0:0:0:0:
329,192,28149,1,0,0:0:0:0:
109,192,28260,1,0,0:0:0:0:
402,192,28260,1,0,0:0:0:0:
402,192,28371,1,0,0:0:0:0:
182,192,28371,1,0,0:0:0:0:
475,192,28482,1,0,0:0:0:0:
36,192,28482,1,0,0:0:0:0:
109,192,28482,1,0,0:0:0:0:
256,192,28482,1,0,0:0:0:0:
402,192,28537,1,0,0:0:0:0:
36,192,28593,1,0,0:0:0:0:
256,192,28593,1,0,0:0:0:0:
36,192,28704,1,0,0:0:0:0:
402,192,28704,1,0,0:0:0:0:
182,192,28704,1,0,0:0:0:0:
475,192,28704,1,0,0:0:0:0:
182,192,28815,1,0,0:0:0:0:
402,192,28815,1,0,0:0:0:0:
329,192,28815,1,0,0:0:0:0:
402,192,28926,1,0,0:0:0:0:
475,192,28926,1,0,0:0:0:0:
109,192,28926,1,0,0:0:0:0:
256,192,28926,1,0,0:0:0:0:
109,192,29037,1,0,0:0:0:0:
329,192,29037,1,0,0:0:0:0:
256,192,29149,1,0,0:0:0:0:
36,192,29149,1,0,0:0:0:0:
402,192,29149,1,0,0:0:0:0:
475,192,29149,1,0,0:0:0:0:
36,192,29260,1,0,0:0:0:0:
256,192,29260,1,0,0:0:0:0:
109,192,29260,1,0,0:0:0:0:
36,192,29371,1,0,0:0:0:0:
182,192,29371,1,0,0:0:0:0:
256,192,29371,1,0,0:0:0:0:
475,192,29371,1,0,0:0:0:0:
329,192,29426,1,0,0:0:0:0:
182,192,29482,1,0,0:0:0:0:
402,192,29482,1,0,0:0:0:0:
36,192,29593,1,0,0:0:0:0:
329,192,29593,1,0,0:0:0:0:
109,192,29593,1,0,0:0:0:0:
475,192,29593,1,0,0:0:0:0:
329,192,29704,1,0,0:0:0:0:
109,192,29704,1,0,0:0:0:0:
182,192,29704,1,0,0:0:0:0:
329,192,29815,1,0,0:0:0:0:
36,192,29815,1,0,0:0:0:0:
182,192,29815,1,0,0:0:0:0:
475,192,29815,1,0,0:0:0:0:
475,192,29926,1,0,0:0:0:0:
256,192,29926,1,0,0:0:0:0:
36,192,30037,1,0,0:0:0:0:
402,192,30037,1,0,0:0:0:0:
109,192,30037,1,0,0:0:0:0:
36,192,30149,1,0,0:0:0:0:
329,192,30149,1,0,0:0:0:0:
402,192,30149,1,0,0:0:0:0:
256,192,30204,1,0,0:0:0:0:
109,192,30260,1,0,0:0:0:0:
402,192,30260,1,0,0:0:0:0:
475,192,30260,1,0,0:0:0:0:
36,192,30260,1,0,0:0:0:0:
182,192,30315,1,0,0:0:0:0:
329,192,30371,1,0,0:0:0:0:
256,192,30371,1,0,0:0:0:0:
402,192,30482,1,0,0:0:0:0:
36,192,30482,1,0,0:0:0:0:
475,192,30482,1,0,0:0:0:0:
256,192,30482,1,0,0:0:0:0:
109,192,30593,1,0,0:0:0:0:
402,192,30593,1,0,0:0:0:0:
256,192,30593,1,0,0:0:0:0:
329,192,30704,1,0,0:0:0:0:
475,192,30704,1,0,0:0:0:0:
36,192,30704,1,0,0:0:0:0:
109,192,30704,1,0,0:0:0:0:
329,192,30815,1,0,0:0:0:0:
256,192,30815,1,0,0:0:0:0:
36,192,30926,1,0,0:0:0:0:
182,192,30926,1,0,0:0:0:0:
475,192,30926,1,0,0:0:0:0:
402,192,30926,1,0,0:0:0:0:
182,192,31037,1,0,0:0:0:0:
36,192,31037,1,0,0:0:0:0:
329,192,31037,1,0,0:0:0:0:
402,192,31149,1,0,0:0:0:0:
329,192,31149,1,0,0:0:0:0:
256,192,31149,1,0,0:0:0:0:
109,192,31149,1,0,0:0:0:0:
36,192,31204,1,0,0:0:0:0:
109,192,31260,1,0,0:0:0:0:
256,192,31260,1,0,0:0:0:0:
402,192,31371,1,0,0:0:0:0:
475,192,31371,1,0,0:0:0:0:
329,192,31371,1,0,0:0:0:0:
256,192,31371,1,0,0:0:0:0:
36,192,31482,1,0,0:0:0:0:
109,192,31482,1,0,0:0:0:0:
329,192,31482,1,0,0:0:0:0:
182,192,31482,1,0,0:0:0:0:
329,192,31593,1,0,0:0:0:0:
109,192,31593,1,0,0:0:0:0:
475,192,31593,1,0,0:0:0:0:
256,192,31593,1,0,0:0:0:0:
109,192,31704,1,0,0:0:0:0:
36,192,31704,1,0,0:0:0:0:
256,192,31704,1,0,0:0:0:0:
182,192,31704,1,0,0:0:0:0:
402,192,31815,1,0,0:0:0:0:
36,192,31815,1,0,0:0:0:0:
475,192,31815,1,0,0:0:0:0:
182,192,31815,1,0,0:0:0:0:
109,192,31926,1,0,0:0:0:0:
402,192,31926,1,0,0:0:0:0:
182,192,31982,1,0,0:0:0:0:
329,192,31982,1,0,0:0:0:0:
402,192,32037,1,0,0:0:0:0:
36,192,32037,1,0,0:0:0:0:
109,192,32037,1,0,0:0:0:0:
475,192,32037,1,0,0:0:0:0:
256,192,32093,1,0,0:0:0:0:
36,192,32149,1,0,0:0:0:0:
475,192,32149,1,0,0:0:0:0:
109,192,32260,1,0,0:0:0:0:
329,192,32260,1,0,0:0:0:0:
182,192,32260,1,0,0:0:0:0:
36,192,32260,1,0,0:0:0:0:
256,192,32371,1,0,0:0:0:0:
109,192,32371,1,0,0:0:0:0:
402,192,32371,1,0,0:0:0:0:
182,192,32482,1,0,0:0:0:0:
329,192,32482,1,0,0:0:0:0:
402,192,32482,1,0,0:0:0:0:
109,192,32482,1,0,0:0:0:0:
182,192,32593,1,0,0:0:0:0:
329,192,32593,1,0,0:0:0:0:
402,192,32704,1,0,0:0:0:0:
475,192,32704,1,0,0:0:0:0:
256,192,32704,1,0,0:0:0:0:
36,192,32704,1,0,0:0:0:0:
36,192,32815,1,0,0:0:0:0:
256,192,32815,1,0,0:0:0:0:
402,192,32815,1,0,0:0:0:0:
329,192,32926,1,0,0:0:0:0:
109,192,32926,1,0,0:0:0:0:
182,192,32926,1,0,0:0:0:0:
475,192,32926,1,0,0:0:0:0:
36,192,32982,1,0,0:0:0:0:
182,192,33037,1,0,0:0:0:0:
329,192,33037,1,0,0:0:0:0:
36,192,33149,1,0,0:0:0:0:
109,192,33149,1,0,0:0:0:0:
475,192,33149,1,0,0:0:0:0:
256,192,33149,1,0,0:0:0:0:
402,192,33260,1,0,0:0:0:0:
256,192,33260,1,0,0:0:0:0:
36,192,33260,1,0,0:0:0:0:
182,192,33371,1,0,0:0:0:0:
109,192,33371,1,0,0:0:0:0:
329,192,33371,1,0,0:0:0:0:
402,192,33371,1,0,0:0:0:0:
182,192,33482,1,0,0:0:0:0:
329,192,33482,1,0,0:0:0:0:
256,192,33593,1,0,0:0:0:0:
36,192,33593,1,0,0:0:0:0:
329,192,33593,1,0,0:0:0:0:
475,192,33593,1,0,0:0:0:0:
256,192,33704,1,0,0:0:0:0:
402,192,33704,1,0,0:0:0:0:
36,192,33704,1,0,0:0:0:0:
109,192,33760,1,0,0:0:0:0:
182,192,33760,1,0,0:0:0:0:
402,192,33815,1,0,0:0:0:0:
475,192,33815,1,0,0:0:0:0:
329,192,33815,1,0,0:0:0:0:
256,192,33815,1,0,0:0:0:0:
182,192,33871,1,0,0:0:0:0:
329,192,33926,1,0,0:0:0:0:
109,192,33926,1,0,0:0:0:0:
402,192,34037,1,0,0:0:0:0:
475,192,34037,1,0,0:0:0:0:
256,192,34037,1,0,0:0:0:0:
36,192,34037,1,0,0:0:0:0:
402,192,34149,1,0,0:0:0:0:
256,192,34149,1,0,0:0:0:0:
109,192,34149,1,0,0:0:0:0:
256,192,34260,1,0,0:0:0:0:
36,192,34260,1,0,0:0:0:0:
182,192,34260,1,0,0:0:0:0:
402,192,34260,1,0,0:0:0:0:
329,192,34371,1,0,0:0:0:0:
182,192,34371,1,0,0:0:0:0:
329,192,34482,1,0,0:0:0:0:
475,192,34482,1,0,0:0:0:0:
182,192,34482,1,0,0:0:0:0:
36,192,34482,1,0,0:0:0:0:
36,192,34593,1,0,0:0:0:0:
109,192,34593,1,0,0:0:0:0:
256,192,34593,1,0,0:0:0:0:
475,192,34704,1,0,0:0:0:0:
329,192,34704,1,0,0:0:0:0:
402,192,34704,1,0,0:0:0:0:
182,192,34704,1,0,0:0:0:0:
182,192,34815,1,0,0:0:0:0:
402,192,34815,1,0,0:0:0:0:
475,192,34815,1,0,0:0:0:0:
329,192,34815,1,0,0:0:0:0:
36,192,34926,1,0,0:0:0:0:
109,192,34926,1,0,0:0:0:0:
182,192,34926,1,0,0:0:0:0:
329,192,34926,1,0,0:0:0:0:
182,192,35037,1,0,0:0:0:0:
109,192,35037,1,0,0:0:0:0:
36,192,35037,1,0,0:0:0:0:
329,192,35037,1,0,0:0:0:0:
36,192,35149,1,0,0:0:0:0:
402,192,35149,1,0,0:0:0:0:
475,192,35149,1,0,0:0:0:0:
109,192,35149,1,0,0:0:0:0:
182,192,35176,1,0,0:0:0:0:
256,192,35204,1,0,0:0:0:0:
329,192,35232,1,0,0:0:0:0:
109,192,35260,1,0,0:0:0:0:
36,192,35260,1,0,0:0:0:0:
475,192,35260,1,0,0:0:0:0:
402,192,35260,1,0,0:0:0:0:
182,192,35287,1,0,0:0:0:0:
256,192,35315,1,0,0:0:0:0:
329,192,35343,1,0,0:0:0:0:
109,192,35371,1,0,0:0:0:0:
36,192,35371,1,0,0:0:0:0:
475,192,35371,1,0,0:0:0:0:
402,192,35371,1,0,0:0:0:0:
256,192,35593,1,0,0:0:0:0:
182,192,35593,1,0,0:0:0:0:
36,192,35593,1,0,0:0:0:0:
329,192,35593,1,0,0:0:0:0:
475,192,35593,1,0,0:0:0:0:
36,192,35815,1,0,0:0:0:0:
182,192,35815,1,0,0:0:0:0:
182,192,35926,1,0,0:0:0:0:
402,192,36037,1,0,0:0:0:0:
329,192,36037,1,0,0:0:0:0:
182,192,36037,1,0,0:0:0:0:
182,192,36260,1,0,0:0:0:0:
36,192,36260,1,0,0:0:0:0:
475,192,36260,1,0,0:0:0:0:
256,192,36482,1,0,0:0:0:0:
109,192,36482,1,0,0:0:0:0:
109,192,36593,1,0,0:0:0:0:
256,192,36593,1,0,0:0:0:0:
109,192,36704,1,0,0:0:0:0:
256,192,36704,1,0,0:0:0:0:
182,192,36926,1,0,0:0:0:0:
329,192,36926,1,0,0:0:0:0:
402,192,36926,1,0,0:0:0:0:
109,192,37149,1,0,0:0:0:0:
36,192,37149,1,0,0:0:0:0:
256,192,37371,1,0,0:0:0:0:
402,192,37371,1,0,0:0:0:0:
475,192,37371,1,0,0:0:0:0:
182,192,37593,1,0,0:0:0:0:
329,192,37593,1,0,0:0:0:0:
329,192,37704,1,0,0:0:0:0:
36,192,37815,1,0,0:0:0:0:
109,192,37815,1,0,0:0:0:0:
329,192,37815,1,0,0:0:0:0:
256,192,38037,1,0,0:0:0:0:
402,192,38037,1,0,0:0:0:0:
182,192,38037,1,0,0:0:0:0:
402,192,38093,1,0,0:0:0:0:
329,192,38149,1,0,0:0:0:0:
36,192,38260,1,0,0:0:0:0:
109,192,38260,1,0,0:0:0:0:
256,192,38260,1,0,0:0:0:0:
109,192,38371,1,0,0:0:0:0:
36,192,38371,1,0,0:0:0:0:
36,192,38482,1,0,0:0:0:0:
109,192,38482,1,0,0:0:0:0:
329,192,38482,1,0,0:0:0:0:
402,192,38482,1,0,0:0:0:0:
329,192,38593,1,0,0:0:0:0:
402,192,38593,1,0,0:0:0:0:
182,192,38704,1,0,0:0:0:0:
329,192,38704,1,0,0:0:0:0:
402,192,38704,1,0,0:0:0:0:
109,192,38704,1,0,0:0:0:0:
256,192,38926,1,0,0:0:0:0:
402,192,38926,1,0,0:0:0:0:
475,192,38926,1,0,0:0:0:0:
256,192,39037,1,0,0:0:0:0:
402,192,39037,1,0,0:0:0:0:
182,192,39149,1,0,0:0:0:0:
109,192,39149,1,0,0:0:0:0:
36,192,39149,1,0,0:0:0:0:
329,192,39371,1,0,0:0:0:0:
402,192,39371,1,0,0:0:0:0:
329,192,39482,1,0,0:0:0:0:
182,192,39593,1,0,0:0:0:0:
36,192,39593,1,0,0:0:0:0:
329,192,39593,1,0,0:0:0:0:
256,192,39815,1,0,0:0:0:0:
109,192,39815,1,0,0:0:0:0:
402,192,39815,1,0,0:0:0:0:
329,192,40037,1,0,0:0:0:0:
475,192,40037,1,0,0:0:0:0:
329,192,40149,1,0,0:0:0:0:
475,192,40149,1,0,0:0:0:0:
475,192,40260,1,0,0:0:0:0:
329,192,40260,1,0,0:0:0:0:
256,192,40482,1,0,0:0:0:0:
182,192,40482,1,0,0:0:0:0:
402,192,40482,1,0,0:0:0:0:
109,192,40704,1,0,0:0:0:0:
256,192,40704,1,0,0:0:0:0:
256,192,40815,1,0,0:0:0:0:
402,192,40926,1,0,0:0:0:0:
329,192,40926,1,0,0:0:0:0:
256,192,40926,1,0,0:0:0:0:
256,192,41149,1,0,0:0:0:0:
109,192,41149,1,0,0:0:0:0:
36,192,41149,1,0,0:0:0:0:
256,192,41260,1,0,0:0:0:0:
402,192,41260,1,0,0:0:0:0:
182,192,41371,1,0,0:0:0:0:
402,192,41371,1,0,0:0:0:0:
256,192,41593,1,0,0:0:0:0:
109,192,41593,1,0,0:0:0:0:
329,192,41649,1,0,0:0:0:0:
182,192,41704,1,0,0:0:0:0:
36,192,41815,1,0,0:0:0:0:
475,192,41815,1,0,0:0:0:0:
256,192,41815,1,0,0:0:0:0:
256,192,42704,1,0,0:0:0:0:
109,192,42704,1,0,0:0:0:0:
36,192,42704,1,0,0:0:0:0:
329,192,42704,1,0,0:0:0:0:
475,192,42704,1,0,0:0:0:0:
36,192,42926,1,0,0:0:0:0:
182,192,42926,1,0,0:0:0:0:
182,192,43037,1,0,0:0:0:0:
329,192,43037,1,0,0:0:0:0:
329,192,43149,1,0,0:0:0:0:
256,192,43149,1,0,0:0:0:0:
182,192,43260,1,0,0:0:0:0:
182,192,43371,1,0,0:0:0:0:
36,192,43371,1,0,0:0:0:0:
475,192,43371,1,0,0:0:0:0:
329,192,43537,1,0,0:0:0:0:
256,192,43593,1,0,0:0:0:0:
109,192,43593,1,0,0:0:0:0:
109,192,43704,1,0,0:0:0:0:
256,192,43704,1,0,0:0:0:0:
109,192,43815,1,0,0:0:0:0:
256,192,43815,1,0,0:0:0:0:
182,192,44037,1,0,0:0:0:0:
329,192,44037,1,0,0:0:0:0:
402,192,44037,1,0,0:0:0:0:
402,192,44149,1,0,0:0:0:0:
182,192,44149,1,0,0:0:0:0:
36,192,44260,1,0,0:0:0:0:
329,192,44260,1,0,0:0:0:0:
182,192,44260,1,0,0:0:0:0:
182,192,44371,1,0,0:0:0:0:
256,192,44482,1,0,0:0:0:0:
402,192,44482,1,0,0:0:0:0:
475,192,44482,1,0,0:0:0:0:
256,192,44593,1,0,0:0:0:0:
182,192,44704,1,0,0:0:0:0:
329,192,44704,1,0,0:0:0:0:
329,192,44815,1,0,0:0:0:0:
402,192,44815,1,0,0:0:0:0:
256,192,44871,1,0,0:0:0:0:
36,192,44926,1,0,0:0:0:0:
109,192,44926,1,0,0:0:0:0:
329,192,44926,1,0,0:0:0:0:
256,192,45149,1,0,0:0:0:0:
402,192,45149,1,0,0:0:0:0:
182,192,45149,1,0,0:0:0:0:
475,192,45204,1,0,0:0:0:0:
329,192,45260,1,0,0:0:0:0:
182,192,45260,1,0,0:0:0:0:
36,192,45371,1,0,0:0:0:0:
402,192,45371,1,0,0:0:0:0:
182,192,45371,1,0,0:0:0:0:
109,192,45482,1,0,0:0:0:0:
36,192,45482,1,0,0:0:0:0:
36,192,45593,1,0,0:0:0:0:
109,192,45593,1,0,0:0:0:0:
329,192,45593,1,0,0:0:0:0:
402,192,45593,1,0,0:0:0:0:
329,192,45704,1,0,0:0:0:0:
402,192,45704,1,0,0:0:0:0:
182,192,45815,1,0,0:0:0:0:
329,192,45815,1,0,0:0:0:0:
402,192,45815,1,0,0:0:0:0:
109,192,45815,1,0,0:0:0:0:
256,192,46037,1,0,0:0:0:0:
402,192,46037,1,0,0:0:0:0:
475,192,46037,1,0,0:0:0:0:
182,192,46112,1,0,0:0:0:0:
402,192,46149,1,0,0:0:0:0:
256,192,46186,1,0,0:0:0:0:
109,192,46260,1,0,0:0:0:0:
36,192,46260,1,0,0:0:0:0:
329,192,46260,1,0,0:0:0:0:
475,192,46260,1,0,0:0:0:0:
329,192,46482,1,0,0:0:0:0:
402,192,46482,1,0,0:0:0:0:
329,192,46593,1,0,0:0:0:0:
182,192,46593,1,0,0:0:0:0:
182,192,46704,1,0,0:0:0:0:
36,192,46704,1,0,0:0:0:0:
329,192,46704,1,0,0:0:0:0:
182,192,46815,1,0,0:0:0:0:
256,192,46926,1,0,0:0:0:0:
402,192,46926,1,0,0:0:0:0:
182,192,46926,1,0,0:0:0:0:
329,192,47149,1,0,0:0:0:0:
475,192,47149,1,0,0:0:0:0:
329,192,47260,1,0,0:0:0:0:
475,192,47260,1,0,0:0:0:0:
475,192,47371,1,0,0:0:0:0:
329,192,47371,1,0,0:0:0:0:
256,192,47371,1,0,0:0:0:0:
182,192,47593,1,0,0:0:0:0:
402,192,47593,1,0,0:0:0:0:
109,192,47593,1,0,0:0:0:0:
182,192,47704,1,0,0:0:0:0:
402,192,47704,1,0,0:0:0:0:
109,192,47815,1,0,0:0:0:0:
256,192,47815,1,0,0:0:0:0:
475,192,47815,1,0,0:0:0:0:
329,192,47926,1,0,0:0:0:0:
256,192,47926,1,0,0:0:0:0:
402,192,48037,1,0,0:0:0:0:
329,192,48037,1,0,0:0:0:0:
182,192,48037,1,0,0:0:0:0:
256,192,48260,1,0,0:0:0:0:
109,192,48260,1,0,0:0:0:0:
36,192,48260,1,0,0:0:0:0:
329,192,48371,1,0,0:0:0:0:
402,192,48371,1,0,0:0:0:0:
182,192,48408,1,0,0:0:0:0:
402,192,48482,1,0,0:0:0:0:
109,192,48482,1,0,0:0:0:0:
256,192,48482,1,0,0:0:0:0:
256,192,48593,1,0,0:0:0:0:
109,192,48593,1,0,0:0:0:0:
329,192,48704,1,0,0:0:0:0:
109,192,48704,1,0,0:0:0:0:
402,192,48704,1,0,0:0:0:0:
182,192,48815,1,0,0:0:0:0:
402,192,48815,1,0,0:0:0:0:
256,192,48871,1,0,0:0:0:0:
109,192,49000,1,0,0:0:0:0:
109,192,49075,1,0,0:0:0:0:
475,192,49260,1,0,0:0:0:0:
109,192,49445,1,0,0:0:0:0:
109,192,49519,1,0,0:0:0:0:
402,192,49667,1,0,0:0:0:0:
475,192,49741,1,0,0:0:0:0:
182,192,49815,1,0,0:0:0:0:
109,192,49815,1,0,0:0:0:0:
36,192,49815,1,0,0:0:0:0:
256,192,49815,1,0,0:0:0:0:
329,192,49815,1,0,0:0:0:0:
36,192,49926,1,0,0:0:0:0:
109,192,49926,1,0,0:0:0:0:
402,192,49926,1,0,0:0:0:0:
402,192,50037,1,0,0:0:0:0:
256,192,50037,1,0,0:0:0:0:
329,192,50037,1,0,0:0:0:0:
182,192,50037,1,0,0:0:0:0:
475,192,50037,1,0,0:0:0:0:
109,192,50149,1,0,0:0:0:0:
329,192,50149,1,0,0:0:0:0:
475,192,50149,1,0,0:0:0:0:
36,192,50260,1,0,0:0:0:0:
256,192,50260,1,0,0:0:0:0:
402,192,50260,1,0,0:0:0:0:
109,192,50260,1,0,0:0:0:0:
182,192,50260,1,0,0:0:0:0:
256,192,50371,1,0,0:0:0:0:
475,192,50371,1,0,0:0:0:0:
36,192,50371,1,0,0:0:0:0:
475,192,50482,1,0,0:0:0:0:
109,192,50482,1,0,0:0:0:0:
402,192,50482,1,0,0:0:0:0:
329,192,50482,1,0,0:0:0:0:
182,192,50482,1,0,0:0:0:0:
256,192,50593,1,0,0:0:0:0:
36,192,50593,1,0,0:0:0:0:
402,192,50593,1,0,0:0:0:0:
109,192,50704,1,0,0:0:0:0:
182,192,50704,1,0,0:0:0:0:
475,192,50704,1,0,0:0:0:0:
256,192,50704,1,0,0:0:0:0:
329,192,50704,1,0,0:0:0:0:
36,192,50815,1,0,0:0:0:0:
182,192,50815,1,0,0:0:0:0:
329,192,50815,1,0,0:0:0:0:
36,192,50926,1,0,0:0:0:0:
109,192,50926,1,0,0:0:0:0:
256,192,50926,1,0,0:0:0:0:
402,192,50926,1,0,0:0:0:0:
475,192,50926,1,0,0:0:0:0:
182,192,51037,1,0,0:0:0:0:
329,192,51037,1,0,0:0:0:0:
109,192,51037,1,0,0:0:0:0:
475,192,51149,1,0,0:0:0:0:
182,192,51149,1,0,0:0:0:0:
256,192,51149,1,0,0:0:0:0:
36,192,51149,1,0,0:0:0:0:
402,192,51149,1,0,0:0:0:0:
36,192,51260,1,0,0:0:0:0:
475,192,51260,1,0,0:0:0:0:
329,192,51260,1,0,0:0:0:0:
182,192,51371,1,0,0:0:0:0:
402,192,51371,1,0,0:0:0:0:
475,192,51371,1,0,0:0:0:0:
109,192,51371,1,0,0:0:0:0:
329,192,51371,1,0,0:0:0:0:
109,192,51482,1,0,0:0:0:0:
402,192,51482,1,0,0:0:0:0:
36,192,51593,1,0,0:0:0:0:
256,192,51593,1,0,0:0:0:0:
475,192,51593,1,0,0:0:0:0:
329,192,51593,1,0,0:0:0:0:
182,192,51593,1,0,0:0:0:0:
109,192,51704,1,0,0:0:0:0:
256,192,51704,1,0,0:0:0:0:
182,192,51815,1,0,0:0:0:0:
109,192,51815,1,0,0:0:0:0:
329,192,51815,1,0,0:0:0:0:
402,192,51815,1,0,0:0:0:0:
475,192,51815,1,0,0:0:0:0:
256,192,51926,1,0,0:0:0:0:
402,192,51926,1,0,0:0:0:0:
329,192,52037,1,0,0:0:0:0:
182,192,52037,1,0,0:0:0:0:
256,192,52037,1,0,0:0:0:0:
36,192,52037,1,0,0:0:0:0:
402,192,52037,1,0,0:0:0:0:
182,192,52149,1,0,0:0:0:0:
329,192,52149,1,0,0:0:0:0:
36,192,52149,1,0,0:0:0:0:
475,192,52260,1,0,0:0:0:0:
256,192,52260,1,0,0:0:0:0:
109,192,52260,1,0,0:0:0:0:
402,192,52260,1,0,0:0:0:0:
329,192,52260,1,0,0:0:0:0:
36,192,52371,1,0,0:0:0:0:
182,192,52371,1,0,0:0:0:0:
402,192,52371,1,0,0:0:0:0:
36,192,52482,1,0,0:0:0:0:
256,192,52482,1,0,0:0:0:0:
329,192,52482,1,0,0:0:0:0:
182,192,52482,1,0,0:0:0:0:
475,192,52482,1,0,0:0:0:0:
109,192,52593,1,0,0:0:0:0:
256,192,52593,1,0,0:0:0:0:
402,192,52593,1,0,0:0:0:0:
402,192,52704,1,0,0:0:0:0:
475,192,52704,1,0,0:0:0:0:
109,192,52704,1,0,0:0:0:0:
36,192,52704,1,0,0:0:0:0:
182,192,52704,1,0,0:0:0:0:
329,192,52704,1,0,0:0:0:0:
402,192,52815,1,0,0:0:0:0:
475,192,52815,1,0,0:0:0:0:
36,192,52815,1,0,0:0:0:0:
109,192,52815,1,0,0:0:0:0:
329,192,52926,1,0,0:0:0:0:
182,192,52926,1,0,0:0:0:0:
109,192,52926,1,0,0:0:0:0:
402,192,52926,1,0,0:0:0:0:
256,192,52926,1,0,0:0:0:0:
329,192,53037,1,0,0:0:0:0:
109,192,53037,1,0,0:0:0:0:
182,192,53037,1,0,0:0:0:0:
402,192,53037,1,0,0:0:0:0:
182,192,53149,1,0,0:0:0:0:
256,192,53149,1,0,0:0:0:0:
329,192,53149,1,0,0:0:0:0:
36,192,53149,1,0,0:0:0:0:
475,192,53149,1,0,0:0:0:0:
36,192,53260,1,0,0:0:0:0:
256,192,53260,1,0,0:0:0:0:
329,192,53371,1,0,0:0:0:0:
402,192,53371,1,0,0:0:0:0:
182,192,53371,1,0,0:0:0:0:
475,192,53371,1,0,0:0:0:0:
36,192,53371,1,0,0:0:0:0:
475,192,53482,1,0,0:0:0:0:
402,192,53482,1,0,0:0:0:0:
109,192,53482,1,0,0:0:0:0:
329,192,53593,1,0,0:0:0:0:
182,192,53593,1,0,0:0:0:0:
36,192,53593,1,0,0:0:0:0:
256,192,53593,1,0,0:0:0:0:
109,192,53593,1,0,0:0:0:0:
402,192,53704,1,0,0:0:0:0:
36,192,53704,1,0,0:0:0:0:
109,192,53704,1,0,0:0:0:0:
182,192,53815,1,0,0:0:0:0:
475,192,53815,1,0,0:0:0:0:
256,192,53815,1,0,0:0:0:0:
402,192,53815,1,0,0:0:0:0:
329,192,53815,1,0,0:0:0:0:
475,192,53926,1,0,0:0:0:0:
256,192,53926,1,0,0:0:0:0:
36,192,53926,1,0,0:0:0:0:
402,192,54037,1,0,0:0:0:0:
109,192,54037,1,0,0:0:0:0:
329,192,54037,1,0,0:0:0:0:
36,192,54037,1,0,0:0:0:0:
182,192,54037,1,0,0:0:0:0:
256,192,54149,1,0,0:0:0:0:
475,192,54149,1,0,0:0:0:0:
109,192,54149,1,0,0:0:0:0:
402,192,54260,1,0,0:0:0:0:
256,192,54260,1,0,0:0:0:0:
182,192,54260,1,0,0:0:0:0:
329,192,54260,1,0,0:0:0:0:
36,192,54260,1,0,0:0:0:0:
182,192,54371,1,0,0:0:0:0:
475,192,54371,1,0,0:0:0:0:
329,192,54371,1,0,0:0:0:0:
475,192,54482,1,0,0:0:0:0:
402,192,54482,1,0,0:0:0:0:
256,192,54482,1,0,0:0:0:0:
36,192,54482,1,0,0:0:0:0:
109,192,54482,1,0,0:0:0:0:
329,192,54593,1,0,0:0:0:0:
402,192,54593,1,0,0:0:0:0:
182,192,54593,1,0,0:0:0:0:
256,192,54704,1,0,0:0:0:0:
36,192,54704,1,0,0:0:0:0:
329,192,54704,1,0,0:0:0:0:
109,192,54704,1,0,0:0:0:0:
475,192,54704,1,0,0:0:0:0:
182,192,54815,1,0,0:0:0:0:
475,192,54815,1,0,0:0:0:0:
36,192,54815,1,0,0:0:0:0:
109,192,54926,1,0,0:0:0:0:
329,192,54926,1,0,0:0:0:0:
36,192,54926,1,0,0:0:0:0:
402,192,54926,1,0,0:0:0:0:
182,192,54926,1,0,0:0:0:0:
109,192,55037,1,0,0:0:0:0:
402,192,55037,1,0,0:0:0:0:
256,192,55037,1,0,0:0:0:0:
182,192,55149,1,0,0:0:0:0:
256,192,55149,1,0,0:0:0:0:
329,192,55149,1,0,0:0:0:0:
36,192,55149,1,0,0:0:0:0:
475,192,55149,1,0,0:0:0:0:
36,192,55260,1,0,0:0:0:0:
182,192,55260,1,0,0:0:0:0:
402,192,55260,1,0,0:0:0:0:
329,192,55371,1,0,0:0:0:0:
36,192,55371,1,0,0:0:0:0:
402,192,55371,1,0,0:0:0:0:
182,192,55371,1,0,0:0:0:0:
109,192,55371,1,0,0:0:0:0:
109,192,55482,1,0,0:0:0:0:
475,192,55482,1,0,0:0:0:0:
256,192,55482,1,0,0:0:0:0:
256,192,55593,1,0,0:0:0:0:
475,192,55593,1,0,0:0:0:0:
109,192,55593,1,0,0:0:0:0:
182,192,55593,1,0,0:0:0:0:
329,192,55593,1,0,0:0:0:0:
36,192,55704,1,0,0:0:0:0:
329,192,55704,1,0,0:0:0:0:
182,192,55704,1,0,0:0:0:0:
256,192,55815,1,0,0:0:0:0:
402,192,55815,1,0,0:0:0:0:
109,192,55815,1,0,0:0:0:0:
36,192,55815,1,0,0:0:0:0:
182,192,55815,1,0,0:0:0:0:
329,192,55926,1,0,0:0:0:0:
475,192,55926,1,0,0:0:0:0:
109,192,55926,1,0,0:0:0:0:
182,192,56037,1,0,0:0:0:0:
475,192,56037,1,0,0:0:0:0:
256,192,56037,1,0,0:0:0:0:
36,192,56037,1,0,0:0:0:0:
329,192,56037,1,0,0:0:0:0:
402,192,56149,1,0,0:0:0:0:
109,192,56149,1,0,0:0:0:0:
256,192,56149,1,0,0:0:0:0:
36,192,56260,1,0,0:0:0:0:
475,192,56260,1,0,0:0:0:0:
109,192,56260,1,0,0:0:0:0:
402,192,56260,1,0,0:0:0:0:
329,192,56260,1,0,0:0:0:0:
182,192,56260,1,0,0:0:0:0:
475,192,56371,1,0,0:0:0:0:
402,192,56371,1,0,0:0:0:0:
36,192,56371,1,0,0:0:0:0:
109,192,56371,1,0,0:0:0:0:
329,192,56482,1,0,0:0:0:0:
109,192,56482,1,0,0:0:0:0:
402,192,56482,1,0,0:0:0:0:
182,192,56482,1,0,0:0:0:0:
256,192,56482,1,0,0:0:0:0:
329,192,56593,1,0,0:0:0:0:
182,192,56593,1,0,0:0:0:0:
402,192,56704,1,0,0:0:0:0:
109,192,56704,1,0,0:0:0:0:
256,192,56704,1,0,0:0:0:0:
36,192,56704,1,0,0:0:0:0:
475,192,56704,1,0,0:0:0:0:
329,192,56815,1,0,0:0:0:0:
182,192,56815,1,0,0:0:0:0:
182,192,56926,1,0,0:0:0:0:
109,192,56926,1,0,0:0:0:0:
36,192,56926,1,0,0:0:0:0:
256,192,56926,1,0,0:0:0:0:
329,192,56926,1,0,0:0:0:0:
475,192,56926,1,0,0:0:0:0:
402,192,56926,1,0,0:0:0:0:
36,192,57037,1,0,0:0:0:0:
109,192,57037,1,0,0:0:0:0:
182,192,57149,1,0,0:0:0:0:
256,192,57149,1,0,0:0:0:0:
329,192,57149,1,0,0:0:0:0:
402,192,57149,1,0,0:0:0:0:
475,192,57149,1,0,0:0:0:0:
109,192,57260,1,0,0:0:0:0:
402,192,57260,1,0,0:0:0:0:
475,192,57260,1,0,0:0:0:0:
182,192,57371,1,0,0:0:0:0:
256,192,57371,1,0,0:0:0:0:
329,192,57371,1,0,0:0:0:0:
109,192,57371,1,0,0:0:0:0:
36,192,57371,1,0,0:0:0:0:
36,192,57482,1,0,0:0:0:0:
475,192,57482,1,0,0:0:0:0:
256,192,57482,1,0,0:0:0:0:
475,192,57593,1,0,0:0:0:0:
109,192,57593,1,0,0:0:0:0:
402,192,57593,1,0,0:0:0:0:
329,192,57593,1,0,0:0:0:0:
182,192,57593,1,0,0:0:0:0:
256,192,57704,1,0,0:0:0:0:
36,192,57704,1,0,0:0:0:0:
402,192,57704,1,0,0:0:0:0:
109,192,57815,1,0,0:0:0:0:
182,192,57815,1,0,0:0:0:0:
475,192,57815,1,0,0:0:0:0:
256,192,57815,1,0,0:0:0:0:
329,192,57815,1,0,0:0:0:0:
36,192,57926,1,0,0:0:0:0:
182,192,57926,1,0,0:0:0:0:
329,192,57926,1,0,0:0:0:0:
36,192,58037,1,0,0:0:0:0:
109,192,58037,1,0,0:0:0:0:
256,192,58037,1,0,0:0:0:0:
402,192,58037,1,0,0:0:0:0:
475,192,58037,1,0,0:0:0:0:
109,192,58149,1,0,0:0:0:0:
329,192,58149,1,0,0:0:0:0:
182,192,58149,1,0,0:0:0:0:
36,192,58260,1,0,0:0:0:0:
182,192,58260,1,0,0:0:0:0:
256,192,58260,1,0,0:0:0:0:
402,192,58260,1,0,0:0:0:0:
475,192,58260,1,0,0:0:0:0:
329,192,58371,1,0,0:0:0:0:
475,192,58371,1,0,0:0:0:0:
36,192,58371,1,0,0:0:0:0:
182,192,58482,1,0,0:0:0:0:
402,192,58482,1,0,0:0:0:0:
475,192,58482,1,0,0:0:0:0:
109,192,58482,1,0,0:0:0:0:
329,192,58482,1,0,0:0:0:0:
182,192,58593,1,0,0:0:0:0:
109,192,58593,1,0,0:0:0:0:
36,192,58704,1,0,0:0:0:0:
256,192,58704,1,0,0:0:0:0:
475,192,58704,1,0,0:0:0:0:
329,192,58704,1,0,0:0:0:0:
182,192,58704,1,0,0:0:0:0:
109,192,58704,1,0,0:0:0:0:
402,192,58704,1,0,0:0:0:0:
36,192,58815,1,0,0:0:0:0:
256,192,58815,1,0,0:0:0:0:
182,192,58926,1,0,0:0:0:0:
109,192,58926,1,0,0:0:0:0:
329,192,58926,1,0,0:0:0:0:
402,192,58926,1,0,0:0:0:0:
475,192,58926,1,0,0:0:0:0:
36,192,59037,1,0,0:0:0:0:
256,192,59037,1,0,0:0:0:0:
402,192,59037,1,0,0:0:0:0:
329,192,59149,1,0,0:0:0:0:
182,192,59149,1,0,0:0:0:0:
256,192,59149,1,0,0:0:0:0:
36,192,59149,1,0,0:0:0:0:
402,192,59149,1,0,0:0:0:0:
475,192,59260,1,0,0:0:0:0:
182,192,59260,1,0,0:0:0:0:
329,192,59260,1,0,0:0:0:0:
475,192,59371,1,0,0:0:0:0:
256,192,59371,1,0,0:0:0:0:
329,192,59371,1,0,0:0:0:0:
402,192,59371,1,0,0:0:0:0:
109,192,59371,1,0,0:0:0:0:
182,192,59482,1,0,0:0:0:0:
36,192,59482,1,0,0:0:0:0:
402,192,59482,1,0,0:0:0:0:
182,192,59593,1,0,0:0:0:0:
256,192,59593,1,0,0:0:0:0:
329,192,59593,1,0,0:0:0:0:
475,192,59593,1,0,0:0:0:0:
36,192,59593,1,0,0:0:0:0:
256,192,59704,1,0,0:0:0:0:
109,192,59704,1,0,0:0:0:0:
402,192,59704,1,0,0:0:0:0:
36,192,59815,1,0,0:0:0:0:
475,192,59815,1,0,0:0:0:0:
402,192,59815,1,0,0:0:0:0:
109,192,59815,1,0,0:0:0:0:
329,192,59815,1,0,0:0:0:0:
182,192,59815,1,0,0:0:0:0:
36,192,59926,1,0,0:0:0:0:
475,192,59926,1,0,0:0:0:0:
402,192,59926,1,0,0:0:0:0:
109,192,59926,1,0,0:0:0:0:
109,192,60037,1,0,0:0:0:0:
182,192,60037,1,0,0:0:0:0:
329,192,60037,1,0,0:0:0:0:
402,192,60037,1,0,0:0:0:0:
256,192,60037,1,0,0:0:0:0:
182,192,60149,1,0,0:0:0:0:
329,192,60149,1,0,0:0:0:0:
109,192,60260,1,0,0:0:0:0:
256,192,60260,1,0,0:0:0:0:
402,192,60260,1,0,0:0:0:0:
36,192,60260,1,0,0:0:0:0:
475,192,60260,1,0,0:0:0:0:
182,192,60371,1,0,0:0:0:0:
329,192,60371,1,0,0:0:0:0:
36,192,60482,1,0,0:0:0:0:
329,192,60482,1,0,0:0:0:0:
256,192,60482,1,0,0:0:0:0:
182,192,60482,1,0,0:0:0:0:
109,192,60482,1,0,0:0:0:0:
402,192,60482,1,0,0:0:0:0:
475,192,60482,1,0,0:0:0:0:
109,192,60593,1,0,0:0:0:0:
36,192,60593,1,0,0:0:0:0:
256,192,60704,1,0,0:0:0:0:
402,192,60704,1,0,0:0:0:0:
475,192,60704,1,0,0:0:0:0:
182,192,60704,1,0,0:0:0:0:
329,192,60704,1,0,0:0:0:0:
402,192,60815,1,0,0:0:0:0:
475,192,60815,1,0,0:0:0:0:
109,192,60815,1,0,0:0:0:0:
109,192,60926,1,0,0:0:0:0:
182,192,60926,1,0,0:0:0:0:
256,192,60926,1,0,0:0:0:0:
329,192,60926,1,0,0:0:0:0:
36,192,60926,1,0,0:0:0:0:
475,192,61037,1,0,0:0:0:0:
256,192,61037,1,0,0:0:0:0:
36,192,61037,1,0,0:0:0:0:
475,192,61149,1,0,0:0:0:0:
329,192,61149,1,0,0:0:0:0:
182,192,61149,1,0,0:0:0:0:
109,192,61149,1,0,0:0:0:0:
402,192,61149,1,0,0:0:0:0:
402,192,61260,1,0,0:0:0:0:
36,192,61260,1,0,0:0:0:0:
256,192,61260,1,0,0:0:0:0:
182,192,61371,1,0,0:0:0:0:
475,192,61371,1,0,0:0:0:0:
329,192,61371,1,0,0:0:0:0:
109,192,61371,1,0,0:0:0:0:
256,192,61371,1,0,0:0:0:0:
36,192,61371,1,0,0:0:0:0:
402,192,61371,1,0,0:0:0:0:
182,192,61482,1,0,0:0:0:0:
329,192,61482,1,0,0:0:0:0:
475,192,61593,1,0,0:0:0:0:
402,192,61593,1,0,0:0:0:0:
256,192,61593,1,0,0:0:0:0:
36,192,61593,1,0,0:0:0:0:
109,192,61593,1,0,0:0:0:0:
329,192,61704,1,0,0:0:0:0:
109,192,61704,1,0,0:0:0:0:
182,192,61704,1,0,0:0:0:0:
402,192,61815,1,0,0:0:0:0:
36,192,61815,1,0,0:0:0:0:
182,192,61815,1,0,0:0:0:0:
256,192,61815,1,0,0:0:0:0:
475,192,61815,1,0,0:0:0:0:
475,192,61926,1,0,0:0:0:0:
36,192,61926,1,0,0:0:0:0:
329,192,61926,1,0,0:0:0:0:
109,192,62037,1,0,0:0:0:0:
329,192,62037,1,0,0:0:0:0:
475,192,62037,1,0,0:0:0:0:
402,192,62037,1,0,0:0:0:0:
182,192,62037,1,0,0:0:0:0:
402,192,62149,1,0,0:0:0:0:
182,192,62149,1,0,0:0:0:0:
475,192,62260,1,0,0:0:0:0:
36,192,62260,1,0,0:0:0:0:
182,192,62260,1,0,0:0:0:0:
329,192,62260,1,0,0:0:0:0:
256,192,62260,1,0,0:0:0:0:
109,192,62260,1,0,0:0:0:0:
402,192,62260,1,0,0:0:0:0:
329,192,62371,1,0,0:0:0:0:
475,192,62371,1,0,0:0:0:0:
256,192,62371,1,0,0:0:0:0:
329,192,62482,1,0,0:0:0:0:
402,192,62482,1,0,0:0:0:0:
109,192,62482,1,0,0:0:0:0:
182,192,62482,1,0,0:0:0:0:
475,192,62482,1,0,0:0:0:0:
36,192,62482,1,0,0:0:0:0:
256,192,62482,1,0,0:0:0:0:
256,192,62593,1,0,0:0:0:0:
36,192,62593,1,0,0:0:0:0:
182,192,62593,1,0,0:0:0:0:
475,192,62704,1,0,0:0:0:0:
402,192,62704,1,0,0:0:0:0:
329,192,62704,1,0,0:0:0:0:
256,192,62760,1,0,0:0:0:0:
182,192,62760,1,0,0:0:0:0:
36,192,62815,1,0,0:0:0:0:
109,192,62815,1,0,0:0:0:0:
402,192,62871,1,0,0:0:0:0:
475,192,62871,1,0,0:0:0:0:
256,192,62926,1,0,0:0:0:0:
329,192,62926,1,0,0:0:0:0:
182,192,62926,1,0,0:0:0:0:
109,192,62926,1,0,0:0:0:0:
36,192,62926,1,0,0:0:0:0:
256,192,63037,1,0,0:0:0:0:
329,192,63037,1,0,0:0:0:0:
182,192,63037,1,0,0:0:0:0:
402,192,63149,1,0,0:0:0:0:
475,192,63149,1,0,0:0:0:0:
329,192,63149,1,0,0:0:0:0:
36,192,63149,1,0,0:0:0:0:
182,192,63149,1,0,0:0:0:0:
109,192,63149,1,0,0:0:0:0:
256,192,63149,1,0,0:0:0:0:
402,192,63260,1,0,0:0:0:0:
475,192,63260,1,0,0:0:0:0:
109,192,63260,1,0,0:0:0:0:
182,192,63260,1,0,0:0:0:0:
256,192,63260,1,0,0:0:0:0:
329,192,63260,1,0,0:0:0:0:
402,192,63371,1,0,0:0:0:0:
475,192,63371,1,0,0:0:0:0:
182,192,63371,1,0,0:0:0:0:
256,192,63371,1,0,0:0:0:0:
329,192,63371,1,0,0:0:0:0:
475,192,63482,1,0,0:0:0:0:
256,192,63482,1,0,0:0:0:0:
329,192,63482,1,0,0:0:0:0:
402,192,63482,1,0,0:0:0:0:
475,192,63593,1,0,0:0:0:0:
329,192,63593,1,0,0:0:0:0:
402,192,63593,1,0,0:0:0:0:
475,192,63704,1,0,0:0:0:0:
402,192,63704,1,0,0:0:0:0:
475,192,63815,128,0,63982:0:0:0:0:
182,192,64037,5,0,0:0:0:0:
256,192,64037,1,0,0:0:0:0:
475,192,64037,1,0,0:0:0:0:
329,192,64037,1,0,0:0:0:0:
109,192,64037,1,0,0:0:0:0:
36,192,64037,1,0,0:0:0:0:
329,192,64149,1,0,0:0:0:0:
329,192,64260,1,0,0:0:0:0:
36,192,64371,1,0,0:0:0:0:
329,192,64371,1,0,0:0:0:0:
475,192,64371,1,0,0:0:0:0:
109,192,64926,1,0,0:0:0:0:
36,192,64926,1,0,0:0:0:0:
256,192,64926,1,0,0:0:0:0:
109,192,65037,1,0,0:0:0:0:
109,192,65149,1,0,0:0:0:0:
109,192,65260,1,0,0:0:0:0:
329,192,65260,1,0,0:0:0:0:
402,192,65260,1,0,0:0:0:0:
256,192,65815,1,0,0:0:0:0:
109,192,65815,1,0,0:0:0:0:
402,192,65815,1,0,0:0:0:0:
256,192,65926,1,0,0:0:0:0:
256,192,66037,1,0,0:0:0:0:
256,192,66149,1,0,0:0:0:0:
475,192,66149,1,0,0:0:0:0:
402,192,66149,1,0,0:0:0:0:
182,192,66704,1,0,0:0:0:0:
329,192,66704,1,0,0:0:0:0:
36,192,66704,1,0,0:0:0:0:
402,192,66704,1,0,0:0:0:0:
256,192,66815,1,0,0:0:0:0:
182,192,66926,1,0,0:0:0:0:
182,192,67037,1,0,0:0:0:0:
109,192,67037,1,0,0:0:0:0:
329,192,67037,1,0,0:0:0:0:
475,192,67037,1,0,0:0:0:0:
329,192,67371,1,0,0:0:0:0:
475,192,67371,1,0,0:0:0:0:
329,192,67482,1,0,0:0:0:0:
329,192,67593,1,0,0:0:0:0:
182,192,67593,1,0,0:0:0:0:
109,192,67593,1,0,0:0:0:0:
182,192,67704,1,0,0:0:0:0:
182,192,67815,1,0,0:0:0:0:
36,192,67926,1,0,0:0:0:0:
182,192,67926,1,0,0:0:0:0:
256,192,67926,1,0,0:0:0:0:
475,192,67926,1,0,0:0:0:0:
475,192,68037,1,0,0:0:0:0:
256,192,68482,1,0,0:0:0:0:
329,192,68482,1,0,0:0:0:0:
109,192,68482,1,0,0:0:0:0:
329,192,68593,1,0,0:0:0:0:
329,192,68704,1,0,0:0:0:0:
329,192,68815,1,0,0:0:0:0:
475,192,68815,1,0,0:0:0:0:
182,192,68815,1,0,0:0:0:0:
109,192,68815,1,0,0:0:0:0:
109,192,69371,1,0,0:0:0:0:
256,192,69371,1,0,0:0:0:0:
402,192,69371,1,0,0:0:0:0:
475,192,69371,1,0,0:0:0:0:
36,192,69371,1,0,0:0:0:0:
256,192,69482,1,0,0:0:0:0:
256,192,69593,1,0,0:0:0:0:
256,192,69704,1,0,0:0:0:0:
182,192,69704,1,0,0:0:0:0:
36,192,69704,1,0,0:0:0:0:
329,192,69704,1,0,0:0:0:0:
475,192,69704,1,0,0:0:0:0:
329,192,70037,1,0,0:0:0:0:
36,192,70037,1,0,0:0:0:0:
182,192,70037,1,0,0:0:0:0:
475,192,70037,1,0,0:0:0:0:
182,192,70149,1,0,0:0:0:0:
329,192,70149,1,0,0:0:0:0:
109,192,70260,1,0,0:0:0:0:
36,192,70260,1,0,0:0:0:0:
182,192,70315,1,0,0:0:0:0:
256,192,70315,1,0,0:0:0:0:
402,192,70371,1,0,0:0:0:0:
475,192,70371,1,0,0:0:0:0:
329,192,70426,1,0,0:0:0:0:
256,192,70426,1,0,0:0:0:0:
182,192,70482,1,0,0:0:0:0:
36,192,70482,1,0,0:0:0:0:
402,192,70519,1,0,0:0:0:0:
182,192,70556,1,0,0:0:0:0:
402,192,70593,1,0,0:0:0:0:
182,192,70630,1,0,0:0:0:0:
402,192,70667,1,0,0:0:0:0:
256,192,70704,1,0,0:0:0:0:
36,192,70815,1,0,0:0:0:0:
109,192,70834,1,0,0:0:0:0:
182,192,70852,1,0,0:0:0:0:
475,192,70889,1,0,0:0:0:0:
402,192,70908,1,0,0:0:0:0:
36,192,70926,1,0,0:0:0:0:
109,192,70926,1,0,0:0:0:0:
329,192,70926,1,0,0:0:0:0:
182,192,70954,1,0,0:0:0:0:
475,192,70982,1,0,0:0:0:0:
329,192,71010,1,0,0:0:0:0:
402,192,71010,1,0,0:0:0:0:
36,192,71037,1,0,0:0:0:0:
109,192,71037,1,0,0:0:0:0:
182,192,71065,1,0,0:0:0:0:
475,192,71093,1,0,0:0:0:0:
329,192,71121,1,0,0:0:0:0:
402,192,71121,1,0,0:0:0:0:
182,192,71149,1,0,0:0:0:0:
109,192,71149,1,0,0:0:0:0:
256,192,71149,1,0,0:0:0:0:
36,192,71149,1,0,0:0:0:0:
256,192,71260,1,0,0:0:0:0:
329,192,71371,1,0,0:0:0:0:
402,192,71371,1,0,0:0:0:0:
475,192,71371,1,0,0:0:0:0:
182,192,71371,1,0,0:0:0:0:
36,192,71371,1,0,0:0:0:0:
109,192,71482,1,0,0:0:0:0:
36,192,71482,1,0,0:0:0:0:
182,192,71482,1,0,0:0:0:0:
329,192,71537,1,0,0:0:0:0:
402,192,71537,1,0,0:0:0:0:
36,192,71593,1,0,0:0:0:0:
109,192,71593,1,0,0:0:0:0:
182,192,71593,1,0,0:0:0:0:
256,192,71704,1,0,0:0:0:0:
475,192,71704,1,0,0:0:0:0:
36,192,71815,1,0,0:0:0:0:
109,192,71815,1,0,0:0:0:0:
256,192,71815,1,0,0:0:0:0:
402,192,71815,1,0,0:0:0:0:
329,192,71926,1,0,0:0:0:0:
402,192,71926,1,0,0:0:0:0:
475,192,71926,1,0,0:0:0:0:
256,192,71982,1,0,0:0:0:0:
182,192,71982,1,0,0:0:0:0:
475,192,72037,1,0,0:0:0:0:
36,192,72037,1,0,0:0:0:0:
402,192,72037,1,0,0:0:0:0:
109,192,72037,1,0,0:0:0:0:
402,192,72149,1,0,0:0:0:0:
256,192,72149,1,0,0:0:0:0:
36,192,72260,1,0,0:0:0:0:
109,192,72260,1,0,0:0:0:0:
182,192,72260,1,0,0:0:0:0:
256,192,72260,1,0,0:0:0:0:
475,192,72371,1,0,0:0:0:0:
402,192,72371,1,0,0:0:0:0:
329,192,72371,1,0,0:0:0:0:
109,192,72426,1,0,0:0:0:0:
182,192,72426,1,0,0:0:0:0:
402,192,72482,1,0,0:0:0:0:
475,192,72482,1,0,0:0:0:0:
329,192,72482,1,0,0:0:0:0:
329,192,72593,1,0,0:0:0:0:
182,192,72593,1,0,0:0:0:0:
475,192,72704,1,0,0:0:0:0:
402,192,72704,1,0,0:0:0:0:
256,192,72704,1,0,0:0:0:0:
109,192,72704,1,0,0:0:0:0:
109,192,72815,1,0,0:0:0:0:
36,192,72815,1,0,0:0:0:0:
182,192,72815,1,0,0:0:0:0:
256,192,72871,1,0,0:0:0:0:
329,192,72871,1,0,0:0:0:0:
475,192,72926,1,0,0:0:0:0:
402,192,72926,1,0,0:0:0:0:
36,192,72926,1,0,0:0:0:0:
182,192,72926,1,0,0:0:0:0:
329,192,73037,1,0,0:0:0:0:
109,192,73037,1,0,0:0:0:0:
329,192,73149,1,0,0:0:0:0:
402,192,73149,1,0,0:0:0:0:
475,192,73149,1,0,0:0:0:0:
256,192,73149,1,0,0:0:0:0:
182,192,73260,1,0,0:0:0:0:
36,192,73260,1,0,0:0:0:0:
109,192,73260,1,0,0:0:0:0:
402,192,73315,1,0,0:0:0:0:
329,192,73315,1,0,0:0:0:0:
182,192,73371,1,0,0:0:0:0:
109,192,73371,1,0,0:0:0:0:
256,192,73371,1,0,0:0:0:0:
402,192,73482,1,0,0:0:0:0:
182,192,73482,1,0,0:0:0:0:
36,192,73593,1,0,0:0:0:0:
109,192,73593,1,0,0:0:0:0:
256,192,73593,1,0,0:0:0:0:
402,192,73593,1,0,0:0:0:0:
329,192,73704,1,0,0:0:0:0:
475,192,73704,1,0,0:0:0:0:
109,192,73704,1,0,0:0:0:0:
256,192,73760,1,0,0:0:0:0:
182,192,73760,1,0,0:0:0:0:
109,192,73815,1,0,0:0:0:0:
36,192,73815,1,0,0:0:0:0:
402,192,73815,1,0,0:0:0:0:
475,192,73815,1,0,0:0:0:0:
182,192,73926,1,0,0:0:0:0:
402,192,73926,1,0,0:0:0:0:
256,192,74037,1,0,0:0:0:0:
109,192,74037,1,0,0:0:0:0:
36,192,74037,1,0,0:0:0:0:
329,192,74037,1,0,0:0:0:0:
329,192,74149,1,0,0:0:0:0:
402,192,74149,1,0,0:0:0:0:
475,192,74149,1,0,0:0:0:0:
182,192,74204,1,0,0:0:0:0:
109,192,74204,1,0,0:0:0:0:
329,192,74260,1,0,0:0:0:0:
475,192,74260,1,0,0:0:0:0:
402,192,74260,1,0,0:0:0:0:
109,192,74371,1,0,0:0:0:0:
256,192,74371,1,0,0:0:0:0:
475,192,74482,1,0,0:0:0:0:
402,192,74482,1,0,0:0:0:0:
256,192,74482,1,0,0:0:0:0:
109,192,74482,1,0,0:0:0:0:
182,192,74593,1,0,0:0:0:0:
36,192,74593,1,0,0:0:0:0:
109,192,74593,1,0,0:0:0:0:
256,192,74649,1,0,0:0:0:0:
329,192,74649,1,0,0:0:0:0:
109,192,74704,1,0,0:0:0:0:
402,192,74704,1,0,0:0:0:0:
36,192,74704,1,0,0:0:0:0:
475,192,74704,1,0,0:0:0:0:
475,192,74815,1,0,0:0:0:0:
256,192,74815,1,0,0:0:0:0:
182,192,74926,1,0,0:0:0:0:
329,192,74926,1,0,0:0:0:0:
402,192,74926,1,0,0:0:0:0:
256,192,74926,1,0,0:0:0:0:
475,192,75037,1,0,0:0:0:0:
109,192,75037,1,0,0:0:0:0:
36,192,75037,1,0,0:0:0:0:
182,192,75093,1,0,0:0:0:0:
329,192,75093,1,0,0:0:0:0:
475,192,75149,1,0,0:0:0:0:
109,192,75149,1,0,0:0:0:0:
36,192,75149,1,0,0:0:0:0:
36,192,75260,1,0,0:0:0:0:
182,192,75260,1,0,0:0:0:0:
329,192,75371,1,0,0:0:0:0:
182,192,75371,1,0,0:0:0:0:
256,192,75371,1,0,0:0:0:0:
109,192,75371,1,0,0:0:0:0:
475,192,75482,1,0,0:0:0:0:
402,192,75482,1,0,0:0:0:0:
256,192,75482,1,0,0:0:0:0:
182,192,75537,1,0,0:0:0:0:
36,192,75537,1,0,0:0:0:0:
109,192,75593,1,0,0:0:0:0:
329,192,75593,1,0,0:0:0:0:
402,192,75593,1,0,0:0:0:0:
475,192,75593,1,0,0:0:0:0:
256,192,75704,1,0,0:0:0:0:
109,192,75704,1,0,0:0:0:0:
329,192,75815,1,0,0:0:0:0:
182,192,75815,1,0,0:0:0:0:
402,192,75815,1,0,0:0:0:0:
109,192,75815,1,0,0:0:0:0:
36,192,75926,1,0,0:0:0:0:
402,192,75926,1,0,0:0:0:0:
475,192,75926,1,0,0:0:0:0:
109,192,75982,1,0,0:0:0:0:
256,192,75982,1,0,0:0:0:0:
475,192,76037,1,0,0:0:0:0:
402,192,76037,1,0,0:0:0:0:
36,192,76037,1,0,0:0:0:0:
182,192,76149,1,0,0:0:0:0:
256,192,76260,1,0,0:0:0:0:
182,192,76260,1,0,0:0:0:0:
329,192,76260,1,0,0:0:0:0:
402,192,76260,1,0,0:0:0:0:
36,192,76371,1,0,0:0:0:0:
109,192,76371,1,0,0:0:0:0:
475,192,76371,1,0,0:0:0:0:
256,192,76426,1,0,0:0:0:0:
329,192,76426,1,0,0:0:0:0:
109,192,76482,1,0,0:0:0:0:
402,192,76482,1,0,0:0:0:0:
475,192,76482,1,0,0:0:0:0:
182,192,76482,1,0,0:0:0:0:
182,192,76593,1,0,0:0:0:0:
36,192,76593,1,0,0:0:0:0:
256,192,76704,1,0,0:0:0:0:
329,192,76704,1,0,0:0:0:0:
402,192,76704,1,0,0:0:0:0:
109,192,76704,1,0,0:0:0:0:
475,192,76815,1,0,0:0:0:0:
36,192,76815,1,0,0:0:0:0:
182,192,76815,1,0,0:0:0:0:
329,192,76871,1,0,0:0:0:0:
402,192,76871,1,0,0:0:0:0:
475,192,76926,1,0,0:0:0:0:
36,192,76926,1,0,0:0:0:0:
182,192,76926,1,0,0:0:0:0:
402,192,77037,1,0,0:0:0:0:
182,192,77149,1,0,0:0:0:0:
256,192,77149,1,0,0:0:0:0:
109,192,77149,1,0,0:0:0:0:
402,192,77149,1,0,0:0:0:0:
475,192,77260,1,0,0:0:0:0:
36,192,77260,1,0,0:0:0:0:
182,192,77260,1,0,0:0:0:0:
256,192,77315,1,0,0:0:0:0:
329,192,77315,1,0,0:0:0:0:
402,192,77371,1,0,0:0:0:0:
36,192,77371,1,0,0:0:0:0:
475,192,77371,1,0,0:0:0:0:
182,192,77371,1,0,0:0:0:0:
402,192,77482,1,0,0:0:0:0:
256,192,77482,1,0,0:0:0:0:
109,192,77593,1,0,0:0:0:0:
475,192,77593,1,0,0:0:0:0:
256,192,77593,1,0,0:0:0:0:
36,192,77593,1,0,0:0:0:0:
36,192,77704,1,0,0:0:0:0:
402,192,77704,1,0,0:0:0:0:
329,192,77704,1,0,0:0:0:0:
256,192,77760,1,0,0:0:0:0:
109,192,77760,1,0,0:0:0:0:
36,192,77815,1,0,0:0:0:0:
329,192,77815,1,0,0:0:0:0:
402,192,77815,1,0,0:0:0:0:
36,192,77926,1,0,0:0:0:0:
329,192,78037,1,0,0:0:0:0:
109,192,78037,1,0,0:0:0:0:
256,192,78037,1,0,0:0:0:0:
475,192,78037,1,0,0:0:0:0:
36,192,78149,1,0,0:0:0:0:
329,192,78149,1,0,0:0:0:0:
182,192,78149,1,0,0:0:0:0:
402,192,78204,1,0,0:0:0:0:
256,192,78204,1,0,0:0:0:0:
182,192,78260,1,0,0:0:0:0:
109,192,78260,1,0,0:0:0:0:
475,192,78260,1,0,0:0:0:0:
329,192,78260,1,0,0:0:0:0:
329,192,78371,1,0,0:0:0:0:
475,192,78371,1,0,0:0:0:0:
36,192,78482,1,0,0:0:0:0:
109,192,78482,1,0,0:0:0:0:
329,192,78482,1,0,0:0:0:0:
182,192,78482,1,0,0:0:0:0:
475,192,78593,1,0,0:0:0:0:
402,192,78593,1,0,0:0:0:0:
256,192,78593,1,0,0:0:0:0:
109,192,78649,1,0,0:0:0:0:
36,192,78649,1,0,0:0:0:0:
256,192,78704,1,0,0:0:0:0:
402,192,78704,1,0,0:0:0:0:
475,192,78704,1,0,0:0:0:0:
256,192,78815,1,0,0:0:0:0:
475,192,78926,1,0,0:0:0:0:
182,192,78926,1,0,0:0:0:0:
109,192,78926,1,0,0:0:0:0:
329,192,78926,1,0,0:0:0:0:
475,192,79037,1,0,0:0:0:0:
109,192,79037,1,0,0:0:0:0:
329,192,79037,1,0,0:0:0:0:
402,192,79093,1,0,0:0:0:0:
256,192,79093,1,0,0:0:0:0:
109,192,79149,1,0,0:0:0:0:
182,192,79149,1,0,0:0:0:0:
36,192,79149,1,0,0:0:0:0:
329,192,79149,1,0,0:0:0:0:
329,192,79260,1,0,0:0:0:0:
329,192,79371,1,0,0:0:0:0:
182,192,79371,1,0,0:0:0:0:
475,192,79371,1,0,0:0:0:0:
109,192,79371,1,0,0:0:0:0:
109,192,79482,1,0,0:0:0:0:
36,192,79482,1,0,0:0:0:0:
256,192,79482,1,0,0:0:0:0:
329,192,79537,1,0,0:0:0:0:
402,192,79537,1,0,0:0:0:0:
36,192,79593,1,0,0:0:0:0:
109,192,79593,1,0,0:0:0:0:
256,192,79593,1,0,0:0:0:0:
475,192,79704,1,0,0:0:0:0:
329,192,79704,1,0,0:0:0:0:
109,192,79815,1,0,0:0:0:0:
36,192,79815,1,0,0:0:0:0:
475,192,79815,1,0,0:0:0:0:
329,192,79815,1,0,0:0:0:0:
256,192,79926,1,0,0:0:0:0:
36,192,79926,1,0,0:0:0:0:
329,192,79926,1,0,0:0:0:0:
182,192,79982,1,0,0:0:0:0:
109,192,79982,1,0,0:0:0:0:
475,192,80037,1,0,0:0:0:0:
256,192,80037,1,0,0:0:0:0:
329,192,80037,1,0,0:0:0:0:
402,192,80037,1,0,0:0:0:0:
402,192,80149,1,0,0:0:0:0:
36,192,80260,1,0,0:0:0:0:
109,192,80260,1,0,0:0:0:0:
402,192,80260,1,0,0:0:0:0:
256,192,80260,1,0,0:0:0:0:
256,192,80371,1,0,0:0:0:0:
475,192,80371,1,0,0:0:0:0:
329,192,80371,1,0,0:0:0:0:
109,192,80426,1,0,0:0:0:0:
182,192,80426,1,0,0:0:0:0:
256,192,80482,1,0,0:0:0:0:
475,192,80482,1,0,0:0:0:0:
329,192,80482,1,0,0:0:0:0:
329,192,80593,1,0,0:0:0:0:
36,192,80704,1,0,0:0:0:0:
475,192,80704,1,0,0:0:0:0:
256,192,80704,1,0,0:0:0:0:
109,192,80704,1,0,0:0:0:0:
475,192,80815,1,0,0:0:0:0:
109,192,80815,1,0,0:0:0:0:
256,192,80815,1,0,0:0:0:0:
329,192,80871,1,0,0:0:0:0:
402,192,80871,1,0,0:0:0:0:
182,192,80926,1,0,0:0:0:0:
256,192,80926,1,0,0:0:0:0:
109,192,80926,1,0,0:0:0:0:
36,192,80926,1,0,0:0:0:0:
182,192,81037,1,0,0:0:0:0:
36,192,81037,1,0,0:0:0:0:
402,192,81149,1,0,0:0:0:0:
329,192,81149,1,0,0:0:0:0:
475,192,81149,1,0,0:0:0:0:
182,192,81149,1,0,0:0:0:0:
109,192,81260,1,0,0:0:0:0:
36,192,81260,1,0,0:0:0:0:
256,192,81260,1,0,0:0:0:0:
402,192,81315,1,0,0:0:0:0:
475,192,81315,1,0,0:0:0:0:
36,192,81371,1,0,0:0:0:0:
109,192,81371,1,0,0:0:0:0:
256,192,81371,1,0,0:0:0:0:
256,192,81482,1,0,0:0:0:0:
402,192,81482,1,0,0:0:0:0:
36,192,81593,1,0,0:0:0:0:
402,192,81593,1,0,0:0:0:0:
329,192,81593,1,0,0:0:0:0:
182,192,81593,1,0,0:0:0:0:
256,192,81704,1,0,0:0:0:0:
36,192,81704,1,0,0:0:0:0:
329,192,81704,1,0,0:0:0:0:
182,192,81760,1,0,0:0:0:0:
109,192,81760,1,0,0:0:0:0:
402,192,81815,1,0,0:0:0:0:
329,192,81815,1,0,0:0:0:0:
475,192,81815,1,0,0:0:0:0:
36,192,81815,1,0,0:0:0:0:
256,192,81926,1,0,0:0:0:0:
402,192,81926,1,0,0:0:0:0:
109,192,82037,1,0,0:0:0:0:
475,192,82037,1,0,0:0:0:0:
182,192,82037,1,0,0:0:0:0:
256,192,82037,1,0,0:0:0:0:
256,192,82149,1,0,0:0:0:0:
36,192,82149,1,0,0:0:0:0:
182,192,82149,1,0,0:0:0:0:
402,192,82204,1,0,0:0:0:0:
475,192,82204,1,0,0:0:0:0:
182,192,82260,1,0,0:0:0:0:
36,192,82260,1,0,0:0:0:0:
256,192,82260,1,0,0:0:0:0:
329,192,82371,1,0,0:0:0:0:
36,192,82371,1,0,0:0:0:0:
256,192,82482,1,0,0:0:0:0:
329,192,82482,1,0,0:0:0:0:
475,192,82482,1,0,0:0:0:0:
182,192,82482,1,0,0:0:0:0:
109,192,82593,1,0,0:0:0:0:
182,192,82593,1,0,0:0:0:0:
475,192,82593,1,0,0:0:0:0:
36,192,82649,1,0,0:0:0:0:
402,192,82649,1,0,0:0:0:0:
329,192,82704,1,0,0:0:0:0:
256,192,82704,1,0,0:0:0:0:
182,192,82704,1,0,0:0:0:0:
109,192,82704,1,0,0:0:0:0:
329,192,82815,1,0,0:0:0:0:
475,192,82815,1,0,0:0:0:0:
182,192,82926,1,0,0:0:0:0:
109,192,82926,1,0,0:0:0:0:
329,192,82926,1,0,0:0:0:0:
256,192,83037,1,0,0:0:0:0:
475,192,83037,1,0,0:0:0:0:
109,192,83037,1,0,0:0:0:0:
402,192,83093,1,0,0:0:0:0:
329,192,83093,1,0,0:0:0:0:
475,192,83149,1,0,0:0:0:0:
109,192,83149,1,0,0:0:0:0:
256,192,83149,1,0,0:0:0:0:
329,192,83260,1,0,0:0:0:0:
182,192,83260,1,0,0:0:0:0:
36,192,83371,1,0,0:0:0:0:
329,192,83371,1,0,0:0:0:0:
182,192,83371,1,0,0:0:0:0:
475,192,83371,1,0,0:0:0:0:
402,192,83482,1,0,0:0:0:0:
182,192,83482,1,0,0:0:0:0:
256,192,83482,1,0,0:0:0:0:
36,192,83537,1,0,0:0:0:0:
109,192,83537,1,0,0:0:0:0:
402,192,83593,1,0,0:0:0:0:
329,192,83593,1,0,0:0:0:0:
256,192,83593,1,0,0:0:0:0:
475,192,83593,1,0,0:0:0:0:
329,192,83704,1,0,0:0:0:0:
182,192,83704,1,0,0:0:0:0:
402,192,83815,1,0,0:0:0:0:
475,192,83815,1,0,0:0:0:0:
329,192,83815,1,0,0:0:0:0:
182,192,83815,1,0,0:0:0:0:
182,192,83926,1,0,0:0:0:0:
36,192,83926,1,0,0:0:0:0:
256,192,83926,1,0,0:0:0:0:
329,192,83982,1,0,0:0:0:0:
402,192,83982,1,0,0:0:0:0:
182,192,84037,1,0,0:0:0:0:
36,192,84037,1,0,0:0:0:0:
256,192,84037,1,0,0:0:0:0:
36,192,84149,1,0,0:0:0:0:
329,192,84149,1,0,0:0:0:0:
475,192,84260,1,0,0:0:0:0:
329,192,84260,1,0,0:0:0:0:
256,192,84260,1,0,0:0:0:0:
182,192,84260,1,0,0:0:0:0:
256,192,84371,1,0,0:0:0:0:
402,192,84371,1,0,0:0:0:0:
182,192,84371,1,0,0:0:0:0:
36,192,84426,1,0,0:0:0:0:
109,192,84426,1,0,0:0:0:0:
475,192,84482,1,0,0:0:0:0:
402,192,84482,1,0,0:0:0:0:
329,192,84482,1,0,0:0:0:0:
182,192,84537,1,0,0:0:0:0:
182,192,84593,1,0,0:0:0:0:
329,192,84649,1,0,0:0:0:0:
402,192,84704,1,0,0:0:0:0:
36,192,84704,1,0,0:0:0:0:
109,192,84760,1,0,0:0:0:0:
109,192,84815,1,0,0:0:0:0:
256,192,84871,1,0,0:0:0:0:
182,192,84926,1,0,0:0:0:0:
402,192,84926,1,0,0:0:0:0:
329,192,84982,1,0,0:0:0:0:
329,192,85037,1,0,0:0:0:0:
256,192,85093,1,0,0:0:0:0:
182,192,85149,1,0,0:0:0:0:
475,192,85149,1,0,0:0:0:0:
402,192,85204,1,0,0:0:0:0:
402,192,85260,1,0,0:0:0:0:
329,192,85315,1,0,0:0:0:0:
475,192,85371,1,0,0:0:0:0:
36,192,85371,1,0,0:0:0:0:
109,192,85371,1,0,0:0:0:0:
256,192,85371,1,0,0:0:0:0:
402,192,85426,1,0,0:0:0:0:
329,192,85482,1,0,0:0:0:0:
109,192,85482,1,0,0:0:0:0:
182,192,85593,1,0,0:0:0:0:
475,192,85593,1,0,0:0:0:0:
402,192,85593,1,0,0:0:0:0:
109,192,85593,1,0,0:0:0:0:
475,192,85704,1,0,0:0:0:0:
402,192,85704,1,0,0:0:0:0:
182,192,85704,1,0,0:0:0:0:
475,192,85815,1,0,0:0:0:0:
182,192,85815,1,0,0:0:0:0:
402,192,85815,1,0,0:0:0:0:
36,192,85815,1,0,0:0:0:0:
329,192,85926,1,0,0:0:0:0:
36,192,85926,1,0,0:0:0:0:
182,192,86037,1,0,0:0:0:0:
402,192,86037,1,0,0:0:0:0:
475,192,86037,1,0,0:0:0:0:
329,192,86037,1,0,0:0:0:0:
475,192,86149,1,0,0:0:0:0:
182,192,86149,1,0,0:0:0:0:
109,192,86260,1,0,0:0:0:0:
475,192,86260,1,0,0:0:0:0:
329,192,86260,1,0,0:0:0:0:
256,192,86260,1,0,0:0:0:0:
36,192,86315,1,0,0:0:0:0:
256,192,86371,1,0,0:0:0:0:
402,192,86371,1,0,0:0:0:0:
475,192,86482,1,0,0:0:0:0:
109,192,86482,1,0,0:0:0:0:
36,192,86482,1,0,0:0:0:0:
402,192,86482,1,0,0:0:0:0:
109,192,86593,1,0,0:0:0:0:
36,192,86593,1,0,0:0:0:0:
329,192,86593,1,0,0:0:0:0:
36,192,86704,1,0,0:0:0:0:
109,192,86704,1,0,0:0:0:0:
329,192,86704,1,0,0:0:0:0:
475,192,86704,1,0,0:0:0:0:
182,192,86815,1,0,0:0:0:0:
475,192,86815,1,0,0:0:0:0:
329,192,86926,1,0,0:0:0:0:
109,192,86926,1,0,0:0:0:0:
402,192,86926,1,0,0:0:0:0:
109,192,87037,1,0,0:0:0:0:
402,192,87037,1,0,0:0:0:0:
182,192,87037,1,0,0:0:0:0:
256,192,87093,1,0,0:0:0:0:
36,192,87149,1,0,0:0:0:0:
182,192,87149,1,0,0:0:0:0:
475,192,87149,1,0,0:0:0:0:
402,192,87149,1,0,0:0:0:0:
329,192,87204,1,0,0:0:0:0:
256,192,87260,1,0,0:0:0:0:
182,192,87260,1,0,0:0:0:0:
475,192,87371,1,0,0:0:0:0:
402,192,87371,1,0,0:0:0:0:
329,192,87371,1,0,0:0:0:0:
36,192,87371,1,0,0:0:0:0:
329,192,87482,1,0,0:0:0:0:
475,192,87482,1,0,0:0:0:0:
182,192,87482,1,0,0:0:0:0:
182,192,87593,1,0,0:0:0:0:
36,192,87593,1,0,0:0:0:0:
475,192,87593,1,0,0:0:0:0:
329,192,87593,1,0,0:0:0:0:
402,192,87704,1,0,0:0:0:0:
109,192,87704,1,0,0:0:0:0:
182,192,87815,1,0,0:0:0:0:
36,192,87815,1,0,0:0:0:0:
475,192,87815,1,0,0:0:0:0:
256,192,87815,1,0,0:0:0:0:
182,192,87926,1,0,0:0:0:0:
475,192,87926,1,0,0:0:0:0:
329,192,87926,1,0,0:0:0:0:
182,192,88037,1,0,0:0:0:0:
36,192,88037,1,0,0:0:0:0:
329,192,88037,1,0,0:0:0:0:
402,192,88037,1,0,0:0:0:0:
109,192,88093,1,0,0:0:0:0:
182,192,88149,1,0,0:0:0:0:
475,192,88149,1,0,0:0:0:0:
109,192,88260,1,0,0:0:0:0:
329,192,88260,1,0,0:0:0:0:
36,192,88260,1,0,0:0:0:0:
475,192,88260,1,0,0:0:0:0:
109,192,88371,1,0,0:0:0:0:
475,192,88371,1,0,0:0:0:0:
329,192,88371,1,0,0:0:0:0:
256,192,88371,1,0,0:0:0:0:
36,192,88482,1,0,0:0:0:0:
182,192,88482,1,0,0:0:0:0:
329,192,88482,1,0,0:0:0:0:
402,192,88482,1,0,0:0:0:0:
36,192,88593,1,0,0:0:0:0:
182,192,88593,1,0,0:0:0:0:
402,192,88593,1,0,0:0:0:0:
109,192,88704,1,0,0:0:0:0:
475,192,88704,1,0,0:0:0:0:
256,192,88704,1,0,0:0:0:0:
36,192,88704,1,0,0:0:0:0:
402,192,88815,1,0,0:0:0:0:
256,192,88815,1,0,0:0:0:0:
109,192,88815,1,0,0:0:0:0:
182,192,88871,1,0,0:0:0:0:
329,192,88871,1,0,0:0:0:0:
475,192,88926,1,0,0:0:0:0:
36,192,88926,1,0,0:0:0:0:
109,192,88926,1,0,0:0:0:0:
402,192,88982,1,0,0:0:0:0:
36,192,89037,1,0,0:0:0:0:
329,192,89037,1,0,0:0:0:0:
475,192,89149,1,0,0:0:0:0:
402,192,89149,1,0,0:0:0:0:
182,192,89149,1,0,0:0:0:0:
36,192,89149,1,0,0:0:0:0:
182,192,89260,1,0,0:0:0:0:
329,192,89260,1,0,0:0:0:0:
475,192,89260,1,0,0:0:0:0:
36,192,89371,1,0,0:0:0:0:
475,192,89371,1,0,0:0:0:0:
329,192,89371,1,0,0:0:0:0:
182,192,89371,1,0,0:0:0:0:
109,192,89482,1,0,0:0:0:0:
256,192,89482,1,0,0:0:0:0:
475,192,89593,1,0,0:0:0:0:
402,192,89593,1,0,0:0:0:0:
329,192,89593,1,0,0:0:0:0:
182,192,89593,1,0,0:0:0:0:
182,192,89704,1,0,0:0:0:0:
329,192,89704,1,0,0:0:0:0:
109,192,89704,1,0,0:0:0:0:
109,192,89815,1,0,0:0:0:0:
36,192,89815,1,0,0:0:0:0:
256,192,89815,1,0,0:0:0:0:
402,192,89815,1,0,0:0:0:0:
475,192,89871,1,0,0:0:0:0:
402,192,89926,1,0,0:0:0:0:
256,192,89926,1,0,0:0:0:0:
36,192,90037,1,0,0:0:0:0:
475,192,90037,1,0,0:0:0:0:
256,192,90037,1,0,0:0:0:0:
182,192,90037,1,0,0:0:0:0:
475,192,90149,1,0,0:0:0:0:
182,192,90149,1,0,0:0:0:0:
36,192,90149,1,0,0:0:0:0:
256,192,90260,1,0,0:0:0:0:
109,192,90260,1,0,0:0:0:0:
329,192,90260,1,0,0:0:0:0:
402,192,90260,1,0,0:0:0:0:
109,192,90371,1,0,0:0:0:0:
329,192,90371,1,0,0:0:0:0:
256,192,90482,1,0,0:0:0:0:
36,192,90482,1,0,0:0:0:0:
329,192,90482,1,0,0:0:0:0:
475,192,90482,1,0,0:0:0:0:
182,192,90593,1,0,0:0:0:0:
475,192,90593,1,0,0:0:0:0:
256,192,90593,1,0,0:0:0:0:
109,192,90649,1,0,0:0:0:0:
36,192,90649,1,0,0:0:0:0:
256,192,90704,1,0,0:0:0:0:
329,192,90704,1,0,0:0:0:0:
475,192,90704,1,0,0:0:0:0:
402,192,90704,1,0,0:0:0:0:
182,192,90760,1,0,0:0:0:0:
329,192,90815,1,0,0:0:0:0:
109,192,90815,1,0,0:0:0:0:
402,192,90926,1,0,0:0:0:0:
475,192,90926,1,0,0:0:0:0:
109,192,90926,1,0,0:0:0:0:
182,192,90926,1,0,0:0:0:0:
475,192,91037,1,0,0:0:0:0:
402,192,91037,1,0,0:0:0:0:
182,192,91037,1,0,0:0:0:0:
402,192,91149,1,0,0:0:0:0:
36,192,91149,1,0,0:0:0:0:
256,192,91149,1,0,0:0:0:0:
182,192,91149,1,0,0:0:0:0:
256,192,91260,1,0,0:0:0:0:
36,192,91260,1,0,0:0:0:0:
182,192,91260,1,0,0:0:0:0:
329,192,91371,1,0,0:0:0:0:
475,192,91371,1,0,0:0:0:0:
36,192,91371,1,0,0:0:0:0:
109,192,91371,1,0,0:0:0:0:
256,192,91482,1,0,0:0:0:0:
109,192,91482,1,0,0:0:0:0:
475,192,91482,1,0,0:0:0:0:
402,192,91593,1,0,0:0:0:0:
256,192,91593,1,0,0:0:0:0:
109,192,91593,1,0,0:0:0:0:
402,192,91704,1,0,0:0:0:0:
182,192,91704,1,0,0:0:0:0:
402,192,91815,1,0,0:0:0:0:
109,192,91815,1,0,0:0:0:0:
109,192,91926,1,0,0:0:0:0:
329,192,91926,1,0,0:0:0:0:
402,192,92037,1,0,0:0:0:0:
109,192,92037,1,0,0:0:0:0:
402,192,92149,1,0,0:0:0:0:
182,192,92149,1,0,0:0:0:0:
402,192,92260,1,0,0:0:0:0:
109,192,92260,1,0,0:0:0:0:
109,192,92371,1,0,0:0:0:0:
329,192,92371,1,0,0:0:0:0:
36,192,92482,1,0,0:0:0:0:
475,192,92482,1,0,0:0:0:0:
402,192,92482,1,0,0:0:0:0:
256,192,92482,1,0,0:0:0:0:
109,192,92537,1,0,0:0:0:0:
475,192,92593,1,0,0:0:0:0:
256,192,92593,1,0,0:0:0:0:
182,192,92649,1,0,0:0:0:0:
475,192,92704,1,0,0:0:0:0:
109,192,92704,1,0,0:0:0:0:
329,192,92704,1,0,0:0:0:0:
36,192,92704,1,0,0:0:0:0:
329,192,92815,1,0,0:0:0:0:
109,192,92815,1,0,0:0:0:0:
182,192,92815,1,0,0:0:0:0:
109,192,92926,1,0,0:0:0:0:
36,192,92926,1,0,0:0:0:0:
402,192,92926,1,0,0:0:0:0:
256,192,92926,1,0,0:0:0:0:
182,192,93037,1,0,0:0:0:0:
402,192,93037,1,0,0:0:0:0:
329,192,93093,1,0,0:0:0:0:
256,192,93149,1,0,0:0:0:0:
475,192,93149,1,0,0:0:0:0:
109,192,93149,1,0,0:0:0:0:
36,192,93149,1,0,0:0:0:0:
475,192,93260,1,0,0:0:0:0:
256,192,93260,1,0,0:0:0:0:
402,192,93260,1,0,0:0:0:0:
475,192,93371,1,0,0:0:0:0:
329,192,93371,1,0,0:0:0:0:
256,192,93371,1,0,0:0:0:0:
36,192,93371,1,0,0:0:0:0:
182,192,93426,1,0,0:0:0:0:
329,192,93482,1,0,0:0:0:0:
109,192,93482,1,0,0:0:0:0:
475,192,93593,1,0,0:0:0:0:
182,192,93593,1,0,0:0:0:0:
402,192,93593,1,0,0:0:0:0:
36,192,93593,1,0,0:0:0:0:
182,192,93704,1,0,0:0:0:0:
402,192,93704,1,0,0:0:0:0:
329,192,93704,1,0,0:0:0:0:
182,192,93815,1,0,0:0:0:0:
475,192,93815,1,0,0:0:0:0:
329,192,93815,1,0,0:0:0:0:
36,192,93815,1,0,0:0:0:0:
402,192,93871,1,0,0:0:0:0:
36,192,93926,1,0,0:0:0:0:
256,192,93926,1,0,0:0:0:0:
475,192,94037,1,0,0:0:0:0:
109,192,94037,1,0,0:0:0:0:
402,192,94037,1,0,0:0:0:0:
475,192,94149,1,0,0:0:0:0:
182,192,94149,1,0,0:0:0:0:
256,192,94204,1,0,0:0:0:0:
329,192,94204,1,0,0:0:0:0:
402,192,94260,1,0,0:0:0:0:
109,192,94260,1,0,0:0:0:0:
36,192,94260,1,0,0:0:0:0:
475,192,94260,1,0,0:0:0:0:
329,192,94315,1,0,0:0:0:0:
182,192,94371,1,0,0:0:0:0:
256,192,94371,1,0,0:0:0:0:
109,192,94482,1,0,0:0:0:0:
475,192,94482,1,0,0:0:0:0:
36,192,94482,1,0,0:0:0:0:
256,192,94482,1,0,0:0:0:0:
402,192,94593,1,0,0:0:0:0:
109,192,94593,1,0,0:0:0:0:
256,192,94593,1,0,0:0:0:0:
182,192,94704,1,0,0:0:0:0:
36,192,94704,1,0,0:0:0:0:
475,192,94704,1,0,0:0:0:0:
402,192,94704,1,0,0:0:0:0:
329,192,94760,1,0,0:0:0:0:
109,192,94815,1,0,0:0:0:0:
256,192,94815,1,0,0:0:0:0:
475,192,94926,1,0,0:0:0:0:
329,192,94926,1,0,0:0:0:0:
36,192,94926,1,0,0:0:0:0:
109,192,94926,1,0,0:0:0:0:
329,192,95037,1,0,0:0:0:0:
475,192,95037,1,0,0:0:0:0:
182,192,95037,1,0,0:0:0:0:
109,192,95149,1,0,0:0:0:0:
182,192,95149,1,0,0:0:0:0:
256,192,95149,1,0,0:0:0:0:
402,192,95149,1,0,0:0:0:0:
475,192,95204,1,0,0:0:0:0:
402,192,95260,1,0,0:0:0:0:
256,192,95260,1,0,0:0:0:0:
109,192,95371,1,0,0:0:0:0:
36,192,95371,1,0,0:0:0:0:
182,192,95371,1,0,0:0:0:0:
256,192,95371,1,0,0:0:0:0:
475,192,95482,1,0,0:0:0:0:
402,192,95482,1,0,0:0:0:0:
182,192,95482,1,0,0:0:0:0:
329,192,95482,1,0,0:0:0:0:
182,192,95593,1,0,0:0:0:0:
402,192,95593,1,0,0:0:0:0:
36,192,95593,1,0,0:0:0:0:
256,192,95593,1,0,0:0:0:0:
109,192,95649,1,0,0:0:0:0:
402,192,95704,1,0,0:0:0:0:
475,192,95704,1,0,0:0:0:0:
256,192,95704,1,0,0:0:0:0:
329,192,95704,1,0,0:0:0:0:
109,192,95815,1,0,0:0:0:0:
475,192,95815,1,0,0:0:0:0:
36,192,95815,1,0,0:0:0:0:
329,192,95815,1,0,0:0:0:0:
402,192,95926,1,0,0:0:0:0:
109,192,95926,1,0,0:0:0:0:
329,192,95982,1,0,0:0:0:0:
182,192,95982,1,0,0:0:0:0:
109,192,96037,1,0,0:0:0:0:
475,192,96037,1,0,0:0:0:0:
402,192,96037,1,0,0:0:0:0:
36,192,96037,1,0,0:0:0:0:
256,192,96093,1,0,0:0:0:0:
475,192,96149,1,0,0:0:0:0:
36,192,96149,1,0,0:0:0:0:
109,192,96204,1,0,0:0:0:0:
402,192,96260,1,0,0:0:0:0:
182,192,96260,1,0,0:0:0:0:
329,192,96260,1,0,0:0:0:0:
475,192,96260,1,0,0:0:0:0:
256,192,96371,1,0,0:0:0:0:
402,192,96371,1,0,0:0:0:0:
109,192,96371,1,0,0:0:0:0:
329,192,96482,1,0,0:0:0:0:
182,192,96482,1,0,0:0:0:0:
109,192,96482,1,0,0:0:0:0:
402,192,96482,1,0,0:0:0:0:
475,192,96537,1,0,0:0:0:0:
329,192,96593,1,0,0:0:0:0:
182,192,96593,1,0,0:0:0:0:
109,192,96704,1,0,0:0:0:0:
36,192,96704,1,0,0:0:0:0:
256,192,96704,1,0,0:0:0:0:
475,192,96704,1,0,0:0:0:0:
475,192,96815,1,0,0:0:0:0:
256,192,96815,1,0,0:0:0:0:
109,192,96815,1,0,0:0:0:0:
182,192,96926,1,0,0:0:0:0:
402,192,96926,1,0,0:0:0:0:
329,192,96926,1,0,0:0:0:0:
36,192,96926,1,0,0:0:0:0:
475,192,96982,1,0,0:0:0:0:
329,192,97037,1,0,0:0:0:0:
182,192,97037,1,0,0:0:0:0:
475,192,97149,1,0,0:0:0:0:
402,192,97149,1,0,0:0:0:0:
36,192,97149,1,0,0:0:0:0:
256,192,97149,1,0,0:0:0:0:
109,192,97260,1,0,0:0:0:0:
256,192,97260,1,0,0:0:0:0:
475,192,97260,1,0,0:0:0:0:
329,192,97371,1,0,0:0:0:0:
402,192,97371,1,0,0:0:0:0:
182,192,97371,1,0,0:0:0:0:
109,192,97371,1,0,0:0:0:0:
36,192,97426,1,0,0:0:0:0:
329,192,97482,1,0,0:0:0:0:
182,192,97482,1,0,0:0:0:0:
256,192,97593,1,0,0:0:0:0:
475,192,97593,1,0,0:0:0:0:
182,192,97593,1,0,0:0:0:0:
36,192,97593,1,0,0:0:0:0:
256,192,97704,1,0,0:0:0:0:
109,192,97704,1,0,0:0:0:0:
475,192,97704,1,0,0:0:0:0:
402,192,97760,1,0,0:0:0:0:
329,192,97760,1,0,0:0:0:0:
109,192,97815,1,0,0:0:0:0:
36,192,97815,1,0,0:0:0:0:
182,192,97815,1,0,0:0:0:0:
256,192,97815,1,0,0:0:0:0:
475,192,97871,1,0,0:0:0:0:
182,192,97926,1,0,0:0:0:0:
402,192,97926,1,0,0:0:0:0:
109,192,98037,1,0,0:0:0:0:
36,192,98037,1,0,0:0:0:0:
256,192,98037,1,0,0:0:0:0:
475,192,98037,1,0,0:0:0:0:
109,192,98149,1,0,0:0:0:0:
256,192,98149,1,0,0:0:0:0:
402,192,98149,1,0,0:0:0:0:
256,192,98260,1,0,0:0:0:0:
475,192,98260,1,0,0:0:0:0:
329,192,98260,1,0,0:0:0:0:
109,192,98260,1,0,0:0:0:0:
36,192,98315,1,0,0:0:0:0:
182,192,98371,1,0,0:0:0:0:
329,192,98371,1,0,0:0:0:0:
182,192,98482,1,0,0:0:0:0:
36,192,98482,1,0,0:0:0:0:
329,192,98482,1,0,0:0:0:0:
475,192,98482,1,0,0:0:0:0:
475,192,98593,1,0,0:0:0:0:
402,192,98593,1,0,0:0:0:0:
256,192,98593,1,0,0:0:0:0:
36,192,98704,1,0,0:0:0:0:
182,192,98704,1,0,0:0:0:0:
109,192,98704,1,0,0:0:0:0:
329,192,98704,1,0,0:0:0:0:
329,192,98815,1,0,0:0:0:0:
109,192,98815,1,0,0:0:0:0:
36,192,98815,1,0,0:0:0:0:
182,192,98815,1,0,0:0:0:0:
475,192,98926,1,0,0:0:0:0:
402,192,98926,1,0,0:0:0:0:
329,192,98926,1,0,0:0:0:0:
182,192,98926,1,0,0:0:0:0:
329,192,99037,1,0,0:0:0:0:
402,192,99037,1,0,0:0:0:0:
475,192,99037,1,0,0:0:0:0:
182,192,99037,1,0,0:0:0:0:
475,192,99149,1,0,0:0:0:0:
109,192,99149,1,0,0:0:0:0:
36,192,99149,1,0,0:0:0:0:
402,192,99149,1,0,0:0:0:0:
329,192,99176,1,0,0:0:0:0:
256,192,99204,1,0,0:0:0:0:
182,192,99232,1,0,0:0:0:0:
402,192,99260,1,0,0:0:0:0:
475,192,99260,1,0,0:0:0:0:
36,192,99260,1,0,0:0:0:0:
109,192,99260,1,0,0:0:0:0:
329,192,99287,1,0,0:0:0:0:
256,192,99315,1,0,0:0:0:0:
182,192,99343,1,0,0:0:0:0:
402,192,99371,1,0,0:0:0:0:
475,192,99371,1,0,0:0:0:0:
36,192,99371,1,0,0:0:0:0:
109,192,99371,1,0,0:0:0:0:
256,192,99593,1,0,0:0:0:0:
329,192,99593,1,0,0:0:0:0:
475,192,99593,1,0,0:0:0:0:
182,192,99593,1,0,0:0:0:0:
36,192,99593,1,0,0:0:0:0:
475,192,99704,1,0,0:0:0:0:
475,192,99815,1,0,0:0:0:0:
36,192,99815,1,0,0:0:0:0:
475,192,99926,1,0,0:0:0:0:
36,192,99926,1,0,0:0:0:0:
109,192,100037,1,0,0:0:0:0:
182,192,100037,1,0,0:0:0:0:
475,192,100037,1,0,0:0:0:0:
475,192,100149,1,0,0:0:0:0:
256,192,100260,1,0,0:0:0:0:
475,192,100260,1,0,0:0:0:0:
36,192,100260,1,0,0:0:0:0:
475,192,100371,1,0,0:0:0:0:
182,192,100482,1,0,0:0:0:0:
109,192,100482,1,0,0:0:0:0:
475,192,100482,1,0,0:0:0:0:
109,192,100593,1,0,0:0:0:0:
182,192,100593,1,0,0:0:0:0:
475,192,100593,1,0,0:0:0:0:
109,192,100704,1,0,0:0:0:0:
182,192,100704,1,0,0:0:0:0:
475,192,100704,1,0,0:0:0:0:
475,192,100815,1,0,0:0:0:0:
36,192,100926,1,0,0:0:0:0:
182,192,100926,1,0,0:0:0:0:
475,192,100926,1,0,0:0:0:0:
475,192,101037,1,0,0:0:0:0:
182,192,101149,1,0,0:0:0:0:
475,192,101149,1,0,0:0:0:0:
475,192,101260,1,0,0:0:0:0:
256,192,101371,1,0,0:0:0:0:
402,192,101371,1,0,0:0:0:0:
36,192,101371,1,0,0:0:0:0:
36,192,101482,1,0,0:0:0:0:
329,192,101593,1,0,0:0:0:0:
182,192,101593,1,0,0:0:0:0:
36,192,101593,1,0,0:0:0:0:
329,192,101704,1,0,0:0:0:0:
36,192,101704,1,0,0:0:0:0:
475,192,101815,1,0,0:0:0:0:
402,192,101815,1,0,0:0:0:0:
36,192,101815,1,0,0:0:0:0:
36,192,101926,1,0,0:0:0:0:
256,192,102037,1,0,0:0:0:0:
475,192,102037,1,0,0:0:0:0:
36,192,102037,1,0,0:0:0:0:
402,192,102093,1,0,0:0:0:0:
329,192,102149,1,0,0:0:0:0:
36,192,102149,1,0,0:0:0:0:
475,192,102260,1,0,0:0:0:0:
402,192,102260,1,0,0:0:0:0:
329,192,102260,1,0,0:0:0:0:
36,192,102260,1,0,0:0:0:0:
402,192,102371,1,0,0:0:0:0:
475,192,102371,1,0,0:0:0:0:
36,192,102371,1,0,0:0:0:0:
475,192,102482,1,0,0:0:0:0:
402,192,102482,1,0,0:0:0:0:
256,192,102482,1,0,0:0:0:0:
36,192,102482,1,0,0:0:0:0:
329,192,102593,1,0,0:0:0:0:
36,192,102593,1,0,0:0:0:0:
475,192,102704,1,0,0:0:0:0:
256,192,102704,1,0,0:0:0:0:
402,192,102704,1,0,0:0:0:0:
36,192,102704,1,0,0:0:0:0:
475,192,102815,1,0,0:0:0:0:
36,192,102815,1,0,0:0:0:0:
329,192,102926,1,0,0:0:0:0:
402,192,102926,1,0,0:0:0:0:
36,192,102926,1,0,0:0:0:0:
329,192,103037,1,0,0:0:0:0:
36,192,103037,1,0,0:0:0:0:
109,192,103093,1,0,0:0:0:0:
182,192,103093,1,0,0:0:0:0:
256,192,103149,1,0,0:0:0:0:
402,192,103149,1,0,0:0:0:0:
475,192,103149,1,0,0:0:0:0:
256,192,103260,1,0,0:0:0:0:
109,192,103371,1,0,0:0:0:0:
256,192,103371,1,0,0:0:0:0:
36,192,103371,1,0,0:0:0:0:
256,192,103482,1,0,0:0:0:0:
402,192,103482,1,0,0:0:0:0:
402,192,103593,1,0,0:0:0:0:
256,192,103593,1,0,0:0:0:0:
256,192,103704,1,0,0:0:0:0:
256,192,103815,1,0,0:0:0:0:
36,192,103815,1,0,0:0:0:0:
109,192,103815,1,0,0:0:0:0:
256,192,103926,1,0,0:0:0:0:
475,192,104037,1,0,0:0:0:0:
36,192,104037,1,0,0:0:0:0:
256,192,104037,1,0,0:0:0:0:
475,192,104149,1,0,0:0:0:0:
36,192,104149,1,0,0:0:0:0:
256,192,104149,1,0,0:0:0:0:
36,192,104260,1,0,0:0:0:0:
475,192,104260,1,0,0:0:0:0:
256,192,104260,1,0,0:0:0:0:
256,192,104371,1,0,0:0:0:0:
256,192,104482,1,0,0:0:0:0:
329,192,104482,1,0,0:0:0:0:
109,192,104482,1,0,0:0:0:0:
109,192,104593,1,0,0:0:0:0:
256,192,104593,1,0,0:0:0:0:
402,192,104704,1,0,0:0:0:0:
256,192,104704,1,0,0:0:0:0:
402,192,104815,1,0,0:0:0:0:
256,192,104815,1,0,0:0:0:0:
109,192,104926,1,0,0:0:0:0:
182,192,104926,1,0,0:0:0:0:
109,192,105037,1,0,0:0:0:0:
182,192,105037,1,0,0:0:0:0:
256,192,105149,1,0,0:0:0:0:
402,192,105149,1,0,0:0:0:0:
475,192,105149,1,0,0:0:0:0:
256,192,105260,1,0,0:0:0:0:
329,192,105371,1,0,0:0:0:0:
109,192,105371,1,0,0:0:0:0:
109,192,105482,1,0,0:0:0:0:
329,192,105482,1,0,0:0:0:0:
182,192,105593,1,0,0:0:0:0:
402,192,105593,1,0,0:0:0:0:
182,192,105667,1,0,0:0:0:0:
402,192,105704,1,0,0:0:0:0:
109,192,105704,1,0,0:0:0:0:
329,192,105760,1,0,0:0:0:0:
475,192,105815,1,0,0:0:0:0:
36,192,105815,1,0,0:0:0:0:
256,192,105815,1,0,0:0:0:0:
256,192,106704,1,0,0:0:0:0:
402,192,106704,1,0,0:0:0:0:
475,192,106704,1,0,0:0:0:0:
182,192,106704,1,0,0:0:0:0:
36,192,106704,1,0,0:0:0:0:
256,192,106815,1,0,0:0:0:0:
475,192,106926,1,0,0:0:0:0:
329,192,106926,1,0,0:0:0:0:
475,192,107037,1,0,0:0:0:0:
36,192,107037,1,0,0:0:0:0:
329,192,107037,1,0,0:0:0:0:
256,192,107149,1,0,0:0:0:0:
402,192,107149,1,0,0:0:0:0:
109,192,107149,1,0,0:0:0:0:
329,192,107371,1,0,0:0:0:0:
475,192,107371,1,0,0:0:0:0:
36,192,107371,1,0,0:0:0:0:
36,192,107482,1,0,0:0:0:0:
182,192,107537,1,0,0:0:0:0:
256,192,107593,1,0,0:0:0:0:
402,192,107593,1,0,0:0:0:0:
109,192,107593,1,0,0:0:0:0:
36,192,107593,1,0,0:0:0:0:
475,192,107593,1,0,0:0:0:0:
402,192,107704,1,0,0:0:0:0:
402,192,107815,1,0,0:0:0:0:
329,192,107815,1,0,0:0:0:0:
329,192,107926,1,0,0:0:0:0:
329,192,108037,1,0,0:0:0:0:
109,192,108037,1,0,0:0:0:0:
402,192,108112,1,0,0:0:0:0:
182,192,108149,1,0,0:0:0:0:
475,192,108260,1,0,0:0:0:0:
256,192,108260,1,0,0:0:0:0:
36,192,108260,1,0,0:0:0:0:
256,192,108371,1,0,0:0:0:0:
256,192,108482,1,0,0:0:0:0:
36,192,108482,1,0,0:0:0:0:
475,192,108482,1,0,0:0:0:0:
329,192,108482,1,0,0:0:0:0:
182,192,108482,1,0,0:0:0:0:
109,192,108556,1,0,0:0:0:0:
36,192,108593,1,0,0:0:0:0:
329,192,108704,1,0,0:0:0:0:
182,192,108704,1,0,0:0:0:0:
329,192,108815,1,0,0:0:0:0:
182,192,108815,1,0,0:0:0:0:
402,192,108815,1,0,0:0:0:0:
402,192,108926,1,0,0:0:0:0:
256,192,108926,1,0,0:0:0:0:
109,192,108926,1,0,0:0:0:0:
256,192,109149,1,0,0:0:0:0:
109,192,109149,1,0,0:0:0:0:
329,192,109149,1,0,0:0:0:0:
402,192,109260,1,0,0:0:0:0:
182,192,109260,1,0,0:0:0:0:
329,192,109260,1,0,0:0:0:0:
475,192,109371,1,0,0:0:0:0:
109,192,109371,1,0,0:0:0:0:
329,192,109371,1,0,0:0:0:0:
36,192,109371,1,0,0:0:0:0:
256,192,109371,1,0,0:0:0:0:
256,192,109482,1,0,0:0:0:0:
36,192,109482,1,0,0:0:0:0:
402,192,109593,1,0,0:0:0:0:
182,192,109593,1,0,0:0:0:0:
109,192,109593,1,0,0:0:0:0:
329,192,109649,1,0,0:0:0:0:
182,192,109704,1,0,0:0:0:0:
109,192,109704,1,0,0:0:0:0:
475,192,109704,1,0,0:0:0:0:
329,192,109815,1,0,0:0:0:0:
182,192,109815,1,0,0:0:0:0:
402,192,109815,1,0,0:0:0:0:
256,192,110037,1,0,0:0:0:0:
109,192,110037,1,0,0:0:0:0:
402,192,110037,1,0,0:0:0:0:
475,192,110037,1,0,0:0:0:0:
329,192,110149,1,0,0:0:0:0:
182,192,110149,1,0,0:0:0:0:
402,192,110260,1,0,0:0:0:0:
475,192,110260,1,0,0:0:0:0:
182,192,110260,1,0,0:0:0:0:
36,192,110260,1,0,0:0:0:0:
256,192,110260,1,0,0:0:0:0:
402,192,110371,1,0,0:0:0:0:
109,192,110482,1,0,0:0:0:0:
256,192,110482,1,0,0:0:0:0:
402,192,110482,1,0,0:0:0:0:
109,192,110593,1,0,0:0:0:0:
256,192,110593,1,0,0:0:0:0:
329,192,110704,1,0,0:0:0:0:
475,192,110704,1,0,0:0:0:0:
182,192,110704,1,0,0:0:0:0:
182,192,110815,1,0,0:0:0:0:
256,192,110926,1,0,0:0:0:0:
109,192,110926,1,0,0:0:0:0:
329,192,110926,1,0,0:0:0:0:
329,192,111037,1,0,0:0:0:0:
109,192,111037,1,0,0:0:0:0:
182,192,111149,1,0,0:0:0:0:
36,192,111149,1,0,0:0:0:0:
402,192,111149,1,0,0:0:0:0:
256,192,111149,1,0,0:0:0:0:
475,192,111149,1,0,0:0:0:0:
182,192,111260,1,0,0:0:0:0:
36,192,111260,1,0,0:0:0:0:
36,192,111371,1,0,0:0:0:0:
182,192,111371,1,0,0:0:0:0:
182,192,111482,1,0,0:0:0:0:
256,192,111593,1,0,0:0:0:0:
329,192,111593,1,0,0:0:0:0:
109,192,111593,1,0,0:0:0:0:
402,192,111593,1,0,0:0:0:0:
256,192,111704,1,0,0:0:0:0:
109,192,111704,1,0,0:0:0:0:
402,192,111815,1,0,0:0:0:0:
182,192,111815,1,0,0:0:0:0:
36,192,111815,1,0,0:0:0:0:
109,192,111926,1,0,0:0:0:0:
256,192,111926,1,0,0:0:0:0:
109,192,112037,1,0,0:0:0:0:
182,192,112037,1,0,0:0:0:0:
329,192,112037,1,0,0:0:0:0:
36,192,112037,1,0,0:0:0:0:
475,192,112037,1,0,0:0:0:0:
329,192,112149,1,0,0:0:0:0:
182,192,112149,1,0,0:0:0:0:
256,192,112260,1,0,0:0:0:0:
402,192,112260,1,0,0:0:0:0:
475,192,112260,1,0,0:0:0:0:
182,192,112371,1,0,0:0:0:0:
329,192,112408,1,0,0:0:0:0:
402,192,112482,1,0,0:0:0:0:
256,192,112482,1,0,0:0:0:0:
182,192,112482,1,0,0:0:0:0:
109,192,112593,1,0,0:0:0:0:
256,192,112593,1,0,0:0:0:0:
402,192,112593,1,0,0:0:0:0:
402,192,112704,1,0,0:0:0:0:
109,192,112704,1,0,0:0:0:0:
182,192,112760,1,0,0:0:0:0:
329,192,112815,1,0,0:0:0:0:
109,192,112815,1,0,0:0:0:0:
256,192,112871,1,0,0:0:0:0:
36,192,112871,1,0,0:0:0:0:
182,192,112926,1,0,0:0:0:0:
402,192,113000,1,0,0:0:0:0:
402,192,113075,1,0,0:0:0:0:
36,192,113260,1,0,0:0:0:0:
402,192,113445,1,0,0:0:0:0:
402,192,113519,1,0,0:0:0:0:
109,192,113667,1,0,0:0:0:0:
36,192,113741,1,0,0:0:0:0:
329,192,113815,1,0,0:0:0:0:
402,192,113815,1,0,0:0:0:0:
475,192,113815,1,0,0:0:0:0:
256,192,113815,1,0,0:0:0:0:
182,192,113815,1,0,0:0:0:0:
475,192,113926,1,0,0:0:0:0:
402,192,113926,1,0,0:0:0:0:
109,192,113926,1,0,0:0:0:0:
109,192,114037,1,0,0:0:0:0:
256,192,114037,1,0,0:0:0:0:
182,192,114037,1,0,0:0:0:0:
329,192,114037,1,0,0:0:0:0:
36,192,114037,1,0,0:0:0:0:
402,192,114149,1,0,0:0:0:0:
182,192,114149,1,0,0:0:0:0:
36,192,114149,1,0,0:0:0:0:
475,192,114260,1,0,0:0:0:0:
256,192,114260,1,0,0:0:0:0:
109,192,114260,1,0,0:0:0:0:
402,192,114260,1,0,0:0:0:0:
329,192,114260,1,0,0:0:0:0:
256,192,114371,1,0,0:0:0:0:
36,192,114371,1,0,0:0:0:0:
475,192,114371,1,0,0:0:0:0:
36,192,114482,1,0,0:0:0:0:
402,192,114482,1,0,0:0:0:0:
109,192,114482,1,0,0:0:0:0:
182,192,114482,1,0,0:0:0:0:
329,192,114482,1,0,0:0:0:0:
256,192,114593,1,0,0:0:0:0:
475,192,114593,1,0,0:0:0:0:
109,192,114593,1,0,0:0:0:0:
402,192,114704,1,0,0:0:0:0:
329,192,114704,1,0,0:0:0:0:
36,192,114704,1,0,0:0:0:0:
256,192,114704,1,0,0:0:0:0:
182,192,114704,1,0,0:0:0:0:
475,192,114815,1,0,0:0:0:0:
329,192,114815,1,0,0:0:0:0:
182,192,114815,1,0,0:0:0:0:
475,192,114926,1,0,0:0:0:0:
402,192,114926,1,0,0:0:0:0:
256,192,114926,1,0,0:0:0:0:
109,192,114926,1,0,0:0:0:0:
36,192,114926,1,0,0:0:0:0:
329,192,115037,1,0,0:0:0:0:
182,192,115037,1,0,0:0:0:0:
402,192,115037,1,0,0:0:0:0:
36,192,115149,1,0,0:0:0:0:
329,192,115149,1,0,0:0:0:0:
256,192,115149,1,0,0:0:0:0:
475,192,115149,1,0,0:0:0:0:
109,192,115149,1,0,0:0:0:0:
475,192,115260,1,0,0:0:0:0:
36,192,115260,1,0,0:0:0:0:
182,192,115260,1,0,0:0:0:0:
329,192,115371,1,0,0:0:0:0:
109,192,115371,1,0,0:0:0:0:
36,192,115371,1,0,0:0:0:0:
402,192,115371,1,0,0:0:0:0:
182,192,115371,1,0,0:0:0:0:
402,192,115482,1,0,0:0:0:0:
256,192,115482,1,0,0:0:0:0:
475,192,115482,1,0,0:0:0:0:
475,192,115593,1,0,0:0:0:0:
256,192,115593,1,0,0:0:0:0:
36,192,115593,1,0,0:0:0:0:
182,192,115593,1,0,0:0:0:0:
329,192,115593,1,0,0:0:0:0:
329,192,115704,1,0,0:0:0:0:
182,192,115704,1,0,0:0:0:0:
36,192,115704,1,0,0:0:0:0:
329,192,115815,1,0,0:0:0:0:
475,192,115815,1,0,0:0:0:0:
182,192,115815,1,0,0:0:0:0:
109,192,115815,1,0,0:0:0:0:
36,192,115815,1,0,0:0:0:0:
256,192,115926,1,0,0:0:0:0:
402,192,115926,1,0,0:0:0:0:
109,192,115926,1,0,0:0:0:0:
182,192,116037,1,0,0:0:0:0:
329,192,116037,1,0,0:0:0:0:
256,192,116037,1,0,0:0:0:0:
475,192,116037,1,0,0:0:0:0:
109,192,116037,1,0,0:0:0:0:
36,192,116149,1,0,0:0:0:0:
329,192,116149,1,0,0:0:0:0:
182,192,116149,1,0,0:0:0:0:
36,192,116260,1,0,0:0:0:0:
256,192,116260,1,0,0:0:0:0:
402,192,116260,1,0,0:0:0:0:
109,192,116260,1,0,0:0:0:0:
182,192,116260,1,0,0:0:0:0:
475,192,116371,1,0,0:0:0:0:
329,192,116371,1,0,0:0:0:0:
109,192,116371,1,0,0:0:0:0:
475,192,116482,1,0,0:0:0:0:
256,192,116482,1,0,0:0:0:0:
182,192,116482,1,0,0:0:0:0:
329,192,116482,1,0,0:0:0:0:
36,192,116482,1,0,0:0:0:0:
402,192,116593,1,0,0:0:0:0:
256,192,116593,1,0,0:0:0:0:
109,192,116593,1,0,0:0:0:0:
109,192,116704,1,0,0:0:0:0:
36,192,116704,1,0,0:0:0:0:
402,192,116704,1,0,0:0:0:0:
475,192,116704,1,0,0:0:0:0:
329,192,116704,1,0,0:0:0:0:
182,192,116704,1,0,0:0:0:0:
109,192,116815,1,0,0:0:0:0:
36,192,116815,1,0,0:0:0:0:
475,192,116815,1,0,0:0:0:0:
402,192,116815,1,0,0:0:0:0:
182,192,116926,1,0,0:0:0:0:
329,192,116926,1,0,0:0:0:0:
402,192,116926,1,0,0:0:0:0:
109,192,116926,1,0,0:0:0:0:
256,192,116926,1,0,0:0:0:0:
182,192,117037,1,0,0:0:0:0:
402,192,117037,1,0,0:0:0:0:
329,192,117037,1,0,0:0:0:0:
109,192,117037,1,0,0:0:0:0:
329,192,117149,1,0,0:0:0:0:
256,192,117149,1,0,0:0:0:0:
182,192,117149,1,0,0:0:0:0:
475,192,117149,1,0,0:0:0:0:
36,192,117149,1,0,0:0:0:0:
402,192,117260,1,0,0:0:0:0:
109,192,117260,1,0,0:0:0:0:
182,192,117371,1,0,0:0:0:0:
256,192,117371,1,0,0:0:0:0:
329,192,117371,1,0,0:0:0:0:
36,192,117371,1,0,0:0:0:0:
475,192,117371,1,0,0:0:0:0:
36,192,117482,1,0,0:0:0:0:
109,192,117482,1,0,0:0:0:0:
402,192,117482,1,0,0:0:0:0:
182,192,117593,1,0,0:0:0:0:
329,192,117593,1,0,0:0:0:0:
475,192,117593,1,0,0:0:0:0:
256,192,117593,1,0,0:0:0:0:
402,192,117593,1,0,0:0:0:0:
109,192,117704,1,0,0:0:0:0:
475,192,117704,1,0,0:0:0:0:
402,192,117704,1,0,0:0:0:0:
329,192,117815,1,0,0:0:0:0:
36,192,117815,1,0,0:0:0:0:
256,192,117815,1,0,0:0:0:0:
109,192,117815,1,0,0:0:0:0:
182,192,117815,1,0,0:0:0:0:
36,192,117926,1,0,0:0:0:0:
256,192,117926,1,0,0:0:0:0:
475,192,117926,1,0,0:0:0:0:
109,192,118037,1,0,0:0:0:0:
402,192,118037,1,0,0:0:0:0:
182,192,118037,1,0,0:0:0:0:
475,192,118037,1,0,0:0:0:0:
329,192,118037,1,0,0:0:0:0:
256,192,118149,1,0,0:0:0:0:
36,192,118149,1,0,0:0:0:0:
402,192,118149,1,0,0:0:0:0:
109,192,118260,1,0,0:0:0:0:
256,192,118260,1,0,0:0:0:0:
329,192,118260,1,0,0:0:0:0:
182,192,118260,1,0,0:0:0:0:
475,192,118260,1,0,0:0:0:0:
329,192,118371,1,0,0:0:0:0:
36,192,118371,1,0,0:0:0:0:
182,192,118371,1,0,0:0:0:0:
36,192,118482,1,0,0:0:0:0:
109,192,118482,1,0,0:0:0:0:
256,192,118482,1,0,0:0:0:0:
475,192,118482,1,0,0:0:0:0:
402,192,118482,1,0,0:0:0:0:
182,192,118593,1,0,0:0:0:0:
109,192,118593,1,0,0:0:0:0:
329,192,118593,1,0,0:0:0:0:
256,192,118704,1,0,0:0:0:0:
475,192,118704,1,0,0:0:0:0:
182,192,118704,1,0,0:0:0:0:
402,192,118704,1,0,0:0:0:0:
36,192,118704,1,0,0:0:0:0:
329,192,118815,1,0,0:0:0:0:
36,192,118815,1,0,0:0:0:0:
475,192,118815,1,0,0:0:0:0:
402,192,118926,1,0,0:0:0:0:
182,192,118926,1,0,0:0:0:0:
475,192,118926,1,0,0:0:0:0:
109,192,118926,1,0,0:0:0:0:
329,192,118926,1,0,0:0:0:0:
402,192,119037,1,0,0:0:0:0:
109,192,119037,1,0,0:0:0:0:
256,192,119037,1,0,0:0:0:0:
329,192,119149,1,0,0:0:0:0:
256,192,119149,1,0,0:0:0:0:
182,192,119149,1,0,0:0:0:0:
475,192,119149,1,0,0:0:0:0:
36,192,119149,1,0,0:0:0:0:
475,192,119260,1,0,0:0:0:0:
329,192,119260,1,0,0:0:0:0:
109,192,119260,1,0,0:0:0:0:
182,192,119371,1,0,0:0:0:0:
475,192,119371,1,0,0:0:0:0:
109,192,119371,1,0,0:0:0:0:
329,192,119371,1,0,0:0:0:0:
402,192,119371,1,0,0:0:0:0:
402,192,119482,1,0,0:0:0:0:
36,192,119482,1,0,0:0:0:0:
256,192,119482,1,0,0:0:0:0:
256,192,119593,1,0,0:0:0:0:
36,192,119593,1,0,0:0:0:0:
402,192,119593,1,0,0:0:0:0:
329,192,119593,1,0,0:0:0:0:
182,192,119593,1,0,0:0:0:0:
36,192,119704,1,0,0:0:0:0:
182,192,119704,1,0,0:0:0:0:
329,192,119704,1,0,0:0:0:0:
256,192,119815,1,0,0:0:0:0:
109,192,119815,1,0,0:0:0:0:
402,192,119815,1,0,0:0:0:0:
475,192,119815,1,0,0:0:0:0:
329,192,119815,1,0,0:0:0:0:
182,192,119926,1,0,0:0:0:0:
36,192,119926,1,0,0:0:0:0:
402,192,119926,1,0,0:0:0:0:
329,192,120037,1,0,0:0:0:0:
36,192,120037,1,0,0:0:0:0:
256,192,120037,1,0,0:0:0:0:
475,192,120037,1,0,0:0:0:0:
182,192,120037,1,0,0:0:0:0:
109,192,120149,1,0,0:0:0:0:
402,192,120149,1,0,0:0:0:0:
256,192,120149,1,0,0:0:0:0:
475,192,120260,1,0,0:0:0:0:
36,192,120260,1,0,0:0:0:0:
402,192,120260,1,0,0:0:0:0:
109,192,120260,1,0,0:0:0:0:
182,192,120260,1,0,0:0:0:0:
329,192,120260,1,0,0:0:0:0:
36,192,120371,1,0,0:0:0:0:
109,192,120371,1,0,0:0:0:0:
475,192,120371,1,0,0:0:0:0:
402,192,120371,1,0,0:0:0:0:
182,192,120482,1,0,0:0:0:0:
402,192,120482,1,0,0:0:0:0:
109,192,120482,1,0,0:0:0:0:
329,192,120482,1,0,0:0:0:0:
256,192,120482,1,0,0:0:0:0:
182,192,120593,1,0,0:0:0:0:
329,192,120593,1,0,0:0:0:0:
402,192,120593,1,0,0:0:0:0:
109,192,120593,1,0,0:0:0:0:
182,192,120704,1,0,0:0:0:0:
329,192,120704,1,0,0:0:0:0:
256,192,120704,1,0,0:0:0:0:
475,192,120704,1,0,0:0:0:0:
36,192,120704,1,0,0:0:0:0:
109,192,120815,1,0,0:0:0:0:
402,192,120815,1,0,0:0:0:0:
329,192,120926,1,0,0:0:0:0:
402,192,120926,1,0,0:0:0:0:
475,192,120926,1,0,0:0:0:0:
256,192,120926,1,0,0:0:0:0:
182,192,120926,1,0,0:0:0:0:
36,192,120926,1,0,0:0:0:0:
109,192,120926,1,0,0:0:0:0:
475,192,121037,1,0,0:0:0:0:
329,192,121037,1,0,0:0:0:0:
329,192,121149,1,0,0:0:0:0:
256,192,121149,1,0,0:0:0:0:
182,192,121149,1,0,0:0:0:0:
109,192,121149,1,0,0:0:0:0:
36,192,121149,1,0,0:0:0:0:
402,192,121260,1,0,0:0:0:0:
109,192,121260,1,0,0:0:0:0:
36,192,121260,1,0,0:0:0:0:
329,192,121371,1,0,0:0:0:0:
256,192,121371,1,0,0:0:0:0:
182,192,121371,1,0,0:0:0:0:
402,192,121371,1,0,0:0:0:0:
475,192,121371,1,0,0:0:0:0:
475,192,121482,1,0,0:0:0:0:
36,192,121482,1,0,0:0:0:0:
256,192,121482,1,0,0:0:0:0:
36,192,121593,1,0,0:0:0:0:
402,192,121593,1,0,0:0:0:0:
109,192,121593,1,0,0:0:0:0:
182,192,121593,1,0,0:0:0:0:
329,192,121593,1,0,0:0:0:0:
256,192,121704,1,0,0:0:0:0:
475,192,121704,1,0,0:0:0:0:
109,192,121704,1,0,0:0:0:0:
402,192,121815,1,0,0:0:0:0:
329,192,121815,1,0,0:0:0:0:
36,192,121815,1,0,0:0:0:0:
256,192,121815,1,0,0:0:0:0:
182,192,121815,1,0,0:0:0:0:
475,192,121926,1,0,0:0:0:0:
329,192,121926,1,0,0:0:0:0:
182,192,121926,1,0,0:0:0:0:
475,192,122037,1,0,0:0:0:0:
402,192,122037,1,0,0:0:0:0:
256,192,122037,1,0,0:0:0:0:
109,192,122037,1,0,0:0:0:0:
36,192,122037,1,0,0:0:0:0:
402,192,122149,5,0,0:0:0:0:
182,192,122149,1,0,0:0:0:0:
329,192,122149,1,0,0:0:0:0:
475,192,122260,1,0,0:0:0:0:
329,192,122260,1,0,0:0:0:0:
256,192,122260,1,0,0:0:0:0:
109,192,122260,1,0,0:0:0:0:
36,192,122260,1,0,0:0:0:0:
182,192,122371,1,0,0:0:0:0:
36,192,122371,1,0,0:0:0:0:
475,192,122371,1,0,0:0:0:0:
329,192,122482,1,0,0:0:0:0:
109,192,122482,1,0,0:0:0:0:
36,192,122482,1,0,0:0:0:0:
402,192,122482,1,0,0:0:0:0:
182,192,122482,1,0,0:0:0:0:
329,192,122593,1,0,0:0:0:0:
402,192,122593,1,0,0:0:0:0:
475,192,122704,1,0,0:0:0:0:
256,192,122704,1,0,0:0:0:0:
36,192,122704,1,0,0:0:0:0:
182,192,122704,1,0,0:0:0:0:
329,192,122704,1,0,0:0:0:0:
402,192,122704,1,0,0:0:0:0:
109,192,122704,1,0,0:0:0:0:
36,192,122815,1,0,0:0:0:0:
182,192,122815,1,0,0:0:0:0:
329,192,122926,1,0,0:0:0:0:
402,192,122926,1,0,0:0:0:0:
182,192,122926,1,0,0:0:0:0:
109,192,122926,1,0,0:0:0:0:
36,192,122926,1,0,0:0:0:0:
475,192,123037,1,0,0:0:0:0:
402,192,123037,1,0,0:0:0:0:
256,192,123037,1,0,0:0:0:0:
109,192,123037,1,0,0:0:0:0:
182,192,123149,1,0,0:0:0:0:
329,192,123149,1,0,0:0:0:0:
256,192,123149,1,0,0:0:0:0:
475,192,123149,1,0,0:0:0:0:
109,192,123149,1,0,0:0:0:0:
36,192,123260,1,0,0:0:0:0:
329,192,123260,1,0,0:0:0:0:
182,192,123260,1,0,0:0:0:0:
475,192,123260,1,0,0:0:0:0:
36,192,123371,1,0,0:0:0:0:
256,192,123371,1,0,0:0:0:0:
182,192,123371,1,0,0:0:0:0:
109,192,123371,1,0,0:0:0:0:
402,192,123371,1,0,0:0:0:0:
329,192,123482,1,0,0:0:0:0:
475,192,123482,1,0,0:0:0:0:
402,192,123482,1,0,0:0:0:0:
109,192,123482,1,0,0:0:0:0:
329,192,123593,1,0,0:0:0:0:
256,192,123593,1,0,0:0:0:0:
182,192,123593,1,0,0:0:0:0:
36,192,123593,1,0,0:0:0:0:
475,192,123593,1,0,0:0:0:0:
182,192,123704,1,0,0:0:0:0:
256,192,123704,1,0,0:0:0:0:
402,192,123704,1,0,0:0:0:0:
109,192,123704,1,0,0:0:0:0:
475,192,123815,1,0,0:0:0:0:
36,192,123815,1,0,0:0:0:0:
109,192,123815,1,0,0:0:0:0:
402,192,123815,1,0,0:0:0:0:
182,192,123815,1,0,0:0:0:0:
329,192,123815,1,0,0:0:0:0:
475,192,123926,1,0,0:0:0:0:
36,192,123926,1,0,0:0:0:0:
109,192,123926,1,0,0:0:0:0:
402,192,123926,1,0,0:0:0:0:
402,192,124037,1,0,0:0:0:0:
329,192,124037,1,0,0:0:0:0:
182,192,124037,1,0,0:0:0:0:
109,192,124037,1,0,0:0:0:0:
256,192,124037,1,0,0:0:0:0:
329,192,124149,1,0,0:0:0:0:
182,192,124149,1,0,0:0:0:0:
402,192,124260,1,0,0:0:0:0:
256,192,124260,1,0,0:0:0:0:
109,192,124260,1,0,0:0:0:0:
475,192,124260,1,0,0:0:0:0:
36,192,124260,1,0,0:0:0:0:
329,192,124371,1,0,0:0:0:0:
182,192,124371,1,0,0:0:0:0:
475,192,124482,1,0,0:0:0:0:
182,192,124482,1,0,0:0:0:0:
256,192,124482,1,0,0:0:0:0:
329,192,124482,1,0,0:0:0:0:
402,192,124482,1,0,0:0:0:0:
109,192,124482,1,0,0:0:0:0:
36,192,124482,1,0,0:0:0:0:
402,192,124593,1,0,0:0:0:0:
475,192,124593,1,0,0:0:0:0:
256,192,124704,1,0,0:0:0:0:
109,192,124704,1,0,0:0:0:0:
36,192,124704,1,0,0:0:0:0:
329,192,124704,1,0,0:0:0:0:
182,192,124704,1,0,0:0:0:0:
109,192,124815,1,0,0:0:0:0:
36,192,124815,1,0,0:0:0:0:
402,192,124815,1,0,0:0:0:0:
402,192,124926,1,0,0:0:0:0:
329,192,124926,1,0,0:0:0:0:
256,192,124926,1,0,0:0:0:0:
182,192,124926,1,0,0:0:0:0:
475,192,124926,1,0,0:0:0:0:
36,192,125037,1,0,0:0:0:0:
256,192,125037,1,0,0:0:0:0:
475,192,125037,1,0,0:0:0:0:
36,192,125149,1,0,0:0:0:0:
182,192,125149,1,0,0:0:0:0:
329,192,125149,1,0,0:0:0:0:
402,192,125149,1,0,0:0:0:0:
109,192,125149,1,0,0:0:0:0:
109,192,125260,1,0,0:0:0:0:
256,192,125260,1,0,0:0:0:0:
329,192,125371,1,0,0:0:0:0:
36,192,125371,1,0,0:0:0:0:
182,192,125371,1,0,0:0:0:0:
402,192,125371,1,0,0:0:0:0:
256,192,125371,1,0,0:0:0:0:
475,192,125371,1,0,0:0:0:0:
109,192,125371,1,0,0:0:0:0:
329,192,125482,1,0,0:0:0:0:
182,192,125482,1,0,0:0:0:0:
36,192,125593,1,0,0:0:0:0:
109,192,125593,1,0,0:0:0:0:
256,192,125593,1,0,0:0:0:0:
475,192,125593,1,0,0:0:0:0:
402,192,125593,1,0,0:0:0:0:
182,192,125704,1,0,0:0:0:0:
402,192,125704,1,0,0:0:0:0:
329,192,125704,1,0,0:0:0:0:
109,192,125815,1,0,0:0:0:0:
475,192,125815,1,0,0:0:0:0:
329,192,125815,1,0,0:0:0:0:
256,192,125815,1,0,0:0:0:0:
36,192,125815,1,0,0:0:0:0:
36,192,125926,1,0,0:0:0:0:
475,192,125926,1,0,0:0:0:0:
182,192,125926,1,0,0:0:0:0:
402,192,126037,1,0,0:0:0:0:
182,192,126037,1,0,0:0:0:0:
36,192,126037,1,0,0:0:0:0:
109,192,126037,1,0,0:0:0:0:
329,192,126037,1,0,0:0:0:0:
402,192,126149,1,0,0:0:0:0:
256,192,126149,1,0,0:0:0:0:
475,192,126149,1,0,0:0:0:0:
36,192,126260,1,0,0:0:0:0:
475,192,126260,1,0,0:0:0:0:
329,192,126260,1,0,0:0:0:0:
182,192,126260,1,0,0:0:0:0:
256,192,126260,1,0,0:0:0:0:
402,192,126260,1,0,0:0:0:0:
109,192,126260,1,0,0:0:0:0:
182,192,126371,1,0,0:0:0:0:
329,192,126371,1,0,0:0:0:0:
109,192,126371,1,0,0:0:0:0:
402,192,126371,1,0,0:0:0:0:
182,192,126482,1,0,0:0:0:0:
109,192,126482,1,0,0:0:0:0:
402,192,126482,1,0,0:0:0:0:
329,192,126482,1,0,0:0:0:0:
36,192,126482,1,0,0:0:0:0:
475,192,126482,1,0,0:0:0:0:
256,192,126482,1,0,0:0:0:0:
256,192,126593,1,0,0:0:0:0:
36,192,126593,1,0,0:0:0:0:
109,192,126593,1,0,0:0:0:0:
36,192,126704,1,0,0:0:0:0:
109,192,126704,1,0,0:0:0:0:
182,192,126704,1,0,0:0:0:0:
256,192,126760,1,0,0:0:0:0:
329,192,126760,1,0,0:0:0:0:
475,192,126815,1,0,0:0:0:0:
402,192,126815,1,0,0:0:0:0:
109,192,126871,1,0,0:0:0:0:
36,192,126871,1,0,0:0:0:0:
256,192,126926,1,0,0:0:0:0:
182,192,126926,1,0,0:0:0:0:
329,192,126926,1,0,0:0:0:0:
402,192,126926,1,0,0:0:0:0:
475,192,126926,1,0,0:0:0:0:
256,192,127037,1,0,0:0:0:0:
182,192,127037,1,0,0:0:0:0:
329,192,127037,1,0,0:0:0:0:
109,192,127149,1,0,0:0:0:0:
36,192,127149,1,0,0:0:0:0:
182,192,127149,1,0,0:0:0:0:
475,192,127149,1,0,0:0:0:0:
329,192,127149,1,0,0:0:0:0:
402,192,127149,1,0,0:0:0:0:
256,192,127149,1,0,0:0:0:0:
109,192,127260,1,0,0:0:0:0:
36,192,127260,1,0,0:0:0:0:
402,192,127260,1,0,0:0:0:0:
329,192,127260,1,0,0:0:0:0:
256,192,127260,1,0,0:0:0:0:
182,192,127260,1,0,0:0:0:0:
109,192,127371,1,0,0:0:0:0:
36,192,127371,1,0,0:0:0:0:
329,192,127371,1,0,0:0:0:0:
256,192,127371,1,0,0:0:0:0:
182,192,127371,1,0,0:0:0:0:
36,192,127482,1,0,0:0:0:0:
256,192,127482,1,0,0:0:0:0:
182,192,127482,1,0,0:0:0:0:
109,192,127482,1,0,0:0:0:0:
36,192,127593,1,0,0:0:0:0:
182,192,127593,1,0,0:0:0:0:
109,192,127593,1,0,0:0:0:0:
36,192,127704,1,0,0:0:0:0:
109,192,127704,1,0,0:0:0:0:
36,192,127815,128,0,127982:0:0:0:0:
36,192,139091,5,0,0:0:0:0:
475,192,139091,1,0,0:0:0:0:
182,192,139091,1,0,0:0:0:0:
329,192,139091,1,0,0:0:0:0:
475,192,139361,1,0,0:0:0:0:
402,192,139361,1,0,0:0:0:0:
182,192,139361,1,0,0:0:0:0:
256,192,139428,1,0,0:0:0:0:
402,192,139428,1,0,0:0:0:0:
36,192,139496,1,0,0:0:0:0:
109,192,139496,1,0,0:0:0:0:
329,192,139563,1,0,0:0:0:0:
109,192,139563,1,0,0:0:0:0:
256,192,139631,1,0,0:0:0:0:
36,192,139631,1,0,0:0:0:0:
475,192,139631,1,0,0:0:0:0:
182,192,139699,1,0,0:0:0:0:
402,192,139766,1,0,0:0:0:0:
256,192,139766,1,0,0:0:0:0:
109,192,139766,1,0,0:0:0:0:
329,192,139834,1,0,0:0:0:0:
36,192,139901,1,0,0:0:0:0:
182,192,139901,1,0,0:0:0:0:
402,192,139901,1,0,0:0:0:0:
256,192,139935,1,0,0:0:0:0:
109,192,139969,1,0,0:0:0:0:
182,192,140003,1,0,0:0:0:0:
402,192,140036,1,0,0:0:0:0:
475,192,140036,1,0,0:0:0:0:
36,192,140036,1,0,0:0:0:0:
329,192,140036,1,0,0:0:0:0:
256,192,140104,1,0,0:0:0:0:
402,192,140172,1,0,0:0:0:0:
475,192,140172,1,0,0:0:0:0:
182,192,140172,1,0,0:0:0:0:
36,192,140172,1,0,0:0:0:0:
475,192,140307,1,0,0:0:0:0:
36,192,140307,1,0,0:0:0:0:
182,192,140307,1,0,0:0:0:0:
402,192,140307,1,0,0:0:0:0:
475,192,140442,1,0,0:0:0:0:
109,192,140442,1,0,0:0:0:0:
36,192,140442,1,0,0:0:0:0:
329,192,140442,1,0,0:0:0:0:
256,192,140442,1,0,0:0:0:0:
475,192,140577,1,0,0:0:0:0:
109,192,140577,1,0,0:0:0:0:
36,192,140577,1,0,0:0:0:0:
329,192,140577,1,0,0:0:0:0:
256,192,140577,1,0,0:0:0:0:
36,192,140712,1,0,0:0:0:0:
182,192,140712,1,0,0:0:0:0:
256,192,140712,1,0,0:0:0:0:
402,192,140712,1,0,0:0:0:0:
329,192,140712,1,0,0:0:0:0:
402,192,140847,1,0,0:0:0:0:
36,192,140847,1,0,0:0:0:0:
329,192,140847,1,0,0:0:0:0:
182,192,140847,1,0,0:0:0:0:
256,192,140847,1,0,0:0:0:0:
475,192,140982,1,0,0:0:0:0:
402,192,140982,1,0,0:0:0:0:
256,192,140982,1,0,0:0:0:0:
182,192,141027,1,0,0:0:0:0:
109,192,141072,1,0,0:0:0:0:
475,192,141118,1,0,0:0:0:0:
36,192,141118,1,0,0:0:0:0:
329,192,141118,1,0,0:0:0:0:
36,192,141253,1,0,0:0:0:0:
475,192,141253,1,0,0:0:0:0:
402,192,141253,1,0,0:0:0:0:
256,192,141253,1,0,0:0:0:0:
109,192,141253,1,0,0:0:0:0:
36,192,141388,1,0,0:0:0:0:
329,192,141388,1,0,0:0:0:0:
182,192,141388,1,0,0:0:0:0:
475,192,141455,1,0,0:0:0:0:
402,192,141455,1,0,0:0:0:0:
36,192,141523,1,0,0:0:0:0:
182,192,141523,1,0,0:0:0:0:
329,192,141523,1,0,0:0:0:0:
256,192,141591,1,0,0:0:0:0:
475,192,141658,1,0,0:0:0:0:
36,192,141658,1,0,0:0:0:0:
182,192,141658,1,0,0:0:0:0:
402,192,141658,1,0,0:0:0:0:
475,192,141726,1,0,0:0:0:0:
402,192,141726,1,0,0:0:0:0:
256,192,141793,1,0,0:0:0:0:
109,192,141793,1,0,0:0:0:0:
109,192,141861,1,0,0:0:0:0:
182,192,141928,1,0,0:0:0:0:
329,192,141928,1,0,0:0:0:0:
475,192,141928,1,0,0:0:0:0:
475,192,141996,1,0,0:0:0:0:
36,192,142063,1,0,0:0:0:0:
256,192,142063,1,0,0:0:0:0:
182,192,142063,1,0,0:0:0:0:
402,192,142063,1,0,0:0:0:0:
475,192,142199,1,0,0:0:0:0:
109,192,142199,1,0,0:0:0:0:
402,192,142199,1,0,0:0:0:0:
256,192,142199,1,0,0:0:0:0:
329,192,142334,1,0,0:0:0:0:
182,192,142334,1,0,0:0:0:0:
36,192,142334,1,0,0:0:0:0:
402,192,142334,1,0,0:0:0:0:
109,192,142401,1,0,0:0:0:0:
256,192,142401,1,0,0:0:0:0:
36,192,142469,1,0,0:0:0:0:
475,192,142469,1,0,0:0:0:0:
329,192,142469,1,0,0:0:0:0:
256,192,142536,1,0,0:0:0:0:
109,192,142536,1,0,0:0:0:0:
402,192,142604,1,0,0:0:0:0:
182,192,142604,1,0,0:0:0:0:
475,192,142604,1,0,0:0:0:0:
475,192,142672,1,0,0:0:0:0:
402,192,142672,1,0,0:0:0:0:
109,192,142739,1,0,0:0:0:0:
36,192,142739,1,0,0:0:0:0:
182,192,142739,1,0,0:0:0:0:
329,192,142784,1,0,0:0:0:0:
182,192,142829,1,0,0:0:0:0:
256,192,142874,1,0,0:0:0:0:
475,192,142874,1,0,0:0:0:0:
402,192,142874,1,0,0:0:0:0:
36,192,142942,1,0,0:0:0:0:
109,192,142942,1,0,0:0:0:0:
329,192,143009,1,0,0:0:0:0:
182,192,143009,1,0,0:0:0:0:
402,192,143009,1,0,0:0:0:0:
36,192,143077,1,0,0:0:0:0:
109,192,143077,1,0,0:0:0:0:
475,192,143145,1,0,0:0:0:0:
256,192,143145,1,0,0:0:0:0:
36,192,143145,1,0,0:0:0:0:
109,192,143145,1,0,0:0:0:0:
329,192,143212,1,0,0:0:0:0:
182,192,143212,1,0,0:0:0:0:
36,192,143280,1,0,0:0:0:0:
475,192,143280,1,0,0:0:0:0:
256,192,143280,1,0,0:0:0:0:
109,192,143280,1,0,0:0:0:0:
329,192,143347,1,0,0:0:0:0:
182,192,143347,1,0,0:0:0:0:
475,192,143415,1,0,0:0:0:0:
109,192,143415,1,0,0:0:0:0:
402,192,143415,1,0,0:0:0:0:
256,192,143415,1,0,0:0:0:0:
36,192,143415,1,0,0:0:0:0:
182,192,143550,1,0,0:0:0:0:
402,192,143550,1,0,0:0:0:0:
329,192,143550,1,0,0:0:0:0:
256,192,143685,1,0,0:0:0:0:
109,192,143685,1,0,0:0:0:0:
36,192,143685,1,0,0:0:0:0:
182,192,143719,1,0,0:0:0:0:
329,192,143753,1,0,0:0:0:0:
475,192,143786,1,0,0:0:0:0:
36,192,143820,1,0,0:0:0:0:
182,192,143820,1,0,0:0:0:0:
109,192,143820,1,0,0:0:0:0:
402,192,143820,1,0,0:0:0:0:
256,192,143820,1,0,0:0:0:0:
475,192,143955,1,0,0:0:0:0:
329,192,143955,1,0,0:0:0:0:
182,192,143955,1,0,0:0:0:0:
109,192,143989,1,0,0:0:0:0:
256,192,144023,1,0,0:0:0:0:
36,192,144023,1,0,0:0:0:0:
402,192,144057,1,0,0:0:0:0:
182,192,144091,1,0,0:0:0:0:
329,192,144091,1,0,0:0:0:0:
109,192,144124,1,0,0:0:0:0:
475,192,144158,1,0,0:0:0:0:
256,192,144158,1,0,0:0:0:0:
402,192,144192,1,0,0:0:0:0:
36,192,144226,1,0,0:0:0:0:
109,192,144226,1,0,0:0:0:0:
329,192,144226,1,0,0:0:0:0:
182,192,144226,1,0,0:0:0:0:
329,192,144361,1,0,0:0:0:0:
182,192,144361,1,0,0:0:0:0:
475,192,144361,1,0,0:0:0:0:
256,192,144361,1,0,0:0:0:0:
402,192,144361,1,0,0:0:0:0:
256,192,144496,1,0,0:0:0:0:
329,192,144496,1,0,0:0:0:0:
36,192,144496,1,0,0:0:0:0:
182,192,144496,1,0,0:0:0:0:
109,192,144496,1,0,0:0:0:0:
109,192,144631,1,0,0:0:0:0:
36,192,144631,1,0,0:0:0:0:
329,192,144631,1,0,0:0:0:0:
256,192,144766,1,0,0:0:0:0:
402,192,144766,1,0,0:0:0:0:
182,192,144766,1,0,0:0:0:0:
475,192,144766,1,0,0:0:0:0:
182,192,144901,1,0,0:0:0:0:
402,192,144901,1,0,0:0:0:0:
475,192,144901,1,0,0:0:0:0:
256,192,144901,1,0,0:0:0:0:
36,192,144969,1,0,0:0:0:0:
109,192,144969,1,0,0:0:0:0:
475,192,145036,1,0,0:0:0:0:
329,192,145036,1,0,0:0:0:0:
182,192,145036,1,0,0:0:0:0:
256,192,145036,1,0,0:0:0:0:
329,192,145104,1,0,0:0:0:0:
109,192,145104,1,0,0:0:0:0:
402,192,145172,1,0,0:0:0:0:
475,192,145172,1,0,0:0:0:0:
36,192,145172,1,0,0:0:0:0:
182,192,145172,1,0,0:0:0:0:
329,192,145307,1,0,0:0:0:0:
256,192,145307,1,0,0:0:0:0:
109,192,145307,1,0,0:0:0:0:
36,192,145307,1,0,0:0:0:0:
402,192,145442,1,0,0:0:0:0:
182,192,145442,1,0,0:0:0:0:
475,192,145442,1,0,0:0:0:0:
329,192,145476,1,0,0:0:0:0:
256,192,145509,1,0,0:0:0:0:
109,192,145509,1,0,0:0:0:0:
36,192,145543,1,0,0:0:0:0:
475,192,145577,1,0,0:0:0:0:
182,192,145577,1,0,0:0:0:0:
402,192,145577,1,0,0:0:0:0:
402,192,145645,1,0,0:0:0:0:
182,192,145712,1,0,0:0:0:0:
36,192,145712,1,0,0:0:0:0:
182,192,145780,1,0,0:0:0:0:
36,192,145847,1,0,0:0:0:0:
109,192,145847,1,0,0:0:0:0:
402,192,145847,1,0,0:0:0:0:
475,192,145847,1,0,0:0:0:0:
329,192,145915,1,0,0:0:0:0:
256,192,145915,1,0,0:0:0:0:
475,192,145982,1,0,0:0:0:0:
109,192,145982,1,0,0:0:0:0:
36,192,145982,1,0,0:0:0:0:
402,192,145982,1,0,0:0:0:0:
182,192,146050,1,0,0:0:0:0:
256,192,146050,1,0,0:0:0:0:
109,192,146118,1,0,0:0:0:0:
402,192,146118,1,0,0:0:0:0:
475,192,146118,1,0,0:0:0:0:
36,192,146118,1,0,0:0:0:0:
329,192,146185,1,0,0:0:0:0:
182,192,146185,1,0,0:0:0:0:
36,192,146253,1,0,0:0:0:0:
256,192,146253,1,0,0:0:0:0:
475,192,146253,1,0,0:0:0:0:
109,192,146320,1,0,0:0:0:0:
402,192,146320,1,0,0:0:0:0:
329,192,146388,1,0,0:0:0:0:
182,192,146388,1,0,0:0:0:0:
475,192,146388,1,0,0:0:0:0:
36,192,146388,1,0,0:0:0:0:
256,192,146433,1,0,0:0:0:0:
402,192,146478,1,0,0:0:0:0:
109,192,146478,1,0,0:0:0:0:
182,192,146523,1,0,0:0:0:0:
329,192,146568,1,0,0:0:0:0:
109,192,146591,1,0,0:0:0:0:
402,192,146613,1,0,0:0:0:0:
182,192,146658,1,0,0:0:0:0:
36,192,146658,1,0,0:0:0:0:
402,192,146726,1,0,0:0:0:0:
329,192,146726,1,0,0:0:0:0:
182,192,146793,1,0,0:0:0:0:
109,192,146793,1,0,0:0:0:0:
475,192,146861,1,0,0:0:0:0:
329,192,146861,1,0,0:0:0:0:
182,192,146928,1,0,0:0:0:0:
36,192,146928,1,0,0:0:0:0:
329,192,146996,1,0,0:0:0:0:
402,192,146996,1,0,0:0:0:0:
182,192,147063,1,0,0:0:0:0:
109,192,147063,1,0,0:0:0:0:
475,192,147131,1,0,0:0:0:0:
329,192,147131,1,0,0:0:0:0:
475,192,147199,1,0,0:0:0:0:
36,192,147199,1,0,0:0:0:0:
182,192,147199,1,0,0:0:0:0:
329,192,147199,1,0,0:0:0:0:
256,192,147266,1,0,0:0:0:0:
475,192,147334,1,0,0:0:0:0:
36,192,147334,1,0,0:0:0:0:
329,192,147334,1,0,0:0:0:0:
109,192,147334,1,0,0:0:0:0:
329,192,147469,1,0,0:0:0:0:
402,192,147469,1,0,0:0:0:0:
256,192,147469,1,0,0:0:0:0:
36,192,147536,1,0,0:0:0:0:
109,192,147536,1,0,0:0:0:0:
182,192,147536,1,0,0:0:0:0:
329,192,147604,1,0,0:0:0:0:
402,192,147604,1,0,0:0:0:0:
475,192,147604,1,0,0:0:0:0:
109,192,147672,1,0,0:0:0:0:
182,192,147672,1,0,0:0:0:0:
256,192,147672,1,0,0:0:0:0:
402,192,147739,1,0,0:0:0:0:
475,192,147739,1,0,0:0:0:0:
36,192,147739,1,0,0:0:0:0:
329,192,147739,1,0,0:0:0:0:
402,192,147874,1,0,0:0:0:0:
256,192,147874,1,0,0:0:0:0:
36,192,147874,1,0,0:0:0:0:
329,192,147874,1,0,0:0:0:0:
36,192,148009,1,0,0:0:0:0:
256,192,148009,1,0,0:0:0:0:
475,192,148009,1,0,0:0:0:0:
182,192,148009,1,0,0:0:0:0:
109,192,148145,1,0,0:0:0:0:
36,192,148145,1,0,0:0:0:0:
329,192,148145,1,0,0:0:0:0:
182,192,148145,1,0,0:0:0:0:
329,192,148280,1,0,0:0:0:0:
475,192,148280,1,0,0:0:0:0:
36,192,148280,1,0,0:0:0:0:
182,192,148280,1,0,0:0:0:0:
109,192,148347,1,0,0:0:0:0:
256,192,148347,1,0,0:0:0:0:
402,192,148347,1,0,0:0:0:0:
475,192,148415,1,0,0:0:0:0:
329,192,148415,1,0,0:0:0:0:
36,192,148415,1,0,0:0:0:0:
109,192,148482,1,0,0:0:0:0:
256,192,148482,1,0,0:0:0:0:
402,192,148482,1,0,0:0:0:0:
475,192,148550,1,0,0:0:0:0:
329,192,148550,1,0,0:0:0:0:
182,192,148550,1,0,0:0:0:0:
36,192,148618,1,0,0:0:0:0:
109,192,148618,1,0,0:0:0:0:
475,192,148685,1,0,0:0:0:0:
329,192,148685,1,0,0:0:0:0:
36,192,148753,1,0,0:0:0:0:
109,192,148753,1,0,0:0:0:0:
475,192,148820,1,0,0:0:0:0:
402,192,148820,1,0,0:0:0:0:
36,192,148820,1,0,0:0:0:0:
256,192,148820,1,0,0:0:0:0:
109,192,148820,1,0,0:0:0:0:
475,192,148955,1,0,0:0:0:0:
329,192,148955,1,0,0:0:0:0:
402,192,149023,1,0,0:0:0:0:
182,192,149023,1,0,0:0:0:0:
256,192,149023,1,0,0:0:0:0:
36,192,149023,1,0,0:0:0:0:
109,192,149023,1,0,0:0:0:0:
475,192,149158,1,0,0:0:0:0:
329,192,149158,1,0,0:0:0:0:
109,192,149226,1,0,0:0:0:0:
36,192,149226,1,0,0:0:0:0:
182,192,149226,1,0,0:0:0:0:
402,192,149226,1,0,0:0:0:0:
256,192,149226,1,0,0:0:0:0:
182,192,149361,1,0,0:0:0:0:
402,192,149361,1,0,0:0:0:0:
256,192,149361,1,0,0:0:0:0:
182,192,149428,1,0,0:0:0:0:
402,192,149496,1,0,0:0:0:0:
256,192,149496,1,0,0:0:0:0:
36,192,149496,1,0,0:0:0:0:
109,192,149563,1,0,0:0:0:0:
402,192,149563,1,0,0:0:0:0:
182,192,149631,1,0,0:0:0:0:
475,192,149631,1,0,0:0:0:0:
329,192,149631,1,0,0:0:0:0:
36,192,149676,1,0,0:0:0:0:
109,192,149721,1,0,0:0:0:0:
475,192,149766,1,0,0:0:0:0:
402,192,149766,1,0,0:0:0:0:
256,192,149766,1,0,0:0:0:0:
329,192,149811,1,0,0:0:0:0:
36,192,149834,1,0,0:0:0:0:
182,192,149834,1,0,0:0:0:0:
402,192,149901,1,0,0:0:0:0:
475,192,149901,1,0,0:0:0:0:
109,192,149901,1,0,0:0:0:0:
256,192,149901,1,0,0:0:0:0:
329,192,150036,1,0,0:0:0:0:
182,192,150036,1,0,0:0:0:0:
402,192,150172,1,0,0:0:0:0:
256,192,150172,1,0,0:0:0:0:
36,192,150172,1,0,0:0:0:0:
182,192,150172,1,0,0:0:0:0:
109,192,150172,1,0,0:0:0:0:
256,192,150307,1,0,0:0:0:0:
475,192,150307,1,0,0:0:0:0:
329,192,150307,1,0,0:0:0:0:
329,192,150442,1,0,0:0:0:0:
475,192,150442,1,0,0:0:0:0:
36,192,150442,1,0,0:0:0:0:
182,192,150442,1,0,0:0:0:0:
109,192,150509,1,0,0:0:0:0:
256,192,150509,1,0,0:0:0:0:
402,192,150509,1,0,0:0:0:0:
475,192,150577,1,0,0:0:0:0:
36,192,150577,1,0,0:0:0:0:
182,192,150577,1,0,0:0:0:0:
402,192,150645,1,0,0:0:0:0:
256,192,150645,1,0,0:0:0:0:
36,192,150712,1,0,0:0:0:0:
109,192,150712,1,0,0:0:0:0:
329,192,150712,1,0,0:0:0:0:
475,192,150712,1,0,0:0:0:0:
256,192,150780,1,0,0:0:0:0:
182,192,150780,1,0,0:0:0:0:
402,192,150847,1,0,0:0:0:0:
475,192,150847,1,0,0:0:0:0:
109,192,150847,1,0,0:0:0:0:
36,192,150847,1,0,0:0:0:0:
256,192,150915,1,0,0:0:0:0:
329,192,150915,1,0,0:0:0:0:
36,192,150982,1,0,0:0:0:0:
182,192,150982,1,0,0:0:0:0:
402,192,150982,1,0,0:0:0:0:
475,192,150982,1,0,0:0:0:0:
109,192,151050,1,0,0:0:0:0:
256,192,151050,1,0,0:0:0:0:
402,192,151118,1,0,0:0:0:0:
182,192,151118,1,0,0:0:0:0:
329,192,151118,1,0,0:0:0:0:
109,192,151185,1,0,0:0:0:0:
256,192,151185,1,0,0:0:0:0:
475,192,151253,1,0,0:0:0:0:
329,192,151253,1,0,0:0:0:0:
182,192,151253,1,0,0:0:0:0:
36,192,151253,1,0,0:0:0:0:
475,192,151388,1,0,0:0:0:0:
256,192,151388,1,0,0:0:0:0:
329,192,151388,1,0,0:0:0:0:
109,192,151388,1,0,0:0:0:0:
329,192,151455,1,0,0:0:0:0:
182,192,151455,1,0,0:0:0:0:
109,192,151523,1,0,0:0:0:0:
36,192,151523,1,0,0:0:0:0:
256,192,151523,1,0,0:0:0:0:
402,192,151523,1,0,0:0:0:0:
475,192,151523,1,0,0:0:0:0:
36,192,151658,1,0,0:0:0:0:
402,192,151658,1,0,0:0:0:0:
182,192,151658,1,0,0:0:0:0:
329,192,151658,1,0,0:0:0:0:
475,192,151793,1,0,0:0:0:0:
36,192,151793,1,0,0:0:0:0:
329,192,151793,1,0,0:0:0:0:
109,192,151793,1,0,0:0:0:0:
182,192,151793,1,0,0:0:0:0:
256,192,151861,1,0,0:0:0:0:
475,192,151928,1,0,0:0:0:0:
329,192,151928,1,0,0:0:0:0:
182,192,151962,1,0,0:0:0:0:
402,192,151996,1,0,0:0:0:0:
109,192,151996,1,0,0:0:0:0:
36,192,152030,1,0,0:0:0:0:
329,192,152063,1,0,0:0:0:0:
182,192,152063,1,0,0:0:0:0:
256,192,152063,1,0,0:0:0:0:
475,192,152063,1,0,0:0:0:0:
329,192,152199,1,0,0:0:0:0:
256,192,152199,1,0,0:0:0:0:
109,192,152199,1,0,0:0:0:0:
36,192,152199,1,0,0:0:0:0:
402,192,152334,1,0,0:0:0:0:
475,192,152334,1,0,0:0:0:0:
329,192,152334,1,0,0:0:0:0:
182,192,152401,1,0,0:0:0:0:
402,192,152469,1,0,0:0:0:0:
109,192,152469,1,0,0:0:0:0:
256,192,152469,1,0,0:0:0:0:
329,192,152536,1,0,0:0:0:0:
36,192,152604,1,0,0:0:0:0:
182,192,152604,1,0,0:0:0:0:
109,192,152604,1,0,0:0:0:0:
475,192,152604,1,0,0:0:0:0:
402,192,152672,1,0,0:0:0:0:
182,192,152739,1,0,0:0:0:0:
475,192,152739,1,0,0:0:0:0:
36,192,152739,1,0,0:0:0:0:
402,192,152807,1,0,0:0:0:0:
109,192,152874,1,0,0:0:0:0:
256,192,152874,1,0,0:0:0:0:
329,192,152874,1,0,0:0:0:0:
475,192,152874,1,0,0:0:0:0:
402,192,152942,1,0,0:0:0:0:
36,192,153009,1,0,0:0:0:0:
329,192,153009,1,0,0:0:0:0:
182,192,153009,1,0,0:0:0:0:
475,192,153009,1,0,0:0:0:0:
329,192,153145,1,0,0:0:0:0:
475,192,153145,1,0,0:0:0:0:
36,192,153145,1,0,0:0:0:0:
182,192,153145,1,0,0:0:0:0:
475,192,153280,1,0,0:0:0:0:
329,192,153280,1,0,0:0:0:0:
182,192,153313,1,0,0:0:0:0:
36,192,153313,1,0,0:0:0:0:
402,192,153347,1,0,0:0:0:0:
256,192,153347,1,0,0:0:0:0:
109,192,153381,1,0,0:0:0:0:
329,192,153415,1,0,0:0:0:0:
475,192,153415,1,0,0:0:0:0:
182,192,153415,1,0,0:0:0:0:
36,192,153415,1,0,0:0:0:0:
475,192,153550,1,0,0:0:0:0:
36,192,153550,1,0,0:0:0:0:
402,192,153550,1,0,0:0:0:0:
256,192,153550,1,0,0:0:0:0:
109,192,153550,1,0,0:0:0:0:
182,192,153584,1,0,0:0:0:0:
329,192,153618,1,0,0:0:0:0:
256,192,153651,1,0,0:0:0:0:
109,192,153685,1,0,0:0:0:0:
402,192,153685,1,0,0:0:0:0:
36,192,153685,1,0,0:0:0:0:
475,192,153685,1,0,0:0:0:0:
182,192,153753,1,0,0:0:0:0:
329,192,153753,1,0,0:0:0:0:
402,192,153820,1,0,0:0:0:0:
109,192,153820,1,0,0:0:0:0:
402,192,153888,1,0,0:0:0:0:
36,192,153888,1,0,0:0:0:0:
475,192,153955,1,0,0:0:0:0:
182,192,153955,1,0,0:0:0:0:
329,192,153955,1,0,0:0:0:0:
36,192,154023,1,0,0:0:0:0:
109,192,154023,1,0,0:0:0:0:
475,192,154090,1,0,0:0:0:0:
402,192,154090,1,0,0:0:0:0:
182,192,154090,1,0,0:0:0:0:
256,192,154090,1,0,0:0:0:0:
36,192,154158,1,0,0:0:0:0:
109,192,154158,1,0,0:0:0:0:
475,192,154226,1,0,0:0:0:0:
182,192,154226,1,0,0:0:0:0:
329,192,154226,1,0,0:0:0:0:
182,192,154361,1,0,0:0:0:0:
329,192,154361,1,0,0:0:0:0:
109,192,154361,1,0,0:0:0:0:
36,192,154361,1,0,0:0:0:0:
256,192,154496,1,0,0:0:0:0:
402,192,154496,1,0,0:0:0:0:
475,192,154496,1,0,0:0:0:0:
329,192,154631,1,0,0:0:0:0:
402,192,154631,1,0,0:0:0:0:
475,192,154631,1,0,0:0:0:0:
36,192,154631,1,0,0:0:0:0:
256,192,154631,1,0,0:0:0:0:
182,192,154631,1,0,0:0:0:0:
109,192,154631,1,0,0:0:0:0:
182,192,154766,1,0,0:0:0:0:
329,192,154766,1,0,0:0:0:0:
109,192,154766,1,0,0:0:0:0:
36,192,154766,1,0,0:0:0:0:
402,192,154901,1,0,0:0:0:0:
256,192,154901,1,0,0:0:0:0:
475,192,154901,1,0,0:0:0:0:
182,192,155036,1,0,0:0:0:0:
36,192,155036,1,0,0:0:0:0:
109,192,155036,1,0,0:0:0:0:
256,192,155036,1,0,0:0:0:0:
475,192,155036,1,0,0:0:0:0:
402,192,155036,1,0,0:0:0:0:
329,192,155036,1,0,0:0:0:0:
36,192,155172,1,0,0:0:0:0:
109,192,155172,1,0,0:0:0:0:
256,192,155172,1,0,0:0:0:0:
402,192,155307,1,0,0:0:0:0:
256,192,155307,1,0,0:0:0:0:
475,192,155307,1,0,0:0:0:0:
182,192,155442,1,0,0:0:0:0:
109,192,155442,1,0,0:0:0:0:
36,192,155442,1,0,0:0:0:0:
256,192,155442,1,0,0:0:0:0:
475,192,155442,1,0,0:0:0:0:
402,192,155442,1,0,0:0:0:0:
329,192,155442,1,0,0:0:0:0:
402,192,155577,1,0,0:0:0:0:
475,192,155577,1,0,0:0:0:0:
329,192,155577,1,0,0:0:0:0:
256,192,155577,1,0,0:0:0:0:
36,192,155577,1,0,0:0:0:0:
109,192,155577,1,0,0:0:0:0:
182,192,155577,1,0,0:0:0:0:
329,192,155712,1,0,0:0:0:0:
475,192,155712,1,0,0:0:0:0:
256,192,155780,1,0,0:0:0:0:
36,192,155847,1,0,0:0:0:0:
182,192,155847,1,0,0:0:0:0:
329,192,155915,1,0,0:0:0:0:
109,192,155982,1,0,0:0:0:0:
402,192,155982,1,0,0:0:0:0:
256,192,155982,1,0,0:0:0:0:
329,192,156050,1,0,0:0:0:0:
256,192,156118,1,0,0:0:0:0:
402,192,156118,1,0,0:0:0:0:
475,192,156118,1,0,0:0:0:0:
182,192,156118,1,0,0:0:0:0:
36,192,156118,1,0,0:0:0:0:
109,192,156118,1,0,0:0:0:0:
109,192,156388,1,0,0:0:0:0:
402,192,156388,1,0,0:0:0:0:
475,192,156388,1,0,0:0:0:0:
36,192,156388,1,0,0:0:0:0:
256,192,156388,1,0,0:0:0:0:
329,192,156455,1,0,0:0:0:0:
36,192,156523,1,0,0:0:0:0:
182,192,156523,1,0,0:0:0:0:
402,192,156523,1,0,0:0:0:0:
475,192,156523,1,0,0:0:0:0:
256,192,156590,1,0,0:0:0:0:
475,192,156658,1,0,0:0:0:0:
329,192,156658,1,0,0:0:0:0:
109,192,156658,1,0,0:0:0:0:
36,192,156658,1,0,0:0:0:0:
256,192,156726,1,0,0:0:0:0:
402,192,156793,1,0,0:0:0:0:
109,192,156793,1,0,0:0:0:0:
182,192,156793,1,0,0:0:0:0:
329,192,156861,1,0,0:0:0:0:
256,192,156861,1,0,0:0:0:0:
36,192,156928,1,0,0:0:0:0:
475,192,156928,1,0,0:0:0:0:
182,192,156928,1,0,0:0:0:0:
329,192,156996,1,0,0:0:0:0:
109,192,157063,1,0,0:0:0:0:
256,192,157063,1,0,0:0:0:0:
402,192,157063,1,0,0:0:0:0:
36,192,157063,1,0,0:0:0:0:
329,192,157131,1,0,0:0:0:0:
475,192,157199,1,0,0:0:0:0:
256,192,157199,1,0,0:0:0:0:
182,192,157199,1,0,0:0:0:0:
109,192,157199,1,0,0:0:0:0:
329,192,157266,1,0,0:0:0:0:
402,192,157266,1,0,0:0:0:0:
256,192,157334,1,0,0:0:0:0:
36,192,157334,1,0,0:0:0:0:
475,192,157334,1,0,0:0:0:0:
109,192,157401,1,0,0:0:0:0:
329,192,157401,1,0,0:0:0:0:
475,192,157469,1,0,0:0:0:0:
36,192,157469,1,0,0:0:0:0:
402,192,157469,1,0,0:0:0:0:
182,192,157536,1,0,0:0:0:0:
329,192,157536,1,0,0:0:0:0:
256,192,157604,1,0,0:0:0:0:
109,192,157604,1,0,0:0:0:0:
402,192,157672,1,0,0:0:0:0:
182,192,157672,1,0,0:0:0:0:
256,192,157739,1,0,0:0:0:0:
475,192,157739,1,0,0:0:0:0:
329,192,157739,1,0,0:0:0:0:
109,192,157739,1,0,0:0:0:0:
36,192,157807,1,0,0:0:0:0:
402,192,157874,1,0,0:0:0:0:
329,192,157874,1,0,0:0:0:0:
182,192,157874,1,0,0:0:0:0:
109,192,157942,1,0,0:0:0:0:
475,192,158009,1,0,0:0:0:0:
329,192,158009,1,0,0:0:0:0:
182,192,158009,1,0,0:0:0:0:
402,192,158077,1,0,0:0:0:0:
36,192,158145,1,0,0:0:0:0:
109,192,158145,1,0,0:0:0:0:
256,192,158145,1,0,0:0:0:0:
475,192,158212,1,0,0:0:0:0:
329,192,158212,1,0,0:0:0:0:
36,192,158280,1,0,0:0:0:0:
402,192,158280,1,0,0:0:0:0:
256,192,158280,1,0,0:0:0:0:
109,192,158280,1,0,0:0:0:0:
182,192,158347,1,0,0:0:0:0:
109,192,158415,1,0,0:0:0:0:
402,192,158415,1,0,0:0:0:0:
256,192,158415,1,0,0:0:0:0:
36,192,158415,1,0,0:0:0:0:
475,192,158482,1,0,0:0:0:0:
182,192,158482,1,0,0:0:0:0:
329,192,158482,1,0,0:0:0:0:
402,192,158550,1,0,0:0:0:0:
256,192,158550,1,0,0:0:0:0:
109,192,158550,1,0,0:0:0:0:
329,192,158618,1,0,0:0:0:0:
402,192,158685,1,0,0:0:0:0:
182,192,158685,1,0,0:0:0:0:
475,192,158685,1,0,0:0:0:0:
329,192,158753,1,0,0:0:0:0:
109,192,158820,1,0,0:0:0:0:
256,192,158820,1,0,0:0:0:0:
475,192,158820,1,0,0:0:0:0:
36,192,158820,1,0,0:0:0:0:
329,192,158888,1,0,0:0:0:0:
402,192,158955,1,0,0:0:0:0:
182,192,158955,1,0,0:0:0:0:
475,192,158955,1,0,0:0:0:0:
329,192,159023,1,0,0:0:0:0:
109,192,159023,1,0,0:0:0:0:
475,192,159090,1,0,0:0:0:0:
36,192,159090,1,0,0:0:0:0:
256,192,159090,1,0,0:0:0:0:
182,192,159158,1,0,0:0:0:0:
329,192,159158,1,0,0:0:0:0:
402,192,159226,1,0,0:0:0:0:
109,192,159226,1,0,0:0:0:0:
256,192,159293,1,0,0:0:0:0:
182,192,159293,1,0,0:0:0:0:
329,192,159361,1,0,0:0:0:0:
475,192,159361,1,0,0:0:0:0:
109,192,159361,1,0,0:0:0:0:
36,192,159361,1,0,0:0:0:0:
256,192,159428,1,0,0:0:0:0:
182,192,159428,1,0,0:0:0:0:
329,192,159496,1,0,0:0:0:0:
109,192,159496,1,0,0:0:0:0:
402,192,159563,1,0,0:0:0:0:
182,192,159563,1,0,0:0:0:0:
475,192,159631,1,0,0:0:0:0:
256,192,159631,1,0,0:0:0:0:
36,192,159631,1,0,0:0:0:0:
402,192,159699,1,0,0:0:0:0:
109,192,159766,1,0,0:0:0:0:
256,192,159766,1,0,0:0:0:0:
475,192,159766,1,0,0:0:0:0:
182,192,159766,1,0,0:0:0:0:
402,192,159834,1,0,0:0:0:0:
36,192,159901,1,0,0:0:0:0:
329,192,159901,1,0,0:0:0:0:
475,192,159901,1,0,0:0:0:0:
182,192,159901,1,0,0:0:0:0:
402,192,159969,1,0,0:0:0:0:
256,192,160036,1,0,0:0:0:0:
36,192,160036,1,0,0:0:0:0:
475,192,160036,1,0,0:0:0:0:
109,192,160036,1,0,0:0:0:0:
402,192,160104,1,0,0:0:0:0:
329,192,160172,1,0,0:0:0:0:
182,192,160172,1,0,0:0:0:0:
109,192,160239,1,0,0:0:0:0:
256,192,160307,1,0,0:0:0:0:
402,192,160307,1,0,0:0:0:0:
36,192,160307,1,0,0:0:0:0:
475,192,160374,1,0,0:0:0:0:
329,192,160374,1,0,0:0:0:0:
109,192,160374,1,0,0:0:0:0:
182,192,160442,1,0,0:0:0:0:
402,192,160442,1,0,0:0:0:0:
329,192,160509,1,0,0:0:0:0:
109,192,160509,1,0,0:0:0:0:
475,192,160577,1,0,0:0:0:0:
36,192,160577,1,0,0:0:0:0:
182,192,160577,1,0,0:0:0:0:
402,192,160577,1,0,0:0:0:0:
329,192,160645,1,0,0:0:0:0:
109,192,160645,1,0,0:0:0:0:
475,192,160712,1,0,0:0:0:0:
182,192,160712,1,0,0:0:0:0:
36,192,160712,1,0,0:0:0:0:
402,192,160712,1,0,0:0:0:0:
256,192,160780,1,0,0:0:0:0:
475,192,160847,1,0,0:0:0:0:
109,192,160847,1,0,0:0:0:0:
329,192,160847,1,0,0:0:0:0:
36,192,160915,1,0,0:0:0:0:
256,192,160915,1,0,0:0:0:0:
475,192,160982,1,0,0:0:0:0:
109,192,160982,1,0,0:0:0:0:
182,192,160982,1,0,0:0:0:0:
402,192,160982,1,0,0:0:0:0:
256,192,161050,1,0,0:0:0:0:
109,192,161118,1,0,0:0:0:0:
36,192,161118,1,0,0:0:0:0:
329,192,161118,1,0,0:0:0:0:
182,192,161185,1,0,0:0:0:0:
402,192,161185,1,0,0:0:0:0:
36,192,161253,1,0,0:0:0:0:
109,192,161253,1,0,0:0:0:0:
475,192,161253,1,0,0:0:0:0:
182,192,161320,1,0,0:0:0:0:
402,192,161320,1,0,0:0:0:0:
256,192,161388,1,0,0:0:0:0:
475,192,161388,1,0,0:0:0:0:
329,192,161388,1,0,0:0:0:0:
36,192,161388,1,0,0:0:0:0:
109,192,161455,1,0,0:0:0:0:
402,192,161455,1,0,0:0:0:0:
256,192,161523,1,0,0:0:0:0:
182,192,161523,1,0,0:0:0:0:
475,192,161523,1,0,0:0:0:0:
36,192,161523,1,0,0:0:0:0:
109,192,161590,1,0,0:0:0:0:
402,192,161590,1,0,0:0:0:0:
36,192,161658,1,0,0:0:0:0:
329,192,161658,1,0,0:0:0:0:
109,192,161726,1,0,0:0:0:0:
256,192,161726,1,0,0:0:0:0:
475,192,161793,1,0,0:0:0:0:
182,192,161793,1,0,0:0:0:0:
402,192,161793,1,0,0:0:0:0:
256,192,161861,1,0,0:0:0:0:
109,192,161928,1,0,0:0:0:0:
329,192,161928,1,0,0:0:0:0:
475,192,161996,1,0,0:0:0:0:
256,192,161996,1,0,0:0:0:0:
109,192,162063,1,0,0:0:0:0:
402,192,162063,1,0,0:0:0:0:
182,192,162063,1,0,0:0:0:0:
329,192,162063,1,0,0:0:0:0:
36,192,162131,1,0,0:0:0:0:
475,192,162131,1,0,0:0:0:0:
256,192,162131,1,0,0:0:0:0:
109,192,162199,1,0,0:0:0:0:
329,192,162199,1,0,0:0:0:0:
36,192,162266,1,0,0:0:0:0:
256,192,162266,1,0,0:0:0:0:
475,192,162334,1,0,0:0:0:0:
402,192,162334,1,0,0:0:0:0:
182,192,162334,1,0,0:0:0:0:
329,192,162401,1,0,0:0:0:0:
109,192,162401,1,0,0:0:0:0:
475,192,162469,1,0,0:0:0:0:
256,192,162469,1,0,0:0:0:0:
36,192,162469,1,0,0:0:0:0:
109,192,162536,1,0,0:0:0:0:
475,192,162604,1,0,0:0:0:0:
402,192,162604,1,0,0:0:0:0:
182,192,162604,1,0,0:0:0:0:
256,192,162604,1,0,0:0:0:0:
329,192,162672,1,0,0:0:0:0:
109,192,162672,1,0,0:0:0:0:
475,192,162739,1,0,0:0:0:0:
256,192,162739,1,0,0:0:0:0:
36,192,162739,1,0,0:0:0:0:
329,192,162807,1,0,0:0:0:0:
109,192,162807,1,0,0:0:0:0:
475,192,162874,1,0,0:0:0:0:
402,192,162874,1,0,0:0:0:0:
182,192,162874,1,0,0:0:0:0:
36,192,162942,1,0,0:0:0:0:
329,192,162942,1,0,0:0:0:0:
182,192,163009,1,0,0:0:0:0:
109,192,163077,1,0,0:0:0:0:
329,192,163077,1,0,0:0:0:0:
36,192,163145,1,0,0:0:0:0:
475,192,163145,1,0,0:0:0:0:
402,192,163145,1,0,0:0:0:0:
256,192,163145,1,0,0:0:0:0:
329,192,163212,1,0,0:0:0:0:
109,192,163280,1,0,0:0:0:0:
182,192,163280,1,0,0:0:0:0:
475,192,163347,1,0,0:0:0:0:
329,192,163347,1,0,0:0:0:0:
36,192,163415,1,0,0:0:0:0:
256,192,163415,1,0,0:0:0:0:
109,192,163415,1,0,0:0:0:0:
182,192,163482,1,0,0:0:0:0:
402,192,163482,1,0,0:0:0:0:
329,192,163550,1,0,0:0:0:0:
109,192,163550,1,0,0:0:0:0:
182,192,163618,1,0,0:0:0:0:
402,192,163618,1,0,0:0:0:0:
475,192,163685,1,0,0:0:0:0:
36,192,163685,1,0,0:0:0:0:
109,192,163685,1,0,0:0:0:0:
256,192,163685,1,0,0:0:0:0:
402,192,163753,1,0,0:0:0:0:
329,192,163820,1,0,0:0:0:0:
109,192,163820,1,0,0:0:0:0:
182,192,163888,1,0,0:0:0:0:
402,192,163888,1,0,0:0:0:0:
329,192,163955,1,0,0:0:0:0:
256,192,163955,1,0,0:0:0:0:
36,192,163955,1,0,0:0:0:0:
109,192,164023,1,0,0:0:0:0:
475,192,164023,1,0,0:0:0:0:
182,192,164090,1,0,0:0:0:0:
402,192,164090,1,0,0:0:0:0:
36,192,164090,1,0,0:0:0:0:
329,192,164158,1,0,0:0:0:0:
475,192,164158,1,0,0:0:0:0:
109,192,164226,1,0,0:0:0:0:
256,192,164226,1,0,0:0:0:0:
36,192,164226,1,0,0:0:0:0:
182,192,164293,1,0,0:0:0:0:
475,192,164293,1,0,0:0:0:0:
329,192,164361,1,0,0:0:0:0:
36,192,164361,1,0,0:0:0:0:
256,192,164428,1,0,0:0:0:0:
475,192,164428,1,0,0:0:0:0:
402,192,164496,1,0,0:0:0:0:
182,192,164496,1,0,0:0:0:0:
109,192,164563,1,0,0:0:0:0:
36,192,164631,1,0,0:0:0:0:
475,192,164631,1,0,0:0:0:0:
182,192,164631,1,0,0:0:0:0:
329,192,164631,1,0,0:0:0:0:
256,192,164699,1,0,0:0:0:0:
402,192,164699,1,0,0:0:0:0:
36,192,164766,1,0,0:0:0:0:
182,192,164766,1,0,0:0:0:0:
329,192,164766,1,0,0:0:0:0:
475,192,164834,1,0,0:0:0:0:
402,192,164834,1,0,0:0:0:0:
109,192,164834,1,0,0:0:0:0:
329,192,164901,1,0,0:0:0:0:
182,192,164901,1,0,0:0:0:0:
109,192,164969,1,0,0:0:0:0:
402,192,164969,1,0,0:0:0:0:
182,192,165036,1,0,0:0:0:0:
329,192,165036,1,0,0:0:0:0:
475,192,165036,1,0,0:0:0:0:
36,192,165036,1,0,0:0:0:0:
256,192,165104,1,0,0:0:0:0:
402,192,165172,1,0,0:0:0:0:
109,192,165172,1,0,0:0:0:0:
182,192,165239,1,0,0:0:0:0:
402,192,165307,1,0,0:0:0:0:
475,192,165307,1,0,0:0:0:0:
109,192,165307,1,0,0:0:0:0:
256,192,165307,1,0,0:0:0:0:
329,192,165374,1,0,0:0:0:0:
36,192,165374,1,0,0:0:0:0:
402,192,165442,1,0,0:0:0:0:
109,192,165442,1,0,0:0:0:0:
256,192,165509,1,0,0:0:0:0:
182,192,165509,1,0,0:0:0:0:
475,192,165577,1,0,0:0:0:0:
329,192,165577,1,0,0:0:0:0:
109,192,165577,1,0,0:0:0:0:
256,192,165645,1,0,0:0:0:0:
36,192,165645,1,0,0:0:0:0:
475,192,165712,1,0,0:0:0:0:
329,192,165712,1,0,0:0:0:0:
109,192,165712,1,0,0:0:0:0:
402,192,165780,1,0,0:0:0:0:
182,192,165780,1,0,0:0:0:0:
475,192,165847,1,0,0:0:0:0:
36,192,165847,1,0,0:0:0:0:
256,192,165847,1,0,0:0:0:0:
182,192,165915,1,0,0:0:0:0:
402,192,165982,1,0,0:0:0:0:
109,192,165982,1,0,0:0:0:0:
256,192,165982,1,0,0:0:0:0:
36,192,166050,1,0,0:0:0:0:
182,192,166050,1,0,0:0:0:0:
475,192,166118,1,0,0:0:0:0:
109,192,166118,1,0,0:0:0:0:
329,192,166118,1,0,0:0:0:0:
402,192,166185,1,0,0:0:0:0:
256,192,166185,1,0,0:0:0:0:
182,192,166253,1,0,0:0:0:0:
36,192,166253,1,0,0:0:0:0:
329,192,166253,1,0,0:0:0:0:
109,192,166320,1,0,0:0:0:0:
256,192,166320,1,0,0:0:0:0:
475,192,166388,1,0,0:0:0:0:
182,192,166388,1,0,0:0:0:0:
329,192,166388,1,0,0:0:0:0:
36,192,166388,1,0,0:0:0:0:
402,192,166455,1,0,0:0:0:0:
182,192,166523,1,0,0:0:0:0:
475,192,166523,1,0,0:0:0:0:
109,192,166590,1,0,0:0:0:0:
402,192,166590,1,0,0:0:0:0:
256,192,166658,1,0,0:0:0:0:
182,192,166658,1,0,0:0:0:0:
329,192,166658,1,0,0:0:0:0:
36,192,166726,1,0,0:0:0:0:
402,192,166726,1,0,0:0:0:0:
256,192,166793,1,0,0:0:0:0:
109,192,166793,1,0,0:0:0:0:
475,192,166793,1,0,0:0:0:0:
182,192,166861,1,0,0:0:0:0:
36,192,166861,1,0,0:0:0:0:
402,192,166861,1,0,0:0:0:0:
256,192,166928,1,0,0:0:0:0:
109,192,166928,1,0,0:0:0:0:
329,192,166928,1,0,0:0:0:0:
402,192,166996,1,0,0:0:0:0:
109,192,167063,1,0,0:0:0:0:
36,192,167063,1,0,0:0:0:0:
475,192,167063,1,0,0:0:0:0:
256,192,167131,1,0,0:0:0:0:
182,192,167131,1,0,0:0:0:0:
402,192,167131,1,0,0:0:0:0:
36,192,167199,1,0,0:0:0:0:
109,192,167199,1,0,0:0:0:0:
329,192,167199,1,0,0:0:0:0:
182,192,167266,1,0,0:0:0:0:
402,192,167334,1,0,0:0:0:0:
475,192,167334,1,0,0:0:0:0:
329,192,167334,1,0,0:0:0:0:
182,192,167401,1,0,0:0:0:0:
402,192,167469,1,0,0:0:0:0:
475,192,167469,1,0,0:0:0:0:
109,192,167469,1,0,0:0:0:0:
256,192,167469,1,0,0:0:0:0:
329,192,167536,1,0,0:0:0:0:
36,192,167536,1,0,0:0:0:0:
402,192,167604,1,0,0:0:0:0:
109,192,167604,1,0,0:0:0:0:
329,192,167672,1,0,0:0:0:0:
36,192,167672,1,0,0:0:0:0:
475,192,167739,1,0,0:0:0:0:
402,192,167739,1,0,0:0:0:0:
182,192,167739,1,0,0:0:0:0:
329,192,167807,1,0,0:0:0:0:
109,192,167807,1,0,0:0:0:0:
402,192,167874,1,0,0:0:0:0:
182,192,167874,1,0,0:0:0:0:
475,192,167942,1,0,0:0:0:0:
109,192,167942,1,0,0:0:0:0:
329,192,168009,1,0,0:0:0:0:
36,192,168009,1,0,0:0:0:0:
256,192,168009,1,0,0:0:0:0:
402,192,168077,1,0,0:0:0:0:
182,192,168077,1,0,0:0:0:0:
475,192,168145,1,0,0:0:0:0:
256,192,168145,1,0,0:0:0:0:
402,192,168212,1,0,0:0:0:0:
182,192,168212,1,0,0:0:0:0:
109,192,168280,1,0,0:0:0:0:
36,192,168280,1,0,0:0:0:0:
329,192,168280,1,0,0:0:0:0:
256,192,168347,1,0,0:0:0:0:
109,192,168415,1,0,0:0:0:0:
36,192,168415,1,0,0:0:0:0:
329,192,168415,1,0,0:0:0:0:
256,192,168482,1,0,0:0:0:0:
182,192,168550,1,0,0:0:0:0:
36,192,168550,1,0,0:0:0:0:
402,192,168550,1,0,0:0:0:0:
109,192,168618,1,0,0:0:0:0:
329,192,168618,1,0,0:0:0:0:
182,192,168685,1,0,0:0:0:0:
402,192,168685,1,0,0:0:0:0:
36,192,168753,1,0,0:0:0:0:
329,192,168753,1,0,0:0:0:0:
256,192,168820,1,0,0:0:0:0:
109,192,168820,1,0,0:0:0:0:
475,192,168820,1,0,0:0:0:0:
402,192,168888,1,0,0:0:0:0:
182,192,168955,1,0,0:0:0:0:
36,192,168955,1,0,0:0:0:0:
475,192,168955,1,0,0:0:0:0:
329,192,169023,1,0,0:0:0:0:
402,192,169023,1,0,0:0:0:0:
182,192,169090,1,0,0:0:0:0:
36,192,169090,1,0,0:0:0:0:
109,192,169090,1,0,0:0:0:0:
402,192,169158,1,0,0:0:0:0:
329,192,169158,1,0,0:0:0:0:
475,192,169158,1,0,0:0:0:0:
182,192,169226,1,0,0:0:0:0:
109,192,169226,1,0,0:0:0:0:
36,192,169226,1,0,0:0:0:0:
402,192,169293,1,0,0:0:0:0:
329,192,169293,1,0,0:0:0:0:
475,192,169293,1,0,0:0:0:0:
182,192,169361,1,0,0:0:0:0:
109,192,169361,1,0,0:0:0:0:
36,192,169361,1,0,0:0:0:0:
329,192,169428,1,0,0:0:0:0:
256,192,169428,1,0,0:0:0:0:
402,192,169496,1,0,0:0:0:0:
182,192,169496,1,0,0:0:0:0:
475,192,169563,1,0,0:0:0:0:
329,192,169563,1,0,0:0:0:0:
36,192,169631,1,0,0:0:0:0:
402,192,169631,1,0,0:0:0:0:
256,192,169631,1,0,0:0:0:0:
109,192,169631,1,0,0:0:0:0:
475,192,169699,1,0,0:0:0:0:
182,192,169699,1,0,0:0:0:0:
36,192,169766,1,0,0:0:0:0:
329,192,169766,1,0,0:0:0:0:
256,192,169834,1,0,0:0:0:0:
109,192,169834,1,0,0:0:0:0:
402,192,169901,1,0,0:0:0:0:
475,192,169901,1,0,0:0:0:0:
182,192,169901,1,0,0:0:0:0:
329,192,169901,1,0,0:0:0:0:
256,192,169969,1,0,0:0:0:0:
36,192,169969,1,0,0:0:0:0:
402,192,170036,1,0,0:0:0:0:
182,192,170036,1,0,0:0:0:0:
256,192,170104,1,0,0:0:0:0:
475,192,170104,1,0,0:0:0:0:
329,192,170172,1,0,0:0:0:0:
402,192,170172,1,0,0:0:0:0:
109,192,170172,1,0,0:0:0:0:
36,192,170172,1,0,0:0:0:0:
256,192,170239,1,0,0:0:0:0:
182,192,170239,1,0,0:0:0:0:
402,192,170307,1,0,0:0:0:0:
36,192,170307,1,0,0:0:0:0:
182,192,170374,1,0,0:0:0:0:
329,192,170374,1,0,0:0:0:0:
256,192,170442,1,0,0:0:0:0:
475,192,170442,1,0,0:0:0:0:
109,192,170442,1,0,0:0:0:0:
36,192,170442,1,0,0:0:0:0:
329,192,170509,1,0,0:0:0:0:
402,192,170509,1,0,0:0:0:0:
36,192,170577,1,0,0:0:0:0:
182,192,170577,1,0,0:0:0:0:
402,192,170645,1,0,0:0:0:0:
109,192,170645,1,0,0:0:0:0:
475,192,170712,1,0,0:0:0:0:
256,192,170712,1,0,0:0:0:0:
329,192,170712,1,0,0:0:0:0:
182,192,170712,1,0,0:0:0:0:
36,192,170780,1,0,0:0:0:0:
109,192,170780,1,0,0:0:0:0:
402,192,170847,1,0,0:0:0:0:
182,192,170847,1,0,0:0:0:0:
475,192,170915,1,0,0:0:0:0:
329,192,170915,1,0,0:0:0:0:
36,192,170982,1,0,0:0:0:0:
402,192,170982,1,0,0:0:0:0:
256,192,170982,1,0,0:0:0:0:
109,192,170982,1,0,0:0:0:0:
475,192,171050,1,0,0:0:0:0:
182,192,171050,1,0,0:0:0:0:
36,192,171118,1,0,0:0:0:0:
329,192,171118,1,0,0:0:0:0:
256,192,171185,1,0,0:0:0:0:
109,192,171185,1,0,0:0:0:0:
329,192,171253,1,0,0:0:0:0:
402,192,171253,1,0,0:0:0:0:
182,192,171253,1,0,0:0:0:0:
36,192,171253,1,0,0:0:0:0:
475,192,171320,1,0,0:0:0:0:
256,192,171320,1,0,0:0:0:0:
329,192,171388,1,0,0:0:0:0:
36,192,171388,1,0,0:0:0:0:
109,192,171388,1,0,0:0:0:0:
475,192,171455,1,0,0:0:0:0:
256,192,171455,1,0,0:0:0:0:
182,192,171455,1,0,0:0:0:0:
329,192,171523,1,0,0:0:0:0:
402,192,171523,1,0,0:0:0:0:
109,192,171523,1,0,0:0:0:0:
36,192,171523,1,0,0:0:0:0:
182,192,171590,1,0,0:0:0:0:
256,192,171590,1,0,0:0:0:0:
475,192,171658,1,0,0:0:0:0:
36,192,171658,1,0,0:0:0:0:
256,192,171726,1,0,0:0:0:0:
402,192,171726,1,0,0:0:0:0:
36,192,171793,1,0,0:0:0:0:
329,192,171793,1,0,0:0:0:0:
182,192,171793,1,0,0:0:0:0:
109,192,171793,1,0,0:0:0:0:
475,192,171861,1,0,0:0:0:0:
256,192,171861,1,0,0:0:0:0:
402,192,171928,1,0,0:0:0:0:
109,192,171928,1,0,0:0:0:0:
256,192,171996,1,0,0:0:0:0:
182,192,171996,1,0,0:0:0:0:
329,192,172063,1,0,0:0:0:0:
475,192,172063,1,0,0:0:0:0:
36,192,172063,1,0,0:0:0:0:
109,192,172063,1,0,0:0:0:0:
182,192,172131,1,0,0:0:0:0:
256,192,172131,1,0,0:0:0:0:
475,192,172199,1,0,0:0:0:0:
402,192,172199,1,0,0:0:0:0:
109,192,172266,1,0,0:0:0:0:
329,192,172266,1,0,0:0:0:0:
36,192,172334,1,0,0:0:0:0:
475,192,172334,1,0,0:0:0:0:
182,192,172334,1,0,0:0:0:0:
256,192,172334,1,0,0:0:0:0:
329,192,172401,1,0,0:0:0:0:
402,192,172401,1,0,0:0:0:0:
109,192,172469,1,0,0:0:0:0:
256,192,172469,1,0,0:0:0:0:
402,192,172536,1,0,0:0:0:0:
182,192,172536,1,0,0:0:0:0:
36,192,172604,1,0,0:0:0:0:
475,192,172604,1,0,0:0:0:0:
329,192,172604,1,0,0:0:0:0:
109,192,172604,1,0,0:0:0:0:
402,192,172672,1,0,0:0:0:0:
256,192,172672,1,0,0:0:0:0:
36,192,172739,1,0,0:0:0:0:
182,192,172739,1,0,0:0:0:0:
256,192,172807,1,0,0:0:0:0:
109,192,172807,1,0,0:0:0:0:
475,192,172874,1,0,0:0:0:0:
182,192,172874,1,0,0:0:0:0:
329,192,172874,1,0,0:0:0:0:
402,192,172942,1,0,0:0:0:0:
109,192,172942,1,0,0:0:0:0:
36,192,173009,1,0,0:0:0:0:
256,192,173009,1,0,0:0:0:0:
329,192,173077,1,0,0:0:0:0:
182,192,173077,1,0,0:0:0:0:
402,192,173145,1,0,0:0:0:0:
36,192,173145,1,0,0:0:0:0:
256,192,173145,1,0,0:0:0:0:
475,192,173145,1,0,0:0:0:0:
182,192,173212,1,0,0:0:0:0:
109,192,173212,1,0,0:0:0:0:
36,192,173280,1,0,0:0:0:0:
475,192,173280,1,0,0:0:0:0:
329,192,173280,1,0,0:0:0:0:
182,192,173347,1,0,0:0:0:0:
256,192,173347,1,0,0:0:0:0:
402,192,173415,1,0,0:0:0:0:
475,192,173415,1,0,0:0:0:0:
109,192,173415,1,0,0:0:0:0:
36,192,173415,1,0,0:0:0:0:
182,192,173482,1,0,0:0:0:0:
256,192,173482,1,0,0:0:0:0:
329,192,173482,1,0,0:0:0:0:
402,192,173550,1,0,0:0:0:0:
475,192,173550,1,0,0:0:0:0:
109,192,173550,1,0,0:0:0:0:
36,192,173550,1,0,0:0:0:0:
182,192,173618,1,0,0:0:0:0:
256,192,173618,1,0,0:0:0:0:
329,192,173618,1,0,0:0:0:0:
475,192,173685,1,0,0:0:0:0:
402,192,173685,1,0,0:0:0:0:
109,192,173685,1,0,0:0:0:0:
36,192,173685,1,0,0:0:0:0:
182,192,173820,1,0,0:0:0:0:
402,192,173955,1,0,0:0:0:0:
256,192,173955,1,0,0:0:0:0:
182,192,174226,1,0,0:0:0:0:
109,192,174226,1,0,0:0:0:0:
402,192,174496,1,0,0:0:0:0:
256,192,174496,1,0,0:0:0:0:
182,192,174766,1,0,0:0:0:0:
109,192,174766,1,0,0:0:0:0:
402,192,175036,1,0,0:0:0:0:
329,192,175036,1,0,0:0:0:0:
182,192,175307,1,0,0:0:0:0:
36,192,175307,1,0,0:0:0:0:
475,192,175577,1,0,0:0:0:0:
329,192,175577,1,0,0:0:0:0:
182,192,175645,1,0,0:0:0:0:
329,192,175712,1,0,0:0:0:0:
182,192,175780,1,0,0:0:0:0:
109,192,175847,1,0,0:0:0:0:
36,192,175847,1,0,0:0:0:0:
475,192,176118,1,0,0:0:0:0:
329,192,176118,1,0,0:0:0:0:
36,192,176388,1,0,0:0:0:0:
109,192,176388,1,0,0:0:0:0:
256,192,176658,1,0,0:0:0:0:
329,192,176658,1,0,0:0:0:0:
109,192,176928,1,0,0:0:0:0:
182,192,176928,1,0,0:0:0:0:
475,192,177199,1,0,0:0:0:0:
329,192,177199,1,0,0:0:0:0:
182,192,177334,1,0,0:0:0:0:
329,192,177334,1,0,0:0:0:0:
256,192,177401,1,0,0:0:0:0:
109,192,177401,1,0,0:0:0:0:
36,192,177469,1,0,0:0:0:0:
182,192,177469,1,0,0:0:0:0:
329,192,177536,1,0,0:0:0:0:
182,192,177604,1,0,0:0:0:0:
329,192,177672,1,0,0:0:0:0:
109,192,177739,1,0,0:0:0:0:
182,192,177773,1,0,0:0:0:0:
329,192,177807,1,0,0:0:0:0:
402,192,177840,1,0,0:0:0:0:
256,192,177874,1,0,0:0:0:0:
182,192,177908,1,0,0:0:0:0:
109,192,177942,1,0,0:0:0:0:
329,192,177976,1,0,0:0:0:0:
256,192,178009,1,0,0:0:0:0:
182,192,178009,1,0,0:0:0:0:
475,192,178009,1,0,0:0:0:0:
36,192,178009,1,0,0:0:0:0:
402,192,178009,1,0,0:0:0:0:
256,192,178145,1,0,0:0:0:0:
182,192,178145,1,0,0:0:0:0:
475,192,178145,1,0,0:0:0:0:
36,192,178145,1,0,0:0:0:0:
402,192,178145,1,0,0:0:0:0:
402,192,178280,1,0,0:0:0:0:
182,192,178280,1,0,0:0:0:0:
36,192,178280,1,0,0:0:0:0:
475,192,178280,1,0,0:0:0:0:
256,192,178280,1,0,0:0:0:0:
256,192,178415,1,0,0:0:0:0:
475,192,178415,1,0,0:0:0:0:
402,192,178415,1,0,0:0:0:0:
182,192,178415,1,0,0:0:0:0:
36,192,178415,1,0,0:0:0:0:
256,192,178550,1,0,0:0:0:0:
475,192,178550,1,0,0:0:0:0:
329,192,178550,1,0,0:0:0:0:
36,192,178618,1,0,0:0:0:0:
109,192,178618,1,0,0:0:0:0:
182,192,178685,1,0,0:0:0:0:
475,192,178685,1,0,0:0:0:0:
329,192,178685,1,0,0:0:0:0:
36,192,178753,1,0,0:0:0:0:
109,192,178753,1,0,0:0:0:0:
329,192,178820,1,0,0:0:0:0:
256,192,178820,1,0,0:0:0:0:
182,192,178820,1,0,0:0:0:0:
475,192,178888,1,0,0:0:0:0:
402,192,178888,1,0,0:0:0:0:
36,192,178955,1,0,0:0:0:0:
182,192,178955,1,0,0:0:0:0:
329,192,178955,1,0,0:0:0:0:
475,192,179023,1,0,0:0:0:0:
402,192,179023,1,0,0:0:0:0:
109,192,179090,1,0,0:0:0:0:
256,192,179090,1,0,0:0:0:0:
329,192,179090,1,0,0:0:0:0:
109,192,179226,1,0,0:0:0:0:
329,192,179226,1,0,0:0:0:0:
256,192,179226,1,0,0:0:0:0:
402,192,179361,1,0,0:0:0:0:
256,192,179361,1,0,0:0:0:0:
36,192,179361,1,0,0:0:0:0:
475,192,179361,1,0,0:0:0:0:
182,192,179361,1,0,0:0:0:0:
402,192,179496,1,0,0:0:0:0:
256,192,179496,1,0,0:0:0:0:
182,192,179496,1,0,0:0:0:0:
475,192,179496,1,0,0:0:0:0:
36,192,179496,1,0,0:0:0:0:
329,192,179631,1,0,0:0:0:0:
36,192,179631,1,0,0:0:0:0:
256,192,179631,1,0,0:0:0:0:
109,192,179631,1,0,0:0:0:0:
256,192,179766,1,0,0:0:0:0:
329,192,179766,1,0,0:0:0:0:
36,192,179766,1,0,0:0:0:0:
109,192,179766,1,0,0:0:0:0:
256,192,179901,1,0,0:0:0:0:
475,192,179901,1,0,0:0:0:0:
36,192,179901,1,0,0:0:0:0:
109,192,179901,1,0,0:0:0:0:
329,192,179946,1,0,0:0:0:0:
402,192,179991,1,0,0:0:0:0:
36,192,180036,1,0,0:0:0:0:
256,192,180036,1,0,0:0:0:0:
475,192,180036,1,0,0:0:0:0:
182,192,180036,1,0,0:0:0:0:
109,192,180172,1,0,0:0:0:0:
329,192,180172,1,0,0:0:0:0:
475,192,180172,1,0,0:0:0:0:
256,192,180172,1,0,0:0:0:0:
402,192,180172,1,0,0:0:0:0:
329,192,180307,1,0,0:0:0:0:
36,192,180307,1,0,0:0:0:0:
182,192,180307,1,0,0:0:0:0:
256,192,180374,1,0,0:0:0:0:
402,192,180374,1,0,0:0:0:0:
329,192,180442,1,0,0:0:0:0:
182,192,180442,1,0,0:0:0:0:
109,192,180442,1,0,0:0:0:0:
36,192,180442,1,0,0:0:0:0:
256,192,180577,1,0,0:0:0:0:
475,192,180577,1,0,0:0:0:0:
402,192,180611,1,0,0:0:0:0:
36,192,180622,1,0,0:0:0:0:
329,192,180645,1,0,0:0:0:0:
182,192,180667,1,0,0:0:0:0:
109,192,180678,1,0,0:0:0:0:
475,192,180712,1,0,0:0:0:0:
256,192,180712,1,0,0:0:0:0:
182,192,180847,1,0,0:0:0:0:
329,192,180847,1,0,0:0:0:0:
475,192,180847,1,0,0:0:0:0:
256,192,180847,1,0,0:0:0:0:
36,192,180847,1,0,0:0:0:0:
256,192,180982,1,0,0:0:0:0:
182,192,180982,1,0,0:0:0:0:
36,192,180982,1,0,0:0:0:0:
182,192,181118,1,0,0:0:0:0:
109,192,181118,1,0,0:0:0:0:
402,192,181118,1,0,0:0:0:0:
329,192,181118,1,0,0:0:0:0:
475,192,181118,1,0,0:0:0:0:
182,192,181253,1,0,0:0:0:0:
36,192,181253,1,0,0:0:0:0:
256,192,181253,1,0,0:0:0:0:
402,192,181320,1,0,0:0:0:0:
329,192,181320,1,0,0:0:0:0:
256,192,181388,1,0,0:0:0:0:
36,192,181388,1,0,0:0:0:0:
182,192,181388,1,0,0:0:0:0:
329,192,181523,1,0,0:0:0:0:
182,192,181523,1,0,0:0:0:0:
402,192,181523,1,0,0:0:0:0:
475,192,181523,1,0,0:0:0:0:
36,192,181568,1,0,0:0:0:0:
256,192,181590,1,0,0:0:0:0:
109,192,181613,1,0,0:0:0:0:
475,192,181658,1,0,0:0:0:0:
329,192,181658,1,0,0:0:0:0:
182,192,181658,1,0,0:0:0:0:
402,192,181658,1,0,0:0:0:0:
256,192,181793,1,0,0:0:0:0:
402,192,181793,1,0,0:0:0:0:
36,192,181793,1,0,0:0:0:0:
109,192,181793,1,0,0:0:0:0:
475,192,181861,1,0,0:0:0:0:
182,192,181861,1,0,0:0:0:0:
109,192,181928,1,0,0:0:0:0:
329,192,181928,1,0,0:0:0:0:
36,192,181928,1,0,0:0:0:0:
256,192,181928,1,0,0:0:0:0:
475,192,181996,1,0,0:0:0:0:
109,192,182063,1,0,0:0:0:0:
36,192,182063,1,0,0:0:0:0:
182,192,182063,1,0,0:0:0:0:
402,192,182063,1,0,0:0:0:0:
329,192,182063,1,0,0:0:0:0:
475,192,182131,1,0,0:0:0:0:
36,192,182199,1,0,0:0:0:0:
402,192,182199,1,0,0:0:0:0:
109,192,182199,1,0,0:0:0:0:
329,192,182199,1,0,0:0:0:0:
182,192,182199,1,0,0:0:0:0:
475,192,182266,1,0,0:0:0:0:
402,192,182334,1,0,0:0:0:0:
329,192,182334,1,0,0:0:0:0:
36,192,182334,1,0,0:0:0:0:
182,192,182334,1,0,0:0:0:0:
109,192,182334,1,0,0:0:0:0:
256,192,182401,1,0,0:0:0:0:
475,192,182469,1,0,0:0:0:0:
402,192,182469,1,0,0:0:0:0:
182,192,182469,1,0,0:0:0:0:
256,192,182536,1,0,0:0:0:0:
36,192,182604,1,0,0:0:0:0:
109,192,182604,1,0,0:0:0:0:
329,192,182604,1,0,0:0:0:0:
475,192,182672,1,0,0:0:0:0:
402,192,182672,1,0,0:0:0:0:
256,192,182672,1,0,0:0:0:0:
36,192,182739,1,0,0:0:0:0:
109,192,182739,1,0,0:0:0:0:
182,192,182739,1,0,0:0:0:0:
475,192,182807,1,0,0:0:0:0:
402,192,182807,1,0,0:0:0:0:
256,192,182807,1,0,0:0:0:0:
36,192,182874,1,0,0:0:0:0:
109,192,182874,1,0,0:0:0:0:
329,192,182874,1,0,0:0:0:0:
182,192,182942,1,0,0:0:0:0:
256,192,182976,1,0,0:0:0:0:
475,192,183009,1,0,0:0:0:0:
402,192,183009,1,0,0:0:0:0:
36,192,183009,1,0,0:0:0:0:
109,192,183043,1,0,0:0:0:0:
182,192,183077,1,0,0:0:0:0:
329,192,183111,1,0,0:0:0:0:
256,192,183145,1,0,0:0:0:0:
475,192,183145,1,0,0:0:0:0:
36,192,183145,1,0,0:0:0:0:
402,192,183280,1,0,0:0:0:0:
475,192,183280,1,0,0:0:0:0:
329,192,183280,1,0,0:0:0:0:
182,192,183280,1,0,0:0:0:0:
109,192,183280,1,0,0:0:0:0:
329,192,183415,1,0,0:0:0:0:
402,192,183415,1,0,0:0:0:0:
36,192,183415,1,0,0:0:0:0:
182,192,183415,1,0,0:0:0:0:
109,192,183415,1,0,0:0:0:0:
109,192,183550,1,0,0:0:0:0:
402,192,183550,1,0,0:0:0:0:
475,192,183550,1,0,0:0:0:0:
329,192,183550,1,0,0:0:0:0:
182,192,183550,1,0,0:0:0:0:
475,192,183685,1,0,0:0:0:0:
36,192,183685,1,0,0:0:0:0:
256,192,183685,1,0,0:0:0:0:
475,192,183820,1,0,0:0:0:0:
256,192,183820,1,0,0:0:0:0:
36,192,183820,1,0,0:0:0:0:
329,192,183888,1,0,0:0:0:0:
182,192,183888,1,0,0:0:0:0:
36,192,183955,1,0,0:0:0:0:
402,192,183955,1,0,0:0:0:0:
256,192,183955,1,0,0:0:0:0:
402,192,184023,1,0,0:0:0:0:
109,192,184090,1,0,0:0:0:0:
256,192,184090,1,0,0:0:0:0:
475,192,184090,1,0,0:0:0:0:
329,192,184226,1,0,0:0:0:0:
182,192,184226,1,0,0:0:0:0:
36,192,184226,1,0,0:0:0:0:
182,192,184293,1,0,0:0:0:0:
329,192,184361,1,0,0:0:0:0:
475,192,184361,1,0,0:0:0:0:
256,192,184395,1,0,0:0:0:0:
109,192,184428,1,0,0:0:0:0:
36,192,184462,1,0,0:0:0:0:
402,192,184496,1,0,0:0:0:0:
182,192,184496,1,0,0:0:0:0:
475,192,184496,1,0,0:0:0:0:
256,192,184563,1,0,0:0:0:0:
329,192,184563,1,0,0:0:0:0:
402,192,184631,1,0,0:0:0:0:
475,192,184631,1,0,0:0:0:0:
109,192,184631,1,0,0:0:0:0:
36,192,184631,1,0,0:0:0:0:
256,192,184699,1,0,0:0:0:0:
182,192,184699,1,0,0:0:0:0:
402,192,184766,1,0,0:0:0:0:
475,192,184766,1,0,0:0:0:0:
109,192,184766,1,0,0:0:0:0:
36,192,184766,1,0,0:0:0:0:
475,192,184901,1,0,0:0:0:0:
36,192,184901,1,0,0:0:0:0:
256,192,184901,1,0,0:0:0:0:
329,192,184969,1,0,0:0:0:0:
402,192,184969,1,0,0:0:0:0:
182,192,184969,1,0,0:0:0:0:
109,192,184969,1,0,0:0:0:0:
475,192,185036,1,0,0:0:0:0:
36,192,185036,1,0,0:0:0:0:
256,192,185036,1,0,0:0:0:0:
329,192,185104,1,0,0:0:0:0:
182,192,185104,1,0,0:0:0:0:
402,192,185172,1,0,0:0:0:0:
475,192,185172,1,0,0:0:0:0:
109,192,185172,1,0,0:0:0:0:
36,192,185172,1,0,0:0:0:0:
402,192,185307,1,0,0:0:0:0:
475,192,185307,1,0,0:0:0:0:
109,192,185307,1,0,0:0:0:0:
36,192,185307,1,0,0:0:0:0:
256,192,185374,1,0,0:0:0:0:
329,192,185374,1,0,0:0:0:0:
36,192,185442,1,0,0:0:0:0:
109,192,185442,1,0,0:0:0:0:
182,192,185442,1,0,0:0:0:0:
475,192,185509,1,0,0:0:0:0:
402,192,185509,1,0,0:0:0:0:
329,192,185509,1,0,0:0:0:0:
256,192,185577,1,0,0:0:0:0:
109,192,185577,1,0,0:0:0:0:
36,192,185577,1,0,0:0:0:0:
109,192,185712,1,0,0:0:0:0:
182,192,185712,1,0,0:0:0:0:
329,192,185712,1,0,0:0:0:0:
256,192,185780,1,0,0:0:0:0:
402,192,185780,1,0,0:0:0:0:
36,192,185847,1,0,0:0:0:0:
109,192,185847,1,0,0:0:0:0:
329,192,185847,1,0,0:0:0:0:
475,192,185847,1,0,0:0:0:0:
256,192,185915,1,0,0:0:0:0:
182,192,185915,1,0,0:0:0:0:
475,192,185982,1,0,0:0:0:0:
402,192,185982,1,0,0:0:0:0:
329,192,185982,1,0,0:0:0:0:
36,192,186050,1,0,0:0:0:0:
109,192,186050,1,0,0:0:0:0:
182,192,186050,1,0,0:0:0:0:
402,192,186118,1,0,0:0:0:0:
475,192,186118,1,0,0:0:0:0:
256,192,186118,1,0,0:0:0:0:
36,192,186253,1,0,0:0:0:0:
182,192,186253,1,0,0:0:0:0:
329,192,186253,1,0,0:0:0:0:
475,192,186388,1,0,0:0:0:0:
182,192,186388,1,0,0:0:0:0:
256,192,186388,1,0,0:0:0:0:
402,192,186388,1,0,0:0:0:0:
475,192,186455,1,0,0:0:0:0:
402,192,186455,1,0,0:0:0:0:
109,192,186523,1,0,0:0:0:0:
36,192,186523,1,0,0:0:0:0:
256,192,186523,1,0,0:0:0:0:
329,192,186523,1,0,0:0:0:0:
36,192,186590,1,0,0:0:0:0:
109,192,186590,1,0,0:0:0:0:
402,192,186658,1,0,0:0:0:0:
475,192,186658,1,0,0:0:0:0:
256,192,186658,1,0,0:0:0:0:
402,192,186726,1,0,0:0:0:0:
109,192,186793,1,0,0:0:0:0:
329,192,186793,1,0,0:0:0:0:
182,192,186793,1,0,0:0:0:0:
182,192,186861,1,0,0:0:0:0:
475,192,186928,1,0,0:0:0:0:
402,192,186928,1,0,0:0:0:0:
329,192,186928,1,0,0:0:0:0:
36,192,186996,1,0,0:0:0:0:
109,192,186996,1,0,0:0:0:0:
402,192,187063,1,0,0:0:0:0:
329,192,187063,1,0,0:0:0:0:
36,192,187131,1,0,0:0:0:0:
109,192,187131,1,0,0:0:0:0:
475,192,187199,1,0,0:0:0:0:
402,192,187199,1,0,0:0:0:0:
256,192,187199,1,0,0:0:0:0:
475,192,187266,1,0,0:0:0:0:
402,192,187266,1,0,0:0:0:0:
256,192,187334,1,0,0:0:0:0:
36,192,187334,1,0,0:0:0:0:
182,192,187334,1,0,0:0:0:0:
182,192,187401,1,0,0:0:0:0:
36,192,187401,1,0,0:0:0:0:
256,192,187469,1,0,0:0:0:0:
329,192,187469,1,0,0:0:0:0:
109,192,187536,1,0,0:0:0:0:
182,192,187536,1,0,0:0:0:0:
475,192,187604,1,0,0:0:0:0:
402,192,187604,1,0,0:0:0:0:
329,192,187604,1,0,0:0:0:0:
109,192,187672,1,0,0:0:0:0:
182,192,187672,1,0,0:0:0:0:
402,192,187739,1,0,0:0:0:0:
329,192,187739,1,0,0:0:0:0:
475,192,187739,1,0,0:0:0:0:
36,192,187739,1,0,0:0:0:0:
256,192,187739,1,0,0:0:0:0:
256,192,187874,1,0,0:0:0:0:
402,192,187874,1,0,0:0:0:0:
36,192,187874,1,0,0:0:0:0:
475,192,187874,1,0,0:0:0:0:
402,192,188009,1,0,0:0:0:0:
475,192,188009,1,0,0:0:0:0:
256,192,188009,1,0,0:0:0:0:
36,192,188009,1,0,0:0:0:0:
182,192,188077,1,0,0:0:0:0:
329,192,188077,1,0,0:0:0:0:
402,192,188145,1,0,0:0:0:0:
475,192,188145,1,0,0:0:0:0:
36,192,188145,1,0,0:0:0:0:
256,192,188145,1,0,0:0:0:0:
109,192,188145,1,0,0:0:0:0:
329,192,188280,1,0,0:0:0:0:
475,192,188280,1,0,0:0:0:0:
182,192,188280,1,0,0:0:0:0:
36,192,188280,1,0,0:0:0:0:
109,192,188347,1,0,0:0:0:0:
256,192,188347,1,0,0:0:0:0:
402,192,188347,1,0,0:0:0:0:
329,192,188415,1,0,0:0:0:0:
475,192,188415,1,0,0:0:0:0:
182,192,188415,1,0,0:0:0:0:
36,192,188415,1,0,0:0:0:0:
109,192,188482,1,0,0:0:0:0:
256,192,188482,1,0,0:0:0:0:
402,192,188482,1,0,0:0:0:0:
329,192,188550,1,0,0:0:0:0:
475,192,188550,1,0,0:0:0:0:
182,192,188550,1,0,0:0:0:0:
36,192,188550,1,0,0:0:0:0:
109,192,188685,1,0,0:0:0:0:
475,192,188685,1,0,0:0:0:0:
329,192,188685,1,0,0:0:0:0:
182,192,188753,1,0,0:0:0:0:
475,192,188753,1,0,0:0:0:0:
402,192,188820,1,0,0:0:0:0:
256,192,188820,1,0,0:0:0:0:
36,192,188820,1,0,0:0:0:0:
329,192,188955,1,0,0:0:0:0:
109,192,188955,1,0,0:0:0:0:
402,192,189023,1,0,0:0:0:0:
256,192,189090,1,0,0:0:0:0:
109,192,189090,1,0,0:0:0:0:
475,192,189090,1,0,0:0:0:0:
36,192,189090,1,0,0:0:0:0:
182,192,189090,1,0,0:0:0:0:
402,192,189158,1,0,0:0:0:0:
182,192,189226,1,0,0:0:0:0:
329,192,189226,1,0,0:0:0:0:
475,192,189361,1,0,0:0:0:0:
109,192,189361,1,0,0:0:0:0:
402,192,189361,1,0,0:0:0:0:
182,192,189361,1,0,0:0:0:0:
256,192,189361,1,0,0:0:0:0:
36,192,189428,1,0,0:0:0:0:
402,192,189496,1,0,0:0:0:0:
475,192,189496,1,0,0:0:0:0:
256,192,189496,1,0,0:0:0:0:
109,192,189496,1,0,0:0:0:0:
182,192,189496,1,0,0:0:0:0:
36,192,189563,1,0,0:0:0:0:
256,192,189631,1,0,0:0:0:0:
329,192,189631,1,0,0:0:0:0:
109,192,189631,1,0,0:0:0:0:
182,192,189631,1,0,0:0:0:0:
475,192,189699,1,0,0:0:0:0:
402,192,189699,1,0,0:0:0:0:
36,192,189766,1,0,0:0:0:0:
109,192,189766,1,0,0:0:0:0:
182,192,189766,1,0,0:0:0:0:
329,192,189834,1,0,0:0:0:0:
256,192,189834,1,0,0:0:0:0:
109,192,189901,1,0,0:0:0:0:
36,192,189901,1,0,0:0:0:0:
182,192,189901,1,0,0:0:0:0:
402,192,189901,1,0,0:0:0:0:
475,192,189901,1,0,0:0:0:0:
256,192,190036,1,0,0:0:0:0:
256,192,190104,1,0,0:0:0:0:
402,192,190172,1,0,0:0:0:0:
475,192,190172,1,0,0:0:0:0:
182,192,190172,1,0,0:0:0:0:
36,192,190172,1,0,0:0:0:0:
36,192,190307,1,0,0:0:0:0:
109,192,190307,1,0,0:0:0:0:
256,192,190307,1,0,0:0:0:0:
256,192,190374,1,0,0:0:0:0:
475,192,190442,1,0,0:0:0:0:
329,192,190442,1,0,0:0:0:0:
109,192,190442,1,0,0:0:0:0:
36,192,190442,1,0,0:0:0:0:
402,192,190577,1,0,0:0:0:0:
475,192,190577,1,0,0:0:0:0:
182,192,190577,1,0,0:0:0:0:
256,192,190577,1,0,0:0:0:0:
36,192,190712,1,0,0:0:0:0:
109,192,190712,1,0,0:0:0:0:
182,192,190712,1,0,0:0:0:0:
329,192,190712,1,0,0:0:0:0:
475,192,190847,1,0,0:0:0:0:
402,192,190847,1,0,0:0:0:0:
256,192,190847,1,0,0:0:0:0:
256,192,190915,1,0,0:0:0:0:
329,192,190982,1,0,0:0:0:0:
475,192,190982,1,0,0:0:0:0:
182,192,190982,1,0,0:0:0:0:
36,192,190982,1,0,0:0:0:0:
109,192,190982,1,0,0:0:0:0:
109,192,191118,1,0,0:0:0:0:
36,192,191118,1,0,0:0:0:0:
475,192,191118,1,0,0:0:0:0:
182,192,191118,1,0,0:0:0:0:
329,192,191118,1,0,0:0:0:0:
109,192,191253,1,0,0:0:0:0:
36,192,191253,1,0,0:0:0:0:
475,192,191253,1,0,0:0:0:0:
329,192,191253,1,0,0:0:0:0:
182,192,191253,1,0,0:0:0:0:
475,192,191388,1,0,0:0:0:0:
109,192,191388,1,0,0:0:0:0:
329,192,191388,1,0,0:0:0:0:
36,192,191388,1,0,0:0:0:0:
182,192,191388,1,0,0:0:0:0:
402,192,191455,1,0,0:0:0:0:
256,192,191455,1,0,0:0:0:0:
109,192,191523,1,0,0:0:0:0:
329,192,191523,1,0,0:0:0:0:
475,192,191523,1,0,0:0:0:0:
182,192,191590,1,0,0:0:0:0:
402,192,191658,1,0,0:0:0:0:
109,192,191658,1,0,0:0:0:0:
329,192,191726,1,0,0:0:0:0:
182,192,191726,1,0,0:0:0:0:
256,192,191793,1,0,0:0:0:0:
475,192,191793,1,0,0:0:0:0:
36,192,191793,1,0,0:0:0:0:
182,192,191928,1,0,0:0:0:0:
329,192,191928,1,0,0:0:0:0:
36,192,191928,1,0,0:0:0:0:
475,192,191928,1,0,0:0:0:0:
109,192,191996,1,0,0:0:0:0:
256,192,191996,1,0,0:0:0:0:
182,192,192063,1,0,0:0:0:0:
36,192,192063,1,0,0:0:0:0:
329,192,192063,1,0,0:0:0:0:
475,192,192063,1,0,0:0:0:0:
475,192,192199,1,0,0:0:0:0:
329,192,192199,1,0,0:0:0:0:
182,192,192199,1,0,0:0:0:0:
36,192,192334,1,0,0:0:0:0:
109,192,192334,1,0,0:0:0:0:
402,192,192334,1,0,0:0:0:0:
256,192,192334,1,0,0:0:0:0:
475,192,192401,1,0,0:0:0:0:
402,192,192469,1,0,0:0:0:0:
109,192,192469,1,0,0:0:0:0:
36,192,192469,1,0,0:0:0:0:
256,192,192469,1,0,0:0:0:0:
475,192,192536,1,0,0:0:0:0:
109,192,192604,1,0,0:0:0:0:
182,192,192604,1,0,0:0:0:0:
329,192,192604,1,0,0:0:0:0:
109,192,192739,1,0,0:0:0:0:
402,192,192739,1,0,0:0:0:0:
182,192,192739,1,0,0:0:0:0:
329,192,192739,1,0,0:0:0:0:
329,192,192874,1,0,0:0:0:0:
475,192,192874,1,0,0:0:0:0:
36,192,192874,1,0,0:0:0:0:
182,192,192874,1,0,0:0:0:0:
109,192,192919,1,0,0:0:0:0:
402,192,192942,1,0,0:0:0:0:
256,192,192964,1,0,0:0:0:0:
36,192,192976,1,0,0:0:0:0:
475,192,193009,1,0,0:0:0:0:
329,192,193009,1,0,0:0:0:0:
182,192,193009,1,0,0:0:0:0:
182,192,193145,1,0,0:0:0:0:
109,192,193145,1,0,0:0:0:0:
329,192,193145,1,0,0:0:0:0:
36,192,193145,1,0,0:0:0:0:
475,192,193145,1,0,0:0:0:0:
256,192,193280,1,0,0:0:0:0:
36,192,193280,1,0,0:0:0:0:
402,192,193280,1,0,0:0:0:0:
109,192,193280,1,0,0:0:0:0:
402,192,193415,1,0,0:0:0:0:
475,192,193415,1,0,0:0:0:0:
182,192,193415,1,0,0:0:0:0:
329,192,193415,1,0,0:0:0:0:
329,192,193550,1,0,0:0:0:0:
475,192,193550,1,0,0:0:0:0:
182,192,193550,1,0,0:0:0:0:
109,192,193550,1,0,0:0:0:0:
36,192,193550,1,0,0:0:0:0:
256,192,193685,1,0,0:0:0:0:
109,192,193685,1,0,0:0:0:0:
402,192,193685,1,0,0:0:0:0:
36,192,193685,1,0,0:0:0:0:
329,192,193820,1,0,0:0:0:0:
475,192,193820,1,0,0:0:0:0:
402,192,193820,1,0,0:0:0:0:
182,192,193820,1,0,0:0:0:0:
109,192,193955,1,0,0:0:0:0:
36,192,193955,1,0,0:0:0:0:
182,192,193955,1,0,0:0:0:0:
475,192,193955,1,0,0:0:0:0:
329,192,193955,1,0,0:0:0:0:
256,192,194090,1,0,0:0:0:0:
402,192,194090,1,0,0:0:0:0:
36,192,194090,1,0,0:0:0:0:
109,192,194090,1,0,0:0:0:0:
329,192,194226,1,0,0:0:0:0:
475,192,194226,1,0,0:0:0:0:
182,192,194226,1,0,0:0:0:0:
36,192,194226,1,0,0:0:0:0:
256,192,194361,1,0,0:0:0:0:
402,192,194361,1,0,0:0:0:0:
36,192,194361,1,0,0:0:0:0:
109,192,194361,1,0,0:0:0:0:
402,192,194496,1,0,0:0:0:0:
475,192,194496,1,0,0:0:0:0:
109,192,194496,1,0,0:0:0:0:
256,192,194496,1,0,0:0:0:0:
329,192,194631,1,0,0:0:0:0:
402,192,194631,1,0,0:0:0:0:
182,192,194631,1,0,0:0:0:0:
36,192,194631,1,0,0:0:0:0:
256,192,194699,1,0,0:0:0:0:
109,192,194766,1,0,0:0:0:0:
329,192,194766,1,0,0:0:0:0:
475,192,194766,1,0,0:0:0:0:
182,192,194766,1,0,0:0:0:0:
256,192,194834,1,0,0:0:0:0:
402,192,194901,1,0,0:0:0:0:
109,192,194901,1,0,0:0:0:0:
36,192,194901,1,0,0:0:0:0:
256,192,194969,1,0,0:0:0:0:
475,192,195036,1,0,0:0:0:0:
329,192,195036,1,0,0:0:0:0:
182,192,195036,1,0,0:0:0:0:
36,192,195036,1,0,0:0:0:0:
402,192,195307,1,0,0:0:0:0:
109,192,195307,1,0,0:0:0:0:
36,192,195307,1,0,0:0:0:0:
475,192,195307,1,0,0:0:0:0:
256,192,195307,1,0,0:0:0:0:
182,192,195374,1,0,0:0:0:0:
329,192,195442,1,0,0:0:0:0:
109,192,195442,1,0,0:0:0:0:
256,192,195509,1,0,0:0:0:0:
36,192,195577,1,0,0:0:0:0:
182,192,195577,1,0,0:0:0:0:
402,192,195577,1,0,0:0:0:0:
475,192,195577,1,0,0:0:0:0:
256,192,195645,1,0,0:0:0:0:
109,192,195712,1,0,0:0:0:0:
402,192,195712,1,0,0:0:0:0:
329,192,195712,1,0,0:0:0:0:
182,192,195780,1,0,0:0:0:0:
256,192,195780,1,0,0:0:0:0:
109,192,195847,1,0,0:0:0:0:
36,192,195847,1,0,0:0:0:0:
402,192,195847,1,0,0:0:0:0:
329,192,195847,1,0,0:0:0:0:
182,192,195915,1,0,0:0:0:0:
402,192,195982,1,0,0:0:0:0:
256,192,195982,1,0,0:0:0:0:
109,192,195982,1,0,0:0:0:0:
475,192,195982,1,0,0:0:0:0:
182,192,196050,1,0,0:0:0:0:
36,192,196118,1,0,0:0:0:0:
256,192,196118,1,0,0:0:0:0:
329,192,196118,1,0,0:0:0:0:
402,192,196118,1,0,0:0:0:0:
182,192,196185,1,0,0:0:0:0:
109,192,196185,1,0,0:0:0:0:
256,192,196253,1,0,0:0:0:0:
475,192,196253,1,0,0:0:0:0:
36,192,196253,1,0,0:0:0:0:
402,192,196320,1,0,0:0:0:0:
182,192,196320,1,0,0:0:0:0:
36,192,196388,1,0,0:0:0:0:
475,192,196388,1,0,0:0:0:0:
109,192,196388,1,0,0:0:0:0:
329,192,196455,1,0,0:0:0:0:
182,192,196455,1,0,0:0:0:0:
256,192,196523,1,0,0:0:0:0:
402,192,196523,1,0,0:0:0:0:
109,192,196590,1,0,0:0:0:0:
329,192,196590,1,0,0:0:0:0:
256,192,196658,1,0,0:0:0:0:
36,192,196658,1,0,0:0:0:0:
182,192,196658,1,0,0:0:0:0:
402,192,196658,1,0,0:0:0:0:
475,192,196726,1,0,0:0:0:0:
109,192,196793,1,0,0:0:0:0:
182,192,196793,1,0,0:0:0:0:
329,192,196793,1,0,0:0:0:0:
402,192,196861,1,0,0:0:0:0:
36,192,196928,1,0,0:0:0:0:
182,192,196928,1,0,0:0:0:0:
329,192,196928,1,0,0:0:0:0:
109,192,196996,1,0,0:0:0:0:
475,192,197063,1,0,0:0:0:0:
402,192,197063,1,0,0:0:0:0:
256,192,197063,1,0,0:0:0:0:
36,192,197131,1,0,0:0:0:0:
182,192,197131,1,0,0:0:0:0:
475,192,197199,1,0,0:0:0:0:
109,192,197199,1,0,0:0:0:0:
256,192,197199,1,0,0:0:0:0:
402,192,197199,1,0,0:0:0:0:
329,192,197266,1,0,0:0:0:0:
402,192,197334,1,0,0:0:0:0:
109,192,197334,1,0,0:0:0:0:
256,192,197334,1,0,0:0:0:0:
475,192,197334,1,0,0:0:0:0:
36,192,197401,1,0,0:0:0:0:
329,192,197401,1,0,0:0:0:0:
182,192,197401,1,0,0:0:0:0:
475,192,197469,1,0,0:0:0:0:
109,192,197469,1,0,0:0:0:0:
256,192,197469,1,0,0:0:0:0:
402,192,197469,1,0,0:0:0:0:
182,192,197536,1,0,0:0:0:0:
109,192,197604,1,0,0:0:0:0:
329,192,197604,1,0,0:0:0:0:
36,192,197604,1,0,0:0:0:0:
182,192,197672,1,0,0:0:0:0:
402,192,197739,1,0,0:0:0:0:
256,192,197739,1,0,0:0:0:0:
36,192,197739,1,0,0:0:0:0:
475,192,197739,1,0,0:0:0:0:
182,192,197807,1,0,0:0:0:0:
109,192,197874,1,0,0:0:0:0:
329,192,197874,1,0,0:0:0:0:
36,192,197874,1,0,0:0:0:0:
182,192,197942,1,0,0:0:0:0:
402,192,197942,1,0,0:0:0:0:
36,192,198009,1,0,0:0:0:0:
475,192,198009,1,0,0:0:0:0:
256,192,198009,1,0,0:0:0:0:
329,192,198077,1,0,0:0:0:0:
182,192,198077,1,0,0:0:0:0:
109,192,198145,1,0,0:0:0:0:
402,192,198145,1,0,0:0:0:0:
256,192,198212,1,0,0:0:0:0:
329,192,198212,1,0,0:0:0:0:
182,192,198280,1,0,0:0:0:0:
36,192,198280,1,0,0:0:0:0:
402,192,198280,1,0,0:0:0:0:
475,192,198280,1,0,0:0:0:0:
256,192,198347,1,0,0:0:0:0:
329,192,198347,1,0,0:0:0:0:
182,192,198415,1,0,0:0:0:0:
402,192,198415,1,0,0:0:0:0:
109,192,198482,1,0,0:0:0:0:
329,192,198482,1,0,0:0:0:0:
36,192,198550,1,0,0:0:0:0:
182,192,198550,1,0,0:0:0:0:
256,192,198550,1,0,0:0:0:0:
475,192,198550,1,0,0:0:0:0:
109,192,198618,1,0,0:0:0:0:
402,192,198685,1,0,0:0:0:0:
256,192,198685,1,0,0:0:0:0:
36,192,198685,1,0,0:0:0:0:
329,192,198685,1,0,0:0:0:0:
109,192,198753,1,0,0:0:0:0:
475,192,198820,1,0,0:0:0:0:
182,192,198820,1,0,0:0:0:0:
36,192,198820,1,0,0:0:0:0:
329,192,198820,1,0,0:0:0:0:
109,192,198888,1,0,0:0:0:0:
256,192,198955,1,0,0:0:0:0:
475,192,198955,1,0,0:0:0:0:
36,192,198955,1,0,0:0:0:0:
402,192,198955,1,0,0:0:0:0:
109,192,199023,1,0,0:0:0:0:
182,192,199090,1,0,0:0:0:0:
329,192,199090,1,0,0:0:0:0:
402,192,199158,1,0,0:0:0:0:
256,192,199226,1,0,0:0:0:0:
109,192,199226,1,0,0:0:0:0:
475,192,199226,1,0,0:0:0:0:
36,192,199293,1,0,0:0:0:0:
182,192,199293,1,0,0:0:0:0:
402,192,199293,1,0,0:0:0:0:
329,192,199361,1,0,0:0:0:0:
109,192,199361,1,0,0:0:0:0:
256,192,199361,1,0,0:0:0:0:
182,192,199428,1,0,0:0:0:0:
402,192,199428,1,0,0:0:0:0:
36,192,199496,1,0,0:0:0:0:
475,192,199496,1,0,0:0:0:0:
329,192,199496,1,0,0:0:0:0:
109,192,199496,1,0,0:0:0:0:
256,192,199563,1,0,0:0:0:0:
182,192,199563,1,0,0:0:0:0:
402,192,199563,1,0,0:0:0:0:
36,192,199631,1,0,0:0:0:0:
329,192,199631,1,0,0:0:0:0:
475,192,199631,1,0,0:0:0:0:
109,192,199631,1,0,0:0:0:0:
256,192,199699,1,0,0:0:0:0:
36,192,199766,1,0,0:0:0:0:
402,192,199766,1,0,0:0:0:0:
182,192,199766,1,0,0:0:0:0:
475,192,199834,1,0,0:0:0:0:
256,192,199834,1,0,0:0:0:0:
36,192,199901,1,0,0:0:0:0:
402,192,199901,1,0,0:0:0:0:
329,192,199901,1,0,0:0:0:0:
109,192,199901,1,0,0:0:0:0:
256,192,199969,1,0,0:0:0:0:
402,192,200036,1,0,0:0:0:0:
475,192,200036,1,0,0:0:0:0:
182,192,200036,1,0,0:0:0:0:
329,192,200104,1,0,0:0:0:0:
109,192,200104,1,0,0:0:0:0:
475,192,200172,1,0,0:0:0:0:
402,192,200172,1,0,0:0:0:0:
36,192,200172,1,0,0:0:0:0:
329,192,200239,1,0,0:0:0:0:
109,192,200239,1,0,0:0:0:0:
256,192,200307,1,0,0:0:0:0:
36,192,200307,1,0,0:0:0:0:
182,192,200307,1,0,0:0:0:0:
475,192,200307,1,0,0:0:0:0:
402,192,200374,1,0,0:0:0:0:
109,192,200374,1,0,0:0:0:0:
256,192,200442,1,0,0:0:0:0:
329,192,200442,1,0,0:0:0:0:
36,192,200442,1,0,0:0:0:0:
402,192,200509,1,0,0:0:0:0:
109,192,200509,1,0,0:0:0:0:
475,192,200577,1,0,0:0:0:0:
182,192,200577,1,0,0:0:0:0:
402,192,200645,1,0,0:0:0:0:
256,192,200645,1,0,0:0:0:0:
36,192,200712,1,0,0:0:0:0:
475,192,200712,1,0,0:0:0:0:
329,192,200712,1,0,0:0:0:0:
109,192,200712,1,0,0:0:0:0:
256,192,200780,1,0,0:0:0:0:
402,192,200847,1,0,0:0:0:0:
182,192,200847,1,0,0:0:0:0:
36,192,200915,1,0,0:0:0:0:
256,192,200915,1,0,0:0:0:0:
402,192,200982,1,0,0:0:0:0:
109,192,200982,1,0,0:0:0:0:
329,192,200982,1,0,0:0:0:0:
475,192,201050,1,0,0:0:0:0:
36,192,201050,1,0,0:0:0:0:
256,192,201050,1,0,0:0:0:0:
402,192,201118,1,0,0:0:0:0:
182,192,201118,1,0,0:0:0:0:
475,192,201185,1,0,0:0:0:0:
256,192,201185,1,0,0:0:0:0:
36,192,201253,1,0,0:0:0:0:
109,192,201253,1,0,0:0:0:0:
329,192,201253,1,0,0:0:0:0:
182,192,201320,1,0,0:0:0:0:
402,192,201320,1,0,0:0:0:0:
36,192,201388,1,0,0:0:0:0:
256,192,201388,1,0,0:0:0:0:
475,192,201388,1,0,0:0:0:0:
402,192,201455,1,0,0:0:0:0:
36,192,201523,1,0,0:0:0:0:
109,192,201523,1,0,0:0:0:0:
329,192,201523,1,0,0:0:0:0:
182,192,201590,1,0,0:0:0:0:
402,192,201590,1,0,0:0:0:0:
36,192,201658,1,0,0:0:0:0:
256,192,201658,1,0,0:0:0:0:
475,192,201658,1,0,0:0:0:0:
182,192,201726,1,0,0:0:0:0:
402,192,201726,1,0,0:0:0:0:
36,192,201793,1,0,0:0:0:0:
109,192,201793,1,0,0:0:0:0:
329,192,201793,1,0,0:0:0:0:
475,192,201861,1,0,0:0:0:0:
182,192,201861,1,0,0:0:0:0:
329,192,201928,1,0,0:0:0:0:
402,192,201996,1,0,0:0:0:0:
182,192,201996,1,0,0:0:0:0:
475,192,202063,1,0,0:0:0:0:
36,192,202063,1,0,0:0:0:0:
329,192,202063,1,0,0:0:0:0:
109,192,202063,1,0,0:0:0:0:
182,192,202131,1,0,0:0:0:0:
402,192,202199,1,0,0:0:0:0:
329,192,202199,1,0,0:0:0:0:
36,192,202266,1,0,0:0:0:0:
182,192,202266,1,0,0:0:0:0:
475,192,202334,1,0,0:0:0:0:
256,192,202334,1,0,0:0:0:0:
402,192,202334,1,0,0:0:0:0:
329,192,202401,1,0,0:0:0:0:
109,192,202401,1,0,0:0:0:0:
182,192,202469,1,0,0:0:0:0:
402,192,202469,1,0,0:0:0:0:
329,192,202536,1,0,0:0:0:0:
109,192,202536,1,0,0:0:0:0:
36,192,202604,1,0,0:0:0:0:
475,192,202604,1,0,0:0:0:0:
402,192,202604,1,0,0:0:0:0:
256,192,202604,1,0,0:0:0:0:
109,192,202672,1,0,0:0:0:0:
182,192,202739,1,0,0:0:0:0:
402,192,202739,1,0,0:0:0:0:
329,192,202807,1,0,0:0:0:0:
109,192,202807,1,0,0:0:0:0:
182,192,202874,1,0,0:0:0:0:
256,192,202874,1,0,0:0:0:0:
475,192,202874,1,0,0:0:0:0:
402,192,202942,1,0,0:0:0:0:
36,192,202942,1,0,0:0:0:0:
329,192,203009,1,0,0:0:0:0:
109,192,203009,1,0,0:0:0:0:
475,192,203009,1,0,0:0:0:0:
182,192,203077,1,0,0:0:0:0:
36,192,203077,1,0,0:0:0:0:
402,192,203145,1,0,0:0:0:0:
256,192,203145,1,0,0:0:0:0:
475,192,203145,1,0,0:0:0:0:
329,192,203212,1,0,0:0:0:0:
36,192,203212,1,0,0:0:0:0:
182,192,203280,1,0,0:0:0:0:
475,192,203280,1,0,0:0:0:0:
256,192,203347,1,0,0:0:0:0:
36,192,203347,1,0,0:0:0:0:
109,192,203415,1,0,0:0:0:0:
329,192,203415,1,0,0:0:0:0:
402,192,203482,1,0,0:0:0:0:
475,192,203550,1,0,0:0:0:0:
36,192,203550,1,0,0:0:0:0:
329,192,203550,1,0,0:0:0:0:
182,192,203550,1,0,0:0:0:0:
256,192,203618,1,0,0:0:0:0:
109,192,203618,1,0,0:0:0:0:
475,192,203685,1,0,0:0:0:0:
329,192,203685,1,0,0:0:0:0:
182,192,203685,1,0,0:0:0:0:
36,192,203753,1,0,0:0:0:0:
109,192,203753,1,0,0:0:0:0:
402,192,203753,1,0,0:0:0:0:
182,192,203820,1,0,0:0:0:0:
329,192,203820,1,0,0:0:0:0:
256,192,203888,1,0,0:0:0:0:
402,192,203888,1,0,0:0:0:0:
109,192,203888,1,0,0:0:0:0:
329,192,203955,1,0,0:0:0:0:
182,192,203955,1,0,0:0:0:0:
36,192,203955,1,0,0:0:0:0:
475,192,203955,1,0,0:0:0:0:
256,192,204023,1,0,0:0:0:0:
109,192,204090,1,0,0:0:0:0:
402,192,204090,1,0,0:0:0:0:
329,192,204158,1,0,0:0:0:0:
109,192,204226,1,0,0:0:0:0:
36,192,204226,1,0,0:0:0:0:
402,192,204226,1,0,0:0:0:0:
256,192,204226,1,0,0:0:0:0:
182,192,204293,1,0,0:0:0:0:
475,192,204293,1,0,0:0:0:0:
109,192,204361,1,0,0:0:0:0:
402,192,204361,1,0,0:0:0:0:
256,192,204428,1,0,0:0:0:0:
329,192,204428,1,0,0:0:0:0:
36,192,204496,1,0,0:0:0:0:
182,192,204496,1,0,0:0:0:0:
402,192,204496,1,0,0:0:0:0:
109,192,204496,1,0,0:0:0:0:
256,192,204563,1,0,0:0:0:0:
475,192,204563,1,0,0:0:0:0:
36,192,204631,1,0,0:0:0:0:
182,192,204631,1,0,0:0:0:0:
402,192,204631,1,0,0:0:0:0:
109,192,204699,1,0,0:0:0:0:
329,192,204699,1,0,0:0:0:0:
36,192,204766,1,0,0:0:0:0:
475,192,204766,1,0,0:0:0:0:
256,192,204766,1,0,0:0:0:0:
329,192,204834,1,0,0:0:0:0:
109,192,204901,1,0,0:0:0:0:
402,192,204901,1,0,0:0:0:0:
256,192,204901,1,0,0:0:0:0:
475,192,204969,1,0,0:0:0:0:
329,192,204969,1,0,0:0:0:0:
36,192,205036,1,0,0:0:0:0:
402,192,205036,1,0,0:0:0:0:
182,192,205036,1,0,0:0:0:0:
109,192,205104,1,0,0:0:0:0:
256,192,205104,1,0,0:0:0:0:
329,192,205172,1,0,0:0:0:0:
475,192,205172,1,0,0:0:0:0:
182,192,205172,1,0,0:0:0:0:
402,192,205239,1,0,0:0:0:0:
256,192,205239,1,0,0:0:0:0:
36,192,205307,1,0,0:0:0:0:
329,192,205307,1,0,0:0:0:0:
182,192,205307,1,0,0:0:0:0:
475,192,205307,1,0,0:0:0:0:
109,192,205374,1,0,0:0:0:0:
329,192,205442,1,0,0:0:0:0:
36,192,205442,1,0,0:0:0:0:
402,192,205509,1,0,0:0:0:0:
109,192,205509,1,0,0:0:0:0:
256,192,205577,1,0,0:0:0:0:
329,192,205577,1,0,0:0:0:0:
182,192,205577,1,0,0:0:0:0:
475,192,205645,1,0,0:0:0:0:
109,192,205645,1,0,0:0:0:0:
256,192,205712,1,0,0:0:0:0:
402,192,205712,1,0,0:0:0:0:
36,192,205712,1,0,0:0:0:0:
329,192,205780,1,0,0:0:0:0:
475,192,205780,1,0,0:0:0:0:
109,192,205780,1,0,0:0:0:0:
256,192,205847,1,0,0:0:0:0:
402,192,205847,1,0,0:0:0:0:
182,192,205847,1,0,0:0:0:0:
109,192,205915,1,0,0:0:0:0:
402,192,205982,1,0,0:0:0:0:
475,192,205982,1,0,0:0:0:0:
36,192,205982,1,0,0:0:0:0:
256,192,206050,1,0,0:0:0:0:
329,192,206050,1,0,0:0:0:0:
109,192,206050,1,0,0:0:0:0:
475,192,206118,1,0,0:0:0:0:
402,192,206118,1,0,0:0:0:0:
182,192,206118,1,0,0:0:0:0:
329,192,206185,1,0,0:0:0:0:
109,192,206253,1,0,0:0:0:0:
36,192,206253,1,0,0:0:0:0:
182,192,206253,1,0,0:0:0:0:
329,192,206320,1,0,0:0:0:0:
109,192,206388,1,0,0:0:0:0:
36,192,206388,1,0,0:0:0:0:
402,192,206388,1,0,0:0:0:0:
256,192,206388,1,0,0:0:0:0:
182,192,206455,1,0,0:0:0:0:
475,192,206455,1,0,0:0:0:0:
109,192,206523,1,0,0:0:0:0:
402,192,206523,1,0,0:0:0:0:
182,192,206590,1,0,0:0:0:0:
475,192,206590,1,0,0:0:0:0:
36,192,206658,1,0,0:0:0:0:
109,192,206658,1,0,0:0:0:0:
329,192,206658,1,0,0:0:0:0:
182,192,206726,1,0,0:0:0:0:
402,192,206726,1,0,0:0:0:0:
109,192,206793,1,0,0:0:0:0:
329,192,206793,1,0,0:0:0:0:
36,192,206861,1,0,0:0:0:0:
402,192,206861,1,0,0:0:0:0:
182,192,206928,1,0,0:0:0:0:
475,192,206928,1,0,0:0:0:0:
256,192,206928,1,0,0:0:0:0:
109,192,206996,1,0,0:0:0:0:
329,192,206996,1,0,0:0:0:0:
36,192,207063,1,0,0:0:0:0:
256,192,207063,1,0,0:0:0:0:
109,192,207131,1,0,0:0:0:0:
329,192,207131,1,0,0:0:0:0:
402,192,207199,1,0,0:0:0:0:
475,192,207199,1,0,0:0:0:0:
182,192,207199,1,0,0:0:0:0:
256,192,207266,1,0,0:0:0:0:
402,192,207334,1,0,0:0:0:0:
475,192,207334,1,0,0:0:0:0:
182,192,207334,1,0,0:0:0:0:
256,192,207401,1,0,0:0:0:0:
329,192,207469,1,0,0:0:0:0:
475,192,207469,1,0,0:0:0:0:
109,192,207469,1,0,0:0:0:0:
402,192,207536,1,0,0:0:0:0:
182,192,207536,1,0,0:0:0:0:
329,192,207604,1,0,0:0:0:0:
109,192,207604,1,0,0:0:0:0:
475,192,207672,1,0,0:0:0:0:
182,192,207672,1,0,0:0:0:0:
256,192,207739,1,0,0:0:0:0:
402,192,207739,1,0,0:0:0:0:
36,192,207739,1,0,0:0:0:0:
109,192,207807,1,0,0:0:0:0:
329,192,207874,1,0,0:0:0:0:
475,192,207874,1,0,0:0:0:0:
36,192,207874,1,0,0:0:0:0:
182,192,207942,1,0,0:0:0:0:
256,192,207942,1,0,0:0:0:0:
109,192,207942,1,0,0:0:0:0:
329,192,208009,1,0,0:0:0:0:
475,192,208009,1,0,0:0:0:0:
402,192,208009,1,0,0:0:0:0:
109,192,208077,1,0,0:0:0:0:
182,192,208077,1,0,0:0:0:0:
36,192,208077,1,0,0:0:0:0:
329,192,208145,1,0,0:0:0:0:
402,192,208145,1,0,0:0:0:0:
475,192,208145,1,0,0:0:0:0:
109,192,208212,1,0,0:0:0:0:
182,192,208212,1,0,0:0:0:0:
36,192,208212,1,0,0:0:0:0:
329,192,208280,1,0,0:0:0:0:
402,192,208280,1,0,0:0:0:0:
475,192,208280,1,0,0:0:0:0:
182,192,208347,1,0,0:0:0:0:
256,192,208347,1,0,0:0:0:0:
109,192,208415,1,0,0:0:0:0:
329,192,208415,1,0,0:0:0:0:
36,192,208482,1,0,0:0:0:0:
182,192,208482,1,0,0:0:0:0:
475,192,208550,1,0,0:0:0:0:
109,192,208550,1,0,0:0:0:0:
256,192,208550,1,0,0:0:0:0:
402,192,208550,1,0,0:0:0:0:
36,192,208618,1,0,0:0:0:0:
329,192,208618,1,0,0:0:0:0:
475,192,208685,1,0,0:0:0:0:
182,192,208685,1,0,0:0:0:0:
256,192,208753,1,0,0:0:0:0:
402,192,208753,1,0,0:0:0:0:
109,192,208820,1,0,0:0:0:0:
36,192,208820,1,0,0:0:0:0:
329,192,208820,1,0,0:0:0:0:
182,192,208820,1,0,0:0:0:0:
256,192,208888,1,0,0:0:0:0:
475,192,208888,1,0,0:0:0:0:
109,192,208955,1,0,0:0:0:0:
329,192,208955,1,0,0:0:0:0:
256,192,209023,1,0,0:0:0:0:
36,192,209023,1,0,0:0:0:0:
182,192,209090,1,0,0:0:0:0:
109,192,209090,1,0,0:0:0:0:
402,192,209090,1,0,0:0:0:0:
475,192,209090,1,0,0:0:0:0:
256,192,209158,1,0,0:0:0:0:
329,192,209158,1,0,0:0:0:0:
109,192,209226,1,0,0:0:0:0:
475,192,209226,1,0,0:0:0:0:
329,192,209293,1,0,0:0:0:0:
182,192,209293,1,0,0:0:0:0:
256,192,209361,1,0,0:0:0:0:
36,192,209361,1,0,0:0:0:0:
402,192,209361,1,0,0:0:0:0:
475,192,209361,1,0,0:0:0:0:
182,192,209428,1,0,0:0:0:0:
109,192,209428,1,0,0:0:0:0:
475,192,209496,1,0,0:0:0:0:
329,192,209496,1,0,0:0:0:0:
109,192,209563,1,0,0:0:0:0:
402,192,209563,1,0,0:0:0:0:
36,192,209631,1,0,0:0:0:0:
256,192,209631,1,0,0:0:0:0:
182,192,209631,1,0,0:0:0:0:
329,192,209631,1,0,0:0:0:0:
475,192,209699,1,0,0:0:0:0:
402,192,209699,1,0,0:0:0:0:
109,192,209766,1,0,0:0:0:0:
329,192,209766,1,0,0:0:0:0:
36,192,209834,1,0,0:0:0:0:
182,192,209834,1,0,0:0:0:0:
475,192,209901,1,0,0:0:0:0:
109,192,209901,1,0,0:0:0:0:
256,192,209901,1,0,0:0:0:0:
402,192,209901,1,0,0:0:0:0:
36,192,209969,1,0,0:0:0:0:
329,192,209969,1,0,0:0:0:0:
475,192,210036,1,0,0:0:0:0:
182,192,210036,1,0,0:0:0:0:
256,192,210104,1,0,0:0:0:0:
402,192,210104,1,0,0:0:0:0:
182,192,210172,1,0,0:0:0:0:
109,192,210172,1,0,0:0:0:0:
329,192,210172,1,0,0:0:0:0:
475,192,210172,1,0,0:0:0:0:
36,192,210239,1,0,0:0:0:0:
256,192,210239,1,0,0:0:0:0:
182,192,210307,1,0,0:0:0:0:
475,192,210307,1,0,0:0:0:0:
402,192,210307,1,0,0:0:0:0:
36,192,210374,1,0,0:0:0:0:
256,192,210374,1,0,0:0:0:0:
329,192,210374,1,0,0:0:0:0:
182,192,210442,1,0,0:0:0:0:
109,192,210442,1,0,0:0:0:0:
402,192,210442,1,0,0:0:0:0:
475,192,210442,1,0,0:0:0:0:
329,192,210509,1,0,0:0:0:0:
256,192,210509,1,0,0:0:0:0:
36,192,210577,1,0,0:0:0:0:
475,192,210577,1,0,0:0:0:0:
256,192,210645,1,0,0:0:0:0:
109,192,210645,1,0,0:0:0:0:
475,192,210712,1,0,0:0:0:0:
182,192,210712,1,0,0:0:0:0:
329,192,210712,1,0,0:0:0:0:
402,192,210712,1,0,0:0:0:0:
36,192,210780,1,0,0:0:0:0:
256,192,210780,1,0,0:0:0:0:
109,192,210847,1,0,0:0:0:0:
402,192,210847,1,0,0:0:0:0:
256,192,210915,1,0,0:0:0:0:
329,192,210915,1,0,0:0:0:0:
182,192,210982,1,0,0:0:0:0:
36,192,210982,1,0,0:0:0:0:
475,192,210982,1,0,0:0:0:0:
402,192,210982,1,0,0:0:0:0:
329,192,211050,1,0,0:0:0:0:
256,192,211050,1,0,0:0:0:0:
36,192,211118,1,0,0:0:0:0:
109,192,211118,1,0,0:0:0:0:
402,192,211185,1,0,0:0:0:0:
182,192,211185,1,0,0:0:0:0:
475,192,211253,1,0,0:0:0:0:
36,192,211253,1,0,0:0:0:0:
329,192,211253,1,0,0:0:0:0:
256,192,211253,1,0,0:0:0:0:
182,192,211320,1,0,0:0:0:0:
109,192,211320,1,0,0:0:0:0:
402,192,211388,1,0,0:0:0:0:
256,192,211388,1,0,0:0:0:0:
109,192,211455,1,0,0:0:0:0:
329,192,211455,1,0,0:0:0:0:
36,192,211523,1,0,0:0:0:0:
256,192,211523,1,0,0:0:0:0:
475,192,211523,1,0,0:0:0:0:
182,192,211523,1,0,0:0:0:0:
402,192,211658,1,0,0:0:0:0:
329,192,211658,1,0,0:0:0:0:
109,192,211726,1,0,0:0:0:0:
182,192,211726,1,0,0:0:0:0:
256,192,211793,1,0,0:0:0:0:
402,192,211793,1,0,0:0:0:0:
36,192,211793,1,0,0:0:0:0:
475,192,211793,1,0,0:0:0:0:
182,192,211928,1,0,0:0:0:0:
109,192,211928,1,0,0:0:0:0:
402,192,211996,1,0,0:0:0:0:
329,192,211996,1,0,0:0:0:0:
475,192,212063,1,0,0:0:0:0:
256,192,212063,1,0,0:0:0:0:
36,192,212063,1,0,0:0:0:0:
109,192,212063,1,0,0:0:0:0:
182,192,212199,1,0,0:0:0:0:
329,192,212199,1,0,0:0:0:0:
36,192,212199,1,0,0:0:0:0:
475,192,212199,1,0,0:0:0:0:
256,192,212266,1,0,0:0:0:0:
109,192,212334,1,0,0:0:0:0:
36,192,212334,1,0,0:0:0:0:
402,192,212334,1,0,0:0:0:0:
475,192,212334,1,0,0:0:0:0:
329,192,212401,1,0,0:0:0:0:
256,192,212401,1,0,0:0:0:0:
182,192,212401,1,0,0:0:0:0:
109,192,212469,1,0,0:0:0:0:
36,192,212469,1,0,0:0:0:0:
402,192,212469,1,0,0:0:0:0:
475,192,212469,1,0,0:0:0:0:
329,192,212536,1,0,0:0:0:0:
256,192,212536,1,0,0:0:0:0:
182,192,212536,1,0,0:0:0:0:
402,192,212604,1,0,0:0:0:0:
475,192,212604,1,0,0:0:0:0:
36,192,212604,1,0,0:0:0:0:
109,192,212604,1,0,0:0:0:0:
182,192,212672,1,0,0:0:0:0:
329,192,212694,1,0,0:0:0:0:
256,192,212739,1,0,0:0:0:0:
402,192,212784,1,0,0:0:0:0:
109,192,212807,1,0,0:0:0:0:
329,192,212874,1,0,0:0:0:0:
182,192,212874,1,0,0:0:0:0:
475,192,212874,1,0,0:0:0:0:
36,192,212942,1,0,0:0:0:0:
402,192,212964,1,0,0:0:0:0:
256,192,213009,1,0,0:0:0:0:
109,192,213009,1,0,0:0:0:0:
329,192,213054,1,0,0:0:0:0:
36,192,213077,1,0,0:0:0:0:
256,192,213145,1,0,0:0:0:0:
402,192,213145,1,0,0:0:0:0:
182,192,213145,1,0,0:0:0:0:
109,192,213212,1,0,0:0:0:0:
475,192,213235,1,0,0:0:0:0:
256,192,213280,1,0,0:0:0:0:
402,192,213325,1,0,0:0:0:0:
182,192,213347,1,0,0:0:0:0:
475,192,213415,1,0,0:0:0:0:
109,192,213415,1,0,0:0:0:0:
329,192,213415,1,0,0:0:0:0:
256,192,213482,1,0,0:0:0:0:
109,192,213505,1,0,0:0:0:0:
402,192,213550,1,0,0:0:0:0:
182,192,213595,1,0,0:0:0:0:
329,192,213618,1,0,0:0:0:0:
256,192,213685,1,0,0:0:0:0:
109,192,213685,1,0,0:0:0:0:
402,192,213685,1,0,0:0:0:0:
475,192,213753,1,0,0:0:0:0:
36,192,213775,1,0,0:0:0:0:
182,192,213820,1,0,0:0:0:0:
329,192,213820,1,0,0:0:0:0:
109,192,213865,1,0,0:0:0:0:
256,192,213888,1,0,0:0:0:0:
402,192,213888,1,0,0:0:0:0:
475,192,213955,1,0,0:0:0:0:
36,192,213955,1,0,0:0:0:0:
182,192,213955,1,0,0:0:0:0:
329,192,214023,1,0,0:0:0:0:
475,192,214045,1,0,0:0:0:0:
182,192,214090,1,0,0:0:0:0:
402,192,214136,1,0,0:0:0:0:
256,192,214158,1,0,0:0:0:0:
36,192,214226,1,0,0:0:0:0:
109,192,214226,1,0,0:0:0:0:
329,192,214226,1,0,0:0:0:0:
402,192,214293,1,0,0:0:0:0:
182,192,214293,1,0,0:0:0:0:
36,192,214361,1,0,0:0:0:0:
329,192,214361,1,0,0:0:0:0:
475,192,214406,1,0,0:0:0:0:
109,192,214428,1,0,0:0:0:0:
256,192,214496,1,0,0:0:0:0:
402,192,214496,1,0,0:0:0:0:
36,192,214496,1,0,0:0:0:0:
182,192,214563,1,0,0:0:0:0:
329,192,214586,1,0,0:0:0:0:
36,192,214631,1,0,0:0:0:0:
475,192,214631,1,0,0:0:0:0:
402,192,214676,1,0,0:0:0:0:
109,192,214699,1,0,0:0:0:0:
256,192,214699,1,0,0:0:0:0:
36,192,214766,1,0,0:0:0:0:
329,192,214766,1,0,0:0:0:0:
182,192,214766,1,0,0:0:0:0:
475,192,214766,1,0,0:0:0:0:
402,192,214834,1,0,0:0:0:0:
109,192,214856,1,0,0:0:0:0:
256,192,214901,1,0,0:0:0:0:
402,192,214946,1,0,0:0:0:0:
109,192,214969,1,0,0:0:0:0:
475,192,215036,1,0,0:0:0:0:
182,192,215036,1,0,0:0:0:0:
329,192,215036,1,0,0:0:0:0:
402,192,215104,1,0,0:0:0:0:
256,192,215127,1,0,0:0:0:0:
36,192,215172,1,0,0:0:0:0:
329,192,215172,1,0,0:0:0:0:
182,192,215217,1,0,0:0:0:0:
109,192,215239,1,0,0:0:0:0:
36,192,215307,1,0,0:0:0:0:
256,192,215307,1,0,0:0:0:0:
475,192,215307,1,0,0:0:0:0:
402,192,215374,1,0,0:0:0:0:
329,192,215397,1,0,0:0:0:0:
109,192,215442,1,0,0:0:0:0:
256,192,215487,1,0,0:0:0:0:
182,192,215509,1,0,0:0:0:0:
36,192,215577,1,0,0:0:0:0:
329,192,215577,1,0,0:0:0:0:
475,192,215577,1,0,0:0:0:0:
256,192,215645,1,0,0:0:0:0:
402,192,215667,1,0,0:0:0:0:
109,192,215712,1,0,0:0:0:0:
182,192,215757,1,0,0:0:0:0:
36,192,215780,1,0,0:0:0:0:
475,192,215847,1,0,0:0:0:0:
329,192,215847,1,0,0:0:0:0:
256,192,215847,1,0,0:0:0:0:
402,192,215915,1,0,0:0:0:0:
36,192,215937,1,0,0:0:0:0:
182,192,215982,1,0,0:0:0:0:
256,192,216027,1,0,0:0:0:0:
109,192,216050,1,0,0:0:0:0:
475,192,216118,1,0,0:0:0:0:
182,192,216118,1,0,0:0:0:0:
402,192,216118,1,0,0:0:0:0:
329,192,216185,1,0,0:0:0:0:
109,192,216208,1,0,0:0:0:0:
182,192,216253,1,0,0:0:0:0:
475,192,216298,1,0,0:0:0:0:
109,192,216320,1,0,0:0:0:0:
36,192,216388,1,0,0:0:0:0:
402,192,216388,1,0,0:0:0:0:
256,192,216388,1,0,0:0:0:0:
329,192,216455,1,0,0:0:0:0:
36,192,216478,1,0,0:0:0:0:
475,192,216523,1,0,0:0:0:0:
402,192,216523,1,0,0:0:0:0:
182,192,216523,1,0,0:0:0:0:
256,192,216568,1,0,0:0:0:0:
329,192,216590,1,0,0:0:0:0:
109,192,216590,1,0,0:0:0:0:
36,192,216658,1,0,0:0:0:0:
182,192,216658,1,0,0:0:0:0:
402,192,216658,1,0,0:0:0:0:
256,192,216726,1,0,0:0:0:0:
475,192,216726,1,0,0:0:0:0:
109,192,216748,1,0,0:0:0:0:
36,192,216793,1,0,0:0:0:0:
329,192,216793,1,0,0:0:0:0:
182,192,216838,1,0,0:0:0:0:
256,192,216861,1,0,0:0:0:0:
402,192,216861,1,0,0:0:0:0:
475,192,216928,1,0,0:0:0:0:
329,192,216928,1,0,0:0:0:0:
109,192,216928,1,0,0:0:0:0:
36,192,216928,1,0,0:0:0:0:
256,192,216996,1,0,0:0:0:0:
402,192,217018,1,0,0:0:0:0:
182,192,217063,1,0,0:0:0:0:
475,192,217109,1,0,0:0:0:0:
109,192,217131,1,0,0:0:0:0:
182,192,217199,1,0,0:0:0:0:
329,192,217199,1,0,0:0:0:0:
402,192,217199,1,0,0:0:0:0:
256,192,217266,1,0,0:0:0:0:
109,192,217289,1,0,0:0:0:0:
182,192,217334,1,0,0:0:0:0:
36,192,217379,1,0,0:0:0:0:
402,192,217401,1,0,0:0:0:0:
475,192,217469,1,0,0:0:0:0:
109,192,217469,1,0,0:0:0:0:
329,192,217469,1,0,0:0:0:0:
256,192,217536,1,0,0:0:0:0:
182,192,217559,1,0,0:0:0:0:
475,192,217604,1,0,0:0:0:0:
109,192,217649,1,0,0:0:0:0:
402,192,217672,1,0,0:0:0:0:
109,192,217739,1,0,0:0:0:0:
329,192,217739,1,0,0:0:0:0:
182,192,217739,1,0,0:0:0:0:
402,192,217807,1,0,0:0:0:0:
256,192,217829,1,0,0:0:0:0:
475,192,217874,1,0,0:0:0:0:
109,192,217919,1,0,0:0:0:0:
256,192,217942,1,0,0:0:0:0:
182,192,218009,1,0,0:0:0:0:
475,192,218009,1,0,0:0:0:0:
329,192,218009,1,0,0:0:0:0:
402,192,218077,1,0,0:0:0:0:
109,192,218100,1,0,0:0:0:0:
182,192,218145,1,0,0:0:0:0:
36,192,218190,1,0,0:0:0:0:
256,192,218212,1,0,0:0:0:0:
182,192,218280,1,0,0:0:0:0:
36,192,218280,1,0,0:0:0:0:
329,192,218280,1,0,0:0:0:0:
109,192,218347,1,0,0:0:0:0:
402,192,218370,1,0,0:0:0:0:
182,192,218415,1,0,0:0:0:0:
329,192,218460,1,0,0:0:0:0:
256,192,218482,1,0,0:0:0:0:
475,192,218550,1,0,0:0:0:0:
36,192,218550,1,0,0:0:0:0:
402,192,218550,1,0,0:0:0:0:
109,192,218618,1,0,0:0:0:0:
329,192,218640,1,0,0:0:0:0:
182,192,218685,1,0,0:0:0:0:
256,192,218730,1,0,0:0:0:0:
109,192,218753,1,0,0:0:0:0:
475,192,218820,1,0,0:0:0:0:
402,192,218820,1,0,0:0:0:0:
36,192,218820,1,0,0:0:0:0:
256,192,218888,1,0,0:0:0:0:
402,192,218910,1,0,0:0:0:0:
36,192,218955,1,0,0:0:0:0:
182,192,218955,1,0,0:0:0:0:
329,192,219000,1,0,0:0:0:0:
109,192,219023,1,0,0:0:0:0:
36,192,219090,1,0,0:0:0:0:
475,192,219090,1,0,0:0:0:0:
402,192,219090,1,0,0:0:0:0:
182,192,219090,1,0,0:0:0:0:
329,192,219158,1,0,0:0:0:0:
109,192,219181,1,0,0:0:0:0:
256,192,219226,1,0,0:0:0:0:
36,192,219271,1,0,0:0:0:0:
182,192,219293,1,0,0:0:0:0:
329,192,219361,1,0,0:0:0:0:
475,192,219361,1,0,0:0:0:0:
109,192,219361,1,0,0:0:0:0:
402,192,219428,1,0,0:0:0:0:
182,192,219451,1,0,0:0:0:0:
329,192,219496,1,0,0:0:0:0:
36,192,219541,1,0,0:0:0:0:
256,192,219563,1,0,0:0:0:0:
475,192,219631,1,0,0:0:0:0:
36,192,219631,1,0,0:0:0:0:
109,192,219631,1,0,0:0:0:0:
402,192,219699,1,0,0:0:0:0:
182,192,219721,1,0,0:0:0:0:
475,192,219766,1,0,0:0:0:0:
329,192,219811,1,0,0:0:0:0:
182,192,219834,1,0,0:0:0:0:
109,192,219901,1,0,0:0:0:0:
256,192,219901,1,0,0:0:0:0:
402,192,219901,1,0,0:0:0:0:
329,192,219969,1,0,0:0:0:0:
475,192,219991,1,0,0:0:0:0:
402,192,220036,1,0,0:0:0:0:
256,192,220081,1,0,0:0:0:0:
109,192,220104,1,0,0:0:0:0:
36,192,220172,1,0,0:0:0:0:
182,192,220172,1,0,0:0:0:0:
329,192,220172,1,0,0:0:0:0:
256,192,220239,1,0,0:0:0:0:
402,192,220262,1,0,0:0:0:0:
182,192,220307,1,0,0:0:0:0:
329,192,220307,1,0,0:0:0:0:
475,192,220352,1,0,0:0:0:0:
36,192,220374,1,0,0:0:0:0:
256,192,220442,1,0,0:0:0:0:
402,192,220442,1,0,0:0:0:0:
109,192,220442,1,0,0:0:0:0:
182,192,220509,1,0,0:0:0:0:
329,192,220532,1,0,0:0:0:0:
36,192,220577,1,0,0:0:0:0:
256,192,220577,1,0,0:0:0:0:
182,192,220622,1,0,0:0:0:0:
329,192,220645,1,0,0:0:0:0:
256,192,220712,1,0,0:0:0:0:
109,192,220712,1,0,0:0:0:0:
402,192,220712,1,0,0:0:0:0:
475,192,220780,1,0,0:0:0:0:
36,192,220802,1,0,0:0:0:0:
109,192,220847,1,0,0:0:0:0:
329,192,220847,1,0,0:0:0:0:
182,192,220892,1,0,0:0:0:0:
402,192,220915,1,0,0:0:0:0:
109,192,220982,1,0,0:0:0:0:
36,192,220982,1,0,0:0:0:0:
256,192,220982,1,0,0:0:0:0:
475,192,221050,1,0,0:0:0:0:
402,192,221050,1,0,0:0:0:0:
329,192,221050,1,0,0:0:0:0:
109,192,221118,1,0,0:0:0:0:
36,192,221118,1,0,0:0:0:0:
182,192,221118,1,0,0:0:0:0:
475,192,221185,1,0,0:0:0:0:
402,192,221185,1,0,0:0:0:0:
256,192,221185,1,0,0:0:0:0:
109,192,221253,1,0,0:0:0:0:
36,192,221253,1,0,0:0:0:0:
329,192,221253,1,0,0:0:0:0:
182,192,221253,1,0,0:0:0:0:
402,192,221320,1,0,0:0:0:0:
256,192,221343,1,0,0:0:0:0:
475,192,221388,1,0,0:0:0:0:
182,192,221433,1,0,0:0:0:0:
402,192,221455,1,0,0:0:0:0:
36,192,221523,1,0,0:0:0:0:
329,192,221523,1,0,0:0:0:0:
109,192,221523,1,0,0:0:0:0:
402,192,221590,1,0,0:0:0:0:
36,192,221613,1,0,0:0:0:0:
475,192,221658,1,0,0:0:0:0:
109,192,221703,1,0,0:0:0:0:
402,192,221726,1,0,0:0:0:0:
36,192,221793,1,0,0:0:0:0:
182,192,221793,1,0,0:0:0:0:
329,192,221793,1,0,0:0:0:0:
256,192,221861,1,0,0:0:0:0:
475,192,221883,1,0,0:0:0:0:
182,192,221928,1,0,0:0:0:0:
402,192,221973,1,0,0:0:0:0:
256,192,221996,1,0,0:0:0:0:
475,192,222063,1,0,0:0:0:0:
329,192,222063,1,0,0:0:0:0:
109,192,222063,1,0,0:0:0:0:
256,192,222131,1,0,0:0:0:0:
36,192,222154,1,0,0:0:0:0:
182,192,222199,1,0,0:0:0:0:
402,192,222244,1,0,0:0:0:0:
256,192,222266,1,0,0:0:0:0:
109,192,222334,1,0,0:0:0:0:
329,192,222334,1,0,0:0:0:0:
475,192,222334,1,0,0:0:0:0:
256,192,222401,1,0,0:0:0:0:
402,192,222424,1,0,0:0:0:0:
182,192,222469,1,0,0:0:0:0:
329,192,222514,1,0,0:0:0:0:
109,192,222536,1,0,0:0:0:0:
256,192,222604,1,0,0:0:0:0:
475,192,222604,1,0,0:0:0:0:
36,192,222604,1,0,0:0:0:0:
109,192,222672,1,0,0:0:0:0:
475,192,222694,1,0,0:0:0:0:
182,192,222739,1,0,0:0:0:0:
402,192,222784,1,0,0:0:0:0:
109,192,222807,1,0,0:0:0:0:
256,192,222874,1,0,0:0:0:0:
36,192,222874,1,0,0:0:0:0:
329,192,222874,1,0,0:0:0:0:
109,192,222942,1,0,0:0:0:0:
402,192,222964,1,0,0:0:0:0:
182,192,223009,1,0,0:0:0:0:
475,192,223054,1,0,0:0:0:0:
256,192,223077,1,0,0:0:0:0:
402,192,223145,1,0,0:0:0:0:
109,192,223145,1,0,0:0:0:0:
329,192,223145,1,0,0:0:0:0:
256,192,223212,1,0,0:0:0:0:
109,192,223235,1,0,0:0:0:0:
475,192,223280,1,0,0:0:0:0:
182,192,223280,1,0,0:0:0:0:
36,192,223325,1,0,0:0:0:0:
402,192,223347,1,0,0:0:0:0:
256,192,223347,1,0,0:0:0:0:
109,192,223415,1,0,0:0:0:0:
329,192,223415,1,0,0:0:0:0:
475,192,223415,1,0,0:0:0:0:
256,192,223482,1,0,0:0:0:0:
402,192,223505,1,0,0:0:0:0:
182,192,223550,1,0,0:0:0:0:
475,192,223595,1,0,0:0:0:0:
256,192,223618,1,0,0:0:0:0:
109,192,223685,1,0,0:0:0:0:
36,192,223685,1,0,0:0:0:0:
329,192,223685,1,0,0:0:0:0:
402,192,223753,1,0,0:0:0:0:
109,192,223775,1,0,0:0:0:0:
475,192,223820,1,0,0:0:0:0:
182,192,223865,1,0,0:0:0:0:
402,192,223888,1,0,0:0:0:0:
36,192,223955,1,0,0:0:0:0:
329,192,223955,1,0,0:0:0:0:
256,192,223955,1,0,0:0:0:0:
402,192,224023,1,0,0:0:0:0:
36,192,224045,1,0,0:0:0:0:
475,192,224090,1,0,0:0:0:0:
109,192,224136,1,0,0:0:0:0:
402,192,224158,1,0,0:0:0:0:
475,192,224226,1,0,0:0:0:0:
329,192,224226,1,0,0:0:0:0:
182,192,224226,1,0,0:0:0:0:
256,192,224293,1,0,0:0:0:0:
402,192,224316,1,0,0:0:0:0:
182,192,224361,1,0,0:0:0:0:
475,192,224406,1,0,0:0:0:0:
109,192,224428,1,0,0:0:0:0:
329,192,224496,1,0,0:0:0:0:
36,192,224496,1,0,0:0:0:0:
402,192,224496,1,0,0:0:0:0:
109,192,224563,1,0,0:0:0:0:
329,192,224586,1,0,0:0:0:0:
182,192,224631,1,0,0:0:0:0:
36,192,224676,1,0,0:0:0:0:
256,192,224699,1,0,0:0:0:0:
475,192,224766,1,0,0:0:0:0:
109,192,224766,1,0,0:0:0:0:
329,192,224766,1,0,0:0:0:0:
402,192,224834,1,0,0:0:0:0:
182,192,224856,1,0,0:0:0:0:
256,192,224901,1,0,0:0:0:0:
475,192,224901,1,0,0:0:0:0:
109,192,224946,1,0,0:0:0:0:
402,192,224969,1,0,0:0:0:0:
182,192,225036,1,0,0:0:0:0:
36,192,225036,1,0,0:0:0:0:
329,192,225036,1,0,0:0:0:0:
256,192,225104,1,0,0:0:0:0:
475,192,225127,1,0,0:0:0:0:
329,192,225172,1,0,0:0:0:0:
402,192,225172,1,0,0:0:0:0:
182,192,225172,1,0,0:0:0:0:
36,192,225217,1,0,0:0:0:0:
109,192,225239,1,0,0:0:0:0:
475,192,225307,1,0,0:0:0:0:
256,192,225307,1,0,0:0:0:0:
329,192,225307,1,0,0:0:0:0:
182,192,225374,1,0,0:0:0:0:
36,192,225374,1,0,0:0:0:0:
109,192,225374,1,0,0:0:0:0:
475,192,225442,1,0,0:0:0:0:
402,192,225442,1,0,0:0:0:0:
329,192,225442,1,0,0:0:0:0:
109,192,225509,1,0,0:0:0:0:
182,192,225509,1,0,0:0:0:0:
256,192,225509,1,0,0:0:0:0:
329,192,225577,1,0,0:0:0:0:
36,192,225577,1,0,0:0:0:0:
402,192,225577,1,0,0:0:0:0:
475,192,225577,1,0,0:0:0:0:
109,192,225645,1,0,0:0:0:0:
256,192,225667,1,0,0:0:0:0:
182,192,225712,1,0,0:0:0:0:
329,192,225757,1,0,0:0:0:0:
109,192,225780,1,0,0:0:0:0:
256,192,225847,1,0,0:0:0:0:
182,192,225847,1,0,0:0:0:0:
402,192,225847,1,0,0:0:0:0:
329,192,225915,1,0,0:0:0:0:
36,192,225937,1,0,0:0:0:0:
402,192,225982,1,0,0:0:0:0:
109,192,226027,1,0,0:0:0:0:
329,192,226050,1,0,0:0:0:0:
182,192,226118,1,0,0:0:0:0:
475,192,226118,1,0,0:0:0:0:
402,192,226118,1,0,0:0:0:0:
256,192,226185,1,0,0:0:0:0:
475,192,226208,1,0,0:0:0:0:
182,192,226253,1,0,0:0:0:0:
402,192,226298,1,0,0:0:0:0:
256,192,226320,1,0,0:0:0:0:
36,192,226388,1,0,0:0:0:0:
182,192,226388,1,0,0:0:0:0:
329,192,226388,1,0,0:0:0:0:
475,192,226455,1,0,0:0:0:0:
36,192,226478,1,0,0:0:0:0:
402,192,226523,1,0,0:0:0:0:
109,192,226568,1,0,0:0:0:0:
475,192,226590,1,0,0:0:0:0:
256,192,226658,1,0,0:0:0:0:
402,192,226658,1,0,0:0:0:0:
182,192,226658,1,0,0:0:0:0:
36,192,226726,1,0,0:0:0:0:
256,192,226748,1,0,0:0:0:0:
109,192,226793,1,0,0:0:0:0:
329,192,226838,1,0,0:0:0:0:
36,192,226861,1,0,0:0:0:0:
256,192,226928,1,0,0:0:0:0:
109,192,226928,1,0,0:0:0:0:
402,192,226928,1,0,0:0:0:0:
329,192,226996,1,0,0:0:0:0:
182,192,227018,1,0,0:0:0:0:
256,192,227063,1,0,0:0:0:0:
36,192,227109,1,0,0:0:0:0:
329,192,227131,1,0,0:0:0:0:
182,192,227199,1,0,0:0:0:0:
402,192,227199,1,0,0:0:0:0:
475,192,227199,1,0,0:0:0:0:
109,192,227266,1,0,0:0:0:0:
402,192,227289,1,0,0:0:0:0:
182,192,227334,1,0,0:0:0:0:
329,192,227379,1,0,0:0:0:0:
109,192,227401,1,0,0:0:0:0:
256,192,227469,1,0,0:0:0:0:
36,192,227469,1,0,0:0:0:0:
475,192,227469,1,0,0:0:0:0:
402,192,227536,1,0,0:0:0:0:
36,192,227559,1,0,0:0:0:0:
182,192,227604,1,0,0:0:0:0:
329,192,227604,1,0,0:0:0:0:
109,192,227649,1,0,0:0:0:0:
256,192,227672,1,0,0:0:0:0:
402,192,227672,1,0,0:0:0:0:
475,192,227739,1,0,0:0:0:0:
182,192,227739,1,0,0:0:0:0:
329,192,227739,1,0,0:0:0:0:
109,192,227807,1,0,0:0:0:0:
256,192,227829,1,0,0:0:0:0:
36,192,227874,1,0,0:0:0:0:
329,192,227919,1,0,0:0:0:0:
109,192,227942,1,0,0:0:0:0:
182,192,228009,1,0,0:0:0:0:
475,192,228009,1,0,0:0:0:0:
402,192,228009,1,0,0:0:0:0:
256,192,228077,1,0,0:0:0:0:
475,192,228100,1,0,0:0:0:0:
182,192,228145,1,0,0:0:0:0:
402,192,228190,1,0,0:0:0:0:
256,192,228212,1,0,0:0:0:0:
109,192,228280,1,0,0:0:0:0:
182,192,228280,1,0,0:0:0:0:
329,192,228280,1,0,0:0:0:0:
402,192,228347,1,0,0:0:0:0:
36,192,228370,1,0,0:0:0:0:
256,192,228415,1,0,0:0:0:0:
475,192,228415,1,0,0:0:0:0:
109,192,228460,1,0,0:0:0:0:
402,192,228482,1,0,0:0:0:0:
256,192,228550,1,0,0:0:0:0:
182,192,228550,1,0,0:0:0:0:
475,192,228550,1,0,0:0:0:0:
36,192,228595,1,0,0:0:0:0:
329,192,228618,1,0,0:0:0:0:
109,192,228640,1,0,0:0:0:0:
402,192,228685,1,0,0:0:0:0:
182,192,228730,1,0,0:0:0:0:
329,192,228753,1,0,0:0:0:0:
109,192,228775,1,0,0:0:0:0:
36,192,228820,1,0,0:0:0:0:
475,192,228820,1,0,0:0:0:0:
256,192,228820,1,0,0:0:0:0:
182,192,228888,1,0,0:0:0:0:
402,192,228888,1,0,0:0:0:0:
329,192,228955,1,0,0:0:0:0:
109,192,228955,1,0,0:0:0:0:
256,192,229000,1,0,0:0:0:0:
36,192,229023,1,0,0:0:0:0:
182,192,229045,1,0,0:0:0:0:
329,192,229090,1,0,0:0:0:0:
475,192,229090,1,0,0:0:0:0:
109,192,229090,1,0,0:0:0:0:
256,192,229136,1,0,0:0:0:0:
402,192,229158,1,0,0:0:0:0:
182,192,229181,1,0,0:0:0:0:
36,192,229226,1,0,0:0:0:0:
329,192,229226,1,0,0:0:0:0:
109,192,229271,1,0,0:0:0:0:
402,192,229293,1,0,0:0:0:0:
36,192,229361,1,0,0:0:0:0:
256,192,229361,1,0,0:0:0:0:
329,192,229361,1,0,0:0:0:0:
182,192,229361,1,0,0:0:0:0:
402,192,229428,1,0,0:0:0:0:
109,192,229428,1,0,0:0:0:0:
475,192,229451,1,0,0:0:0:0:
329,192,229496,1,0,0:0:0:0:
36,192,229496,1,0,0:0:0:0:
182,192,229496,1,0,0:0:0:0:
402,192,229541,1,0,0:0:0:0:
256,192,229563,1,0,0:0:0:0:
109,192,229597,1,0,0:0:0:0:
182,192,229631,1,0,0:0:0:0:
475,192,229631,1,0,0:0:0:0:
329,192,229631,1,0,0:0:0:0:
402,192,229699,1,0,0:0:0:0:
256,192,229699,1,0,0:0:0:0:
109,192,229699,1,0,0:0:0:0:
36,192,229766,1,0,0:0:0:0:
329,192,229766,1,0,0:0:0:0:
182,192,229766,1,0,0:0:0:0:
109,192,229834,1,0,0:0:0:0:
256,192,229834,1,0,0:0:0:0:
402,192,229834,1,0,0:0:0:0:
475,192,229901,1,0,0:0:0:0:
329,192,229901,1,0,0:0:0:0:
36,192,229901,1,0,0:0:0:0:
182,192,229901,1,0,0:0:0:0:
109,192,230036,1,0,0:0:0:0:
402,192,230172,1,0,0:0:0:0:
475,192,230172,1,0,0:0:0:0:
256,192,230172,1,0,0:0:0:0:
36,192,230172,1,0,0:0:0:0:
329,192,230307,1,0,0:0:0:0:
475,192,230307,1,0,0:0:0:0:
402,192,230442,1,0,0:0:0:0:
36,192,230442,1,0,0:0:0:0:
109,192,230442,1,0,0:0:0:0:
256,192,230442,1,0,0:0:0:0:
256,192,230577,1,0,0:0:0:0:
36,192,230577,1,0,0:0:0:0:
329,192,230712,1,0,0:0:0:0:
475,192,230712,1,0,0:0:0:0:
182,192,230712,1,0,0:0:0:0:
109,192,230712,1,0,0:0:0:0:
36,192,230847,1,0,0:0:0:0:
329,192,230847,1,0,0:0:0:0:
402,192,230982,1,0,0:0:0:0:
475,192,230982,1,0,0:0:0:0:
256,192,230982,1,0,0:0:0:0:
36,192,230982,1,0,0:0:0:0:
182,192,231118,1,0,0:0:0:0:
402,192,231118,1,0,0:0:0:0:
109,192,231253,1,0,0:0:0:0:
36,192,231253,1,0,0:0:0:0:
329,192,231253,1,0,0:0:0:0:
475,192,231253,1,0,0:0:0:0:
182,192,231388,1,0,0:0:0:0:
329,192,231388,1,0,0:0:0:0:
475,192,231523,1,0,0:0:0:0:
109,192,231523,1,0,0:0:0:0:
256,192,231523,1,0,0:0:0:0:
36,192,231523,1,0,0:0:0:0:
402,192,231658,1,0,0:0:0:0:
36,192,231658,1,0,0:0:0:0:
109,192,231793,1,0,0:0:0:0:
475,192,231793,1,0,0:0:0:0:
329,192,231793,1,0,0:0:0:0:
256,192,231793,1,0,0:0:0:0:
36,192,231928,1,0,0:0:0:0:
109,192,231928,1,0,0:0:0:0:
182,192,231928,1,0,0:0:0:0:
475,192,231996,1,0,0:0:0:0:
402,192,231996,1,0,0:0:0:0:
329,192,231996,1,0,0:0:0:0:
182,192,232063,1,0,0:0:0:0:
36,192,232063,1,0,0:0:0:0:
402,192,232199,1,0,0:0:0:0:
36,192,232334,1,0,0:0:0:0:
475,192,232334,1,0,0:0:0:0:
329,192,232334,1,0,0:0:0:0:
109,192,232334,1,0,0:0:0:0:
36,192,232469,1,0,0:0:0:0:
256,192,232469,1,0,0:0:0:0:
475,192,232604,1,0,0:0:0:0:
109,192,232604,1,0,0:0:0:0:
182,192,232604,1,0,0:0:0:0:
402,192,232604,1,0,0:0:0:0:
256,192,232739,1,0,0:0:0:0:
402,192,232739,1,0,0:0:0:0:
182,192,232874,1,0,0:0:0:0:
475,192,232874,1,0,0:0:0:0:
329,192,232874,1,0,0:0:0:0:
36,192,232874,1,0,0:0:0:0:
256,192,233009,1,0,0:0:0:0:
475,192,233009,1,0,0:0:0:0:
402,192,233145,1,0,0:0:0:0:
329,192,233145,1,0,0:0:0:0:
182,192,233145,1,0,0:0:0:0:
36,192,233145,1,0,0:0:0:0:
109,192,233280,1,0,0:0:0:0:
402,192,233280,1,0,0:0:0:0:
475,192,233415,1,0,0:0:0:0:
36,192,233415,1,0,0:0:0:0:
256,192,233415,1,0,0:0:0:0:
329,192,233415,1,0,0:0:0:0:
329,192,233550,1,0,0:0:0:0:
182,192,233550,1,0,0:0:0:0:
36,192,233550,1,0,0:0:0:0:
109,192,233618,1,0,0:0:0:0:
402,192,233618,1,0,0:0:0:0:
256,192,233618,1,0,0:0:0:0:
182,192,233685,1,0,0:0:0:0:
36,192,233685,1,0,0:0:0:0:
475,192,233685,1,0,0:0:0:0:
329,192,233685,1,0,0:0:0:0:
475,192,233820,1,0,0:0:0:0:
402,192,233820,1,0,0:0:0:0:
256,192,233820,1,0,0:0:0:0:
36,192,233888,1,0,0:0:0:0:
109,192,233888,1,0,0:0:0:0:
182,192,233888,1,0,0:0:0:0:
475,192,233955,1,0,0:0:0:0:
402,192,233955,1,0,0:0:0:0:
329,192,233955,1,0,0:0:0:0:
36,192,234023,1,0,0:0:0:0:
109,192,234023,1,0,0:0:0:0:
182,192,234023,1,0,0:0:0:0:
475,192,234090,1,0,0:0:0:0:
402,192,234090,1,0,0:0:0:0:
329,192,234090,1,0,0:0:0:0:
36,192,234158,1,0,0:0:0:0:
109,192,234158,1,0,0:0:0:0:
182,192,234158,1,0,0:0:0:0:
256,192,245752,5,0,0:0:0:0:
36,192,245752,1,0,0:0:0:0:
475,192,245752,1,0,0:0:0:0:
109,192,245752,1,0,0:0:0:0:
402,192,245752,1,0,0:0:0:0:
36,192,247418,1,0,0:0:0:0:
256,192,247418,1,0,0:0:0:0:
109,192,247418,1,0,0:0:0:0:
329,192,247418,1,0,0:0:0:0:
402,192,247585,1,0,0:0:0:0:
475,192,247585,1,0,0:0:0:0:
182,192,247585,1,0,0:0:0:0:
256,192,247585,1,0,0:0:0:0:
329,192,247752,1,0,0:0:0:0:
402,192,247752,1,0,0:0:0:0:
109,192,247752,1,0,0:0:0:0:
182,192,247752,1,0,0:0:0:0:
182,192,249752,1,0,0:0:0:0:
109,192,249752,1,0,0:0:0:0:
475,192,249752,1,0,0:0:0:0:
329,192,249752,1,0,0:0:0:0:
402,192,249752,1,0,0:0:0:0:
182,192,251418,1,0,0:0:0:0:
256,192,251418,1,0,0:0:0:0:
36,192,251418,1,0,0:0:0:0:
109,192,251418,1,0,0:0:0:0:
402,192,251585,1,0,0:0:0:0:
475,192,251585,1,0,0:0:0:0:
256,192,251585,1,0,0:0:0:0:
329,192,251585,1,0,0:0:0:0:
182,192,251752,1,0,0:0:0:0:
109,192,251752,1,0,0:0:0:0:
402,192,251752,1,0,0:0:0:0:
329,192,251752,1,0,0:0:0:0:
329,192,253752,1,0,0:0:0:0:
475,192,253752,1,0,0:0:0:0:
256,192,253752,1,0,0:0:0:0:
36,192,253752,1,0,0:0:0:0:
109,192,253752,1,0,0:0:0:0:
402,192,256752,1,0,0:0:0:0:
475,192,256752,1,0,0:0:0:0:
256,192,256752,1,0,0:0:0:0:
36,192,256752,1,0,0:0:0:0:
109,192,256752,1,0,0:0:0:0:
402,192,256939,1,0,0:0:0:0:
329,192,256939,1,0,0:0:0:0:
182,192,256939,1,0,0:0:0:0:
256,192,257127,1,0,0:0:0:0:
475,192,257127,1,0,0:0:0:0:
36,192,257127,1,0,0:0:0:0:
109,192,257127,1,0,0:0:0:0:
182,192,257220,1,0,0:0:0:0:
36,192,257314,1,0,0:0:0:0:
402,192,257314,1,0,0:0:0:0:
329,192,257314,1,0,0:0:0:0:
109,192,257408,1,0,0:0:0:0:
402,192,257502,1,0,0:0:0:0:
475,192,257502,1,0,0:0:0:0:
182,192,257502,1,0,0:0:0:0:
256,192,257502,1,0,0:0:0:0:
36,192,257595,1,0,0:0:0:0:
329,192,257689,1,0,0:0:0:0:
402,192,257689,1,0,0:0:0:0:
109,192,257689,1,0,0:0:0:0:
182,192,257689,1,0,0:0:0:0:
475,192,257783,1,0,0:0:0:0:
256,192,257877,1,0,0:0:0:0:
109,192,257877,1,0,0:0:0:0:
36,192,257877,1,0,0:0:0:0:
475,192,257970,1,0,0:0:0:0:
329,192,257970,1,0,0:0:0:0:
109,192,258064,1,0,0:0:0:0:
182,192,258064,1,0,0:0:0:0:
329,192,258158,1,0,0:0:0:0:
256,192,258158,1,0,0:0:0:0:
36,192,258252,1,0,0:0:0:0:
182,192,258252,1,0,0:0:0:0:
475,192,258252,1,0,0:0:0:0:
402,192,258252,1,0,0:0:0:0:
256,192,258345,1,0,0:0:0:0:
109,192,258345,1,0,0:0:0:0:
402,192,258439,1,0,0:0:0:0:
329,192,258439,1,0,0:0:0:0:
256,192,258533,1,0,0:0:0:0:
182,192,258533,1,0,0:0:0:0:
402,192,258627,1,0,0:0:0:0:
475,192,258627,1,0,0:0:0:0:
36,192,258627,1,0,0:0:0:0:
109,192,258627,1,0,0:0:0:0:
329,192,258720,1,0,0:0:0:0:
256,192,258720,1,0,0:0:0:0:
182,192,258814,1,0,0:0:0:0:
109,192,258814,1,0,0:0:0:0:
402,192,258908,1,0,0:0:0:0:
329,192,258908,1,0,0:0:0:0:
256,192,259002,1,0,0:0:0:0:
475,192,259002,1,0,0:0:0:0:
109,192,259002,1,0,0:0:0:0:
36,192,259002,1,0,0:0:0:0:
329,192,259095,1,0,0:0:0:0:
182,192,259189,1,0,0:0:0:0:
329,192,259283,1,0,0:0:0:0:
256,192,259377,1,0,0:0:0:0:
475,192,259377,1,0,0:0:0:0:
109,192,259377,1,0,0:0:0:0:
36,192,259377,1,0,0:0:0:0:
182,192,259470,1,0,0:0:0:0:
329,192,259564,1,0,0:0:0:0:
182,192,259658,1,0,0:0:0:0:
402,192,259752,1,0,0:0:0:0:
475,192,259752,1,0,0:0:0:0:
256,192,259752,1,0,0:0:0:0:
109,192,259752,1,0,0:0:0:0:
36,192,259752,1,0,0:0:0:0:
329,192,259845,1,0,0:0:0:0:
182,192,259939,1,0,0:0:0:0:
256,192,260033,1,0,0:0:0:0:
475,192,260127,1,0,0:0:0:0:
109,192,260127,1,0,0:0:0:0:
329,192,260127,1,0,0:0:0:0:
402,192,260127,1,0,0:0:0:0:
256,192,260220,1,0,0:0:0:0:
182,192,260220,1,0,0:0:0:0:
402,192,260314,1,0,0:0:0:0:
36,192,260314,1,0,0:0:0:0:
109,192,260314,1,0,0:0:0:0:
329,192,260408,1,0,0:0:0:0:
475,192,260502,1,0,0:0:0:0:
402,192,260502,1,0,0:0:0:0:
256,192,260502,1,0,0:0:0:0:
182,192,260502,1,0,0:0:0:0:
109,192,260595,1,0,0:0:0:0:
402,192,260689,1,0,0:0:0:0:
329,192,260689,1,0,0:0:0:0:
182,192,260689,1,0,0:0:0:0:
109,192,260783,1,0,0:0:0:0:
475,192,260877,1,0,0:0:0:0:
402,192,260877,1,0,0:0:0:0:
182,192,260877,1,0,0:0:0:0:
256,192,260877,1,0,0:0:0:0:
109,192,260970,1,0,0:0:0:0:
36,192,260970,1,0,0:0:0:0:
329,192,261064,1,0,0:0:0:0:
182,192,261064,1,0,0:0:0:0:
475,192,261158,1,0,0:0:0:0:
402,192,261158,1,0,0:0:0:0:
256,192,261252,1,0,0:0:0:0:
329,192,261252,1,0,0:0:0:0:
36,192,261252,1,0,0:0:0:0:
109,192,261252,1,0,0:0:0:0:
402,192,261345,1,0,0:0:0:0:
182,192,261345,1,0,0:0:0:0:
475,192,261439,1,0,0:0:0:0:
256,192,261439,1,0,0:0:0:0:
402,192,261533,1,0,0:0:0:0:
182,192,261533,1,0,0:0:0:0:
329,192,261627,1,0,0:0:0:0:
475,192,261627,1,0,0:0:0:0:
109,192,261627,1,0,0:0:0:0:
36,192,261627,1,0,0:0:0:0:
256,192,261720,1,0,0:0:0:0:
36,192,261814,1,0,0:0:0:0:
109,192,261814,1,0,0:0:0:0:
182,192,261814,1,0,0:0:0:0:
475,192,261908,1,0,0:0:0:0:
402,192,261908,1,0,0:0:0:0:
329,192,261908,1,0,0:0:0:0:
475,192,262002,1,0,0:0:0:0:
402,192,262002,1,0,0:0:0:0:
256,192,262002,1,0,0:0:0:0:
36,192,262002,1,0,0:0:0:0:
109,192,262002,1,0,0:0:0:0:
329,192,262189,1,0,0:0:0:0:
109,192,262189,1,0,0:0:0:0:
182,192,262189,1,0,0:0:0:0:
329,192,262283,1,0,0:0:0:0:
182,192,262283,1,0,0:0:0:0:
475,192,262377,1,0,0:0:0:0:
36,192,262377,1,0,0:0:0:0:
256,192,262377,1,0,0:0:0:0:
402,192,262377,1,0,0:0:0:0:
475,192,262564,1,0,0:0:0:0:
402,192,262564,1,0,0:0:0:0:
256,192,262564,1,0,0:0:0:0:
329,192,262752,1,0,0:0:0:0:
475,192,262752,1,0,0:0:0:0:
182,192,262752,1,0,0:0:0:0:
109,192,262752,1,0,0:0:0:0:
36,192,262752,1,0,0:0:0:0:
402,192,262939,1,0,0:0:0:0:
182,192,262939,1,0,0:0:0:0:
256,192,262939,1,0,0:0:0:0:
329,192,263127,1,0,0:0:0:0:
475,192,263127,1,0,0:0:0:0:
109,192,263127,1,0,0:0:0:0:
36,192,263127,1,0,0:0:0:0:
182,192,263220,1,0,0:0:0:0:
256,192,263220,1,0,0:0:0:0:
36,192,263314,1,0,0:0:0:0:
475,192,263314,1,0,0:0:0:0:
329,192,263314,1,0,0:0:0:0:
109,192,263408,1,0,0:0:0:0:
402,192,263502,1,0,0:0:0:0:
475,192,263502,1,0,0:0:0:0:
182,192,263502,1,0,0:0:0:0:
256,192,263502,1,0,0:0:0:0:
329,192,263595,1,0,0:0:0:0:
256,192,263689,1,0,0:0:0:0:
109,192,263689,1,0,0:0:0:0:
36,192,263689,1,0,0:0:0:0:
402,192,263783,1,0,0:0:0:0:
182,192,263783,1,0,0:0:0:0:
475,192,263877,1,0,0:0:0:0:
36,192,263877,1,0,0:0:0:0:
256,192,263877,1,0,0:0:0:0:
329,192,263877,1,0,0:0:0:0:
182,192,263970,1,0,0:0:0:0:
109,192,263970,1,0,0:0:0:0:
329,192,264064,1,0,0:0:0:0:
256,192,264064,1,0,0:0:0:0:
109,192,264158,1,0,0:0:0:0:
36,192,264158,1,0,0:0:0:0:
402,192,264252,1,0,0:0:0:0:
475,192,264252,1,0,0:0:0:0:
182,192,264252,1,0,0:0:0:0:
329,192,264252,1,0,0:0:0:0:
109,192,264345,1,0,0:0:0:0:
256,192,264345,1,0,0:0:0:0:
402,192,264439,1,0,0:0:0:0:
36,192,264439,1,0,0:0:0:0:
182,192,264439,1,0,0:0:0:0:
256,192,264533,1,0,0:0:0:0:
329,192,264533,1,0,0:0:0:0:
475,192,264627,1,0,0:0:0:0:
36,192,264627,1,0,0:0:0:0:
109,192,264627,1,0,0:0:0:0:
182,192,264627,1,0,0:0:0:0:
402,192,264720,1,0,0:0:0:0:
329,192,264720,1,0,0:0:0:0:
109,192,264814,1,0,0:0:0:0:
256,192,264814,1,0,0:0:0:0:
402,192,264908,1,0,0:0:0:0:
329,192,264908,1,0,0:0:0:0:
256,192,265002,1,0,0:0:0:0:
475,192,265002,1,0,0:0:0:0:
109,192,265002,1,0,0:0:0:0:
36,192,265002,1,0,0:0:0:0:
329,192,265095,1,0,0:0:0:0:
182,192,265189,1,0,0:0:0:0:
402,192,265189,1,0,0:0:0:0:
329,192,265283,1,0,0:0:0:0:
475,192,265377,1,0,0:0:0:0:
36,192,265377,1,0,0:0:0:0:
256,192,265377,1,0,0:0:0:0:
182,192,265470,1,0,0:0:0:0:
329,192,265564,1,0,0:0:0:0:
109,192,265564,1,0,0:0:0:0:
182,192,265658,1,0,0:0:0:0:
402,192,265752,1,0,0:0:0:0:
475,192,265752,1,0,0:0:0:0:
36,192,265752,1,0,0:0:0:0:
256,192,265752,1,0,0:0:0:0:
109,192,265798,1,0,0:0:0:0:
329,192,265845,1,0,0:0:0:0:
182,192,265845,1,0,0:0:0:0:
402,192,265892,1,0,0:0:0:0:
256,192,265939,1,0,0:0:0:0:
475,192,265939,1,0,0:0:0:0:
109,192,265986,1,0,0:0:0:0:
329,192,266033,1,0,0:0:0:0:
36,192,266033,1,0,0:0:0:0:
182,192,266080,1,0,0:0:0:0:
402,192,266127,1,0,0:0:0:0:
256,192,266127,1,0,0:0:0:0:
475,192,266173,1,0,0:0:0:0:
329,192,266220,1,0,0:0:0:0:
109,192,266220,1,0,0:0:0:0:
182,192,266267,1,0,0:0:0:0:
256,192,266314,1,0,0:0:0:0:
36,192,266314,1,0,0:0:0:0:
402,192,266361,1,0,0:0:0:0:
109,192,266408,1,0,0:0:0:0:
329,192,266408,1,0,0:0:0:0:
256,192,266455,1,0,0:0:0:0:
182,192,266502,1,0,0:0:0:0:
475,192,266502,1,0,0:0:0:0:
36,192,266548,1,0,0:0:0:0:
329,192,266595,1,0,0:0:0:0:
402,192,266595,1,0,0:0:0:0:
109,192,266642,1,0,0:0:0:0:
475,192,266689,1,0,0:0:0:0:
256,192,266689,1,0,0:0:0:0:
182,192,266736,1,0,0:0:0:0:
402,192,266783,1,0,0:0:0:0:
36,192,266783,1,0,0:0:0:0:
329,192,266830,1,0,0:0:0:0:
475,192,266877,1,0,0:0:0:0:
109,192,266877,1,0,0:0:0:0:
182,192,266923,1,0,0:0:0:0:
402,192,266970,1,0,0:0:0:0:
256,192,266970,1,0,0:0:0:0:
36,192,267017,1,0,0:0:0:0:
329,192,267064,1,0,0:0:0:0:
109,192,267064,1,0,0:0:0:0:
182,192,267111,1,0,0:0:0:0:
475,192,267158,1,0,0:0:0:0:
402,192,267158,1,0,0:0:0:0:
256,192,267205,1,0,0:0:0:0:
475,192,267252,1,0,0:0:0:0:
402,192,267252,1,0,0:0:0:0:
182,192,267252,1,0,0:0:0:0:
36,192,267252,1,0,0:0:0:0:
109,192,267252,1,0,0:0:0:0:
329,192,267252,1,0,0:0:0:0:
402,192,268002,1,0,0:0:0:0:
475,192,268002,1,0,0:0:0:0:
256,192,268002,1,0,0:0:0:0:
36,192,268002,1,0,0:0:0:0:
109,192,268002,1,0,0:0:0:0:
109,192,268752,1,0,0:0:0:0:
36,192,268752,1,0,0:0:0:0:
475,192,268752,1,0,0:0:0:0:
256,192,268752,1,0,0:0:0:0:
402,192,268752,1,0,0:0:0:0:
182,192,268845,1,0,0:0:0:0:
329,192,268939,1,0,0:0:0:0:
109,192,269033,1,0,0:0:0:0:
475,192,269127,1,0,0:0:0:0:
36,192,269127,1,0,0:0:0:0:
256,192,269127,1,0,0:0:0:0:
402,192,269127,1,0,0:0:0:0:
182,192,269314,1,0,0:0:0:0:
109,192,269408,1,0,0:0:0:0:
402,192,269502,1,0,0:0:0:0:
475,192,269502,1,0,0:0:0:0:
182,192,269502,1,0,0:0:0:0:
329,192,269502,1,0,0:0:0:0:
109,192,269595,1,0,0:0:0:0:
182,192,269689,1,0,0:0:0:0:
256,192,269877,1,0,0:0:0:0:
402,192,269877,1,0,0:0:0:0:
36,192,269877,1,0,0:0:0:0:
109,192,269877,1,0,0:0:0:0:
475,192,269970,1,0,0:0:0:0:
329,192,270064,1,0,0:0:0:0:
402,192,270158,1,0,0:0:0:0:
36,192,270252,1,0,0:0:0:0:
329,192,270252,1,0,0:0:0:0:
182,192,270252,1,0,0:0:0:0:
109,192,270252,1,0,0:0:0:0:
402,192,270345,1,0,0:0:0:0:
329,192,270439,1,0,0:0:0:0:
402,192,270533,1,0,0:0:0:0:
109,192,270627,1,0,0:0:0:0:
475,192,270627,1,0,0:0:0:0:
329,192,270627,1,0,0:0:0:0:
256,192,270627,1,0,0:0:0:0:
182,192,270814,1,0,0:0:0:0:
329,192,270908,1,0,0:0:0:0:
256,192,271002,1,0,0:0:0:0:
475,192,271002,1,0,0:0:0:0:
36,192,271002,1,0,0:0:0:0:
109,192,271002,1,0,0:0:0:0:
329,192,271095,1,0,0:0:0:0:
182,192,271189,1,0,0:0:0:0:
475,192,271377,1,0,0:0:0:0:
109,192,271377,1,0,0:0:0:0:
329,192,271377,1,0,0:0:0:0:
402,192,271377,1,0,0:0:0:0:
256,192,271470,1,0,0:0:0:0:
182,192,271564,1,0,0:0:0:0:
256,192,271658,1,0,0:0:0:0:
329,192,271752,1,0,0:0:0:0:
475,192,271752,1,0,0:0:0:0:
36,192,271752,1,0,0:0:0:0:
109,192,271752,1,0,0:0:0:0:
182,192,271845,1,0,0:0:0:0:
109,192,271939,1,0,0:0:0:0:
182,192,272033,1,0,0:0:0:0:
402,192,272127,1,0,0:0:0:0:
475,192,272127,1,0,0:0:0:0:
109,192,272127,1,0,0:0:0:0:
256,192,272127,1,0,0:0:0:0:
329,192,272314,1,0,0:0:0:0:
182,192,272408,1,0,0:0:0:0:
256,192,272502,1,0,0:0:0:0:
36,192,272502,1,0,0:0:0:0:
402,192,272502,1,0,0:0:0:0:
475,192,272502,1,0,0:0:0:0:
182,192,272595,1,0,0:0:0:0:
329,192,272689,1,0,0:0:0:0:
36,192,272877,1,0,0:0:0:0:
402,192,272877,1,0,0:0:0:0:
182,192,272877,1,0,0:0:0:0:
109,192,272877,1,0,0:0:0:0:
329,192,272970,1,0,0:0:0:0:
182,192,273064,1,0,0:0:0:0:
329,192,273158,1,0,0:0:0:0:
36,192,273252,1,0,0:0:0:0:
109,192,273252,1,0,0:0:0:0:
402,192,273252,1,0,0:0:0:0:
475,192,273252,1,0,0:0:0:0:
182,192,273298,1,0,0:0:0:0:
329,192,273345,1,0,0:0:0:0:
256,192,273345,1,0,0:0:0:0:
36,192,273392,1,0,0:0:0:0:
402,192,273439,1,0,0:0:0:0:
109,192,273439,1,0,0:0:0:0:
256,192,273486,1,0,0:0:0:0:
475,192,273533,1,0,0:0:0:0:
182,192,273533,1,0,0:0:0:0:
329,192,273580,1,0,0:0:0:0:
36,192,273627,1,0,0:0:0:0:
109,192,273627,1,0,0:0:0:0:
256,192,273673,1,0,0:0:0:0:
475,192,273720,1,0,0:0:0:0:
402,192,273720,1,0,0:0:0:0:
182,192,273767,1,0,0:0:0:0:
109,192,273814,1,0,0:0:0:0:
329,192,273814,1,0,0:0:0:0:
256,192,273861,1,0,0:0:0:0:
402,192,273908,1,0,0:0:0:0:
36,192,273908,1,0,0:0:0:0:
182,192,273955,1,0,0:0:0:0:
475,192,274002,1,0,0:0:0:0:
329,192,274002,1,0,0:0:0:0:
109,192,274048,1,0,0:0:0:0:
36,192,274095,1,0,0:0:0:0:
256,192,274095,1,0,0:0:0:0:
402,192,274142,1,0,0:0:0:0:
182,192,274189,1,0,0:0:0:0:
329,192,274189,1,0,0:0:0:0:
109,192,274236,1,0,0:0:0:0:
475,192,274283,1,0,0:0:0:0:
256,192,274283,1,0,0:0:0:0:
402,192,274330,1,0,0:0:0:0:
182,192,274377,1,0,0:0:0:0:
36,192,274377,1,0,0:0:0:0:
329,192,274423,1,0,0:0:0:0:
256,192,274470,1,0,0:0:0:0:
109,192,274470,1,0,0:0:0:0:
475,192,274517,1,0,0:0:0:0:
182,192,274564,1,0,0:0:0:0:
402,192,274564,1,0,0:0:0:0:
36,192,274611,1,0,0:0:0:0:
256,192,274658,1,0,0:0:0:0:
329,192,274658,1,0,0:0:0:0:
109,192,274705,1,0,0:0:0:0:
36,192,274752,1,0,0:0:0:0:
329,192,274752,1,0,0:0:0:0:
475,192,274752,1,0,0:0:0:0:
182,192,274752,1,0,0:0:0:0:
402,192,274752,1,0,0:0:0:0:
256,192,274845,1,0,0:0:0:0:
109,192,274939,1,0,0:0:0:0:
182,192,275033,1,0,0:0:0:0:
475,192,275127,1,0,0:0:0:0:
36,192,275127,1,0,0:0:0:0:
256,192,275127,1,0,0:0:0:0:
402,192,275127,1,0,0:0:0:0:
182,192,275314,1,0,0:0:0:0:
329,192,275408,1,0,0:0:0:0:
256,192,275502,1,0,0:0:0:0:
475,192,275502,1,0,0:0:0:0:
109,192,275502,1,0,0:0:0:0:
36,192,275502,1,0,0:0:0:0:
402,192,275595,1,0,0:0:0:0:
182,192,275689,1,0,0:0:0:0:
402,192,275877,1,0,0:0:0:0:
109,192,275877,1,0,0:0:0:0:
329,192,275877,1,0,0:0:0:0:
475,192,275877,1,0,0:0:0:0:
182,192,275970,1,0,0:0:0:0:
329,192,276064,1,0,0:0:0:0:
182,192,276158,1,0,0:0:0:0:
256,192,276252,1,0,0:0:0:0:
402,192,276252,1,0,0:0:0:0:
109,192,276252,1,0,0:0:0:0:
36,192,276252,1,0,0:0:0:0:
475,192,276345,1,0,0:0:0:0:
329,192,276439,1,0,0:0:0:0:
182,192,276533,1,0,0:0:0:0:
475,192,276627,1,0,0:0:0:0:
109,192,276627,1,0,0:0:0:0:
329,192,276627,1,0,0:0:0:0:
402,192,276627,1,0,0:0:0:0:
182,192,276814,1,0,0:0:0:0:
329,192,276908,1,0,0:0:0:0:
402,192,277002,1,0,0:0:0:0:
475,192,277002,1,0,0:0:0:0:
109,192,277002,1,0,0:0:0:0:
36,192,277002,1,0,0:0:0:0:
256,192,277095,1,0,0:0:0:0:
182,192,277189,1,0,0:0:0:0:
475,192,277377,1,0,0:0:0:0:
182,192,277377,1,0,0:0:0:0:
256,192,277377,1,0,0:0:0:0:
402,192,277377,1,0,0:0:0:0:
36,192,277470,1,0,0:0:0:0:
329,192,277564,1,0,0:0:0:0:
109,192,277658,1,0,0:0:0:0:
475,192,277752,1,0,0:0:0:0:
36,192,277752,1,0,0:0:0:0:
182,192,277752,1,0,0:0:0:0:
402,192,277752,1,0,0:0:0:0:
329,192,277845,1,0,0:0:0:0:
109,192,277939,1,0,0:0:0:0:
256,192,278033,1,0,0:0:0:0:
475,192,278127,1,0,0:0:0:0:
329,192,278127,1,0,0:0:0:0:
36,192,278127,1,0,0:0:0:0:
182,192,278127,1,0,0:0:0:0:
402,192,278314,1,0,0:0:0:0:
256,192,278408,1,0,0:0:0:0:
475,192,278502,1,0,0:0:0:0:
182,192,278502,1,0,0:0:0:0:
109,192,278502,1,0,0:0:0:0:
329,192,278502,1,0,0:0:0:0:
256,192,278595,1,0,0:0:0:0:
402,192,278689,1,0,0:0:0:0:
256,192,278877,1,0,0:0:0:0:
329,192,278877,1,0,0:0:0:0:
36,192,278877,1,0,0:0:0:0:
109,192,278877,1,0,0:0:0:0:
475,192,278970,1,0,0:0:0:0:
182,192,279064,1,0,0:0:0:0:
402,192,279158,1,0,0:0:0:0:
256,192,279252,1,0,0:0:0:0:
475,192,279252,1,0,0:0:0:0:
36,192,279252,1,0,0:0:0:0:
109,192,279252,1,0,0:0:0:0:
329,192,279298,1,0,0:0:0:0:
182,192,279345,1,0,0:0:0:0:
402,192,279392,1,0,0:0:0:0:
109,192,279439,1,0,0:0:0:0:
256,192,279486,1,0,0:0:0:0:
475,192,279533,1,0,0:0:0:0:
329,192,279533,1,0,0:0:0:0:
36,192,279533,1,0,0:0:0:0:
182,192,279533,1,0,0:0:0:0:
402,192,279580,1,0,0:0:0:0:
109,192,279627,1,0,0:0:0:0:
256,192,279673,1,0,0:0:0:0:
182,192,279720,1,0,0:0:0:0:
36,192,279767,1,0,0:0:0:0:
475,192,279814,1,0,0:0:0:0:
109,192,279814,1,0,0:0:0:0:
329,192,279814,1,0,0:0:0:0:
402,192,279814,1,0,0:0:0:0:
256,192,279861,1,0,0:0:0:0:
182,192,279908,1,0,0:0:0:0:
36,192,279955,1,0,0:0:0:0:
329,192,280002,1,0,0:0:0:0:
475,192,280048,1,0,0:0:0:0:
402,192,280095,1,0,0:0:0:0:
256,192,280095,1,0,0:0:0:0:
109,192,280095,1,0,0:0:0:0:
182,192,280095,1,0,0:0:0:0:
36,192,280142,1,0,0:0:0:0:
329,192,280189,1,0,0:0:0:0:
475,192,280236,1,0,0:0:0:0:
182,192,280283,1,0,0:0:0:0:
109,192,280330,1,0,0:0:0:0:
402,192,280377,1,0,0:0:0:0:
329,192,280377,1,0,0:0:0:0:
36,192,280377,1,0,0:0:0:0:
256,192,280377,1,0,0:0:0:0:
475,192,280423,1,0,0:0:0:0:
109,192,280470,1,0,0:0:0:0:
182,192,280517,1,0,0:0:0:0:
36,192,280564,1,0,0:0:0:0:
329,192,280564,1,0,0:0:0:0:
402,192,280611,1,0,0:0:0:0:
475,192,280658,1,0,0:0:0:0:
109,192,280658,1,0,0:0:0:0:
256,192,280705,1,0,0:0:0:0:
329,192,280752,1,0,0:0:0:0:
402,192,280752,1,0,0:0:0:0:
182,192,280752,1,0,0:0:0:0:
36,192,280752,1,0,0:0:0:0:
475,192,280798,1,0,0:0:0:0:
109,192,280845,1,0,0:0:0:0:
256,192,280892,1,0,0:0:0:0:
402,192,280939,1,0,0:0:0:0:
182,192,280939,1,0,0:0:0:0:
36,192,280986,1,0,0:0:0:0:
329,192,281033,1,0,0:0:0:0:
109,192,281080,1,0,0:0:0:0:
475,192,281127,1,0,0:0:0:0:
256,192,281127,1,0,0:0:0:0:
182,192,281127,1,0,0:0:0:0:
402,192,281173,1,0,0:0:0:0:
36,192,281220,1,0,0:0:0:0:
109,192,281267,1,0,0:0:0:0:
475,192,281314,1,0,0:0:0:0:
329,192,281314,1,0,0:0:0:0:
256,192,281314,1,0,0:0:0:0:
182,192,281361,1,0,0:0:0:0:
36,192,281408,1,0,0:0:0:0:
402,192,281455,1,0,0:0:0:0:
475,192,281502,1,0,0:0:0:0:
256,192,281502,1,0,0:0:0:0:
109,192,281502,1,0,0:0:0:0:
329,192,281548,1,0,0:0:0:0:
182,192,281595,1,0,0:0:0:0:
36,192,281642,1,0,0:0:0:0:
475,192,281689,1,0,0:0:0:0:
256,192,281689,1,0,0:0:0:0:
109,192,281689,1,0,0:0:0:0:
402,192,281736,1,0,0:0:0:0:
182,192,281783,1,0,0:0:0:0:
329,192,281830,1,0,0:0:0:0:
256,192,281877,1,0,0:0:0:0:
109,192,281877,1,0,0:0:0:0:
36,192,281877,1,0,0:0:0:0:
475,192,281923,1,0,0:0:0:0:
402,192,281970,1,0,0:0:0:0:
182,192,282017,1,0,0:0:0:0:
36,192,282064,1,0,0:0:0:0:
329,192,282064,1,0,0:0:0:0:
256,192,282064,1,0,0:0:0:0:
475,192,282111,1,0,0:0:0:0:
109,192,282158,1,0,0:0:0:0:
182,192,282205,1,0,0:0:0:0:
256,192,282252,1,0,0:0:0:0:
402,192,282252,1,0,0:0:0:0:
329,192,282252,1,0,0:0:0:0:
36,192,282298,1,0,0:0:0:0:
475,192,282345,1,0,0:0:0:0:
182,192,282392,1,0,0:0:0:0:
256,192,282439,1,0,0:0:0:0:
109,192,282439,1,0,0:0:0:0:
402,192,282439,1,0,0:0:0:0:
329,192,282486,1,0,0:0:0:0:
36,192,282533,1,0,0:0:0:0:
182,192,282580,1,0,0:0:0:0:
475,192,282627,1,0,0:0:0:0:
402,192,282627,1,0,0:0:0:0:
256,192,282627,1,0,0:0:0:0:
109,192,282673,1,0,0:0:0:0:
329,192,282720,1,0,0:0:0:0:
36,192,282767,1,0,0:0:0:0:
475,192,282814,1,0,0:0:0:0:
182,192,282814,1,0,0:0:0:0:
256,192,282814,1,0,0:0:0:0:
402,192,282861,1,0,0:0:0:0:
109,192,282908,1,0,0:0:0:0:
36,192,282955,1,0,0:0:0:0:
475,192,283002,1,0,0:0:0:0:
182,192,283002,1,0,0:0:0:0:
256,192,283002,1,0,0:0:0:0:
329,192,283048,1,0,0:0:0:0:
402,192,283095,1,0,0:0:0:0:
109,192,283095,1,0,0:0:0:0:
182,192,283142,1,0,0:0:0:0:
36,192,283189,1,0,0:0:0:0:
475,192,283189,1,0,0:0:0:0:
256,192,283189,1,0,0:0:0:0:
329,192,283236,1,0,0:0:0:0:
182,192,283283,1,0,0:0:0:0:
109,192,283330,1,0,0:0:0:0:
402,192,283377,1,0,0:0:0:0:
475,192,283377,1,0,0:0:0:0:
256,192,283377,1,0,0:0:0:0:
36,192,283423,1,0,0:0:0:0:
182,192,283470,1,0,0:0:0:0:
329,192,283517,1,0,0:0:0:0:
475,192,283564,1,0,0:0:0:0:
256,192,283564,1,0,0:0:0:0:
109,192,283564,1,0,0:0:0:0:
402,192,283611,1,0,0:0:0:0:
36,192,283658,1,0,0:0:0:0:
182,192,283705,1,0,0:0:0:0:
109,192,283752,1,0,0:0:0:0:
475,192,283752,1,0,0:0:0:0:
329,192,283752,1,0,0:0:0:0:
256,192,283798,1,0,0:0:0:0:
402,192,283845,1,0,0:0:0:0:
36,192,283892,1,0,0:0:0:0:
329,192,283939,1,0,0:0:0:0:
182,192,283939,1,0,0:0:0:0:
475,192,283986,1,0,0:0:0:0:
109,192,284033,1,0,0:0:0:0:
256,192,284080,1,0,0:0:0:0:
182,192,284127,1,0,0:0:0:0:
402,192,284127,1,0,0:0:0:0:
329,192,284127,1,0,0:0:0:0:
36,192,284173,1,0,0:0:0:0:
109,192,284220,1,0,0:0:0:0:
256,192,284267,1,0,0:0:0:0:
182,192,284314,1,0,0:0:0:0:
475,192,284314,1,0,0:0:0:0:
402,192,284314,1,0,0:0:0:0:
36,192,284361,1,0,0:0:0:0:
329,192,284408,1,0,0:0:0:0:
256,192,284455,1,0,0:0:0:0:
475,192,284502,1,0,0:0:0:0:
182,192,284502,1,0,0:0:0:0:
109,192,284502,1,0,0:0:0:0:
402,192,284548,1,0,0:0:0:0:
36,192,284595,1,0,0:0:0:0:
256,192,284642,1,0,0:0:0:0:
475,192,284689,1,0,0:0:0:0:
329,192,284689,1,0,0:0:0:0:
109,192,284689,1,0,0:0:0:0:
182,192,284736,1,0,0:0:0:0:
402,192,284783,1,0,0:0:0:0:
256,192,284830,1,0,0:0:0:0:
475,192,284877,1,0,0:0:0:0:
109,192,284877,1,0,0:0:0:0:
36,192,284877,1,0,0:0:0:0:
329,192,284923,1,0,0:0:0:0:
182,192,284970,1,0,0:0:0:0:
402,192,285017,1,0,0:0:0:0:
475,192,285064,1,0,0:0:0:0:
256,192,285064,1,0,0:0:0:0:
109,192,285064,1,0,0:0:0:0:
36,192,285111,1,0,0:0:0:0:
329,192,285158,1,0,0:0:0:0:
182,192,285205,1,0,0:0:0:0:
402,192,285252,1,0,0:0:0:0:
475,192,285252,1,0,0:0:0:0:
109,192,285252,1,0,0:0:0:0:
36,192,285252,1,0,0:0:0:0:
256,192,285298,1,0,0:0:0:0:
329,192,285345,1,0,0:0:0:0:
182,192,285345,1,0,0:0:0:0:
36,192,285392,1,0,0:0:0:0:
475,192,285439,1,0,0:0:0:0:
402,192,285439,1,0,0:0:0:0:
109,192,285439,1,0,0:0:0:0:
256,192,285486,1,0,0:0:0:0:
36,192,285533,1,0,0:0:0:0:
182,192,285533,1,0,0:0:0:0:
329,192,285580,1,0,0:0:0:0:
475,192,285627,1,0,0:0:0:0:
256,192,285627,1,0,0:0:0:0:
109,192,285627,1,0,0:0:0:0:
402,192,285673,1,0,0:0:0:0:
329,192,285720,1,0,0:0:0:0:
182,192,285720,1,0,0:0:0:0:
36,192,285767,1,0,0:0:0:0:
475,192,285814,1,0,0:0:0:0:
256,192,285814,1,0,0:0:0:0:
109,192,285814,1,0,0:0:0:0:
329,192,285861,1,0,0:0:0:0:
182,192,285908,1,0,0:0:0:0:
402,192,285908,1,0,0:0:0:0:
36,192,285955,1,0,0:0:0:0:
475,192,286002,1,0,0:0:0:0:
256,192,286002,1,0,0:0:0:0:
109,192,286002,1,0,0:0:0:0:
329,192,286048,1,0,0:0:0:0:
182,192,286095,1,0,0:0:0:0:
402,192,286095,1,0,0:0:0:0:
36,192,286142,1,0,0:0:0:0:
475,192,286189,1,0,0:0:0:0:
256,192,286189,1,0,0:0:0:0:
109,192,286189,1,0,0:0:0:0:
402,192,286236,1,0,0:0:0:0:
182,192,286283,1,0,0:0:0:0:
329,192,286283,1,0,0:0:0:0:
36,192,286330,1,0,0:0:0:0:
402,192,286377,1,0,0:0:0:0:
256,192,286377,1,0,0:0:0:0:
109,192,286377,1,0,0:0:0:0:
475,192,286423,1,0,0:0:0:0:
329,192,286470,1,0,0:0:0:0:
182,192,286470,1,0,0:0:0:0:
36,192,286517,1,0,0:0:0:0:
475,192,286564,1,0,0:0:0:0:
402,192,286564,1,0,0:0:0:0:
256,192,286564,1,0,0:0:0:0:
109,192,286611,1,0,0:0:0:0:
329,192,286658,1,0,0:0:0:0:
182,192,286658,1,0,0:0:0:0:
402,192,286705,1,0,0:0:0:0:
256,192,286752,1,0,0:0:0:0:
475,192,286752,1,0,0:0:0:0:
36,192,286752,1,0,0:0:0:0:
109,192,286752,1,0,0:0:0:0:
402,192,286798,1,0,0:0:0:0:
329,192,286845,1,0,0:0:0:0:
182,192,286845,1,0,0:0:0:0:
36,192,286892,1,0,0:0:0:0:
256,192,286939,1,0,0:0:0:0:
109,192,286939,1,0,0:0:0:0:
402,192,286986,1,0,0:0:0:0:
329,192,287033,1,0,0:0:0:0:
182,192,287033,1,0,0:0:0:0:
36,192,287080,1,0,0:0:0:0:
475,192,287127,1,0,0:0:0:0:
256,192,287127,1,0,0:0:0:0:
109,192,287127,1,0,0:0:0:0:
402,192,287173,1,0,0:0:0:0:
36,192,287220,1,0,0:0:0:0:
182,192,287220,1,0,0:0:0:0:
329,192,287267,1,0,0:0:0:0:
475,192,287314,1,0,0:0:0:0:
256,192,287314,1,0,0:0:0:0:
109,192,287361,1,0,0:0:0:0:
329,192,287408,1,0,0:0:0:0:
402,192,287408,1,0,0:0:0:0:
182,192,287455,1,0,0:0:0:0:
475,192,287502,1,0,0:0:0:0:
256,192,287502,1,0,0:0:0:0:
36,192,287502,1,0,0:0:0:0:
109,192,287548,1,0,0:0:0:0:
182,192,287595,1,0,0:0:0:0:
329,192,287595,1,0,0:0:0:0:
402,192,287642,1,0,0:0:0:0:
109,192,287689,1,0,0:0:0:0:
36,192,287689,1,0,0:0:0:0:
256,192,287736,1,0,0:0:0:0:
475,192,287783,1,0,0:0:0:0:
329,192,287783,1,0,0:0:0:0:
182,192,287830,1,0,0:0:0:0:
36,192,287877,1,0,0:0:0:0:
402,192,287877,1,0,0:0:0:0:
256,192,287877,1,0,0:0:0:0:
109,192,287923,1,0,0:0:0:0:
475,192,287970,1,0,0:0:0:0:
329,192,287970,1,0,0:0:0:0:
182,192,288017,1,0,0:0:0:0:
402,192,288064,1,0,0:0:0:0:
36,192,288064,1,0,0:0:0:0:
256,192,288111,1,0,0:0:0:0:
182,192,288158,1,0,0:0:0:0:
109,192,288158,1,0,0:0:0:0:
329,192,288205,1,0,0:0:0:0:
256,192,288252,1,0,0:0:0:0:
36,192,288252,1,0,0:0:0:0:
475,192,288252,1,0,0:0:0:0:
402,192,288298,1,0,0:0:0:0:
109,192,288345,1,0,0:0:0:0:
182,192,288345,1,0,0:0:0:0:
329,192,288392,1,0,0:0:0:0:
36,192,288439,1,0,0:0:0:0:
475,192,288439,1,0,0:0:0:0:
182,192,288486,1,0,0:0:0:0:
402,192,288533,1,0,0:0:0:0:
256,192,288533,1,0,0:0:0:0:
109,192,288580,1,0,0:0:0:0:
475,192,288627,1,0,0:0:0:0:
329,192,288627,1,0,0:0:0:0:
182,192,288627,1,0,0:0:0:0:
36,192,288673,1,0,0:0:0:0:
109,192,288720,1,0,0:0:0:0:
256,192,288720,1,0,0:0:0:0:
402,192,288767,1,0,0:0:0:0:
182,192,288814,1,0,0:0:0:0:
329,192,288814,1,0,0:0:0:0:
475,192,288861,1,0,0:0:0:0:
109,192,288908,1,0,0:0:0:0:
36,192,288908,1,0,0:0:0:0:
256,192,288955,1,0,0:0:0:0:
182,192,289002,1,0,0:0:0:0:
475,192,289002,1,0,0:0:0:0:
402,192,289002,1,0,0:0:0:0:
329,192,289048,1,0,0:0:0:0:
36,192,289095,1,0,0:0:0:0:
109,192,289095,1,0,0:0:0:0:
256,192,289142,1,0,0:0:0:0:
475,192,289189,1,0,0:0:0:0:
182,192,289189,1,0,0:0:0:0:
402,192,289236,1,0,0:0:0:0:
329,192,289283,1,0,0:0:0:0:
109,192,289283,1,0,0:0:0:0:
182,192,289330,1,0,0:0:0:0:
402,192,289377,1,0,0:0:0:0:
36,192,289377,1,0,0:0:0:0:
256,192,289377,1,0,0:0:0:0:
475,192,289423,1,0,0:0:0:0:
182,192,289470,1,0,0:0:0:0:
109,192,289470,1,0,0:0:0:0:
329,192,289517,1,0,0:0:0:0:
36,192,289564,1,0,0:0:0:0:
256,192,289564,1,0,0:0:0:0:
402,192,289611,1,0,0:0:0:0:
109,192,289658,1,0,0:0:0:0:
182,192,289658,1,0,0:0:0:0:
329,192,289705,1,0,0:0:0:0:
256,192,289752,1,0,0:0:0:0:
36,192,289752,1,0,0:0:0:0:
475,192,289752,1,0,0:0:0:0:
402,192,289752,1,0,0:0:0:0:
109,192,289798,1,0,0:0:0:0:
329,192,289845,1,0,0:0:0:0:
182,192,289845,1,0,0:0:0:0:
402,192,289892,1,0,0:0:0:0:
36,192,289939,1,0,0:0:0:0:
256,192,289939,1,0,0:0:0:0:
475,192,289939,1,0,0:0:0:0:
109,192,289986,1,0,0:0:0:0:
402,192,290033,1,0,0:0:0:0:
329,192,290033,1,0,0:0:0:0:
182,192,290080,1,0,0:0:0:0:
256,192,290127,1,0,0:0:0:0:
109,192,290127,1,0,0:0:0:0:
36,192,290127,1,0,0:0:0:0:
475,192,290173,1,0,0:0:0:0:
182,192,290220,1,0,0:0:0:0:
402,192,290220,1,0,0:0:0:0:
256,192,290267,1,0,0:0:0:0:
329,192,290314,1,0,0:0:0:0:
109,192,290314,1,0,0:0:0:0:
36,192,290314,1,0,0:0:0:0:
475,192,290361,1,0,0:0:0:0:
402,192,290408,1,0,0:0:0:0:
182,192,290408,1,0,0:0:0:0:
256,192,290455,1,0,0:0:0:0:
475,192,290502,1,0,0:0:0:0:
36,192,290502,1,0,0:0:0:0:
329,192,290502,1,0,0:0:0:0:
109,192,290548,1,0,0:0:0:0:
256,192,290595,1,0,0:0:0:0:
402,192,290595,1,0,0:0:0:0:
182,192,290642,1,0,0:0:0:0:
475,192,290689,1,0,0:0:0:0:
329,192,290689,1,0,0:0:0:0:
36,192,290689,1,0,0:0:0:0:
109,192,290736,1,0,0:0:0:0:
182,192,290783,1,0,0:0:0:0:
256,192,290783,1,0,0:0:0:0:
402,192,290830,1,0,0:0:0:0:
109,192,290877,1,0,0:0:0:0:
36,192,290877,1,0,0:0:0:0:
329,192,290877,1,0,0:0:0:0:
475,192,290923,1,0,0:0:0:0:
402,192,290970,1,0,0:0:0:0:
182,192,290970,1,0,0:0:0:0:
256,192,291017,1,0,0:0:0:0:
475,192,291064,1,0,0:0:0:0:
109,192,291064,1,0,0:0:0:0:
329,192,291064,1,0,0:0:0:0:
36,192,291111,1,0,0:0:0:0:
402,192,291158,1,0,0:0:0:0:
182,192,291158,1,0,0:0:0:0:
256,192,291205,1,0,0:0:0:0:
329,192,291252,1,0,0:0:0:0:
36,192,291252,1,0,0:0:0:0:
109,192,291252,1,0,0:0:0:0:
475,192,291298,1,0,0:0:0:0:
402,192,291298,1,0,0:0:0:0:
256,192,291345,1,0,0:0:0:0:
182,192,291345,1,0,0:0:0:0:
36,192,291392,1,0,0:0:0:0:
329,192,291392,1,0,0:0:0:0:
402,192,291439,1,0,0:0:0:0:
109,192,291439,1,0,0:0:0:0:
475,192,291486,1,0,0:0:0:0:
256,192,291486,1,0,0:0:0:0:
36,192,291533,1,0,0:0:0:0:
182,192,291533,1,0,0:0:0:0:
402,192,291580,1,0,0:0:0:0:
329,192,291580,1,0,0:0:0:0:
256,192,291627,1,0,0:0:0:0:
109,192,291627,1,0,0:0:0:0:
182,192,291673,1,0,0:0:0:0:
475,192,291673,1,0,0:0:0:0:
329,192,291720,1,0,0:0:0:0:
36,192,291720,1,0,0:0:0:0:
109,192,291767,1,0,0:0:0:0:
402,192,291767,1,0,0:0:0:0:
475,192,291814,1,0,0:0:0:0:
256,192,291814,1,0,0:0:0:0:
329,192,291861,1,0,0:0:0:0:
182,192,291861,1,0,0:0:0:0:
36,192,291908,1,0,0:0:0:0:
109,192,291908,1,0,0:0:0:0:
256,192,291955,1,0,0:0:0:0:
402,192,291955,1,0,0:0:0:0:
475,192,292002,1,0,0:0:0:0:
329,192,292002,1,0,0:0:0:0:
182,192,292048,1,0,0:0:0:0:
36,192,292048,1,0,0:0:0:0:
109,192,292095,1,0,0:0:0:0:
256,192,292095,1,0,0:0:0:0:
475,192,292142,1,0,0:0:0:0:
402,192,292142,1,0,0:0:0:0:
182,192,292189,1,0,0:0:0:0:
329,192,292189,1,0,0:0:0:0:
109,192,292236,1,0,0:0:0:0:
36,192,292236,1,0,0:0:0:0:
402,192,292283,1,0,0:0:0:0:
475,192,292283,1,0,0:0:0:0:
256,192,292330,1,0,0:0:0:0:
329,192,292330,1,0,0:0:0:0:
109,192,292377,1,0,0:0:0:0:
36,192,292377,1,0,0:0:0:0:
182,192,292377,1,0,0:0:0:0:
475,192,292423,1,0,0:0:0:0:
402,192,292423,1,0,0:0:0:0:
329,192,292423,1,0,0:0:0:0:
36,192,292470,1,0,0:0:0:0:
109,192,292470,1,0,0:0:0:0:
182,192,292470,1,0,0:0:0:0:
475,192,292517,1,0,0:0:0:0:
402,192,292517,1,0,0:0:0:0:
329,192,292517,1,0,0:0:0:0:
182,192,292564,1,0,0:0:0:0:
109,192,292564,1,0,0:0:0:0:
36,192,292564,1,0,0:0:0:0:
475,192,292611,1,0,0:0:0:0:
402,192,292611,1,0,0:0:0:0:
329,192,292611,1,0,0:0:0:0:
36,192,292658,1,0,0:0:0:0:
109,192,292658,1,0,0:0:0:0:
182,192,292658,1,0,0:0:0:0:
475,192,292705,1,0,0:0:0:0:
402,192,292705,1,0,0:0:0:0:
329,192,292705,1,0,0:0:0:0:
182,192,292752,1,0,0:0:0:0:
256,192,292752,1,0,0:0:0:0:
36,192,292752,1,0,0:0:0:0:
109,192,292752,1,0,0:0:0:0:
182,192,293033,1,0,0:0:0:0:
256,192,293033,1,0,0:0:0:0:
36,192,293033,1,0,0:0:0:0:
109,192,293033,1,0,0:0:0:0:
182,192,293314,1,0,0:0:0:0:
256,192,293314,1,0,0:0:0:0:
36,192,293314,1,0,0:0:0:0:
109,192,293314,1,0,0:0:0:0:
475,192,293502,1,0,0:0:0:0:
329,192,293502,1,0,0:0:0:0:
329,192,293595,1,0,0:0:0:0:
402,192,293689,1,0,0:0:0:0:
402,192,293783,1,0,0:0:0:0:
109,192,293877,1,0,0:0:0:0:
182,192,293877,1,0,0:0:0:0:
256,192,293970,1,0,0:0:0:0:
182,192,294064,1,0,0:0:0:0:
109,192,294064,1,0,0:0:0:0:
256,192,294158,1,0,0:0:0:0:
475,192,294252,1,0,0:0:0:0:
182,192,294252,1,0,0:0:0:0:
329,192,294252,1,0,0:0:0:0:
402,192,294252,1,0,0:0:0:0:
402,192,294533,1,0,0:0:0:0:
475,192,294533,1,0,0:0:0:0:
182,192,294533,1,0,0:0:0:0:
329,192,294533,1,0,0:0:0:0:
402,192,294814,1,0,0:0:0:0:
475,192,294814,1,0,0:0:0:0:
182,192,294814,1,0,0:0:0:0:
329,192,294814,1,0,0:0:0:0:
256,192,295002,1,0,0:0:0:0:
329,192,295002,1,0,0:0:0:0:
109,192,295002,1,0,0:0:0:0:
36,192,295002,1,0,0:0:0:0:
475,192,295095,1,0,0:0:0:0:
182,192,295189,1,0,0:0:0:0:
109,192,295189,1,0,0:0:0:0:
329,192,295189,1,0,0:0:0:0:
402,192,295189,1,0,0:0:0:0:
36,192,295283,1,0,0:0:0:0:
402,192,295377,1,0,0:0:0:0:
475,192,295377,1,0,0:0:0:0:
182,192,295377,1,0,0:0:0:0:
256,192,295377,1,0,0:0:0:0:
109,192,295470,1,0,0:0:0:0:
402,192,295564,1,0,0:0:0:0:
475,192,295564,1,0,0:0:0:0:
182,192,295564,1,0,0:0:0:0:
256,192,295564,1,0,0:0:0:0:
109,192,295658,1,0,0:0:0:0:
329,192,295752,1,0,0:0:0:0:
475,192,295752,1,0,0:0:0:0:
36,192,295752,1,0,0:0:0:0:
256,192,295752,1,0,0:0:0:0:
329,192,296033,1,0,0:0:0:0:
475,192,296033,1,0,0:0:0:0:
36,192,296033,1,0,0:0:0:0:
256,192,296033,1,0,0:0:0:0:
329,192,296314,1,0,0:0:0:0:
475,192,296314,1,0,0:0:0:0:
36,192,296314,1,0,0:0:0:0:
256,192,296314,1,0,0:0:0:0:
402,192,296502,1,0,0:0:0:0:
109,192,296502,1,0,0:0:0:0:
182,192,296502,1,0,0:0:0:0:
329,192,296595,1,0,0:0:0:0:
182,192,296689,1,0,0:0:0:0:
256,192,296783,1,0,0:0:0:0:
475,192,296877,1,0,0:0:0:0:
329,192,296877,1,0,0:0:0:0:
182,192,297064,1,0,0:0:0:0:
109,192,297064,1,0,0:0:0:0:
256,192,297158,1,0,0:0:0:0:
329,192,297252,1,0,0:0:0:0:
36,192,297252,1,0,0:0:0:0:
475,192,297252,1,0,0:0:0:0:
109,192,297283,1,0,0:0:0:0:
182,192,297314,1,0,0:0:0:0:
402,192,297345,1,0,0:0:0:0:
256,192,297377,1,0,0:0:0:0:
36,192,297408,1,0,0:0:0:0:
329,192,297439,1,0,0:0:0:0:
182,192,297470,1,0,0:0:0:0:
475,192,297470,1,0,0:0:0:0:
109,192,297502,1,0,0:0:0:0:
402,192,297533,1,0,0:0:0:0:
256,192,297564,1,0,0:0:0:0:
36,192,297595,1,0,0:0:0:0:
182,192,297627,1,0,0:0:0:0:
329,192,297658,1,0,0:0:0:0:
475,192,297689,1,0,0:0:0:0:
109,192,297720,1,0,0:0:0:0:
256,192,297752,1,0,0:0:0:0:
402,192,297783,1,0,0:0:0:0:
182,192,297814,1,0,0:0:0:0:
36,192,297845,1,0,0:0:0:0:
329,192,297877,1,0,0:0:0:0:
256,192,297908,1,0,0:0:0:0:
109,192,297939,1,0,0:0:0:0:
475,192,297970,1,0,0:0:0:0:
329,192,298002,1,0,0:0:0:0:
402,192,298002,1,0,0:0:0:0:
182,192,298033,1,0,0:0:0:0:
36,192,298064,1,0,0:0:0:0:
256,192,298095,1,0,0:0:0:0:
109,192,298127,1,0,0:0:0:0:
329,192,298158,1,0,0:0:0:0:
475,192,298189,1,0,0:0:0:0:
182,192,298220,1,0,0:0:0:0:
402,192,298252,1,0,0:0:0:0:
36,192,298283,1,0,0:0:0:0:
109,192,298314,1,0,0:0:0:0:
256,192,298345,1,0,0:0:0:0:
329,192,298377,1,0,0:0:0:0:
475,192,298408,1,0,0:0:0:0:
182,192,298439,1,0,0:0:0:0:
402,192,298470,1,0,0:0:0:0:
109,192,298502,1,0,0:0:0:0:
329,192,298533,1,0,0:0:0:0:
256,192,298564,1,0,0:0:0:0:
36,192,298595,1,0,0:0:0:0:
475,192,298627,1,0,0:0:0:0:
402,192,298658,1,0,0:0:0:0:
182,192,298689,1,0,0:0:0:0:
109,192,298720,1,0,0:0:0:0:
329,192,298752,1,0,0:0:0:0:
256,192,298752,1,0,0:0:0:0:
475,192,298752,1,0,0:0:0:0:
36,192,298752,1,0,0:0:0:0:
329,192,299033,1,0,0:0:0:0:
256,192,299033,1,0,0:0:0:0:
475,192,299033,1,0,0:0:0:0:
36,192,299033,1,0,0:0:0:0:
329,192,299314,1,0,0:0:0:0:
256,192,299314,1,0,0:0:0:0:
475,192,299314,1,0,0:0:0:0:
36,192,299314,1,0,0:0:0:0:
36,192,299502,1,0,0:0:0:0:
182,192,299502,1,0,0:0:0:0:
182,192,299595,1,0,0:0:0:0:
256,192,299689,1,0,0:0:0:0:
256,192,299783,1,0,0:0:0:0:
402,192,299877,1,0,0:0:0:0:
109,192,299877,1,0,0:0:0:0:
256,192,299970,1,0,0:0:0:0:
109,192,300064,1,0,0:0:0:0:
402,192,300064,1,0,0:0:0:0:
256,192,300158,1,0,0:0:0:0:
36,192,300252,1,0,0:0:0:0:
329,192,300252,1,0,0:0:0:0:
475,192,300252,1,0,0:0:0:0:
109,192,300252,1,0,0:0:0:0:
109,192,300533,1,0,0:0:0:0:
36,192,300533,1,0,0:0:0:0:
329,192,300533,1,0,0:0:0:0:
475,192,300533,1,0,0:0:0:0:
109,192,300814,1,0,0:0:0:0:
36,192,300814,1,0,0:0:0:0:
329,192,300814,1,0,0:0:0:0:
475,192,300814,1,0,0:0:0:0:
256,192,301002,1,0,0:0:0:0:
182,192,301002,1,0,0:0:0:0:
402,192,301002,1,0,0:0:0:0:
475,192,301002,1,0,0:0:0:0:
36,192,301095,1,0,0:0:0:0:
329,192,301189,1,0,0:0:0:0:
402,192,301189,1,0,0:0:0:0:
182,192,301189,1,0,0:0:0:0:
109,192,301189,1,0,0:0:0:0:
475,192,301283,1,0,0:0:0:0:
109,192,301377,1,0,0:0:0:0:
36,192,301377,1,0,0:0:0:0:
329,192,301377,1,0,0:0:0:0:
256,192,301377,1,0,0:0:0:0:
402,192,301470,1,0,0:0:0:0:
109,192,301564,1,0,0:0:0:0:
36,192,301564,1,0,0:0:0:0:
329,192,301564,1,0,0:0:0:0:
256,192,301564,1,0,0:0:0:0:
402,192,301658,1,0,0:0:0:0:
182,192,301752,1,0,0:0:0:0:
36,192,301752,1,0,0:0:0:0:
475,192,301752,1,0,0:0:0:0:
256,192,301752,1,0,0:0:0:0:
182,192,302033,1,0,0:0:0:0:
36,192,302033,1,0,0:0:0:0:
475,192,302033,1,0,0:0:0:0:
256,192,302033,1,0,0:0:0:0:
182,192,302314,1,0,0:0:0:0:
36,192,302314,1,0,0:0:0:0:
475,192,302314,1,0,0:0:0:0:
256,192,302314,1,0,0:0:0:0:
109,192,302502,1,0,0:0:0:0:
402,192,302502,1,0,0:0:0:0:
329,192,302502,1,0,0:0:0:0:
182,192,302595,1,0,0:0:0:0:
329,192,302689,1,0,0:0:0:0:
475,192,302783,1,0,0:0:0:0:
329,192,302877,1,0,0:0:0:0:
36,192,302877,1,0,0:0:0:0:
182,192,302877,1,0,0:0:0:0:
402,192,302970,1,0,0:0:0:0:
36,192,303064,1,0,0:0:0:0:
182,192,303064,1,0,0:0:0:0:
329,192,303064,1,0,0:0:0:0:
256,192,303158,1,0,0:0:0:0:
182,192,303252,1,0,0:0:0:0:
475,192,303252,1,0,0:0:0:0:
36,192,303252,1,0,0:0:0:0:
402,192,303283,1,0,0:0:0:0:
329,192,303314,1,0,0:0:0:0:
109,192,303345,1,0,0:0:0:0:
256,192,303377,1,0,0:0:0:0:
475,192,303408,1,0,0:0:0:0:
182,192,303439,1,0,0:0:0:0:
329,192,303470,1,0,0:0:0:0:
36,192,303470,1,0,0:0:0:0:
402,192,303502,1,0,0:0:0:0:
109,192,303533,1,0,0:0:0:0:
256,192,303564,1,0,0:0:0:0:
475,192,303595,1,0,0:0:0:0:
329,192,303627,1,0,0:0:0:0:
182,192,303658,1,0,0:0:0:0:
36,192,303689,1,0,0:0:0:0:
402,192,303720,1,0,0:0:0:0:
256,192,303752,1,0,0:0:0:0:
109,192,303783,1,0,0:0:0:0:
329,192,303814,1,0,0:0:0:0:
475,192,303845,1,0,0:0:0:0:
182,192,303877,1,0,0:0:0:0:
256,192,303908,1,0,0:0:0:0:
402,192,303939,1,0,0:0:0:0:
36,192,303970,1,0,0:0:0:0:
182,192,304002,1,0,0:0:0:0:
109,192,304002,1,0,0:0:0:0:
329,192,304033,1,0,0:0:0:0:
475,192,304064,1,0,0:0:0:0:
256,192,304095,1,0,0:0:0:0:
402,192,304127,1,0,0:0:0:0:
182,192,304158,1,0,0:0:0:0:
36,192,304189,1,0,0:0:0:0:
329,192,304220,1,0,0:0:0:0:
109,192,304252,1,0,0:0:0:0:
475,192,304283,1,0,0:0:0:0:
402,192,304314,1,0,0:0:0:0:
256,192,304345,1,0,0:0:0:0:
182,192,304377,1,0,0:0:0:0:
36,192,304408,1,0,0:0:0:0:
329,192,304439,1,0,0:0:0:0:
109,192,304470,1,0,0:0:0:0:
402,192,304502,1,0,0:0:0:0:
182,192,304533,1,0,0:0:0:0:
256,192,304564,1,0,0:0:0:0:
475,192,304595,1,0,0:0:0:0:
36,192,304627,1,0,0:0:0:0:
109,192,304658,1,0,0:0:0:0:
329,192,304689,1,0,0:0:0:0:
402,192,304720,1,0,0:0:0:0:
36,192,304752,1,0,0:0:0:0:
475,192,304752,1,0,0:0:0:0:
182,192,304752,1,0,0:0:0:0:
109,192,304814,1,0,0:0:0:0:
256,192,304845,1,0,0:0:0:0:
329,192,304877,1,0,0:0:0:0:
402,192,304939,1,0,0:0:0:0:
182,192,304939,1,0,0:0:0:0:
36,192,305002,1,0,0:0:0:0:
256,192,305033,1,0,0:0:0:0:
109,192,305064,1,0,0:0:0:0:
475,192,305127,1,0,0:0:0:0:
182,192,305127,1,0,0:0:0:0:
329,192,305127,1,0,0:0:0:0:
256,192,305189,1,0,0:0:0:0:
402,192,305220,1,0,0:0:0:0:
109,192,305252,1,0,0:0:0:0:
329,192,305314,1,0,0:0:0:0:
36,192,305314,1,0,0:0:0:0:
256,192,305377,1,0,0:0:0:0:
475,192,305408,1,0,0:0:0:0:
109,192,305439,1,0,0:0:0:0:
329,192,305502,1,0,0:0:0:0:
182,192,305502,1,0,0:0:0:0:
402,192,305502,1,0,0:0:0:0:
36,192,305564,1,0,0:0:0:0:
475,192,305595,1,0,0:0:0:0:
256,192,305627,1,0,0:0:0:0:
329,192,305689,1,0,0:0:0:0:
109,192,305689,1,0,0:0:0:0:
182,192,305752,1,0,0:0:0:0:
402,192,305783,1,0,0:0:0:0:
256,192,305814,1,0,0:0:0:0:
36,192,305877,1,0,0:0:0:0:
475,192,305877,1,0,0:0:0:0:
329,192,305877,1,0,0:0:0:0:
109,192,305939,1,0,0:0:0:0:
402,192,305970,1,0,0:0:0:0:
182,192,306002,1,0,0:0:0:0:
256,192,306064,1,0,0:0:0:0:
36,192,306064,1,0,0:0:0:0:
475,192,306127,1,0,0:0:0:0:
109,192,306158,1,0,0:0:0:0:
329,192,306189,1,0,0:0:0:0:
182,192,306252,1,0,0:0:0:0:
402,192,306252,1,0,0:0:0:0:
256,192,306252,1,0,0:0:0:0:
36,192,306314,1,0,0:0:0:0:
329,192,306345,1,0,0:0:0:0:
109,192,306377,1,0,0:0:0:0:
475,192,306439,1,0,0:0:0:0:
182,192,306439,1,0,0:0:0:0:
256,192,306502,1,0,0:0:0:0:
402,192,306533,1,0,0:0:0:0:
36,192,306564,1,0,0:0:0:0:
475,192,306627,1,0,0:0:0:0:
329,192,306627,1,0,0:0:0:0:
182,192,306627,1,0,0:0:0:0:
109,192,306689,1,0,0:0:0:0:
402,192,306720,1,0,0:0:0:0:
256,192,306752,1,0,0:0:0:0:
475,192,306814,1,0,0:0:0:0:
36,192,306814,1,0,0:0:0:0:
182,192,306877,1,0,0:0:0:0:
109,192,306908,1,0,0:0:0:0:
329,192,306939,1,0,0:0:0:0:
36,192,307002,1,0,0:0:0:0:
256,192,307002,1,0,0:0:0:0:
402,192,307002,1,0,0:0:0:0:
329,192,307064,1,0,0:0:0:0:
182,192,307095,1,0,0:0:0:0:
109,192,307127,1,0,0:0:0:0:
475,192,307189,1,0,0:0:0:0:
256,192,307189,1,0,0:0:0:0:
36,192,307252,1,0,0:0:0:0:
329,192,307283,1,0,0:0:0:0:
182,192,307314,1,0,0:0:0:0:
109,192,307377,1,0,0:0:0:0:
475,192,307377,1,0,0:0:0:0:
402,192,307377,1,0,0:0:0:0:
256,192,307439,1,0,0:0:0:0:
329,192,307470,1,0,0:0:0:0:
182,192,307502,1,0,0:0:0:0:
475,192,307564,1,0,0:0:0:0:
36,192,307564,1,0,0:0:0:0:
402,192,307627,1,0,0:0:0:0:
182,192,307658,1,0,0:0:0:0:
329,192,307689,1,0,0:0:0:0:
475,192,307752,1,0,0:0:0:0:
109,192,307752,1,0,0:0:0:0:
256,192,307752,1,0,0:0:0:0:
36,192,307814,1,0,0:0:0:0:
402,192,307845,1,0,0:0:0:0:
329,192,307877,1,0,0:0:0:0:
182,192,307939,1,0,0:0:0:0:
475,192,307939,1,0,0:0:0:0:
256,192,308002,1,0,0:0:0:0:
109,192,308033,1,0,0:0:0:0:
329,192,308064,1,0,0:0:0:0:
402,192,308127,1,0,0:0:0:0:
36,192,308127,1,0,0:0:0:0:
182,192,308127,1,0,0:0:0:0:
256,192,308189,1,0,0:0:0:0:
475,192,308220,1,0,0:0:0:0:
109,192,308252,1,0,0:0:0:0:
329,192,308314,1,0,0:0:0:0:
182,192,308314,1,0,0:0:0:0:
402,192,308377,1,0,0:0:0:0:
256,192,308408,1,0,0:0:0:0:
109,192,308439,1,0,0:0:0:0:
475,192,308502,1,0,0:0:0:0:
36,192,308502,1,0,0:0:0:0:
182,192,308502,1,0,0:0:0:0:
402,192,308564,1,0,0:0:0:0:
256,192,308595,1,0,0:0:0:0:
109,192,308627,1,0,0:0:0:0:
329,192,308689,1,0,0:0:0:0:
182,192,308689,1,0,0:0:0:0:
475,192,308752,1,0,0:0:0:0:
402,192,308783,1,0,0:0:0:0:
256,192,308814,1,0,0:0:0:0:
36,192,308877,1,0,0:0:0:0:
109,192,308877,1,0,0:0:0:0:
329,192,308877,1,0,0:0:0:0:
182,192,308939,1,0,0:0:0:0:
402,192,308970,1,0,0:0:0:0:
256,192,309002,1,0,0:0:0:0:
475,192,309064,1,0,0:0:0:0:
109,192,309064,1,0,0:0:0:0:
329,192,309127,1,0,0:0:0:0:
182,192,309158,1,0,0:0:0:0:
36,192,309189,1,0,0:0:0:0:
475,192,309252,1,0,0:0:0:0:
402,192,309252,1,0,0:0:0:0:
256,192,309252,1,0,0:0:0:0:
109,192,309314,1,0,0:0:0:0:
182,192,309345,1,0,0:0:0:0:
329,192,309377,1,0,0:0:0:0:
36,192,309439,1,0,0:0:0:0:
256,192,309439,1,0,0:0:0:0:
402,192,309502,1,0,0:0:0:0:
109,192,309533,1,0,0:0:0:0:
329,192,309564,1,0,0:0:0:0:
475,192,309627,1,0,0:0:0:0:
36,192,309627,1,0,0:0:0:0:
182,192,309627,1,0,0:0:0:0:
402,192,309689,1,0,0:0:0:0:
256,192,309720,1,0,0:0:0:0:
109,192,309752,1,0,0:0:0:0:
329,192,309814,1,0,0:0:0:0:
182,192,309814,1,0,0:0:0:0:
475,192,309877,1,0,0:0:0:0:
402,192,309908,1,0,0:0:0:0:
256,192,309939,1,0,0:0:0:0:
109,192,310002,1,0,0:0:0:0:
36,192,310002,1,0,0:0:0:0:
329,192,310002,1,0,0:0:0:0:
182,192,310064,1,0,0:0:0:0:
402,192,310095,1,0,0:0:0:0:
475,192,310095,1,0,0:0:0:0:
256,192,310127,1,0,0:0:0:0:
36,192,310189,1,0,0:0:0:0:
109,192,310189,1,0,0:0:0:0:
329,192,310252,1,0,0:0:0:0:
402,192,310283,1,0,0:0:0:0:
475,192,310283,1,0,0:0:0:0:
182,192,310314,1,0,0:0:0:0:
475,192,310377,1,0,0:0:0:0:
36,192,310377,1,0,0:0:0:0:
256,192,310377,1,0,0:0:0:0:
109,192,310439,1,0,0:0:0:0:
329,192,310470,1,0,0:0:0:0:
182,192,310502,1,0,0:0:0:0:
475,192,310564,1,0,0:0:0:0:
36,192,310564,1,0,0:0:0:0:
256,192,310627,1,0,0:0:0:0:
402,192,310658,1,0,0:0:0:0:
109,192,310689,1,0,0:0:0:0:
475,192,310752,1,0,0:0:0:0:
182,192,310752,1,0,0:0:0:0:
329,192,310752,1,0,0:0:0:0:
36,192,310752,1,0,0:0:0:0:
402,192,310814,1,0,0:0:0:0:
256,192,310845,1,0,0:0:0:0:
109,192,310877,1,0,0:0:0:0:
182,192,310939,1,0,0:0:0:0:
329,192,310939,1,0,0:0:0:0:
475,192,311002,1,0,0:0:0:0:
256,192,311033,1,0,0:0:0:0:
402,192,311064,1,0,0:0:0:0:
36,192,311127,1,0,0:0:0:0:
329,192,311127,1,0,0:0:0:0:
182,192,311127,1,0,0:0:0:0:
256,192,311189,1,0,0:0:0:0:
109,192,311220,1,0,0:0:0:0:
402,192,311252,1,0,0:0:0:0:
182,192,311314,1,0,0:0:0:0:
475,192,311314,1,0,0:0:0:0:
256,192,311377,1,0,0:0:0:0:
36,192,311408,1,0,0:0:0:0:
402,192,311439,1,0,0:0:0:0:
182,192,311502,1,0,0:0:0:0:
329,192,311502,1,0,0:0:0:0:
109,192,311502,1,0,0:0:0:0:
475,192,311564,1,0,0:0:0:0:
36,192,311595,1,0,0:0:0:0:
256,192,311627,1,0,0:0:0:0:
182,192,311689,1,0,0:0:0:0:
402,192,311689,1,0,0:0:0:0:
329,192,311752,1,0,0:0:0:0:
109,192,311783,1,0,0:0:0:0:
256,192,311814,1,0,0:0:0:0:
475,192,311877,1,0,0:0:0:0:
36,192,311877,1,0,0:0:0:0:
182,192,311877,1,0,0:0:0:0:
402,192,311939,1,0,0:0:0:0:
109,192,311970,1,0,0:0:0:0:
329,192,312002,1,0,0:0:0:0:
256,192,312064,1,0,0:0:0:0:
475,192,312064,1,0,0:0:0:0:
36,192,312127,1,0,0:0:0:0:
402,192,312158,1,0,0:0:0:0:
182,192,312189,1,0,0:0:0:0:
329,192,312252,1,0,0:0:0:0:
109,192,312252,1,0,0:0:0:0:
256,192,312252,1,0,0:0:0:0:
475,192,312314,1,0,0:0:0:0:
182,192,312345,1,0,0:0:0:0:
402,192,312377,1,0,0:0:0:0:
36,192,312439,1,0,0:0:0:0:
329,192,312439,1,0,0:0:0:0:
256,192,312502,1,0,0:0:0:0:
109,192,312533,1,0,0:0:0:0:
475,192,312564,1,0,0:0:0:0:
36,192,312627,1,0,0:0:0:0:
182,192,312627,1,0,0:0:0:0:
329,192,312627,1,0,0:0:0:0:
402,192,312689,1,0,0:0:0:0:
109,192,312720,1,0,0:0:0:0:
256,192,312752,1,0,0:0:0:0:
36,192,312814,1,0,0:0:0:0:
475,192,312814,1,0,0:0:0:0:
329,192,312877,1,0,0:0:0:0:
402,192,312908,1,0,0:0:0:0:
182,192,312939,1,0,0:0:0:0:
475,192,313002,1,0,0:0:0:0:
256,192,313002,1,0,0:0:0:0:
109,192,313002,1,0,0:0:0:0:
182,192,313064,1,0,0:0:0:0:
329,192,313095,1,0,0:0:0:0:
402,192,313127,1,0,0:0:0:0:
36,192,313189,1,0,0:0:0:0:
256,192,313189,1,0,0:0:0:0:
475,192,313252,1,0,0:0:0:0:
182,192,313283,1,0,0:0:0:0:
329,192,313314,1,0,0:0:0:0:
402,192,313377,1,0,0:0:0:0:
36,192,313377,1,0,0:0:0:0:
109,192,313377,1,0,0:0:0:0:
256,192,313439,1,0,0:0:0:0:
182,192,313470,1,0,0:0:0:0:
329,192,313502,1,0,0:0:0:0:
36,192,313564,1,0,0:0:0:0:
475,192,313564,1,0,0:0:0:0:
109,192,313627,1,0,0:0:0:0:
329,192,313658,1,0,0:0:0:0:
182,192,313689,1,0,0:0:0:0:
36,192,313752,1,0,0:0:0:0:
402,192,313752,1,0,0:0:0:0:
256,192,313752,1,0,0:0:0:0:
475,192,313814,1,0,0:0:0:0:
109,192,313845,1,0,0:0:0:0:
182,192,313877,1,0,0:0:0:0:
329,192,313939,1,0,0:0:0:0:
36,192,313939,1,0,0:0:0:0:
256,192,314002,1,0,0:0:0:0:
402,192,314033,1,0,0:0:0:0:
182,192,314064,1,0,0:0:0:0:
109,192,314127,1,0,0:0:0:0:
475,192,314127,1,0,0:0:0:0:
329,192,314127,1,0,0:0:0:0:
256,192,314189,1,0,0:0:0:0:
36,192,314220,1,0,0:0:0:0:
402,192,314252,1,0,0:0:0:0:
182,192,314314,1,0,0:0:0:0:
329,192,314314,1,0,0:0:0:0:
109,192,314377,1,0,0:0:0:0:
256,192,314408,1,0,0:0:0:0:
402,192,314439,1,0,0:0:0:0:
36,192,314502,1,0,0:0:0:0:
475,192,314502,1,0,0:0:0:0:
329,192,314502,1,0,0:0:0:0:
109,192,314564,1,0,0:0:0:0:
256,192,314595,1,0,0:0:0:0:
402,192,314627,1,0,0:0:0:0:
182,192,314689,1,0,0:0:0:0:
329,192,314689,1,0,0:0:0:0:
36,192,314752,1,0,0:0:0:0:
109,192,314783,1,0,0:0:0:0:
256,192,314814,1,0,0:0:0:0:
475,192,314877,1,0,0:0:0:0:
402,192,314877,1,0,0:0:0:0:
182,192,314877,1,0,0:0:0:0:
329,192,314939,1,0,0:0:0:0:
109,192,314970,1,0,0:0:0:0:
256,192,315002,1,0,0:0:0:0:
36,192,315064,1,0,0:0:0:0:
402,192,315064,1,0,0:0:0:0:
182,192,315127,1,0,0:0:0:0:
329,192,315158,1,0,0:0:0:0:
475,192,315189,1,0,0:0:0:0:
36,192,315252,1,0,0:0:0:0:
109,192,315252,1,0,0:0:0:0:
256,192,315252,1,0,0:0:0:0:
402,192,315314,1,0,0:0:0:0:
329,192,315345,1,0,0:0:0:0:
182,192,315377,1,0,0:0:0:0:
475,192,315439,1,0,0:0:0:0:
256,192,315439,1,0,0:0:0:0:
109,192,315502,1,0,0:0:0:0:
402,192,315533,1,0,0:0:0:0:
182,192,315564,1,0,0:0:0:0:
36,192,315627,1,0,0:0:0:0:
475,192,315627,1,0,0:0:0:0:
329,192,315627,1,0,0:0:0:0:
109,192,315689,1,0,0:0:0:0:
256,192,315720,1,0,0:0:0:0:
402,192,315752,1,0,0:0:0:0:
182,192,315814,1,0,0:0:0:0:
329,192,315814,1,0,0:0:0:0:
36,192,315877,1,0,0:0:0:0:
109,192,315908,1,0,0:0:0:0:
256,192,315939,1,0,0:0:0:0:
402,192,316002,1,0,0:0:0:0:
475,192,316002,1,0,0:0:0:0:
182,192,316002,1,0,0:0:0:0:
329,192,316064,1,0,0:0:0:0:
109,192,316095,1,0,0:0:0:0:
36,192,316095,1,0,0:0:0:0:
256,192,316127,1,0,0:0:0:0:
475,192,316189,1,0,0:0:0:0:
402,192,316189,1,0,0:0:0:0:
182,192,316252,1,0,0:0:0:0:
109,192,316283,1,0,0:0:0:0:
36,192,316283,1,0,0:0:0:0:
329,192,316314,1,0,0:0:0:0:
36,192,316377,1,0,0:0:0:0:
475,192,316377,1,0,0:0:0:0:
256,192,316377,1,0,0:0:0:0:
402,192,316439,1,0,0:0:0:0:
182,192,316470,1,0,0:0:0:0:
329,192,316502,1,0,0:0:0:0:
36,192,316564,1,0,0:0:0:0:
475,192,316564,1,0,0:0:0:0:
256,192,316627,1,0,0:0:0:0:
109,192,316658,1,0,0:0:0:0:
402,192,316689,1,0,0:0:0:0:
36,192,316752,1,0,0:0:0:0:
329,192,316752,1,0,0:0:0:0:
182,192,316752,1,0,0:0:0:0:
475,192,316752,1,0,0:0:0:0:
109,192,316814,1,0,0:0:0:0:
402,192,316845,1,0,0:0:0:0:
256,192,316845,1,0,0:0:0:0:
36,192,316877,1,0,0:0:0:0:
329,192,316939,1,0,0:0:0:0:
182,192,316939,1,0,0:0:0:0:
475,192,317002,1,0,0:0:0:0:
402,192,317033,1,0,0:0:0:0:
109,192,317033,1,0,0:0:0:0:
256,192,317064,1,0,0:0:0:0:
329,192,317127,1,0,0:0:0:0:
475,192,317127,1,0,0:0:0:0:
36,192,317127,1,0,0:0:0:0:
109,192,317189,1,0,0:0:0:0:
402,192,317220,1,0,0:0:0:0:
182,192,317220,1,0,0:0:0:0:
256,192,317252,1,0,0:0:0:0:
329,192,317314,1,0,0:0:0:0:
36,192,317314,1,0,0:0:0:0:
182,192,317377,1,0,0:0:0:0:
402,192,317408,1,0,0:0:0:0:
475,192,317408,1,0,0:0:0:0:
109,192,317439,1,0,0:0:0:0:
329,192,317502,1,0,0:0:0:0:
256,192,317502,1,0,0:0:0:0:
36,192,317502,1,0,0:0:0:0:
182,192,317564,1,0,0:0:0:0:
109,192,317595,1,0,0:0:0:0:
475,192,317595,1,0,0:0:0:0:
402,192,317627,1,0,0:0:0:0:
329,192,317689,1,0,0:0:0:0:
36,192,317689,1,0,0:0:0:0:
109,192,317752,1,0,0:0:0:0:
182,192,317783,1,0,0:0:0:0:
475,192,317783,1,0,0:0:0:0:
256,192,317814,1,0,0:0:0:0:
36,192,317877,1,0,0:0:0:0:
402,192,317877,1,0,0:0:0:0:
329,192,317877,1,0,0:0:0:0:
109,192,317939,1,0,0:0:0:0:
256,192,317970,1,0,0:0:0:0:
475,192,317970,1,0,0:0:0:0:
182,192,318002,1,0,0:0:0:0:
329,192,318064,1,0,0:0:0:0:
36,192,318064,1,0,0:0:0:0:
402,192,318127,1,0,0:0:0:0:
256,192,318158,1,0,0:0:0:0:
109,192,318158,1,0,0:0:0:0:
475,192,318189,1,0,0:0:0:0:
182,192,318252,1,0,0:0:0:0:
36,192,318252,1,0,0:0:0:0:
329,192,318252,1,0,0:0:0:0:
256,192,318314,1,0,0:0:0:0:
109,192,318345,1,0,0:0:0:0:
475,192,318345,1,0,0:0:0:0:
402,192,318377,1,0,0:0:0:0:
329,192,318439,1,0,0:0:0:0:
182,192,318439,1,0,0:0:0:0:
36,192,318502,1,0,0:0:0:0:
256,192,318533,1,0,0:0:0:0:
475,192,318533,1,0,0:0:0:0:
109,192,318564,1,0,0:0:0:0:
402,192,318627,1,0,0:0:0:0:
329,192,318627,1,0,0:0:0:0:
182,192,318627,1,0,0:0:0:0:
36,192,318689,1,0,0:0:0:0:
256,192,318720,1,0,0:0:0:0:
475,192,318720,1,0,0:0:0:0:
109,192,318752,1,0,0:0:0:0:
182,192,318814,1,0,0:0:0:0:
329,192,318814,1,0,0:0:0:0:
402,192,318877,1,0,0:0:0:0:
475,192,318908,1,0,0:0:0:0:
109,192,318908,1,0,0:0:0:0:
256,192,318939,1,0,0:0:0:0:
36,192,319002,1,0,0:0:0:0:
329,192,319002,1,0,0:0:0:0:
402,192,319002,1,0,0:0:0:0:
182,192,319064,1,0,0:0:0:0:
475,192,319095,1,0,0:0:0:0:
256,192,319095,1,0,0:0:0:0:
109,192,319127,1,0,0:0:0:0:
36,192,319189,1,0,0:0:0:0:
329,192,319189,1,0,0:0:0:0:
182,192,319252,1,0,0:0:0:0:
402,192,319283,1,0,0:0:0:0:
256,192,319283,1,0,0:0:0:0:
109,192,319314,1,0,0:0:0:0:
36,192,319377,1,0,0:0:0:0:
475,192,319377,1,0,0:0:0:0:
329,192,319377,1,0,0:0:0:0:
256,192,319439,1,0,0:0:0:0:
109,192,319470,1,0,0:0:0:0:
402,192,319470,1,0,0:0:0:0:
182,192,319502,1,0,0:0:0:0:
475,192,319564,1,0,0:0:0:0:
329,192,319564,1,0,0:0:0:0:
256,192,319627,1,0,0:0:0:0:
109,192,319658,1,0,0:0:0:0:
36,192,319658,1,0,0:0:0:0:
402,192,319689,1,0,0:0:0:0:
475,192,319752,1,0,0:0:0:0:
182,192,319752,1,0,0:0:0:0:
329,192,319752,1,0,0:0:0:0:
109,192,319814,1,0,0:0:0:0:
36,192,319845,1,0,0:0:0:0:
256,192,319845,1,0,0:0:0:0:
402,192,319877,1,0,0:0:0:0:
182,192,319939,1,0,0:0:0:0:
475,192,319939,1,0,0:0:0:0:
329,192,320002,1,0,0:0:0:0:
109,192,320033,1,0,0:0:0:0:
256,192,320033,1,0,0:0:0:0:
402,192,320064,1,0,0:0:0:0:
475,192,320127,1,0,0:0:0:0:
36,192,320127,1,0,0:0:0:0:
182,192,320127,1,0,0:0:0:0:
329,192,320189,1,0,0:0:0:0:
256,192,320220,1,0,0:0:0:0:
109,192,320220,1,0,0:0:0:0:
402,192,320252,1,0,0:0:0:0:
475,192,320314,1,0,0:0:0:0:
182,192,320314,1,0,0:0:0:0:
329,192,320377,1,0,0:0:0:0:
36,192,320408,1,0,0:0:0:0:
256,192,320408,1,0,0:0:0:0:
109,192,320439,1,0,0:0:0:0:
475,192,320502,1,0,0:0:0:0:
402,192,320502,1,0,0:0:0:0:
182,192,320502,1,0,0:0:0:0:
256,192,320564,1,0,0:0:0:0:
36,192,320595,1,0,0:0:0:0:
329,192,320595,1,0,0:0:0:0:
109,192,320627,1,0,0:0:0:0:
402,192,320689,1,0,0:0:0:0:
182,192,320689,1,0,0:0:0:0:
475,192,320752,1,0,0:0:0:0:
109,192,320783,1,0,0:0:0:0:
329,192,320783,1,0,0:0:0:0:
36,192,320814,1,0,0:0:0:0:
256,192,320877,1,0,0:0:0:0:
182,192,320877,1,0,0:0:0:0:
402,192,320877,1,0,0:0:0:0:
109,192,320939,1,0,0:0:0:0:
329,192,320970,1,0,0:0:0:0:
475,192,320970,1,0,0:0:0:0:
36,192,321002,1,0,0:0:0:0:
256,192,321064,1,0,0:0:0:0:
182,192,321064,1,0,0:0:0:0:
402,192,321127,1,0,0:0:0:0:
475,192,321158,1,0,0:0:0:0:
109,192,321158,1,0,0:0:0:0:
329,192,321189,1,0,0:0:0:0:
36,192,321252,1,0,0:0:0:0:
402,192,321252,1,0,0:0:0:0:
182,192,321252,1,0,0:0:0:0:
256,192,321314,1,0,0:0:0:0:
475,192,321345,1,0,0:0:0:0:
109,192,321345,1,0,0:0:0:0:
329,192,321377,1,0,0:0:0:0:
36,192,321439,1,0,0:0:0:0:
182,192,321439,1,0,0:0:0:0:
256,192,321502,1,0,0:0:0:0:
402,192,321533,1,0,0:0:0:0:
475,192,321533,1,0,0:0:0:0:
109,192,321564,1,0,0:0:0:0:
36,192,321627,1,0,0:0:0:0:
329,192,321627,1,0,0:0:0:0:
182,192,321627,1,0,0:0:0:0:
475,192,321689,1,0,0:0:0:0:
402,192,321720,1,0,0:0:0:0:
256,192,321720,1,0,0:0:0:0:
109,192,321752,1,0,0:0:0:0:
329,192,321814,1,0,0:0:0:0:
182,192,321814,1,0,0:0:0:0:
36,192,321877,1,0,0:0:0:0:
256,192,321908,1,0,0:0:0:0:
402,192,321908,1,0,0:0:0:0:
475,192,321939,1,0,0:0:0:0:
182,192,322002,1,0,0:0:0:0:
109,192,322002,1,0,0:0:0:0:
329,192,322002,1,0,0:0:0:0:
36,192,322064,1,0,0:0:0:0:
256,192,322095,1,0,0:0:0:0:
402,192,322095,1,0,0:0:0:0:
475,192,322095,1,0,0:0:0:0:
182,192,322127,1,0,0:0:0:0:
329,192,322189,1,0,0:0:0:0:
109,192,322189,1,0,0:0:0:0:
36,192,322252,1,0,0:0:0:0:
256,192,322283,1,0,0:0:0:0:
402,192,322283,1,0,0:0:0:0:
475,192,322283,1,0,0:0:0:0:
182,192,322314,1,0,0:0:0:0:
109,192,322377,1,0,0:0:0:0:
329,192,322377,1,0,0:0:0:0:
256,192,322439,1,0,0:0:0:0:
402,192,322470,1,0,0:0:0:0:
475,192,322470,1,0,0:0:0:0:
36,192,322502,1,0,0:0:0:0:
329,192,322564,1,0,0:0:0:0:
182,192,322564,1,0,0:0:0:0:
109,192,322627,1,0,0:0:0:0:
256,192,322658,1,0,0:0:0:0:
402,192,322658,1,0,0:0:0:0:
475,192,322689,1,0,0:0:0:0:
182,192,322752,1,0,0:0:0:0:
36,192,322752,1,0,0:0:0:0:
329,192,322752,1,0,0:0:0:0:
402,192,322814,1,0,0:0:0:0:
109,192,322845,1,0,0:0:0:0:
256,192,322845,1,0,0:0:0:0:
475,192,322877,1,0,0:0:0:0:
182,192,322939,1,0,0:0:0:0:
329,192,322939,1,0,0:0:0:0:
36,192,323002,1,0,0:0:0:0:
109,192,323033,1,0,0:0:0:0:
402,192,323033,1,0,0:0:0:0:
256,192,323064,1,0,0:0:0:0:
182,192,323127,1,0,0:0:0:0:
36,192,323127,1,0,0:0:0:0:
475,192,323127,1,0,0:0:0:0:
402,192,323189,1,0,0:0:0:0:
109,192,323220,1,0,0:0:0:0:
329,192,323220,1,0,0:0:0:0:
256,192,323252,1,0,0:0:0:0:
182,192,323314,1,0,0:0:0:0:
475,192,323314,1,0,0:0:0:0:
329,192,323377,1,0,0:0:0:0:
109,192,323408,1,0,0:0:0:0:
36,192,323408,1,0,0:0:0:0:
402,192,323439,1,0,0:0:0:0:
182,192,323502,1,0,0:0:0:0:
256,192,323502,1,0,0:0:0:0:
475,192,323502,1,0,0:0:0:0:
329,192,323564,1,0,0:0:0:0:
402,192,323595,1,0,0:0:0:0:
36,192,323595,1,0,0:0:0:0:
109,192,323627,1,0,0:0:0:0:
182,192,323689,1,0,0:0:0:0:
475,192,323689,1,0,0:0:0:0:
402,192,323752,1,0,0:0:0:0:
329,192,323783,1,0,0:0:0:0:
36,192,323783,1,0,0:0:0:0:
256,192,323814,1,0,0:0:0:0:
475,192,323877,1,0,0:0:0:0:
109,192,323877,1,0,0:0:0:0:
182,192,323877,1,0,0:0:0:0:
402,192,323939,1,0,0:0:0:0:
256,192,323970,1,0,0:0:0:0:
36,192,323970,1,0,0:0:0:0:
329,192,324002,1,0,0:0:0:0:
182,192,324064,1,0,0:0:0:0:
475,192,324064,1,0,0:0:0:0:
109,192,324127,1,0,0:0:0:0:
256,192,324158,1,0,0:0:0:0:
402,192,324158,1,0,0:0:0:0:
36,192,324189,1,0,0:0:0:0:
329,192,324252,1,0,0:0:0:0:
475,192,324252,1,0,0:0:0:0:
182,192,324252,1,0,0:0:0:0:
256,192,324314,1,0,0:0:0:0:
402,192,324345,1,0,0:0:0:0:
36,192,324345,1,0,0:0:0:0:
109,192,324377,1,0,0:0:0:0:
182,192,324439,1,0,0:0:0:0:
329,192,324439,1,0,0:0:0:0:
475,192,324502,1,0,0:0:0:0:
256,192,324533,1,0,0:0:0:0:
36,192,324533,1,0,0:0:0:0:
402,192,324564,1,0,0:0:0:0:
109,192,324627,1,0,0:0:0:0:
182,192,324627,1,0,0:0:0:0:
329,192,324627,1,0,0:0:0:0:
475,192,324689,1,0,0:0:0:0:
256,192,324720,1,0,0:0:0:0:
36,192,324720,1,0,0:0:0:0:
402,192,324752,1,0,0:0:0:0:
329,192,324814,1,0,0:0:0:0:
182,192,324814,1,0,0:0:0:0:
109,192,324877,1,0,0:0:0:0:
36,192,324908,1,0,0:0:0:0:
402,192,324908,1,0,0:0:0:0:
256,192,324939,1,0,0:0:0:0:
475,192,325002,1,0,0:0:0:0:
182,192,325002,1,0,0:0:0:0:
109,192,325002,1,0,0:0:0:0:
329,192,325064,1,0,0:0:0:0:
36,192,325095,1,0,0:0:0:0:
256,192,325095,1,0,0:0:0:0:
402,192,325127,1,0,0:0:0:0:
475,192,325189,1,0,0:0:0:0:
182,192,325189,1,0,0:0:0:0:
329,192,325252,1,0,0:0:0:0:
109,192,325283,1,0,0:0:0:0:
256,192,325283,1,0,0:0:0:0:
402,192,325314,1,0,0:0:0:0:
475,192,325377,1,0,0:0:0:0:
36,192,325377,1,0,0:0:0:0:
182,192,325377,1,0,0:0:0:0:
256,192,325439,1,0,0:0:0:0:
402,192,325470,1,0,0:0:0:0:
109,192,325470,1,0,0:0:0:0:
329,192,325502,1,0,0:0:0:0:
36,192,325564,1,0,0:0:0:0:
182,192,325564,1,0,0:0:0:0:
256,192,325627,1,0,0:0:0:0:
402,192,325658,1,0,0:0:0:0:
475,192,325658,1,0,0:0:0:0:
109,192,325689,1,0,0:0:0:0:
36,192,325752,1,0,0:0:0:0:
182,192,325752,1,0,0:0:0:0:
475,192,325798,1,0,0:0:0:0:
402,192,325798,1,0,0:0:0:0:
329,192,325845,1,0,0:0:0:0:
256,192,325845,1,0,0:0:0:0:
109,192,325892,1,0,0:0:0:0:
182,192,325892,1,0,0:0:0:0:
475,192,325939,1,0,0:0:0:0:
36,192,325939,1,0,0:0:0:0:
329,192,325986,1,0,0:0:0:0:
402,192,325986,1,0,0:0:0:0:
182,192,326033,1,0,0:0:0:0:
256,192,326033,1,0,0:0:0:0:
109,192,326080,1,0,0:0:0:0:
36,192,326080,1,0,0:0:0:0:
402,192,326127,1,0,0:0:0:0:
329,192,326127,1,0,0:0:0:0:
256,192,326173,1,0,0:0:0:0:
182,192,326173,1,0,0:0:0:0:
109,192,326220,1,0,0:0:0:0:
475,192,326220,1,0,0:0:0:0:
402,192,326267,1,0,0:0:0:0:
329,192,326267,1,0,0:0:0:0:
256,192,326314,1,0,0:0:0:0:
182,192,326314,1,0,0:0:0:0:
36,192,326361,1,0,0:0:0:0:
109,192,326361,1,0,0:0:0:0:
329,192,326408,1,0,0:0:0:0:
402,192,326455,1,0,0:0:0:0:
475,192,326455,1,0,0:0:0:0:
109,192,326502,1,0,0:0:0:0:
36,192,326502,1,0,0:0:0:0:
182,192,326548,1,0,0:0:0:0:
256,192,326548,1,0,0:0:0:0:
475,192,326595,1,0,0:0:0:0:
402,192,326595,1,0,0:0:0:0:
36,192,326642,1,0,0:0:0:0:
109,192,326642,1,0,0:0:0:0:
329,192,326689,1,0,0:0:0:0:
182,192,326689,1,0,0:0:0:0:
402,192,326736,1,0,0:0:0:0:
475,192,326736,1,0,0:0:0:0:
36,192,326783,1,0,0:0:0:0:
109,192,326783,1,0,0:0:0:0:
182,192,326830,1,0,0:0:0:0:
402,192,326877,1,0,0:0:0:0:
475,192,326877,1,0,0:0:0:0:
329,192,326923,1,0,0:0:0:0:
256,192,326923,1,0,0:0:0:0:
36,192,326970,1,0,0:0:0:0:
109,192,326970,1,0,0:0:0:0:
475,192,327017,1,0,0:0:0:0:
402,192,327017,1,0,0:0:0:0:
329,192,327064,1,0,0:0:0:0:
256,192,327064,1,0,0:0:0:0:
182,192,327111,1,0,0:0:0:0:
109,192,327111,1,0,0:0:0:0:
475,192,327158,1,0,0:0:0:0:
402,192,327158,1,0,0:0:0:0:
329,192,327205,1,0,0:0:0:0:
36,192,327252,1,0,0:0:0:0:
109,192,327252,1,0,0:0:0:0:
256,192,327298,1,0,0:0:0:0:
182,192,327298,1,0,0:0:0:0:
402,192,327345,1,0,0:0:0:0:
329,192,327345,1,0,0:0:0:0:
475,192,327392,1,0,0:0:0:0:
36,192,327392,1,0,0:0:0:0:
182,192,327439,1,0,0:0:0:0:
109,192,327439,1,0,0:0:0:0:
256,192,327486,1,0,0:0:0:0:
329,192,327486,1,0,0:0:0:0:
402,192,327533,1,0,0:0:0:0:
475,192,327533,1,0,0:0:0:0:
109,192,327580,1,0,0:0:0:0:
182,192,327580,1,0,0:0:0:0:
256,192,327627,1,0,0:0:0:0:
329,192,327627,1,0,0:0:0:0:
475,192,327673,1,0,0:0:0:0:
402,192,327673,1,0,0:0:0:0:
182,192,327720,1,0,0:0:0:0:
109,192,327767,1,0,0:0:0:0:
36,192,327767,1,0,0:0:0:0:
329,192,327814,1,0,0:0:0:0:
182,192,327861,1,0,0:0:0:0:
256,192,327861,1,0,0:0:0:0:
402,192,327908,1,0,0:0:0:0:
475,192,327908,1,0,0:0:0:0:
329,192,327955,1,0,0:0:0:0:
182,192,328002,1,0,0:0:0:0:
109,192,328002,1,0,0:0:0:0:
36,192,328048,1,0,0:0:0:0:
475,192,328048,1,0,0:0:0:0:
402,192,328095,1,0,0:0:0:0:
329,192,328095,1,0,0:0:0:0:
182,192,328142,1,0,0:0:0:0:
256,192,328142,1,0,0:0:0:0:
36,192,328189,1,0,0:0:0:0:
109,192,328189,1,0,0:0:0:0:
475,192,328236,1,0,0:0:0:0:
402,192,328236,1,0,0:0:0:0:
329,192,328283,1,0,0:0:0:0:
256,192,328283,1,0,0:0:0:0:
109,192,328330,1,0,0:0:0:0:
36,192,328330,1,0,0:0:0:0:
475,192,328377,1,0,0:0:0:0:
256,192,328423,1,0,0:0:0:0:
182,192,328423,1,0,0:0:0:0:
402,192,328470,1,0,0:0:0:0:
329,192,328470,1,0,0:0:0:0:
109,192,328517,1,0,0:0:0:0:
36,192,328517,1,0,0:0:0:0:
256,192,328564,1,0,0:0:0:0:
182,192,328564,1,0,0:0:0:0:
329,192,328611,1,0,0:0:0:0:
475,192,328611,1,0,0:0:0:0:
36,192,328658,1,0,0:0:0:0:
109,192,328658,1,0,0:0:0:0:
402,192,328705,1,0,0:0:0:0:
256,192,328705,1,0,0:0:0:0:
36,192,328752,1,0,0:0:0:0:
329,192,328752,1,0,0:0:0:0:
182,192,328783,1,0,0:0:0:0:
256,192,328814,1,0,0:0:0:0:
475,192,328845,1,0,0:0:0:0:
109,192,328877,1,0,0:0:0:0:
402,192,328908,1,0,0:0:0:0:
182,192,328939,1,0,0:0:0:0:
36,192,328970,1,0,0:0:0:0:
329,192,329002,1,0,0:0:0:0:
256,192,329033,1,0,0:0:0:0:
109,192,329064,1,0,0:0:0:0:
402,192,329095,1,0,0:0:0:0:
182,192,329127,1,0,0:0:0:0:
475,192,329158,1,0,0:0:0:0:
329,192,329189,1,0,0:0:0:0:
36,192,329220,1,0,0:0:0:0:
256,192,329252,1,0,0:0:0:0:
109,192,329283,1,0,0:0:0:0:
402,192,329314,1,0,0:0:0:0:
329,192,329345,1,0,0:0:0:0:
182,192,329377,1,0,0:0:0:0:
475,192,329408,1,0,0:0:0:0:
36,192,329439,1,0,0:0:0:0:
256,192,329470,1,0,0:0:0:0:
329,192,329502,1,0,0:0:0:0:
182,192,329533,1,0,0:0:0:0:
109,192,329564,1,0,0:0:0:0:
475,192,329595,1,0,0:0:0:0:
402,192,329627,1,0,0:0:0:0:
36,192,329642,1,0,0:0:0:0:
256,192,329658,1,0,0:0:0:0:
182,192,329689,1,0,0:0:0:0:
329,192,329720,1,0,0:0:0:0:
109,192,329752,1,0,0:0:0:0:
475,192,329783,1,0,0:0:0:0:
256,192,329814,1,0,0:0:0:0:
402,192,329845,1,0,0:0:0:0:
36,192,329877,1,0,0:0:0:0:
182,192,329908,1,0,0:0:0:0:
329,192,329939,1,0,0:0:0:0:
109,192,329970,1,0,0:0:0:0:
256,192,330002,1,0,0:0:0:0:
402,192,330033,1,0,0:0:0:0:
36,192,330064,1,0,0:0:0:0:
475,192,330095,1,0,0:0:0:0:
182,192,330127,1,0,0:0:0:0:
329,192,330158,1,0,0:0:0:0:
109,192,330189,1,0,0:0:0:0:
256,192,330220,1,0,0:0:0:0:
402,192,330252,1,0,0:0:0:0:
36,192,330283,1,0,0:0:0:0:
182,192,330314,1,0,0:0:0:0:
475,192,330345,1,0,0:0:0:0:
329,192,330377,1,0,0:0:0:0:
256,192,330408,1,0,0:0:0:0:
109,192,330439,1,0,0:0:0:0:
402,192,330470,1,0,0:0:0:0:
182,192,330502,1,0,0:0:0:0:
475,192,330533,1,0,0:0:0:0:
36,192,330564,1,0,0:0:0:0:
109,192,330595,1,0,0:0:0:0:
256,192,330627,1,0,0:0:0:0:
402,192,330658,1,0,0:0:0:0:
329,192,330689,1,0,0:0:0:0:
182,192,330720,1,0,0:0:0:0:
109,192,330752,1,0,0:0:0:0:
475,192,330783,1,0,0:0:0:0:
256,192,330814,1,0,0:0:0:0:
402,192,330845,1,0,0:0:0:0:
182,192,330877,1,0,0:0:0:0:
36,192,330908,1,0,0:0:0:0:
329,192,330939,1,0,0:0:0:0:
475,192,330970,1,0,0:0:0:0:
109,192,331002,1,0,0:0:0:0:
256,192,331033,1,0,0:0:0:0:
36,192,331048,1,0,0:0:0:0:
402,192,331064,1,0,0:0:0:0:
182,192,331095,1,0,0:0:0:0:
329,192,331127,1,0,0:0:0:0:
475,192,331158,1,0,0:0:0:0:
109,192,331189,1,0,0:0:0:0:
256,192,331220,1,0,0:0:0:0:
402,192,331252,1,0,0:0:0:0:
36,192,331283,1,0,0:0:0:0:
182,192,331314,1,0,0:0:0:0:
329,192,331345,1,0,0:0:0:0:
109,192,331377,1,0,0:0:0:0:
475,192,331408,1,0,0:0:0:0:
402,192,331439,1,0,0:0:0:0:
256,192,331470,1,0,0:0:0:0:
182,192,331502,1,0,0:0:0:0:
36,192,331533,1,0,0:0:0:0:
329,192,331564,1,0,0:0:0:0:
402,192,331595,1,0,0:0:0:0:
475,192,331627,1,0,0:0:0:0:
109,192,331658,1,0,0:0:0:0:
182,192,331689,1,0,0:0:0:0:
329,192,331720,1,0,0:0:0:0:
256,192,331752,1,0,0:0:0:0:
36,192,331783,1,0,0:0:0:0:
475,192,331814,1,0,0:0:0:0:
402,192,331845,1,0,0:0:0:0:
182,192,331877,1,0,0:0:0:0:
329,192,331908,1,0,0:0:0:0:
109,192,331939,1,0,0:0:0:0:
256,192,331970,1,0,0:0:0:0:
475,192,332002,1,0,0:0:0:0:
402,192,332033,1,0,0:0:0:0:
36,192,332064,1,0,0:0:0:0:
182,192,332095,1,0,0:0:0:0:
329,192,332127,1,0,0:0:0:0:
109,192,332158,1,0,0:0:0:0:
256,192,332189,1,0,0:0:0:0:
475,192,332220,1,0,0:0:0:0:
402,192,332252,1,0,0:0:0:0:
329,192,332283,1,0,0:0:0:0:
182,192,332314,1,0,0:0:0:0:
109,192,332345,1,0,0:0:0:0:
36,192,332377,1,0,0:0:0:0:
256,192,332408,1,0,0:0:0:0:
402,192,332439,1,0,0:0:0:0:
475,192,332470,1,0,0:0:0:0:
182,192,332502,1,0,0:0:0:0:
109,192,332533,1,0,0:0:0:0:
329,192,332548,1,0,0:0:0:0:
256,192,332564,1,0,0:0:0:0:
36,192,332595,1,0,0:0:0:0:
475,192,332627,1,0,0:0:0:0:
402,192,332642,1,0,0:0:0:0:
182,192,332658,1,0,0:0:0:0:
109,192,332689,1,0,0:0:0:0:
329,192,332720,1,0,0:0:0:0:
256,192,332752,1,0,0:0:0:0:
36,192,332783,1,0,0:0:0:0:
402,192,332814,1,0,0:0:0:0:
182,192,332845,1,0,0:0:0:0:
109,192,332877,1,0,0:0:0:0:
256,192,332908,1,0,0:0:0:0:
329,192,332923,1,0,0:0:0:0:
402,192,332939,1,0,0:0:0:0:
475,192,332970,1,0,0:0:0:0:
36,192,333002,1,0,0:0:0:0:
109,192,333017,1,0,0:0:0:0:
182,192,333033,1,0,0:0:0:0:
256,192,333064,1,0,0:0:0:0:
329,192,333095,1,0,0:0:0:0:
475,192,333111,1,0,0:0:0:0:
36,192,333127,1,0,0:0:0:0:
182,192,333158,1,0,0:0:0:0:
402,192,333189,1,0,0:0:0:0:
109,192,333205,1,0,0:0:0:0:
256,192,333220,1,0,0:0:0:0:
182,192,334752,1,0,0:0:0:0:
109,192,334752,1,0,0:0:0:0:
329,192,334752,1,0,0:0:0:0:
475,192,334752,1,0,0:0:0:0:
36,192,334798,1,0,0:0:0:0:
402,192,334845,1,0,0:0:0:0:
256,192,334892,1,0,0:0:0:0:
109,192,334939,1,0,0:0:0:0:
329,192,334939,1,0,0:0:0:0:
475,192,334986,1,0,0:0:0:0:
182,192,335033,1,0,0:0:0:0:
402,192,335080,1,0,0:0:0:0:
36,192,335127,1,0,0:0:0:0:
256,192,335127,1,0,0:0:0:0:
329,192,335127,1,0,0:0:0:0:
109,192,335173,1,0,0:0:0:0:
475,192,335220,1,0,0:0:0:0:
402,192,335267,1,0,0:0:0:0:
36,192,335314,1,0,0:0:0:0:
182,192,335314,1,0,0:0:0:0:
256,192,335314,1,0,0:0:0:0:
329,192,335361,1,0,0:0:0:0:
475,192,335408,1,0,0:0:0:0:
109,192,335455,1,0,0:0:0:0:
36,192,335502,1,0,0:0:0:0:
256,192,335502,1,0,0:0:0:0:
402,192,335502,1,0,0:0:0:0:
182,192,335548,1,0,0:0:0:0:
329,192,335595,1,0,0:0:0:0:
475,192,335642,1,0,0:0:0:0:
36,192,335689,1,0,0:0:0:0:
256,192,335689,1,0,0:0:0:0:
402,192,335689,1,0,0:0:0:0:
109,192,335736,1,0,0:0:0:0:
329,192,335783,1,0,0:0:0:0:
182,192,335830,1,0,0:0:0:0:
256,192,335877,1,0,0:0:0:0:
402,192,335877,1,0,0:0:0:0:
475,192,335877,1,0,0:0:0:0:
36,192,335923,1,0,0:0:0:0:
109,192,335970,1,0,0:0:0:0:
329,192,336017,1,0,0:0:0:0:
475,192,336064,1,0,0:0:0:0:
182,192,336064,1,0,0:0:0:0:
256,192,336064,1,0,0:0:0:0:
36,192,336111,1,0,0:0:0:0:
402,192,336158,1,0,0:0:0:0:
329,192,336205,1,0,0:0:0:0:
256,192,336252,1,0,0:0:0:0:
109,192,336252,1,0,0:0:0:0:
182,192,336252,1,0,0:0:0:0:
475,192,336298,1,0,0:0:0:0:
36,192,336345,1,0,0:0:0:0:
329,192,336392,1,0,0:0:0:0:
256,192,336439,1,0,0:0:0:0:
402,192,336439,1,0,0:0:0:0:
109,192,336439,1,0,0:0:0:0:
182,192,336486,1,0,0:0:0:0:
475,192,336533,1,0,0:0:0:0:
329,192,336580,1,0,0:0:0:0:
36,192,336627,1,0,0:0:0:0:
109,192,336627,1,0,0:0:0:0:
256,192,336627,1,0,0:0:0:0:
402,192,336673,1,0,0:0:0:0:
182,192,336720,1,0,0:0:0:0:
475,192,336767,1,0,0:0:0:0:
36,192,336814,1,0,0:0:0:0:
329,192,336814,1,0,0:0:0:0:
256,192,336814,1,0,0:0:0:0:
109,192,336861,1,0,0:0:0:0:
402,192,336908,1,0,0:0:0:0:
475,192,336955,1,0,0:0:0:0:
36,192,337002,1,0,0:0:0:0:
329,192,337002,1,0,0:0:0:0:
256,192,337002,1,0,0:0:0:0:
182,192,337048,1,0,0:0:0:0:
109,192,337095,1,0,0:0:0:0:
402,192,337095,1,0,0:0:0:0:
329,192,337142,1,0,0:0:0:0:
475,192,337189,1,0,0:0:0:0:
36,192,337189,1,0,0:0:0:0:
256,192,337189,1,0,0:0:0:0:
182,192,337236,1,0,0:0:0:0:
329,192,337283,1,0,0:0:0:0:
402,192,337330,1,0,0:0:0:0:
109,192,337377,1,0,0:0:0:0:
36,192,337377,1,0,0:0:0:0:
256,192,337377,1,0,0:0:0:0:
475,192,337423,1,0,0:0:0:0:
329,192,337470,1,0,0:0:0:0:
182,192,337517,1,0,0:0:0:0:
36,192,337564,1,0,0:0:0:0:
256,192,337564,1,0,0:0:0:0:
402,192,337564,1,0,0:0:0:0:
109,192,337611,1,0,0:0:0:0:
475,192,337658,1,0,0:0:0:0:
329,192,337705,1,0,0:0:0:0:
402,192,337752,1,0,0:0:0:0:
36,192,337752,1,0,0:0:0:0:
182,192,337752,1,0,0:0:0:0:
256,192,337798,1,0,0:0:0:0:
109,192,337845,1,0,0:0:0:0:
475,192,337892,1,0,0:0:0:0:
182,192,337939,1,0,0:0:0:0:
329,192,337939,1,0,0:0:0:0:
36,192,337986,1,0,0:0:0:0:
402,192,338033,1,0,0:0:0:0:
256,192,338080,1,0,0:0:0:0:
329,192,338127,1,0,0:0:0:0:
109,192,338127,1,0,0:0:0:0:
182,192,338127,1,0,0:0:0:0:
475,192,338173,1,0,0:0:0:0:
402,192,338220,1,0,0:0:0:0:
256,192,338267,1,0,0:0:0:0:
329,192,338314,1,0,0:0:0:0:
36,192,338314,1,0,0:0:0:0:
109,192,338314,1,0,0:0:0:0:
475,192,338361,1,0,0:0:0:0:
182,192,338408,1,0,0:0:0:0:
256,192,338455,1,0,0:0:0:0:
36,192,338502,1,0,0:0:0:0:
329,192,338502,1,0,0:0:0:0:
402,192,338502,1,0,0:0:0:0:
109,192,338548,1,0,0:0:0:0:
475,192,338595,1,0,0:0:0:0:
256,192,338642,1,0,0:0:0:0:
36,192,338689,1,0,0:0:0:0:
182,192,338689,1,0,0:0:0:0:
402,192,338689,1,0,0:0:0:0:
329,192,338736,1,0,0:0:0:0:
109,192,338783,1,0,0:0:0:0:
256,192,338830,1,0,0:0:0:0:
36,192,338877,1,0,0:0:0:0:
402,192,338877,1,0,0:0:0:0:
475,192,338877,1,0,0:0:0:0:
182,192,338923,1,0,0:0:0:0:
329,192,338970,1,0,0:0:0:0:
109,192,339017,1,0,0:0:0:0:
36,192,339064,1,0,0:0:0:0:
256,192,339064,1,0,0:0:0:0:
402,192,339064,1,0,0:0:0:0:
475,192,339111,1,0,0:0:0:0:
182,192,339158,1,0,0:0:0:0:
329,192,339205,1,0,0:0:0:0:
109,192,339252,1,0,0:0:0:0:
36,192,339252,1,0,0:0:0:0:
402,192,339252,1,0,0:0:0:0:
475,192,339252,1,0,0:0:0:0:
256,192,339298,1,0,0:0:0:0:
182,192,339345,1,0,0:0:0:0:
329,192,339345,1,0,0:0:0:0:
475,192,339392,1,0,0:0:0:0:
36,192,339439,1,0,0:0:0:0:
109,192,339439,1,0,0:0:0:0:
402,192,339439,1,0,0:0:0:0:
256,192,339486,1,0,0:0:0:0:
475,192,339533,1,0,0:0:0:0:
329,192,339533,1,0,0:0:0:0:
182,192,339580,1,0,0:0:0:0:
36,192,339627,1,0,0:0:0:0:
256,192,339627,1,0,0:0:0:0:
402,192,339627,1,0,0:0:0:0:
109,192,339673,1,0,0:0:0:0:
182,192,339720,1,0,0:0:0:0:
329,192,339720,1,0,0:0:0:0:
475,192,339767,1,0,0:0:0:0:
36,192,339814,1,0,0:0:0:0:
256,192,339814,1,0,0:0:0:0:
402,192,339814,1,0,0:0:0:0:
182,192,339861,1,0,0:0:0:0:
329,192,339908,1,0,0:0:0:0:
109,192,339908,1,0,0:0:0:0:
475,192,339955,1,0,0:0:0:0:
36,192,340002,1,0,0:0:0:0:
256,192,340002,1,0,0:0:0:0:
402,192,340002,1,0,0:0:0:0:
182,192,340048,1,0,0:0:0:0:
329,192,340095,1,0,0:0:0:0:
109,192,340095,1,0,0:0:0:0:
475,192,340142,1,0,0:0:0:0:
36,192,340189,1,0,0:0:0:0:
256,192,340189,1,0,0:0:0:0:
402,192,340189,1,0,0:0:0:0:
109,192,340236,1,0,0:0:0:0:
329,192,340283,1,0,0:0:0:0:
182,192,340283,1,0,0:0:0:0:
475,192,340330,1,0,0:0:0:0:
109,192,340377,1,0,0:0:0:0:
256,192,340377,1,0,0:0:0:0:
402,192,340377,1,0,0:0:0:0:
36,192,340423,1,0,0:0:0:0:
182,192,340470,1,0,0:0:0:0:
329,192,340470,1,0,0:0:0:0:
475,192,340517,1,0,0:0:0:0:
36,192,340564,1,0,0:0:0:0:
109,192,340564,1,0,0:0:0:0:
256,192,340564,1,0,0:0:0:0:
402,192,340611,1,0,0:0:0:0:
182,192,340658,1,0,0:0:0:0:
329,192,340658,1,0,0:0:0:0:
109,192,340705,1,0,0:0:0:0:
256,192,340752,1,0,0:0:0:0:
36,192,340752,1,0,0:0:0:0:
475,192,340752,1,0,0:0:0:0:
402,192,340752,1,0,0:0:0:0:
182,192,340798,1,0,0:0:0:0:
329,192,340845,1,0,0:0:0:0:
109,192,340892,1,0,0:0:0:0:
256,192,340939,1,0,0:0:0:0:
402,192,340939,1,0,0:0:0:0:
182,192,340986,1,0,0:0:0:0:
329,192,341033,1,0,0:0:0:0:
36,192,341080,1,0,0:0:0:0:
109,192,341127,1,0,0:0:0:0:
256,192,341127,1,0,0:0:0:0:
475,192,341127,1,0,0:0:0:0:
402,192,341173,1,0,0:0:0:0:
182,192,341220,1,0,0:0:0:0:
329,192,341267,1,0,0:0:0:0:
256,192,341314,1,0,0:0:0:0:
36,192,341314,1,0,0:0:0:0:
475,192,341314,1,0,0:0:0:0:
109,192,341361,1,0,0:0:0:0:
402,192,341408,1,0,0:0:0:0:
182,192,341455,1,0,0:0:0:0:
36,192,341502,1,0,0:0:0:0:
329,192,341502,1,0,0:0:0:0:
475,192,341502,1,0,0:0:0:0:
256,192,341548,1,0,0:0:0:0:
109,192,341595,1,0,0:0:0:0:
182,192,341642,1,0,0:0:0:0:
402,192,341689,1,0,0:0:0:0:
256,192,341689,1,0,0:0:0:0:
475,192,341689,1,0,0:0:0:0:
36,192,341736,1,0,0:0:0:0:
329,192,341783,1,0,0:0:0:0:
182,192,341830,1,0,0:0:0:0:
475,192,341877,1,0,0:0:0:0:
109,192,341877,1,0,0:0:0:0:
256,192,341877,1,0,0:0:0:0:
402,192,341923,1,0,0:0:0:0:
36,192,341970,1,0,0:0:0:0:
182,192,342017,1,0,0:0:0:0:
256,192,342064,1,0,0:0:0:0:
329,192,342064,1,0,0:0:0:0:
109,192,342064,1,0,0:0:0:0:
475,192,342111,1,0,0:0:0:0:
36,192,342158,1,0,0:0:0:0:
182,192,342205,1,0,0:0:0:0:
329,192,342252,1,0,0:0:0:0:
402,192,342252,1,0,0:0:0:0:
109,192,342252,1,0,0:0:0:0:
256,192,342298,1,0,0:0:0:0:
36,192,342345,1,0,0:0:0:0:
182,192,342392,1,0,0:0:0:0:
402,192,342439,1,0,0:0:0:0:
475,192,342439,1,0,0:0:0:0:
256,192,342439,1,0,0:0:0:0:
109,192,342486,1,0,0:0:0:0:
329,192,342533,1,0,0:0:0:0:
182,192,342580,1,0,0:0:0:0:
256,192,342627,1,0,0:0:0:0:
36,192,342627,1,0,0:0:0:0:
475,192,342627,1,0,0:0:0:0:
402,192,342673,1,0,0:0:0:0:
329,192,342720,1,0,0:0:0:0:
109,192,342767,1,0,0:0:0:0:
256,192,342814,1,0,0:0:0:0:
182,192,342814,1,0,0:0:0:0:
475,192,342814,1,0,0:0:0:0:
402,192,342861,1,0,0:0:0:0:
329,192,342908,1,0,0:0:0:0:
109,192,342955,1,0,0:0:0:0:
182,192,343002,1,0,0:0:0:0:
36,192,343002,1,0,0:0:0:0:
475,192,343002,1,0,0:0:0:0:
329,192,343048,1,0,0:0:0:0:
256,192,343095,1,0,0:0:0:0:
402,192,343095,1,0,0:0:0:0:
109,192,343142,1,0,0:0:0:0:
182,192,343189,1,0,0:0:0:0:
475,192,343189,1,0,0:0:0:0:
36,192,343189,1,0,0:0:0:0:
329,192,343236,1,0,0:0:0:0:
256,192,343283,1,0,0:0:0:0:
109,192,343330,1,0,0:0:0:0:
182,192,343377,1,0,0:0:0:0:
475,192,343377,1,0,0:0:0:0:
402,192,343377,1,0,0:0:0:0:
329,192,343423,1,0,0:0:0:0:
36,192,343470,1,0,0:0:0:0:
182,192,343517,1,0,0:0:0:0:
109,192,343564,1,0,0:0:0:0:
256,192,343564,1,0,0:0:0:0:
475,192,343564,1,0,0:0:0:0:
402,192,343611,1,0,0:0:0:0:
329,192,343658,1,0,0:0:0:0:
36,192,343705,1,0,0:0:0:0:
182,192,343752,1,0,0:0:0:0:
475,192,343752,1,0,0:0:0:0:
109,192,343752,1,0,0:0:0:0:
402,192,343798,1,0,0:0:0:0:
256,192,343845,1,0,0:0:0:0:
36,192,343892,1,0,0:0:0:0:
109,192,343939,1,0,0:0:0:0:
329,192,343939,1,0,0:0:0:0:
475,192,343986,1,0,0:0:0:0:
182,192,344033,1,0,0:0:0:0:
402,192,344080,1,0,0:0:0:0:
109,192,344127,1,0,0:0:0:0:
36,192,344127,1,0,0:0:0:0:
256,192,344127,1,0,0:0:0:0:
329,192,344173,1,0,0:0:0:0:
182,192,344220,1,0,0:0:0:0:
475,192,344267,1,0,0:0:0:0:
402,192,344314,1,0,0:0:0:0:
109,192,344314,1,0,0:0:0:0:
256,192,344314,1,0,0:0:0:0:
36,192,344361,1,0,0:0:0:0:
329,192,344408,1,0,0:0:0:0:
182,192,344455,1,0,0:0:0:0:
109,192,344502,1,0,0:0:0:0:
256,192,344502,1,0,0:0:0:0:
475,192,344502,1,0,0:0:0:0:
402,192,344548,1,0,0:0:0:0:
329,192,344595,1,0,0:0:0:0:
36,192,344642,1,0,0:0:0:0:
109,192,344689,1,0,0:0:0:0:
256,192,344689,1,0,0:0:0:0:
475,192,344689,1,0,0:0:0:0:
329,192,344736,1,0,0:0:0:0:
182,192,344783,1,0,0:0:0:0:
402,192,344830,1,0,0:0:0:0:
36,192,344877,1,0,0:0:0:0:
256,192,344877,1,0,0:0:0:0:
475,192,344877,1,0,0:0:0:0:
109,192,344923,1,0,0:0:0:0:
182,192,344970,1,0,0:0:0:0:
329,192,345017,1,0,0:0:0:0:
36,192,345064,1,0,0:0:0:0:
256,192,345064,1,0,0:0:0:0:
475,192,345064,1,0,0:0:0:0:
402,192,345111,1,0,0:0:0:0:
182,192,345158,1,0,0:0:0:0:
109,192,345205,1,0,0:0:0:0:
329,192,345252,1,0,0:0:0:0:
36,192,345252,1,0,0:0:0:0:
256,192,345252,1,0,0:0:0:0:
475,192,345252,1,0,0:0:0:0:
402,192,345298,1,0,0:0:0:0:
182,192,345345,1,0,0:0:0:0:
109,192,345345,1,0,0:0:0:0:
256,192,345392,1,0,0:0:0:0:
36,192,345439,1,0,0:0:0:0:
402,192,345439,1,0,0:0:0:0:
475,192,345439,1,0,0:0:0:0:
109,192,345486,1,0,0:0:0:0:
182,192,345533,1,0,0:0:0:0:
329,192,345533,1,0,0:0:0:0:
402,192,345580,1,0,0:0:0:0:
109,192,345627,1,0,0:0:0:0:
256,192,345627,1,0,0:0:0:0:
475,192,345627,1,0,0:0:0:0:
36,192,345673,1,0,0:0:0:0:
182,192,345720,1,0,0:0:0:0:
329,192,345720,1,0,0:0:0:0:
402,192,345767,1,0,0:0:0:0:
109,192,345814,1,0,0:0:0:0:
256,192,345814,1,0,0:0:0:0:
36,192,345814,1,0,0:0:0:0:
475,192,345861,1,0,0:0:0:0:
402,192,345908,1,0,0:0:0:0:
329,192,345908,1,0,0:0:0:0:
182,192,345955,1,0,0:0:0:0:
109,192,346002,1,0,0:0:0:0:
36,192,346002,1,0,0:0:0:0:
256,192,346002,1,0,0:0:0:0:
329,192,346048,1,0,0:0:0:0:
182,192,346095,1,0,0:0:0:0:
475,192,346095,1,0,0:0:0:0:
402,192,346142,1,0,0:0:0:0:
109,192,346189,1,0,0:0:0:0:
256,192,346189,1,0,0:0:0:0:
36,192,346189,1,0,0:0:0:0:
329,192,346236,1,0,0:0:0:0:
182,192,346283,1,0,0:0:0:0:
475,192,346283,1,0,0:0:0:0:
256,192,346330,1,0,0:0:0:0:
329,192,346377,1,0,0:0:0:0:
36,192,346377,1,0,0:0:0:0:
402,192,346377,1,0,0:0:0:0:
109,192,346423,1,0,0:0:0:0:
182,192,346470,1,0,0:0:0:0:
475,192,346470,1,0,0:0:0:0:
402,192,346517,1,0,0:0:0:0:
256,192,346564,1,0,0:0:0:0:
329,192,346564,1,0,0:0:0:0:
36,192,346564,1,0,0:0:0:0:
182,192,346611,1,0,0:0:0:0:
109,192,346658,1,0,0:0:0:0:
475,192,346658,1,0,0:0:0:0:
402,192,346705,1,0,0:0:0:0:
329,192,346752,1,0,0:0:0:0:
256,192,346752,1,0,0:0:0:0:
36,192,346752,1,0,0:0:0:0:
182,192,346752,1,0,0:0:0:0:
475,192,346798,1,0,0:0:0:0:
109,192,346845,1,0,0:0:0:0:
256,192,346892,1,0,0:0:0:0:
402,192,346939,1,0,0:0:0:0:
329,192,346939,1,0,0:0:0:0:
36,192,346986,1,0,0:0:0:0:
182,192,347033,1,0,0:0:0:0:
329,192,347080,1,0,0:0:0:0:
36,192,347127,1,0,0:0:0:0:
256,192,347127,1,0,0:0:0:0:
109,192,347127,1,0,0:0:0:0:
475,192,347127,1,0,0:0:0:0:
402,192,347173,1,0,0:0:0:0:
182,192,347220,1,0,0:0:0:0:
36,192,347267,1,0,0:0:0:0:
329,192,347314,1,0,0:0:0:0:
475,192,347314,1,0,0:0:0:0:
256,192,347314,1,0,0:0:0:0:
109,192,347361,1,0,0:0:0:0:
182,192,347408,1,0,0:0:0:0:
329,192,347455,1,0,0:0:0:0:
402,192,347502,1,0,0:0:0:0:
475,192,347502,1,0,0:0:0:0:
256,192,347502,1,0,0:0:0:0:
36,192,347502,1,0,0:0:0:0:
182,192,347548,1,0,0:0:0:0:
329,192,347595,1,0,0:0:0:0:
109,192,347595,1,0,0:0:0:0:
475,192,347642,1,0,0:0:0:0:
36,192,347689,1,0,0:0:0:0:
256,192,347689,1,0,0:0:0:0:
402,192,347736,1,0,0:0:0:0:
182,192,347783,1,0,0:0:0:0:
329,192,347830,1,0,0:0:0:0:
256,192,347877,1,0,0:0:0:0:
475,192,347877,1,0,0:0:0:0:
109,192,347877,1,0,0:0:0:0:
36,192,347877,1,0,0:0:0:0:
402,192,347923,1,0,0:0:0:0:
182,192,347970,1,0,0:0:0:0:
329,192,348017,1,0,0:0:0:0:
36,192,348064,1,0,0:0:0:0:
256,192,348064,1,0,0:0:0:0:
109,192,348064,1,0,0:0:0:0:
475,192,348111,1,0,0:0:0:0:
402,192,348158,1,0,0:0:0:0:
182,192,348205,1,0,0:0:0:0:
329,192,348252,1,0,0:0:0:0:
475,192,348252,1,0,0:0:0:0:
36,192,348252,1,0,0:0:0:0:
109,192,348252,1,0,0:0:0:0:
256,192,348298,1,0,0:0:0:0:
402,192,348345,1,0,0:0:0:0:
182,192,348392,1,0,0:0:0:0:
475,192,348439,1,0,0:0:0:0:
36,192,348439,1,0,0:0:0:0:
329,192,348439,1,0,0:0:0:0:
109,192,348486,1,0,0:0:0:0:
256,192,348533,1,0,0:0:0:0:
402,192,348580,1,0,0:0:0:0:
475,192,348627,1,0,0:0:0:0:
36,192,348627,1,0,0:0:0:0:
182,192,348627,1,0,0:0:0:0:
329,192,348627,1,0,0:0:0:0:
109,192,348673,1,0,0:0:0:0:
256,192,348720,1,0,0:0:0:0:
402,192,348767,1,0,0:0:0:0:
475,192,348814,1,0,0:0:0:0:
329,192,348814,1,0,0:0:0:0:
182,192,348814,1,0,0:0:0:0:
36,192,348861,1,0,0:0:0:0:
256,192,348908,1,0,0:0:0:0:
109,192,348955,1,0,0:0:0:0:
475,192,349002,1,0,0:0:0:0:
329,192,349002,1,0,0:0:0:0:
182,192,349002,1,0,0:0:0:0:
402,192,349002,1,0,0:0:0:0:
36,192,349048,1,0,0:0:0:0:
256,192,349095,1,0,0:0:0:0:
182,192,349142,1,0,0:0:0:0:
402,192,349189,1,0,0:0:0:0:
109,192,349189,1,0,0:0:0:0:
329,192,349236,1,0,0:0:0:0:
256,192,349283,1,0,0:0:0:0:
36,192,349330,1,0,0:0:0:0:
402,192,349377,1,0,0:0:0:0:
475,192,349377,1,0,0:0:0:0:
109,192,349377,1,0,0:0:0:0:
182,192,349377,1,0,0:0:0:0:
329,192,349423,1,0,0:0:0:0:
36,192,349470,1,0,0:0:0:0:
256,192,349517,1,0,0:0:0:0:
182,192,349564,1,0,0:0:0:0:
475,192,349564,1,0,0:0:0:0:
109,192,349564,1,0,0:0:0:0:
402,192,349611,1,0,0:0:0:0:
329,192,349658,1,0,0:0:0:0:
182,192,349705,1,0,0:0:0:0:
256,192,349752,1,0,0:0:0:0:
475,192,349752,1,0,0:0:0:0:
36,192,349752,1,0,0:0:0:0:
109,192,349752,1,0,0:0:0:0:
329,192,349798,1,0,0:0:0:0:
402,192,349845,1,0,0:0:0:0:
182,192,349892,1,0,0:0:0:0:
36,192,349939,1,0,0:0:0:0:
475,192,349939,1,0,0:0:0:0:
256,192,349939,1,0,0:0:0:0:
109,192,349986,1,0,0:0:0:0:
182,192,350033,1,0,0:0:0:0:
329,192,350080,1,0,0:0:0:0:
256,192,350127,1,0,0:0:0:0:
36,192,350127,1,0,0:0:0:0:
402,192,350127,1,0,0:0:0:0:
475,192,350127,1,0,0:0:0:0:
109,192,350173,1,0,0:0:0:0:
329,192,350220,1,0,0:0:0:0:
182,192,350267,1,0,0:0:0:0:
475,192,350314,1,0,0:0:0:0:
402,192,350314,1,0,0:0:0:0:
256,192,350314,1,0,0:0:0:0:
36,192,350361,1,0,0:0:0:0:
109,192,350408,1,0,0:0:0:0:
329,192,350455,1,0,0:0:0:0:
256,192,350502,1,0,0:0:0:0:
402,192,350502,1,0,0:0:0:0:
475,192,350502,1,0,0:0:0:0:
182,192,350502,1,0,0:0:0:0:
36,192,350548,1,0,0:0:0:0:
109,192,350595,1,0,0:0:0:0:
329,192,350642,1,0,0:0:0:0:
475,192,350689,1,0,0:0:0:0:
182,192,350689,1,0,0:0:0:0:
402,192,350736,1,0,0:0:0:0:
256,192,350783,1,0,0:0:0:0:
36,192,350830,1,0,0:0:0:0:
329,192,350877,1,0,0:0:0:0:
475,192,350877,1,0,0:0:0:0:
109,192,350877,1,0,0:0:0:0:
182,192,350877,1,0,0:0:0:0:
402,192,350923,1,0,0:0:0:0:
256,192,350970,1,0,0:0:0:0:
109,192,351017,1,0,0:0:0:0:
475,192,351064,1,0,0:0:0:0:
329,192,351064,1,0,0:0:0:0:
36,192,351064,1,0,0:0:0:0:
402,192,351111,1,0,0:0:0:0:
182,192,351158,1,0,0:0:0:0:
256,192,351205,1,0,0:0:0:0:
329,192,351252,1,0,0:0:0:0:
475,192,351252,1,0,0:0:0:0:
109,192,351252,1,0,0:0:0:0:
36,192,351252,1,0,0:0:0:0:
182,192,351298,1,0,0:0:0:0:
402,192,351345,1,0,0:0:0:0:
256,192,351345,1,0,0:0:0:0:
475,192,351392,1,0,0:0:0:0:
36,192,351439,1,0,0:0:0:0:
109,192,351439,1,0,0:0:0:0:
329,192,351439,1,0,0:0:0:0:
182,192,351486,1,0,0:0:0:0:
402,192,351533,1,0,0:0:0:0:
256,192,351533,1,0,0:0:0:0:
109,192,351580,1,0,0:0:0:0:
36,192,351627,1,0,0:0:0:0:
329,192,351627,1,0,0:0:0:0:
475,192,351627,1,0,0:0:0:0:
256,192,351673,1,0,0:0:0:0:
109,192,351720,1,0,0:0:0:0:
182,192,351720,1,0,0:0:0:0:
402,192,351767,1,0,0:0:0:0:
36,192,351814,1,0,0:0:0:0:
329,192,351814,1,0,0:0:0:0:
475,192,351814,1,0,0:0:0:0:
256,192,351861,1,0,0:0:0:0:
109,192,351908,1,0,0:0:0:0:
182,192,351908,1,0,0:0:0:0:
402,192,351955,1,0,0:0:0:0:
36,192,352002,1,0,0:0:0:0:
256,192,352002,1,0,0:0:0:0:
475,192,352002,1,0,0:0:0:0:
109,192,352048,1,0,0:0:0:0:
329,192,352095,1,0,0:0:0:0:
182,192,352095,1,0,0:0:0:0:
402,192,352142,1,0,0:0:0:0:
36,192,352189,1,0,0:0:0:0:
256,192,352189,1,0,0:0:0:0:
475,192,352189,1,0,0:0:0:0:
182,192,352236,1,0,0:0:0:0:
402,192,352283,1,0,0:0:0:0:
109,192,352283,1,0,0:0:0:0:
329,192,352330,1,0,0:0:0:0:
182,192,352377,1,0,0:0:0:0:
256,192,352377,1,0,0:0:0:0:
36,192,352377,1,0,0:0:0:0:
475,192,352423,1,0,0:0:0:0:
329,192,352470,1,0,0:0:0:0:
402,192,352470,1,0,0:0:0:0:
109,192,352517,1,0,0:0:0:0:
475,192,352564,1,0,0:0:0:0:
256,192,352564,1,0,0:0:0:0:
182,192,352564,1,0,0:0:0:0:
36,192,352611,1,0,0:0:0:0:
329,192,352658,1,0,0:0:0:0:
109,192,352658,1,0,0:0:0:0:
402,192,352705,1,0,0:0:0:0:
182,192,352752,1,0,0:0:0:0:
36,192,352752,1,0,0:0:0:0:
475,192,352752,1,0,0:0:0:0:
256,192,352752,1,0,0:0:0:0:
329,192,352798,1,0,0:0:0:0:
109,192,352845,1,0,0:0:0:0:
182,192,352892,1,0,0:0:0:0:
36,192,352939,1,0,0:0:0:0:
475,192,352939,1,0,0:0:0:0:
256,192,352939,1,0,0:0:0:0:
402,192,352986,1,0,0:0:0:0:
182,192,353033,1,0,0:0:0:0:
329,192,353033,1,0,0:0:0:0:
109,192,353080,1,0,0:0:0:0:
402,192,353127,1,0,0:0:0:0:
475,192,353127,1,0,0:0:0:0:
36,192,353127,1,0,0:0:0:0:
256,192,353127,1,0,0:0:0:0:
182,192,353173,1,0,0:0:0:0:
329,192,353220,1,0,0:0:0:0:
109,192,353267,1,0,0:0:0:0:
475,192,353314,1,0,0:0:0:0:
402,192,353314,1,0,0:0:0:0:
256,192,353314,1,0,0:0:0:0:
36,192,353361,1,0,0:0:0:0:
182,192,353408,1,0,0:0:0:0:
329,192,353455,1,0,0:0:0:0:
256,192,353502,1,0,0:0:0:0:
475,192,353502,1,0,0:0:0:0:
109,192,353502,1,0,0:0:0:0:
36,192,353502,1,0,0:0:0:0:
402,192,353548,1,0,0:0:0:0:
329,192,353595,1,0,0:0:0:0:
182,192,353642,1,0,0:0:0:0:
475,192,353689,1,0,0:0:0:0:
109,192,353689,1,0,0:0:0:0:
256,192,353689,1,0,0:0:0:0:
402,192,353736,1,0,0:0:0:0:
36,192,353783,1,0,0:0:0:0:
182,192,353830,1,0,0:0:0:0:
475,192,353877,1,0,0:0:0:0:
109,192,353877,1,0,0:0:0:0:
329,192,353877,1,0,0:0:0:0:
256,192,353877,1,0,0:0:0:0:
402,192,353923,1,0,0:0:0:0:
36,192,353970,1,0,0:0:0:0:
182,192,354017,1,0,0:0:0:0:
475,192,354064,1,0,0:0:0:0:
109,192,354064,1,0,0:0:0:0:
256,192,354064,1,0,0:0:0:0:
402,192,354111,1,0,0:0:0:0:
329,192,354158,1,0,0:0:0:0:
182,192,354205,1,0,0:0:0:0:
256,192,354252,1,0,0:0:0:0:
475,192,354252,1,0,0:0:0:0:
36,192,354252,1,0,0:0:0:0:
109,192,354252,1,0,0:0:0:0:
402,192,354298,1,0,0:0:0:0:
329,192,354345,1,0,0:0:0:0:
182,192,354392,1,0,0:0:0:0:
402,192,354439,1,0,0:0:0:0:
475,192,354439,1,0,0:0:0:0:
256,192,354439,1,0,0:0:0:0:
109,192,354486,1,0,0:0:0:0:
182,192,354533,1,0,0:0:0:0:
36,192,354580,1,0,0:0:0:0:
329,192,354627,1,0,0:0:0:0:
475,192,354627,1,0,0:0:0:0:
109,192,354627,1,0,0:0:0:0:
256,192,354627,1,0,0:0:0:0:
402,192,354673,1,0,0:0:0:0:
182,192,354720,1,0,0:0:0:0:
36,192,354767,1,0,0:0:0:0:
475,192,354814,1,0,0:0:0:0:
256,192,354814,1,0,0:0:0:0:
109,192,354814,1,0,0:0:0:0:
329,192,354861,1,0,0:0:0:0:
402,192,354908,1,0,0:0:0:0:
182,192,354955,1,0,0:0:0:0:
475,192,355002,1,0,0:0:0:0:
329,192,355002,1,0,0:0:0:0:
36,192,355002,1,0,0:0:0:0:
109,192,355002,1,0,0:0:0:0:
256,192,355048,1,0,0:0:0:0:
402,192,355095,1,0,0:0:0:0:
182,192,355142,1,0,0:0:0:0:
475,192,355189,1,0,0:0:0:0:
256,192,355189,1,0,0:0:0:0:
109,192,355189,1,0,0:0:0:0:
329,192,355236,1,0,0:0:0:0:
402,192,355283,1,0,0:0:0:0:
182,192,355330,1,0,0:0:0:0:
109,192,355377,1,0,0:0:0:0:
475,192,355377,1,0,0:0:0:0:
256,192,355377,1,0,0:0:0:0:
36,192,355377,1,0,0:0:0:0:
402,192,355423,1,0,0:0:0:0:
329,192,355470,1,0,0:0:0:0:
182,192,355517,1,0,0:0:0:0:
36,192,355564,1,0,0:0:0:0:
475,192,355564,1,0,0:0:0:0:
256,192,355564,1,0,0:0:0:0:
109,192,355611,1,0,0:0:0:0:
402,192,355658,1,0,0:0:0:0:
329,192,355705,1,0,0:0:0:0:
256,192,355752,1,0,0:0:0:0:
475,192,355752,1,0,0:0:0:0:
36,192,355752,1,0,0:0:0:0:
109,192,355752,1,0,0:0:0:0:
402,192,355798,1,0,0:0:0:0:
182,192,355845,1,0,0:0:0:0:
329,192,355845,1,0,0:0:0:0:
109,192,355892,1,0,0:0:0:0:
475,192,355939,1,0,0:0:0:0:
256,192,355939,1,0,0:0:0:0:
36,192,355939,1,0,0:0:0:0:
402,192,355986,1,0,0:0:0:0:
109,192,356033,1,0,0:0:0:0:
182,192,356033,1,0,0:0:0:0:
329,192,356080,1,0,0:0:0:0:
256,192,356127,1,0,0:0:0:0:
402,192,356127,1,0,0:0:0:0:
475,192,356127,1,0,0:0:0:0:
36,192,356173,1,0,0:0:0:0:
329,192,356220,1,0,0:0:0:0:
109,192,356220,1,0,0:0:0:0:
256,192,356267,1,0,0:0:0:0:
182,192,356314,1,0,0:0:0:0:
402,192,356314,1,0,0:0:0:0:
475,192,356314,1,0,0:0:0:0:
36,192,356361,1,0,0:0:0:0:
109,192,356408,1,0,0:0:0:0:
329,192,356408,1,0,0:0:0:0:
256,192,356455,1,0,0:0:0:0:
36,192,356502,1,0,0:0:0:0:
475,192,356502,1,0,0:0:0:0:
182,192,356502,1,0,0:0:0:0:
402,192,356548,1,0,0:0:0:0:
256,192,356595,1,0,0:0:0:0:
109,192,356595,1,0,0:0:0:0:
329,192,356642,1,0,0:0:0:0:
36,192,356689,1,0,0:0:0:0:
182,192,356689,1,0,0:0:0:0:
475,192,356689,1,0,0:0:0:0:
402,192,356736,1,0,0:0:0:0:
329,192,356783,1,0,0:0:0:0:
256,192,356783,1,0,0:0:0:0:
109,192,356830,1,0,0:0:0:0:
402,192,356877,1,0,0:0:0:0:
475,192,356877,1,0,0:0:0:0:
182,192,356877,1,0,0:0:0:0:
36,192,356923,1,0,0:0:0:0:
109,192,356970,1,0,0:0:0:0:
329,192,356970,1,0,0:0:0:0:
256,192,357017,1,0,0:0:0:0:
36,192,357064,1,0,0:0:0:0:
402,192,357064,1,0,0:0:0:0:
182,192,357064,1,0,0:0:0:0:
475,192,357111,1,0,0:0:0:0:
109,192,357158,1,0,0:0:0:0:
329,192,357158,1,0,0:0:0:0:
256,192,357205,1,0,0:0:0:0:
182,192,357252,1,0,0:0:0:0:
475,192,357252,1,0,0:0:0:0:
402,192,357252,1,0,0:0:0:0:
36,192,357298,1,0,0:0:0:0:
109,192,357298,1,0,0:0:0:0:
256,192,357345,1,0,0:0:0:0:
329,192,357345,1,0,0:0:0:0:
475,192,357392,1,0,0:0:0:0:
182,192,357392,1,0,0:0:0:0:
109,192,357439,1,0,0:0:0:0:
402,192,357439,1,0,0:0:0:0:
36,192,357486,1,0,0:0:0:0:
256,192,357486,1,0,0:0:0:0:
475,192,357533,1,0,0:0:0:0:
329,192,357533,1,0,0:0:0:0:
109,192,357580,1,0,0:0:0:0:
182,192,357580,1,0,0:0:0:0:
256,192,357627,1,0,0:0:0:0:
402,192,357627,1,0,0:0:0:0:
329,192,357673,1,0,0:0:0:0:
36,192,357673,1,0,0:0:0:0:
182,192,357720,1,0,0:0:0:0:
475,192,357720,1,0,0:0:0:0:
402,192,357767,1,0,0:0:0:0:
109,192,357767,1,0,0:0:0:0:
36,192,357814,1,0,0:0:0:0:
256,192,357814,1,0,0:0:0:0:
182,192,357861,1,0,0:0:0:0:
329,192,357861,1,0,0:0:0:0:
475,192,357908,1,0,0:0:0:0:
402,192,357908,1,0,0:0:0:0:
256,192,357955,1,0,0:0:0:0:
109,192,357955,1,0,0:0:0:0:
36,192,358002,1,0,0:0:0:0:
182,192,358002,1,0,0:0:0:0:
329,192,358048,1,0,0:0:0:0:
475,192,358048,1,0,0:0:0:0:
402,192,358095,1,0,0:0:0:0:
256,192,358095,1,0,0:0:0:0:
36,192,358142,1,0,0:0:0:0:
109,192,358142,1,0,0:0:0:0:
329,192,358189,1,0,0:0:0:0:
182,192,358189,1,0,0:0:0:0:
402,192,358236,1,0,0:0:0:0:
475,192,358236,1,0,0:0:0:0:
109,192,358283,1,0,0:0:0:0:
36,192,358283,1,0,0:0:0:0:
256,192,358330,1,0,0:0:0:0:
182,192,358330,1,0,0:0:0:0:
402,192,358377,1,0,0:0:0:0:
475,192,358377,1,0,0:0:0:0:
329,192,358377,1,0,0:0:0:0:
36,192,358423,1,0,0:0:0:0:
109,192,358423,1,0,0:0:0:0:
182,192,358423,1,0,0:0:0:0:
475,192,358470,1,0,0:0:0:0:
402,192,358470,1,0,0:0:0:0:
329,192,358470,1,0,0:0:0:0:
36,192,358517,1,0,0:0:0:0:
109,192,358517,1,0,0:0:0:0:
182,192,358517,1,0,0:0:0:0:
329,192,358564,1,0,0:0:0:0:
402,192,358564,1,0,0:0:0:0:
475,192,358564,1,0,0:0:0:0:
36,192,358611,1,0,0:0:0:0:
109,192,358611,1,0,0:0:0:0:
182,192,358611,1,0,0:0:0:0:
475,192,358658,1,0,0:0:0:0:
402,192,358658,1,0,0:0:0:0:
329,192,358658,1,0,0:0:0:0:
36,192,358705,1,0,0:0:0:0:
109,192,358705,1,0,0:0:0:0:
182,192,358705,1,0,0:0:0:0:
329,192,358752,1,0,0:0:0:0:
256,192,358752,1,0,0:0:0:0:
475,192,358752,1,0,0:0:0:0:
402,192,358752,1,0,0:0:0:0:
182,192,358845,1,0,0:0:0:0:
109,192,358845,1,0,0:0:0:0:
475,192,358939,1,0,0:0:0:0:
256,192,358939,1,0,0:0:0:0:
402,192,358939,1,0,0:0:0:0:
329,192,359033,1,0,0:0:0:0:
182,192,359033,1,0,0:0:0:0:
256,192,359127,1,0,0:0:0:0:
109,192,359127,1,0,0:0:0:0:
36,192,359127,1,0,0:0:0:0:
402,192,359220,1,0,0:0:0:0:
329,192,359220,1,0,0:0:0:0:
109,192,359314,1,0,0:0:0:0:
182,192,359314,1,0,0:0:0:0:
475,192,359408,1,0,0:0:0:0:
329,192,359408,1,0,0:0:0:0:
256,192,359408,1,0,0:0:0:0:
402,192,359502,1,0,0:0:0:0:
109,192,359502,1,0,0:0:0:0:
36,192,359502,1,0,0:0:0:0:
475,192,359595,1,0,0:0:0:0:
256,192,359595,1,0,0:0:0:0:
109,192,359689,1,0,0:0:0:0:
329,192,359689,1,0,0:0:0:0:
182,192,359689,1,0,0:0:0:0:
475,192,359783,1,0,0:0:0:0:
256,192,359783,1,0,0:0:0:0:
402,192,359877,1,0,0:0:0:0:
36,192,359877,1,0,0:0:0:0:
109,192,359877,1,0,0:0:0:0:
182,192,359970,1,0,0:0:0:0:
329,192,359970,1,0,0:0:0:0:
475,192,360064,1,0,0:0:0:0:
256,192,360064,1,0,0:0:0:0:
402,192,360111,1,0,0:0:0:0:
109,192,360111,1,0,0:0:0:0:
329,192,360158,1,0,0:0:0:0:
182,192,360158,1,0,0:0:0:0:
256,192,360205,1,0,0:0:0:0:
36,192,360205,1,0,0:0:0:0:
475,192,360252,1,0,0:0:0:0:
402,192,360252,1,0,0:0:0:0:
182,192,360345,1,0,0:0:0:0:
109,192,360345,1,0,0:0:0:0:
475,192,360439,1,0,0:0:0:0:
402,192,360439,1,0,0:0:0:0:
256,192,360439,1,0,0:0:0:0:
182,192,360533,1,0,0:0:0:0:
36,192,360533,1,0,0:0:0:0:
109,192,360627,1,0,0:0:0:0:
329,192,360627,1,0,0:0:0:0:
475,192,360720,1,0,0:0:0:0:
402,192,360720,1,0,0:0:0:0:
256,192,360814,1,0,0:0:0:0:
36,192,360814,1,0,0:0:0:0:
182,192,360814,1,0,0:0:0:0:
475,192,360908,1,0,0:0:0:0:
329,192,360908,1,0,0:0:0:0:
402,192,361002,1,0,0:0:0:0:
109,192,361002,1,0,0:0:0:0:
182,192,361002,1,0,0:0:0:0:
36,192,361095,1,0,0:0:0:0:
256,192,361095,1,0,0:0:0:0:
329,192,361189,1,0,0:0:0:0:
182,192,361189,1,0,0:0:0:0:
256,192,361283,1,0,0:0:0:0:
36,192,361283,1,0,0:0:0:0:
402,192,361330,1,0,0:0:0:0:
182,192,361377,1,0,0:0:0:0:
109,192,361377,1,0,0:0:0:0:
475,192,361377,1,0,0:0:0:0:
256,192,361423,1,0,0:0:0:0:
329,192,361423,1,0,0:0:0:0:
402,192,361470,1,0,0:0:0:0:
36,192,361470,1,0,0:0:0:0:
109,192,361517,1,0,0:0:0:0:
182,192,361517,1,0,0:0:0:0:
475,192,361564,1,0,0:0:0:0:
329,192,361564,1,0,0:0:0:0:
402,192,361658,1,0,0:0:0:0:
256,192,361658,1,0,0:0:0:0:
182,192,361752,1,0,0:0:0:0:
36,192,361752,1,0,0:0:0:0:
329,192,361798,1,0,0:0:0:0:
475,192,361845,1,0,0:0:0:0:
109,192,361845,1,0,0:0:0:0:
256,192,361892,1,0,0:0:0:0:
402,192,361939,1,0,0:0:0:0:
182,192,361939,1,0,0:0:0:0:
36,192,361986,1,0,0:0:0:0:
329,192,362033,1,0,0:0:0:0:
109,192,362033,1,0,0:0:0:0:
256,192,362080,1,0,0:0:0:0:
402,192,362127,1,0,0:0:0:0:
475,192,362127,1,0,0:0:0:0:
182,192,362173,1,0,0:0:0:0:
329,192,362220,1,0,0:0:0:0:
36,192,362220,1,0,0:0:0:0:
256,192,362267,1,0,0:0:0:0:
475,192,362314,1,0,0:0:0:0:
109,192,362314,1,0,0:0:0:0:
402,192,362361,1,0,0:0:0:0:
329,192,362408,1,0,0:0:0:0:
182,192,362408,1,0,0:0:0:0:
36,192,362455,1,0,0:0:0:0:
475,192,362502,1,0,0:0:0:0:
256,192,362502,1,0,0:0:0:0:
109,192,362548,1,0,0:0:0:0:
329,192,362595,1,0,0:0:0:0:
182,192,362595,1,0,0:0:0:0:
402,192,362642,1,0,0:0:0:0:
256,192,362689,1,0,0:0:0:0:
36,192,362689,1,0,0:0:0:0:
475,192,362736,1,0,0:0:0:0:
182,192,362783,1,0,0:0:0:0:
329,192,362783,1,0,0:0:0:0:
109,192,362830,1,0,0:0:0:0:
402,192,362877,1,0,0:0:0:0:
256,192,362877,1,0,0:0:0:0:
182,192,362923,1,0,0:0:0:0:
36,192,362923,1,0,0:0:0:0:
475,192,362970,1,0,0:0:0:0:
329,192,362970,1,0,0:0:0:0:
109,192,363017,1,0,0:0:0:0:
256,192,363017,1,0,0:0:0:0:
182,192,363064,1,0,0:0:0:0:
402,192,363064,1,0,0:0:0:0:
329,192,363111,1,0,0:0:0:0:
36,192,363111,1,0,0:0:0:0:
475,192,363158,1,0,0:0:0:0:
256,192,363158,1,0,0:0:0:0:
109,192,363205,1,0,0:0:0:0:
329,192,363252,1,0,0:0:0:0:
182,192,363252,1,0,0:0:0:0:
402,192,363298,1,0,0:0:0:0:
256,192,363345,1,0,0:0:0:0:
36,192,363345,1,0,0:0:0:0:
109,192,363392,1,0,0:0:0:0:
329,192,363439,1,0,0:0:0:0:
182,192,363439,1,0,0:0:0:0:
475,192,363486,1,0,0:0:0:0:
256,192,363533,1,0,0:0:0:0:
402,192,363533,1,0,0:0:0:0:
36,192,363580,1,0,0:0:0:0:
182,192,363627,1,0,0:0:0:0:
109,192,363627,1,0,0:0:0:0:
329,192,363673,1,0,0:0:0:0:
475,192,363720,1,0,0:0:0:0:
256,192,363720,1,0,0:0:0:0:
402,192,363767,1,0,0:0:0:0:
36,192,363814,1,0,0:0:0:0:
182,192,363814,1,0,0:0:0:0:
329,192,363861,1,0,0:0:0:0:
109,192,363861,1,0,0:0:0:0:
475,192,363908,1,0,0:0:0:0:
256,192,363955,1,0,0:0:0:0:
36,192,364002,1,0,0:0:0:0:
475,192,364025,1,0,0:0:0:0:
109,192,364048,1,0,0:0:0:0:
402,192,364072,1,0,0:0:0:0:
182,192,364095,1,0,0:0:0:0:
329,192,364119,1,0,0:0:0:0:
36,192,364142,1,0,0:0:0:0:
475,192,364166,1,0,0:0:0:0:
109,192,364189,1,0,0:0:0:0:
402,192,364212,1,0,0:0:0:0:
182,192,364236,1,0,0:0:0:0:
329,192,364259,1,0,0:0:0:0:
36,192,364283,1,0,0:0:0:0:
475,192,364306,1,0,0:0:0:0:
109,192,364330,1,0,0:0:0:0:
402,192,364353,1,0,0:0:0:0:
182,192,364377,1,0,0:0:0:0:
329,192,364400,1,0,0:0:0:0:
36,192,364423,1,0,0:0:0:0:
475,192,364447,1,0,0:0:0:0:
109,192,364470,1,0,0:0:0:0:
402,192,364494,1,0,0:0:0:0:
182,192,364517,1,0,0:0:0:0:
329,192,364541,1,0,0:0:0:0:
36,192,364564,1,0,0:0:0:0:
475,192,364587,1,0,0:0:0:0:
109,192,364611,1,0,0:0:0:0:
402,192,364634,1,0,0:0:0:0:
182,192,364658,1,0,0:0:0:0:
329,192,364681,1,0,0:0:0:0:
256,192,364705,1,0,0:0:0:0:
475,192,364752,1,0,0:0:0:0:
36,192,364752,1,0,0:0:0:0:
475,192,380260,5,0,0:0:0:0:
256,192,380260,1,0,0:0:0:0:
402,192,380260,1,0,0:0:0:0:
182,192,380440,1,0,0:0:0:0:
329,192,380620,1,0,0:0:0:0:
109,192,381341,1,0,0:0:0:0:
182,192,381341,1,0,0:0:0:0:
475,192,381881,1,0,0:0:0:0:
182,192,382061,1,0,0:0:0:0:
329,192,382241,1,0,0:0:0:0:
402,192,382422,1,0,0:0:0:0:
109,192,382602,1,0,0:0:0:0:
182,192,382782,1,0,0:0:0:0:
402,192,383503,1,0,0:0:0:0:
329,192,383503,1,0,0:0:0:0:
256,192,384584,1,0,0:0:0:0:
402,192,384584,1,0,0:0:0:0:
36,192,384584,1,0,0:0:0:0:
109,192,384584,1,0,0:0:0:0:
475,192,385124,1,0,0:0:0:0:
182,192,385305,1,0,0:0:0:0:
329,192,385485,1,0,0:0:0:0:
182,192,386386,1,0,0:0:0:0:
329,192,386566,1,0,0:0:0:0:
402,192,386746,1,0,0:0:0:0:
109,192,386926,1,0,0:0:0:0:
182,192,387106,1,0,0:0:0:0:
329,192,387827,1,0,0:0:0:0:
182,192,387827,1,0,0:0:0:0:
329,192,387962,1,0,0:0:0:0:
182,192,387962,1,0,0:0:0:0:
256,192,388368,1,0,0:0:0:0:
402,192,388368,1,0,0:0:0:0:
109,192,388368,1,0,0:0:0:0:
475,192,388908,1,0,0:0:0:0:
329,192,388908,1,0,0:0:0:0:
402,192,388908,1,0,0:0:0:0:
36,192,388908,1,0,0:0:0:0:
109,192,388908,1,0,0:0:0:0:
475,192,389043,1,0,0:0:0:0:
329,192,389043,1,0,0:0:0:0:
402,192,389043,1,0,0:0:0:0:
36,192,389043,1,0,0:0:0:0:
109,192,389043,1,0,0:0:0:0:
475,192,389178,1,0,0:0:0:0:
329,192,389178,1,0,0:0:0:0:
182,192,389178,1,0,0:0:0:0:
402,192,389246,1,0,0:0:0:0:
256,192,389246,1,0,0:0:0:0:
36,192,389314,1,0,0:0:0:0:
109,192,389314,1,0,0:0:0:0:
329,192,389381,1,0,0:0:0:0:
182,192,389381,1,0,0:0:0:0:
36,192,389449,1,0,0:0:0:0:
256,192,389449,1,0,0:0:0:0:
109,192,389449,1,0,0:0:0:0:
402,192,389449,1,0,0:0:0:0:
475,192,389449,1,0,0:0:0:0:
402,192,389584,1,0,0:0:0:0:
475,192,389584,1,0,0:0:0:0:
256,192,389584,1,0,0:0:0:0:
36,192,389584,1,0,0:0:0:0:
109,192,389584,1,0,0:0:0:0:
402,192,389719,1,0,0:0:0:0:
182,192,389719,1,0,0:0:0:0:
109,192,389719,1,0,0:0:0:0:
329,192,389787,1,0,0:0:0:0:
256,192,389787,1,0,0:0:0:0:
36,192,389854,1,0,0:0:0:0:
109,192,389854,1,0,0:0:0:0:
256,192,389922,1,0,0:0:0:0:
182,192,389922,1,0,0:0:0:0:
36,192,389989,1,0,0:0:0:0:
109,192,389989,1,0,0:0:0:0:
475,192,389989,1,0,0:0:0:0:
329,192,389989,1,0,0:0:0:0:
402,192,389989,1,0,0:0:0:0:
402,192,390124,1,0,0:0:0:0:
475,192,390124,1,0,0:0:0:0:
329,192,390124,1,0,0:0:0:0:
36,192,390124,1,0,0:0:0:0:
109,192,390124,1,0,0:0:0:0:
36,192,390260,1,0,0:0:0:0:
402,192,390260,1,0,0:0:0:0:
182,192,390260,1,0,0:0:0:0:
475,192,390327,1,0,0:0:0:0:
256,192,390327,1,0,0:0:0:0:
329,192,390395,1,0,0:0:0:0:
109,192,390395,1,0,0:0:0:0:
402,192,390462,1,0,0:0:0:0:
182,192,390462,1,0,0:0:0:0:
36,192,390530,1,0,0:0:0:0:
109,192,390530,1,0,0:0:0:0:
329,192,390530,1,0,0:0:0:0:
256,192,390530,1,0,0:0:0:0:
475,192,390530,1,0,0:0:0:0:
329,192,390665,1,0,0:0:0:0:
475,192,390665,1,0,0:0:0:0:
256,192,390665,1,0,0:0:0:0:
36,192,390665,1,0,0:0:0:0:
109,192,390665,1,0,0:0:0:0:
475,192,390800,1,0,0:0:0:0:
109,192,390800,1,0,0:0:0:0:
182,192,390800,1,0,0:0:0:0:
402,192,390800,1,0,0:0:0:0:
329,192,390868,1,0,0:0:0:0:
256,192,390868,1,0,0:0:0:0:
402,192,390935,1,0,0:0:0:0:
109,192,390935,1,0,0:0:0:0:
36,192,390935,1,0,0:0:0:0:
256,192,391003,1,0,0:0:0:0:
182,192,391003,1,0,0:0:0:0:
402,192,391070,1,0,0:0:0:0:
475,192,391070,1,0,0:0:0:0:
329,192,391070,1,0,0:0:0:0:
36,192,391070,1,0,0:0:0:0:
109,192,391070,1,0,0:0:0:0:
402,192,391205,1,0,0:0:0:0:
475,192,391205,1,0,0:0:0:0:
329,192,391205,1,0,0:0:0:0:
36,192,391205,1,0,0:0:0:0:
109,192,391205,1,0,0:0:0:0:
182,192,391341,1,0,0:0:0:0:
402,192,391341,1,0,0:0:0:0:
256,192,391341,1,0,0:0:0:0:
329,192,391408,1,0,0:0:0:0:
36,192,391408,1,0,0:0:0:0:
256,192,391476,1,0,0:0:0:0:
182,192,391476,1,0,0:0:0:0:
109,192,391476,1,0,0:0:0:0:
475,192,391543,1,0,0:0:0:0:
402,192,391543,1,0,0:0:0:0:
329,192,391611,1,0,0:0:0:0:
182,192,391611,1,0,0:0:0:0:
256,192,391611,1,0,0:0:0:0:
36,192,391611,1,0,0:0:0:0:
109,192,391611,1,0,0:0:0:0:
256,192,391746,1,0,0:0:0:0:
329,192,391746,1,0,0:0:0:0:
182,192,391746,1,0,0:0:0:0:
36,192,391746,1,0,0:0:0:0:
109,192,391746,1,0,0:0:0:0:
402,192,391881,1,0,0:0:0:0:
256,192,391881,1,0,0:0:0:0:
182,192,391881,1,0,0:0:0:0:
475,192,391949,1,0,0:0:0:0:
329,192,391949,1,0,0:0:0:0:
182,192,392016,1,0,0:0:0:0:
109,192,392016,1,0,0:0:0:0:
36,192,392016,1,0,0:0:0:0:
256,192,392084,1,0,0:0:0:0:
402,192,392084,1,0,0:0:0:0:
182,192,392151,1,0,0:0:0:0:
109,192,392151,1,0,0:0:0:0:
36,192,392151,1,0,0:0:0:0:
329,192,392151,1,0,0:0:0:0:
475,192,392151,1,0,0:0:0:0:
329,192,392287,1,0,0:0:0:0:
475,192,392287,1,0,0:0:0:0:
182,192,392287,1,0,0:0:0:0:
36,192,392287,1,0,0:0:0:0:
109,192,392287,1,0,0:0:0:0:
475,192,392422,1,0,0:0:0:0:
256,192,392422,1,0,0:0:0:0:
402,192,392422,1,0,0:0:0:0:
182,192,392455,1,0,0:0:0:0:
109,192,392489,1,0,0:0:0:0:
36,192,392523,1,0,0:0:0:0:
402,192,392557,1,0,0:0:0:0:
329,192,392557,1,0,0:0:0:0:
256,192,392591,1,0,0:0:0:0:
182,192,392624,1,0,0:0:0:0:
109,192,392658,1,0,0:0:0:0:
402,192,392692,1,0,0:0:0:0:
475,192,392692,1,0,0:0:0:0:
36,192,392692,1,0,0:0:0:0:
329,192,392692,1,0,0:0:0:0:
475,192,392827,1,0,0:0:0:0:
182,192,392827,1,0,0:0:0:0:
402,192,392827,1,0,0:0:0:0:
36,192,392827,1,0,0:0:0:0:
329,192,392827,1,0,0:0:0:0:
475,192,392962,1,0,0:0:0:0:
109,192,392962,1,0,0:0:0:0:
182,192,392962,1,0,0:0:0:0:
256,192,392996,1,0,0:0:0:0:
329,192,393030,1,0,0:0:0:0:
402,192,393064,1,0,0:0:0:0:
475,192,393097,1,0,0:0:0:0:
36,192,393097,1,0,0:0:0:0:
109,192,393131,1,0,0:0:0:0:
182,192,393165,1,0,0:0:0:0:
256,192,393199,1,0,0:0:0:0:
36,192,393232,1,0,0:0:0:0:
109,192,393232,1,0,0:0:0:0:
475,192,393232,1,0,0:0:0:0:
329,192,393232,1,0,0:0:0:0:
402,192,393232,1,0,0:0:0:0:
36,192,393638,1,0,0:0:0:0:
109,192,393773,1,0,0:0:0:0:
182,192,394043,1,0,0:0:0:0:
256,192,394314,1,0,0:0:0:0:
109,192,394314,1,0,0:0:0:0:
36,192,394314,1,0,0:0:0:0:
329,192,394584,1,0,0:0:0:0:
402,192,394854,1,0,0:0:0:0:
36,192,395124,1,0,0:0:0:0:
329,192,395124,1,0,0:0:0:0:
402,192,395124,1,0,0:0:0:0:
109,192,395192,1,0,0:0:0:0:
182,192,395192,1,0,0:0:0:0:
256,192,395260,1,0,0:0:0:0:
402,192,395260,1,0,0:0:0:0:
329,192,395260,1,0,0:0:0:0:
109,192,395327,1,0,0:0:0:0:
182,192,395327,1,0,0:0:0:0:
36,192,395395,1,0,0:0:0:0:
329,192,395395,1,0,0:0:0:0:
475,192,395395,1,0,0:0:0:0:
256,192,395395,1,0,0:0:0:0:
402,192,395395,1,0,0:0:0:0:
402,192,395665,1,0,0:0:0:0:
36,192,395665,1,0,0:0:0:0:
182,192,395665,1,0,0:0:0:0:
475,192,395732,1,0,0:0:0:0:
329,192,395732,1,0,0:0:0:0:
256,192,395800,1,0,0:0:0:0:
109,192,395800,1,0,0:0:0:0:
182,192,395868,1,0,0:0:0:0:
329,192,395868,1,0,0:0:0:0:
109,192,395935,1,0,0:0:0:0:
475,192,395935,1,0,0:0:0:0:
36,192,395935,1,0,0:0:0:0:
256,192,395935,1,0,0:0:0:0:
402,192,395935,1,0,0:0:0:0:
36,192,396205,1,0,0:0:0:0:
329,192,396205,1,0,0:0:0:0:
182,192,396205,1,0,0:0:0:0:
256,192,396273,1,0,0:0:0:0:
109,192,396273,1,0,0:0:0:0:
475,192,396341,1,0,0:0:0:0:
402,192,396341,1,0,0:0:0:0:
329,192,396408,1,0,0:0:0:0:
182,192,396408,1,0,0:0:0:0:
256,192,396476,1,0,0:0:0:0:
109,192,396476,1,0,0:0:0:0:
36,192,396476,1,0,0:0:0:0:
475,192,396543,1,0,0:0:0:0:
402,192,396543,1,0,0:0:0:0:
329,192,396611,1,0,0:0:0:0:
182,192,396611,1,0,0:0:0:0:
36,192,396678,1,0,0:0:0:0:
109,192,396678,1,0,0:0:0:0:
475,192,396746,1,0,0:0:0:0:
402,192,396746,1,0,0:0:0:0:
256,192,396746,1,0,0:0:0:0:
329,192,396814,1,0,0:0:0:0:
182,192,396814,1,0,0:0:0:0:
256,192,396881,1,0,0:0:0:0:
109,192,396881,1,0,0:0:0:0:
329,192,396949,1,0,0:0:0:0:
182,192,396949,1,0,0:0:0:0:
36,192,397016,1,0,0:0:0:0:
109,192,397016,1,0,0:0:0:0:
475,192,397016,1,0,0:0:0:0:
256,192,397016,1,0,0:0:0:0:
402,192,397016,1,0,0:0:0:0:
329,192,397557,1,0,0:0:0:0:
402,192,397557,1,0,0:0:0:0:
475,192,397557,1,0,0:0:0:0:
36,192,397557,1,0,0:0:0:0:
109,192,397557,1,0,0:0:0:0:
182,192,397557,1,0,0:0:0:0:
475,192,398097,1,0,0:0:0:0:
402,192,398638,1,0,0:0:0:0:
329,192,399178,1,0,0:0:0:0:
256,192,399719,1,0,0:0:0:0:
182,192,400530,1,0,0:0:0:0:
256,192,400665,1,0,0:0:0:0:
329,192,400800,1,0,0:0:0:0:
256,192,401205,1,0,0:0:0:0:
109,192,401611,1,0,0:0:0:0:
36,192,401611,1,0,0:0:0:0:
182,192,401611,1,0,0:0:0:0:
475,192,401678,1,0,0:0:0:0:
402,192,401678,1,0,0:0:0:0:
329,192,401678,1,0,0:0:0:0:
182,192,401746,1,0,0:0:0:0:
109,192,401746,1,0,0:0:0:0:
36,192,401746,1,0,0:0:0:0:
475,192,401814,1,0,0:0:0:0:
402,192,401814,1,0,0:0:0:0:
329,192,401814,1,0,0:0:0:0:
109,192,401881,1,0,0:0:0:0:
256,192,401881,1,0,0:0:0:0:
36,192,401881,1,0,0:0:0:0:
475,192,401949,1,0,0:0:0:0:
329,192,401949,1,0,0:0:0:0:
402,192,402016,1,0,0:0:0:0:
182,192,402016,1,0,0:0:0:0:
109,192,402084,1,0,0:0:0:0:
256,192,402084,1,0,0:0:0:0:
329,192,402151,1,0,0:0:0:0:
182,192,402151,1,0,0:0:0:0:
402,192,402151,1,0,0:0:0:0:
36,192,402151,1,0,0:0:0:0:
475,192,402151,1,0,0:0:0:0:
109,192,402219,1,0,0:0:0:0:
256,192,402219,1,0,0:0:0:0:
182,192,402287,1,0,0:0:0:0:
402,192,402287,1,0,0:0:0:0:
475,192,402354,1,0,0:0:0:0:
329,192,402354,1,0,0:0:0:0:
256,192,402422,1,0,0:0:0:0:
402,192,402422,1,0,0:0:0:0:
36,192,402422,1,0,0:0:0:0:
182,192,402422,1,0,0:0:0:0:
109,192,402422,1,0,0:0:0:0:
329,192,402489,1,0,0:0:0:0:
475,192,402489,1,0,0:0:0:0:
256,192,402557,1,0,0:0:0:0:
109,192,402557,1,0,0:0:0:0:
402,192,402624,1,0,0:0:0:0:
182,192,402624,1,0,0:0:0:0:
256,192,402692,1,0,0:0:0:0:
329,192,402692,1,0,0:0:0:0:
109,192,402692,1,0,0:0:0:0:
475,192,402692,1,0,0:0:0:0:
36,192,402692,1,0,0:0:0:0:
182,192,402760,1,0,0:0:0:0:
329,192,402827,1,0,0:0:0:0:
36,192,402827,1,0,0:0:0:0:
475,192,402827,1,0,0:0:0:0:
109,192,402895,1,0,0:0:0:0:
402,192,402895,1,0,0:0:0:0:
182,192,402962,1,0,0:0:0:0:
256,192,402962,1,0,0:0:0:0:
329,192,402962,1,0,0:0:0:0:
36,192,402962,1,0,0:0:0:0:
475,192,402962,1,0,0:0:0:0:
109,192,403030,1,0,0:0:0:0:
36,192,403097,1,0,0:0:0:0:
402,192,403097,1,0,0:0:0:0:
256,192,403097,1,0,0:0:0:0:
182,192,403165,1,0,0:0:0:0:
329,192,403165,1,0,0:0:0:0:
402,192,403232,1,0,0:0:0:0:
475,192,403232,1,0,0:0:0:0:
256,192,403232,1,0,0:0:0:0:
109,192,403232,1,0,0:0:0:0:
36,192,403232,1,0,0:0:0:0:
182,192,403300,1,0,0:0:0:0:
329,192,403368,1,0,0:0:0:0:
475,192,403368,1,0,0:0:0:0:
256,192,403435,1,0,0:0:0:0:
109,192,403435,1,0,0:0:0:0:
402,192,403503,1,0,0:0:0:0:
475,192,403503,1,0,0:0:0:0:
329,192,403503,1,0,0:0:0:0:
182,192,403503,1,0,0:0:0:0:
36,192,403503,1,0,0:0:0:0:
256,192,403570,1,0,0:0:0:0:
36,192,403638,1,0,0:0:0:0:
109,192,403638,1,0,0:0:0:0:
402,192,403638,1,0,0:0:0:0:
329,192,403705,1,0,0:0:0:0:
182,192,403705,1,0,0:0:0:0:
402,192,403773,1,0,0:0:0:0:
475,192,403773,1,0,0:0:0:0:
36,192,403773,1,0,0:0:0:0:
256,192,403773,1,0,0:0:0:0:
109,192,403773,1,0,0:0:0:0:
182,192,403841,1,0,0:0:0:0:
256,192,403908,1,0,0:0:0:0:
402,192,403908,1,0,0:0:0:0:
329,192,403908,1,0,0:0:0:0:
182,192,403976,1,0,0:0:0:0:
109,192,403976,1,0,0:0:0:0:
36,192,404043,1,0,0:0:0:0:
402,192,404043,1,0,0:0:0:0:
475,192,404043,1,0,0:0:0:0:
256,192,404043,1,0,0:0:0:0:
329,192,404043,1,0,0:0:0:0:
182,192,404111,1,0,0:0:0:0:
256,192,404178,1,0,0:0:0:0:
36,192,404178,1,0,0:0:0:0:
109,192,404178,1,0,0:0:0:0:
475,192,404246,1,0,0:0:0:0:
329,192,404246,1,0,0:0:0:0:
109,192,404314,1,0,0:0:0:0:
36,192,404314,1,0,0:0:0:0:
182,192,404314,1,0,0:0:0:0:
256,192,404314,1,0,0:0:0:0:
402,192,404314,1,0,0:0:0:0:
329,192,404381,1,0,0:0:0:0:
182,192,404449,1,0,0:0:0:0:
475,192,404449,1,0,0:0:0:0:
402,192,404449,1,0,0:0:0:0:
256,192,404516,1,0,0:0:0:0:
109,192,404516,1,0,0:0:0:0:
475,192,404584,1,0,0:0:0:0:
36,192,404584,1,0,0:0:0:0:
402,192,404584,1,0,0:0:0:0:
182,192,404584,1,0,0:0:0:0:
329,192,404584,1,0,0:0:0:0:
256,192,404651,1,0,0:0:0:0:
475,192,404719,1,0,0:0:0:0:
329,192,404719,1,0,0:0:0:0:
109,192,404719,1,0,0:0:0:0:
36,192,404787,1,0,0:0:0:0:
182,192,404787,1,0,0:0:0:0:
475,192,404854,1,0,0:0:0:0:
329,192,404854,1,0,0:0:0:0:
402,192,404854,1,0,0:0:0:0:
109,192,404854,1,0,0:0:0:0:
256,192,404854,1,0,0:0:0:0:
182,192,404922,1,0,0:0:0:0:
256,192,404989,1,0,0:0:0:0:
402,192,404989,1,0,0:0:0:0:
36,192,404989,1,0,0:0:0:0:
109,192,405057,1,0,0:0:0:0:
329,192,405057,1,0,0:0:0:0:
402,192,405124,1,0,0:0:0:0:
475,192,405124,1,0,0:0:0:0:
256,192,405124,1,0,0:0:0:0:
182,192,405124,1,0,0:0:0:0:
36,192,405124,1,0,0:0:0:0:
329,192,405192,1,0,0:0:0:0:
475,192,405260,1,0,0:0:0:0:
182,192,405260,1,0,0:0:0:0:
109,192,405260,1,0,0:0:0:0:
402,192,405327,1,0,0:0:0:0:
256,192,405327,1,0,0:0:0:0:
109,192,405395,1,0,0:0:0:0:
182,192,405395,1,0,0:0:0:0:
36,192,405395,1,0,0:0:0:0:
329,192,405395,1,0,0:0:0:0:
475,192,405395,1,0,0:0:0:0:
256,192,405462,1,0,0:0:0:0:
475,192,405530,1,0,0:0:0:0:
109,192,405530,1,0,0:0:0:0:
402,192,405530,1,0,0:0:0:0:
36,192,405530,1,0,0:0:0:0:
182,192,405530,1,0,0:0:0:0:
329,192,405597,1,0,0:0:0:0:
109,192,405665,1,0,0:0:0:0:
402,192,405665,1,0,0:0:0:0:
256,192,405665,1,0,0:0:0:0:
182,192,405732,1,0,0:0:0:0:
402,192,405800,1,0,0:0:0:0:
475,192,405800,1,0,0:0:0:0:
256,192,405800,1,0,0:0:0:0:
36,192,405800,1,0,0:0:0:0:
109,192,405800,1,0,0:0:0:0:
329,192,405800,1,0,0:0:0:0:
402,192,405935,1,0,0:0:0:0:
475,192,405935,1,0,0:0:0:0:
109,192,405935,1,0,0:0:0:0:
36,192,405935,1,0,0:0:0:0:
329,192,406003,1,0,0:0:0:0:
256,192,406003,1,0,0:0:0:0:
182,192,406003,1,0,0:0:0:0:
402,192,406070,1,0,0:0:0:0:
475,192,406070,1,0,0:0:0:0:
109,192,406070,1,0,0:0:0:0:
36,192,406070,1,0,0:0:0:0:
329,192,406138,1,0,0:0:0:0:
256,192,406138,1,0,0:0:0:0:
182,192,406138,1,0,0:0:0:0:
402,192,406205,1,0,0:0:0:0:
475,192,406205,1,0,0:0:0:0:
109,192,406205,1,0,0:0:0:0:
36,192,406205,1,0,0:0:0:0:
182,192,406273,1,0,0:0:0:0:
329,192,406341,1,0,0:0:0:0:
475,192,406341,1,0,0:0:0:0:
256,192,406341,1,0,0:0:0:0:
402,192,406408,1,0,0:0:0:0:
109,192,406408,1,0,0:0:0:0:
329,192,406476,1,0,0:0:0:0:
475,192,406476,1,0,0:0:0:0:
182,192,406476,1,0,0:0:0:0:
36,192,406476,1,0,0:0:0:0:
256,192,406543,1,0,0:0:0:0:
402,192,406543,1,0,0:0:0:0:
182,192,406611,1,0,0:0:0:0:
109,192,406611,1,0,0:0:0:0:
329,192,406611,1,0,0:0:0:0:
475,192,406678,1,0,0:0:0:0:
256,192,406678,1,0,0:0:0:0:
402,192,406746,1,0,0:0:0:0:
329,192,406746,1,0,0:0:0:0:
109,192,406746,1,0,0:0:0:0:
36,192,406746,1,0,0:0:0:0:
475,192,406814,1,0,0:0:0:0:
182,192,406814,1,0,0:0:0:0:
256,192,406881,1,0,0:0:0:0:
402,192,406881,1,0,0:0:0:0:
109,192,406881,1,0,0:0:0:0:
329,192,406949,1,0,0:0:0:0:
182,192,406949,1,0,0:0:0:0:
256,192,407016,1,0,0:0:0:0:
36,192,407016,1,0,0:0:0:0:
475,192,407016,1,0,0:0:0:0:
109,192,407016,1,0,0:0:0:0:
402,192,407016,1,0,0:0:0:0:
329,192,407084,1,0,0:0:0:0:
182,192,407084,1,0,0:0:0:0:
475,192,407151,1,0,0:0:0:0:
256,192,407151,1,0,0:0:0:0:
36,192,407151,1,0,0:0:0:0:
329,192,407219,1,0,0:0:0:0:
109,192,407219,1,0,0:0:0:0:
36,192,407287,1,0,0:0:0:0:
256,192,407287,1,0,0:0:0:0:
475,192,407287,1,0,0:0:0:0:
182,192,407287,1,0,0:0:0:0:
109,192,407354,1,0,0:0:0:0:
402,192,407354,1,0,0:0:0:0:
475,192,407422,1,0,0:0:0:0:
182,192,407422,1,0,0:0:0:0:
329,192,407422,1,0,0:0:0:0:
402,192,407489,1,0,0:0:0:0:
256,192,407489,1,0,0:0:0:0:
329,192,407557,1,0,0:0:0:0:
475,192,407557,1,0,0:0:0:0:
36,192,407557,1,0,0:0:0:0:
109,192,407557,1,0,0:0:0:0:
402,192,407624,1,0,0:0:0:0:
182,192,407624,1,0,0:0:0:0:
256,192,407692,1,0,0:0:0:0:
329,192,407692,1,0,0:0:0:0:
109,192,407692,1,0,0:0:0:0:
36,192,407760,1,0,0:0:0:0:
182,192,407760,1,0,0:0:0:0:
109,192,407827,1,0,0:0:0:0:
256,192,407827,1,0,0:0:0:0:
402,192,407827,1,0,0:0:0:0:
475,192,407827,1,0,0:0:0:0:
182,192,407895,1,0,0:0:0:0:
329,192,407895,1,0,0:0:0:0:
109,192,407962,1,0,0:0:0:0:
36,192,407962,1,0,0:0:0:0:
256,192,407962,1,0,0:0:0:0:
329,192,408030,1,0,0:0:0:0:
182,192,408030,1,0,0:0:0:0:
256,192,408097,1,0,0:0:0:0:
402,192,408097,1,0,0:0:0:0:
36,192,408097,1,0,0:0:0:0:
109,192,408097,1,0,0:0:0:0:
475,192,408165,1,0,0:0:0:0:
329,192,408165,1,0,0:0:0:0:
402,192,408232,1,0,0:0:0:0:
36,192,408232,1,0,0:0:0:0:
182,192,408232,1,0,0:0:0:0:
109,192,408300,1,0,0:0:0:0:
256,192,408300,1,0,0:0:0:0:
182,192,408368,1,0,0:0:0:0:
329,192,408368,1,0,0:0:0:0:
475,192,408368,1,0,0:0:0:0:
402,192,408368,1,0,0:0:0:0:
36,192,408368,1,0,0:0:0:0:
109,192,408435,1,0,0:0:0:0:
256,192,408435,1,0,0:0:0:0:
329,192,408503,1,0,0:0:0:0:
475,192,408503,1,0,0:0:0:0:
182,192,408503,1,0,0:0:0:0:
402,192,408570,1,0,0:0:0:0:
256,192,408570,1,0,0:0:0:0:
475,192,408638,1,0,0:0:0:0:
329,192,408638,1,0,0:0:0:0:
182,192,408638,1,0,0:0:0:0:
36,192,408638,1,0,0:0:0:0:
256,192,408705,1,0,0:0:0:0:
109,192,408705,1,0,0:0:0:0:
182,192,408773,1,0,0:0:0:0:
329,192,408773,1,0,0:0:0:0:
402,192,408773,1,0,0:0:0:0:
36,192,408841,1,0,0:0:0:0:
109,192,408841,1,0,0:0:0:0:
182,192,408908,1,0,0:0:0:0:
329,192,408908,1,0,0:0:0:0:
402,192,408908,1,0,0:0:0:0:
475,192,408908,1,0,0:0:0:0:
109,192,408976,1,0,0:0:0:0:
256,192,408976,1,0,0:0:0:0:
329,192,409043,1,0,0:0:0:0:
475,192,409043,1,0,0:0:0:0:
182,192,409043,1,0,0:0:0:0:
402,192,409111,1,0,0:0:0:0:
256,192,409111,1,0,0:0:0:0:
475,192,409178,1,0,0:0:0:0:
329,192,409178,1,0,0:0:0:0:
36,192,409178,1,0,0:0:0:0:
182,192,409178,1,0,0:0:0:0:
109,192,409246,1,0,0:0:0:0:
402,192,409246,1,0,0:0:0:0:
329,192,409314,1,0,0:0:0:0:
182,192,409314,1,0,0:0:0:0:
36,192,409314,1,0,0:0:0:0:
475,192,409381,1,0,0:0:0:0:
256,192,409381,1,0,0:0:0:0:
402,192,409449,1,0,0:0:0:0:
182,192,409449,1,0,0:0:0:0:
329,192,409449,1,0,0:0:0:0:
36,192,409449,1,0,0:0:0:0:
256,192,409516,1,0,0:0:0:0:
109,192,409516,1,0,0:0:0:0:
182,192,409584,1,0,0:0:0:0:
329,192,409584,1,0,0:0:0:0:
36,192,409584,1,0,0:0:0:0:
475,192,409584,1,0,0:0:0:0:
402,192,409651,1,0,0:0:0:0:
109,192,409651,1,0,0:0:0:0:
36,192,409719,1,0,0:0:0:0:
475,192,409719,1,0,0:0:0:0:
182,192,409719,1,0,0:0:0:0:
329,192,409719,1,0,0:0:0:0:
402,192,409787,1,0,0:0:0:0:
256,192,409787,1,0,0:0:0:0:
329,192,409854,1,0,0:0:0:0:
182,192,409854,1,0,0:0:0:0:
109,192,409854,1,0,0:0:0:0:
475,192,409854,1,0,0:0:0:0:
36,192,409922,1,0,0:0:0:0:
256,192,409922,1,0,0:0:0:0:
402,192,409989,1,0,0:0:0:0:
109,192,409989,1,0,0:0:0:0:
182,192,409989,1,0,0:0:0:0:
475,192,409989,1,0,0:0:0:0:
256,192,410057,1,0,0:0:0:0:
329,192,410057,1,0,0:0:0:0:
36,192,410124,1,0,0:0:0:0:
182,192,410124,1,0,0:0:0:0:
402,192,410124,1,0,0:0:0:0:
256,192,410192,1,0,0:0:0:0:
475,192,410192,1,0,0:0:0:0:
109,192,410259,1,0,0:0:0:0:
182,192,410259,1,0,0:0:0:0:
329,192,410259,1,0,0:0:0:0:
36,192,410259,1,0,0:0:0:0:
256,192,410327,1,0,0:0:0:0:
402,192,410327,1,0,0:0:0:0:
182,192,410395,1,0,0:0:0:0:
329,192,410395,1,0,0:0:0:0:
36,192,410395,1,0,0:0:0:0:
109,192,410462,1,0,0:0:0:0:
256,192,410462,1,0,0:0:0:0:
475,192,410530,1,0,0:0:0:0:
329,192,410530,1,0,0:0:0:0:
182,192,410530,1,0,0:0:0:0:
402,192,410530,1,0,0:0:0:0:
109,192,410597,1,0,0:0:0:0:
36,192,410597,1,0,0:0:0:0:
402,192,410665,1,0,0:0:0:0:
256,192,410665,1,0,0:0:0:0:
182,192,410665,1,0,0:0:0:0:
36,192,410732,1,0,0:0:0:0:
109,192,410732,1,0,0:0:0:0:
402,192,410800,1,0,0:0:0:0:
182,192,410800,1,0,0:0:0:0:
256,192,410800,1,0,0:0:0:0:
475,192,410800,1,0,0:0:0:0:
329,192,410868,1,0,0:0:0:0:
109,192,410868,1,0,0:0:0:0:
182,192,410935,1,0,0:0:0:0:
36,192,410935,1,0,0:0:0:0:
475,192,410935,1,0,0:0:0:0:
402,192,411003,1,0,0:0:0:0:
256,192,411003,1,0,0:0:0:0:
329,192,411070,1,0,0:0:0:0:
109,192,411070,1,0,0:0:0:0:
36,192,411070,1,0,0:0:0:0:
475,192,411070,1,0,0:0:0:0:
402,192,411138,1,0,0:0:0:0:
182,192,411138,1,0,0:0:0:0:
475,192,411205,1,0,0:0:0:0:
36,192,411205,1,0,0:0:0:0:
256,192,411205,1,0,0:0:0:0:
329,192,411273,1,0,0:0:0:0:
182,192,411273,1,0,0:0:0:0:
256,192,411341,1,0,0:0:0:0:
402,192,411341,1,0,0:0:0:0:
109,192,411341,1,0,0:0:0:0:
475,192,411341,1,0,0:0:0:0:
329,192,411408,1,0,0:0:0:0:
36,192,411408,1,0,0:0:0:0:
109,192,411476,1,0,0:0:0:0:
182,192,411476,1,0,0:0:0:0:
402,192,411476,1,0,0:0:0:0:
256,192,411543,1,0,0:0:0:0:
475,192,411543,1,0,0:0:0:0:
329,192,411611,1,0,0:0:0:0:
402,192,411611,1,0,0:0:0:0:
109,192,411611,1,0,0:0:0:0:
36,192,411611,1,0,0:0:0:0:
475,192,411678,1,0,0:0:0:0:
182,192,411678,1,0,0:0:0:0:
36,192,411746,1,0,0:0:0:0:
256,192,411746,1,0,0:0:0:0:
329,192,411746,1,0,0:0:0:0:
402,192,411814,1,0,0:0:0:0:
109,192,411814,1,0,0:0:0:0:
182,192,411881,1,0,0:0:0:0:
329,192,411881,1,0,0:0:0:0:
475,192,411881,1,0,0:0:0:0:
36,192,411881,1,0,0:0:0:0:
402,192,411949,1,0,0:0:0:0:
256,192,411949,1,0,0:0:0:0:
36,192,412016,1,0,0:0:0:0:
182,192,412016,1,0,0:0:0:0:
329,192,412016,1,0,0:0:0:0:
256,192,412084,1,0,0:0:0:0:
109,192,412084,1,0,0:0:0:0:
402,192,412151,1,0,0:0:0:0:
182,192,412151,1,0,0:0:0:0:
475,192,412151,1,0,0:0:0:0:
36,192,412151,1,0,0:0:0:0:
329,192,412219,1,0,0:0:0:0:
109,192,412219,1,0,0:0:0:0:
256,192,412287,1,0,0:0:0:0:
402,192,412287,1,0,0:0:0:0:
182,192,412287,1,0,0:0:0:0:
475,192,412287,1,0,0:0:0:0:
329,192,412354,1,0,0:0:0:0:
109,192,412354,1,0,0:0:0:0:
402,192,412422,1,0,0:0:0:0:
475,192,412422,1,0,0:0:0:0:
36,192,412422,1,0,0:0:0:0:
256,192,412422,1,0,0:0:0:0:
329,192,412489,1,0,0:0:0:0:
182,192,412489,1,0,0:0:0:0:
256,192,412557,1,0,0:0:0:0:
402,192,412557,1,0,0:0:0:0:
109,192,412557,1,0,0:0:0:0:
182,192,412624,1,0,0:0:0:0:
36,192,412624,1,0,0:0:0:0:
109,192,412692,1,0,0:0:0:0:
256,192,412692,1,0,0:0:0:0:
329,192,412692,1,0,0:0:0:0:
475,192,412692,1,0,0:0:0:0:
182,192,412759,1,0,0:0:0:0:
402,192,412759,1,0,0:0:0:0:
109,192,412827,1,0,0:0:0:0:
329,192,412827,1,0,0:0:0:0:
36,192,412827,1,0,0:0:0:0:
402,192,412895,1,0,0:0:0:0:
256,192,412895,1,0,0:0:0:0:
36,192,412962,1,0,0:0:0:0:
329,192,412962,1,0,0:0:0:0:
109,192,412962,1,0,0:0:0:0:
475,192,412962,1,0,0:0:0:0:
402,192,413030,1,0,0:0:0:0:
182,192,413030,1,0,0:0:0:0:
329,192,413097,1,0,0:0:0:0:
475,192,413097,1,0,0:0:0:0:
256,192,413097,1,0,0:0:0:0:
182,192,413165,1,0,0:0:0:0:
36,192,413165,1,0,0:0:0:0:
109,192,413232,1,0,0:0:0:0:
402,192,413232,1,0,0:0:0:0:
329,192,413232,1,0,0:0:0:0:
256,192,413232,1,0,0:0:0:0:
475,192,413300,1,0,0:0:0:0:
182,192,413300,1,0,0:0:0:0:
329,192,413368,1,0,0:0:0:0:
36,192,413368,1,0,0:0:0:0:
109,192,413368,1,0,0:0:0:0:
402,192,413435,1,0,0:0:0:0:
256,192,413435,1,0,0:0:0:0:
329,192,413503,1,0,0:0:0:0:
36,192,413503,1,0,0:0:0:0:
182,192,413503,1,0,0:0:0:0:
475,192,413503,1,0,0:0:0:0:
109,192,413570,1,0,0:0:0:0:
402,192,413570,1,0,0:0:0:0:
475,192,413638,1,0,0:0:0:0:
36,192,413638,1,0,0:0:0:0:
256,192,413638,1,0,0:0:0:0:
109,192,413705,1,0,0:0:0:0:
329,192,413705,1,0,0:0:0:0:
182,192,413705,1,0,0:0:0:0:
256,192,413773,1,0,0:0:0:0:
36,192,413773,1,0,0:0:0:0:
402,192,413773,1,0,0:0:0:0:
475,192,413773,1,0,0:0:0:0:
329,192,413841,1,0,0:0:0:0:
182,192,413841,1,0,0:0:0:0:
256,192,413908,1,0,0:0:0:0:
402,192,413908,1,0,0:0:0:0:
109,192,413908,1,0,0:0:0:0:
329,192,413976,1,0,0:0:0:0:
182,192,413976,1,0,0:0:0:0:
402,192,414043,1,0,0:0:0:0:
256,192,414043,1,0,0:0:0:0:
36,192,414043,1,0,0:0:0:0:
475,192,414043,1,0,0:0:0:0:
329,192,414111,1,0,0:0:0:0:
182,192,414111,1,0,0:0:0:0:
109,192,414111,1,0,0:0:0:0:
36,192,414178,1,0,0:0:0:0:
475,192,414178,1,0,0:0:0:0:
256,192,414178,1,0,0:0:0:0:
329,192,414246,1,0,0:0:0:0:
182,192,414246,1,0,0:0:0:0:
475,192,414314,1,0,0:0:0:0:
256,192,414314,1,0,0:0:0:0:
402,192,414314,1,0,0:0:0:0:
36,192,414314,1,0,0:0:0:0:
109,192,414314,1,0,0:0:0:0:
329,192,414381,1,0,0:0:0:0:
182,192,414381,1,0,0:0:0:0:
402,192,414449,1,0,0:0:0:0:
256,192,414449,1,0,0:0:0:0:
109,192,414449,1,0,0:0:0:0:
475,192,414719,1,0,0:0:0:0:
329,192,414719,1,0,0:0:0:0:
109,192,414719,1,0,0:0:0:0:
329,192,414854,1,0,0:0:0:0:
402,192,414854,1,0,0:0:0:0:
475,192,414854,1,0,0:0:0:0:
36,192,414854,1,0,0:0:0:0:
182,192,414854,1,0,0:0:0:0:
109,192,414854,1,0,0:0:0:0:
182,192,415259,1,0,0:0:0:0:
109,192,415259,1,0,0:0:0:0:
36,192,415259,1,0,0:0:0:0:
329,192,415395,1,0,0:0:0:0:
182,192,415530,1,0,0:0:0:0:
109,192,415935,1,0,0:0:0:0:
36,192,415935,1,0,0:0:0:0:
475,192,415935,1,0,0:0:0:0:
402,192,415935,1,0,0:0:0:0:
329,192,415935,1,0,0:0:0:0:
182,192,416205,1,0,0:0:0:0:
182,192,416341,1,0,0:0:0:0:
329,192,416476,1,0,0:0:0:0:
329,192,416611,1,0,0:0:0:0:
182,192,416746,1,0,0:0:0:0:
329,192,416881,1,0,0:0:0:0:
36,192,417016,1,0,0:0:0:0:
475,192,417016,1,0,0:0:0:0:
256,192,417016,1,0,0:0:0:0:
109,192,417016,1,0,0:0:0:0:
182,192,417151,1,0,0:0:0:0:
256,192,417287,1,0,0:0:0:0:
256,192,417422,1,0,0:0:0:0:
475,192,417422,1,0,0:0:0:0:
109,192,417422,1,0,0:0:0:0:
36,192,417422,1,0,0:0:0:0:
256,192,417557,1,0,0:0:0:0:
182,192,417557,1,0,0:0:0:0:
256,192,417692,1,0,0:0:0:0:
329,192,417827,1,0,0:0:0:0:
182,192,417962,1,0,0:0:0:0:
329,192,418097,1,0,0:0:0:0:
36,192,418097,1,0,0:0:0:0:
475,192,418097,1,0,0:0:0:0:
256,192,418097,1,0,0:0:0:0:
402,192,418097,1,0,0:0:0:0:
109,192,418232,1,0,0:0:0:0:
329,192,418368,1,0,0:0:0:0:
36,192,418503,1,0,0:0:0:0:
402,192,418638,1,0,0:0:0:0:
256,192,418638,1,0,0:0:0:0:
109,192,418773,1,0,0:0:0:0:
329,192,418908,1,0,0:0:0:0:
36,192,419043,1,0,0:0:0:0:
402,192,419178,1,0,0:0:0:0:
475,192,419178,1,0,0:0:0:0:
256,192,419178,1,0,0:0:0:0:
109,192,419178,1,0,0:0:0:0:
182,192,419178,1,0,0:0:0:0:
182,192,419314,1,0,0:0:0:0:
109,192,419449,1,0,0:0:0:0:
402,192,419584,1,0,0:0:0:0:
475,192,419584,1,0,0:0:0:0:
256,192,419584,1,0,0:0:0:0:
109,192,419584,1,0,0:0:0:0:
182,192,419584,1,0,0:0:0:0:
402,192,419719,1,0,0:0:0:0:
256,192,419719,1,0,0:0:0:0:
182,192,419854,1,0,0:0:0:0:
109,192,419989,1,0,0:0:0:0:
182,192,420124,1,0,0:0:0:0:
475,192,420259,1,0,0:0:0:0:
256,192,420259,1,0,0:0:0:0:
402,192,420259,1,0,0:0:0:0:
109,192,420259,1,0,0:0:0:0:
36,192,420259,1,0,0:0:0:0:
182,192,420395,1,0,0:0:0:0:
329,192,420530,1,0,0:0:0:0:
182,192,420665,1,0,0:0:0:0:
402,192,420800,1,0,0:0:0:0:
256,192,420800,1,0,0:0:0:0:
109,192,420935,1,0,0:0:0:0:
329,192,421070,1,0,0:0:0:0:
182,192,421205,1,0,0:0:0:0:
402,192,421341,1,0,0:0:0:0:
475,192,421341,1,0,0:0:0:0:
256,192,421341,1,0,0:0:0:0:
109,192,421341,1,0,0:0:0:0:
36,192,421341,1,0,0:0:0:0:
402,192,421476,1,0,0:0:0:0:
256,192,421611,1,0,0:0:0:0:
402,192,421746,1,0,0:0:0:0:
475,192,421746,1,0,0:0:0:0:
256,192,421746,1,0,0:0:0:0:
36,192,421746,1,0,0:0:0:0:
109,192,421746,1,0,0:0:0:0:
475,192,421881,1,0,0:0:0:0:
402,192,421881,1,0,0:0:0:0:
256,192,422016,1,0,0:0:0:0:
475,192,422151,1,0,0:0:0:0:
329,192,422151,1,0,0:0:0:0:
182,192,422287,1,0,0:0:0:0:
109,192,422422,1,0,0:0:0:0:
36,192,422422,1,0,0:0:0:0:
475,192,422422,1,0,0:0:0:0:
256,192,422422,1,0,0:0:0:0:
402,192,422422,1,0,0:0:0:0:
182,192,422557,1,0,0:0:0:0:
402,192,422692,1,0,0:0:0:0:
109,192,422827,1,0,0:0:0:0:
329,192,422962,1,0,0:0:0:0:
182,192,423097,1,0,0:0:0:0:
402,192,423232,1,0,0:0:0:0:
109,192,423368,1,0,0:0:0:0:
402,192,423503,1,0,0:0:0:0:
109,192,423503,1,0,0:0:0:0:
329,192,423503,1,0,0:0:0:0:
36,192,423503,1,0,0:0:0:0:
182,192,423503,1,0,0:0:0:0:
475,192,423503,1,0,0:0:0:0:
256,192,423638,1,0,0:0:0:0:
182,192,423638,1,0,0:0:0:0:
475,192,423773,1,0,0:0:0:0:
402,192,423773,1,0,0:0:0:0:
329,192,423908,1,0,0:0:0:0:
182,192,423908,1,0,0:0:0:0:
109,192,423908,1,0,0:0:0:0:
475,192,424043,1,0,0:0:0:0:
329,192,424043,1,0,0:0:0:0:
402,192,424043,1,0,0:0:0:0:
36,192,424043,1,0,0:0:0:0:
109,192,424043,1,0,0:0:0:0:
256,192,424178,1,0,0:0:0:0:
182,192,424178,1,0,0:0:0:0:
475,192,424314,1,0,0:0:0:0:
402,192,424314,1,0,0:0:0:0:
182,192,424449,1,0,0:0:0:0:
109,192,424449,1,0,0:0:0:0:
329,192,424584,1,0,0:0:0:0:
475,192,424584,1,0,0:0:0:0:
256,192,424584,1,0,0:0:0:0:
36,192,424584,1,0,0:0:0:0:
109,192,424584,1,0,0:0:0:0:
256,192,424719,1,0,0:0:0:0:
182,192,424719,1,0,0:0:0:0:
109,192,424854,1,0,0:0:0:0:
182,192,424854,1,0,0:0:0:0:
402,192,424854,1,0,0:0:0:0:
475,192,424854,1,0,0:0:0:0:
329,192,424989,1,0,0:0:0:0:
256,192,424989,1,0,0:0:0:0:
182,192,425124,1,0,0:0:0:0:
402,192,425124,1,0,0:0:0:0:
36,192,425124,1,0,0:0:0:0:
109,192,425124,1,0,0:0:0:0:
256,192,425259,1,0,0:0:0:0:
182,192,425259,1,0,0:0:0:0:
475,192,425395,1,0,0:0:0:0:
402,192,425395,1,0,0:0:0:0:
329,192,425395,1,0,0:0:0:0:
182,192,425530,1,0,0:0:0:0:
109,192,425530,1,0,0:0:0:0:
36,192,425665,1,0,0:0:0:0:
109,192,425665,1,0,0:0:0:0:
475,192,425665,1,0,0:0:0:0:
256,192,425665,1,0,0:0:0:0:
402,192,425665,1,0,0:0:0:0:
402,192,425800,1,0,0:0:0:0:
329,192,425800,1,0,0:0:0:0:
475,192,425935,1,0,0:0:0:0:
256,192,425935,1,0,0:0:0:0:
182,192,426070,1,0,0:0:0:0:
109,192,426070,1,0,0:0:0:0:
36,192,426070,1,0,0:0:0:0:
402,192,426205,1,0,0:0:0:0:
475,192,426205,1,0,0:0:0:0:
329,192,426205,1,0,0:0:0:0:
109,192,426205,1,0,0:0:0:0:
182,192,426205,1,0,0:0:0:0:
256,192,426341,1,0,0:0:0:0:
36,192,426341,1,0,0:0:0:0:
475,192,426476,1,0,0:0:0:0:
402,192,426476,1,0,0:0:0:0:
36,192,426611,1,0,0:0:0:0:
182,192,426611,1,0,0:0:0:0:
329,192,426746,1,0,0:0:0:0:
475,192,426746,1,0,0:0:0:0:
256,192,426746,1,0,0:0:0:0:
36,192,426746,1,0,0:0:0:0:
109,192,426746,1,0,0:0:0:0:
256,192,426881,1,0,0:0:0:0:
182,192,426881,1,0,0:0:0:0:
182,192,427016,1,0,0:0:0:0:
109,192,427016,1,0,0:0:0:0:
402,192,427016,1,0,0:0:0:0:
475,192,427016,1,0,0:0:0:0:
329,192,427151,1,0,0:0:0:0:
256,192,427151,1,0,0:0:0:0:
402,192,427287,1,0,0:0:0:0:
475,192,427287,1,0,0:0:0:0:
256,192,427287,1,0,0:0:0:0:
36,192,427287,1,0,0:0:0:0:
109,192,427287,1,0,0:0:0:0:
182,192,427422,1,0,0:0:0:0:
109,192,427422,1,0,0:0:0:0:
475,192,427557,1,0,0:0:0:0:
329,192,427557,1,0,0:0:0:0:
109,192,427692,1,0,0:0:0:0:
36,192,427692,1,0,0:0:0:0:
475,192,427827,1,0,0:0:0:0:
402,192,427827,1,0,0:0:0:0:
256,192,427827,1,0,0:0:0:0:
182,192,427895,1,0,0:0:0:0:
109,192,427895,1,0,0:0:0:0:
402,192,427962,1,0,0:0:0:0:
329,192,427962,1,0,0:0:0:0:
109,192,428030,1,0,0:0:0:0:
36,192,428030,1,0,0:0:0:0:
329,192,428097,1,0,0:0:0:0:
182,192,428097,1,0,0:0:0:0:
475,192,428165,1,0,0:0:0:0:
402,192,428165,1,0,0:0:0:0:
182,192,428232,1,0,0:0:0:0:
109,192,428232,1,0,0:0:0:0:
402,192,428300,1,0,0:0:0:0:
329,192,428300,1,0,0:0:0:0:
256,192,428368,1,0,0:0:0:0:
109,192,428368,1,0,0:0:0:0:
36,192,428368,1,0,0:0:0:0:
475,192,428435,1,0,0:0:0:0:
402,192,428435,1,0,0:0:0:0:
36,192,428503,1,0,0:0:0:0:
182,192,428503,1,0,0:0:0:0:
329,192,428570,1,0,0:0:0:0:
256,192,428570,1,0,0:0:0:0:
109,192,428638,1,0,0:0:0:0:
475,192,428638,1,0,0:0:0:0:
402,192,428638,1,0,0:0:0:0:
256,192,428705,1,0,0:0:0:0:
182,192,428705,1,0,0:0:0:0:
36,192,428773,1,0,0:0:0:0:
329,192,428773,1,0,0:0:0:0:
182,192,428841,1,0,0:0:0:0:
109,192,428841,1,0,0:0:0:0:
475,192,428908,1,0,0:0:0:0:
402,192,428908,1,0,0:0:0:0:
256,192,428908,1,0,0:0:0:0:
109,192,428976,1,0,0:0:0:0:
36,192,428976,1,0,0:0:0:0:
329,192,429043,1,0,0:0:0:0:
182,192,429043,1,0,0:0:0:0:
109,192,429111,1,0,0:0:0:0:
36,192,429111,1,0,0:0:0:0:
475,192,429178,1,0,0:0:0:0:
402,192,429178,1,0,0:0:0:0:
256,192,429178,1,0,0:0:0:0:
109,192,429246,1,0,0:0:0:0:
182,192,429246,1,0,0:0:0:0:
402,192,429314,1,0,0:0:0:0:
329,192,429314,1,0,0:0:0:0:
36,192,429381,1,0,0:0:0:0:
256,192,429381,1,0,0:0:0:0:
475,192,429449,1,0,0:0:0:0:
402,192,429449,1,0,0:0:0:0:
329,192,429449,1,0,0:0:0:0:
182,192,429516,1,0,0:0:0:0:
109,192,429516,1,0,0:0:0:0:
402,192,429584,1,0,0:0:0:0:
256,192,429584,1,0,0:0:0:0:
36,192,429651,1,0,0:0:0:0:
109,192,429651,1,0,0:0:0:0:
475,192,429719,1,0,0:0:0:0:
329,192,429719,1,0,0:0:0:0:
182,192,429719,1,0,0:0:0:0:
36,192,429787,1,0,0:0:0:0:
109,192,429787,1,0,0:0:0:0:
402,192,429854,1,0,0:0:0:0:
256,192,429854,1,0,0:0:0:0:
329,192,429922,1,0,0:0:0:0:
182,192,429922,1,0,0:0:0:0:
402,192,429989,1,0,0:0:0:0:
475,192,429989,1,0,0:0:0:0:
256,192,429989,1,0,0:0:0:0:
109,192,429989,1,0,0:0:0:0:
36,192,429989,1,0,0:0:0:0:
329,192,430057,1,0,0:0:0:0:
182,192,430057,1,0,0:0:0:0:
109,192,430124,1,0,0:0:0:0:
36,192,430124,1,0,0:0:0:0:
256,192,430124,1,0,0:0:0:0:
475,192,430124,1,0,0:0:0:0:
402,192,430192,1,0,0:0:0:0:
182,192,430192,1,0,0:0:0:0:
36,192,430259,1,0,0:0:0:0:
256,192,430259,1,0,0:0:0:0:
329,192,430259,1,0,0:0:0:0:
475,192,430327,1,0,0:0:0:0:
109,192,430327,1,0,0:0:0:0:
329,192,430395,1,0,0:0:0:0:
182,192,430395,1,0,0:0:0:0:
402,192,430395,1,0,0:0:0:0:
256,192,430462,1,0,0:0:0:0:
36,192,430462,1,0,0:0:0:0:
475,192,430530,1,0,0:0:0:0:
329,192,430530,1,0,0:0:0:0:
109,192,430530,1,0,0:0:0:0:
36,192,430597,1,0,0:0:0:0:
402,192,430597,1,0,0:0:0:0:
182,192,430597,1,0,0:0:0:0:
109,192,430665,1,0,0:0:0:0:
475,192,430665,1,0,0:0:0:0:
256,192,430665,1,0,0:0:0:0:
329,192,430732,1,0,0:0:0:0:
182,192,430732,1,0,0:0:0:0:
36,192,430732,1,0,0:0:0:0:
475,192,430800,1,0,0:0:0:0:
109,192,430800,1,0,0:0:0:0:
256,192,430800,1,0,0:0:0:0:
402,192,430800,1,0,0:0:0:0:
329,192,430868,1,0,0:0:0:0:
182,192,430868,1,0,0:0:0:0:
36,192,430868,1,0,0:0:0:0:
402,192,430935,1,0,0:0:0:0:
256,192,430935,1,0,0:0:0:0:
109,192,430935,1,0,0:0:0:0:
475,192,431003,1,0,0:0:0:0:
329,192,431003,1,0,0:0:0:0:
182,192,431003,1,0,0:0:0:0:
256,192,431070,1,0,0:0:0:0:
402,192,431070,1,0,0:0:0:0:
109,192,431070,1,0,0:0:0:0:
36,192,431070,1,0,0:0:0:0:
36,192,431341,1,0,0:0:0:0:
475,192,431611,1,0,0:0:0:0:
256,192,431881,1,0,0:0:0:0:
402,192,432151,1,0,0:0:0:0:
475,192,432151,1,0,0:0:0:0:
329,192,432151,1,0,0:0:0:0:
36,192,432151,1,0,0:0:0:0:
109,192,432151,1,0,0:0:0:0:
256,192,432219,1,0,0:0:0:0:
182,192,432219,1,0,0:0:0:0:
329,192,432287,1,0,0:0:0:0:
36,192,432287,1,0,0:0:0:0:
402,192,432354,1,0,0:0:0:0:
109,192,432354,1,0,0:0:0:0:
182,192,432422,1,0,0:0:0:0:
256,192,432422,1,0,0:0:0:0:
329,192,432422,1,0,0:0:0:0:
475,192,432422,1,0,0:0:0:0:
109,192,432489,1,0,0:0:0:0:
36,192,432489,1,0,0:0:0:0:
402,192,432557,1,0,0:0:0:0:
256,192,432557,1,0,0:0:0:0:
329,192,432624,1,0,0:0:0:0:
182,192,432624,1,0,0:0:0:0:
475,192,432692,1,0,0:0:0:0:
402,192,432692,1,0,0:0:0:0:
256,192,432692,1,0,0:0:0:0:
109,192,432692,1,0,0:0:0:0:
36,192,432692,1,0,0:0:0:0:
182,192,432759,1,0,0:0:0:0:
329,192,432759,1,0,0:0:0:0:
256,192,432827,1,0,0:0:0:0:
475,192,432827,1,0,0:0:0:0:
109,192,432895,1,0,0:0:0:0:
402,192,432895,1,0,0:0:0:0:
36,192,432962,1,0,0:0:0:0:
182,192,432962,1,0,0:0:0:0:
475,192,432962,1,0,0:0:0:0:
329,192,432962,1,0,0:0:0:0:
109,192,433030,1,0,0:0:0:0:
256,192,433030,1,0,0:0:0:0:
402,192,433097,1,0,0:0:0:0:
475,192,433097,1,0,0:0:0:0:
329,192,433165,1,0,0:0:0:0:
182,192,433165,1,0,0:0:0:0:
256,192,433232,1,0,0:0:0:0:
475,192,433232,1,0,0:0:0:0:
109,192,433232,1,0,0:0:0:0:
36,192,433232,1,0,0:0:0:0:
329,192,433300,1,0,0:0:0:0:
402,192,433300,1,0,0:0:0:0:
36,192,433368,1,0,0:0:0:0:
182,192,433368,1,0,0:0:0:0:
402,192,433435,1,0,0:0:0:0:
109,192,433435,1,0,0:0:0:0:
475,192,433503,1,0,0:0:0:0:
182,192,433503,1,0,0:0:0:0:
256,192,433503,1,0,0:0:0:0:
329,192,433503,1,0,0:0:0:0:
109,192,433570,1,0,0:0:0:0:
36,192,433570,1,0,0:0:0:0:
402,192,433638,1,0,0:0:0:0:
329,192,433638,1,0,0:0:0:0:
182,192,433705,1,0,0:0:0:0:
256,192,433705,1,0,0:0:0:0:
402,192,433773,1,0,0:0:0:0:
475,192,433773,1,0,0:0:0:0:
329,192,433773,1,0,0:0:0:0:
109,192,433773,1,0,0:0:0:0:
36,192,433773,1,0,0:0:0:0:
256,192,433841,1,0,0:0:0:0:
182,192,433841,1,0,0:0:0:0:
475,192,433908,1,0,0:0:0:0:
109,192,433908,1,0,0:0:0:0:
256,192,433976,1,0,0:0:0:0:
402,192,433976,1,0,0:0:0:0:
109,192,434043,1,0,0:0:0:0:
329,192,434043,1,0,0:0:0:0:
182,192,434043,1,0,0:0:0:0:
36,192,434043,1,0,0:0:0:0:
402,192,434111,1,0,0:0:0:0:
475,192,434111,1,0,0:0:0:0:
36,192,434178,1,0,0:0:0:0:
256,192,434178,1,0,0:0:0:0:
329,192,434246,1,0,0:0:0:0:
182,192,434246,1,0,0:0:0:0:
402,192,434314,1,0,0:0:0:0:
475,192,434314,1,0,0:0:0:0:
256,192,434314,1,0,0:0:0:0:
109,192,434314,1,0,0:0:0:0:
36,192,434314,1,0,0:0:0:0:
329,192,434381,1,0,0:0:0:0:
182,192,434449,1,0,0:0:0:0:
109,192,434449,1,0,0:0:0:0:
475,192,434449,1,0,0:0:0:0:
402,192,434516,1,0,0:0:0:0:
256,192,434516,1,0,0:0:0:0:
329,192,434584,1,0,0:0:0:0:
182,192,434584,1,0,0:0:0:0:
36,192,434584,1,0,0:0:0:0:
109,192,434584,1,0,0:0:0:0:
475,192,434651,1,0,0:0:0:0:
402,192,434651,1,0,0:0:0:0:
36,192,434719,1,0,0:0:0:0:
256,192,434719,1,0,0:0:0:0:
329,192,434787,1,0,0:0:0:0:
109,192,434787,1,0,0:0:0:0:
256,192,434854,1,0,0:0:0:0:
36,192,434854,1,0,0:0:0:0:
475,192,434854,1,0,0:0:0:0:
182,192,434854,1,0,0:0:0:0:
402,192,434854,1,0,0:0:0:0:
329,192,434922,1,0,0:0:0:0:
475,192,434989,1,0,0:0:0:0:
182,192,434989,1,0,0:0:0:0:
109,192,434989,1,0,0:0:0:0:
402,192,435057,1,0,0:0:0:0:
256,192,435057,1,0,0:0:0:0:
329,192,435124,1,0,0:0:0:0:
182,192,435124,1,0,0:0:0:0:
36,192,435124,1,0,0:0:0:0:
109,192,435124,1,0,0:0:0:0:
475,192,435192,1,0,0:0:0:0:
402,192,435192,1,0,0:0:0:0:
182,192,435259,1,0,0:0:0:0:
256,192,435259,1,0,0:0:0:0:
329,192,435327,1,0,0:0:0:0:
109,192,435327,1,0,0:0:0:0:
402,192,435395,1,0,0:0:0:0:
475,192,435395,1,0,0:0:0:0:
256,192,435395,1,0,0:0:0:0:
36,192,435395,1,0,0:0:0:0:
329,192,435462,1,0,0:0:0:0:
182,192,435462,1,0,0:0:0:0:
475,192,435530,1,0,0:0:0:0:
109,192,435530,1,0,0:0:0:0:
402,192,435597,1,0,0:0:0:0:
256,192,435597,1,0,0:0:0:0:
182,192,435665,1,0,0:0:0:0:
329,192,435665,1,0,0:0:0:0:
36,192,435665,1,0,0:0:0:0:
109,192,435665,1,0,0:0:0:0:
475,192,435732,1,0,0:0:0:0:
402,192,435732,1,0,0:0:0:0:
256,192,435800,1,0,0:0:0:0:
182,192,435800,1,0,0:0:0:0:
402,192,435868,1,0,0:0:0:0:
329,192,435868,1,0,0:0:0:0:
475,192,435935,1,0,0:0:0:0:
256,192,435935,1,0,0:0:0:0:
182,192,435935,1,0,0:0:0:0:
36,192,435935,1,0,0:0:0:0:
109,192,435935,1,0,0:0:0:0:
402,192,436003,1,0,0:0:0:0:
329,192,436003,1,0,0:0:0:0:
256,192,436070,1,0,0:0:0:0:
182,192,436070,1,0,0:0:0:0:
109,192,436115,1,0,0:0:0:0:
36,192,436115,1,0,0:0:0:0:
475,192,436138,1,0,0:0:0:0:
402,192,436138,1,0,0:0:0:0:
182,192,436205,1,0,0:0:0:0:
256,192,436205,1,0,0:0:0:0:
329,192,436205,1,0,0:0:0:0:
475,192,436273,1,0,0:0:0:0:
402,192,436273,1,0,0:0:0:0:
182,192,436341,1,0,0:0:0:0:
109,192,436341,1,0,0:0:0:0:
36,192,436341,1,0,0:0:0:0:
329,192,436386,1,0,0:0:0:0:
256,192,436386,1,0,0:0:0:0:
109,192,436476,1,0,0:0:0:0:
182,192,436476,1,0,0:0:0:0:
36,192,436476,1,0,0:0:0:0:
402,192,436476,1,0,0:0:0:0:
475,192,436476,1,0,0:0:0:0:
329,192,436543,1,0,0:0:0:0:
256,192,436543,1,0,0:0:0:0:
109,192,436611,1,0,0:0:0:0:
36,192,436611,1,0,0:0:0:0:
402,192,436678,1,0,0:0:0:0:
182,192,436678,1,0,0:0:0:0:
329,192,436746,1,0,0:0:0:0:
36,192,436746,1,0,0:0:0:0:
256,192,436746,1,0,0:0:0:0:
475,192,436746,1,0,0:0:0:0:
402,192,436814,1,0,0:0:0:0:
109,192,436814,1,0,0:0:0:0:
329,192,436881,1,0,0:0:0:0:
182,192,436881,1,0,0:0:0:0:
475,192,436949,1,0,0:0:0:0:
256,192,436949,1,0,0:0:0:0:
329,192,437016,1,0,0:0:0:0:
402,192,437016,1,0,0:0:0:0:
182,192,437016,1,0,0:0:0:0:
36,192,437016,1,0,0:0:0:0:
109,192,437016,1,0,0:0:0:0:
256,192,437084,1,0,0:0:0:0:
109,192,437151,1,0,0:0:0:0:
475,192,437151,1,0,0:0:0:0:
402,192,437151,1,0,0:0:0:0:
329,192,437219,1,0,0:0:0:0:
182,192,437219,1,0,0:0:0:0:
475,192,437287,1,0,0:0:0:0:
36,192,437287,1,0,0:0:0:0:
256,192,437287,1,0,0:0:0:0:
402,192,437287,1,0,0:0:0:0:
182,192,437354,1,0,0:0:0:0:
109,192,437354,1,0,0:0:0:0:
402,192,437422,1,0,0:0:0:0:
329,192,437422,1,0,0:0:0:0:
256,192,437489,1,0,0:0:0:0:
182,192,437489,1,0,0:0:0:0:
475,192,437557,1,0,0:0:0:0:
402,192,437557,1,0,0:0:0:0:
109,192,437557,1,0,0:0:0:0:
36,192,437557,1,0,0:0:0:0:
329,192,437624,1,0,0:0:0:0:
256,192,437624,1,0,0:0:0:0:
36,192,437692,1,0,0:0:0:0:
182,192,437692,1,0,0:0:0:0:
475,192,437759,1,0,0:0:0:0:
329,192,437759,1,0,0:0:0:0:
256,192,437827,1,0,0:0:0:0:
402,192,437827,1,0,0:0:0:0:
36,192,437827,1,0,0:0:0:0:
109,192,437827,1,0,0:0:0:0:
182,192,437895,1,0,0:0:0:0:
329,192,437895,1,0,0:0:0:0:
475,192,437962,1,0,0:0:0:0:
256,192,437962,1,0,0:0:0:0:
36,192,438030,1,0,0:0:0:0:
109,192,438030,1,0,0:0:0:0:
329,192,438097,1,0,0:0:0:0:
256,192,438097,1,0,0:0:0:0:
475,192,438097,1,0,0:0:0:0:
182,192,438097,1,0,0:0:0:0:
402,192,438097,1,0,0:0:0:0:
109,192,438165,1,0,0:0:0:0:
402,192,438232,1,0,0:0:0:0:
36,192,438232,1,0,0:0:0:0:
182,192,438300,1,0,0:0:0:0:
329,192,438300,1,0,0:0:0:0:
402,192,438368,1,0,0:0:0:0:
475,192,438368,1,0,0:0:0:0:
109,192,438368,1,0,0:0:0:0:
256,192,438368,1,0,0:0:0:0:
182,192,438435,1,0,0:0:0:0:
36,192,438435,1,0,0:0:0:0:
475,192,438503,1,0,0:0:0:0:
329,192,438503,1,0,0:0:0:0:
182,192,438570,1,0,0:0:0:0:
109,192,438570,1,0,0:0:0:0:
329,192,438638,1,0,0:0:0:0:
36,192,438638,1,0,0:0:0:0:
475,192,438638,1,0,0:0:0:0:
256,192,438638,1,0,0:0:0:0:
402,192,438638,1,0,0:0:0:0:
182,192,438705,1,0,0:0:0:0:
402,192,438773,1,0,0:0:0:0:
109,192,438773,1,0,0:0:0:0:
475,192,438841,1,0,0:0:0:0:
256,192,438841,1,0,0:0:0:0:
329,192,438908,1,0,0:0:0:0:
402,192,438908,1,0,0:0:0:0:
182,192,438908,1,0,0:0:0:0:
36,192,438908,1,0,0:0:0:0:
256,192,438976,1,0,0:0:0:0:
109,192,438976,1,0,0:0:0:0:
329,192,439043,1,0,0:0:0:0:
475,192,439043,1,0,0:0:0:0:
402,192,439111,1,0,0:0:0:0:
182,192,439111,1,0,0:0:0:0:
109,192,439178,1,0,0:0:0:0:
36,192,439178,1,0,0:0:0:0:
475,192,439178,1,0,0:0:0:0:
256,192,439178,1,0,0:0:0:0:
329,192,439178,1,0,0:0:0:0:
182,192,439246,1,0,0:0:0:0:
36,192,439314,1,0,0:0:0:0:
402,192,439314,1,0,0:0:0:0:
256,192,439381,1,0,0:0:0:0:
109,192,439381,1,0,0:0:0:0:
475,192,439449,1,0,0:0:0:0:
36,192,439449,1,0,0:0:0:0:
182,192,439449,1,0,0:0:0:0:
329,192,439449,1,0,0:0:0:0:
256,192,439516,1,0,0:0:0:0:
402,192,439516,1,0,0:0:0:0:
182,192,439584,1,0,0:0:0:0:
109,192,439584,1,0,0:0:0:0:
402,192,439651,1,0,0:0:0:0:
329,192,439651,1,0,0:0:0:0:
256,192,439719,1,0,0:0:0:0:
475,192,439719,1,0,0:0:0:0:
36,192,439719,1,0,0:0:0:0:
109,192,439719,1,0,0:0:0:0:
329,192,439787,1,0,0:0:0:0:
182,192,439787,1,0,0:0:0:0:
256,192,439854,1,0,0:0:0:0:
402,192,439854,1,0,0:0:0:0:
36,192,439922,1,0,0:0:0:0:
109,192,439922,1,0,0:0:0:0:
329,192,439989,1,0,0:0:0:0:
475,192,439989,1,0,0:0:0:0:
402,192,439989,1,0,0:0:0:0:
182,192,439989,1,0,0:0:0:0:
256,192,439989,1,0,0:0:0:0:
109,192,440057,1,0,0:0:0:0:
475,192,440124,1,0,0:0:0:0:
402,192,440124,1,0,0:0:0:0:
329,192,440124,1,0,0:0:0:0:
256,192,440192,1,0,0:0:0:0:
182,192,440192,1,0,0:0:0:0:
402,192,440259,1,0,0:0:0:0:
475,192,440259,1,0,0:0:0:0:
109,192,440259,1,0,0:0:0:0:
36,192,440259,1,0,0:0:0:0:
182,192,440327,1,0,0:0:0:0:
256,192,440327,1,0,0:0:0:0:
329,192,440327,1,0,0:0:0:0:
402,192,440395,1,0,0:0:0:0:
475,192,440395,1,0,0:0:0:0:
109,192,440395,1,0,0:0:0:0:
36,192,440395,1,0,0:0:0:0:
182,192,440530,1,0,0:0:0:0:
329,192,440530,1,0,0:0:0:0:
402,192,440530,1,0,0:0:0:0:
109,192,440530,1,0,0:0:0:0:
256,192,440530,1,0,0:0:0:0:
329,192,440665,1,0,0:0:0:0:
402,192,440665,1,0,0:0:0:0:
256,192,440665,1,0,0:0:0:0:
109,192,440665,1,0,0:0:0:0:
182,192,440665,1,0,0:0:0:0:
329,192,440800,1,0,0:0:0:0:
402,192,440800,1,0,0:0:0:0:
475,192,440800,1,0,0:0:0:0:
36,192,440800,1,0,0:0:0:0:
109,192,440800,1,0,0:0:0:0:
182,192,440800,1,0,0:0:0:0:
256,192,440868,1,0,0:0:0:0:
109,192,440935,1,0,0:0:0:0:
329,192,440935,1,0,0:0:0:0:
402,192,441003,1,0,0:0:0:0:
182,192,441003,1,0,0:0:0:0:
256,192,441070,1,0,0:0:0:0:
475,192,441070,1,0,0:0:0:0:
109,192,441070,1,0,0:0:0:0:
36,192,441070,1,0,0:0:0:0:
329,192,441138,1,0,0:0:0:0:
182,192,441138,1,0,0:0:0:0:
402,192,441205,1,0,0:0:0:0:
256,192,441205,1,0,0:0:0:0:
329,192,441273,1,0,0:0:0:0:
109,192,441273,1,0,0:0:0:0:
256,192,441341,1,0,0:0:0:0:
475,192,441341,1,0,0:0:0:0:
182,192,441341,1,0,0:0:0:0:
36,192,441341,1,0,0:0:0:0:
402,192,441408,1,0,0:0:0:0:
109,192,441408,1,0,0:0:0:0:
329,192,441476,1,0,0:0:0:0:
182,192,441476,1,0,0:0:0:0:
36,192,441543,1,0,0:0:0:0:
256,192,441543,1,0,0:0:0:0:
329,192,441611,1,0,0:0:0:0:
475,192,441611,1,0,0:0:0:0:
109,192,441611,1,0,0:0:0:0:
182,192,441611,1,0,0:0:0:0:
256,192,441678,1,0,0:0:0:0:
402,192,441678,1,0,0:0:0:0:
109,192,441746,1,0,0:0:0:0:
329,192,441746,1,0,0:0:0:0:
402,192,441814,1,0,0:0:0:0:
182,192,441814,1,0,0:0:0:0:
329,192,441881,1,0,0:0:0:0:
475,192,441881,1,0,0:0:0:0:
256,192,441881,1,0,0:0:0:0:
109,192,441881,1,0,0:0:0:0:
36,192,441881,1,0,0:0:0:0:
182,192,441949,1,0,0:0:0:0:
402,192,442016,1,0,0:0:0:0:
256,192,442016,1,0,0:0:0:0:
329,192,442084,1,0,0:0:0:0:
182,192,442084,1,0,0:0:0:0:
475,192,442151,1,0,0:0:0:0:
109,192,442151,1,0,0:0:0:0:
256,192,442151,1,0,0:0:0:0:
402,192,442151,1,0,0:0:0:0:
182,192,442219,1,0,0:0:0:0:
36,192,442219,1,0,0:0:0:0:
109,192,442287,1,0,0:0:0:0:
329,192,442287,1,0,0:0:0:0:
402,192,442354,1,0,0:0:0:0:
256,192,442354,1,0,0:0:0:0:
475,192,442422,1,0,0:0:0:0:
109,192,442422,1,0,0:0:0:0:
329,192,442422,1,0,0:0:0:0:
36,192,442422,1,0,0:0:0:0:
182,192,442422,1,0,0:0:0:0:
402,192,442489,1,0,0:0:0:0:
256,192,442489,1,0,0:0:0:0:
36,192,442557,1,0,0:0:0:0:
329,192,442557,1,0,0:0:0:0:
182,192,442624,1,0,0:0:0:0:
109,192,442624,1,0,0:0:0:0:
402,192,442692,1,0,0:0:0:0:
475,192,442692,1,0,0:0:0:0:
36,192,442692,1,0,0:0:0:0:
256,192,442692,1,0,0:0:0:0:
329,192,442759,1,0,0:0:0:0:
182,192,442759,1,0,0:0:0:0:
256,192,442827,1,0,0:0:0:0:
109,192,442827,1,0,0:0:0:0:
329,192,442895,1,0,0:0:0:0:
182,192,442895,1,0,0:0:0:0:
402,192,442962,1,0,0:0:0:0:
475,192,442962,1,0,0:0:0:0:
36,192,442962,1,0,0:0:0:0:
256,192,442962,1,0,0:0:0:0:
329,192,443030,1,0,0:0:0:0:
109,192,443030,1,0,0:0:0:0:
402,192,443097,1,0,0:0:0:0:
182,192,443097,1,0,0:0:0:0:
109,192,443165,1,0,0:0:0:0:
256,192,443165,1,0,0:0:0:0:
329,192,443232,1,0,0:0:0:0:
475,192,443232,1,0,0:0:0:0:
36,192,443232,1,0,0:0:0:0:
182,192,443232,1,0,0:0:0:0:
402,192,443300,1,0,0:0:0:0:
256,192,443300,1,0,0:0:0:0:
36,192,443368,1,0,0:0:0:0:
329,192,443368,1,0,0:0:0:0:
109,192,443368,1,0,0:0:0:0:
402,192,443435,1,0,0:0:0:0:
256,192,443435,1,0,0:0:0:0:
182,192,443503,1,0,0:0:0:0:
36,192,443503,1,0,0:0:0:0:
329,192,443503,1,0,0:0:0:0:
475,192,443503,1,0,0:0:0:0:
109,192,443570,1,0,0:0:0:0:
182,192,443638,1,0,0:0:0:0:
402,192,443638,1,0,0:0:0:0:
256,192,443638,1,0,0:0:0:0:
329,192,443705,1,0,0:0:0:0:
109,192,443705,1,0,0:0:0:0:
182,192,443773,1,0,0:0:0:0:
36,192,443773,1,0,0:0:0:0:
402,192,443773,1,0,0:0:0:0:
475,192,443773,1,0,0:0:0:0:
329,192,443841,1,0,0:0:0:0:
256,192,443841,1,0,0:0:0:0:
402,192,443908,1,0,0:0:0:0:
475,192,443908,1,0,0:0:0:0:
36,192,443908,1,0,0:0:0:0:
182,192,443908,1,0,0:0:0:0:
109,192,443908,1,0,0:0:0:0:
329,192,443976,1,0,0:0:0:0:
256,192,443976,1,0,0:0:0:0:
36,192,444043,1,0,0:0:0:0:
109,192,444043,1,0,0:0:0:0:
402,192,444043,1,0,0:0:0:0:
475,192,444043,1,0,0:0:0:0:
182,192,444111,1,0,0:0:0:0:
256,192,444111,1,0,0:0:0:0:
402,192,444178,1,0,0:0:0:0:
329,192,444178,1,0,0:0:0:0:
182,192,444246,1,0,0:0:0:0:
109,192,444246,1,0,0:0:0:0:
475,192,444314,1,0,0:0:0:0:
36,192,444314,1,0,0:0:0:0:
402,192,444314,1,0,0:0:0:0:
256,192,444314,1,0,0:0:0:0:
329,192,444314,1,0,0:0:0:0:
182,192,444381,1,0,0:0:0:0:
329,192,444449,1,0,0:0:0:0:
109,192,444449,1,0,0:0:0:0:
402,192,444516,1,0,0:0:0:0:
256,192,444516,1,0,0:0:0:0:
329,192,444584,1,0,0:0:0:0:
475,192,444584,1,0,0:0:0:0:
36,192,444584,1,0,0:0:0:0:
182,192,444584,1,0,0:0:0:0:
109,192,444584,1,0,0:0:0:0:
256,192,444651,1,0,0:0:0:0:
475,192,444719,1,0,0:0:0:0:
329,192,444719,1,0,0:0:0:0:
402,192,444719,1,0,0:0:0:0:
109,192,444719,1,0,0:0:0:0:
36,192,444719,1,0,0:0:0:0:
256,192,444787,1,0,0:0:0:0:
402,192,444854,1,0,0:0:0:0:
475,192,444854,1,0,0:0:0:0:
36,192,444854,1,0,0:0:0:0:
182,192,444854,1,0,0:0:0:0:
109,192,444854,1,0,0:0:0:0:
329,192,444922,1,0,0:0:0:0:
475,192,444989,1,0,0:0:0:0:
256,192,444989,1,0,0:0:0:0:
402,192,444989,1,0,0:0:0:0:
109,192,444989,1,0,0:0:0:0:
36,192,444989,1,0,0:0:0:0:
182,192,445057,1,0,0:0:0:0:
475,192,445124,1,0,0:0:0:0:
402,192,445124,1,0,0:0:0:0:
256,192,445124,1,0,0:0:0:0:
36,192,445124,1,0,0:0:0:0:
109,192,445124,1,0,0:0:0:0:
402,192,445395,1,0,0:0:0:0:
475,192,445395,1,0,0:0:0:0:
329,192,445395,1,0,0:0:0:0:
109,192,445395,1,0,0:0:0:0:
182,192,445395,1,0,0:0:0:0:
256,192,445462,1,0,0:0:0:0:
109,192,445530,1,0,0:0:0:0:
36,192,445530,1,0,0:0:0:0:
329,192,445597,1,0,0:0:0:0:
182,192,445597,1,0,0:0:0:0:
36,192,445665,1,0,0:0:0:0:
109,192,445665,1,0,0:0:0:0:
475,192,445665,1,0,0:0:0:0:
256,192,445665,1,0,0:0:0:0:
402,192,445665,1,0,0:0:0:0:
182,192,445732,1,0,0:0:0:0:
36,192,445800,1,0,0:0:0:0:
475,192,445800,1,0,0:0:0:0:
329,192,445800,1,0,0:0:0:0:
256,192,445868,1,0,0:0:0:0:
109,192,445868,1,0,0:0:0:0:
329,192,445935,1,0,0:0:0:0:
36,192,445935,1,0,0:0:0:0:
475,192,445935,1,0,0:0:0:0:
182,192,445935,1,0,0:0:0:0:
402,192,445935,1,0,0:0:0:0:
256,192,446003,1,0,0:0:0:0:
475,192,446070,1,0,0:0:0:0:
402,192,446070,1,0,0:0:0:0:
109,192,446070,1,0,0:0:0:0:
329,192,446138,1,0,0:0:0:0:
182,192,446138,1,0,0:0:0:0:
402,192,446205,1,0,0:0:0:0:
475,192,446205,1,0,0:0:0:0:
256,192,446205,1,0,0:0:0:0:
36,192,446205,1,0,0:0:0:0:
109,192,446205,1,0,0:0:0:0:
329,192,446273,1,0,0:0:0:0:
256,192,446341,1,0,0:0:0:0:
109,192,446341,1,0,0:0:0:0:
182,192,446341,1,0,0:0:0:0:
475,192,446408,1,0,0:0:0:0:
402,192,446408,1,0,0:0:0:0:
256,192,446476,1,0,0:0:0:0:
329,192,446476,1,0,0:0:0:0:
182,192,446476,1,0,0:0:0:0:
36,192,446476,1,0,0:0:0:0:
109,192,446476,1,0,0:0:0:0:
475,192,446543,1,0,0:0:0:0:
36,192,446611,1,0,0:0:0:0:
402,192,446611,1,0,0:0:0:0:
329,192,446611,1,0,0:0:0:0:
256,192,446678,1,0,0:0:0:0:
109,192,446678,1,0,0:0:0:0:
402,192,446746,1,0,0:0:0:0:
475,192,446746,1,0,0:0:0:0:
329,192,446746,1,0,0:0:0:0:
182,192,446746,1,0,0:0:0:0:
36,192,446746,1,0,0:0:0:0:
256,192,446814,1,0,0:0:0:0:
475,192,446881,1,0,0:0:0:0:
182,192,446881,1,0,0:0:0:0:
109,192,446881,1,0,0:0:0:0:
329,192,446949,1,0,0:0:0:0:
402,192,446949,1,0,0:0:0:0:
256,192,447016,1,0,0:0:0:0:
475,192,447016,1,0,0:0:0:0:
182,192,447016,1,0,0:0:0:0:
36,192,447016,1,0,0:0:0:0:
109,192,447016,1,0,0:0:0:0:
329,192,447084,1,0,0:0:0:0:
256,192,447151,1,0,0:0:0:0:
36,192,447151,1,0,0:0:0:0:
402,192,447151,1,0,0:0:0:0:
182,192,447219,1,0,0:0:0:0:
475,192,447287,1,0,0:0:0:0:
402,192,447287,1,0,0:0:0:0:
329,192,447287,1,0,0:0:0:0:
109,192,447287,1,0,0:0:0:0:
36,192,447287,1,0,0:0:0:0:
256,192,447354,1,0,0:0:0:0:
402,192,447422,1,0,0:0:0:0:
475,192,447422,1,0,0:0:0:0:
329,192,447422,1,0,0:0:0:0:
109,192,447422,1,0,0:0:0:0:
36,192,447422,1,0,0:0:0:0:
182,192,447489,1,0,0:0:0:0:
256,192,447557,1,0,0:0:0:0:
329,192,447624,1,0,0:0:0:0:
36,192,447692,1,0,0:0:0:0:
109,192,447692,1,0,0:0:0:0:
475,192,447692,1,0,0:0:0:0:
182,192,447692,1,0,0:0:0:0:
402,192,447692,1,0,0:0:0:0:
329,192,447759,1,0,0:0:0:0:
256,192,447827,1,0,0:0:0:0:
182,192,447895,1,0,0:0:0:0:
329,192,447962,1,0,0:0:0:0:
475,192,447962,1,0,0:0:0:0:
402,192,447962,1,0,0:0:0:0:
109,192,447962,1,0,0:0:0:0:
36,192,447962,1,0,0:0:0:0:
36,192,448097,1,0,0:0:0:0:
402,192,448097,1,0,0:0:0:0:
475,192,448097,1,0,0:0:0:0:
256,192,448097,1,0,0:0:0:0:
182,192,448097,1,0,0:0:0:0:
109,192,448097,1,0,0:0:0:0:
402,192,448232,1,0,0:0:0:0:
475,192,448232,1,0,0:0:0:0:
329,192,448232,1,0,0:0:0:0:
182,192,448232,1,0,0:0:0:0:
109,192,448232,1,0,0:0:0:0:
36,192,448300,1,0,0:0:0:0:
256,192,448368,1,0,0:0:0:0:
182,192,448435,1,0,0:0:0:0:
402,192,448503,1,0,0:0:0:0:
475,192,448503,1,0,0:0:0:0:
329,192,448503,1,0,0:0:0:0:
109,192,448503,1,0,0:0:0:0:
36,192,448503,1,0,0:0:0:0:
256,192,448570,1,0,0:0:0:0:
475,192,448638,1,0,0:0:0:0:
402,192,448638,1,0,0:0:0:0:
329,192,448638,1,0,0:0:0:0:
36,192,448705,1,0,0:0:0:0:
109,192,448705,1,0,0:0:0:0:
182,192,448705,1,0,0:0:0:0:
402,192,448773,1,0,0:0:0:0:
329,192,448773,1,0,0:0:0:0:
256,192,448773,1,0,0:0:0:0:
36,192,448841,1,0,0:0:0:0:
109,192,448841,1,0,0:0:0:0:
182,192,448841,1,0,0:0:0:0:
475,192,448908,1,0,0:0:0:0:
402,192,448908,1,0,0:0:0:0:
329,192,448908,1,0,0:0:0:0:
256,192,448942,1,0,0:0:0:0:
109,192,448976,1,0,0:0:0:0:
182,192,448976,1,0,0:0:0:0:
36,192,449009,1,0,0:0:0:0:
475,192,449043,1,0,0:0:0:0:
402,192,449043,1,0,0:0:0:0:
329,192,449043,1,0,0:0:0:0:
256,192,449111,1,0,0:0:0:0:
329,192,449178,1,0,0:0:0:0:
475,192,449178,1,0,0:0:0:0:
182,192,449178,1,0,0:0:0:0:
36,192,449178,1,0,0:0:0:0:
402,192,449314,1,0,0:0:0:0:
256,192,449314,1,0,0:0:0:0:
329,192,449314,1,0,0:0:0:0:
109,192,449314,1,0,0:0:0:0:
182,192,449314,1,0,0:0:0:0:
402,192,449449,1,0,0:0:0:0:
475,192,449449,1,0,0:0:0:0:
256,192,449449,1,0,0:0:0:0:
36,192,449449,1,0,0:0:0:0:
109,192,449449,1,0,0:0:0:0:
329,192,449719,1,0,0:0:0:0:
182,192,449989,1,0,0:0:0:0:
329,192,450259,1,0,0:0:0:0:
182,192,450800,1,0,0:0:0:0:
256,192,451070,1,0,0:0:0:0:
329,192,451341,1,0,0:0:0:0:
329,192,451611,1,0,0:0:0:0:
256,192,451881,1,0,0:0:0:0:
182,192,452151,1,0,0:0:0:0:
256,192,452422,1,0,0:0:0:0:
182,192,452962,1,0,0:0:0:0:
256,192,453232,1,0,0:0:0:0:
329,192,453503,1,0,0:0:0:0:
329,192,453773,1,0,0:0:0:0:
182,192,454043,1,0,0:0:0:0:
36,192,454314,1,0,0:0:0:0:
109,192,454584,1,0,0:0:0:0:
256,192,454854,1,0,0:0:0:0:
329,192,455124,1,0,0:0:0:0:
402,192,455395,1,0,0:0:0:0:
475,192,455665,1,0,0:0:0:0:
36,192,455935,1,0,0:0:0:0:
475,192,455935,1,0,0:0:0:0:
475,192,457692,1,0,0:0:0:0:
109,192,457827,1,0,0:0:0:0:
36,192,457827,1,0,0:0:0:0:
402,192,457827,1,0,0:0:0:0:
182,192,457895,1,0,0:0:0:0:
36,192,457962,1,0,0:0:0:0:
109,192,457962,1,0,0:0:0:0:
329,192,457962,1,0,0:0:0:0:
182,192,458030,1,0,0:0:0:0:
402,192,458097,1,0,0:0:0:0:
475,192,458097,1,0,0:0:0:0:
256,192,458097,1,0,0:0:0:0:
109,192,458097,1,0,0:0:0:0:
36,192,458097,1,0,0:0:0:0:
402,192,458232,1,0,0:0:0:0:
329,192,458368,1,0,0:0:0:0:
182,192,458368,1,0,0:0:0:0:
109,192,458368,1,0,0:0:0:0:
402,192,458503,1,0,0:0:0:0:
109,192,458503,1,0,0:0:0:0:
182,192,458503,1,0,0:0:0:0:
329,192,458638,1,0,0:0:0:0:
475,192,458638,1,0,0:0:0:0:
256,192,458638,1,0,0:0:0:0:
36,192,458638,1,0,0:0:0:0:
109,192,458638,1,0,0:0:0:0:
182,192,458773,1,0,0:0:0:0:
329,192,458773,1,0,0:0:0:0:
36,192,458908,1,0,0:0:0:0:
402,192,458908,1,0,0:0:0:0:
256,192,458908,1,0,0:0:0:0:
402,192,459043,1,0,0:0:0:0:
256,192,459043,1,0,0:0:0:0:
182,192,459077,1,0,0:0:0:0:
109,192,459111,1,0,0:0:0:0:
36,192,459145,1,0,0:0:0:0:
402,192,459178,1,0,0:0:0:0:
475,192,459178,1,0,0:0:0:0:
256,192,459178,1,0,0:0:0:0:
329,192,459178,1,0,0:0:0:0:
109,192,459314,1,0,0:0:0:0:
182,192,459314,1,0,0:0:0:0:
402,192,459449,1,0,0:0:0:0:
182,192,459449,1,0,0:0:0:0:
475,192,459449,1,0,0:0:0:0:
182,192,459584,1,0,0:0:0:0:
402,192,459719,1,0,0:0:0:0:
475,192,459719,1,0,0:0:0:0:
256,192,459719,1,0,0:0:0:0:
36,192,459719,1,0,0:0:0:0:
109,192,459719,1,0,0:0:0:0:
329,192,459854,1,0,0:0:0:0:
109,192,459854,1,0,0:0:0:0:
182,192,459854,1,0,0:0:0:0:
402,192,459989,1,0,0:0:0:0:
256,192,459989,1,0,0:0:0:0:
182,192,459989,1,0,0:0:0:0:
256,192,460124,1,0,0:0:0:0:
475,192,460124,1,0,0:0:0:0:
329,192,460124,1,0,0:0:0:0:
36,192,460158,1,0,0:0:0:0:
109,192,460192,1,0,0:0:0:0:
182,192,460226,1,0,0:0:0:0:
402,192,460259,1,0,0:0:0:0:
475,192,460259,1,0,0:0:0:0:
256,192,460259,1,0,0:0:0:0:
329,192,460259,1,0,0:0:0:0:
402,192,460395,1,0,0:0:0:0:
182,192,460395,1,0,0:0:0:0:
109,192,460395,1,0,0:0:0:0:
329,192,460530,1,0,0:0:0:0:
475,192,460530,1,0,0:0:0:0:
256,192,460530,1,0,0:0:0:0:
109,192,460530,1,0,0:0:0:0:
36,192,460530,1,0,0:0:0:0:
329,192,460665,1,0,0:0:0:0:
182,192,460665,1,0,0:0:0:0:
402,192,460800,1,0,0:0:0:0:
475,192,460800,1,0,0:0:0:0:
256,192,460800,1,0,0:0:0:0:
109,192,460800,1,0,0:0:0:0:
36,192,460800,1,0,0:0:0:0:
182,192,460935,1,0,0:0:0:0:
109,192,460935,1,0,0:0:0:0:
329,192,461070,1,0,0:0:0:0:
402,192,461070,1,0,0:0:0:0:
475,192,461070,1,0,0:0:0:0:
36,192,461070,1,0,0:0:0:0:
182,192,461070,1,0,0:0:0:0:
256,192,461070,1,0,0:0:0:0:
402,192,461205,1,0,0:0:0:0:
109,192,461205,1,0,0:0:0:0:
182,192,461239,1,0,0:0:0:0:
256,192,461273,1,0,0:0:0:0:
329,192,461307,1,0,0:0:0:0:
36,192,461341,1,0,0:0:0:0:
109,192,461341,1,0,0:0:0:0:
402,192,461341,1,0,0:0:0:0:
475,192,461341,1,0,0:0:0:0:
256,192,461476,1,0,0:0:0:0:
182,192,461476,1,0,0:0:0:0:
402,192,461611,1,0,0:0:0:0:
475,192,461611,1,0,0:0:0:0:
256,192,461611,1,0,0:0:0:0:
109,192,461611,1,0,0:0:0:0:
36,192,461611,1,0,0:0:0:0:
182,192,461746,1,0,0:0:0:0:
329,192,461746,1,0,0:0:0:0:
475,192,461881,1,0,0:0:0:0:
329,192,461881,1,0,0:0:0:0:
182,192,461881,1,0,0:0:0:0:
109,192,461881,1,0,0:0:0:0:
36,192,461881,1,0,0:0:0:0:
109,192,462016,1,0,0:0:0:0:
402,192,462061,1,0,0:0:0:0:
256,192,462061,1,0,0:0:0:0:
329,192,462151,1,0,0:0:0:0:
475,192,462151,1,0,0:0:0:0:
109,192,462151,1,0,0:0:0:0:
36,192,462151,1,0,0:0:0:0:
182,192,462241,1,0,0:0:0:0:
256,192,462241,1,0,0:0:0:0:
402,192,462287,1,0,0:0:0:0:
329,192,462320,1,0,0:0:0:0:
36,192,462354,1,0,0:0:0:0:
109,192,462388,1,0,0:0:0:0:
402,192,462422,1,0,0:0:0:0:
475,192,462422,1,0,0:0:0:0:
182,192,462422,1,0,0:0:0:0:
256,192,462422,1,0,0:0:0:0:
36,192,462489,1,0,0:0:0:0:
329,192,462557,1,0,0:0:0:0:
256,192,462557,1,0,0:0:0:0:
109,192,462557,1,0,0:0:0:0:
475,192,462557,1,0,0:0:0:0:
36,192,462624,1,0,0:0:0:0:
182,192,462624,1,0,0:0:0:0:
109,192,462692,1,0,0:0:0:0:
475,192,462692,1,0,0:0:0:0:
256,192,462692,1,0,0:0:0:0:
402,192,462692,1,0,0:0:0:0:
182,192,462759,1,0,0:0:0:0:
329,192,462759,1,0,0:0:0:0:
256,192,462827,1,0,0:0:0:0:
475,192,462827,1,0,0:0:0:0:
36,192,462827,1,0,0:0:0:0:
109,192,462827,1,0,0:0:0:0:
329,192,462895,1,0,0:0:0:0:
402,192,462895,1,0,0:0:0:0:
256,192,462962,1,0,0:0:0:0:
475,192,462962,1,0,0:0:0:0:
36,192,462962,1,0,0:0:0:0:
182,192,462962,1,0,0:0:0:0:
402,192,463030,1,0,0:0:0:0:
109,192,463030,1,0,0:0:0:0:
36,192,463097,1,0,0:0:0:0:
475,192,463097,1,0,0:0:0:0:
329,192,463097,1,0,0:0:0:0:
182,192,463097,1,0,0:0:0:0:
402,192,463165,1,0,0:0:0:0:
256,192,463165,1,0,0:0:0:0:
182,192,463232,1,0,0:0:0:0:
36,192,463232,1,0,0:0:0:0:
329,192,463232,1,0,0:0:0:0:
109,192,463232,1,0,0:0:0:0:
256,192,463300,1,0,0:0:0:0:
475,192,463300,1,0,0:0:0:0:
329,192,463368,1,0,0:0:0:0:
182,192,463368,1,0,0:0:0:0:
402,192,463368,1,0,0:0:0:0:
109,192,463368,1,0,0:0:0:0:
256,192,463435,1,0,0:0:0:0:
36,192,463435,1,0,0:0:0:0:
329,192,463503,1,0,0:0:0:0:
109,192,463503,1,0,0:0:0:0:
475,192,463503,1,0,0:0:0:0:
402,192,463503,1,0,0:0:0:0:
36,192,463570,1,0,0:0:0:0:
182,192,463570,1,0,0:0:0:0:
402,192,463638,1,0,0:0:0:0:
475,192,463638,1,0,0:0:0:0:
109,192,463638,1,0,0:0:0:0:
256,192,463638,1,0,0:0:0:0:
182,192,463705,1,0,0:0:0:0:
329,192,463705,1,0,0:0:0:0:
475,192,463773,1,0,0:0:0:0:
109,192,463773,1,0,0:0:0:0:
36,192,463773,1,0,0:0:0:0:
256,192,463773,1,0,0:0:0:0:
329,192,463841,1,0,0:0:0:0:
182,192,463841,1,0,0:0:0:0:
36,192,463908,1,0,0:0:0:0:
475,192,463908,1,0,0:0:0:0:
402,192,463908,1,0,0:0:0:0:
256,192,463908,1,0,0:0:0:0:
109,192,463976,1,0,0:0:0:0:
329,192,463976,1,0,0:0:0:0:
402,192,464043,1,0,0:0:0:0:
36,192,464043,1,0,0:0:0:0:
182,192,464043,1,0,0:0:0:0:
256,192,464043,1,0,0:0:0:0:
475,192,464111,1,0,0:0:0:0:
329,192,464111,1,0,0:0:0:0:
182,192,464178,1,0,0:0:0:0:
109,192,464178,1,0,0:0:0:0:
256,192,464178,1,0,0:0:0:0:
402,192,464178,1,0,0:0:0:0:
36,192,464246,1,0,0:0:0:0:
329,192,464246,1,0,0:0:0:0:
402,192,464314,1,0,0:0:0:0:
475,192,464314,1,0,0:0:0:0:
109,192,464314,1,0,0:0:0:0:
182,192,464314,1,0,0:0:0:0:
36,192,464381,1,0,0:0:0:0:
256,192,464381,1,0,0:0:0:0:
475,192,464449,1,0,0:0:0:0:
182,192,464449,1,0,0:0:0:0:
109,192,464449,1,0,0:0:0:0:
329,192,464449,1,0,0:0:0:0:
402,192,464516,1,0,0:0:0:0:
256,192,464516,1,0,0:0:0:0:
475,192,464584,1,0,0:0:0:0:
109,192,464584,1,0,0:0:0:0:
36,192,464584,1,0,0:0:0:0:
329,192,464584,1,0,0:0:0:0:
402,192,464651,1,0,0:0:0:0:
256,192,464651,1,0,0:0:0:0:
182,192,464651,1,0,0:0:0:0:
329,192,464719,1,0,0:0:0:0:
36,192,464719,1,0,0:0:0:0:
109,192,464719,1,0,0:0:0:0:
475,192,464787,1,0,0:0:0:0:
256,192,464787,1,0,0:0:0:0:
182,192,464787,1,0,0:0:0:0:
36,192,464854,1,0,0:0:0:0:
329,192,464854,1,0,0:0:0:0:
402,192,464854,1,0,0:0:0:0:
475,192,464922,1,0,0:0:0:0:
182,192,464922,1,0,0:0:0:0:
109,192,464922,1,0,0:0:0:0:
402,192,464989,1,0,0:0:0:0:
36,192,464989,1,0,0:0:0:0:
256,192,464989,1,0,0:0:0:0:
109,192,465057,1,0,0:0:0:0:
182,192,465057,1,0,0:0:0:0:
329,192,465057,1,0,0:0:0:0:
402,192,465124,1,0,0:0:0:0:
475,192,465124,1,0,0:0:0:0:
256,192,465124,1,0,0:0:0:0:
36,192,465192,1,0,0:0:0:0:
182,192,465192,1,0,0:0:0:0:
329,192,465192,1,0,0:0:0:0:
109,192,465259,1,0,0:0:0:0:
475,192,465259,1,0,0:0:0:0:
256,192,465259,1,0,0:0:0:0:
329,192,465327,1,0,0:0:0:0:
182,192,465327,1,0,0:0:0:0:
402,192,465327,1,0,0:0:0:0:
475,192,465395,1,0,0:0:0:0:
256,192,465395,1,0,0:0:0:0:
36,192,465395,1,0,0:0:0:0:
182,192,465462,1,0,0:0:0:0:
329,192,465462,1,0,0:0:0:0:
109,192,465462,1,0,0:0:0:0:
475,192,465530,1,0,0:0:0:0:
402,192,465530,1,0,0:0:0:0:
256,192,465530,1,0,0:0:0:0:
182,192,465597,1,0,0:0:0:0:
109,192,465597,1,0,0:0:0:0:
36,192,465597,1,0,0:0:0:0:
402,192,465665,1,0,0:0:0:0:
475,192,465665,1,0,0:0:0:0:
256,192,465665,1,0,0:0:0:0:
329,192,465665,1,0,0:0:0:0:
475,192,465800,1,0,0:0:0:0:
402,192,465800,1,0,0:0:0:0:
402,192,465935,1,0,0:0:0:0:
329,192,465935,1,0,0:0:0:0:
256,192,466070,1,0,0:0:0:0:
329,192,466070,1,0,0:0:0:0:
182,192,466205,1,0,0:0:0:0:
256,192,466205,1,0,0:0:0:0:
109,192,466341,1,0,0:0:0:0:
182,192,466341,1,0,0:0:0:0:
36,192,466476,1,0,0:0:0:0:
109,192,466476,1,0,0:0:0:0:
36,192,466611,1,0,0:0:0:0:
329,192,466746,1,0,0:0:0:0:
402,192,466746,1,0,0:0:0:0:
475,192,466746,1,0,0:0:0:0:
36,192,466746,1,0,0:0:0:0:
109,192,466746,1,0,0:0:0:0:
182,192,466746,1,0,0:0:0:0:
256,192,466814,1,0,0:0:0:0:
475,192,466881,1,0,0:0:0:0:
402,192,466881,1,0,0:0:0:0:
182,192,466949,1,0,0:0:0:0:
402,192,467016,1,0,0:0:0:0:
329,192,467016,1,0,0:0:0:0:
109,192,467084,1,0,0:0:0:0:
329,192,467151,1,0,0:0:0:0:
256,192,467151,1,0,0:0:0:0:
36,192,467219,1,0,0:0:0:0:
402,192,467287,1,0,0:0:0:0:
475,192,467287,1,0,0:0:0:0:
182,192,467287,1,0,0:0:0:0:
256,192,467287,1,0,0:0:0:0:
182,192,467557,1,0,0:0:0:0:
109,192,467557,1,0,0:0:0:0:
475,192,467557,128,0,468368:0:0:0:0:
329,192,467557,1,0,0:0:0:0:
402,192,467557,1,0,0:0:0:0:
36,192,467557,128,0,468368:0:0:0:0:
402,192,468638,128,0,469449:0:0:0:0:
182,192,468638,1,0,0:0:0:0:
329,192,468638,1,0,0:0:0:0:
36,192,468638,1,0,0:0:0:0:
475,192,468638,1,0,0:0:0:0:
109,192,468638,128,0,469449:0:0:0:0:
475,192,469719,1,0,0:0:0:0:
109,192,469719,1,0,0:0:0:0:
36,192,469719,1,0,0:0:0:0:
182,192,469719,128,0,470462:0:0:0:0:
329,192,469719,128,0,470462:0:0:0:0:
402,192,469719,1,0,0:0:0:0:
402,192,470530,1,0,0:0:0:0:
475,192,470530,1,0,0:0:0:0:
36,192,470530,1,0,0:0:0:0:
109,192,470530,1,0,0:0:0:0:
329,192,470597,1,0,0:0:0:0:
182,192,470597,1,0,0:0:0:0:
402,192,470665,1,0,0:0:0:0:
475,192,470665,1,0,0:0:0:0:
36,192,470665,1,0,0:0:0:0:
109,192,470665,1,0,0:0:0:0:
329,192,470732,1,0,0:0:0:0:
182,192,470732,1,0,0:0:0:0:
402,192,470800,1,0,0:0:0:0:
475,192,470800,1,0,0:0:0:0:
36,192,470800,1,0,0:0:0:0:
109,192,470800,1,0,0:0:0:0:
329,192,470868,1,0,0:0:0:0:
182,192,470868,1,0,0:0:0:0:
402,192,470935,1,0,0:0:0:0:
475,192,470935,1,0,0:0:0:0:
36,192,470935,1,0,0:0:0:0:
109,192,470935,1,0,0:0:0:0:
329,192,471003,1,0,0:0:0:0:
182,192,471003,1,0,0:0:0:0:
402,192,471070,1,0,0:0:0:0:
475,192,471070,1,0,0:0:0:0:
256,192,471070,1,0,0:0:0:0:
109,192,471070,1,0,0:0:0:0:
36,192,471070,1,0,0:0:0:0:
182,192,471138,1,0,0:0:0:0:
256,192,471205,1,0,0:0:0:0:
36,192,471205,1,0,0:0:0:0:
329,192,471205,1,0,0:0:0:0:
402,192,471205,1,0,0:0:0:0:
182,192,471273,1,0,0:0:0:0:
109,192,471273,1,0,0:0:0:0:
475,192,471341,1,0,0:0:0:0:
36,192,471341,1,0,0:0:0:0:
329,192,471341,1,0,0:0:0:0:
402,192,471341,1,0,0:0:0:0:
109,192,471408,1,0,0:0:0:0:
182,192,471408,1,0,0:0:0:0:
402,192,471476,1,0,0:0:0:0:
36,192,471476,1,0,0:0:0:0:
256,192,471476,1,0,0:0:0:0:
329,192,471476,1,0,0:0:0:0:
109,192,471543,1,0,0:0:0:0:
475,192,471611,1,0,0:0:0:0:
256,192,471611,1,0,0:0:0:0:
329,192,471611,1,0,0:0:0:0:
36,192,471611,1,0,0:0:0:0:
182,192,471611,1,0,0:0:0:0:
182,192,471746,1,0,0:0:0:0:
475,192,471746,1,0,0:0:0:0:
402,192,471746,1,0,0:0:0:0:
329,192,471746,1,0,0:0:0:0:
36,192,471814,1,0,0:0:0:0:
109,192,471814,1,0,0:0:0:0:
475,192,471881,1,0,0:0:0:0:
402,192,471881,1,0,0:0:0:0:
182,192,471881,1,0,0:0:0:0:
256,192,471881,1,0,0:0:0:0:
109,192,471949,1,0,0:0:0:0:
36,192,471949,1,0,0:0:0:0:
182,192,472016,1,0,0:0:0:0:
475,192,472016,1,0,0:0:0:0:
329,192,472016,1,0,0:0:0:0:
402,192,472016,1,0,0:0:0:0:
109,192,472084,1,0,0:0:0:0:
329,192,472151,1,0,0:0:0:0:
475,192,472151,1,0,0:0:0:0:
182,192,472151,1,0,0:0:0:0:
36,192,472151,1,0,0:0:0:0:
256,192,472151,1,0,0:0:0:0:
256,192,472287,1,0,0:0:0:0:
36,192,472287,1,0,0:0:0:0:
329,192,472287,1,0,0:0:0:0:
109,192,472287,1,0,0:0:0:0:
182,192,472354,1,0,0:0:0:0:
402,192,472354,1,0,0:0:0:0:
475,192,472422,1,0,0:0:0:0:
256,192,472422,1,0,0:0:0:0:
109,192,472422,1,0,0:0:0:0:
36,192,472422,1,0,0:0:0:0:
182,192,472489,1,0,0:0:0:0:
402,192,472489,1,0,0:0:0:0:
329,192,472557,1,0,0:0:0:0:
475,192,472557,1,0,0:0:0:0:
256,192,472557,1,0,0:0:0:0:
109,192,472557,1,0,0:0:0:0:
182,192,472624,1,0,0:0:0:0:
402,192,472692,1,0,0:0:0:0:
475,192,472692,1,0,0:0:0:0:
329,192,472692,1,0,0:0:0:0:
109,192,472692,1,0,0:0:0:0:
36,192,472692,1,0,0:0:0:0:
402,192,472827,1,0,0:0:0:0:
109,192,472827,1,0,0:0:0:0:
256,192,472827,1,0,0:0:0:0:
182,192,472827,1,0,0:0:0:0:
475,192,472895,1,0,0:0:0:0:
36,192,472895,1,0,0:0:0:0:
109,192,472962,1,0,0:0:0:0:
402,192,472962,1,0,0:0:0:0:
256,192,472962,1,0,0:0:0:0:
329,192,472962,1,0,0:0:0:0:
475,192,473030,1,0,0:0:0:0:
36,192,473030,1,0,0:0:0:0:
329,192,473097,1,0,0:0:0:0:
109,192,473097,1,0,0:0:0:0:
182,192,473097,1,0,0:0:0:0:
256,192,473097,1,0,0:0:0:0:
475,192,473165,1,0,0:0:0:0:
329,192,473232,1,0,0:0:0:0:
402,192,473232,1,0,0:0:0:0:
182,192,473232,1,0,0:0:0:0:
36,192,473232,1,0,0:0:0:0:
109,192,473232,1,0,0:0:0:0:
256,192,473300,1,0,0:0:0:0:
182,192,473368,1,0,0:0:0:0:
329,192,473368,1,0,0:0:0:0:
402,192,473368,1,0,0:0:0:0:
475,192,473368,1,0,0:0:0:0:
36,192,473435,1,0,0:0:0:0:
109,192,473435,1,0,0:0:0:0:
402,192,473503,1,0,0:0:0:0:
256,192,473503,1,0,0:0:0:0:
182,192,473503,1,0,0:0:0:0:
329,192,473503,1,0,0:0:0:0:
36,192,473570,1,0,0:0:0:0:
109,192,473570,1,0,0:0:0:0:
402,192,473638,1,0,0:0:0:0:
256,192,473638,1,0,0:0:0:0:
329,192,473638,1,0,0:0:0:0:
475,192,473638,1,0,0:0:0:0:
36,192,473705,1,0,0:0:0:0:
109,192,473705,1,0,0:0:0:0:
182,192,473705,1,0,0:0:0:0:
402,192,473773,1,0,0:0:0:0:
475,192,473773,1,0,0:0:0:0:
256,192,473773,1,0,0:0:0:0:
329,192,473773,1,0,0:0:0:0:
182,192,473841,1,0,0:0:0:0:
109,192,473841,1,0,0:0:0:0:
36,192,473908,1,0,0:0:0:0:
402,192,473908,1,0,0:0:0:0:
329,192,473908,1,0,0:0:0:0:
475,192,473908,1,0,0:0:0:0:
256,192,473976,1,0,0:0:0:0:
109,192,473976,1,0,0:0:0:0:
182,192,474043,1,0,0:0:0:0:
329,192,474043,1,0,0:0:0:0:
402,192,474043,1,0,0:0:0:0:
475,192,474043,1,0,0:0:0:0:
109,192,474111,1,0,0:0:0:0:
402,192,474178,1,0,0:0:0:0:
182,192,474178,1,0,0:0:0:0:
36,192,474178,1,0,0:0:0:0:
256,192,474178,1,0,0:0:0:0:
329,192,474314,1,0,0:0:0:0:
109,192,474314,1,0,0:0:0:0:
182,192,474314,1,0,0:0:0:0:
475,192,474314,1,0,0:0:0:0:
402,192,474449,1,0,0:0:0:0:
109,192,474449,1,0,0:0:0:0:
36,192,474449,1,0,0:0:0:0:
256,192,474449,1,0,0:0:0:0:
182,192,474449,1,0,0:0:0:0:
402,192,474584,1,0,0:0:0:0:
256,192,474584,1,0,0:0:0:0:
182,192,474584,1,0,0:0:0:0:
36,192,474584,1,0,0:0:0:0:
109,192,474584,1,0,0:0:0:0:
475,192,474719,1,0,0:0:0:0:
36,192,474719,1,0,0:0:0:0:
402,192,474753,1,0,0:0:0:0:
109,192,474753,1,0,0:0:0:0:
329,192,474787,1,0,0:0:0:0:
182,192,474787,1,0,0:0:0:0:
256,192,474820,1,0,0:0:0:0:
402,192,474854,1,0,0:0:0:0:
475,192,474854,1,0,0:0:0:0:
36,192,474854,1,0,0:0:0:0:
109,192,474854,1,0,0:0:0:0:
329,192,474989,1,0,0:0:0:0:
475,192,474989,1,0,0:0:0:0:
182,192,474989,1,0,0:0:0:0:
36,192,474989,1,0,0:0:0:0:
402,192,475057,1,0,0:0:0:0:
109,192,475057,1,0,0:0:0:0:
329,192,475124,1,0,0:0:0:0:
475,192,475124,1,0,0:0:0:0:
36,192,475124,1,0,0:0:0:0:
182,192,475124,1,0,0:0:0:0:
329,192,475259,1,0,0:0:0:0:
402,192,475259,1,0,0:0:0:0:
475,192,475259,1,0,0:0:0:0:
109,192,475259,1,0,0:0:0:0:
36,192,475259,1,0,0:0:0:0:
182,192,475259,1,0,0:0:0:0:
256,192,475395,1,0,0:0:0:0:
329,192,475530,1,0,0:0:0:0:
402,192,475530,1,0,0:0:0:0:
36,192,475530,1,0,0:0:0:0:
182,192,475530,1,0,0:0:0:0:
109,192,475530,1,0,0:0:0:0:
329,192,475665,1,0,0:0:0:0:
475,192,475665,1,0,0:0:0:0:
402,192,475665,1,0,0:0:0:0:
109,192,475665,1,0,0:0:0:0:
182,192,475665,1,0,0:0:0:0:
36,192,475732,1,0,0:0:0:0:
402,192,475800,1,0,0:0:0:0:
475,192,475800,1,0,0:0:0:0:
182,192,475800,1,0,0:0:0:0:
256,192,475800,1,0,0:0:0:0:
329,192,475868,1,0,0:0:0:0:
109,192,475868,1,0,0:0:0:0:
36,192,475935,1,0,0:0:0:0:
402,192,475935,1,0,0:0:0:0:
475,192,475935,1,0,0:0:0:0:
182,192,475935,1,0,0:0:0:0:
256,192,475935,1,0,0:0:0:0:
329,192,476070,1,0,0:0:0:0:
475,192,476070,1,0,0:0:0:0:
182,192,476070,1,0,0:0:0:0:
109,192,476070,1,0,0:0:0:0:
36,192,476070,1,0,0:0:0:0:
402,192,476205,1,0,0:0:0:0:
475,192,476205,1,0,0:0:0:0:
36,192,476205,1,0,0:0:0:0:
256,192,476205,1,0,0:0:0:0:
109,192,476205,1,0,0:0:0:0:
109,192,476341,1,0,0:0:0:0:
329,192,476341,1,0,0:0:0:0:
402,192,476341,1,0,0:0:0:0:
36,192,476341,1,0,0:0:0:0:
256,192,476408,1,0,0:0:0:0:
475,192,476408,1,0,0:0:0:0:
182,192,476408,1,0,0:0:0:0:
402,192,476476,1,0,0:0:0:0:
329,192,476476,1,0,0:0:0:0:
109,192,476476,1,0,0:0:0:0:
36,192,476476,1,0,0:0:0:0:
475,192,476611,1,0,0:0:0:0:
329,192,476611,1,0,0:0:0:0:
256,192,476611,1,0,0:0:0:0:
182,192,476611,1,0,0:0:0:0:
329,192,476746,1,0,0:0:0:0:
402,192,476746,1,0,0:0:0:0:
475,192,476746,1,0,0:0:0:0:
109,192,476746,1,0,0:0:0:0:
36,192,476746,1,0,0:0:0:0:
182,192,476746,1,0,0:0:0:0:
109,192,476881,1,0,0:0:0:0:
402,192,476881,1,0,0:0:0:0:
256,192,476881,1,0,0:0:0:0:
329,192,476881,1,0,0:0:0:0:
256,192,477016,1,0,0:0:0:0:
182,192,477016,1,0,0:0:0:0:
475,192,477016,1,0,0:0:0:0:
36,192,477016,1,0,0:0:0:0:
402,192,477016,1,0,0:0:0:0:
329,192,477151,1,0,0:0:0:0:
402,192,477151,1,0,0:0:0:0:
109,192,477151,1,0,0:0:0:0:
182,192,477151,1,0,0:0:0:0:
329,192,477287,1,0,0:0:0:0:
475,192,477287,1,0,0:0:0:0:
256,192,477287,1,0,0:0:0:0:
36,192,477287,1,0,0:0:0:0:
109,192,477287,1,0,0:0:0:0:
402,192,477422,1,0,0:0:0:0:
475,192,477422,1,0,0:0:0:0:
329,192,477422,1,0,0:0:0:0:
182,192,477422,1,0,0:0:0:0:
109,192,477422,1,0,0:0:0:0:
256,192,477489,1,0,0:0:0:0:
475,192,477557,1,0,0:0:0:0:
182,192,477557,1,0,0:0:0:0:
402,192,477557,1,0,0:0:0:0:
36,192,477557,1,0,0:0:0:0:
109,192,477557,1,0,0:0:0:0:
329,192,477692,1,0,0:0:0:0:
402,192,477692,1,0,0:0:0:0:
256,192,477692,1,0,0:0:0:0:
182,192,477692,1,0,0:0:0:0:
329,192,477827,1,0,0:0:0:0:
475,192,477827,1,0,0:0:0:0:
256,192,477827,1,0,0:0:0:0:
36,192,477827,1,0,0:0:0:0:
109,192,477827,1,0,0:0:0:0:
329,192,477962,1,0,0:0:0:0:
402,192,477962,1,0,0:0:0:0:
109,192,477962,1,0,0:0:0:0:
182,192,477962,1,0,0:0:0:0:
402,192,478097,1,0,0:0:0:0:
475,192,478097,1,0,0:0:0:0:
256,192,478097,1,0,0:0:0:0:
36,192,478097,1,0,0:0:0:0:
109,192,478097,1,0,0:0:0:0:
329,192,478232,1,0,0:0:0:0:
475,192,478232,1,0,0:0:0:0:
182,192,478232,1,0,0:0:0:0:
256,192,478232,1,0,0:0:0:0:
402,192,478300,1,0,0:0:0:0:
256,192,478368,1,0,0:0:0:0:
475,192,478368,1,0,0:0:0:0:
329,192,478368,1,0,0:0:0:0:
36,192,478368,1,0,0:0:0:0:
109,192,478368,1,0,0:0:0:0:
182,192,478435,1,0,0:0:0:0:
475,192,478503,1,0,0:0:0:0:
402,192,478503,1,0,0:0:0:0:
329,192,478503,1,0,0:0:0:0:
182,192,478570,1,0,0:0:0:0:
109,192,478570,1,0,0:0:0:0:
36,192,478570,1,0,0:0:0:0:
475,192,478638,1,0,0:0:0:0:
329,192,478638,1,0,0:0:0:0:
256,192,478638,1,0,0:0:0:0:
402,192,478638,1,0,0:0:0:0:
182,192,478705,1,0,0:0:0:0:
329,192,478773,1,0,0:0:0:0:
402,192,478773,1,0,0:0:0:0:
109,192,478773,1,0,0:0:0:0:
36,192,478773,1,0,0:0:0:0:
256,192,478841,1,0,0:0:0:0:
182,192,478908,1,0,0:0:0:0:
36,192,478908,1,0,0:0:0:0:
402,192,478908,1,0,0:0:0:0:
475,192,478908,1,0,0:0:0:0:
109,192,478976,1,0,0:0:0:0:
329,192,478976,1,0,0:0:0:0:
182,192,479043,1,0,0:0:0:0:
36,192,479043,1,0,0:0:0:0:
402,192,479043,1,0,0:0:0:0:
475,192,479043,1,0,0:0:0:0:
256,192,479111,1,0,0:0:0:0:
329,192,479111,1,0,0:0:0:0:
36,192,479178,1,0,0:0:0:0:
109,192,479178,1,0,0:0:0:0:
402,192,479178,1,0,0:0:0:0:
475,192,479178,1,0,0:0:0:0:
256,192,479246,1,0,0:0:0:0:
182,192,479246,1,0,0:0:0:0:
329,192,479314,1,0,0:0:0:0:
36,192,479314,1,0,0:0:0:0:
109,192,479314,1,0,0:0:0:0:
402,192,479381,1,0,0:0:0:0:
182,192,479381,1,0,0:0:0:0:
109,192,479449,1,0,0:0:0:0:
36,192,479449,1,0,0:0:0:0:
475,192,479449,1,0,0:0:0:0:
256,192,479449,1,0,0:0:0:0:
329,192,479449,1,0,0:0:0:0:
402,192,479584,1,0,0:0:0:0:
475,192,479584,1,0,0:0:0:0:
36,192,479584,1,0,0:0:0:0:
256,192,479584,1,0,0:0:0:0:
182,192,479584,1,0,0:0:0:0:
475,192,479719,1,0,0:0:0:0:
109,192,479719,1,0,0:0:0:0:
36,192,479719,1,0,0:0:0:0:
182,192,479719,1,0,0:0:0:0:
329,192,479719,1,0,0:0:0:0:
402,192,479719,1,0,0:0:0:0:
402,192,479854,1,0,0:0:0:0:
475,192,479854,1,0,0:0:0:0:
109,192,479854,1,0,0:0:0:0:
256,192,479854,1,0,0:0:0:0:
182,192,479854,1,0,0:0:0:0:
329,192,479989,1,0,0:0:0:0:
475,192,479989,1,0,0:0:0:0:
256,192,479989,1,0,0:0:0:0:
36,192,479989,1,0,0:0:0:0:
109,192,479989,1,0,0:0:0:0:
109,192,480124,1,0,0:0:0:0:
36,192,480124,1,0,0:0:0:0:
182,192,480124,1,0,0:0:0:0:
402,192,480124,1,0,0:0:0:0:
329,192,480124,1,0,0:0:0:0:
329,192,480259,1,0,0:0:0:0:
475,192,480259,1,0,0:0:0:0:
182,192,480259,1,0,0:0:0:0:
36,192,480259,1,0,0:0:0:0:
256,192,480259,1,0,0:0:0:0:
402,192,480395,1,0,0:0:0:0:
475,192,480395,1,0,0:0:0:0:
256,192,480395,1,0,0:0:0:0:
109,192,480395,1,0,0:0:0:0:
182,192,480395,1,0,0:0:0:0:
329,192,480530,1,0,0:0:0:0:
475,192,480530,1,0,0:0:0:0:
182,192,480530,1,0,0:0:0:0:
36,192,480530,1,0,0:0:0:0:
109,192,480530,1,0,0:0:0:0:
256,192,480564,1,0,0:0:0:0:
402,192,480597,1,0,0:0:0:0:
182,192,480631,1,0,0:0:0:0:
475,192,480665,1,0,0:0:0:0:
329,192,480665,1,0,0:0:0:0:
109,192,480699,1,0,0:0:0:0:
256,192,480732,1,0,0:0:0:0:
36,192,480766,1,0,0:0:0:0:
475,192,480800,1,0,0:0:0:0:
329,192,480800,1,0,0:0:0:0:
182,192,480800,1,0,0:0:0:0:
402,192,480800,1,0,0:0:0:0:
402,192,480935,1,0,0:0:0:0:
329,192,480935,1,0,0:0:0:0:
256,192,480935,1,0,0:0:0:0:
109,192,480935,1,0,0:0:0:0:
36,192,480935,1,0,0:0:0:0:
402,192,481070,1,0,0:0:0:0:
475,192,481070,1,0,0:0:0:0:
256,192,481070,1,0,0:0:0:0:
182,192,481070,1,0,0:0:0:0:
109,192,481070,1,0,0:0:0:0:
329,192,481205,1,0,0:0:0:0:
402,192,481205,1,0,0:0:0:0:
109,192,481205,1,0,0:0:0:0:
36,192,481205,1,0,0:0:0:0:
182,192,481205,1,0,0:0:0:0:
256,192,481273,1,0,0:0:0:0:
475,192,481341,1,0,0:0:0:0:
329,192,481341,1,0,0:0:0:0:
402,192,481341,1,0,0:0:0:0:
36,192,481341,1,0,0:0:0:0:
109,192,481341,1,0,0:0:0:0:
256,192,481476,1,0,0:0:0:0:
475,192,481476,1,0,0:0:0:0:
36,192,481476,1,0,0:0:0:0:
182,192,481476,1,0,0:0:0:0:
109,192,481476,1,0,0:0:0:0:
329,192,481543,1,0,0:0:0:0:
109,192,481611,1,0,0:0:0:0:
182,192,481611,1,0,0:0:0:0:
402,192,481611,1,0,0:0:0:0:
475,192,481611,1,0,0:0:0:0:
256,192,481645,1,0,0:0:0:0:
36,192,481678,1,0,0:0:0:0:
329,192,481712,1,0,0:0:0:0:
109,192,481746,1,0,0:0:0:0:
256,192,481763,1,0,0:0:0:0:
402,192,481780,1,0,0:0:0:0:
182,192,481814,1,0,0:0:0:0:
475,192,481847,1,0,0:0:0:0:
109,192,481881,1,0,0:0:0:0:
36,192,481881,1,0,0:0:0:0:
256,192,481881,1,0,0:0:0:0:
329,192,481949,1,0,0:0:0:0:
402,192,481949,1,0,0:0:0:0:
182,192,482016,1,0,0:0:0:0:
109,192,482016,1,0,0:0:0:0:
402,192,482084,1,0,0:0:0:0:
329,192,482084,1,0,0:0:0:0:
182,192,482151,1,0,0:0:0:0:
109,192,482151,1,0,0:0:0:0:
402,192,482219,1,0,0:0:0:0:
329,192,482219,1,0,0:0:0:0:
182,192,482287,1,0,0:0:0:0:
109,192,482287,1,0,0:0:0:0:
475,192,482287,1,0,0:0:0:0:
36,192,482287,1,0,0:0:0:0:
256,192,482287,1,0,0:0:0:0:
402,192,482354,1,0,0:0:0:0:
329,192,482354,1,0,0:0:0:0:
182,192,482422,1,0,0:0:0:0:
109,192,482422,1,0,0:0:0:0:
329,192,482489,1,0,0:0:0:0:
256,192,482489,1,0,0:0:0:0:
109,192,482557,1,0,0:0:0:0:
36,192,482557,1,0,0:0:0:0:
256,192,482624,1,0,0:0:0:0:
182,192,482624,1,0,0:0:0:0:
402,192,482692,1,0,0:0:0:0:
475,192,482692,1,0,0:0:0:0:
329,192,482692,1,0,0:0:0:0:
109,192,482692,1,0,0:0:0:0:
36,192,482692,1,0,0:0:0:0:
256,192,482759,1,0,0:0:0:0:
182,192,482759,1,0,0:0:0:0:
402,192,482827,1,0,0:0:0:0:
329,192,482827,1,0,0:0:0:0:
109,192,482895,1,0,0:0:0:0:
182,192,482895,1,0,0:0:0:0:
475,192,482962,1,0,0:0:0:0:
402,192,482962,1,0,0:0:0:0:
182,192,483030,1,0,0:0:0:0:
256,192,483030,1,0,0:0:0:0:
402,192,483097,1,0,0:0:0:0:
329,192,483097,1,0,0:0:0:0:
109,192,483165,1,0,0:0:0:0:
36,192,483165,1,0,0:0:0:0:
329,192,483232,1,0,0:0:0:0:
256,192,483232,1,0,0:0:0:0:
109,192,483300,1,0,0:0:0:0:
182,192,483300,1,0,0:0:0:0:
475,192,483368,1,0,0:0:0:0:
402,192,483368,1,0,0:0:0:0:
329,192,483435,1,0,0:0:0:0:
182,192,483435,1,0,0:0:0:0:
402,192,483503,1,0,0:0:0:0:
475,192,483503,1,0,0:0:0:0:
256,192,483503,1,0,0:0:0:0:
109,192,483503,1,0,0:0:0:0:
36,192,483503,1,0,0:0:0:0:
329,192,484043,1,0,0:0:0:0:
475,192,484043,1,0,0:0:0:0:
402,192,484043,1,0,0:0:0:0:
36,192,484043,1,0,0:0:0:0:
109,192,484043,1,0,0:0:0:0:
182,192,484043,1,0,0:0:0:0:
256,192,484111,1,0,0:0:0:0:
329,192,484178,1,0,0:0:0:0:
402,192,484246,1,0,0:0:0:0:
182,192,484314,1,0,0:0:0:0:
256,192,484381,1,0,0:0:0:0:
329,192,484449,1,0,0:0:0:0:
402,192,484516,1,0,0:0:0:0:
182,192,484584,1,0,0:0:0:0:
109,192,484584,1,0,0:0:0:0:
475,192,484584,1,0,0:0:0:0:
402,192,484651,1,0,0:0:0:0:
329,192,484719,1,0,0:0:0:0:
256,192,484787,1,0,0:0:0:0:
402,192,484854,1,0,0:0:0:0:
182,192,484854,1,0,0:0:0:0:
329,192,484922,1,0,0:0:0:0:
256,192,484989,1,0,0:0:0:0:
182,192,485057,1,0,0:0:0:0:
36,192,485124,1,0,0:0:0:0:
109,192,485192,1,0,0:0:0:0:
182,192,485259,1,0,0:0:0:0:
329,192,485327,1,0,0:0:0:0:
109,192,485395,1,0,0:0:0:0:
182,192,485462,1,0,0:0:0:0:
256,192,485530,1,0,0:0:0:0:
402,192,485597,1,0,0:0:0:0:
475,192,485665,1,0,0:0:0:0:
109,192,485665,1,0,0:0:0:0:
36,192,485665,1,0,0:0:0:0:
329,192,485732,1,0,0:0:0:0:
256,192,485800,1,0,0:0:0:0:
182,192,485868,1,0,0:0:0:0:
402,192,485935,1,0,0:0:0:0:
256,192,486003,1,0,0:0:0:0:
182,192,486070,1,0,0:0:0:0:
109,192,486138,1,0,0:0:0:0:
475,192,486205,1,0,0:0:0:0:
329,192,486205,1,0,0:0:0:0:
36,192,486205,1,0,0:0:0:0:
109,192,486273,1,0,0:0:0:0:
182,192,486341,1,0,0:0:0:0:
256,192,486408,1,0,0:0:0:0:
109,192,486476,1,0,0:0:0:0:
182,192,486543,1,0,0:0:0:0:
256,192,486611,1,0,0:0:0:0:
329,192,486678,1,0,0:0:0:0:
109,192,486746,1,0,0:0:0:0:
475,192,486746,1,0,0:0:0:0:
402,192,486746,1,0,0:0:0:0:
329,192,486814,1,0,0:0:0:0:
182,192,486881,1,0,0:0:0:0:
36,192,486949,1,0,0:0:0:0:
402,192,487016,1,0,0:0:0:0:
256,192,487084,1,0,0:0:0:0:
182,192,487151,1,0,0:0:0:0:
109,192,487219,1,0,0:0:0:0:
475,192,487287,1,0,0:0:0:0:
36,192,487287,1,0,0:0:0:0:
402,192,487354,1,0,0:0:0:0:
256,192,487422,1,0,0:0:0:0:
109,192,487489,1,0,0:0:0:0:
402,192,487557,1,0,0:0:0:0:
329,192,487624,1,0,0:0:0:0:
182,192,487692,1,0,0:0:0:0:
36,192,487759,1,0,0:0:0:0:
329,192,487827,1,0,0:0:0:0:
402,192,487827,1,0,0:0:0:0:
109,192,487827,1,0,0:0:0:0:
182,192,487895,1,0,0:0:0:0:
256,192,487962,1,0,0:0:0:0:
475,192,488007,1,0,0:0:0:0:
402,192,488007,1,0,0:0:0:0:
109,192,488030,1,0,0:0:0:0:
182,192,488097,1,0,0:0:0:0:
36,192,488165,1,0,0:0:0:0:
475,192,488187,1,0,0:0:0:0:
329,192,488187,1,0,0:0:0:0:
109,192,488232,1,0,0:0:0:0:
182,192,488300,1,0,0:0:0:0:
256,192,488368,1,0,0:0:0:0:
475,192,488368,1,0,0:0:0:0:
402,192,488368,1,0,0:0:0:0:
109,192,488435,1,0,0:0:0:0:
329,192,488503,1,0,0:0:0:0:
182,192,488570,1,0,0:0:0:0:
402,192,488638,1,0,0:0:0:0:
256,192,488705,1,0,0:0:0:0:
109,192,488773,1,0,0:0:0:0:
329,192,488841,1,0,0:0:0:0:
36,192,488908,1,0,0:0:0:0:
475,192,488908,1,0,0:0:0:0:
182,192,488908,1,0,0:0:0:0:
256,192,488976,1,0,0:0:0:0:
402,192,489043,1,0,0:0:0:0:
182,192,489111,1,0,0:0:0:0:
329,192,489178,1,0,0:0:0:0:
109,192,489246,1,0,0:0:0:0:
256,192,489314,1,0,0:0:0:0:
402,192,489381,1,0,0:0:0:0:
182,192,489449,1,0,0:0:0:0:
329,192,489516,1,0,0:0:0:0:
109,192,489584,1,0,0:0:0:0:
256,192,489651,1,0,0:0:0:0:
402,192,489719,1,0,0:0:0:0:
182,192,489787,1,0,0:0:0:0:
36,192,489854,1,0,0:0:0:0:
329,192,489922,1,0,0:0:0:0:
475,192,489989,1,0,0:0:0:0:
256,192,489989,1,0,0:0:0:0:
109,192,489989,1,0,0:0:0:0:
402,192,490057,1,0,0:0:0:0:
182,192,490124,1,0,0:0:0:0:
329,192,490192,1,0,0:0:0:0:
36,192,490192,1,0,0:0:0:0:
256,192,490259,1,0,0:0:0:0:
109,192,490327,1,0,0:0:0:0:
182,192,490395,1,0,0:0:0:0:
329,192,490462,1,0,0:0:0:0:
109,192,490530,1,0,0:0:0:0:
36,192,490530,1,0,0:0:0:0:
402,192,490530,1,0,0:0:0:0:
256,192,490597,1,0,0:0:0:0:
475,192,490665,1,0,0:0:0:0:
182,192,490732,1,0,0:0:0:0:
402,192,490800,1,0,0:0:0:0:
109,192,490868,1,0,0:0:0:0:
329,192,490935,1,0,0:0:0:0:
256,192,491003,1,0,0:0:0:0:
475,192,491070,1,0,0:0:0:0:
182,192,491070,1,0,0:0:0:0:
36,192,491070,1,0,0:0:0:0:
402,192,491138,1,0,0:0:0:0:
109,192,491205,1,0,0:0:0:0:
329,192,491273,1,0,0:0:0:0:
182,192,491341,1,0,0:0:0:0:
36,192,491408,1,0,0:0:0:0:
256,192,491476,1,0,0:0:0:0:
402,192,491543,1,0,0:0:0:0:
109,192,491611,1,0,0:0:0:0:
329,192,491678,1,0,0:0:0:0:
182,192,491746,1,0,0:0:0:0:
36,192,491814,1,0,0:0:0:0:
475,192,491881,1,0,0:0:0:0:
109,192,491881,1,0,0:0:0:0:
256,192,491881,1,0,0:0:0:0:
402,192,491881,1,0,0:0:0:0:
329,192,491949,1,0,0:0:0:0:
109,192,492016,1,0,0:0:0:0:
36,192,492016,1,0,0:0:0:0:
182,192,492016,1,0,0:0:0:0:
475,192,492084,1,0,0:0:0:0:
402,192,492084,1,0,0:0:0:0:
256,192,492084,1,0,0:0:0:0:
36,192,492151,1,0,0:0:0:0:
182,192,492151,1,0,0:0:0:0:
329,192,492151,1,0,0:0:0:0:
329,192,492287,1,0,0:0:0:0:
182,192,492287,1,0,0:0:0:0:
36,192,492287,1,0,0:0:0:0:
402,192,492422,1,0,0:0:0:0:
256,192,492422,1,0,0:0:0:0:
109,192,492422,1,0,0:0:0:0:
182,192,492489,1,0,0:0:0:0:
109,192,492557,1,0,0:0:0:0:
402,192,492557,1,0,0:0:0:0:
256,192,492557,1,0,0:0:0:0:
329,192,492624,1,0,0:0:0:0:
256,192,492692,1,0,0:0:0:0:
402,192,492692,1,0,0:0:0:0:
475,192,492692,1,0,0:0:0:0:
182,192,492692,1,0,0:0:0:0:
36,192,492692,1,0,0:0:0:0:
402,192,492827,1,0,0:0:0:0:
256,192,492827,1,0,0:0:0:0:
109,192,492827,1,0,0:0:0:0:
182,192,492827,1,0,0:0:0:0:
329,192,492827,1,0,0:0:0:0:
475,192,492962,1,0,0:0:0:0:
256,192,492962,1,0,0:0:0:0:
402,192,492962,1,0,0:0:0:0:
36,192,492962,1,0,0:0:0:0:
109,192,492962,1,0,0:0:0:0:
329,192,493030,1,0,0:0:0:0:
182,192,493030,1,0,0:0:0:0:
256,192,493097,1,0,0:0:0:0:
36,192,493097,1,0,0:0:0:0:
475,192,493165,1,0,0:0:0:0:
402,192,493165,1,0,0:0:0:0:
109,192,493165,1,0,0:0:0:0:
329,192,493232,1,0,0:0:0:0:
256,192,493232,1,0,0:0:0:0:
182,192,493232,1,0,0:0:0:0:
475,192,493300,1,0,0:0:0:0:
36,192,493300,1,0,0:0:0:0:
182,192,493368,1,0,0:0:0:0:
329,192,493368,1,0,0:0:0:0:
402,192,493368,1,0,0:0:0:0:
256,192,493435,1,0,0:0:0:0:
109,192,493435,1,0,0:0:0:0:
402,192,493503,1,0,0:0:0:0:
475,192,493503,1,0,0:0:0:0:
182,192,493503,1,0,0:0:0:0:
36,192,493503,1,0,0:0:0:0:
256,192,493570,1,0,0:0:0:0:
329,192,493570,1,0,0:0:0:0:
36,192,493638,1,0,0:0:0:0:
109,192,493638,1,0,0:0:0:0:
475,192,493705,1,0,0:0:0:0:
402,192,493705,1,0,0:0:0:0:
182,192,493705,1,0,0:0:0:0:
109,192,493773,1,0,0:0:0:0:
329,192,493773,1,0,0:0:0:0:
256,192,493773,1,0,0:0:0:0:
36,192,493773,1,0,0:0:0:0:
475,192,493841,1,0,0:0:0:0:
256,192,493908,1,0,0:0:0:0:
402,192,493908,1,0,0:0:0:0:
182,192,493908,1,0,0:0:0:0:
329,192,493976,1,0,0:0:0:0:
109,192,493976,1,0,0:0:0:0:
36,192,493976,1,0,0:0:0:0:
182,192,494043,1,0,0:0:0:0:
402,192,494043,1,0,0:0:0:0:
475,192,494043,1,0,0:0:0:0:
36,192,494111,1,0,0:0:0:0:
256,192,494111,1,0,0:0:0:0:
475,192,494178,1,0,0:0:0:0:
329,192,494178,1,0,0:0:0:0:
109,192,494178,1,0,0:0:0:0:
256,192,494246,1,0,0:0:0:0:
182,192,494246,1,0,0:0:0:0:
402,192,494314,1,0,0:0:0:0:
475,192,494314,1,0,0:0:0:0:
36,192,494314,1,0,0:0:0:0:
109,192,494314,1,0,0:0:0:0:
329,192,494381,1,0,0:0:0:0:
36,192,494449,1,0,0:0:0:0:
256,192,494449,1,0,0:0:0:0:
182,192,494449,1,0,0:0:0:0:
109,192,494516,1,0,0:0:0:0:
475,192,494516,1,0,0:0:0:0:
402,192,494516,1,0,0:0:0:0:
329,192,494584,1,0,0:0:0:0:
256,192,494584,1,0,0:0:0:0:
182,192,494584,1,0,0:0:0:0:
109,192,494651,1,0,0:0:0:0:
36,192,494651,1,0,0:0:0:0:
329,192,494719,1,0,0:0:0:0:
402,192,494719,1,0,0:0:0:0:
475,192,494719,1,0,0:0:0:0:
182,192,494787,1,0,0:0:0:0:
256,192,494787,1,0,0:0:0:0:
475,192,494854,1,0,0:0:0:0:
329,192,494854,1,0,0:0:0:0:
402,192,494854,1,0,0:0:0:0:
109,192,494854,1,0,0:0:0:0:
36,192,494854,1,0,0:0:0:0:
256,192,494922,1,0,0:0:0:0:
329,192,494989,1,0,0:0:0:0:
36,192,494989,1,0,0:0:0:0:
182,192,494989,1,0,0:0:0:0:
109,192,495057,1,0,0:0:0:0:
402,192,495057,1,0,0:0:0:0:
475,192,495124,1,0,0:0:0:0:
36,192,495124,1,0,0:0:0:0:
256,192,495124,1,0,0:0:0:0:
329,192,495124,1,0,0:0:0:0:
109,192,495192,1,0,0:0:0:0:
182,192,495192,1,0,0:0:0:0:
402,192,495259,1,0,0:0:0:0:
329,192,495259,1,0,0:0:0:0:
256,192,495327,1,0,0:0:0:0:
109,192,495327,1,0,0:0:0:0:
36,192,495327,1,0,0:0:0:0:
402,192,495395,1,0,0:0:0:0:
475,192,495395,1,0,0:0:0:0:
182,192,495395,1,0,0:0:0:0:
329,192,495395,1,0,0:0:0:0:
36,192,495462,1,0,0:0:0:0:
475,192,495530,1,0,0:0:0:0:
256,192,495530,1,0,0:0:0:0:
109,192,495530,1,0,0:0:0:0:
182,192,495597,1,0,0:0:0:0:
329,192,495597,1,0,0:0:0:0:
402,192,495597,1,0,0:0:0:0:
256,192,495665,1,0,0:0:0:0:
475,192,495665,1,0,0:0:0:0:
36,192,495665,1,0,0:0:0:0:
109,192,495665,1,0,0:0:0:0:
329,192,495732,1,0,0:0:0:0:
182,192,495732,1,0,0:0:0:0:
256,192,495800,1,0,0:0:0:0:
402,192,495800,1,0,0:0:0:0:
36,192,495800,1,0,0:0:0:0:
475,192,495800,1,0,0:0:0:0:
329,192,495868,1,0,0:0:0:0:
182,192,495868,1,0,0:0:0:0:
109,192,495868,1,0,0:0:0:0:
256,192,495935,1,0,0:0:0:0:
402,192,495935,1,0,0:0:0:0:
36,192,495935,1,0,0:0:0:0:
475,192,495935,1,0,0:0:0:0:
109,192,496003,1,0,0:0:0:0:
329,192,496070,1,0,0:0:0:0:
182,192,496070,1,0,0:0:0:0:
402,192,496070,1,0,0:0:0:0:
109,192,496138,1,0,0:0:0:0:
256,192,496138,1,0,0:0:0:0:
182,192,496205,1,0,0:0:0:0:
329,192,496205,1,0,0:0:0:0:
36,192,496205,1,0,0:0:0:0:
402,192,496205,1,0,0:0:0:0:
475,192,496205,1,0,0:0:0:0:
256,192,496273,1,0,0:0:0:0:
475,192,496341,1,0,0:0:0:0:
36,192,496341,1,0,0:0:0:0:
182,192,496341,1,0,0:0:0:0:
109,192,496341,1,0,0:0:0:0:
402,192,496408,1,0,0:0:0:0:
256,192,496408,1,0,0:0:0:0:
182,192,496476,1,0,0:0:0:0:
475,192,496476,1,0,0:0:0:0:
36,192,496476,1,0,0:0:0:0:
329,192,496476,1,0,0:0:0:0:
256,192,496543,1,0,0:0:0:0:
329,192,496611,1,0,0:0:0:0:
402,192,496611,1,0,0:0:0:0:
109,192,496611,1,0,0:0:0:0:
36,192,496611,1,0,0:0:0:0:
182,192,496678,1,0,0:0:0:0:
109,192,496746,1,0,0:0:0:0:
329,192,496746,1,0,0:0:0:0:
402,192,496746,1,0,0:0:0:0:
475,192,496746,1,0,0:0:0:0:
256,192,496814,1,0,0:0:0:0:
36,192,496814,1,0,0:0:0:0:
402,192,496881,1,0,0:0:0:0:
475,192,496881,1,0,0:0:0:0:
109,192,496881,1,0,0:0:0:0:
329,192,496881,1,0,0:0:0:0:
182,192,496949,1,0,0:0:0:0:
402,192,497016,1,0,0:0:0:0:
475,192,497016,1,0,0:0:0:0:
109,192,497016,1,0,0:0:0:0:
36,192,497016,1,0,0:0:0:0:
256,192,497016,1,0,0:0:0:0:
329,192,497084,1,0,0:0:0:0:
36,192,497151,1,0,0:0:0:0:
182,192,497151,1,0,0:0:0:0:
475,192,497219,1,0,0:0:0:0:
402,192,497219,1,0,0:0:0:0:
256,192,497219,1,0,0:0:0:0:
182,192,497287,1,0,0:0:0:0:
329,192,497287,1,0,0:0:0:0:
109,192,497287,1,0,0:0:0:0:
36,192,497287,1,0,0:0:0:0:
475,192,497354,1,0,0:0:0:0:
256,192,497354,1,0,0:0:0:0:
109,192,497422,1,0,0:0:0:0:
36,192,497422,1,0,0:0:0:0:
402,192,497422,1,0,0:0:0:0:
329,192,497489,1,0,0:0:0:0:
182,192,497489,1,0,0:0:0:0:
256,192,497557,1,0,0:0:0:0:
109,192,497557,1,0,0:0:0:0:
402,192,497557,1,0,0:0:0:0:
475,192,497557,1,0,0:0:0:0:
329,192,497624,1,0,0:0:0:0:
36,192,497624,1,0,0:0:0:0:
256,192,497692,1,0,0:0:0:0:
182,192,497692,1,0,0:0:0:0:
475,192,497759,1,0,0:0:0:0:
402,192,497759,1,0,0:0:0:0:
109,192,497759,1,0,0:0:0:0:
182,192,497827,1,0,0:0:0:0:
36,192,497827,1,0,0:0:0:0:
329,192,497827,1,0,0:0:0:0:
256,192,497827,1,0,0:0:0:0:
475,192,497895,1,0,0:0:0:0:
402,192,497895,1,0,0:0:0:0:
36,192,497962,1,0,0:0:0:0:
329,192,497962,1,0,0:0:0:0:
109,192,497962,1,0,0:0:0:0:
475,192,498030,1,0,0:0:0:0:
256,192,498030,1,0,0:0:0:0:
182,192,498030,1,0,0:0:0:0:
109,192,498097,1,0,0:0:0:0:
36,192,498097,1,0,0:0:0:0:
402,192,498097,1,0,0:0:0:0:
329,192,498097,1,0,0:0:0:0:
256,192,498165,1,0,0:0:0:0:
402,192,498232,1,0,0:0:0:0:
475,192,498232,1,0,0:0:0:0:
182,192,498232,1,0,0:0:0:0:
109,192,498300,1,0,0:0:0:0:
329,192,498300,1,0,0:0:0:0:
36,192,498300,1,0,0:0:0:0:
475,192,498368,1,0,0:0:0:0:
402,192,498368,1,0,0:0:0:0:
256,192,498368,1,0,0:0:0:0:
109,192,498435,1,0,0:0:0:0:
182,192,498435,1,0,0:0:0:0:
36,192,498503,1,0,0:0:0:0:
329,192,498503,1,0,0:0:0:0:
402,192,498570,1,0,0:0:0:0:
182,192,498570,1,0,0:0:0:0:
256,192,498570,1,0,0:0:0:0:
109,192,498638,1,0,0:0:0:0:
36,192,498638,1,0,0:0:0:0:
475,192,498638,1,0,0:0:0:0:
329,192,498638,1,0,0:0:0:0:
182,192,498705,1,0,0:0:0:0:
475,192,498773,1,0,0:0:0:0:
402,192,498773,1,0,0:0:0:0:
256,192,498773,1,0,0:0:0:0:
329,192,498841,1,0,0:0:0:0:
109,192,498841,1,0,0:0:0:0:
36,192,498841,1,0,0:0:0:0:
402,192,498908,1,0,0:0:0:0:
475,192,498908,1,0,0:0:0:0:
182,192,498908,1,0,0:0:0:0:
256,192,498908,1,0,0:0:0:0:
36,192,498976,1,0,0:0:0:0:
109,192,498976,1,0,0:0:0:0:
402,192,499043,1,0,0:0:0:0:
475,192,499043,1,0,0:0:0:0:
256,192,499043,1,0,0:0:0:0:
329,192,499043,1,0,0:0:0:0:
109,192,499111,1,0,0:0:0:0:
182,192,499111,1,0,0:0:0:0:
402,192,499178,1,0,0:0:0:0:
475,192,499178,1,0,0:0:0:0:
36,192,499178,1,0,0:0:0:0:
329,192,499178,1,0,0:0:0:0:
256,192,499246,1,0,0:0:0:0:
36,192,499314,1,0,0:0:0:0:
109,192,499314,1,0,0:0:0:0:
182,192,499314,1,0,0:0:0:0:
329,192,499381,1,0,0:0:0:0:
256,192,499449,1,0,0:0:0:0:
475,192,499449,1,0,0:0:0:0:
402,192,499449,1,0,0:0:0:0:
182,192,499516,1,0,0:0:0:0:
402,192,499584,1,0,0:0:0:0:
475,192,499584,1,0,0:0:0:0:
256,192,499584,1,0,0:0:0:0:
109,192,499584,1,0,0:0:0:0:
36,192,499584,1,0,0:0:0:0:
329,192,499584,1,0,0:0:0:0:
182,192,499651,1,0,0:0:0:0:
329,192,499719,1,0,0:0:0:0:
402,192,499787,1,0,0:0:0:0:
329,192,499854,1,0,0:0:0:0:
256,192,499922,1,0,0:0:0:0:
475,192,499989,1,0,0:0:0:0:
182,192,499989,1,0,0:0:0:0:
402,192,499989,1,0,0:0:0:0:
109,192,499989,1,0,0:0:0:0:
36,192,499989,1,0,0:0:0:0:
256,192,500057,1,0,0:0:0:0:
109,192,500124,1,0,0:0:0:0:
36,192,500124,1,0,0:0:0:0:
329,192,500124,1,0,0:0:0:0:
402,192,500124,1,0,0:0:0:0:
475,192,500124,1,0,0:0:0:0:
182,192,500124,1,0,0:0:0:0:
329,192,500395,1,0,0:0:0:0:
402,192,500395,1,0,0:0:0:0:
475,192,500395,1,0,0:0:0:0:
182,192,500395,1,0,0:0:0:0:
109,192,500395,1,0,0:0:0:0:
36,192,500395,1,0,0:0:0:0:
402,192,500530,1,0,0:0:0:0:
475,192,500530,1,0,0:0:0:0:
36,192,500530,1,0,0:0:0:0:
109,192,500530,1,0,0:0:0:0:
329,192,500597,1,0,0:0:0:0:
182,192,500597,1,0,0:0:0:0:
402,192,500665,1,0,0:0:0:0:
475,192,500665,1,0,0:0:0:0:
109,192,500665,1,0,0:0:0:0:
36,192,500665,1,0,0:0:0:0:
329,192,500732,1,0,0:0:0:0:
182,192,500732,1,0,0:0:0:0:
402,192,500800,1,0,0:0:0:0:
475,192,500800,1,0,0:0:0:0:
109,192,500800,1,0,0:0:0:0:
36,192,500800,1,0,0:0:0:0:
329,192,500834,1,0,0:0:0:0:
256,192,500868,1,0,0:0:0:0:
182,192,500901,1,0,0:0:0:0:
402,192,500935,1,0,0:0:0:0:
475,192,500935,1,0,0:0:0:0:
109,192,500935,1,0,0:0:0:0:
36,192,500935,1,0,0:0:0:0:
329,192,501003,1,0,0:0:0:0:
182,192,501003,1,0,0:0:0:0:
402,192,501070,1,0,0:0:0:0:
475,192,501070,1,0,0:0:0:0:
109,192,501070,1,0,0:0:0:0:
36,192,501070,1,0,0:0:0:0:
329,192,501205,1,0,0:0:0:0:
256,192,501205,1,0,0:0:0:0:
182,192,501205,1,0,0:0:0:0:
402,192,501341,1,0,0:0:0:0:
109,192,501341,1,0,0:0:0:0:
402,192,501611,1,0,0:0:0:0:
475,192,501611,1,0,0:0:0:0:
182,192,501611,1,0,0:0:0:0:
36,192,501611,1,0,0:0:0:0:
109,192,501611,1,0,0:0:0:0:
329,192,501678,1,0,0:0:0:0:
256,192,501678,1,0,0:0:0:0:
475,192,501746,1,0,0:0:0:0:
36,192,501746,1,0,0:0:0:0:
109,192,501746,1,0,0:0:0:0:
329,192,501814,1,0,0:0:0:0:
182,192,501814,1,0,0:0:0:0:
475,192,501881,1,0,0:0:0:0:
36,192,501881,1,0,0:0:0:0:
256,192,501881,1,0,0:0:0:0:
402,192,501881,1,0,0:0:0:0:
182,192,501949,1,0,0:0:0:0:
109,192,501949,1,0,0:0:0:0:
475,192,502016,1,0,0:0:0:0:
402,192,502016,1,0,0:0:0:0:
329,192,502016,1,0,0:0:0:0:
182,192,502084,1,0,0:0:0:0:
256,192,502084,1,0,0:0:0:0:
329,192,502151,1,0,0:0:0:0:
475,192,502151,1,0,0:0:0:0:
109,192,502151,1,0,0:0:0:0:
36,192,502151,1,0,0:0:0:0:
402,192,502219,1,0,0:0:0:0:
182,192,502219,1,0,0:0:0:0:
109,192,502287,1,0,0:0:0:0:
36,192,502287,1,0,0:0:0:0:
256,192,502287,1,0,0:0:0:0:
475,192,502354,1,0,0:0:0:0:
329,192,502354,1,0,0:0:0:0:
402,192,502422,1,0,0:0:0:0:
109,192,502422,1,0,0:0:0:0:
256,192,502422,1,0,0:0:0:0:
182,192,502422,1,0,0:0:0:0:
329,192,502489,1,0,0:0:0:0:
36,192,502489,1,0,0:0:0:0:
475,192,502557,1,0,0:0:0:0:
182,192,502557,1,0,0:0:0:0:
256,192,502557,1,0,0:0:0:0:
109,192,502624,1,0,0:0:0:0:
402,192,502624,1,0,0:0:0:0:
256,192,502692,1,0,0:0:0:0:
475,192,502692,1,0,0:0:0:0:
36,192,502692,1,0,0:0:0:0:
329,192,502692,1,0,0:0:0:0:
109,192,502759,1,0,0:0:0:0:
182,192,502759,1,0,0:0:0:0:
475,192,502827,1,0,0:0:0:0:
402,192,502827,1,0,0:0:0:0:
329,192,502827,1,0,0:0:0:0:
36,192,502895,1,0,0:0:0:0:
256,192,502895,1,0,0:0:0:0:
402,192,502962,1,0,0:0:0:0:
475,192,502962,1,0,0:0:0:0:
109,192,502962,1,0,0:0:0:0:
182,192,502962,1,0,0:0:0:0:
329,192,503030,1,0,0:0:0:0:
256,192,503030,1,0,0:0:0:0:
475,192,503097,1,0,0:0:0:0:
109,192,503097,1,0,0:0:0:0:
36,192,503097,1,0,0:0:0:0:
182,192,503165,1,0,0:0:0:0:
256,192,503165,1,0,0:0:0:0:
402,192,503232,1,0,0:0:0:0:
475,192,503232,1,0,0:0:0:0:
329,192,503232,1,0,0:0:0:0:
109,192,503232,1,0,0:0:0:0:
36,192,503232,1,0,0:0:0:0:
256,192,503300,1,0,0:0:0:0:
475,192,503368,1,0,0:0:0:0:
329,192,503368,1,0,0:0:0:0:
402,192,503368,1,0,0:0:0:0:
109,192,503368,1,0,0:0:0:0:
36,192,503368,1,0,0:0:0:0:
182,192,503435,1,0,0:0:0:0:
475,192,503503,1,0,0:0:0:0:
402,192,503503,1,0,0:0:0:0:
256,192,503503,1,0,0:0:0:0:
109,192,503503,1,0,0:0:0:0:
36,192,503503,1,0,0:0:0:0:
329,192,503570,1,0,0:0:0:0:
402,192,503638,1,0,0:0:0:0:
256,192,503638,1,0,0:0:0:0:
182,192,503638,1,0,0:0:0:0:
36,192,503705,1,0,0:0:0:0:
109,192,503705,1,0,0:0:0:0:
475,192,503773,1,0,0:0:0:0:
256,192,503773,1,0,0:0:0:0:
182,192,503773,1,0,0:0:0:0:
329,192,503773,1,0,0:0:0:0:
402,192,503841,1,0,0:0:0:0:
109,192,503841,1,0,0:0:0:0:
182,192,503908,1,0,0:0:0:0:
329,192,503908,1,0,0:0:0:0:
36,192,503908,1,0,0:0:0:0:
475,192,503976,1,0,0:0:0:0:
256,192,503976,1,0,0:0:0:0:
36,192,504043,1,0,0:0:0:0:
329,192,504043,1,0,0:0:0:0:
402,192,504043,1,0,0:0:0:0:
109,192,504043,1,0,0:0:0:0:
256,192,504111,1,0,0:0:0:0:
182,192,504111,1,0,0:0:0:0:
109,192,504178,1,0,0:0:0:0:
475,192,504178,1,0,0:0:0:0:
402,192,504178,1,0,0:0:0:0:
329,192,504246,1,0,0:0:0:0:
256,192,504246,1,0,0:0:0:0:
402,192,504314,1,0,0:0:0:0:
475,192,504314,1,0,0:0:0:0:
182,192,504314,1,0,0:0:0:0:
36,192,504314,1,0,0:0:0:0:
329,192,504381,1,0,0:0:0:0:
109,192,504381,1,0,0:0:0:0:
475,192,504449,1,0,0:0:0:0:
182,192,504449,1,0,0:0:0:0:
256,192,504449,1,0,0:0:0:0:
36,192,504516,1,0,0:0:0:0:
329,192,504516,1,0,0:0:0:0:
402,192,504584,1,0,0:0:0:0:
256,192,504584,1,0,0:0:0:0:
109,192,504584,1,0,0:0:0:0:
182,192,504584,1,0,0:0:0:0:
329,192,504651,1,0,0:0:0:0:
475,192,504651,1,0,0:0:0:0:
256,192,504719,1,0,0:0:0:0:
109,192,504719,1,0,0:0:0:0:
36,192,504719,1,0,0:0:0:0:
182,192,504787,1,0,0:0:0:0:
402,192,504787,1,0,0:0:0:0:
256,192,504854,1,0,0:0:0:0:
36,192,504854,1,0,0:0:0:0:
329,192,504854,1,0,0:0:0:0:
475,192,504854,1,0,0:0:0:0:
182,192,504922,1,0,0:0:0:0:
109,192,504922,1,0,0:0:0:0:
329,192,504989,1,0,0:0:0:0:
475,192,504989,1,0,0:0:0:0:
402,192,504989,1,0,0:0:0:0:
36,192,505057,1,0,0:0:0:0:
256,192,505057,1,0,0:0:0:0:
329,192,505124,1,0,0:0:0:0:
475,192,505124,1,0,0:0:0:0:
182,192,505124,1,0,0:0:0:0:
109,192,505124,1,0,0:0:0:0:
402,192,505124,1,0,0:0:0:0:
402,192,505259,1,0,0:0:0:0:
475,192,505259,1,0,0:0:0:0:
329,192,505259,1,0,0:0:0:0:
109,192,505259,1,0,0:0:0:0:
182,192,505259,1,0,0:0:0:0:
402,192,505395,1,0,0:0:0:0:
182,192,505395,1,0,0:0:0:0:
329,192,505395,1,0,0:0:0:0:
36,192,505395,1,0,0:0:0:0:
256,192,505395,1,0,0:0:0:0:
36,192,505530,1,0,0:0:0:0:
182,192,505530,1,0,0:0:0:0:
402,192,505530,1,0,0:0:0:0:
256,192,505530,1,0,0:0:0:0:
329,192,505530,1,0,0:0:0:0:
329,192,505665,1,0,0:0:0:0:
475,192,505665,1,0,0:0:0:0:
36,192,505665,1,0,0:0:0:0:
182,192,505665,1,0,0:0:0:0:
109,192,505665,1,0,0:0:0:0:
402,192,505732,1,0,0:0:0:0:
256,192,505732,1,0,0:0:0:0:
329,192,505800,1,0,0:0:0:0:
182,192,505800,1,0,0:0:0:0:
109,192,505800,1,0,0:0:0:0:
36,192,505868,1,0,0:0:0:0:
256,192,505868,1,0,0:0:0:0:
475,192,505935,1,0,0:0:0:0:
329,192,505935,1,0,0:0:0:0:
182,192,505935,1,0,0:0:0:0:
402,192,505935,1,0,0:0:0:0:
256,192,506003,1,0,0:0:0:0:
109,192,506003,1,0,0:0:0:0:
182,192,506070,1,0,0:0:0:0:
475,192,506070,1,0,0:0:0:0:
402,192,506070,1,0,0:0:0:0:
329,192,506138,1,0,0:0:0:0:
36,192,506138,1,0,0:0:0:0:
256,192,506205,1,0,0:0:0:0:
475,192,506205,1,0,0:0:0:0:
109,192,506205,1,0,0:0:0:0:
182,192,506205,1,0,0:0:0:0:
402,192,506273,1,0,0:0:0:0:
329,192,506273,1,0,0:0:0:0:
256,192,506341,1,0,0:0:0:0:
109,192,506341,1,0,0:0:0:0:
36,192,506341,1,0,0:0:0:0:
475,192,506408,1,0,0:0:0:0:
402,192,506408,1,0,0:0:0:0:
109,192,506476,1,0,0:0:0:0:
36,192,506476,1,0,0:0:0:0:
182,192,506476,1,0,0:0:0:0:
329,192,506476,1,0,0:0:0:0:
402,192,506543,1,0,0:0:0:0:
256,192,506543,1,0,0:0:0:0:
182,192,506611,1,0,0:0:0:0:
329,192,506611,1,0,0:0:0:0:
475,192,506611,1,0,0:0:0:0:
36,192,506678,1,0,0:0:0:0:
109,192,506678,1,0,0:0:0:0:
402,192,506746,1,0,0:0:0:0:
475,192,506746,1,0,0:0:0:0:
256,192,506746,1,0,0:0:0:0:
329,192,506746,1,0,0:0:0:0:
109,192,506814,1,0,0:0:0:0:
182,192,506814,1,0,0:0:0:0:
475,192,506881,1,0,0:0:0:0:
402,192,506881,1,0,0:0:0:0:
329,192,506881,1,0,0:0:0:0:
182,192,506949,1,0,0:0:0:0:
256,192,506949,1,0,0:0:0:0:
402,192,507016,1,0,0:0:0:0:
475,192,507016,1,0,0:0:0:0:
36,192,507016,1,0,0:0:0:0:
109,192,507016,1,0,0:0:0:0:
329,192,507084,1,0,0:0:0:0:
182,192,507084,1,0,0:0:0:0:
256,192,507151,1,0,0:0:0:0:
36,192,507151,1,0,0:0:0:0:
109,192,507151,1,0,0:0:0:0:
475,192,507219,1,0,0:0:0:0:
329,192,507219,1,0,0:0:0:0:
256,192,507287,1,0,0:0:0:0:
402,192,507287,1,0,0:0:0:0:
182,192,507287,1,0,0:0:0:0:
109,192,507287,1,0,0:0:0:0:
36,192,507354,1,0,0:0:0:0:
329,192,507354,1,0,0:0:0:0:
475,192,507422,1,0,0:0:0:0:
182,192,507422,1,0,0:0:0:0:
109,192,507422,1,0,0:0:0:0:
256,192,507489,1,0,0:0:0:0:
402,192,507489,1,0,0:0:0:0:
329,192,507557,1,0,0:0:0:0:
475,192,507557,1,0,0:0:0:0:
182,192,507557,1,0,0:0:0:0:
36,192,507557,1,0,0:0:0:0:
256,192,507624,1,0,0:0:0:0:
109,192,507624,1,0,0:0:0:0:
182,192,507692,1,0,0:0:0:0:
475,192,507692,1,0,0:0:0:0:
402,192,507692,1,0,0:0:0:0:
256,192,507759,1,0,0:0:0:0:
329,192,507759,1,0,0:0:0:0:
182,192,507827,1,0,0:0:0:0:
475,192,507827,1,0,0:0:0:0:
36,192,507827,1,0,0:0:0:0:
109,192,507827,1,0,0:0:0:0:
329,192,507895,1,0,0:0:0:0:
402,192,507895,1,0,0:0:0:0:
109,192,507962,1,0,0:0:0:0:
36,192,507962,1,0,0:0:0:0:
256,192,507962,1,0,0:0:0:0:
475,192,508030,1,0,0:0:0:0:
182,192,508030,1,0,0:0:0:0:
256,192,508097,1,0,0:0:0:0:
36,192,508097,1,0,0:0:0:0:
402,192,508097,1,0,0:0:0:0:
329,192,508097,1,0,0:0:0:0:
109,192,508165,1,0,0:0:0:0:
182,192,508165,1,0,0:0:0:0:
475,192,508232,1,0,0:0:0:0:
402,192,508232,1,0,0:0:0:0:
329,192,508232,1,0,0:0:0:0:
182,192,508300,1,0,0:0:0:0:
256,192,508300,1,0,0:0:0:0:
402,192,508368,1,0,0:0:0:0:
475,192,508368,1,0,0:0:0:0:
36,192,508368,1,0,0:0:0:0:
109,192,508368,1,0,0:0:0:0:
329,192,508435,1,0,0:0:0:0:
182,192,508435,1,0,0:0:0:0:
402,192,508503,1,0,0:0:0:0:
36,192,508503,1,0,0:0:0:0:
256,192,508503,1,0,0:0:0:0:
182,192,508570,1,0,0:0:0:0:
109,192,508570,1,0,0:0:0:0:
256,192,508638,1,0,0:0:0:0:
36,192,508638,1,0,0:0:0:0:
329,192,508638,1,0,0:0:0:0:
475,192,508638,1,0,0:0:0:0:
402,192,508705,1,0,0:0:0:0:
109,192,508705,1,0,0:0:0:0:
329,192,508773,1,0,0:0:0:0:
256,192,508773,1,0,0:0:0:0:
182,192,508773,1,0,0:0:0:0:
402,192,508841,1,0,0:0:0:0:
475,192,508841,1,0,0:0:0:0:
182,192,508908,1,0,0:0:0:0:
329,192,508908,1,0,0:0:0:0:
36,192,508908,1,0,0:0:0:0:
109,192,508908,1,0,0:0:0:0:
475,192,508976,1,0,0:0:0:0:
256,192,508976,1,0,0:0:0:0:
109,192,509043,1,0,0:0:0:0:
36,192,509043,1,0,0:0:0:0:
402,192,509043,1,0,0:0:0:0:
256,192,509111,1,0,0:0:0:0:
182,192,509111,1,0,0:0:0:0:
402,192,509178,1,0,0:0:0:0:
36,192,509178,1,0,0:0:0:0:
329,192,509178,1,0,0:0:0:0:
475,192,509178,1,0,0:0:0:0:
182,192,509246,1,0,0:0:0:0:
109,192,509246,1,0,0:0:0:0:
475,192,509314,1,0,0:0:0:0:
329,192,509314,1,0,0:0:0:0:
256,192,509314,1,0,0:0:0:0:
109,192,509381,1,0,0:0:0:0:
36,192,509381,1,0,0:0:0:0:
475,192,509449,1,0,0:0:0:0:
256,192,509449,1,0,0:0:0:0:
402,192,509449,1,0,0:0:0:0:
182,192,509449,1,0,0:0:0:0:
329,192,509449,1,0,0:0:0:0:
182,192,509584,1,0,0:0:0:0:
329,192,509584,1,0,0:0:0:0:
36,192,509584,1,0,0:0:0:0:
109,192,509584,1,0,0:0:0:0:
256,192,509584,1,0,0:0:0:0:
36,192,509719,1,0,0:0:0:0:
109,192,509719,1,0,0:0:0:0:
402,192,509719,1,0,0:0:0:0:
475,192,509719,1,0,0:0:0:0:
329,192,509787,1,0,0:0:0:0:
256,192,509787,1,0,0:0:0:0:
182,192,509787,1,0,0:0:0:0:
402,192,509854,1,0,0:0:0:0:
475,192,509854,1,0,0:0:0:0:
109,192,509854,1,0,0:0:0:0:
36,192,509854,1,0,0:0:0:0:
329,192,509922,1,0,0:0:0:0:
256,192,509922,1,0,0:0:0:0:
182,192,509922,1,0,0:0:0:0:
402,192,509989,1,0,0:0:0:0:
475,192,509989,1,0,0:0:0:0:
109,192,509989,1,0,0:0:0:0:
36,192,509989,1,0,0:0:0:0:
256,192,510057,1,0,0:0:0:0:
329,192,510057,1,0,0:0:0:0:
475,192,510124,1,0,0:0:0:0:
109,192,510124,1,0,0:0:0:0:
182,192,510124,1,0,0:0:0:0:
36,192,510192,1,0,0:0:0:0:
402,192,510192,1,0,0:0:0:0:
256,192,510259,1,0,0:0:0:0:
329,192,510259,1,0,0:0:0:0:
109,192,510259,1,0,0:0:0:0:
182,192,510259,1,0,0:0:0:0:
402,192,510327,1,0,0:0:0:0:
475,192,510327,1,0,0:0:0:0:
182,192,510395,1,0,0:0:0:0:
256,192,510395,1,0,0:0:0:0:
36,192,510395,1,0,0:0:0:0:
329,192,510462,1,0,0:0:0:0:
109,192,510462,1,0,0:0:0:0:
475,192,510530,1,0,0:0:0:0:
36,192,510530,1,0,0:0:0:0:
256,192,510530,1,0,0:0:0:0:
402,192,510530,1,0,0:0:0:0:
329,192,510597,1,0,0:0:0:0:
182,192,510597,1,0,0:0:0:0:
256,192,510665,1,0,0:0:0:0:
475,192,510665,1,0,0:0:0:0:
109,192,510665,1,0,0:0:0:0:
182,192,510732,1,0,0:0:0:0:
402,192,510732,1,0,0:0:0:0:
329,192,510800,1,0,0:0:0:0:
475,192,510800,1,0,0:0:0:0:
36,192,510800,1,0,0:0:0:0:
256,192,510800,1,0,0:0:0:0:
182,192,510868,1,0,0:0:0:0:
109,192,510868,1,0,0:0:0:0:
329,192,510935,1,0,0:0:0:0:
402,192,510935,1,0,0:0:0:0:
36,192,511003,1,0,0:0:0:0:
256,192,511003,1,0,0:0:0:0:
402,192,511070,1,0,0:0:0:0:
475,192,511070,1,0,0:0:0:0:
109,192,511070,1,0,0:0:0:0:
182,192,511070,1,0,0:0:0:0:
36,192,511138,1,0,0:0:0:0:
329,192,511138,1,0,0:0:0:0:
475,192,511205,1,0,0:0:0:0:
182,192,511205,1,0,0:0:0:0:
256,192,511205,1,0,0:0:0:0:
109,192,511273,1,0,0:0:0:0:
402,192,511273,1,0,0:0:0:0:
256,192,511341,1,0,0:0:0:0:
329,192,511341,1,0,0:0:0:0:
36,192,511341,1,0,0:0:0:0:
182,192,511341,1,0,0:0:0:0:
475,192,511408,1,0,0:0:0:0:
402,192,511408,1,0,0:0:0:0:
256,192,511476,1,0,0:0:0:0:
109,192,511476,1,0,0:0:0:0:
36,192,511476,1,0,0:0:0:0:
182,192,511543,1,0,0:0:0:0:
329,192,511543,1,0,0:0:0:0:
475,192,511611,1,0,0:0:0:0:
109,192,511611,1,0,0:0:0:0:
256,192,511611,1,0,0:0:0:0:
402,192,511611,1,0,0:0:0:0:
182,192,511678,1,0,0:0:0:0:
36,192,511678,1,0,0:0:0:0:
402,192,511746,1,0,0:0:0:0:
475,192,511746,1,0,0:0:0:0:
329,192,511746,1,0,0:0:0:0:
182,192,511814,1,0,0:0:0:0:
256,192,511814,1,0,0:0:0:0:
402,192,511881,1,0,0:0:0:0:
475,192,511881,1,0,0:0:0:0:
36,192,511881,1,0,0:0:0:0:
109,192,511881,1,0,0:0:0:0:
256,192,511949,1,0,0:0:0:0:
329,192,511949,1,0,0:0:0:0:
36,192,512016,1,0,0:0:0:0:
109,192,512016,1,0,0:0:0:0:
182,192,512016,1,0,0:0:0:0:
475,192,512084,1,0,0:0:0:0:
329,192,512084,1,0,0:0:0:0:
36,192,512151,1,0,0:0:0:0:
109,192,512151,1,0,0:0:0:0:
402,192,512151,1,0,0:0:0:0:
256,192,512151,1,0,0:0:0:0:
329,192,512219,1,0,0:0:0:0:
182,192,512219,1,0,0:0:0:0:
256,192,512287,1,0,0:0:0:0:
475,192,512287,1,0,0:0:0:0:
402,192,512287,1,0,0:0:0:0:
182,192,512354,1,0,0:0:0:0:
36,192,512354,1,0,0:0:0:0:
256,192,512422,1,0,0:0:0:0:
475,192,512422,1,0,0:0:0:0:
109,192,512422,1,0,0:0:0:0:
329,192,512422,1,0,0:0:0:0:
182,192,512489,1,0,0:0:0:0:
402,192,512489,1,0,0:0:0:0:
329,192,512557,1,0,0:0:0:0:
109,192,512557,1,0,0:0:0:0:
36,192,512557,1,0,0:0:0:0:
475,192,512624,1,0,0:0:0:0:
256,192,512624,1,0,0:0:0:0:
182,192,512692,1,0,0:0:0:0:
36,192,512692,1,0,0:0:0:0:
402,192,512692,1,0,0:0:0:0:
329,192,512692,1,0,0:0:0:0:
256,192,512759,1,0,0:0:0:0:
109,192,512759,1,0,0:0:0:0:
182,192,512827,1,0,0:0:0:0:
475,192,512827,1,0,0:0:0:0:
402,192,512827,1,0,0:0:0:0:
36,192,512895,1,0,0:0:0:0:
329,192,512895,1,0,0:0:0:0:
182,192,512962,1,0,0:0:0:0:
475,192,512962,1,0,0:0:0:0:
109,192,512962,1,0,0:0:0:0:
256,192,512962,1,0,0:0:0:0:
329,192,513030,1,0,0:0:0:0:
402,192,513030,1,0,0:0:0:0:
256,192,513097,1,0,0:0:0:0:
109,192,513097,1,0,0:0:0:0:
36,192,513097,1,0,0:0:0:0:
475,192,513165,1,0,0:0:0:0:
402,192,513165,1,0,0:0:0:0:
36,192,513232,1,0,0:0:0:0:
329,192,513232,1,0,0:0:0:0:
182,192,513232,1,0,0:0:0:0:
109,192,513232,1,0,0:0:0:0:
402,192,513300,1,0,0:0:0:0:
256,192,513300,1,0,0:0:0:0:
329,192,513368,1,0,0:0:0:0:
475,192,513368,1,0,0:0:0:0:
182,192,513368,1,0,0:0:0:0:
256,192,513435,1,0,0:0:0:0:
109,192,513435,1,0,0:0:0:0:
402,192,513503,1,0,0:0:0:0:
475,192,513503,1,0,0:0:0:0:
36,192,513503,1,0,0:0:0:0:
182,192,513503,1,0,0:0:0:0:
256,192,513570,1,0,0:0:0:0:
329,192,513570,1,0,0:0:0:0:
402,192,513638,1,0,0:0:0:0:
109,192,513638,1,0,0:0:0:0:
36,192,513638,1,0,0:0:0:0:
329,192,513705,1,0,0:0:0:0:
182,192,513705,1,0,0:0:0:0:
402,192,513773,1,0,0:0:0:0:
36,192,513773,1,0,0:0:0:0:
475,192,513773,1,0,0:0:0:0:
256,192,513773,1,0,0:0:0:0:
182,192,513841,1,0,0:0:0:0:
109,192,513841,1,0,0:0:0:0:
256,192,513908,1,0,0:0:0:0:
475,192,513908,1,0,0:0:0:0:
329,192,513908,1,0,0:0:0:0:
182,192,513976,1,0,0:0:0:0:
36,192,513976,1,0,0:0:0:0:
329,192,514043,1,0,0:0:0:0:
109,192,514043,1,0,0:0:0:0:
402,192,514043,1,0,0:0:0:0:
475,192,514043,1,0,0:0:0:0:
182,192,514111,1,0,0:0:0:0:
256,192,514111,1,0,0:0:0:0:
475,192,514178,1,0,0:0:0:0:
402,192,514178,1,0,0:0:0:0:
36,192,514178,1,0,0:0:0:0:
109,192,514246,1,0,0:0:0:0:
256,192,514246,1,0,0:0:0:0:
475,192,514314,1,0,0:0:0:0:
402,192,514314,1,0,0:0:0:0:
182,192,514314,1,0,0:0:0:0:
329,192,514314,1,0,0:0:0:0:
256,192,514381,1,0,0:0:0:0:
109,192,514381,1,0,0:0:0:0:
36,192,514381,1,0,0:0:0:0:
475,192,514449,1,0,0:0:0:0:
329,192,514449,1,0,0:0:0:0:
402,192,514449,1,0,0:0:0:0:
36,192,514516,1,0,0:0:0:0:
109,192,514516,1,0,0:0:0:0:
182,192,514516,1,0,0:0:0:0:
475,192,514584,1,0,0:0:0:0:
329,192,514584,1,0,0:0:0:0:
256,192,514584,1,0,0:0:0:0:
402,192,514651,1,0,0:0:0:0:
109,192,514651,1,0,0:0:0:0:
182,192,514651,1,0,0:0:0:0:
36,192,514719,1,0,0:0:0:0:
329,192,514719,1,0,0:0:0:0:
256,192,514719,1,0,0:0:0:0:
475,192,514787,1,0,0:0:0:0:
402,192,514787,1,0,0:0:0:0:
182,192,514787,1,0,0:0:0:0:
256,192,514854,1,0,0:0:0:0:
36,192,514854,1,0,0:0:0:0:
109,192,514854,1,0,0:0:0:0:
475,192,514922,1,0,0:0:0:0:
402,192,514922,1,0,0:0:0:0:
329,192,514922,1,0,0:0:0:0:
36,192,514989,1,0,0:0:0:0:
109,192,514989,1,0,0:0:0:0:
182,192,514989,1,0,0:0:0:0:
475,192,515057,1,0,0:0:0:0:
329,192,515057,1,0,0:0:0:0:
256,192,515057,1,0,0:0:0:0:
109,192,515124,1,0,0:0:0:0:
182,192,515124,1,0,0:0:0:0:
402,192,515124,1,0,0:0:0:0:
329,192,515192,1,0,0:0:0:0:
256,192,515192,1,0,0:0:0:0:
36,192,515192,1,0,0:0:0:0:
475,192,515259,1,0,0:0:0:0:
402,192,515259,1,0,0:0:0:0:
182,192,515259,1,0,0:0:0:0:
256,192,515327,1,0,0:0:0:0:
36,192,515327,1,0,0:0:0:0:
109,192,515327,1,0,0:0:0:0:
402,192,515395,1,0,0:0:0:0:
329,192,515395,1,0,0:0:0:0:
182,192,515395,1,0,0:0:0:0:
36,192,515462,1,0,0:0:0:0:
256,192,515462,1,0,0:0:0:0:
475,192,515462,1,0,0:0:0:0:
329,192,515530,1,0,0:0:0:0:
182,192,515530,1,0,0:0:0:0:
109,192,515530,1,0,0:0:0:0:
256,192,515597,1,0,0:0:0:0:
475,192,515597,1,0,0:0:0:0:
402,192,515597,1,0,0:0:0:0:
182,192,515665,1,0,0:0:0:0:
109,192,515665,1,0,0:0:0:0:
36,192,515665,1,0,0:0:0:0:
402,192,515732,1,0,0:0:0:0:
329,192,515732,1,0,0:0:0:0:
256,192,515732,1,0,0:0:0:0:
36,192,515800,1,0,0:0:0:0:
182,192,515800,1,0,0:0:0:0:
109,192,515800,1,0,0:0:0:0:
475,192,515868,1,0,0:0:0:0:
402,192,515868,1,0,0:0:0:0:
329,192,515868,1,0,0:0:0:0:
109,192,515935,1,0,0:0:0:0:
182,192,515935,1,0,0:0:0:0:
256,192,515935,1,0,0:0:0:0:
475,192,516003,1,0,0:0:0:0:
402,192,516003,1,0,0:0:0:0:
329,192,516003,1,0,0:0:0:0:
256,192,516070,1,0,0:0:0:0:
109,192,516070,1,0,0:0:0:0:
36,192,516070,1,0,0:0:0:0:
402,192,516138,1,0,0:0:0:0:
329,192,516138,1,0,0:0:0:0:
182,192,516138,1,0,0:0:0:0:
36,192,516205,1,0,0:0:0:0:
475,192,516205,1,0,0:0:0:0:
256,192,516205,1,0,0:0:0:0:
329,192,516273,1,0,0:0:0:0:
182,192,516273,1,0,0:0:0:0:
109,192,516273,1,0,0:0:0:0:
475,192,516341,1,0,0:0:0:0:
402,192,516341,1,0,0:0:0:0:
256,192,516341,1,0,0:0:0:0:
182,192,516408,1,0,0:0:0:0:
109,192,516408,1,0,0:0:0:0:
36,192,516408,1,0,0:0:0:0:
402,192,516476,1,0,0:0:0:0:
475,192,516476,1,0,0:0:0:0:
256,192,516476,1,0,0:0:0:0:
329,192,516476,1,0,0:0:0:0:
475,192,517016,1,0,0:0:0:0:
402,192,517016,1,0,0:0:0:0:
329,192,517016,1,0,0:0:0:0:
475,192,517557,1,0,0:0:0:0:
256,192,517557,1,0,0:0:0:0:
109,192,517557,1,0,0:0:0:0:
402,192,517557,1,0,0:0:0:0:
36,192,517557,1,0,0:0:0:0:
36,192,518097,1,0,0:0:0:0:
109,192,518097,1,0,0:0:0:0:
182,192,518097,1,0,0:0:0:0:
475,192,518638,1,0,0:0:0:0:
329,192,518638,1,0,0:0:0:0:
402,192,518638,1,0,0:0:0:0:
36,192,518638,1,0,0:0:0:0:
109,192,518638,1,0,0:0:0:0:
182,192,518705,1,0,0:0:0:0:
256,192,518705,1,0,0:0:0:0:
475,192,518773,1,0,0:0:0:0:
402,192,518773,1,0,0:0:0:0:
329,192,518773,1,0,0:0:0:0:
256,192,518841,1,0,0:0:0:0:
36,192,518841,1,0,0:0:0:0:
109,192,518841,1,0,0:0:0:0:
475,192,518908,1,0,0:0:0:0:
329,192,518908,1,0,0:0:0:0:
182,192,518908,1,0,0:0:0:0:
402,192,518908,1,0,0:0:0:0:
256,192,518976,1,0,0:0:0:0:
109,192,518976,1,0,0:0:0:0:
36,192,519043,1,0,0:0:0:0:
182,192,519043,1,0,0:0:0:0:
475,192,519043,1,0,0:0:0:0:
109,192,519111,1,0,0:0:0:0:
402,192,519111,1,0,0:0:0:0:
329,192,519111,1,0,0:0:0:0:
36,192,519178,1,0,0:0:0:0:
475,192,519178,1,0,0:0:0:0:
256,192,519178,1,0,0:0:0:0:
182,192,519178,1,0,0:0:0:0:
402,192,519246,1,0,0:0:0:0:
329,192,519246,1,0,0:0:0:0:
256,192,519314,1,0,0:0:0:0:
36,192,519314,1,0,0:0:0:0:
109,192,519314,1,0,0:0:0:0:
475,192,519381,1,0,0:0:0:0:
402,192,519381,1,0,0:0:0:0:
182,192,519381,1,0,0:0:0:0:
109,192,519449,1,0,0:0:0:0:
36,192,519449,1,0,0:0:0:0:
329,192,519449,1,0,0:0:0:0:
256,192,519449,1,0,0:0:0:0:
475,192,519516,1,0,0:0:0:0:
182,192,519516,1,0,0:0:0:0:
256,192,519584,1,0,0:0:0:0:
329,192,519584,1,0,0:0:0:0:
402,192,519584,1,0,0:0:0:0:
182,192,519651,1,0,0:0:0:0:
109,192,519651,1,0,0:0:0:0:
36,192,519651,1,0,0:0:0:0:
475,192,519719,1,0,0:0:0:0:
256,192,519719,1,0,0:0:0:0:
329,192,519719,1,0,0:0:0:0:
402,192,519719,1,0,0:0:0:0:
109,192,519787,1,0,0:0:0:0:
36,192,519787,1,0,0:0:0:0:
475,192,519854,1,0,0:0:0:0:
402,192,519854,1,0,0:0:0:0:
182,192,519854,1,0,0:0:0:0:
36,192,519922,1,0,0:0:0:0:
256,192,519922,1,0,0:0:0:0:
329,192,519922,1,0,0:0:0:0:
402,192,519989,1,0,0:0:0:0:
475,192,519989,1,0,0:0:0:0:
109,192,519989,1,0,0:0:0:0:
182,192,519989,1,0,0:0:0:0:
36,192,520057,1,0,0:0:0:0:
256,192,520057,1,0,0:0:0:0:
329,192,520124,1,0,0:0:0:0:
109,192,520124,1,0,0:0:0:0:
182,192,520124,1,0,0:0:0:0:
256,192,520192,1,0,0:0:0:0:
475,192,520192,1,0,0:0:0:0:
402,192,520192,1,0,0:0:0:0:
182,192,520259,1,0,0:0:0:0:
329,192,520259,1,0,0:0:0:0:
36,192,520259,1,0,0:0:0:0:
109,192,520259,1,0,0:0:0:0:
475,192,520327,1,0,0:0:0:0:
402,192,520327,1,0,0:0:0:0:
109,192,520395,1,0,0:0:0:0:
36,192,520395,1,0,0:0:0:0:
256,192,520395,1,0,0:0:0:0:
329,192,520462,1,0,0:0:0:0:
182,192,520462,1,0,0:0:0:0:
36,192,520530,1,0,0:0:0:0:
109,192,520530,1,0,0:0:0:0:
256,192,520530,1,0,0:0:0:0:
475,192,520597,1,0,0:0:0:0:
402,192,520597,1,0,0:0:0:0:
329,192,520597,1,0,0:0:0:0:
182,192,520665,1,0,0:0:0:0:
36,192,520665,1,0,0:0:0:0:
109,192,520665,1,0,0:0:0:0:
256,192,520732,1,0,0:0:0:0:
329,192,520732,1,0,0:0:0:0:
475,192,520732,1,0,0:0:0:0:
36,192,520800,1,0,0:0:0:0:
182,192,520800,1,0,0:0:0:0:
402,192,520800,1,0,0:0:0:0:
109,192,520800,1,0,0:0:0:0:
256,192,520868,1,0,0:0:0:0:
329,192,520868,1,0,0:0:0:0:
109,192,520935,1,0,0:0:0:0:
182,192,520935,1,0,0:0:0:0:
475,192,520935,1,0,0:0:0:0:
36,192,521003,1,0,0:0:0:0:
329,192,521003,1,0,0:0:0:0:
256,192,521003,1,0,0:0:0:0:
109,192,521070,1,0,0:0:0:0:
475,192,521070,1,0,0:0:0:0:
402,192,521070,1,0,0:0:0:0:
182,192,521070,1,0,0:0:0:0:
36,192,521138,1,0,0:0:0:0:
329,192,521138,1,0,0:0:0:0:
109,192,521205,1,0,0:0:0:0:
402,192,521205,1,0,0:0:0:0:
256,192,521205,1,0,0:0:0:0:
475,192,521273,1,0,0:0:0:0:
182,192,521273,1,0,0:0:0:0:
329,192,521273,1,0,0:0:0:0:
402,192,521341,1,0,0:0:0:0:
36,192,521341,1,0,0:0:0:0:
109,192,521341,1,0,0:0:0:0:
256,192,521341,1,0,0:0:0:0:
182,192,521408,1,0,0:0:0:0:
329,192,521408,1,0,0:0:0:0:
36,192,521476,1,0,0:0:0:0:
475,192,521476,1,0,0:0:0:0:
256,192,521476,1,0,0:0:0:0:
109,192,521543,1,0,0:0:0:0:
182,192,521543,1,0,0:0:0:0:
329,192,521543,1,0,0:0:0:0:
402,192,521611,1,0,0:0:0:0:
475,192,521611,1,0,0:0:0:0:
36,192,521611,1,0,0:0:0:0:
256,192,521611,1,0,0:0:0:0:
109,192,521678,1,0,0:0:0:0:
329,192,521678,1,0,0:0:0:0:
475,192,521746,1,0,0:0:0:0:
182,192,521746,1,0,0:0:0:0:
256,192,521746,1,0,0:0:0:0:
109,192,521814,1,0,0:0:0:0:
402,192,521814,1,0,0:0:0:0:
36,192,521814,1,0,0:0:0:0:
256,192,521881,1,0,0:0:0:0:
475,192,521881,1,0,0:0:0:0:
182,192,521881,1,0,0:0:0:0:
329,192,521881,1,0,0:0:0:0:
402,192,521949,1,0,0:0:0:0:
36,192,521949,1,0,0:0:0:0:
329,192,522016,1,0,0:0:0:0:
109,192,522016,1,0,0:0:0:0:
182,192,522016,1,0,0:0:0:0:
475,192,522084,1,0,0:0:0:0:
256,192,522084,1,0,0:0:0:0:
402,192,522084,1,0,0:0:0:0:
109,192,522151,1,0,0:0:0:0:
36,192,522151,1,0,0:0:0:0:
182,192,522151,1,0,0:0:0:0:
329,192,522151,1,0,0:0:0:0:
402,192,522219,1,0,0:0:0:0:
256,192,522219,1,0,0:0:0:0:
475,192,522287,1,0,0:0:0:0:
182,192,522287,1,0,0:0:0:0:
329,192,522287,1,0,0:0:0:0:
256,192,522354,1,0,0:0:0:0:
36,192,522354,1,0,0:0:0:0:
109,192,522354,1,0,0:0:0:0:
329,192,522422,1,0,0:0:0:0:
182,192,522422,1,0,0:0:0:0:
475,192,522422,1,0,0:0:0:0:
402,192,522422,1,0,0:0:0:0:
256,192,522489,1,0,0:0:0:0:
109,192,522489,1,0,0:0:0:0:
182,192,522557,1,0,0:0:0:0:
36,192,522557,1,0,0:0:0:0:
329,192,522557,1,0,0:0:0:0:
475,192,522624,1,0,0:0:0:0:
402,192,522624,1,0,0:0:0:0:
109,192,522624,1,0,0:0:0:0:
36,192,522692,1,0,0:0:0:0:
256,192,522692,1,0,0:0:0:0:
182,192,522692,1,0,0:0:0:0:
329,192,522692,1,0,0:0:0:0:
475,192,522759,1,0,0:0:0:0:
402,192,522759,1,0,0:0:0:0:
182,192,522827,1,0,0:0:0:0:
329,192,522827,1,0,0:0:0:0:
36,192,522827,1,0,0:0:0:0:
109,192,522827,1,0,0:0:0:0:
402,192,522895,1,0,0:0:0:0:
256,192,522895,1,0,0:0:0:0:
36,192,522962,1,0,0:0:0:0:
182,192,522962,1,0,0:0:0:0:
329,192,522962,1,0,0:0:0:0:
475,192,522962,1,0,0:0:0:0:
402,192,523030,1,0,0:0:0:0:
256,192,523030,1,0,0:0:0:0:
109,192,523030,1,0,0:0:0:0:
475,192,523097,1,0,0:0:0:0:
182,192,523097,1,0,0:0:0:0:
329,192,523097,1,0,0:0:0:0:
109,192,523165,1,0,0:0:0:0:
36,192,523165,1,0,0:0:0:0:
402,192,523165,1,0,0:0:0:0:
475,192,523232,1,0,0:0:0:0:
329,192,523232,1,0,0:0:0:0:
182,192,523232,1,0,0:0:0:0:
402,192,523300,1,0,0:0:0:0:
36,192,523300,1,0,0:0:0:0:
256,192,523300,1,0,0:0:0:0:
329,192,523368,1,0,0:0:0:0:
182,192,523368,1,0,0:0:0:0:
109,192,523368,1,0,0:0:0:0:
36,192,523435,1,0,0:0:0:0:
256,192,523435,1,0,0:0:0:0:
475,192,523435,1,0,0:0:0:0:
329,192,523503,1,0,0:0:0:0:
402,192,523503,1,0,0:0:0:0:
109,192,523503,1,0,0:0:0:0:
475,192,523570,1,0,0:0:0:0:
256,192,523570,1,0,0:0:0:0:
182,192,523570,1,0,0:0:0:0:
329,192,523638,1,0,0:0:0:0:
109,192,523638,1,0,0:0:0:0:
36,192,523638,1,0,0:0:0:0:
182,192,523705,1,0,0:0:0:0:
256,192,523705,1,0,0:0:0:0:
402,192,523705,1,0,0:0:0:0:
475,192,523773,1,0,0:0:0:0:
329,192,523773,1,0,0:0:0:0:
109,192,523773,1,0,0:0:0:0:
402,192,523841,1,0,0:0:0:0:
36,192,523841,1,0,0:0:0:0:
182,192,523841,1,0,0:0:0:0:
475,192,523908,1,0,0:0:0:0:
256,192,523908,1,0,0:0:0:0:
109,192,523908,1,0,0:0:0:0:
402,192,523976,1,0,0:0:0:0:
182,192,523976,1,0,0:0:0:0:
329,192,523976,1,0,0:0:0:0:
256,192,524043,1,0,0:0:0:0:
109,192,524043,1,0,0:0:0:0:
36,192,524043,1,0,0:0:0:0:
182,192,524111,1,0,0:0:0:0:
329,192,524111,1,0,0:0:0:0:
475,192,524111,1,0,0:0:0:0:
109,192,524178,1,0,0:0:0:0:
256,192,524178,1,0,0:0:0:0:
402,192,524178,1,0,0:0:0:0:
329,192,524246,1,0,0:0:0:0:
182,192,524246,1,0,0:0:0:0:
36,192,524246,1,0,0:0:0:0:
402,192,524314,1,0,0:0:0:0:
475,192,524314,1,0,0:0:0:0:
256,192,524314,1,0,0:0:0:0:
182,192,524381,1,0,0:0:0:0:
329,192,524381,1,0,0:0:0:0:
109,192,524381,1,0,0:0:0:0:
475,192,524449,1,0,0:0:0:0:
256,192,524449,1,0,0:0:0:0:
36,192,524449,1,0,0:0:0:0:
109,192,524516,1,0,0:0:0:0:
329,192,524516,1,0,0:0:0:0:
402,192,524516,1,0,0:0:0:0:
36,192,524584,1,0,0:0:0:0:
475,192,524584,1,0,0:0:0:0:
182,192,524584,1,0,0:0:0:0:
109,192,524651,1,0,0:0:0:0:
329,192,524651,1,0,0:0:0:0:
256,192,524651,1,0,0:0:0:0:
475,192,524719,1,0,0:0:0:0:
402,192,524719,1,0,0:0:0:0:
182,192,524719,1,0,0:0:0:0:
256,192,524787,1,0,0:0:0:0:
109,192,524787,1,0,0:0:0:0:
36,192,524787,1,0,0:0:0:0:
182,192,524854,1,0,0:0:0:0:
329,192,524854,1,0,0:0:0:0:
475,192,524854,1,0,0:0:0:0:
402,192,524922,1,0,0:0:0:0:
256,192,524922,1,0,0:0:0:0:
109,192,524922,1,0,0:0:0:0:
36,192,524989,1,0,0:0:0:0:
475,192,524989,1,0,0:0:0:0:
182,192,524989,1,0,0:0:0:0:
329,192,524989,1,0,0:0:0:0:
402,192,525057,1,0,0:0:0:0:
256,192,525057,1,0,0:0:0:0:
109,192,525057,1,0,0:0:0:0:
36,192,525124,1,0,0:0:0:0:
475,192,525124,1,0,0:0:0:0:
329,192,525124,1,0,0:0:0:0:
182,192,525124,1,0,0:0:0:0:
329,192,525665,1,0,0:0:0:0:
402,192,525665,1,0,0:0:0:0:
475,192,525665,1,0,0:0:0:0:
109,192,525665,1,0,0:0:0:0:
182,192,525665,1,0,0:0:0:0:
256,192,525665,1,0,0:0:0:0:
329,192,526341,1,0,0:0:0:0:
402,192,526341,1,0,0:0:0:0:
475,192,526341,1,0,0:0:0:0:
36,192,526341,1,0,0:0:0:0:
109,192,526341,1,0,0:0:0:0:
182,192,526341,1,0,0:0:0:0:
256,192,527016,1,0,0:0:0:0:
329,192,527016,1,0,0:0:0:0:
402,192,527016,1,0,0:0:0:0:
36,192,527016,1,0,0:0:0:0:
109,192,527016,1,0,0:0:0:0:
182,192,527016,1,0,0:0:0:0:
182,192,527692,1,0,0:0:0:0:
109,192,527692,128,0,532557:0:0:0:0:
36,192,527692,128,0,532557:0:0:0:0:
329,192,527692,1,0,0:0:0:0:
402,192,527692,1,0,0:0:0:0:
475,192,527692,1,0,0:0:0:0:
475,192,528278,1,0,0:0:0:0:
329,192,528458,1,0,0:0:0:0:
402,192,528638,1,0,0:0:0:0:
329,192,529899,1,0,0:0:0:0:
182,192,530079,1,0,0:0:0:0:
256,192,530259,1,0,0:0:0:0:
475,192,530440,1,0,0:0:0:0:
329,192,530620,1,0,0:0:0:0:
402,192,530800,1,0,0:0:0:0:
