osu file format v14

[General]
AudioFilename: audio.mp3
AudioLeadIn: 0
PreviewTime: 32435
Countdown: 0
SampleSet: Soft
StackLeniency: 0.7
Mode: 3
LetterboxInBreaks: 0
SpecialStyle: 0
WidescreenStoryboard: 0

[Editor]
DistanceSpacing: 0.3
BeatDivisor: 6
GridSize: 32
TimelineZoom: 2.2

[Metadata]
Title:Regular Dan Phase III
TitleUnicode:Regular Dan Phase III
Artist:osu!mania 7K Dan Course
ArtistUnicode:osu!mania 7K Dan Course
Creator:Jinjin
Version:9th Dan
Source:
Tags:rain- blocko jinjin spoonguy scytheleg gazer stellabee ubiquity ueotan mario paint time regression mix for bms helblinde solace of oblivion samba master satoh land puru toki maidable remix beta blue white crazystars getty vs dj dia fox4 raize shk identity part u1 high-speed egoism 440 vertex gamma silvia leaf paraclete manabu namiki tenshi true final boss goreshit najimi breakers dj technorch nijuu silentroom finixe rokina icicle stinger lunaticsounds rinjuu ereharmonika remixed by kors k der wald frums we want to run eleharmonica
BeatmapID:1942650
BeatmapSetID:930218

[Difficulty]
HPDrainRate:8
CircleSize:7
OverallDifficulty:8.5
ApproachRate:5
SliderMultiplier:1.4
SliderTickRate:1

[Events]
//Background and Video events
0,0,"Dan_9.png",0,0
//Break Periods
2,124795,137507
2,247997,260093
2,348202,368369
//Storyboard Layer 0 (Background)
//Storyboard Layer 1 (Fail)
//Storyboard Layer 2 (Pass)
//Storyboard Layer 3 (Foreground)
//Storyboard Layer 4 (Overlay)
//Storyboard Sound Samples

[TimingPoints]
1715,480,4,2,0,0,1,0
138707,272.727272727273,4,2,0,0,1,0
138707,-178.571428571429,4,2,0,0,0,0
261293,387.096774193548,4,2,0,0,1,0
261293,-125,4,2,0,0,0,0
369569,307.692307692308,4,2,0,0,1,0
369569,-156.25,4,2,0,0,0,0

[HitObjects]
36,192,9395,5,0,0:0:0:0:
182,192,9395,1,0,0:0:0:0:
329,192,9395,1,0,0:0:0:0:
475,192,9395,1,0,0:0:0:0:
256,192,9515,1,0,0:0:0:0:
329,192,9515,1,0,0:0:0:0:
109,192,9635,1,0,0:0:0:0:
402,192,9635,1,0,0:0:0:0:
182,192,9755,1,0,0:0:0:0:
256,192,9755,1,0,0:0:0:0:
475,192,9755,1,0,0:0:0:0:
36,192,9875,1,0,0:0:0:0:
182,192,9875,1,0,0:0:0:0:
329,192,9875,1,0,0:0:0:0:
475,192,9875,1,0,0:0:0:0:
256,192,9995,1,0,0:0:0:0:
402,192,9995,1,0,0:0:0:0:
109,192,10115,1,0,0:0:0:0:
329,192,10115,1,0,0:0:0:0:
475,192,10115,1,0,0:0:0:0:
256,192,10235,1,0,0:0:0:0:
329,192,10235,1,0,0:0:0:0:
182,192,10355,1,0,0:0:0:0:
36,192,10355,1,0,0:0:0:0:
402,192,10355,1,0,0:0:0:0:
256,192,10355,1,0,0:0:0:0:
109,192,10475,1,0,0:0:0:0:
329,192,10475,1,0,0:0:0:0:
475,192,10475,1,0,0:0:0:0:
109,192,10595,1,0,0:0:0:0:
256,192,10595,1,0,0:0:0:0:
329,192,10715,1,0,0:0:0:0:
402,192,10715,1,0,0:0:0:0:
182,192,10715,1,0,0:0:0:0:
36,192,10835,1,0,0:0:0:0:
109,192,10835,1,0,0:0:0:0:
475,192,10835,1,0,0:0:0:0:
329,192,10835,1,0,0:0:0:0:
256,192,10955,1,0,0:0:0:0:
402,192,10955,1,0,0:0:0:0:
402,192,11075,1,0,0:0:0:0:
182,192,11075,1,0,0:0:0:0:
109,192,11195,1,0,0:0:0:0:
329,192,11195,1,0,0:0:0:0:
329,192,11315,1,0,0:0:0:0:
182,192,11315,1,0,0:0:0:0:
36,192,11315,1,0,0:0:0:0:
475,192,11315,1,0,0:0:0:0:
109,192,11435,1,0,0:0:0:0:
256,192,11435,1,0,0:0:0:0:
256,192,11555,1,0,0:0:0:0:
402,192,11555,1,0,0:0:0:0:
329,192,11675,1,0,0:0:0:0:
182,192,11675,1,0,0:0:0:0:
475,192,11675,1,0,0:0:0:0:
329,192,11795,1,0,0:0:0:0:
402,192,11795,1,0,0:0:0:0:
36,192,11795,1,0,0:0:0:0:
182,192,11795,1,0,0:0:0:0:
109,192,11915,1,0,0:0:0:0:
256,192,11915,1,0,0:0:0:0:
329,192,12035,1,0,0:0:0:0:
475,192,12035,1,0,0:0:0:0:
109,192,12035,1,0,0:0:0:0:
256,192,12155,1,0,0:0:0:0:
402,192,12155,1,0,0:0:0:0:
36,192,12275,1,0,0:0:0:0:
182,192,12275,1,0,0:0:0:0:
329,192,12275,1,0,0:0:0:0:
402,192,12275,1,0,0:0:0:0:
109,192,12395,1,0,0:0:0:0:
329,192,12395,1,0,0:0:0:0:
475,192,12395,1,0,0:0:0:0:
256,192,12515,1,0,0:0:0:0:
402,192,12515,1,0,0:0:0:0:
109,192,12635,1,0,0:0:0:0:
182,192,12635,1,0,0:0:0:0:
329,192,12635,1,0,0:0:0:0:
182,192,12755,1,0,0:0:0:0:
36,192,12755,1,0,0:0:0:0:
475,192,12755,1,0,0:0:0:0:
329,192,12755,1,0,0:0:0:0:
256,192,12875,1,0,0:0:0:0:
402,192,12875,1,0,0:0:0:0:
109,192,12995,1,0,0:0:0:0:
329,192,12995,1,0,0:0:0:0:
402,192,12995,1,0,0:0:0:0:
256,192,13115,1,0,0:0:0:0:
182,192,13235,1,0,0:0:0:0:
109,192,13235,1,0,0:0:0:0:
36,192,13235,1,0,0:0:0:0:
475,192,13235,1,0,0:0:0:0:
182,192,13355,1,0,0:0:0:0:
329,192,13355,1,0,0:0:0:0:
256,192,13475,1,0,0:0:0:0:
402,192,13475,1,0,0:0:0:0:
256,192,13595,1,0,0:0:0:0:
109,192,13595,1,0,0:0:0:0:
475,192,13595,1,0,0:0:0:0:
36,192,13715,1,0,0:0:0:0:
329,192,13715,1,0,0:0:0:0:
402,192,13715,1,0,0:0:0:0:
182,192,13715,1,0,0:0:0:0:
182,192,13835,1,0,0:0:0:0:
329,192,13835,1,0,0:0:0:0:
109,192,13955,1,0,0:0:0:0:
256,192,13955,1,0,0:0:0:0:
475,192,13955,1,0,0:0:0:0:
256,192,14075,1,0,0:0:0:0:
402,192,14075,1,0,0:0:0:0:
475,192,14195,1,0,0:0:0:0:
182,192,14195,1,0,0:0:0:0:
36,192,14195,1,0,0:0:0:0:
329,192,14195,1,0,0:0:0:0:
109,192,14315,1,0,0:0:0:0:
329,192,14315,1,0,0:0:0:0:
402,192,14315,1,0,0:0:0:0:
109,192,14435,1,0,0:0:0:0:
256,192,14435,1,0,0:0:0:0:
182,192,14555,1,0,0:0:0:0:
329,192,14555,1,0,0:0:0:0:
36,192,14675,1,0,0:0:0:0:
256,192,14675,1,0,0:0:0:0:
475,192,14675,1,0,0:0:0:0:
109,192,14675,1,0,0:0:0:0:
402,192,14795,1,0,0:0:0:0:
256,192,14795,1,0,0:0:0:0:
109,192,14915,1,0,0:0:0:0:
329,192,14915,1,0,0:0:0:0:
402,192,14915,1,0,0:0:0:0:
182,192,15035,1,0,0:0:0:0:
475,192,15035,1,0,0:0:0:0:
256,192,15155,1,0,0:0:0:0:
256,192,15275,1,0,0:0:0:0:
329,192,15395,1,0,0:0:0:0:
256,192,15515,1,0,0:0:0:0:
256,192,15635,1,0,0:0:0:0:
182,192,15755,1,0,0:0:0:0:
256,192,15875,1,0,0:0:0:0:
256,192,15995,1,0,0:0:0:0:
402,192,16115,1,0,0:0:0:0:
256,192,16235,1,0,0:0:0:0:
109,192,16355,1,0,0:0:0:0:
109,192,16475,1,0,0:0:0:0:
402,192,16595,1,0,0:0:0:0:
402,192,16715,1,0,0:0:0:0:
182,192,16835,1,0,0:0:0:0:
329,192,16835,1,0,0:0:0:0:
182,192,16955,1,0,0:0:0:0:
329,192,16955,1,0,0:0:0:0:
36,192,17075,1,0,0:0:0:0:
109,192,17075,1,0,0:0:0:0:
256,192,17075,1,0,0:0:0:0:
475,192,17075,1,0,0:0:0:0:
109,192,17195,1,0,0:0:0:0:
329,192,17195,1,0,0:0:0:0:
182,192,17315,1,0,0:0:0:0:
402,192,17315,1,0,0:0:0:0:
182,192,17435,1,0,0:0:0:0:
36,192,17435,1,0,0:0:0:0:
475,192,17435,1,0,0:0:0:0:
109,192,17555,1,0,0:0:0:0:
256,192,17555,1,0,0:0:0:0:
402,192,17555,1,0,0:0:0:0:
475,192,17555,1,0,0:0:0:0:
36,192,17675,1,0,0:0:0:0:
329,192,17675,1,0,0:0:0:0:
109,192,17795,1,0,0:0:0:0:
256,192,17795,1,0,0:0:0:0:
475,192,17795,1,0,0:0:0:0:
256,192,17915,1,0,0:0:0:0:
402,192,17915,1,0,0:0:0:0:
402,192,18035,1,0,0:0:0:0:
182,192,18035,1,0,0:0:0:0:
475,192,18035,1,0,0:0:0:0:
36,192,18035,1,0,0:0:0:0:
36,192,18155,1,0,0:0:0:0:
109,192,18155,1,0,0:0:0:0:
329,192,18155,1,0,0:0:0:0:
182,192,18275,1,0,0:0:0:0:
402,192,18275,1,0,0:0:0:0:
475,192,18275,1,0,0:0:0:0:
329,192,18395,1,0,0:0:0:0:
182,192,18395,1,0,0:0:0:0:
36,192,18395,1,0,0:0:0:0:
109,192,18515,1,0,0:0:0:0:
256,192,18515,1,0,0:0:0:0:
475,192,18515,1,0,0:0:0:0:
402,192,18515,1,0,0:0:0:0:
182,192,18635,1,0,0:0:0:0:
329,192,18635,1,0,0:0:0:0:
402,192,18635,1,0,0:0:0:0:
402,192,18755,1,0,0:0:0:0:
256,192,18755,1,0,0:0:0:0:
109,192,18755,1,0,0:0:0:0:
256,192,18875,1,0,0:0:0:0:
36,192,18875,1,0,0:0:0:0:
36,192,18995,1,0,0:0:0:0:
182,192,18995,1,0,0:0:0:0:
475,192,18995,1,0,0:0:0:0:
329,192,18995,1,0,0:0:0:0:
109,192,19115,1,0,0:0:0:0:
256,192,19115,1,0,0:0:0:0:
402,192,19115,1,0,0:0:0:0:
182,192,19235,1,0,0:0:0:0:
402,192,19235,1,0,0:0:0:0:
475,192,19355,1,0,0:0:0:0:
182,192,19355,1,0,0:0:0:0:
36,192,19355,1,0,0:0:0:0:
109,192,19475,1,0,0:0:0:0:
329,192,19475,1,0,0:0:0:0:
402,192,19475,1,0,0:0:0:0:
256,192,19475,1,0,0:0:0:0:
36,192,19595,1,0,0:0:0:0:
182,192,19595,1,0,0:0:0:0:
329,192,19595,1,0,0:0:0:0:
256,192,19715,1,0,0:0:0:0:
36,192,19715,1,0,0:0:0:0:
475,192,19715,1,0,0:0:0:0:
182,192,19835,1,0,0:0:0:0:
402,192,19835,1,0,0:0:0:0:
256,192,19955,1,0,0:0:0:0:
109,192,19955,1,0,0:0:0:0:
36,192,19955,1,0,0:0:0:0:
329,192,19955,1,0,0:0:0:0:
109,192,20075,1,0,0:0:0:0:
36,192,20075,1,0,0:0:0:0:
329,192,20075,1,0,0:0:0:0:
475,192,20075,1,0,0:0:0:0:
475,192,20195,1,0,0:0:0:0:
182,192,20195,1,0,0:0:0:0:
329,192,20315,1,0,0:0:0:0:
256,192,20315,1,0,0:0:0:0:
36,192,20315,1,0,0:0:0:0:
109,192,20435,1,0,0:0:0:0:
256,192,20435,1,0,0:0:0:0:
402,192,20435,1,0,0:0:0:0:
475,192,20435,1,0,0:0:0:0:
182,192,20555,1,0,0:0:0:0:
402,192,20555,1,0,0:0:0:0:
475,192,20555,1,0,0:0:0:0:
402,192,20675,1,0,0:0:0:0:
36,192,20675,1,0,0:0:0:0:
36,192,20795,1,0,0:0:0:0:
182,192,20795,1,0,0:0:0:0:
329,192,20795,1,0,0:0:0:0:
109,192,20915,1,0,0:0:0:0:
256,192,20915,1,0,0:0:0:0:
475,192,20915,1,0,0:0:0:0:
402,192,20915,1,0,0:0:0:0:
256,192,21035,1,0,0:0:0:0:
402,192,21035,1,0,0:0:0:0:
475,192,21155,1,0,0:0:0:0:
182,192,21155,1,0,0:0:0:0:
36,192,21275,1,0,0:0:0:0:
329,192,21275,1,0,0:0:0:0:
475,192,21275,1,0,0:0:0:0:
109,192,21395,1,0,0:0:0:0:
256,192,21395,1,0,0:0:0:0:
402,192,21395,1,0,0:0:0:0:
182,192,21395,1,0,0:0:0:0:
36,192,21515,1,0,0:0:0:0:
329,192,21515,1,0,0:0:0:0:
36,192,21635,1,0,0:0:0:0:
182,192,21635,1,0,0:0:0:0:
475,192,21635,1,0,0:0:0:0:
109,192,21755,1,0,0:0:0:0:
256,192,21755,1,0,0:0:0:0:
402,192,21755,1,0,0:0:0:0:
182,192,21875,1,0,0:0:0:0:
475,192,21875,1,0,0:0:0:0:
329,192,21875,1,0,0:0:0:0:
402,192,21875,1,0,0:0:0:0:
329,192,21995,1,0,0:0:0:0:
109,192,21995,1,0,0:0:0:0:
36,192,21995,1,0,0:0:0:0:
182,192,22115,1,0,0:0:0:0:
402,192,22115,1,0,0:0:0:0:
182,192,22235,1,0,0:0:0:0:
36,192,22235,1,0,0:0:0:0:
329,192,22235,1,0,0:0:0:0:
109,192,22355,1,0,0:0:0:0:
256,192,22355,1,0,0:0:0:0:
329,192,22355,1,0,0:0:0:0:
475,192,22355,1,0,0:0:0:0:
182,192,22475,1,0,0:0:0:0:
402,192,22475,1,0,0:0:0:0:
475,192,22475,1,0,0:0:0:0:
402,192,22595,1,0,0:0:0:0:
36,192,22595,1,0,0:0:0:0:
36,192,22715,1,0,0:0:0:0:
182,192,22715,1,0,0:0:0:0:
329,192,22715,1,0,0:0:0:0:
109,192,22835,1,0,0:0:0:0:
256,192,22835,1,0,0:0:0:0:
475,192,22835,1,0,0:0:0:0:
36,192,22835,1,0,0:0:0:0:
256,192,22955,1,0,0:0:0:0:
402,192,22955,1,0,0:0:0:0:
329,192,23075,1,0,0:0:0:0:
182,192,23075,1,0,0:0:0:0:
182,192,23195,1,0,0:0:0:0:
36,192,23195,1,0,0:0:0:0:
475,192,23195,1,0,0:0:0:0:
109,192,23315,1,0,0:0:0:0:
256,192,23315,1,0,0:0:0:0:
402,192,23315,1,0,0:0:0:0:
475,192,23315,1,0,0:0:0:0:
329,192,23435,1,0,0:0:0:0:
182,192,23435,1,0,0:0:0:0:
36,192,23435,1,0,0:0:0:0:
36,192,23555,1,0,0:0:0:0:
256,192,23555,1,0,0:0:0:0:
475,192,23555,1,0,0:0:0:0:
109,192,23675,1,0,0:0:0:0:
256,192,23675,1,0,0:0:0:0:
402,192,23675,1,0,0:0:0:0:
182,192,23795,1,0,0:0:0:0:
329,192,23795,1,0,0:0:0:0:
475,192,23795,1,0,0:0:0:0:
36,192,23795,1,0,0:0:0:0:
109,192,23915,1,0,0:0:0:0:
36,192,23915,1,0,0:0:0:0:
329,192,23915,1,0,0:0:0:0:
256,192,24035,1,0,0:0:0:0:
475,192,24035,1,0,0:0:0:0:
329,192,24155,1,0,0:0:0:0:
475,192,24155,1,0,0:0:0:0:
36,192,24155,1,0,0:0:0:0:
182,192,24275,1,0,0:0:0:0:
329,192,24275,1,0,0:0:0:0:
36,192,24275,1,0,0:0:0:0:
475,192,24275,1,0,0:0:0:0:
109,192,24395,1,0,0:0:0:0:
402,192,24395,1,0,0:0:0:0:
36,192,24515,1,0,0:0:0:0:
256,192,24515,1,0,0:0:0:0:
402,192,24515,1,0,0:0:0:0:
329,192,24635,1,0,0:0:0:0:
182,192,24635,1,0,0:0:0:0:
256,192,24755,1,0,0:0:0:0:
109,192,24755,1,0,0:0:0:0:
36,192,24755,1,0,0:0:0:0:
475,192,24755,1,0,0:0:0:0:
256,192,24875,1,0,0:0:0:0:
402,192,24875,1,0,0:0:0:0:
329,192,24995,1,0,0:0:0:0:
109,192,24995,1,0,0:0:0:0:
256,192,25115,1,0,0:0:0:0:
36,192,25115,1,0,0:0:0:0:
475,192,25115,1,0,0:0:0:0:
182,192,25235,1,0,0:0:0:0:
402,192,25235,1,0,0:0:0:0:
109,192,25235,1,0,0:0:0:0:
329,192,25235,1,0,0:0:0:0:
329,192,25355,1,0,0:0:0:0:
475,192,25355,1,0,0:0:0:0:
36,192,25355,1,0,0:0:0:0:
109,192,25475,1,0,0:0:0:0:
256,192,25475,1,0,0:0:0:0:
475,192,25475,1,0,0:0:0:0:
402,192,25595,1,0,0:0:0:0:
182,192,25595,1,0,0:0:0:0:
109,192,25715,1,0,0:0:0:0:
402,192,25715,1,0,0:0:0:0:
475,192,25715,1,0,0:0:0:0:
256,192,25715,1,0,0:0:0:0:
329,192,25835,1,0,0:0:0:0:
182,192,25835,1,0,0:0:0:0:
36,192,25835,1,0,0:0:0:0:
256,192,25955,1,0,0:0:0:0:
402,192,25955,1,0,0:0:0:0:
475,192,25955,1,0,0:0:0:0:
329,192,26075,1,0,0:0:0:0:
182,192,26075,1,0,0:0:0:0:
36,192,26075,1,0,0:0:0:0:
182,192,26195,1,0,0:0:0:0:
475,192,26195,1,0,0:0:0:0:
329,192,26195,1,0,0:0:0:0:
36,192,26195,1,0,0:0:0:0:
402,192,26315,1,0,0:0:0:0:
256,192,26315,1,0,0:0:0:0:
109,192,26315,1,0,0:0:0:0:
36,192,26435,1,0,0:0:0:0:
402,192,26435,1,0,0:0:0:0:
36,192,26555,1,0,0:0:0:0:
182,192,26555,1,0,0:0:0:0:
329,192,26555,1,0,0:0:0:0:
109,192,26675,1,0,0:0:0:0:
256,192,26675,1,0,0:0:0:0:
475,192,26675,1,0,0:0:0:0:
402,192,26675,1,0,0:0:0:0:
256,192,26795,1,0,0:0:0:0:
402,192,26795,1,0,0:0:0:0:
182,192,26915,1,0,0:0:0:0:
475,192,26915,1,0,0:0:0:0:
475,192,27035,1,0,0:0:0:0:
329,192,27035,1,0,0:0:0:0:
36,192,27035,1,0,0:0:0:0:
109,192,27155,1,0,0:0:0:0:
256,192,27155,1,0,0:0:0:0:
402,192,27155,1,0,0:0:0:0:
182,192,27155,1,0,0:0:0:0:
36,192,27275,1,0,0:0:0:0:
329,192,27275,1,0,0:0:0:0:
36,192,27395,1,0,0:0:0:0:
182,192,27395,1,0,0:0:0:0:
475,192,27395,1,0,0:0:0:0:
109,192,27515,1,0,0:0:0:0:
256,192,27515,1,0,0:0:0:0:
402,192,27515,1,0,0:0:0:0:
182,192,27635,1,0,0:0:0:0:
475,192,27635,1,0,0:0:0:0:
329,192,27635,1,0,0:0:0:0:
36,192,27635,1,0,0:0:0:0:
329,192,27755,1,0,0:0:0:0:
256,192,27755,1,0,0:0:0:0:
109,192,27755,1,0,0:0:0:0:
36,192,27755,1,0,0:0:0:0:
109,192,27875,1,0,0:0:0:0:
402,192,27875,1,0,0:0:0:0:
36,192,27995,1,0,0:0:0:0:
182,192,27995,1,0,0:0:0:0:
329,192,27995,1,0,0:0:0:0:
182,192,28115,1,0,0:0:0:0:
475,192,28115,1,0,0:0:0:0:
329,192,28115,1,0,0:0:0:0:
36,192,28115,1,0,0:0:0:0:
402,192,28235,1,0,0:0:0:0:
256,192,28235,1,0,0:0:0:0:
109,192,28235,1,0,0:0:0:0:
36,192,28355,1,0,0:0:0:0:
402,192,28355,1,0,0:0:0:0:
36,192,28475,1,0,0:0:0:0:
182,192,28475,1,0,0:0:0:0:
329,192,28475,1,0,0:0:0:0:
109,192,28595,1,0,0:0:0:0:
256,192,28595,1,0,0:0:0:0:
475,192,28595,1,0,0:0:0:0:
182,192,28715,1,0,0:0:0:0:
256,192,28715,1,0,0:0:0:0:
402,192,28715,1,0,0:0:0:0:
329,192,28835,1,0,0:0:0:0:
475,192,28835,1,0,0:0:0:0:
36,192,28955,1,0,0:0:0:0:
182,192,28955,1,0,0:0:0:0:
475,192,28955,1,0,0:0:0:0:
182,192,29075,1,0,0:0:0:0:
256,192,29075,1,0,0:0:0:0:
402,192,29075,1,0,0:0:0:0:
329,192,29195,1,0,0:0:0:0:
36,192,29195,1,0,0:0:0:0:
109,192,29315,1,0,0:0:0:0:
256,192,29315,1,0,0:0:0:0:
475,192,29315,1,0,0:0:0:0:
182,192,29435,1,0,0:0:0:0:
256,192,29435,1,0,0:0:0:0:
402,192,29435,1,0,0:0:0:0:
402,192,29555,1,0,0:0:0:0:
109,192,29555,1,0,0:0:0:0:
475,192,29555,1,0,0:0:0:0:
36,192,29675,1,0,0:0:0:0:
182,192,29675,1,0,0:0:0:0:
329,192,29675,1,0,0:0:0:0:
109,192,29795,1,0,0:0:0:0:
329,192,29795,1,0,0:0:0:0:
256,192,29915,1,0,0:0:0:0:
36,192,29915,1,0,0:0:0:0:
182,192,30035,1,0,0:0:0:0:
475,192,30035,1,0,0:0:0:0:
109,192,30035,1,0,0:0:0:0:
402,192,30155,1,0,0:0:0:0:
256,192,30155,1,0,0:0:0:0:
109,192,30275,1,0,0:0:0:0:
36,192,30395,1,0,0:0:0:0:
329,192,30395,1,0,0:0:0:0:
475,192,30515,1,0,0:0:0:0:
402,192,30755,1,0,0:0:0:0:
329,192,30995,1,0,0:0:0:0:
402,192,31235,1,0,0:0:0:0:
329,192,31475,1,0,0:0:0:0:
256,192,31715,1,0,0:0:0:0:
182,192,31955,1,0,0:0:0:0:
109,192,32195,1,0,0:0:0:0:
36,192,32435,1,0,0:0:0:0:
109,192,32435,1,0,0:0:0:0:
182,192,32435,1,0,0:0:0:0:
329,192,32435,1,0,0:0:0:0:
475,192,32435,1,0,0:0:0:0:
329,192,32555,1,0,0:0:0:0:
256,192,32555,1,0,0:0:0:0:
182,192,32675,1,0,0:0:0:0:
402,192,32675,1,0,0:0:0:0:
36,192,32795,1,0,0:0:0:0:
182,192,32795,1,0,0:0:0:0:
329,192,32795,1,0,0:0:0:0:
475,192,32795,1,0,0:0:0:0:
402,192,32915,1,0,0:0:0:0:
256,192,32915,1,0,0:0:0:0:
109,192,32915,1,0,0:0:0:0:
36,192,33035,1,0,0:0:0:0:
329,192,33035,1,0,0:0:0:0:
109,192,33155,1,0,0:0:0:0:
256,192,33155,1,0,0:0:0:0:
329,192,33155,1,0,0:0:0:0:
475,192,33155,1,0,0:0:0:0:
256,192,33275,1,0,0:0:0:0:
182,192,33275,1,0,0:0:0:0:
36,192,33275,1,0,0:0:0:0:
402,192,33275,1,0,0:0:0:0:
182,192,33395,1,0,0:0:0:0:
475,192,33395,1,0,0:0:0:0:
36,192,33515,1,0,0:0:0:0:
109,192,33515,1,0,0:0:0:0:
256,192,33515,1,0,0:0:0:0:
329,192,33515,1,0,0:0:0:0:
182,192,33635,1,0,0:0:0:0:
402,192,33635,1,0,0:0:0:0:
475,192,33635,1,0,0:0:0:0:
329,192,33755,1,0,0:0:0:0:
182,192,33755,1,0,0:0:0:0:
36,192,33755,1,0,0:0:0:0:
109,192,33875,1,0,0:0:0:0:
256,192,33875,1,0,0:0:0:0:
475,192,33875,1,0,0:0:0:0:
182,192,33995,1,0,0:0:0:0:
402,192,33995,1,0,0:0:0:0:
109,192,33995,1,0,0:0:0:0:
402,192,34115,1,0,0:0:0:0:
256,192,34115,1,0,0:0:0:0:
36,192,34115,1,0,0:0:0:0:
109,192,34235,1,0,0:0:0:0:
256,192,34235,1,0,0:0:0:0:
475,192,34235,1,0,0:0:0:0:
182,192,34355,1,0,0:0:0:0:
329,192,34355,1,0,0:0:0:0:
475,192,34355,1,0,0:0:0:0:
402,192,34475,1,0,0:0:0:0:
256,192,34475,1,0,0:0:0:0:
36,192,34475,1,0,0:0:0:0:
109,192,34595,1,0,0:0:0:0:
256,192,34595,1,0,0:0:0:0:
329,192,34595,1,0,0:0:0:0:
36,192,34715,1,0,0:0:0:0:
182,192,34715,1,0,0:0:0:0:
475,192,34715,1,0,0:0:0:0:
109,192,34835,1,0,0:0:0:0:
182,192,34835,1,0,0:0:0:0:
256,192,34835,1,0,0:0:0:0:
402,192,34835,1,0,0:0:0:0:
36,192,34955,1,0,0:0:0:0:
329,192,34955,1,0,0:0:0:0:
109,192,35075,1,0,0:0:0:0:
256,192,35075,1,0,0:0:0:0:
475,192,35075,1,0,0:0:0:0:
182,192,35195,1,0,0:0:0:0:
256,192,35195,1,0,0:0:0:0:
402,192,35195,1,0,0:0:0:0:
109,192,35315,1,0,0:0:0:0:
329,192,35315,1,0,0:0:0:0:
36,192,35435,1,0,0:0:0:0:
256,192,35435,1,0,0:0:0:0:
402,192,35435,1,0,0:0:0:0:
182,192,35555,1,0,0:0:0:0:
329,192,35555,1,0,0:0:0:0:
402,192,35555,1,0,0:0:0:0:
475,192,35555,1,0,0:0:0:0:
256,192,35675,1,0,0:0:0:0:
109,192,35675,1,0,0:0:0:0:
36,192,35675,1,0,0:0:0:0:
109,192,35795,1,0,0:0:0:0:
182,192,35795,1,0,0:0:0:0:
475,192,35795,1,0,0:0:0:0:
402,192,35915,1,0,0:0:0:0:
329,192,35915,1,0,0:0:0:0:
36,192,35915,1,0,0:0:0:0:
329,192,36035,1,0,0:0:0:0:
256,192,36035,1,0,0:0:0:0:
109,192,36035,1,0,0:0:0:0:
475,192,36035,1,0,0:0:0:0:
256,192,36155,1,0,0:0:0:0:
182,192,36155,1,0,0:0:0:0:
402,192,36155,1,0,0:0:0:0:
182,192,36275,1,0,0:0:0:0:
36,192,36275,1,0,0:0:0:0:
329,192,36275,1,0,0:0:0:0:
109,192,36395,1,0,0:0:0:0:
256,192,36395,1,0,0:0:0:0:
402,192,36395,1,0,0:0:0:0:
329,192,36515,1,0,0:0:0:0:
329,192,36635,1,0,0:0:0:0:
475,192,36635,1,0,0:0:0:0:
182,192,36635,1,0,0:0:0:0:
36,192,36635,1,0,0:0:0:0:
109,192,36755,1,0,0:0:0:0:
182,192,36755,1,0,0:0:0:0:
256,192,36755,1,0,0:0:0:0:
402,192,36755,1,0,0:0:0:0:
36,192,36875,1,0,0:0:0:0:
402,192,36875,1,0,0:0:0:0:
36,192,36995,1,0,0:0:0:0:
182,192,36995,1,0,0:0:0:0:
256,192,36995,1,0,0:0:0:0:
475,192,36995,1,0,0:0:0:0:
109,192,37115,1,0,0:0:0:0:
256,192,37115,1,0,0:0:0:0:
329,192,37115,1,0,0:0:0:0:
402,192,37115,1,0,0:0:0:0:
329,192,37235,1,0,0:0:0:0:
36,192,37235,1,0,0:0:0:0:
109,192,37355,1,0,0:0:0:0:
182,192,37355,1,0,0:0:0:0:
329,192,37355,1,0,0:0:0:0:
475,192,37355,1,0,0:0:0:0:
402,192,37475,1,0,0:0:0:0:
256,192,37475,1,0,0:0:0:0:
182,192,37475,1,0,0:0:0:0:
36,192,37595,1,0,0:0:0:0:
329,192,37595,1,0,0:0:0:0:
475,192,37595,1,0,0:0:0:0:
109,192,37715,1,0,0:0:0:0:
256,192,37715,1,0,0:0:0:0:
182,192,37835,1,0,0:0:0:0:
36,192,37835,1,0,0:0:0:0:
402,192,37835,1,0,0:0:0:0:
475,192,37835,1,0,0:0:0:0:
109,192,37955,1,0,0:0:0:0:
256,192,37955,1,0,0:0:0:0:
329,192,37955,1,0,0:0:0:0:
475,192,37955,1,0,0:0:0:0:
36,192,38075,1,0,0:0:0:0:
256,192,38075,1,0,0:0:0:0:
402,192,38075,1,0,0:0:0:0:
109,192,38195,1,0,0:0:0:0:
182,192,38195,1,0,0:0:0:0:
329,192,38195,1,0,0:0:0:0:
329,192,38315,1,0,0:0:0:0:
402,192,38315,1,0,0:0:0:0:
182,192,38435,1,0,0:0:0:0:
256,192,38435,1,0,0:0:0:0:
475,192,38435,1,0,0:0:0:0:
329,192,38555,1,0,0:0:0:0:
475,192,38555,1,0,0:0:0:0:
36,192,38555,1,0,0:0:0:0:
109,192,38675,1,0,0:0:0:0:
256,192,38675,1,0,0:0:0:0:
402,192,38675,1,0,0:0:0:0:
36,192,38795,1,0,0:0:0:0:
182,192,38795,1,0,0:0:0:0:
329,192,38795,1,0,0:0:0:0:
36,192,38915,1,0,0:0:0:0:
109,192,38915,1,0,0:0:0:0:
256,192,38915,1,0,0:0:0:0:
475,192,38915,1,0,0:0:0:0:
182,192,39035,1,0,0:0:0:0:
256,192,39035,1,0,0:0:0:0:
402,192,39035,1,0,0:0:0:0:
329,192,39155,1,0,0:0:0:0:
475,192,39155,1,0,0:0:0:0:
329,192,39275,1,0,0:0:0:0:
109,192,39275,1,0,0:0:0:0:
36,192,39275,1,0,0:0:0:0:
109,192,39395,1,0,0:0:0:0:
256,192,39395,1,0,0:0:0:0:
402,192,39395,1,0,0:0:0:0:
475,192,39395,1,0,0:0:0:0:
182,192,39515,1,0,0:0:0:0:
36,192,39515,1,0,0:0:0:0:
109,192,39635,1,0,0:0:0:0:
256,192,39635,1,0,0:0:0:0:
329,192,39635,1,0,0:0:0:0:
329,192,39755,1,0,0:0:0:0:
475,192,39755,1,0,0:0:0:0:
36,192,39755,1,0,0:0:0:0:
182,192,39875,1,0,0:0:0:0:
256,192,39875,1,0,0:0:0:0:
402,192,39875,1,0,0:0:0:0:
182,192,39995,1,0,0:0:0:0:
109,192,39995,1,0,0:0:0:0:
329,192,39995,1,0,0:0:0:0:
109,192,40115,1,0,0:0:0:0:
36,192,40115,1,0,0:0:0:0:
256,192,40115,1,0,0:0:0:0:
475,192,40115,1,0,0:0:0:0:
36,192,40235,1,0,0:0:0:0:
182,192,40235,1,0,0:0:0:0:
329,192,40235,1,0,0:0:0:0:
402,192,40235,1,0,0:0:0:0:
109,192,40355,1,0,0:0:0:0:
402,192,40355,1,0,0:0:0:0:
36,192,40475,1,0,0:0:0:0:
256,192,40475,1,0,0:0:0:0:
475,192,40475,1,0,0:0:0:0:
109,192,40595,1,0,0:0:0:0:
182,192,40595,1,0,0:0:0:0:
329,192,40595,1,0,0:0:0:0:
475,192,40595,1,0,0:0:0:0:
256,192,40715,1,0,0:0:0:0:
402,192,40715,1,0,0:0:0:0:
36,192,40715,1,0,0:0:0:0:
36,192,40835,1,0,0:0:0:0:
109,192,40835,1,0,0:0:0:0:
329,192,40835,1,0,0:0:0:0:
475,192,40835,1,0,0:0:0:0:
182,192,40955,1,0,0:0:0:0:
329,192,40955,1,0,0:0:0:0:
402,192,40955,1,0,0:0:0:0:
256,192,41075,1,0,0:0:0:0:
475,192,41075,1,0,0:0:0:0:
109,192,41195,1,0,0:0:0:0:
36,192,41195,1,0,0:0:0:0:
182,192,41195,1,0,0:0:0:0:
402,192,41195,1,0,0:0:0:0:
109,192,41315,1,0,0:0:0:0:
329,192,41315,1,0,0:0:0:0:
475,192,41315,1,0,0:0:0:0:
402,192,41435,1,0,0:0:0:0:
256,192,41435,1,0,0:0:0:0:
36,192,41435,1,0,0:0:0:0:
182,192,41555,1,0,0:0:0:0:
329,192,41555,1,0,0:0:0:0:
475,192,41555,1,0,0:0:0:0:
109,192,41555,1,0,0:0:0:0:
256,192,41675,1,0,0:0:0:0:
36,192,41675,1,0,0:0:0:0:
402,192,41675,1,0,0:0:0:0:
475,192,41795,1,0,0:0:0:0:
329,192,41795,1,0,0:0:0:0:
109,192,41795,1,0,0:0:0:0:
36,192,41915,1,0,0:0:0:0:
256,192,41915,1,0,0:0:0:0:
402,192,41915,1,0,0:0:0:0:
182,192,41915,1,0,0:0:0:0:
109,192,42035,1,0,0:0:0:0:
475,192,42035,1,0,0:0:0:0:
256,192,42035,1,0,0:0:0:0:
182,192,42155,1,0,0:0:0:0:
402,192,42155,1,0,0:0:0:0:
109,192,42275,1,0,0:0:0:0:
329,192,42275,1,0,0:0:0:0:
256,192,42275,1,0,0:0:0:0:
182,192,42395,1,0,0:0:0:0:
36,192,42395,1,0,0:0:0:0:
475,192,42395,1,0,0:0:0:0:
402,192,42515,1,0,0:0:0:0:
329,192,42515,1,0,0:0:0:0:
109,192,42515,1,0,0:0:0:0:
256,192,42515,1,0,0:0:0:0:
256,192,42635,1,0,0:0:0:0:
182,192,42635,1,0,0:0:0:0:
36,192,42635,1,0,0:0:0:0:
36,192,42755,1,0,0:0:0:0:
109,192,42755,1,0,0:0:0:0:
329,192,42755,1,0,0:0:0:0:
475,192,42755,1,0,0:0:0:0:
182,192,42875,1,0,0:0:0:0:
329,192,42875,1,0,0:0:0:0:
402,192,42875,1,0,0:0:0:0:
256,192,42995,1,0,0:0:0:0:
475,192,42995,1,0,0:0:0:0:
402,192,43115,1,0,0:0:0:0:
109,192,43115,1,0,0:0:0:0:
36,192,43115,1,0,0:0:0:0:
182,192,43235,1,0,0:0:0:0:
329,192,43235,1,0,0:0:0:0:
475,192,43235,1,0,0:0:0:0:
109,192,43355,1,0,0:0:0:0:
256,192,43355,1,0,0:0:0:0:
36,192,43475,1,0,0:0:0:0:
329,192,43475,1,0,0:0:0:0:
256,192,43475,1,0,0:0:0:0:
402,192,43475,1,0,0:0:0:0:
182,192,43595,1,0,0:0:0:0:
329,192,43595,1,0,0:0:0:0:
475,192,43595,1,0,0:0:0:0:
36,192,43715,1,0,0:0:0:0:
182,192,43715,1,0,0:0:0:0:
256,192,43715,1,0,0:0:0:0:
402,192,43715,1,0,0:0:0:0:
109,192,43835,1,0,0:0:0:0:
329,192,43835,1,0,0:0:0:0:
36,192,43955,1,0,0:0:0:0:
109,192,43955,1,0,0:0:0:0:
256,192,43955,1,0,0:0:0:0:
475,192,43955,1,0,0:0:0:0:
402,192,44075,1,0,0:0:0:0:
182,192,44075,1,0,0:0:0:0:
109,192,44195,1,0,0:0:0:0:
329,192,44195,1,0,0:0:0:0:
475,192,44195,1,0,0:0:0:0:
475,192,44315,1,0,0:0:0:0:
402,192,44315,1,0,0:0:0:0:
36,192,44315,1,0,0:0:0:0:
182,192,44315,1,0,0:0:0:0:
36,192,44435,1,0,0:0:0:0:
182,192,44435,1,0,0:0:0:0:
329,192,44435,1,0,0:0:0:0:
256,192,44435,1,0,0:0:0:0:
109,192,44555,1,0,0:0:0:0:
402,192,44555,1,0,0:0:0:0:
109,192,44675,1,0,0:0:0:0:
256,192,44675,1,0,0:0:0:0:
329,192,44675,1,0,0:0:0:0:
475,192,44675,1,0,0:0:0:0:
182,192,44795,1,0,0:0:0:0:
329,192,44795,1,0,0:0:0:0:
402,192,44795,1,0,0:0:0:0:
256,192,44915,1,0,0:0:0:0:
36,192,44915,1,0,0:0:0:0:
182,192,45035,1,0,0:0:0:0:
475,192,45035,1,0,0:0:0:0:
329,192,45035,1,0,0:0:0:0:
402,192,45155,1,0,0:0:0:0:
329,192,45155,1,0,0:0:0:0:
109,192,45155,1,0,0:0:0:0:
36,192,45275,1,0,0:0:0:0:
256,192,45275,1,0,0:0:0:0:
475,192,45275,1,0,0:0:0:0:
402,192,45275,1,0,0:0:0:0:
475,192,45395,1,0,0:0:0:0:
329,192,45395,1,0,0:0:0:0:
182,192,45395,1,0,0:0:0:0:
109,192,45395,1,0,0:0:0:0:
109,192,45515,1,0,0:0:0:0:
256,192,45515,1,0,0:0:0:0:
402,192,45515,1,0,0:0:0:0:
329,192,45635,1,0,0:0:0:0:
182,192,45635,1,0,0:0:0:0:
475,192,45635,1,0,0:0:0:0:
109,192,45755,1,0,0:0:0:0:
256,192,45755,1,0,0:0:0:0:
402,192,45755,1,0,0:0:0:0:
475,192,45875,1,0,0:0:0:0:
109,192,45875,1,0,0:0:0:0:
36,192,45875,1,0,0:0:0:0:
329,192,45875,1,0,0:0:0:0:
182,192,45995,1,0,0:0:0:0:
475,192,45995,1,0,0:0:0:0:
402,192,46115,1,0,0:0:0:0:
329,192,46115,1,0,0:0:0:0:
256,192,46115,1,0,0:0:0:0:
109,192,46115,1,0,0:0:0:0:
256,192,46235,1,0,0:0:0:0:
36,192,46235,1,0,0:0:0:0:
182,192,46355,1,0,0:0:0:0:
109,192,46355,1,0,0:0:0:0:
329,192,46355,1,0,0:0:0:0:
475,192,46355,1,0,0:0:0:0:
402,192,46475,1,0,0:0:0:0:
256,192,46475,1,0,0:0:0:0:
256,192,46595,1,0,0:0:0:0:
329,192,46595,1,0,0:0:0:0:
475,192,46595,1,0,0:0:0:0:
36,192,46595,1,0,0:0:0:0:
182,192,46715,1,0,0:0:0:0:
329,192,46715,1,0,0:0:0:0:
36,192,46835,1,0,0:0:0:0:
109,192,46835,1,0,0:0:0:0:
256,192,46835,1,0,0:0:0:0:
475,192,46835,1,0,0:0:0:0:
402,192,46955,1,0,0:0:0:0:
36,192,46955,1,0,0:0:0:0:
36,192,47075,1,0,0:0:0:0:
182,192,47075,1,0,0:0:0:0:
329,192,47075,1,0,0:0:0:0:
109,192,47195,1,0,0:0:0:0:
256,192,47195,1,0,0:0:0:0:
402,192,47195,1,0,0:0:0:0:
182,192,47315,1,0,0:0:0:0:
329,192,47315,1,0,0:0:0:0:
475,192,47315,1,0,0:0:0:0:
36,192,47315,1,0,0:0:0:0:
475,192,47435,1,0,0:0:0:0:
402,192,47435,1,0,0:0:0:0:
256,192,47435,1,0,0:0:0:0:
109,192,47555,1,0,0:0:0:0:
329,192,47555,1,0,0:0:0:0:
402,192,47555,1,0,0:0:0:0:
182,192,47555,1,0,0:0:0:0:
256,192,47675,1,0,0:0:0:0:
182,192,47675,1,0,0:0:0:0:
36,192,47675,1,0,0:0:0:0:
36,192,47795,1,0,0:0:0:0:
402,192,47795,1,0,0:0:0:0:
475,192,47795,1,0,0:0:0:0:
329,192,47795,1,0,0:0:0:0:
109,192,47915,1,0,0:0:0:0:
256,192,47915,1,0,0:0:0:0:
402,192,47915,1,0,0:0:0:0:
329,192,48035,1,0,0:0:0:0:
475,192,48035,1,0,0:0:0:0:
475,192,48155,1,0,0:0:0:0:
256,192,48155,1,0,0:0:0:0:
109,192,48155,1,0,0:0:0:0:
256,192,48275,1,0,0:0:0:0:
182,192,48275,1,0,0:0:0:0:
402,192,48275,1,0,0:0:0:0:
36,192,48275,1,0,0:0:0:0:
182,192,48395,1,0,0:0:0:0:
36,192,48395,1,0,0:0:0:0:
109,192,48515,1,0,0:0:0:0:
329,192,48515,1,0,0:0:0:0:
475,192,48515,1,0,0:0:0:0:
402,192,48515,1,0,0:0:0:0:
256,192,48635,1,0,0:0:0:0:
182,192,48635,1,0,0:0:0:0:
402,192,48635,1,0,0:0:0:0:
109,192,48755,1,0,0:0:0:0:
329,192,48755,1,0,0:0:0:0:
329,192,48875,1,0,0:0:0:0:
475,192,48875,1,0,0:0:0:0:
36,192,48875,1,0,0:0:0:0:
182,192,48995,1,0,0:0:0:0:
256,192,48995,1,0,0:0:0:0:
402,192,48995,1,0,0:0:0:0:
475,192,48995,1,0,0:0:0:0:
109,192,49115,1,0,0:0:0:0:
182,192,49115,1,0,0:0:0:0:
329,192,49115,1,0,0:0:0:0:
256,192,49235,1,0,0:0:0:0:
402,192,49235,1,0,0:0:0:0:
36,192,49235,1,0,0:0:0:0:
475,192,49235,1,0,0:0:0:0:
36,192,49355,1,0,0:0:0:0:
182,192,49355,1,0,0:0:0:0:
329,192,49355,1,0,0:0:0:0:
182,192,49475,1,0,0:0:0:0:
256,192,49475,1,0,0:0:0:0:
402,192,49475,1,0,0:0:0:0:
109,192,49595,1,0,0:0:0:0:
402,192,49595,1,0,0:0:0:0:
475,192,49595,1,0,0:0:0:0:
329,192,49715,1,0,0:0:0:0:
182,192,49715,1,0,0:0:0:0:
36,192,49715,1,0,0:0:0:0:
109,192,49835,1,0,0:0:0:0:
256,192,49835,1,0,0:0:0:0:
329,192,49835,1,0,0:0:0:0:
182,192,49955,1,0,0:0:0:0:
402,192,49955,1,0,0:0:0:0:
475,192,49955,1,0,0:0:0:0:
182,192,50075,1,0,0:0:0:0:
36,192,50075,1,0,0:0:0:0:
256,192,50075,1,0,0:0:0:0:
109,192,50195,1,0,0:0:0:0:
256,192,50195,1,0,0:0:0:0:
402,192,50195,1,0,0:0:0:0:
475,192,50195,1,0,0:0:0:0:
36,192,50315,1,0,0:0:0:0:
182,192,50315,1,0,0:0:0:0:
329,192,50315,1,0,0:0:0:0:
402,192,50435,1,0,0:0:0:0:
256,192,50435,1,0,0:0:0:0:
109,192,50435,1,0,0:0:0:0:
36,192,50435,1,0,0:0:0:0:
182,192,50555,1,0,0:0:0:0:
402,192,50555,1,0,0:0:0:0:
475,192,50555,1,0,0:0:0:0:
329,192,50675,1,0,0:0:0:0:
475,192,50675,1,0,0:0:0:0:
256,192,50795,1,0,0:0:0:0:
109,192,50795,1,0,0:0:0:0:
36,192,50795,1,0,0:0:0:0:
256,192,50915,1,0,0:0:0:0:
402,192,50915,1,0,0:0:0:0:
475,192,50915,1,0,0:0:0:0:
182,192,51035,1,0,0:0:0:0:
329,192,51035,1,0,0:0:0:0:
109,192,51035,1,0,0:0:0:0:
109,192,51155,1,0,0:0:0:0:
182,192,51155,1,0,0:0:0:0:
256,192,51155,1,0,0:0:0:0:
402,192,51155,1,0,0:0:0:0:
329,192,51275,1,0,0:0:0:0:
402,192,51275,1,0,0:0:0:0:
475,192,51275,1,0,0:0:0:0:
36,192,51275,1,0,0:0:0:0:
256,192,51395,1,0,0:0:0:0:
329,192,51395,1,0,0:0:0:0:
182,192,51395,1,0,0:0:0:0:
256,192,51515,1,0,0:0:0:0:
182,192,51515,1,0,0:0:0:0:
109,192,51515,1,0,0:0:0:0:
475,192,51515,1,0,0:0:0:0:
402,192,51635,1,0,0:0:0:0:
182,192,51635,1,0,0:0:0:0:
109,192,51635,1,0,0:0:0:0:
36,192,51635,1,0,0:0:0:0:
36,192,51755,1,0,0:0:0:0:
329,192,51755,1,0,0:0:0:0:
256,192,51875,1,0,0:0:0:0:
475,192,51875,1,0,0:0:0:0:
402,192,51875,1,0,0:0:0:0:
182,192,51995,1,0,0:0:0:0:
36,192,51995,1,0,0:0:0:0:
109,192,52115,1,0,0:0:0:0:
256,192,52115,1,0,0:0:0:0:
329,192,52115,1,0,0:0:0:0:
402,192,52115,1,0,0:0:0:0:
182,192,52235,1,0,0:0:0:0:
36,192,52235,1,0,0:0:0:0:
109,192,52355,1,0,0:0:0:0:
256,192,52355,1,0,0:0:0:0:
475,192,52355,1,0,0:0:0:0:
329,192,52475,1,0,0:0:0:0:
182,192,52475,1,0,0:0:0:0:
475,192,52475,1,0,0:0:0:0:
109,192,52595,1,0,0:0:0:0:
329,192,52595,1,0,0:0:0:0:
256,192,52715,1,0,0:0:0:0:
109,192,52715,1,0,0:0:0:0:
36,192,52715,1,0,0:0:0:0:
256,192,52835,1,0,0:0:0:0:
402,192,52835,1,0,0:0:0:0:
475,192,52835,1,0,0:0:0:0:
329,192,52955,1,0,0:0:0:0:
182,192,52955,1,0,0:0:0:0:
36,192,52955,1,0,0:0:0:0:
109,192,53075,1,0,0:0:0:0:
402,192,53075,1,0,0:0:0:0:
475,192,53075,1,0,0:0:0:0:
256,192,53075,1,0,0:0:0:0:
329,192,53195,1,0,0:0:0:0:
109,192,53195,1,0,0:0:0:0:
256,192,53315,1,0,0:0:0:0:
402,192,53315,1,0,0:0:0:0:
36,192,53315,1,0,0:0:0:0:
475,192,53435,1,0,0:0:0:0:
109,192,53435,1,0,0:0:0:0:
329,192,53435,1,0,0:0:0:0:
36,192,53555,1,0,0:0:0:0:
182,192,53555,1,0,0:0:0:0:
402,192,53555,1,0,0:0:0:0:
109,192,53675,1,0,0:0:0:0:
256,192,53675,1,0,0:0:0:0:
475,192,53675,1,0,0:0:0:0:
402,192,53795,1,0,0:0:0:0:
475,192,53795,1,0,0:0:0:0:
182,192,53795,1,0,0:0:0:0:
36,192,53915,1,0,0:0:0:0:
109,192,53915,1,0,0:0:0:0:
256,192,53915,1,0,0:0:0:0:
182,192,54035,1,0,0:0:0:0:
329,192,54035,1,0,0:0:0:0:
402,192,54035,1,0,0:0:0:0:
475,192,54035,1,0,0:0:0:0:
36,192,54155,1,0,0:0:0:0:
256,192,54155,1,0,0:0:0:0:
109,192,54275,1,0,0:0:0:0:
329,192,54275,1,0,0:0:0:0:
402,192,54275,1,0,0:0:0:0:
402,192,54395,1,0,0:0:0:0:
475,192,54395,1,0,0:0:0:0:
182,192,54395,1,0,0:0:0:0:
36,192,54395,1,0,0:0:0:0:
109,192,54515,1,0,0:0:0:0:
256,192,54515,1,0,0:0:0:0:
475,192,54515,1,0,0:0:0:0:
109,192,54635,1,0,0:0:0:0:
329,192,54635,1,0,0:0:0:0:
182,192,54755,1,0,0:0:0:0:
329,192,54755,1,0,0:0:0:0:
475,192,54755,1,0,0:0:0:0:
256,192,54875,1,0,0:0:0:0:
109,192,54875,1,0,0:0:0:0:
36,192,54995,1,0,0:0:0:0:
329,192,54995,1,0,0:0:0:0:
402,192,54995,1,0,0:0:0:0:
182,192,54995,1,0,0:0:0:0:
182,192,55115,1,0,0:0:0:0:
475,192,55115,1,0,0:0:0:0:
402,192,55115,1,0,0:0:0:0:
402,192,55235,1,0,0:0:0:0:
329,192,55235,1,0,0:0:0:0:
109,192,55235,1,0,0:0:0:0:
36,192,55235,1,0,0:0:0:0:
182,192,55355,1,0,0:0:0:0:
256,192,55355,1,0,0:0:0:0:
475,192,55355,1,0,0:0:0:0:
329,192,55475,1,0,0:0:0:0:
182,192,55475,1,0,0:0:0:0:
109,192,55475,1,0,0:0:0:0:
36,192,55475,1,0,0:0:0:0:
109,192,55595,1,0,0:0:0:0:
256,192,55595,1,0,0:0:0:0:
402,192,55595,1,0,0:0:0:0:
182,192,55715,1,0,0:0:0:0:
402,192,55715,1,0,0:0:0:0:
256,192,55835,1,0,0:0:0:0:
36,192,55835,1,0,0:0:0:0:
109,192,55835,1,0,0:0:0:0:
182,192,55955,1,0,0:0:0:0:
329,192,55955,1,0,0:0:0:0:
402,192,55955,1,0,0:0:0:0:
475,192,55955,1,0,0:0:0:0:
36,192,56075,1,0,0:0:0:0:
256,192,56075,1,0,0:0:0:0:
36,192,56195,1,0,0:0:0:0:
182,192,56195,1,0,0:0:0:0:
329,192,56195,1,0,0:0:0:0:
475,192,56195,1,0,0:0:0:0:
109,192,56315,1,0,0:0:0:0:
182,192,56315,1,0,0:0:0:0:
402,192,56315,1,0,0:0:0:0:
256,192,56435,1,0,0:0:0:0:
475,192,56435,1,0,0:0:0:0:
475,192,56555,1,0,0:0:0:0:
329,192,56555,1,0,0:0:0:0:
109,192,56555,1,0,0:0:0:0:
36,192,56555,1,0,0:0:0:0:
182,192,56675,1,0,0:0:0:0:
402,192,56675,1,0,0:0:0:0:
475,192,56675,1,0,0:0:0:0:
329,192,56795,1,0,0:0:0:0:
256,192,56795,1,0,0:0:0:0:
36,192,56795,1,0,0:0:0:0:
182,192,56915,1,0,0:0:0:0:
402,192,56915,1,0,0:0:0:0:
475,192,56915,1,0,0:0:0:0:
36,192,56915,1,0,0:0:0:0:
475,192,57035,1,0,0:0:0:0:
329,192,57035,1,0,0:0:0:0:
109,192,57035,1,0,0:0:0:0:
36,192,57155,1,0,0:0:0:0:
182,192,57155,1,0,0:0:0:0:
329,192,57155,1,0,0:0:0:0:
182,192,57275,1,0,0:0:0:0:
256,192,57275,1,0,0:0:0:0:
402,192,57275,1,0,0:0:0:0:
329,192,57395,1,0,0:0:0:0:
475,192,57395,1,0,0:0:0:0:
109,192,57395,1,0,0:0:0:0:
36,192,57395,1,0,0:0:0:0:
256,192,57515,1,0,0:0:0:0:
475,192,57515,1,0,0:0:0:0:
402,192,57635,1,0,0:0:0:0:
256,192,57635,1,0,0:0:0:0:
182,192,57635,1,0,0:0:0:0:
36,192,57755,1,0,0:0:0:0:
329,192,57755,1,0,0:0:0:0:
109,192,57755,1,0,0:0:0:0:
402,192,57875,1,0,0:0:0:0:
182,192,57875,1,0,0:0:0:0:
109,192,57875,1,0,0:0:0:0:
475,192,57875,1,0,0:0:0:0:
36,192,57995,1,0,0:0:0:0:
256,192,57995,1,0,0:0:0:0:
402,192,57995,1,0,0:0:0:0:
182,192,58115,1,0,0:0:0:0:
329,192,58115,1,0,0:0:0:0:
475,192,58115,1,0,0:0:0:0:
182,192,58235,1,0,0:0:0:0:
256,192,58235,1,0,0:0:0:0:
402,192,58235,1,0,0:0:0:0:
109,192,58355,1,0,0:0:0:0:
329,192,58355,1,0,0:0:0:0:
36,192,58355,1,0,0:0:0:0:
36,192,58475,1,0,0:0:0:0:
256,192,58475,1,0,0:0:0:0:
475,192,58475,1,0,0:0:0:0:
182,192,58595,1,0,0:0:0:0:
402,192,58595,1,0,0:0:0:0:
475,192,58595,1,0,0:0:0:0:
256,192,58715,1,0,0:0:0:0:
109,192,58715,1,0,0:0:0:0:
36,192,58715,1,0,0:0:0:0:
182,192,58835,1,0,0:0:0:0:
329,192,58835,1,0,0:0:0:0:
402,192,58835,1,0,0:0:0:0:
36,192,58835,1,0,0:0:0:0:
109,192,58955,1,0,0:0:0:0:
329,192,58955,1,0,0:0:0:0:
475,192,58955,1,0,0:0:0:0:
182,192,59075,1,0,0:0:0:0:
256,192,59075,1,0,0:0:0:0:
402,192,59075,1,0,0:0:0:0:
256,192,59195,1,0,0:0:0:0:
329,192,59195,1,0,0:0:0:0:
109,192,59195,1,0,0:0:0:0:
36,192,59195,1,0,0:0:0:0:
36,192,59315,1,0,0:0:0:0:
182,192,59315,1,0,0:0:0:0:
402,192,59315,1,0,0:0:0:0:
475,192,59315,1,0,0:0:0:0:
109,192,59435,1,0,0:0:0:0:
256,192,59435,1,0,0:0:0:0:
475,192,59435,1,0,0:0:0:0:
256,192,59555,1,0,0:0:0:0:
329,192,59555,1,0,0:0:0:0:
36,192,59675,1,0,0:0:0:0:
109,192,59675,1,0,0:0:0:0:
402,192,59675,1,0,0:0:0:0:
182,192,59795,1,0,0:0:0:0:
329,192,59795,1,0,0:0:0:0:
475,192,59795,1,0,0:0:0:0:
256,192,59915,1,0,0:0:0:0:
402,192,59915,1,0,0:0:0:0:
36,192,60035,1,0,0:0:0:0:
182,192,60035,1,0,0:0:0:0:
329,192,60035,1,0,0:0:0:0:
402,192,60035,1,0,0:0:0:0:
109,192,60155,1,0,0:0:0:0:
182,192,60155,1,0,0:0:0:0:
256,192,60155,1,0,0:0:0:0:
475,192,60155,1,0,0:0:0:0:
402,192,60275,1,0,0:0:0:0:
36,192,60275,1,0,0:0:0:0:
36,192,60395,1,0,0:0:0:0:
109,192,60395,1,0,0:0:0:0:
256,192,60395,1,0,0:0:0:0:
329,192,60395,1,0,0:0:0:0:
182,192,60515,1,0,0:0:0:0:
256,192,60515,1,0,0:0:0:0:
402,192,60515,1,0,0:0:0:0:
475,192,60515,1,0,0:0:0:0:
402,192,60635,1,0,0:0:0:0:
329,192,60635,1,0,0:0:0:0:
36,192,60635,1,0,0:0:0:0:
109,192,60755,1,0,0:0:0:0:
182,192,60755,1,0,0:0:0:0:
329,192,60755,1,0,0:0:0:0:
109,192,60875,1,0,0:0:0:0:
256,192,60875,1,0,0:0:0:0:
402,192,60875,1,0,0:0:0:0:
475,192,60875,1,0,0:0:0:0:
182,192,60995,1,0,0:0:0:0:
36,192,60995,1,0,0:0:0:0:
402,192,60995,1,0,0:0:0:0:
109,192,61115,1,0,0:0:0:0:
182,192,61115,1,0,0:0:0:0:
329,192,61115,1,0,0:0:0:0:
36,192,61235,1,0,0:0:0:0:
256,192,61235,1,0,0:0:0:0:
475,192,61235,1,0,0:0:0:0:
109,192,61355,1,0,0:0:0:0:
329,192,61355,1,0,0:0:0:0:
182,192,61475,1,0,0:0:0:0:
36,192,61475,1,0,0:0:0:0:
475,192,61475,1,0,0:0:0:0:
402,192,61475,1,0,0:0:0:0:
36,192,61595,1,0,0:0:0:0:
256,192,61595,1,0,0:0:0:0:
475,192,61595,1,0,0:0:0:0:
109,192,61715,1,0,0:0:0:0:
182,192,61715,1,0,0:0:0:0:
329,192,61715,1,0,0:0:0:0:
402,192,61715,1,0,0:0:0:0:
109,192,61835,1,0,0:0:0:0:
256,192,61835,1,0,0:0:0:0:
36,192,61955,1,0,0:0:0:0:
182,192,61955,1,0,0:0:0:0:
329,192,61955,1,0,0:0:0:0:
475,192,61955,1,0,0:0:0:0:
182,192,62075,1,0,0:0:0:0:
256,192,62075,1,0,0:0:0:0:
402,192,62075,1,0,0:0:0:0:
329,192,62195,1,0,0:0:0:0:
256,192,62195,1,0,0:0:0:0:
109,192,62195,1,0,0:0:0:0:
36,192,62315,1,0,0:0:0:0:
329,192,62315,1,0,0:0:0:0:
475,192,62315,1,0,0:0:0:0:
36,192,62435,1,0,0:0:0:0:
109,192,62435,1,0,0:0:0:0:
182,192,62435,1,0,0:0:0:0:
402,192,62435,1,0,0:0:0:0:
109,192,62555,1,0,0:0:0:0:
256,192,62555,1,0,0:0:0:0:
329,192,62555,1,0,0:0:0:0:
475,192,62555,1,0,0:0:0:0:
36,192,62675,1,0,0:0:0:0:
182,192,62675,1,0,0:0:0:0:
256,192,62675,1,0,0:0:0:0:
402,192,62675,1,0,0:0:0:0:
256,192,62795,1,0,0:0:0:0:
329,192,62795,1,0,0:0:0:0:
475,192,62795,1,0,0:0:0:0:
402,192,62915,1,0,0:0:0:0:
329,192,62915,1,0,0:0:0:0:
182,192,62915,1,0,0:0:0:0:
109,192,62915,1,0,0:0:0:0:
109,192,63035,1,0,0:0:0:0:
36,192,63035,1,0,0:0:0:0:
256,192,63035,1,0,0:0:0:0:
36,192,63155,1,0,0:0:0:0:
182,192,63155,1,0,0:0:0:0:
475,192,63155,1,0,0:0:0:0:
329,192,63155,1,0,0:0:0:0:
109,192,63275,1,0,0:0:0:0:
182,192,63395,1,0,0:0:0:0:
402,192,63515,1,0,0:0:0:0:
475,192,63635,1,0,0:0:0:0:
182,192,63635,1,0,0:0:0:0:
329,192,63635,1,0,0:0:0:0:
475,192,63755,1,0,0:0:0:0:
36,192,63755,1,0,0:0:0:0:
109,192,63875,1,0,0:0:0:0:
475,192,63875,1,0,0:0:0:0:
475,192,63995,1,0,0:0:0:0:
182,192,63995,1,0,0:0:0:0:
109,192,64115,1,0,0:0:0:0:
475,192,64115,1,0,0:0:0:0:
329,192,64115,1,0,0:0:0:0:
256,192,64115,1,0,0:0:0:0:
475,192,64235,1,0,0:0:0:0:
36,192,64355,1,0,0:0:0:0:
475,192,64355,1,0,0:0:0:0:
182,192,64355,1,0,0:0:0:0:
109,192,64475,1,0,0:0:0:0:
475,192,64475,1,0,0:0:0:0:
256,192,64595,1,0,0:0:0:0:
475,192,64595,1,0,0:0:0:0:
329,192,64595,1,0,0:0:0:0:
36,192,64595,1,0,0:0:0:0:
182,192,64715,1,0,0:0:0:0:
475,192,64715,1,0,0:0:0:0:
475,192,64835,1,0,0:0:0:0:
256,192,64835,1,0,0:0:0:0:
475,192,64955,1,0,0:0:0:0:
182,192,65075,1,0,0:0:0:0:
109,192,65075,1,0,0:0:0:0:
402,192,65075,1,0,0:0:0:0:
329,192,65195,1,0,0:0:0:0:
182,192,65315,1,0,0:0:0:0:
402,192,65435,1,0,0:0:0:0:
256,192,65435,1,0,0:0:0:0:
36,192,65555,1,0,0:0:0:0:
329,192,65555,1,0,0:0:0:0:
182,192,65555,1,0,0:0:0:0:
475,192,65555,1,0,0:0:0:0:
36,192,65675,1,0,0:0:0:0:
36,192,65795,1,0,0:0:0:0:
329,192,65795,1,0,0:0:0:0:
256,192,65915,1,0,0:0:0:0:
36,192,65915,1,0,0:0:0:0:
36,192,66035,1,0,0:0:0:0:
402,192,66035,1,0,0:0:0:0:
182,192,66035,1,0,0:0:0:0:
475,192,66035,1,0,0:0:0:0:
36,192,66155,1,0,0:0:0:0:
329,192,66155,1,0,0:0:0:0:
182,192,66275,1,0,0:0:0:0:
36,192,66275,1,0,0:0:0:0:
36,192,66395,1,0,0:0:0:0:
256,192,66395,1,0,0:0:0:0:
36,192,66515,1,0,0:0:0:0:
329,192,66515,1,0,0:0:0:0:
475,192,66515,1,0,0:0:0:0:
36,192,66635,1,0,0:0:0:0:
182,192,66635,1,0,0:0:0:0:
475,192,66755,1,0,0:0:0:0:
36,192,66755,1,0,0:0:0:0:
402,192,66755,1,0,0:0:0:0:
36,192,66875,1,0,0:0:0:0:
256,192,66875,1,0,0:0:0:0:
109,192,66995,1,0,0:0:0:0:
402,192,66995,1,0,0:0:0:0:
329,192,66995,1,0,0:0:0:0:
182,192,67115,1,0,0:0:0:0:
256,192,67235,1,0,0:0:0:0:
329,192,67355,1,0,0:0:0:0:
402,192,67475,1,0,0:0:0:0:
109,192,67475,1,0,0:0:0:0:
182,192,67475,1,0,0:0:0:0:
402,192,67595,1,0,0:0:0:0:
182,192,67715,1,0,0:0:0:0:
402,192,67715,1,0,0:0:0:0:
36,192,67835,1,0,0:0:0:0:
402,192,67835,1,0,0:0:0:0:
182,192,67955,1,0,0:0:0:0:
402,192,67955,1,0,0:0:0:0:
256,192,67955,1,0,0:0:0:0:
402,192,68075,1,0,0:0:0:0:
36,192,68195,1,0,0:0:0:0:
402,192,68195,1,0,0:0:0:0:
109,192,68195,1,0,0:0:0:0:
182,192,68315,1,0,0:0:0:0:
402,192,68315,1,0,0:0:0:0:
329,192,68435,1,0,0:0:0:0:
402,192,68435,1,0,0:0:0:0:
109,192,68435,1,0,0:0:0:0:
36,192,68435,1,0,0:0:0:0:
256,192,68555,1,0,0:0:0:0:
402,192,68555,1,0,0:0:0:0:
402,192,68675,1,0,0:0:0:0:
182,192,68675,1,0,0:0:0:0:
402,192,68795,1,0,0:0:0:0:
329,192,68795,1,0,0:0:0:0:
109,192,68915,1,0,0:0:0:0:
256,192,68915,1,0,0:0:0:0:
475,192,68915,1,0,0:0:0:0:
329,192,69035,1,0,0:0:0:0:
182,192,69155,1,0,0:0:0:0:
36,192,69155,1,0,0:0:0:0:
475,192,69155,1,0,0:0:0:0:
256,192,69275,1,0,0:0:0:0:
402,192,69275,1,0,0:0:0:0:
329,192,69395,1,0,0:0:0:0:
109,192,69395,1,0,0:0:0:0:
475,192,69395,1,0,0:0:0:0:
109,192,69515,1,0,0:0:0:0:
402,192,69515,1,0,0:0:0:0:
109,192,69635,1,0,0:0:0:0:
329,192,69635,1,0,0:0:0:0:
109,192,69755,1,0,0:0:0:0:
402,192,69755,1,0,0:0:0:0:
109,192,69875,1,0,0:0:0:0:
329,192,69875,1,0,0:0:0:0:
475,192,69875,1,0,0:0:0:0:
256,192,69875,1,0,0:0:0:0:
109,192,69995,1,0,0:0:0:0:
109,192,70115,1,0,0:0:0:0:
329,192,70115,1,0,0:0:0:0:
109,192,70235,1,0,0:0:0:0:
182,192,70355,1,0,0:0:0:0:
109,192,70355,1,0,0:0:0:0:
402,192,70355,1,0,0:0:0:0:
475,192,70355,1,0,0:0:0:0:
329,192,70475,1,0,0:0:0:0:
109,192,70475,1,0,0:0:0:0:
475,192,70595,1,0,0:0:0:0:
109,192,70595,1,0,0:0:0:0:
402,192,70595,1,0,0:0:0:0:
329,192,70715,1,0,0:0:0:0:
109,192,70715,1,0,0:0:0:0:
109,192,70835,1,0,0:0:0:0:
36,192,70835,1,0,0:0:0:0:
402,192,70835,1,0,0:0:0:0:
475,192,70835,1,0,0:0:0:0:
256,192,70955,1,0,0:0:0:0:
109,192,71075,1,0,0:0:0:0:
182,192,71195,1,0,0:0:0:0:
36,192,71195,1,0,0:0:0:0:
402,192,71195,1,0,0:0:0:0:
329,192,71315,1,0,0:0:0:0:
109,192,71315,1,0,0:0:0:0:
256,192,71315,1,0,0:0:0:0:
329,192,71435,1,0,0:0:0:0:
36,192,71555,1,0,0:0:0:0:
329,192,71555,1,0,0:0:0:0:
475,192,71555,1,0,0:0:0:0:
182,192,71675,1,0,0:0:0:0:
329,192,71675,1,0,0:0:0:0:
36,192,71795,1,0,0:0:0:0:
329,192,71795,1,0,0:0:0:0:
402,192,71795,1,0,0:0:0:0:
329,192,71915,1,0,0:0:0:0:
109,192,71915,1,0,0:0:0:0:
182,192,72035,1,0,0:0:0:0:
329,192,72035,1,0,0:0:0:0:
36,192,72155,1,0,0:0:0:0:
329,192,72155,1,0,0:0:0:0:
329,192,72275,1,0,0:0:0:0:
109,192,72275,1,0,0:0:0:0:
475,192,72275,1,0,0:0:0:0:
182,192,72395,1,0,0:0:0:0:
329,192,72395,1,0,0:0:0:0:
329,192,72515,1,0,0:0:0:0:
256,192,72515,1,0,0:0:0:0:
329,192,72635,1,0,0:0:0:0:
109,192,72755,1,0,0:0:0:0:
402,192,72755,1,0,0:0:0:0:
475,192,72755,1,0,0:0:0:0:
256,192,72875,1,0,0:0:0:0:
182,192,72995,1,0,0:0:0:0:
402,192,72995,1,0,0:0:0:0:
329,192,73115,1,0,0:0:0:0:
182,192,73235,1,0,0:0:0:0:
36,192,73235,1,0,0:0:0:0:
475,192,73235,1,0,0:0:0:0:
402,192,73355,1,0,0:0:0:0:
182,192,73355,1,0,0:0:0:0:
182,192,73475,1,0,0:0:0:0:
329,192,73475,1,0,0:0:0:0:
182,192,73595,1,0,0:0:0:0:
402,192,73595,1,0,0:0:0:0:
182,192,73715,1,0,0:0:0:0:
36,192,73715,1,0,0:0:0:0:
475,192,73715,1,0,0:0:0:0:
329,192,73835,1,0,0:0:0:0:
182,192,73835,1,0,0:0:0:0:
182,192,73955,1,0,0:0:0:0:
402,192,73955,1,0,0:0:0:0:
182,192,74075,1,0,0:0:0:0:
475,192,74075,1,0,0:0:0:0:
182,192,74195,1,0,0:0:0:0:
109,192,74195,1,0,0:0:0:0:
402,192,74195,1,0,0:0:0:0:
329,192,74315,1,0,0:0:0:0:
182,192,74315,1,0,0:0:0:0:
475,192,74435,1,0,0:0:0:0:
182,192,74435,1,0,0:0:0:0:
402,192,74555,1,0,0:0:0:0:
182,192,74555,1,0,0:0:0:0:
109,192,74675,1,0,0:0:0:0:
36,192,74675,1,0,0:0:0:0:
329,192,74675,1,0,0:0:0:0:
256,192,74795,1,0,0:0:0:0:
109,192,74915,1,0,0:0:0:0:
475,192,75035,1,0,0:0:0:0:
329,192,75155,1,0,0:0:0:0:
256,192,75155,1,0,0:0:0:0:
475,192,75275,1,0,0:0:0:0:
256,192,75275,1,0,0:0:0:0:
36,192,75395,1,0,0:0:0:0:
256,192,75395,1,0,0:0:0:0:
182,192,75515,1,0,0:0:0:0:
256,192,75515,1,0,0:0:0:0:
256,192,75635,1,0,0:0:0:0:
256,192,75755,1,0,0:0:0:0:
109,192,75875,1,0,0:0:0:0:
256,192,75875,1,0,0:0:0:0:
402,192,75875,1,0,0:0:0:0:
256,192,75995,1,0,0:0:0:0:
256,192,76115,1,0,0:0:0:0:
36,192,76115,1,0,0:0:0:0:
256,192,76235,1,0,0:0:0:0:
109,192,76235,1,0,0:0:0:0:
256,192,76355,1,0,0:0:0:0:
475,192,76355,1,0,0:0:0:0:
402,192,76475,1,0,0:0:0:0:
256,192,76475,1,0,0:0:0:0:
182,192,76595,1,0,0:0:0:0:
182,192,76715,1,0,0:0:0:0:
109,192,76835,1,0,0:0:0:0:
109,192,76955,1,0,0:0:0:0:
36,192,77075,1,0,0:0:0:0:
36,192,77195,1,0,0:0:0:0:
475,192,77315,1,0,0:0:0:0:
475,192,77435,1,0,0:0:0:0:
402,192,77555,1,0,0:0:0:0:
402,192,77675,1,0,0:0:0:0:
329,192,77795,1,0,0:0:0:0:
329,192,77915,1,0,0:0:0:0:
256,192,78035,1,0,0:0:0:0:
256,192,78155,1,0,0:0:0:0:
182,192,78275,1,0,0:0:0:0:
182,192,78395,1,0,0:0:0:0:
36,192,78515,1,0,0:0:0:0:
109,192,78515,1,0,0:0:0:0:
256,192,78515,1,0,0:0:0:0:
329,192,78515,1,0,0:0:0:0:
475,192,78515,1,0,0:0:0:0:
402,192,78515,1,0,0:0:0:0:
109,192,78635,1,0,0:0:0:0:
256,192,78635,1,0,0:0:0:0:
182,192,78755,1,0,0:0:0:0:
402,192,78755,1,0,0:0:0:0:
36,192,78755,1,0,0:0:0:0:
182,192,78875,1,0,0:0:0:0:
329,192,78875,1,0,0:0:0:0:
475,192,78875,1,0,0:0:0:0:
475,192,78995,1,0,0:0:0:0:
329,192,78995,1,0,0:0:0:0:
109,192,78995,1,0,0:0:0:0:
256,192,78995,1,0,0:0:0:0:
36,192,78995,1,0,0:0:0:0:
402,192,79115,1,0,0:0:0:0:
182,192,79115,1,0,0:0:0:0:
256,192,79235,1,0,0:0:0:0:
182,192,79235,1,0,0:0:0:0:
36,192,79235,1,0,0:0:0:0:
182,192,79355,1,0,0:0:0:0:
402,192,79355,1,0,0:0:0:0:
36,192,79475,1,0,0:0:0:0:
109,192,79475,1,0,0:0:0:0:
329,192,79475,1,0,0:0:0:0:
475,192,79475,1,0,0:0:0:0:
256,192,79475,1,0,0:0:0:0:
182,192,79595,1,0,0:0:0:0:
329,192,79595,1,0,0:0:0:0:
256,192,79715,1,0,0:0:0:0:
109,192,79715,1,0,0:0:0:0:
475,192,79715,1,0,0:0:0:0:
36,192,79715,1,0,0:0:0:0:
256,192,79835,1,0,0:0:0:0:
109,192,79835,1,0,0:0:0:0:
182,192,79955,1,0,0:0:0:0:
36,192,79955,1,0,0:0:0:0:
329,192,79955,1,0,0:0:0:0:
402,192,79955,1,0,0:0:0:0:
475,192,79955,1,0,0:0:0:0:
182,192,80075,1,0,0:0:0:0:
329,192,80075,1,0,0:0:0:0:
256,192,80195,1,0,0:0:0:0:
329,192,80195,1,0,0:0:0:0:
475,192,80195,1,0,0:0:0:0:
36,192,80195,1,0,0:0:0:0:
109,192,80315,1,0,0:0:0:0:
402,192,80315,1,0,0:0:0:0:
36,192,80435,1,0,0:0:0:0:
182,192,80435,1,0,0:0:0:0:
256,192,80435,1,0,0:0:0:0:
402,192,80435,1,0,0:0:0:0:
475,192,80435,1,0,0:0:0:0:
256,192,80555,1,0,0:0:0:0:
109,192,80555,1,0,0:0:0:0:
475,192,80675,1,0,0:0:0:0:
182,192,80675,1,0,0:0:0:0:
402,192,80675,1,0,0:0:0:0:
36,192,80675,1,0,0:0:0:0:
329,192,80795,1,0,0:0:0:0:
109,192,80795,1,0,0:0:0:0:
256,192,80795,1,0,0:0:0:0:
402,192,80915,1,0,0:0:0:0:
36,192,80915,1,0,0:0:0:0:
475,192,80915,1,0,0:0:0:0:
109,192,80915,1,0,0:0:0:0:
256,192,80915,1,0,0:0:0:0:
182,192,81035,1,0,0:0:0:0:
329,192,81035,1,0,0:0:0:0:
109,192,81155,1,0,0:0:0:0:
256,192,81155,1,0,0:0:0:0:
475,192,81155,1,0,0:0:0:0:
402,192,81155,1,0,0:0:0:0:
329,192,81275,1,0,0:0:0:0:
182,192,81275,1,0,0:0:0:0:
109,192,81395,1,0,0:0:0:0:
256,192,81395,1,0,0:0:0:0:
402,192,81395,1,0,0:0:0:0:
36,192,81395,1,0,0:0:0:0:
475,192,81395,1,0,0:0:0:0:
329,192,81515,1,0,0:0:0:0:
475,192,81515,1,0,0:0:0:0:
402,192,81635,1,0,0:0:0:0:
256,192,81635,1,0,0:0:0:0:
109,192,81635,1,0,0:0:0:0:
36,192,81635,1,0,0:0:0:0:
182,192,81755,1,0,0:0:0:0:
329,192,81755,1,0,0:0:0:0:
109,192,81875,1,0,0:0:0:0:
256,192,81875,1,0,0:0:0:0:
402,192,81875,1,0,0:0:0:0:
475,192,81875,1,0,0:0:0:0:
36,192,81875,1,0,0:0:0:0:
256,192,81995,1,0,0:0:0:0:
402,192,81995,1,0,0:0:0:0:
36,192,81995,1,0,0:0:0:0:
109,192,82115,1,0,0:0:0:0:
182,192,82115,1,0,0:0:0:0:
475,192,82115,1,0,0:0:0:0:
329,192,82115,1,0,0:0:0:0:
402,192,82235,1,0,0:0:0:0:
182,192,82235,1,0,0:0:0:0:
256,192,82235,1,0,0:0:0:0:
36,192,82355,1,0,0:0:0:0:
329,192,82355,1,0,0:0:0:0:
475,192,82355,1,0,0:0:0:0:
256,192,82355,1,0,0:0:0:0:
109,192,82355,1,0,0:0:0:0:
36,192,82475,1,0,0:0:0:0:
109,192,82475,1,0,0:0:0:0:
402,192,82595,1,0,0:0:0:0:
475,192,82595,1,0,0:0:0:0:
182,192,82595,1,0,0:0:0:0:
329,192,82595,1,0,0:0:0:0:
182,192,82715,1,0,0:0:0:0:
329,192,82715,1,0,0:0:0:0:
475,192,82715,1,0,0:0:0:0:
182,192,82835,1,0,0:0:0:0:
36,192,82835,1,0,0:0:0:0:
256,192,82835,1,0,0:0:0:0:
402,192,82835,1,0,0:0:0:0:
109,192,82835,1,0,0:0:0:0:
402,192,82955,1,0,0:0:0:0:
475,192,82955,1,0,0:0:0:0:
109,192,83075,1,0,0:0:0:0:
329,192,83075,1,0,0:0:0:0:
182,192,83075,1,0,0:0:0:0:
36,192,83075,1,0,0:0:0:0:
256,192,83195,1,0,0:0:0:0:
109,192,83195,1,0,0:0:0:0:
402,192,83195,1,0,0:0:0:0:
36,192,83315,1,0,0:0:0:0:
256,192,83315,1,0,0:0:0:0:
402,192,83315,1,0,0:0:0:0:
475,192,83315,1,0,0:0:0:0:
182,192,83315,1,0,0:0:0:0:
329,192,83435,1,0,0:0:0:0:
475,192,83435,1,0,0:0:0:0:
36,192,83555,1,0,0:0:0:0:
182,192,83555,1,0,0:0:0:0:
402,192,83555,1,0,0:0:0:0:
256,192,83555,1,0,0:0:0:0:
256,192,83675,1,0,0:0:0:0:
109,192,83675,1,0,0:0:0:0:
402,192,83675,1,0,0:0:0:0:
182,192,83795,1,0,0:0:0:0:
329,192,83795,1,0,0:0:0:0:
475,192,83795,1,0,0:0:0:0:
36,192,83795,1,0,0:0:0:0:
109,192,83795,1,0,0:0:0:0:
182,192,83915,1,0,0:0:0:0:
329,192,83915,1,0,0:0:0:0:
256,192,84035,1,0,0:0:0:0:
402,192,84035,1,0,0:0:0:0:
475,192,84035,1,0,0:0:0:0:
36,192,84035,1,0,0:0:0:0:
402,192,84155,1,0,0:0:0:0:
109,192,84155,1,0,0:0:0:0:
36,192,84275,1,0,0:0:0:0:
182,192,84275,1,0,0:0:0:0:
256,192,84275,1,0,0:0:0:0:
475,192,84275,1,0,0:0:0:0:
329,192,84275,1,0,0:0:0:0:
109,192,84395,1,0,0:0:0:0:
256,192,84395,1,0,0:0:0:0:
182,192,84515,1,0,0:0:0:0:
329,192,84515,1,0,0:0:0:0:
475,192,84515,1,0,0:0:0:0:
36,192,84515,1,0,0:0:0:0:
256,192,84635,1,0,0:0:0:0:
109,192,84635,1,0,0:0:0:0:
402,192,84635,1,0,0:0:0:0:
36,192,84755,1,0,0:0:0:0:
182,192,84755,1,0,0:0:0:0:
329,192,84755,1,0,0:0:0:0:
475,192,84755,1,0,0:0:0:0:
109,192,84755,1,0,0:0:0:0:
402,192,84875,1,0,0:0:0:0:
329,192,84875,1,0,0:0:0:0:
475,192,84995,1,0,0:0:0:0:
36,192,84995,1,0,0:0:0:0:
182,192,84995,1,0,0:0:0:0:
256,192,84995,1,0,0:0:0:0:
109,192,85115,1,0,0:0:0:0:
329,192,85115,1,0,0:0:0:0:
182,192,85235,1,0,0:0:0:0:
36,192,85235,1,0,0:0:0:0:
402,192,85235,1,0,0:0:0:0:
475,192,85235,1,0,0:0:0:0:
256,192,85235,1,0,0:0:0:0:
256,192,85355,1,0,0:0:0:0:
402,192,85355,1,0,0:0:0:0:
109,192,85475,1,0,0:0:0:0:
329,192,85475,1,0,0:0:0:0:
36,192,85475,1,0,0:0:0:0:
475,192,85475,1,0,0:0:0:0:
109,192,85595,1,0,0:0:0:0:
329,192,85595,1,0,0:0:0:0:
182,192,85715,1,0,0:0:0:0:
36,192,85715,1,0,0:0:0:0:
402,192,85715,1,0,0:0:0:0:
475,192,85715,1,0,0:0:0:0:
256,192,85715,1,0,0:0:0:0:
36,192,85835,1,0,0:0:0:0:
182,192,85835,1,0,0:0:0:0:
329,192,85835,1,0,0:0:0:0:
109,192,85955,1,0,0:0:0:0:
256,192,85955,1,0,0:0:0:0:
329,192,85955,1,0,0:0:0:0:
475,192,85955,1,0,0:0:0:0:
402,192,86075,1,0,0:0:0:0:
256,192,86075,1,0,0:0:0:0:
182,192,86075,1,0,0:0:0:0:
329,192,86195,1,0,0:0:0:0:
36,192,86195,1,0,0:0:0:0:
475,192,86195,1,0,0:0:0:0:
182,192,86195,1,0,0:0:0:0:
109,192,86195,1,0,0:0:0:0:
256,192,86315,1,0,0:0:0:0:
402,192,86315,1,0,0:0:0:0:
36,192,86435,1,0,0:0:0:0:
182,192,86435,1,0,0:0:0:0:
475,192,86435,1,0,0:0:0:0:
329,192,86435,1,0,0:0:0:0:
329,192,86555,1,0,0:0:0:0:
182,192,86555,1,0,0:0:0:0:
109,192,86555,1,0,0:0:0:0:
109,192,86675,1,0,0:0:0:0:
36,192,86675,1,0,0:0:0:0:
256,192,86675,1,0,0:0:0:0:
402,192,86675,1,0,0:0:0:0:
475,192,86675,1,0,0:0:0:0:
402,192,86795,1,0,0:0:0:0:
182,192,86795,1,0,0:0:0:0:
256,192,86915,1,0,0:0:0:0:
329,192,86915,1,0,0:0:0:0:
109,192,86915,1,0,0:0:0:0:
36,192,86915,1,0,0:0:0:0:
182,192,87035,1,0,0:0:0:0:
329,192,87035,1,0,0:0:0:0:
475,192,87155,1,0,0:0:0:0:
109,192,87155,1,0,0:0:0:0:
36,192,87155,1,0,0:0:0:0:
256,192,87155,1,0,0:0:0:0:
402,192,87155,1,0,0:0:0:0:
256,192,87275,1,0,0:0:0:0:
475,192,87275,1,0,0:0:0:0:
36,192,87395,1,0,0:0:0:0:
182,192,87395,1,0,0:0:0:0:
329,192,87395,1,0,0:0:0:0:
402,192,87395,1,0,0:0:0:0:
182,192,87515,1,0,0:0:0:0:
329,192,87515,1,0,0:0:0:0:
402,192,87515,1,0,0:0:0:0:
36,192,87635,1,0,0:0:0:0:
475,192,87635,1,0,0:0:0:0:
109,192,87635,1,0,0:0:0:0:
256,192,87635,1,0,0:0:0:0:
329,192,87635,1,0,0:0:0:0:
256,192,87755,1,0,0:0:0:0:
182,192,87755,1,0,0:0:0:0:
109,192,87875,1,0,0:0:0:0:
402,192,87875,1,0,0:0:0:0:
475,192,87875,1,0,0:0:0:0:
36,192,87875,1,0,0:0:0:0:
402,192,87995,1,0,0:0:0:0:
475,192,87995,1,0,0:0:0:0:
182,192,87995,1,0,0:0:0:0:
182,192,88115,1,0,0:0:0:0:
36,192,88115,1,0,0:0:0:0:
329,192,88115,1,0,0:0:0:0:
402,192,88115,1,0,0:0:0:0:
475,192,88115,1,0,0:0:0:0:
256,192,88235,1,0,0:0:0:0:
109,192,88235,1,0,0:0:0:0:
182,192,88355,1,0,0:0:0:0:
329,192,88355,1,0,0:0:0:0:
475,192,88355,1,0,0:0:0:0:
402,192,88355,1,0,0:0:0:0:
256,192,88475,1,0,0:0:0:0:
36,192,88475,1,0,0:0:0:0:
109,192,88475,1,0,0:0:0:0:
182,192,88595,1,0,0:0:0:0:
402,192,88595,1,0,0:0:0:0:
329,192,88595,1,0,0:0:0:0:
475,192,88595,1,0,0:0:0:0:
109,192,88595,1,0,0:0:0:0:
36,192,88715,1,0,0:0:0:0:
256,192,88715,1,0,0:0:0:0:
109,192,88835,1,0,0:0:0:0:
329,192,88835,1,0,0:0:0:0:
475,192,88835,1,0,0:0:0:0:
182,192,88835,1,0,0:0:0:0:
109,192,88955,1,0,0:0:0:0:
256,192,88955,1,0,0:0:0:0:
329,192,89075,1,0,0:0:0:0:
182,192,89075,1,0,0:0:0:0:
36,192,89075,1,0,0:0:0:0:
402,192,89075,1,0,0:0:0:0:
475,192,89075,1,0,0:0:0:0:
402,192,89195,1,0,0:0:0:0:
475,192,89195,1,0,0:0:0:0:
329,192,89315,1,0,0:0:0:0:
182,192,89315,1,0,0:0:0:0:
109,192,89315,1,0,0:0:0:0:
36,192,89315,1,0,0:0:0:0:
256,192,89435,1,0,0:0:0:0:
402,192,89435,1,0,0:0:0:0:
475,192,89435,1,0,0:0:0:0:
182,192,89555,1,0,0:0:0:0:
36,192,89555,1,0,0:0:0:0:
329,192,89555,1,0,0:0:0:0:
109,192,89555,1,0,0:0:0:0:
475,192,89555,1,0,0:0:0:0:
182,192,89675,1,0,0:0:0:0:
329,192,89675,1,0,0:0:0:0:
109,192,89675,1,0,0:0:0:0:
256,192,89795,1,0,0:0:0:0:
475,192,89795,1,0,0:0:0:0:
402,192,89795,1,0,0:0:0:0:
36,192,89795,1,0,0:0:0:0:
182,192,89915,1,0,0:0:0:0:
402,192,89915,1,0,0:0:0:0:
329,192,89915,1,0,0:0:0:0:
182,192,90035,1,0,0:0:0:0:
329,192,90035,1,0,0:0:0:0:
475,192,90035,1,0,0:0:0:0:
36,192,90035,1,0,0:0:0:0:
109,192,90035,1,0,0:0:0:0:
256,192,90155,1,0,0:0:0:0:
402,192,90155,1,0,0:0:0:0:
36,192,90275,1,0,0:0:0:0:
182,192,90275,1,0,0:0:0:0:
329,192,90275,1,0,0:0:0:0:
475,192,90275,1,0,0:0:0:0:
256,192,90395,1,0,0:0:0:0:
109,192,90395,1,0,0:0:0:0:
329,192,90395,1,0,0:0:0:0:
475,192,90515,1,0,0:0:0:0:
36,192,90515,1,0,0:0:0:0:
182,192,90515,1,0,0:0:0:0:
256,192,90515,1,0,0:0:0:0:
402,192,90515,1,0,0:0:0:0:
109,192,90635,1,0,0:0:0:0:
329,192,90635,1,0,0:0:0:0:
182,192,90755,1,0,0:0:0:0:
36,192,90755,1,0,0:0:0:0:
402,192,90755,1,0,0:0:0:0:
475,192,90755,1,0,0:0:0:0:
256,192,90875,1,0,0:0:0:0:
109,192,90875,1,0,0:0:0:0:
329,192,90875,1,0,0:0:0:0:
36,192,90995,1,0,0:0:0:0:
182,192,90995,1,0,0:0:0:0:
402,192,90995,1,0,0:0:0:0:
475,192,90995,1,0,0:0:0:0:
256,192,90995,1,0,0:0:0:0:
182,192,91115,1,0,0:0:0:0:
329,192,91115,1,0,0:0:0:0:
109,192,91235,1,0,0:0:0:0:
475,192,91235,1,0,0:0:0:0:
256,192,91235,1,0,0:0:0:0:
36,192,91235,1,0,0:0:0:0:
182,192,91355,1,0,0:0:0:0:
329,192,91355,1,0,0:0:0:0:
402,192,91355,1,0,0:0:0:0:
36,192,91475,1,0,0:0:0:0:
402,192,91475,1,0,0:0:0:0:
475,192,91475,1,0,0:0:0:0:
256,192,91475,1,0,0:0:0:0:
109,192,91475,1,0,0:0:0:0:
182,192,91595,1,0,0:0:0:0:
329,192,91595,1,0,0:0:0:0:
256,192,91715,1,0,0:0:0:0:
402,192,91715,1,0,0:0:0:0:
475,192,91715,1,0,0:0:0:0:
36,192,91715,1,0,0:0:0:0:
109,192,91715,1,0,0:0:0:0:
402,192,91835,1,0,0:0:0:0:
256,192,91835,1,0,0:0:0:0:
475,192,91835,1,0,0:0:0:0:
109,192,91955,1,0,0:0:0:0:
109,192,92075,1,0,0:0:0:0:
109,192,92195,1,0,0:0:0:0:
182,192,92315,1,0,0:0:0:0:
182,192,92435,1,0,0:0:0:0:
182,192,92555,1,0,0:0:0:0:
256,192,92675,1,0,0:0:0:0:
256,192,92795,1,0,0:0:0:0:
256,192,92915,1,0,0:0:0:0:
329,192,93035,1,0,0:0:0:0:
329,192,93155,1,0,0:0:0:0:
329,192,93275,1,0,0:0:0:0:
402,192,93395,1,0,0:0:0:0:
475,192,93635,1,0,0:0:0:0:
475,192,93875,1,0,0:0:0:0:
475,192,94595,1,0,0:0:0:0:
402,192,94835,1,0,0:0:0:0:
256,192,95075,1,0,0:0:0:0:
109,192,95315,1,0,0:0:0:0:
36,192,95555,1,0,0:0:0:0:
109,192,95795,1,0,0:0:0:0:
402,192,96275,1,0,0:0:0:0:
256,192,96515,1,0,0:0:0:0:
36,192,97475,1,0,0:0:0:0:
182,192,97715,1,0,0:0:0:0:
36,192,97955,1,0,0:0:0:0:
182,192,98195,1,0,0:0:0:0:
402,192,98435,1,0,0:0:0:0:
402,192,98915,1,0,0:0:0:0:
256,192,99155,1,0,0:0:0:0:
402,192,99395,1,0,0:0:0:0:
475,192,99635,1,0,0:0:0:0:
402,192,99875,1,0,0:0:0:0:
256,192,100115,1,0,0:0:0:0:
402,192,100355,1,0,0:0:0:0:
475,192,101555,1,0,0:0:0:0:
475,192,102275,1,0,0:0:0:0:
402,192,102515,1,0,0:0:0:0:
256,192,102755,1,0,0:0:0:0:
109,192,102995,1,0,0:0:0:0:
36,192,103235,1,0,0:0:0:0:
109,192,103475,1,0,0:0:0:0:
402,192,103955,1,0,0:0:0:0:
256,192,104195,1,0,0:0:0:0:
256,192,104675,1,0,0:0:0:0:
182,192,104915,1,0,0:0:0:0:
109,192,105155,1,0,0:0:0:0:
36,192,105635,1,0,0:0:0:0:
109,192,105875,1,0,0:0:0:0:
36,192,106115,1,0,0:0:0:0:
109,192,106355,1,0,0:0:0:0:
256,192,106595,1,0,0:0:0:0:
402,192,106835,1,0,0:0:0:0:
256,192,107075,1,0,0:0:0:0:
182,192,107555,1,0,0:0:0:0:
109,192,107795,1,0,0:0:0:0:
36,192,108035,1,0,0:0:0:0:
109,192,108155,1,0,0:0:0:0:
36,192,109235,1,0,0:0:0:0:
182,192,109235,1,0,0:0:0:0:
256,192,109235,1,0,0:0:0:0:
329,192,109235,1,0,0:0:0:0:
402,192,109235,1,0,0:0:0:0:
475,192,109235,1,0,0:0:0:0:
256,192,109355,1,0,0:0:0:0:
109,192,109475,1,0,0:0:0:0:
329,192,109475,1,0,0:0:0:0:
475,192,109475,1,0,0:0:0:0:
36,192,109595,1,0,0:0:0:0:
182,192,109595,1,0,0:0:0:0:
402,192,109595,1,0,0:0:0:0:
36,192,109715,1,0,0:0:0:0:
109,192,109715,1,0,0:0:0:0:
256,192,109715,1,0,0:0:0:0:
402,192,109715,1,0,0:0:0:0:
182,192,109835,1,0,0:0:0:0:
36,192,109955,1,0,0:0:0:0:
256,192,109955,1,0,0:0:0:0:
329,192,109955,1,0,0:0:0:0:
402,192,109955,1,0,0:0:0:0:
475,192,109955,1,0,0:0:0:0:
109,192,110075,1,0,0:0:0:0:
402,192,110075,1,0,0:0:0:0:
182,192,110195,1,0,0:0:0:0:
256,192,110195,1,0,0:0:0:0:
329,192,110195,1,0,0:0:0:0:
402,192,110195,1,0,0:0:0:0:
36,192,110195,1,0,0:0:0:0:
329,192,110315,1,0,0:0:0:0:
475,192,110315,1,0,0:0:0:0:
109,192,110435,1,0,0:0:0:0:
182,192,110435,1,0,0:0:0:0:
256,192,110435,1,0,0:0:0:0:
329,192,110435,1,0,0:0:0:0:
36,192,110555,1,0,0:0:0:0:
256,192,110555,1,0,0:0:0:0:
36,192,110675,1,0,0:0:0:0:
109,192,110675,1,0,0:0:0:0:
182,192,110675,1,0,0:0:0:0:
256,192,110675,1,0,0:0:0:0:
402,192,110675,1,0,0:0:0:0:
475,192,110675,1,0,0:0:0:0:
182,192,110795,1,0,0:0:0:0:
329,192,110795,1,0,0:0:0:0:
36,192,110915,1,0,0:0:0:0:
109,192,110915,1,0,0:0:0:0:
182,192,110915,1,0,0:0:0:0:
329,192,110915,1,0,0:0:0:0:
475,192,110915,1,0,0:0:0:0:
402,192,111035,1,0,0:0:0:0:
256,192,111035,1,0,0:0:0:0:
329,192,111155,1,0,0:0:0:0:
256,192,111155,1,0,0:0:0:0:
182,192,111155,1,0,0:0:0:0:
109,192,111155,1,0,0:0:0:0:
36,192,111275,1,0,0:0:0:0:
329,192,111275,1,0,0:0:0:0:
475,192,111275,1,0,0:0:0:0:
475,192,111395,1,0,0:0:0:0:
402,192,111395,1,0,0:0:0:0:
182,192,111395,1,0,0:0:0:0:
109,192,111515,1,0,0:0:0:0:
256,192,111515,1,0,0:0:0:0:
475,192,111515,1,0,0:0:0:0:
182,192,111635,1,0,0:0:0:0:
256,192,111635,1,0,0:0:0:0:
329,192,111635,1,0,0:0:0:0:
402,192,111635,1,0,0:0:0:0:
36,192,111755,1,0,0:0:0:0:
402,192,111755,1,0,0:0:0:0:
329,192,111875,1,0,0:0:0:0:
256,192,111875,1,0,0:0:0:0:
182,192,111875,1,0,0:0:0:0:
109,192,111875,1,0,0:0:0:0:
182,192,111995,1,0,0:0:0:0:
475,192,111995,1,0,0:0:0:0:
402,192,112115,1,0,0:0:0:0:
256,192,112115,1,0,0:0:0:0:
36,192,112115,1,0,0:0:0:0:
36,192,112235,1,0,0:0:0:0:
182,192,112235,1,0,0:0:0:0:
475,192,112235,1,0,0:0:0:0:
109,192,112355,1,0,0:0:0:0:
329,192,112355,1,0,0:0:0:0:
475,192,112355,1,0,0:0:0:0:
402,192,112475,1,0,0:0:0:0:
256,192,112475,1,0,0:0:0:0:
109,192,112475,1,0,0:0:0:0:
36,192,112595,1,0,0:0:0:0:
182,192,112595,1,0,0:0:0:0:
402,192,112595,1,0,0:0:0:0:
475,192,112595,1,0,0:0:0:0:
329,192,112715,1,0,0:0:0:0:
402,192,112715,1,0,0:0:0:0:
475,192,112835,1,0,0:0:0:0:
256,192,112835,1,0,0:0:0:0:
182,192,112835,1,0,0:0:0:0:
109,192,112835,1,0,0:0:0:0:
36,192,112835,1,0,0:0:0:0:
182,192,112955,1,0,0:0:0:0:
329,192,112955,1,0,0:0:0:0:
475,192,112955,1,0,0:0:0:0:
402,192,113075,1,0,0:0:0:0:
329,192,113075,1,0,0:0:0:0:
256,192,113075,1,0,0:0:0:0:
182,192,113075,1,0,0:0:0:0:
109,192,113075,1,0,0:0:0:0:
329,192,113195,1,0,0:0:0:0:
256,192,113315,1,0,0:0:0:0:
182,192,113315,1,0,0:0:0:0:
109,192,113315,1,0,0:0:0:0:
36,192,113315,1,0,0:0:0:0:
475,192,113315,1,0,0:0:0:0:
182,192,113435,1,0,0:0:0:0:
402,192,113435,1,0,0:0:0:0:
329,192,113555,1,0,0:0:0:0:
256,192,113555,1,0,0:0:0:0:
182,192,113555,1,0,0:0:0:0:
109,192,113555,1,0,0:0:0:0:
36,192,113675,1,0,0:0:0:0:
329,192,113675,1,0,0:0:0:0:
475,192,113675,1,0,0:0:0:0:
402,192,113795,1,0,0:0:0:0:
256,192,113795,1,0,0:0:0:0:
182,192,113795,1,0,0:0:0:0:
329,192,113795,1,0,0:0:0:0:
109,192,113915,1,0,0:0:0:0:
256,192,113915,1,0,0:0:0:0:
36,192,114035,1,0,0:0:0:0:
329,192,114035,1,0,0:0:0:0:
475,192,114035,1,0,0:0:0:0:
402,192,114155,1,0,0:0:0:0:
256,192,114155,1,0,0:0:0:0:
109,192,114155,1,0,0:0:0:0:
36,192,114275,1,0,0:0:0:0:
182,192,114275,1,0,0:0:0:0:
256,192,114275,1,0,0:0:0:0:
329,192,114275,1,0,0:0:0:0:
402,192,114275,1,0,0:0:0:0:
109,192,114395,1,0,0:0:0:0:
329,192,114395,1,0,0:0:0:0:
36,192,114515,1,0,0:0:0:0:
109,192,114515,1,0,0:0:0:0:
182,192,114515,1,0,0:0:0:0:
256,192,114515,1,0,0:0:0:0:
475,192,114515,1,0,0:0:0:0:
402,192,114635,1,0,0:0:0:0:
475,192,114755,1,0,0:0:0:0:
329,192,114755,1,0,0:0:0:0:
256,192,114755,1,0,0:0:0:0:
182,192,114755,1,0,0:0:0:0:
109,192,114755,1,0,0:0:0:0:
36,192,114875,1,0,0:0:0:0:
256,192,114875,1,0,0:0:0:0:
36,192,114995,1,0,0:0:0:0:
182,192,114995,1,0,0:0:0:0:
256,192,114995,1,0,0:0:0:0:
329,192,114995,1,0,0:0:0:0:
402,192,114995,1,0,0:0:0:0:
109,192,115115,1,0,0:0:0:0:
402,192,115115,1,0,0:0:0:0:
256,192,115235,1,0,0:0:0:0:
402,192,115235,1,0,0:0:0:0:
475,192,115235,1,0,0:0:0:0:
329,192,115235,1,0,0:0:0:0:
36,192,115235,1,0,0:0:0:0:
109,192,115355,1,0,0:0:0:0:
475,192,115355,1,0,0:0:0:0:
402,192,115475,1,0,0:0:0:0:
256,192,115475,1,0,0:0:0:0:
182,192,115475,1,0,0:0:0:0:
109,192,115475,1,0,0:0:0:0:
36,192,115475,1,0,0:0:0:0:
109,192,115595,1,0,0:0:0:0:
329,192,115595,1,0,0:0:0:0:
36,192,115715,1,0,0:0:0:0:
182,192,115715,1,0,0:0:0:0:
256,192,115715,1,0,0:0:0:0:
329,192,115715,1,0,0:0:0:0:
402,192,115715,1,0,0:0:0:0:
256,192,115835,1,0,0:0:0:0:
402,192,115835,1,0,0:0:0:0:
475,192,115955,1,0,0:0:0:0:
329,192,115955,1,0,0:0:0:0:
109,192,115955,1,0,0:0:0:0:
36,192,115955,1,0,0:0:0:0:
36,192,116075,1,0,0:0:0:0:
329,192,116075,1,0,0:0:0:0:
36,192,116195,1,0,0:0:0:0:
402,192,116195,1,0,0:0:0:0:
36,192,116315,1,0,0:0:0:0:
329,192,116315,1,0,0:0:0:0:
475,192,116435,1,0,0:0:0:0:
36,192,116435,1,0,0:0:0:0:
182,192,116435,1,0,0:0:0:0:
475,192,116555,1,0,0:0:0:0:
182,192,116555,1,0,0:0:0:0:
475,192,116675,1,0,0:0:0:0:
109,192,116675,1,0,0:0:0:0:
475,192,116795,1,0,0:0:0:0:
182,192,116795,1,0,0:0:0:0:
36,192,116915,1,0,0:0:0:0:
256,192,116915,1,0,0:0:0:0:
329,192,116915,1,0,0:0:0:0:
402,192,116915,1,0,0:0:0:0:
36,192,117035,1,0,0:0:0:0:
109,192,117035,1,0,0:0:0:0:
256,192,117035,1,0,0:0:0:0:
36,192,117155,1,0,0:0:0:0:
329,192,117155,1,0,0:0:0:0:
475,192,117155,1,0,0:0:0:0:
109,192,117275,1,0,0:0:0:0:
256,192,117275,1,0,0:0:0:0:
402,192,117275,1,0,0:0:0:0:
182,192,117395,1,0,0:0:0:0:
329,192,117395,1,0,0:0:0:0:
36,192,117515,1,0,0:0:0:0:
182,192,117515,1,0,0:0:0:0:
475,192,117515,1,0,0:0:0:0:
109,192,117635,1,0,0:0:0:0:
256,192,117635,1,0,0:0:0:0:
329,192,117635,1,0,0:0:0:0:
402,192,117635,1,0,0:0:0:0:
475,192,117635,1,0,0:0:0:0:
329,192,117755,1,0,0:0:0:0:
182,192,117755,1,0,0:0:0:0:
36,192,117755,1,0,0:0:0:0:
36,192,117875,1,0,0:0:0:0:
256,192,117875,1,0,0:0:0:0:
402,192,117875,1,0,0:0:0:0:
109,192,117995,1,0,0:0:0:0:
329,192,117995,1,0,0:0:0:0:
475,192,117995,1,0,0:0:0:0:
182,192,118115,1,0,0:0:0:0:
256,192,118115,1,0,0:0:0:0:
329,192,118115,1,0,0:0:0:0:
402,192,118115,1,0,0:0:0:0:
36,192,118235,1,0,0:0:0:0:
109,192,118235,1,0,0:0:0:0:
109,192,118355,1,0,0:0:0:0:
182,192,118355,1,0,0:0:0:0:
256,192,118355,1,0,0:0:0:0:
329,192,118355,1,0,0:0:0:0:
475,192,118355,1,0,0:0:0:0:
402,192,118475,1,0,0:0:0:0:
182,192,118475,1,0,0:0:0:0:
36,192,118595,1,0,0:0:0:0:
256,192,118595,1,0,0:0:0:0:
329,192,118595,1,0,0:0:0:0:
402,192,118595,1,0,0:0:0:0:
109,192,118715,1,0,0:0:0:0:
182,192,118715,1,0,0:0:0:0:
256,192,118715,1,0,0:0:0:0:
182,192,118835,1,0,0:0:0:0:
109,192,118835,1,0,0:0:0:0:
36,192,118835,1,0,0:0:0:0:
329,192,118835,1,0,0:0:0:0:
402,192,118835,1,0,0:0:0:0:
475,192,118835,1,0,0:0:0:0:
402,192,118955,1,0,0:0:0:0:
475,192,118955,1,0,0:0:0:0:
182,192,118955,1,0,0:0:0:0:
475,192,119075,1,0,0:0:0:0:
402,192,119075,1,0,0:0:0:0:
36,192,119075,1,0,0:0:0:0:
109,192,119195,1,0,0:0:0:0:
475,192,119195,1,0,0:0:0:0:
402,192,119195,1,0,0:0:0:0:
36,192,119315,1,0,0:0:0:0:
182,192,119315,1,0,0:0:0:0:
256,192,119315,1,0,0:0:0:0:
475,192,119315,1,0,0:0:0:0:
329,192,119315,1,0,0:0:0:0:
402,192,119315,1,0,0:0:0:0:
182,192,119435,1,0,0:0:0:0:
36,192,119435,1,0,0:0:0:0:
329,192,119435,1,0,0:0:0:0:
182,192,119555,1,0,0:0:0:0:
329,192,119555,1,0,0:0:0:0:
475,192,119555,1,0,0:0:0:0:
329,192,119675,1,0,0:0:0:0:
182,192,119675,1,0,0:0:0:0:
402,192,119675,1,0,0:0:0:0:
329,192,119795,1,0,0:0:0:0:
475,192,119795,1,0,0:0:0:0:
402,192,119795,1,0,0:0:0:0:
36,192,119795,1,0,0:0:0:0:
109,192,119795,1,0,0:0:0:0:
182,192,119795,1,0,0:0:0:0:
109,192,119915,1,0,0:0:0:0:
36,192,119915,1,0,0:0:0:0:
475,192,119915,1,0,0:0:0:0:
36,192,120035,1,0,0:0:0:0:
109,192,120035,1,0,0:0:0:0:
329,192,120035,1,0,0:0:0:0:
36,192,120155,1,0,0:0:0:0:
109,192,120155,1,0,0:0:0:0:
402,192,120155,1,0,0:0:0:0:
182,192,120275,1,0,0:0:0:0:
256,192,120275,1,0,0:0:0:0:
329,192,120275,1,0,0:0:0:0:
475,192,120275,1,0,0:0:0:0:
109,192,120275,1,0,0:0:0:0:
36,192,120275,1,0,0:0:0:0:
329,192,120395,1,0,0:0:0:0:
182,192,120395,1,0,0:0:0:0:
402,192,120395,1,0,0:0:0:0:
182,192,120515,1,0,0:0:0:0:
329,192,120515,1,0,0:0:0:0:
36,192,120515,1,0,0:0:0:0:
182,192,120635,1,0,0:0:0:0:
329,192,120635,1,0,0:0:0:0:
475,192,120635,1,0,0:0:0:0:
36,192,120755,1,0,0:0:0:0:
182,192,120755,1,0,0:0:0:0:
329,192,120755,1,0,0:0:0:0:
256,192,120755,1,0,0:0:0:0:
402,192,120755,1,0,0:0:0:0:
109,192,120755,1,0,0:0:0:0:
475,192,120875,1,0,0:0:0:0:
256,192,120875,1,0,0:0:0:0:
402,192,120995,1,0,0:0:0:0:
182,192,120995,1,0,0:0:0:0:
109,192,120995,1,0,0:0:0:0:
36,192,120995,1,0,0:0:0:0:
329,192,120995,1,0,0:0:0:0:
475,192,120995,1,0,0:0:0:0:
182,192,121115,1,0,0:0:0:0:
402,192,121115,1,0,0:0:0:0:
256,192,121235,1,0,0:0:0:0:
329,192,121235,1,0,0:0:0:0:
402,192,121235,1,0,0:0:0:0:
475,192,121235,1,0,0:0:0:0:
36,192,121235,1,0,0:0:0:0:
109,192,121235,1,0,0:0:0:0:
109,192,121355,1,0,0:0:0:0:
329,192,121355,1,0,0:0:0:0:
36,192,121475,1,0,0:0:0:0:
182,192,121475,1,0,0:0:0:0:
329,192,121475,1,0,0:0:0:0:
475,192,121475,1,0,0:0:0:0:
256,192,121475,1,0,0:0:0:0:
402,192,121475,1,0,0:0:0:0:
182,192,121595,1,0,0:0:0:0:
36,192,121595,1,0,0:0:0:0:
256,192,121715,1,0,0:0:0:0:
329,192,121715,1,0,0:0:0:0:
402,192,121715,1,0,0:0:0:0:
475,192,121715,1,0,0:0:0:0:
36,192,121715,1,0,0:0:0:0:
109,192,121715,1,0,0:0:0:0:
329,192,121835,1,0,0:0:0:0:
475,192,121835,1,0,0:0:0:0:
402,192,121955,1,0,0:0:0:0:
329,192,121955,1,0,0:0:0:0:
182,192,121955,1,0,0:0:0:0:
109,192,121955,1,0,0:0:0:0:
36,192,121955,1,0,0:0:0:0:
256,192,121955,1,0,0:0:0:0:
256,192,122075,1,0,0:0:0:0:
36,192,122075,1,0,0:0:0:0:
36,192,122195,1,0,0:0:0:0:
475,192,122195,1,0,0:0:0:0:
329,192,122195,1,0,0:0:0:0:
402,192,122195,1,0,0:0:0:0:
182,192,122195,1,0,0:0:0:0:
109,192,122195,1,0,0:0:0:0:
402,192,122315,1,0,0:0:0:0:
182,192,122315,1,0,0:0:0:0:
36,192,122435,1,0,0:0:0:0:
109,192,122435,1,0,0:0:0:0:
256,192,122435,1,0,0:0:0:0:
329,192,122435,1,0,0:0:0:0:
475,192,122435,1,0,0:0:0:0:
182,192,122435,1,0,0:0:0:0:
109,192,122555,1,0,0:0:0:0:
329,192,122555,1,0,0:0:0:0:
329,192,122675,1,0,0:0:0:0:
256,192,122675,1,0,0:0:0:0:
182,192,122675,1,0,0:0:0:0:
36,192,122675,1,0,0:0:0:0:
475,192,122675,1,0,0:0:0:0:
402,192,122675,1,0,0:0:0:0:
402,192,122795,1,0,0:0:0:0:
256,192,122795,1,0,0:0:0:0:
36,192,122915,1,0,0:0:0:0:
182,192,122915,1,0,0:0:0:0:
329,192,122915,1,0,0:0:0:0:
36,192,123035,1,0,0:0:0:0:
182,192,123035,1,0,0:0:0:0:
329,192,123035,1,0,0:0:0:0:
402,192,123035,1,0,0:0:0:0:
475,192,123035,1,0,0:0:0:0:
109,192,123155,1,0,0:0:0:0:
256,192,123155,1,0,0:0:0:0:
109,192,123275,1,0,0:0:0:0:
256,192,123275,1,0,0:0:0:0:
402,192,123275,1,0,0:0:0:0:
329,192,123395,1,0,0:0:0:0:
475,192,123395,1,0,0:0:0:0:
402,192,123395,1,0,0:0:0:0:
182,192,123395,1,0,0:0:0:0:
36,192,123395,1,0,0:0:0:0:
329,192,123515,1,0,0:0:0:0:
182,192,123515,1,0,0:0:0:0:
402,192,123635,1,0,0:0:0:0:
256,192,123635,1,0,0:0:0:0:
36,192,123635,1,0,0:0:0:0:
109,192,123635,1,0,0:0:0:0:
475,192,123755,1,0,0:0:0:0:
329,192,123755,1,0,0:0:0:0:
182,192,123875,1,0,0:0:0:0:
329,192,123875,1,0,0:0:0:0:
475,192,123875,1,0,0:0:0:0:
109,192,123875,1,0,0:0:0:0:
36,192,123995,1,0,0:0:0:0:
182,192,123995,1,0,0:0:0:0:
402,192,123995,1,0,0:0:0:0:
402,192,124115,1,0,0:0:0:0:
475,192,124115,1,0,0:0:0:0:
109,192,124115,1,0,0:0:0:0:
256,192,124115,1,0,0:0:0:0:
329,192,124235,1,0,0:0:0:0:
182,192,124235,1,0,0:0:0:0:
182,192,124355,1,0,0:0:0:0:
329,192,124355,1,0,0:0:0:0:
109,192,124355,1,0,0:0:0:0:
402,192,124355,1,0,0:0:0:0:
402,192,124475,1,0,0:0:0:0:
329,192,124475,1,0,0:0:0:0:
182,192,124475,1,0,0:0:0:0:
109,192,124475,1,0,0:0:0:0:
36,192,124595,1,0,0:0:0:0:
109,192,124595,1,0,0:0:0:0:
256,192,124595,1,0,0:0:0:0:
402,192,124595,1,0,0:0:0:0:
475,192,124595,1,0,0:0:0:0:
36,192,138707,5,0,0:0:0:0:
402,192,138707,1,0,0:0:0:0:
475,192,138707,1,0,0:0:0:0:
256,192,138707,1,0,0:0:0:0:
109,192,138707,1,0,0:0:0:0:
36,192,138843,1,0,0:0:0:0:
109,192,138843,1,0,0:0:0:0:
182,192,138979,1,0,0:0:0:0:
475,192,138979,1,0,0:0:0:0:
329,192,138979,1,0,0:0:0:0:
256,192,139116,1,0,0:0:0:0:
402,192,139116,1,0,0:0:0:0:
36,192,139116,1,0,0:0:0:0:
182,192,139116,1,0,0:0:0:0:
36,192,139252,1,0,0:0:0:0:
182,192,139252,1,0,0:0:0:0:
256,192,139252,1,0,0:0:0:0:
475,192,139388,1,0,0:0:0:0:
329,192,139388,1,0,0:0:0:0:
475,192,139525,1,0,0:0:0:0:
402,192,139525,1,0,0:0:0:0:
182,192,139593,1,0,0:0:0:0:
329,192,139593,1,0,0:0:0:0:
36,192,139661,1,0,0:0:0:0:
109,192,139661,1,0,0:0:0:0:
475,192,139729,1,0,0:0:0:0:
402,192,139729,1,0,0:0:0:0:
182,192,139797,1,0,0:0:0:0:
329,192,139797,1,0,0:0:0:0:
256,192,139797,1,0,0:0:0:0:
36,192,139797,1,0,0:0:0:0:
182,192,139934,1,0,0:0:0:0:
329,192,139934,1,0,0:0:0:0:
36,192,139934,1,0,0:0:0:0:
402,192,140002,1,0,0:0:0:0:
256,192,140002,1,0,0:0:0:0:
475,192,140070,1,0,0:0:0:0:
329,192,140070,1,0,0:0:0:0:
36,192,140138,1,0,0:0:0:0:
182,192,140138,1,0,0:0:0:0:
402,192,140207,1,0,0:0:0:0:
256,192,140207,1,0,0:0:0:0:
109,192,140275,1,0,0:0:0:0:
36,192,140275,1,0,0:0:0:0:
256,192,140343,1,0,0:0:0:0:
475,192,140343,1,0,0:0:0:0:
182,192,140343,1,0,0:0:0:0:
329,192,140343,1,0,0:0:0:0:
256,192,140479,1,0,0:0:0:0:
475,192,140479,1,0,0:0:0:0:
329,192,140616,1,0,0:0:0:0:
182,192,140616,1,0,0:0:0:0:
36,192,140616,1,0,0:0:0:0:
475,192,140752,1,0,0:0:0:0:
329,192,140752,1,0,0:0:0:0:
182,192,140752,1,0,0:0:0:0:
329,192,140888,1,0,0:0:0:0:
256,192,140888,1,0,0:0:0:0:
36,192,140888,1,0,0:0:0:0:
109,192,140888,1,0,0:0:0:0:
329,192,141025,1,0,0:0:0:0:
109,192,141025,1,0,0:0:0:0:
36,192,141025,1,0,0:0:0:0:
475,192,141161,1,0,0:0:0:0:
256,192,141161,1,0,0:0:0:0:
182,192,141161,1,0,0:0:0:0:
402,192,141161,1,0,0:0:0:0:
182,192,141297,1,0,0:0:0:0:
402,192,141297,1,0,0:0:0:0:
475,192,141297,1,0,0:0:0:0:
329,192,141434,1,0,0:0:0:0:
256,192,141434,1,0,0:0:0:0:
109,192,141434,1,0,0:0:0:0:
36,192,141434,1,0,0:0:0:0:
256,192,141570,1,0,0:0:0:0:
182,192,141638,1,0,0:0:0:0:
329,192,141638,1,0,0:0:0:0:
109,192,141672,1,0,0:0:0:0:
402,192,141672,1,0,0:0:0:0:
475,192,141707,1,0,0:0:0:0:
36,192,141707,1,0,0:0:0:0:
475,192,141911,1,0,0:0:0:0:
36,192,141911,1,0,0:0:0:0:
329,192,141979,1,0,0:0:0:0:
402,192,141979,1,0,0:0:0:0:
109,192,141979,1,0,0:0:0:0:
256,192,141979,1,0,0:0:0:0:
256,192,142116,1,0,0:0:0:0:
109,192,142116,1,0,0:0:0:0:
402,192,142252,1,0,0:0:0:0:
475,192,142252,1,0,0:0:0:0:
36,192,142252,1,0,0:0:0:0:
329,192,142320,1,0,0:0:0:0:
109,192,142320,1,0,0:0:0:0:
402,192,142388,1,0,0:0:0:0:
475,192,142388,1,0,0:0:0:0:
182,192,142388,1,0,0:0:0:0:
256,192,142388,1,0,0:0:0:0:
256,192,142525,1,0,0:0:0:0:
402,192,142525,1,0,0:0:0:0:
109,192,142661,1,0,0:0:0:0:
475,192,142661,1,0,0:0:0:0:
36,192,142661,1,0,0:0:0:0:
402,192,142729,1,0,0:0:0:0:
182,192,142729,1,0,0:0:0:0:
109,192,142797,1,0,0:0:0:0:
36,192,142797,1,0,0:0:0:0:
475,192,142797,1,0,0:0:0:0:
256,192,142797,1,0,0:0:0:0:
109,192,142934,1,0,0:0:0:0:
256,192,142934,1,0,0:0:0:0:
402,192,143070,1,0,0:0:0:0:
329,192,143070,1,0,0:0:0:0:
182,192,143070,1,0,0:0:0:0:
36,192,143070,1,0,0:0:0:0:
329,192,143207,1,0,0:0:0:0:
182,192,143207,1,0,0:0:0:0:
109,192,143207,1,0,0:0:0:0:
36,192,143343,1,0,0:0:0:0:
475,192,143343,1,0,0:0:0:0:
256,192,143343,1,0,0:0:0:0:
182,192,143479,1,0,0:0:0:0:
329,192,143479,1,0,0:0:0:0:
109,192,143479,1,0,0:0:0:0:
402,192,143479,1,0,0:0:0:0:
329,192,143616,1,0,0:0:0:0:
109,192,143616,1,0,0:0:0:0:
182,192,143616,1,0,0:0:0:0:
475,192,143752,1,0,0:0:0:0:
402,192,143752,1,0,0:0:0:0:
256,192,143752,1,0,0:0:0:0:
109,192,143888,1,0,0:0:0:0:
36,192,143888,1,0,0:0:0:0:
256,192,143888,1,0,0:0:0:0:
182,192,143991,1,0,0:0:0:0:
109,192,144025,1,0,0:0:0:0:
36,192,144025,1,0,0:0:0:0:
475,192,144093,1,0,0:0:0:0:
329,192,144093,1,0,0:0:0:0:
36,192,144161,1,0,0:0:0:0:
182,192,144161,1,0,0:0:0:0:
402,192,144161,1,0,0:0:0:0:
256,192,144161,1,0,0:0:0:0:
182,192,144297,1,0,0:0:0:0:
36,192,144297,1,0,0:0:0:0:
329,192,144434,1,0,0:0:0:0:
475,192,144434,1,0,0:0:0:0:
109,192,144434,1,0,0:0:0:0:
256,192,144434,1,0,0:0:0:0:
329,192,144570,1,0,0:0:0:0:
475,192,144570,1,0,0:0:0:0:
256,192,144570,1,0,0:0:0:0:
182,192,144707,1,0,0:0:0:0:
36,192,144707,1,0,0:0:0:0:
402,192,144843,1,0,0:0:0:0:
475,192,144843,1,0,0:0:0:0:
256,192,144843,1,0,0:0:0:0:
182,192,144979,1,0,0:0:0:0:
36,192,144979,1,0,0:0:0:0:
475,192,145047,1,0,0:0:0:0:
329,192,145047,1,0,0:0:0:0:
109,192,145116,1,0,0:0:0:0:
256,192,145116,1,0,0:0:0:0:
402,192,145184,1,0,0:0:0:0:
475,192,145184,1,0,0:0:0:0:
36,192,145252,1,0,0:0:0:0:
109,192,145252,1,0,0:0:0:0:
329,192,145252,1,0,0:0:0:0:
182,192,145252,1,0,0:0:0:0:
329,192,145388,1,0,0:0:0:0:
182,192,145388,1,0,0:0:0:0:
36,192,145388,1,0,0:0:0:0:
475,192,145525,1,0,0:0:0:0:
402,192,145525,1,0,0:0:0:0:
256,192,145525,1,0,0:0:0:0:
329,192,145661,1,0,0:0:0:0:
109,192,145729,1,0,0:0:0:0:
36,192,145729,1,0,0:0:0:0:
256,192,145797,1,0,0:0:0:0:
475,192,145797,1,0,0:0:0:0:
329,192,145797,1,0,0:0:0:0:
182,192,145866,1,0,0:0:0:0:
329,192,145934,1,0,0:0:0:0:
402,192,145934,1,0,0:0:0:0:
109,192,145934,1,0,0:0:0:0:
36,192,145934,1,0,0:0:0:0:
402,192,146070,1,0,0:0:0:0:
475,192,146070,1,0,0:0:0:0:
182,192,146104,1,0,0:0:0:0:
109,192,146138,1,0,0:0:0:0:
36,192,146172,1,0,0:0:0:0:
256,192,146207,1,0,0:0:0:0:
329,192,146241,1,0,0:0:0:0:
402,192,146275,1,0,0:0:0:0:
475,192,146309,1,0,0:0:0:0:
36,192,146343,1,0,0:0:0:0:
256,192,146343,1,0,0:0:0:0:
182,192,146343,1,0,0:0:0:0:
109,192,146343,1,0,0:0:0:0:
475,192,146479,1,0,0:0:0:0:
329,192,146479,1,0,0:0:0:0:
402,192,146479,1,0,0:0:0:0:
182,192,146547,1,0,0:0:0:0:
109,192,146547,1,0,0:0:0:0:
402,192,146616,1,0,0:0:0:0:
475,192,146616,1,0,0:0:0:0:
36,192,146616,1,0,0:0:0:0:
256,192,146616,1,0,0:0:0:0:
36,192,146752,1,0,0:0:0:0:
109,192,146752,1,0,0:0:0:0:
182,192,146752,1,0,0:0:0:0:
402,192,146820,1,0,0:0:0:0:
329,192,146820,1,0,0:0:0:0:
36,192,146888,1,0,0:0:0:0:
475,192,146888,1,0,0:0:0:0:
256,192,146888,1,0,0:0:0:0:
109,192,146888,1,0,0:0:0:0:
475,192,147025,1,0,0:0:0:0:
329,192,147025,1,0,0:0:0:0:
402,192,147025,1,0,0:0:0:0:
109,192,147093,1,0,0:0:0:0:
182,192,147093,1,0,0:0:0:0:
402,192,147161,1,0,0:0:0:0:
475,192,147161,1,0,0:0:0:0:
36,192,147161,1,0,0:0:0:0:
256,192,147161,1,0,0:0:0:0:
36,192,147297,1,0,0:0:0:0:
256,192,147297,1,0,0:0:0:0:
475,192,147297,1,0,0:0:0:0:
329,192,147434,1,0,0:0:0:0:
402,192,147434,1,0,0:0:0:0:
109,192,147434,1,0,0:0:0:0:
182,192,147434,1,0,0:0:0:0:
475,192,147707,1,0,0:0:0:0:
256,192,147707,1,0,0:0:0:0:
36,192,147707,1,0,0:0:0:0:
402,192,147843,1,0,0:0:0:0:
329,192,147843,1,0,0:0:0:0:
182,192,147843,1,0,0:0:0:0:
109,192,147843,1,0,0:0:0:0:
402,192,147979,1,0,0:0:0:0:
182,192,147979,1,0,0:0:0:0:
109,192,147979,1,0,0:0:0:0:
475,192,148116,1,0,0:0:0:0:
36,192,148116,1,0,0:0:0:0:
256,192,148116,1,0,0:0:0:0:
182,192,148252,1,0,0:0:0:0:
109,192,148252,1,0,0:0:0:0:
402,192,148252,1,0,0:0:0:0:
329,192,148252,1,0,0:0:0:0:
109,192,148388,1,0,0:0:0:0:
402,192,148388,1,0,0:0:0:0:
329,192,148388,1,0,0:0:0:0:
329,192,148525,1,0,0:0:0:0:
475,192,148525,1,0,0:0:0:0:
182,192,148525,1,0,0:0:0:0:
36,192,148525,1,0,0:0:0:0:
329,192,148661,1,0,0:0:0:0:
475,192,148661,1,0,0:0:0:0:
36,192,148661,1,0,0:0:0:0:
182,192,148661,1,0,0:0:0:0:
109,192,148729,1,0,0:0:0:0:
256,192,148729,1,0,0:0:0:0:
402,192,148729,1,0,0:0:0:0:
329,192,148797,1,0,0:0:0:0:
475,192,148797,1,0,0:0:0:0:
36,192,148797,1,0,0:0:0:0:
182,192,148797,1,0,0:0:0:0:
182,192,148934,1,0,0:0:0:0:
36,192,148934,1,0,0:0:0:0:
475,192,148934,1,0,0:0:0:0:
329,192,148934,1,0,0:0:0:0:
329,192,149070,1,0,0:0:0:0:
475,192,149070,1,0,0:0:0:0:
36,192,149070,1,0,0:0:0:0:
182,192,149070,1,0,0:0:0:0:
36,192,149207,1,0,0:0:0:0:
182,192,149207,1,0,0:0:0:0:
475,192,149343,1,0,0:0:0:0:
402,192,149343,1,0,0:0:0:0:
256,192,149343,1,0,0:0:0:0:
36,192,149479,1,0,0:0:0:0:
182,192,149479,1,0,0:0:0:0:
329,192,149547,1,0,0:0:0:0:
475,192,149547,1,0,0:0:0:0:
256,192,149616,1,0,0:0:0:0:
402,192,149616,1,0,0:0:0:0:
36,192,149616,1,0,0:0:0:0:
109,192,149616,1,0,0:0:0:0:
109,192,149752,1,0,0:0:0:0:
256,192,149752,1,0,0:0:0:0:
36,192,149752,1,0,0:0:0:0:
475,192,149888,1,0,0:0:0:0:
329,192,149888,1,0,0:0:0:0:
182,192,149888,1,0,0:0:0:0:
475,192,150025,1,0,0:0:0:0:
109,192,150025,1,0,0:0:0:0:
256,192,150025,1,0,0:0:0:0:
402,192,150025,1,0,0:0:0:0:
36,192,150161,1,0,0:0:0:0:
182,192,150161,1,0,0:0:0:0:
475,192,150229,1,0,0:0:0:0:
329,192,150229,1,0,0:0:0:0:
402,192,150297,1,0,0:0:0:0:
256,192,150297,1,0,0:0:0:0:
109,192,150297,1,0,0:0:0:0:
36,192,150434,1,0,0:0:0:0:
475,192,150434,1,0,0:0:0:0:
329,192,150502,1,0,0:0:0:0:
182,192,150502,1,0,0:0:0:0:
475,192,150570,1,0,0:0:0:0:
36,192,150570,1,0,0:0:0:0:
402,192,150638,1,0,0:0:0:0:
109,192,150638,1,0,0:0:0:0:
182,192,150707,1,0,0:0:0:0:
329,192,150707,1,0,0:0:0:0:
475,192,150707,1,0,0:0:0:0:
36,192,150707,1,0,0:0:0:0:
109,192,150843,1,0,0:0:0:0:
256,192,150843,1,0,0:0:0:0:
402,192,150843,1,0,0:0:0:0:
182,192,150979,1,0,0:0:0:0:
475,192,151047,1,0,0:0:0:0:
329,192,151047,1,0,0:0:0:0:
109,192,151116,1,0,0:0:0:0:
256,192,151116,1,0,0:0:0:0:
36,192,151184,1,0,0:0:0:0:
182,192,151184,1,0,0:0:0:0:
329,192,151252,1,0,0:0:0:0:
402,192,151252,1,0,0:0:0:0:
475,192,151252,1,0,0:0:0:0:
256,192,151388,1,0,0:0:0:0:
329,192,151388,1,0,0:0:0:0:
402,192,151388,1,0,0:0:0:0:
182,192,151525,1,0,0:0:0:0:
256,192,151525,1,0,0:0:0:0:
329,192,151525,1,0,0:0:0:0:
109,192,151661,1,0,0:0:0:0:
182,192,151661,1,0,0:0:0:0:
256,192,151661,1,0,0:0:0:0:
182,192,151797,1,0,0:0:0:0:
475,192,151797,1,0,0:0:0:0:
36,192,151797,1,0,0:0:0:0:
109,192,151797,1,0,0:0:0:0:
475,192,151934,1,0,0:0:0:0:
182,192,151934,1,0,0:0:0:0:
36,192,151934,1,0,0:0:0:0:
256,192,152070,1,0,0:0:0:0:
109,192,152070,1,0,0:0:0:0:
402,192,152070,1,0,0:0:0:0:
475,192,152207,1,0,0:0:0:0:
36,192,152207,1,0,0:0:0:0:
329,192,152207,1,0,0:0:0:0:
402,192,152207,1,0,0:0:0:0:
36,192,152343,1,0,0:0:0:0:
329,192,152343,1,0,0:0:0:0:
475,192,152343,1,0,0:0:0:0:
402,192,152479,1,0,0:0:0:0:
256,192,152479,1,0,0:0:0:0:
109,192,152479,1,0,0:0:0:0:
36,192,152616,1,0,0:0:0:0:
475,192,152616,1,0,0:0:0:0:
329,192,152684,1,0,0:0:0:0:
182,192,152684,1,0,0:0:0:0:
36,192,152752,1,0,0:0:0:0:
475,192,152752,1,0,0:0:0:0:
329,192,152820,1,0,0:0:0:0:
182,192,152820,1,0,0:0:0:0:
475,192,152888,1,0,0:0:0:0:
36,192,152888,1,0,0:0:0:0:
109,192,152922,1,0,0:0:0:0:
402,192,152922,1,0,0:0:0:0:
329,192,152957,1,0,0:0:0:0:
182,192,152957,1,0,0:0:0:0:
36,192,153025,1,0,0:0:0:0:
475,192,153025,1,0,0:0:0:0:
329,192,153161,1,0,0:0:0:0:
475,192,153161,1,0,0:0:0:0:
36,192,153161,1,0,0:0:0:0:
182,192,153161,1,0,0:0:0:0:
475,192,153297,1,0,0:0:0:0:
329,192,153297,1,0,0:0:0:0:
182,192,153297,1,0,0:0:0:0:
36,192,153297,1,0,0:0:0:0:
402,192,153434,1,0,0:0:0:0:
256,192,153434,1,0,0:0:0:0:
109,192,153434,1,0,0:0:0:0:
329,192,153570,1,0,0:0:0:0:
182,192,153570,1,0,0:0:0:0:
36,192,153638,1,0,0:0:0:0:
475,192,153638,1,0,0:0:0:0:
402,192,153707,1,0,0:0:0:0:
329,192,153707,1,0,0:0:0:0:
109,192,153707,1,0,0:0:0:0:
182,192,153707,1,0,0:0:0:0:
475,192,153843,1,0,0:0:0:0:
36,192,153843,1,0,0:0:0:0:
256,192,153843,1,0,0:0:0:0:
182,192,153979,1,0,0:0:0:0:
329,192,153979,1,0,0:0:0:0:
36,192,153979,1,0,0:0:0:0:
475,192,153979,1,0,0:0:0:0:
329,192,154116,1,0,0:0:0:0:
36,192,154116,1,0,0:0:0:0:
182,192,154116,1,0,0:0:0:0:
475,192,154252,1,0,0:0:0:0:
402,192,154252,1,0,0:0:0:0:
256,192,154252,1,0,0:0:0:0:
329,192,154388,1,0,0:0:0:0:
182,192,154411,1,0,0:0:0:0:
36,192,154411,1,0,0:0:0:0:
402,192,154491,1,0,0:0:0:0:
256,192,154491,1,0,0:0:0:0:
182,192,154593,1,0,0:0:0:0:
475,192,154593,1,0,0:0:0:0:
329,192,154593,1,0,0:0:0:0:
256,192,154661,1,0,0:0:0:0:
402,192,154661,1,0,0:0:0:0:
36,192,154661,1,0,0:0:0:0:
109,192,154661,1,0,0:0:0:0:
36,192,154797,1,0,0:0:0:0:
475,192,154797,1,0,0:0:0:0:
329,192,154797,1,0,0:0:0:0:
329,192,154934,1,0,0:0:0:0:
182,192,154934,1,0,0:0:0:0:
109,192,155002,5,0,0:0:0:0:
256,192,155002,1,0,0:0:0:0:
402,192,155002,1,0,0:0:0:0:
182,192,155070,5,0,0:0:0:0:
475,192,155070,1,0,0:0:0:0:
329,192,155070,1,0,0:0:0:0:
36,192,155070,1,0,0:0:0:0:
36,192,156161,5,0,0:0:0:0:
402,192,156161,1,0,0:0:0:0:
109,192,156161,1,0,0:0:0:0:
256,192,156161,1,0,0:0:0:0:
182,192,156161,1,0,0:0:0:0:
475,192,156297,1,0,0:0:0:0:
329,192,156297,1,0,0:0:0:0:
256,192,156434,1,0,0:0:0:0:
36,192,156434,1,0,0:0:0:0:
109,192,156434,1,0,0:0:0:0:
402,192,156434,1,0,0:0:0:0:
182,192,156570,1,0,0:0:0:0:
109,192,156570,1,0,0:0:0:0:
402,192,156638,1,0,0:0:0:0:
329,192,156638,1,0,0:0:0:0:
36,192,156707,1,0,0:0:0:0:
182,192,156707,1,0,0:0:0:0:
475,192,156707,1,0,0:0:0:0:
256,192,156707,1,0,0:0:0:0:
109,192,156843,1,0,0:0:0:0:
329,192,156843,1,0,0:0:0:0:
475,192,156843,1,0,0:0:0:0:
256,192,156979,1,0,0:0:0:0:
475,192,156979,1,0,0:0:0:0:
36,192,156979,1,0,0:0:0:0:
402,192,156979,1,0,0:0:0:0:
182,192,157116,1,0,0:0:0:0:
109,192,157116,1,0,0:0:0:0:
402,192,157184,1,0,0:0:0:0:
329,192,157184,1,0,0:0:0:0:
36,192,157252,1,0,0:0:0:0:
256,192,157252,1,0,0:0:0:0:
475,192,157252,1,0,0:0:0:0:
109,192,157252,1,0,0:0:0:0:
329,192,157388,1,0,0:0:0:0:
182,192,157388,1,0,0:0:0:0:
36,192,157388,1,0,0:0:0:0:
256,192,157525,1,0,0:0:0:0:
36,192,157525,1,0,0:0:0:0:
475,192,157525,1,0,0:0:0:0:
402,192,157525,1,0,0:0:0:0:
475,192,157661,1,0,0:0:0:0:
182,192,157661,1,0,0:0:0:0:
329,192,157661,1,0,0:0:0:0:
109,192,157797,1,0,0:0:0:0:
475,192,157797,1,0,0:0:0:0:
36,192,157797,1,0,0:0:0:0:
256,192,157797,1,0,0:0:0:0:
36,192,157934,1,0,0:0:0:0:
182,192,157934,1,0,0:0:0:0:
475,192,158002,1,0,0:0:0:0:
329,192,158002,1,0,0:0:0:0:
256,192,158070,1,0,0:0:0:0:
402,192,158070,1,0,0:0:0:0:
36,192,158070,1,0,0:0:0:0:
109,192,158070,1,0,0:0:0:0:
109,192,158207,1,0,0:0:0:0:
402,192,158207,1,0,0:0:0:0:
256,192,158207,1,0,0:0:0:0:
36,192,158207,1,0,0:0:0:0:
475,192,158343,1,0,0:0:0:0:
329,192,158343,1,0,0:0:0:0:
256,192,158343,1,0,0:0:0:0:
182,192,158343,1,0,0:0:0:0:
109,192,158479,1,0,0:0:0:0:
329,192,158479,1,0,0:0:0:0:
475,192,158479,1,0,0:0:0:0:
256,192,158616,1,0,0:0:0:0:
182,192,158616,1,0,0:0:0:0:
36,192,158616,1,0,0:0:0:0:
475,192,158616,1,0,0:0:0:0:
329,192,158752,1,0,0:0:0:0:
182,192,158752,1,0,0:0:0:0:
402,192,158820,1,0,0:0:0:0:
256,192,158820,1,0,0:0:0:0:
36,192,158888,1,0,0:0:0:0:
475,192,158888,1,0,0:0:0:0:
329,192,158888,1,0,0:0:0:0:
109,192,158888,1,0,0:0:0:0:
329,192,159025,1,0,0:0:0:0:
36,192,159025,1,0,0:0:0:0:
182,192,159025,1,0,0:0:0:0:
256,192,159161,1,0,0:0:0:0:
109,192,159161,1,0,0:0:0:0:
36,192,159161,1,0,0:0:0:0:
475,192,159161,1,0,0:0:0:0:
329,192,159297,1,0,0:0:0:0:
182,192,159297,1,0,0:0:0:0:
256,192,159366,1,0,0:0:0:0:
109,192,159366,1,0,0:0:0:0:
36,192,159434,1,0,0:0:0:0:
182,192,159434,1,0,0:0:0:0:
402,192,159434,1,0,0:0:0:0:
475,192,159434,1,0,0:0:0:0:
182,192,159570,1,0,0:0:0:0:
475,192,159570,1,0,0:0:0:0:
36,192,159570,1,0,0:0:0:0:
402,192,159570,1,0,0:0:0:0:
329,192,159707,1,0,0:0:0:0:
109,192,159707,1,0,0:0:0:0:
36,192,159707,1,0,0:0:0:0:
475,192,159707,1,0,0:0:0:0:
329,192,159843,1,0,0:0:0:0:
182,192,159843,1,0,0:0:0:0:
402,192,159911,1,0,0:0:0:0:
109,192,159911,1,0,0:0:0:0:
36,192,159979,1,0,0:0:0:0:
475,192,159979,1,0,0:0:0:0:
256,192,159979,1,0,0:0:0:0:
329,192,159979,1,0,0:0:0:0:
329,192,160116,1,0,0:0:0:0:
256,192,160116,1,0,0:0:0:0:
36,192,160116,1,0,0:0:0:0:
475,192,160116,1,0,0:0:0:0:
109,192,160252,1,0,0:0:0:0:
402,192,160252,1,0,0:0:0:0:
182,192,160388,1,0,0:0:0:0:
256,192,160388,1,0,0:0:0:0:
475,192,160388,1,0,0:0:0:0:
36,192,160388,1,0,0:0:0:0:
36,192,160525,1,0,0:0:0:0:
182,192,160525,1,0,0:0:0:0:
256,192,160525,1,0,0:0:0:0:
475,192,160525,1,0,0:0:0:0:
109,192,160661,1,0,0:0:0:0:
329,192,160661,1,0,0:0:0:0:
256,192,160797,1,0,0:0:0:0:
402,192,160797,1,0,0:0:0:0:
36,192,160797,1,0,0:0:0:0:
182,192,160797,1,0,0:0:0:0:
182,192,160934,1,0,0:0:0:0:
109,192,160934,1,0,0:0:0:0:
402,192,161002,1,0,0:0:0:0:
475,192,161002,1,0,0:0:0:0:
36,192,161070,1,0,0:0:0:0:
182,192,161070,1,0,0:0:0:0:
329,192,161070,1,0,0:0:0:0:
256,192,161070,1,0,0:0:0:0:
329,192,161207,1,0,0:0:0:0:
109,192,161207,1,0,0:0:0:0:
402,192,161207,1,0,0:0:0:0:
256,192,161343,1,0,0:0:0:0:
475,192,161343,1,0,0:0:0:0:
36,192,161343,1,0,0:0:0:0:
329,192,161343,1,0,0:0:0:0:
109,192,161479,1,0,0:0:0:0:
182,192,161479,1,0,0:0:0:0:
475,192,161547,1,0,0:0:0:0:
402,192,161547,1,0,0:0:0:0:
36,192,161616,1,0,0:0:0:0:
182,192,161616,1,0,0:0:0:0:
256,192,161616,1,0,0:0:0:0:
329,192,161616,1,0,0:0:0:0:
256,192,161752,1,0,0:0:0:0:
475,192,161752,1,0,0:0:0:0:
402,192,161752,1,0,0:0:0:0:
329,192,161888,1,0,0:0:0:0:
109,192,161888,1,0,0:0:0:0:
36,192,161888,1,0,0:0:0:0:
182,192,161888,1,0,0:0:0:0:
256,192,162025,1,0,0:0:0:0:
109,192,162025,1,0,0:0:0:0:
402,192,162025,1,0,0:0:0:0:
36,192,162161,1,0,0:0:0:0:
182,192,162161,1,0,0:0:0:0:
329,192,162161,1,0,0:0:0:0:
475,192,162161,1,0,0:0:0:0:
182,192,162297,1,0,0:0:0:0:
402,192,162297,1,0,0:0:0:0:
36,192,162366,1,0,0:0:0:0:
109,192,162366,1,0,0:0:0:0:
256,192,162434,1,0,0:0:0:0:
329,192,162434,1,0,0:0:0:0:
475,192,162434,1,0,0:0:0:0:
182,192,162434,1,0,0:0:0:0:
402,192,162570,1,0,0:0:0:0:
329,192,162570,1,0,0:0:0:0:
182,192,162570,1,0,0:0:0:0:
36,192,162570,1,0,0:0:0:0:
475,192,162707,1,0,0:0:0:0:
256,192,162707,1,0,0:0:0:0:
402,192,162707,1,0,0:0:0:0:
109,192,162707,1,0,0:0:0:0:
256,192,162843,1,0,0:0:0:0:
36,192,162843,1,0,0:0:0:0:
402,192,162843,1,0,0:0:0:0:
402,192,162979,1,0,0:0:0:0:
109,192,162979,1,0,0:0:0:0:
182,192,162979,1,0,0:0:0:0:
256,192,162979,1,0,0:0:0:0:
475,192,163116,1,0,0:0:0:0:
36,192,163116,1,0,0:0:0:0:
402,192,163184,1,0,0:0:0:0:
182,192,163184,1,0,0:0:0:0:
36,192,163252,1,0,0:0:0:0:
329,192,163252,1,0,0:0:0:0:
256,192,163252,1,0,0:0:0:0:
109,192,163252,1,0,0:0:0:0:
256,192,163388,1,0,0:0:0:0:
109,192,163388,1,0,0:0:0:0:
402,192,163388,1,0,0:0:0:0:
256,192,163525,1,0,0:0:0:0:
109,192,163525,1,0,0:0:0:0:
329,192,163525,1,0,0:0:0:0:
475,192,163525,1,0,0:0:0:0:
36,192,163661,1,0,0:0:0:0:
475,192,163661,1,0,0:0:0:0:
109,192,163729,1,0,0:0:0:0:
329,192,163729,1,0,0:0:0:0:
402,192,164343,1,0,0:0:0:0:
475,192,164377,1,0,0:0:0:0:
109,192,164411,1,0,0:0:0:0:
36,192,164445,1,0,0:0:0:0:
402,192,164479,1,0,0:0:0:0:
475,192,164513,1,0,0:0:0:0:
109,192,164547,1,0,0:0:0:0:
36,192,164582,1,0,0:0:0:0:
329,192,164616,1,0,0:0:0:0:
256,192,164650,1,0,0:0:0:0:
182,192,164684,1,0,0:0:0:0:
109,192,164718,1,0,0:0:0:0:
36,192,164752,1,0,0:0:0:0:
475,192,164752,1,0,0:0:0:0:
402,192,164775,1,0,0:0:0:0:
329,192,164797,1,0,0:0:0:0:
256,192,164820,1,0,0:0:0:0:
182,192,164843,1,0,0:0:0:0:
109,192,164866,1,0,0:0:0:0:
475,192,164888,1,0,0:0:0:0:
402,192,164888,1,0,0:0:0:0:
36,192,164888,1,0,0:0:0:0:
109,192,165025,1,0,0:0:0:0:
402,192,165025,1,0,0:0:0:0:
256,192,165025,1,0,0:0:0:0:
475,192,165161,1,0,0:0:0:0:
182,192,165161,1,0,0:0:0:0:
36,192,165161,1,0,0:0:0:0:
329,192,165161,1,0,0:0:0:0:
256,192,165297,1,0,0:0:0:0:
402,192,165297,1,0,0:0:0:0:
109,192,165297,1,0,0:0:0:0:
36,192,165434,1,0,0:0:0:0:
329,192,165434,1,0,0:0:0:0:
475,192,165434,1,0,0:0:0:0:
182,192,165434,1,0,0:0:0:0:
329,192,165570,1,0,0:0:0:0:
182,192,165570,1,0,0:0:0:0:
36,192,165570,1,0,0:0:0:0:
402,192,165707,1,0,0:0:0:0:
256,192,165707,1,0,0:0:0:0:
475,192,165707,1,0,0:0:0:0:
109,192,165707,1,0,0:0:0:0:
402,192,165843,1,0,0:0:0:0:
109,192,165843,1,0,0:0:0:0:
256,192,165843,1,0,0:0:0:0:
182,192,165911,1,0,0:0:0:0:
329,192,165911,1,0,0:0:0:0:
36,192,165979,1,0,0:0:0:0:
475,192,165979,1,0,0:0:0:0:
256,192,165979,1,0,0:0:0:0:
402,192,165979,1,0,0:0:0:0:
182,192,166116,1,0,0:0:0:0:
329,192,166116,1,0,0:0:0:0:
109,192,166116,1,0,0:0:0:0:
256,192,166252,1,0,0:0:0:0:
475,192,166252,1,0,0:0:0:0:
36,192,166252,1,0,0:0:0:0:
402,192,166252,1,0,0:0:0:0:
329,192,166388,1,0,0:0:0:0:
182,192,166388,1,0,0:0:0:0:
109,192,166388,1,0,0:0:0:0:
256,192,166457,1,0,0:0:0:0:
402,192,166457,1,0,0:0:0:0:
36,192,166525,1,0,0:0:0:0:
109,192,166525,1,0,0:0:0:0:
329,192,166525,1,0,0:0:0:0:
475,192,166525,1,0,0:0:0:0:
182,192,166661,1,0,0:0:0:0:
402,192,166661,1,0,0:0:0:0:
329,192,166661,1,0,0:0:0:0:
109,192,166729,1,0,0:0:0:0:
256,192,166729,1,0,0:0:0:0:
36,192,166797,1,0,0:0:0:0:
402,192,166797,1,0,0:0:0:0:
475,192,166797,1,0,0:0:0:0:
182,192,166797,1,0,0:0:0:0:
402,192,166934,1,0,0:0:0:0:
329,192,166934,1,0,0:0:0:0:
256,192,166968,1,0,0:0:0:0:
182,192,167002,1,0,0:0:0:0:
109,192,167036,1,0,0:0:0:0:
402,192,167070,1,0,0:0:0:0:
36,192,167070,1,0,0:0:0:0:
329,192,167070,1,0,0:0:0:0:
475,192,167070,1,0,0:0:0:0:
182,192,167207,1,0,0:0:0:0:
256,192,167207,1,0,0:0:0:0:
109,192,167207,1,0,0:0:0:0:
36,192,167343,1,0,0:0:0:0:
402,192,167343,1,0,0:0:0:0:
475,192,167343,1,0,0:0:0:0:
109,192,167343,1,0,0:0:0:0:
256,192,167411,1,0,0:0:0:0:
182,192,167411,1,0,0:0:0:0:
329,192,167479,1,0,0:0:0:0:
475,192,167479,1,0,0:0:0:0:
36,192,167479,1,0,0:0:0:0:
402,192,167616,1,0,0:0:0:0:
256,192,167616,1,0,0:0:0:0:
182,192,167616,1,0,0:0:0:0:
109,192,167616,1,0,0:0:0:0:
329,192,167752,1,0,0:0:0:0:
109,192,167752,1,0,0:0:0:0:
182,192,167752,1,0,0:0:0:0:
475,192,167820,1,0,0:0:0:0:
402,192,167820,1,0,0:0:0:0:
109,192,167888,1,0,0:0:0:0:
182,192,167888,1,0,0:0:0:0:
36,192,167888,1,0,0:0:0:0:
256,192,167922,1,0,0:0:0:0:
329,192,167957,1,0,0:0:0:0:
402,192,167991,1,0,0:0:0:0:
475,192,168025,1,0,0:0:0:0:
36,192,168025,1,0,0:0:0:0:
109,192,168047,1,0,0:0:0:0:
182,192,168070,1,0,0:0:0:0:
256,192,168093,1,0,0:0:0:0:
329,192,168116,1,0,0:0:0:0:
402,192,168138,1,0,0:0:0:0:
475,192,168161,1,0,0:0:0:0:
36,192,168161,1,0,0:0:0:0:
182,192,168297,1,0,0:0:0:0:
329,192,168297,1,0,0:0:0:0:
109,192,168297,1,0,0:0:0:0:
182,192,168434,1,0,0:0:0:0:
36,192,168434,1,0,0:0:0:0:
402,192,168434,1,0,0:0:0:0:
256,192,168434,1,0,0:0:0:0:
109,192,168570,1,0,0:0:0:0:
402,192,168570,1,0,0:0:0:0:
256,192,168570,1,0,0:0:0:0:
182,192,168638,1,0,0:0:0:0:
329,192,168638,1,0,0:0:0:0:
475,192,168707,1,0,0:0:0:0:
109,192,168707,1,0,0:0:0:0:
256,192,168707,1,0,0:0:0:0:
36,192,168707,1,0,0:0:0:0:
329,192,168843,1,0,0:0:0:0:
402,192,168843,1,0,0:0:0:0:
182,192,168843,1,0,0:0:0:0:
256,192,168979,1,0,0:0:0:0:
182,192,168979,1,0,0:0:0:0:
329,192,168979,1,0,0:0:0:0:
329,192,169116,1,0,0:0:0:0:
109,192,169116,1,0,0:0:0:0:
182,192,169116,1,0,0:0:0:0:
402,192,169252,1,0,0:0:0:0:
475,192,169252,1,0,0:0:0:0:
36,192,169252,1,0,0:0:0:0:
256,192,169252,1,0,0:0:0:0:
109,192,169388,1,0,0:0:0:0:
182,192,169388,1,0,0:0:0:0:
329,192,169388,1,0,0:0:0:0:
256,192,169525,1,0,0:0:0:0:
36,192,169525,1,0,0:0:0:0:
109,192,169525,1,0,0:0:0:0:
475,192,169525,1,0,0:0:0:0:
402,192,169661,1,0,0:0:0:0:
329,192,169661,1,0,0:0:0:0:
182,192,169661,1,0,0:0:0:0:
36,192,169797,1,0,0:0:0:0:
329,192,169797,1,0,0:0:0:0:
475,192,169797,1,0,0:0:0:0:
182,192,169797,1,0,0:0:0:0:
109,192,169934,1,0,0:0:0:0:
402,192,169934,1,0,0:0:0:0:
256,192,169934,1,0,0:0:0:0:
36,192,170070,1,0,0:0:0:0:
329,192,170070,1,0,0:0:0:0:
182,192,170070,1,0,0:0:0:0:
475,192,170070,1,0,0:0:0:0:
402,192,170207,1,0,0:0:0:0:
256,192,170207,1,0,0:0:0:0:
36,192,170207,1,0,0:0:0:0:
329,192,170275,1,0,0:0:0:0:
109,192,170275,1,0,0:0:0:0:
182,192,170343,1,0,0:0:0:0:
402,192,170343,1,0,0:0:0:0:
475,192,170343,1,0,0:0:0:0:
256,192,170343,1,0,0:0:0:0:
329,192,170479,1,0,0:0:0:0:
109,192,170479,1,0,0:0:0:0:
36,192,170479,1,0,0:0:0:0:
182,192,170616,1,0,0:0:0:0:
475,192,170616,1,0,0:0:0:0:
402,192,170616,1,0,0:0:0:0:
256,192,170616,1,0,0:0:0:0:
182,192,170752,1,0,0:0:0:0:
402,192,170752,1,0,0:0:0:0:
475,192,170752,1,0,0:0:0:0:
329,192,170820,1,0,0:0:0:0:
109,192,170820,1,0,0:0:0:0:
36,192,170888,1,0,0:0:0:0:
402,192,170888,1,0,0:0:0:0:
182,192,170888,1,0,0:0:0:0:
475,192,170888,1,0,0:0:0:0:
109,192,171025,1,0,0:0:0:0:
256,192,171025,1,0,0:0:0:0:
36,192,171025,1,0,0:0:0:0:
402,192,171093,1,0,0:0:0:0:
182,192,171093,1,0,0:0:0:0:
329,192,171161,1,0,0:0:0:0:
109,192,171161,1,0,0:0:0:0:
36,192,171161,1,0,0:0:0:0:
475,192,171161,1,0,0:0:0:0:
36,192,171297,1,0,0:0:0:0:
182,192,171297,1,0,0:0:0:0:
109,192,171297,1,0,0:0:0:0:
256,192,171332,1,0,0:0:0:0:
329,192,171366,1,0,0:0:0:0:
402,192,171400,1,0,0:0:0:0:
36,192,171434,1,0,0:0:0:0:
109,192,171434,1,0,0:0:0:0:
475,192,171434,1,0,0:0:0:0:
182,192,171570,1,0,0:0:0:0:
329,192,171570,1,0,0:0:0:0:
402,192,171570,1,0,0:0:0:0:
256,192,171707,1,0,0:0:0:0:
109,192,171707,1,0,0:0:0:0:
36,192,171707,1,0,0:0:0:0:
475,192,171775,1,0,0:0:0:0:
182,192,171775,1,0,0:0:0:0:
109,192,171843,1,0,0:0:0:0:
329,192,171843,1,0,0:0:0:0:
402,192,171843,1,0,0:0:0:0:
36,192,171843,1,0,0:0:0:0:
36,192,171979,1,0,0:0:0:0:
256,192,171979,1,0,0:0:0:0:
475,192,171979,1,0,0:0:0:0:
182,192,171979,1,0,0:0:0:0:
256,192,172116,1,0,0:0:0:0:
402,192,172116,1,0,0:0:0:0:
109,192,172116,1,0,0:0:0:0:
36,192,172184,1,0,0:0:0:0:
329,192,172184,1,0,0:0:0:0:
182,192,172252,1,0,0:0:0:0:
109,192,172252,1,0,0:0:0:0:
475,192,172252,1,0,0:0:0:0:
402,192,172252,1,0,0:0:0:0:
329,192,172388,1,0,0:0:0:0:
182,192,172388,1,0,0:0:0:0:
256,192,172388,1,0,0:0:0:0:
36,192,172388,1,0,0:0:0:0:
109,192,172525,1,0,0:0:0:0:
402,192,172525,1,0,0:0:0:0:
475,192,172525,1,0,0:0:0:0:
36,192,172525,1,0,0:0:0:0:
109,192,172661,1,0,0:0:0:0:
475,192,172661,1,0,0:0:0:0:
402,192,172661,1,0,0:0:0:0:
36,192,172661,1,0,0:0:0:0:
329,192,172797,1,0,0:0:0:0:
109,192,172797,1,0,0:0:0:0:
36,192,172797,1,0,0:0:0:0:
256,192,172797,1,0,0:0:0:0:
182,192,172934,1,0,0:0:0:0:
402,192,172934,1,0,0:0:0:0:
329,192,172934,1,0,0:0:0:0:
109,192,173002,1,0,0:0:0:0:
36,192,173002,1,0,0:0:0:0:
402,192,173070,1,0,0:0:0:0:
256,192,173070,1,0,0:0:0:0:
182,192,173070,1,0,0:0:0:0:
475,192,173070,1,0,0:0:0:0:
109,192,173207,1,0,0:0:0:0:
329,192,173207,1,0,0:0:0:0:
182,192,173207,1,0,0:0:0:0:
402,192,173275,1,0,0:0:0:0:
475,192,173275,1,0,0:0:0:0:
329,192,173343,1,0,0:0:0:0:
109,192,173343,1,0,0:0:0:0:
36,192,173343,1,0,0:0:0:0:
256,192,173343,1,0,0:0:0:0:
475,192,173479,1,0,0:0:0:0:
329,192,173479,1,0,0:0:0:0:
182,192,173479,1,0,0:0:0:0:
36,192,173479,1,0,0:0:0:0:
256,192,173616,1,0,0:0:0:0:
329,192,177434,1,0,0:0:0:0:
182,192,177502,1,0,0:0:0:0:
402,192,177570,1,0,0:0:0:0:
475,192,177570,1,0,0:0:0:0:
36,192,177638,1,0,0:0:0:0:
109,192,177638,1,0,0:0:0:0:
329,192,177707,1,0,0:0:0:0:
402,192,177707,1,0,0:0:0:0:
109,192,177775,1,0,0:0:0:0:
182,192,177775,1,0,0:0:0:0:
475,192,177843,1,0,0:0:0:0:
402,192,177843,1,0,0:0:0:0:
475,192,177911,1,0,0:0:0:0:
402,192,177911,1,0,0:0:0:0:
109,192,177979,1,0,0:0:0:0:
256,192,177979,1,0,0:0:0:0:
36,192,177979,1,0,0:0:0:0:
329,192,177979,1,0,0:0:0:0:
402,192,178047,1,0,0:0:0:0:
182,192,178116,1,0,0:0:0:0:
256,192,178184,1,0,0:0:0:0:
329,192,178252,1,0,0:0:0:0:
475,192,178252,1,0,0:0:0:0:
36,192,178252,1,0,0:0:0:0:
109,192,178320,1,0,0:0:0:0:
329,192,178388,1,0,0:0:0:0:
182,192,178457,1,0,0:0:0:0:
475,192,178525,1,0,0:0:0:0:
182,192,178593,1,0,0:0:0:0:
109,192,178661,1,0,0:0:0:0:
36,192,178661,1,0,0:0:0:0:
402,192,178661,1,0,0:0:0:0:
256,192,178729,1,0,0:0:0:0:
475,192,178797,1,0,0:0:0:0:
329,192,178797,1,0,0:0:0:0:
36,192,178797,1,0,0:0:0:0:
182,192,178866,1,0,0:0:0:0:
475,192,178934,1,0,0:0:0:0:
329,192,179002,1,0,0:0:0:0:
109,192,179070,1,0,0:0:0:0:
36,192,179070,1,0,0:0:0:0:
256,192,179070,1,0,0:0:0:0:
402,192,179138,1,0,0:0:0:0:
109,192,179207,1,0,0:0:0:0:
256,192,179275,1,0,0:0:0:0:
475,192,179343,1,0,0:0:0:0:
402,192,179343,1,0,0:0:0:0:
36,192,179343,1,0,0:0:0:0:
182,192,179411,1,0,0:0:0:0:
402,192,179479,1,0,0:0:0:0:
475,192,179547,1,0,0:0:0:0:
256,192,179547,1,0,0:0:0:0:
36,192,179547,1,0,0:0:0:0:
109,192,179616,1,0,0:0:0:0:
475,192,179684,1,0,0:0:0:0:
36,192,179752,1,0,0:0:0:0:
182,192,179752,1,0,0:0:0:0:
329,192,179752,1,0,0:0:0:0:
402,192,179820,1,0,0:0:0:0:
475,192,179888,1,0,0:0:0:0:
256,192,179888,1,0,0:0:0:0:
36,192,179888,1,0,0:0:0:0:
109,192,179957,1,0,0:0:0:0:
256,192,180025,1,0,0:0:0:0:
402,192,180093,1,0,0:0:0:0:
182,192,180161,1,0,0:0:0:0:
36,192,180161,1,0,0:0:0:0:
475,192,180161,1,0,0:0:0:0:
329,192,180229,1,0,0:0:0:0:
36,192,180297,1,0,0:0:0:0:
182,192,180366,1,0,0:0:0:0:
256,192,180434,1,0,0:0:0:0:
475,192,180434,1,0,0:0:0:0:
329,192,180434,1,0,0:0:0:0:
36,192,180502,1,0,0:0:0:0:
329,192,180570,1,0,0:0:0:0:
109,192,180638,1,0,0:0:0:0:
402,192,180707,1,0,0:0:0:0:
109,192,180775,1,0,0:0:0:0:
329,192,180843,1,0,0:0:0:0:
182,192,180843,1,0,0:0:0:0:
36,192,180843,1,0,0:0:0:0:
402,192,180911,1,0,0:0:0:0:
256,192,180979,1,0,0:0:0:0:
182,192,180979,1,0,0:0:0:0:
475,192,180979,1,0,0:0:0:0:
109,192,181047,1,0,0:0:0:0:
475,192,181116,1,0,0:0:0:0:
256,192,181184,1,0,0:0:0:0:
182,192,181252,1,0,0:0:0:0:
402,192,181252,1,0,0:0:0:0:
36,192,181252,1,0,0:0:0:0:
329,192,181320,1,0,0:0:0:0:
182,192,181388,1,0,0:0:0:0:
36,192,181457,1,0,0:0:0:0:
256,192,181525,1,0,0:0:0:0:
475,192,181525,1,0,0:0:0:0:
402,192,181525,1,0,0:0:0:0:
109,192,181593,1,0,0:0:0:0:
475,192,181661,1,0,0:0:0:0:
36,192,181729,1,0,0:0:0:0:
329,192,181729,1,0,0:0:0:0:
402,192,181729,1,0,0:0:0:0:
182,192,181797,1,0,0:0:0:0:
329,192,181866,1,0,0:0:0:0:
109,192,181934,1,0,0:0:0:0:
36,192,181934,1,0,0:0:0:0:
256,192,181934,1,0,0:0:0:0:
182,192,182002,1,0,0:0:0:0:
402,192,182070,1,0,0:0:0:0:
475,192,182070,1,0,0:0:0:0:
36,192,182070,1,0,0:0:0:0:
475,192,182138,1,0,0:0:0:0:
402,192,182138,1,0,0:0:0:0:
109,192,182138,1,0,0:0:0:0:
182,192,182207,1,0,0:0:0:0:
109,192,182275,1,0,0:0:0:0:
475,192,182343,1,0,0:0:0:0:
256,192,182343,1,0,0:0:0:0:
36,192,182343,1,0,0:0:0:0:
329,192,182411,1,0,0:0:0:0:
36,192,182479,1,0,0:0:0:0:
182,192,182547,1,0,0:0:0:0:
402,192,182616,1,0,0:0:0:0:
475,192,182616,1,0,0:0:0:0:
109,192,182616,1,0,0:0:0:0:
256,192,182684,1,0,0:0:0:0:
402,192,182752,1,0,0:0:0:0:
182,192,182820,1,0,0:0:0:0:
475,192,182888,1,0,0:0:0:0:
182,192,182957,1,0,0:0:0:0:
36,192,183025,1,0,0:0:0:0:
109,192,183025,1,0,0:0:0:0:
329,192,183025,1,0,0:0:0:0:
256,192,183093,1,0,0:0:0:0:
475,192,183161,1,0,0:0:0:0:
109,192,183161,1,0,0:0:0:0:
402,192,183161,1,0,0:0:0:0:
182,192,183229,1,0,0:0:0:0:
475,192,183297,1,0,0:0:0:0:
329,192,183366,1,0,0:0:0:0:
36,192,183434,1,0,0:0:0:0:
256,192,183434,1,0,0:0:0:0:
182,192,183434,1,0,0:0:0:0:
402,192,183502,1,0,0:0:0:0:
182,192,183570,1,0,0:0:0:0:
36,192,183638,1,0,0:0:0:0:
329,192,183707,1,0,0:0:0:0:
475,192,183707,1,0,0:0:0:0:
256,192,183707,1,0,0:0:0:0:
109,192,183775,1,0,0:0:0:0:
329,192,183843,1,0,0:0:0:0:
475,192,183911,1,0,0:0:0:0:
402,192,183911,1,0,0:0:0:0:
182,192,183911,1,0,0:0:0:0:
256,192,183979,1,0,0:0:0:0:
402,192,184047,1,0,0:0:0:0:
329,192,184116,1,0,0:0:0:0:
36,192,184116,1,0,0:0:0:0:
109,192,184116,1,0,0:0:0:0:
182,192,184184,1,0,0:0:0:0:
109,192,184252,1,0,0:0:0:0:
475,192,184252,1,0,0:0:0:0:
256,192,184252,1,0,0:0:0:0:
402,192,184320,1,0,0:0:0:0:
256,192,184388,1,0,0:0:0:0:
109,192,184457,1,0,0:0:0:0:
475,192,184525,1,0,0:0:0:0:
36,192,184525,1,0,0:0:0:0:
329,192,184525,1,0,0:0:0:0:
256,192,184593,1,0,0:0:0:0:
36,192,184661,1,0,0:0:0:0:
182,192,184729,1,0,0:0:0:0:
329,192,184797,1,0,0:0:0:0:
475,192,184797,1,0,0:0:0:0:
109,192,184797,1,0,0:0:0:0:
256,192,184866,1,0,0:0:0:0:
475,192,184934,1,0,0:0:0:0:
109,192,185002,1,0,0:0:0:0:
402,192,185070,1,0,0:0:0:0:
109,192,185138,1,0,0:0:0:0:
256,192,185207,1,0,0:0:0:0:
182,192,185207,1,0,0:0:0:0:
36,192,185207,1,0,0:0:0:0:
402,192,185275,1,0,0:0:0:0:
182,192,185343,1,0,0:0:0:0:
329,192,185343,1,0,0:0:0:0:
475,192,185343,1,0,0:0:0:0:
109,192,185411,1,0,0:0:0:0:
329,192,185479,1,0,0:0:0:0:
256,192,185547,1,0,0:0:0:0:
109,192,185616,1,0,0:0:0:0:
475,192,185616,1,0,0:0:0:0:
36,192,185616,1,0,0:0:0:0:
329,192,185684,1,0,0:0:0:0:
109,192,185752,1,0,0:0:0:0:
256,192,185820,1,0,0:0:0:0:
182,192,185888,1,0,0:0:0:0:
475,192,185888,1,0,0:0:0:0:
402,192,185888,1,0,0:0:0:0:
36,192,185957,1,0,0:0:0:0:
475,192,186025,1,0,0:0:0:0:
109,192,186093,1,0,0:0:0:0:
402,192,186093,1,0,0:0:0:0:
329,192,186093,1,0,0:0:0:0:
256,192,186161,1,0,0:0:0:0:
402,192,186229,1,0,0:0:0:0:
182,192,186297,1,0,0:0:0:0:
36,192,186297,1,0,0:0:0:0:
329,192,186297,1,0,0:0:0:0:
256,192,186366,1,0,0:0:0:0:
109,192,186434,1,0,0:0:0:0:
475,192,186434,1,0,0:0:0:0:
36,192,186434,1,0,0:0:0:0:
402,192,186502,1,0,0:0:0:0:
36,192,186502,1,0,0:0:0:0:
109,192,186502,1,0,0:0:0:0:
329,192,186570,1,0,0:0:0:0:
402,192,186638,1,0,0:0:0:0:
36,192,186707,1,0,0:0:0:0:
256,192,186707,1,0,0:0:0:0:
475,192,186707,1,0,0:0:0:0:
182,192,186775,1,0,0:0:0:0:
36,192,186843,1,0,0:0:0:0:
329,192,186911,1,0,0:0:0:0:
475,192,186979,1,0,0:0:0:0:
402,192,186979,1,0,0:0:0:0:
109,192,186979,1,0,0:0:0:0:
256,192,187047,1,0,0:0:0:0:
475,192,187116,1,0,0:0:0:0:
182,192,187184,1,0,0:0:0:0:
402,192,187252,1,0,0:0:0:0:
182,192,187320,1,0,0:0:0:0:
36,192,187388,1,0,0:0:0:0:
109,192,187388,1,0,0:0:0:0:
329,192,187388,1,0,0:0:0:0:
256,192,187457,1,0,0:0:0:0:
402,192,187525,1,0,0:0:0:0:
109,192,187525,1,0,0:0:0:0:
475,192,187525,1,0,0:0:0:0:
182,192,187593,1,0,0:0:0:0:
402,192,187661,1,0,0:0:0:0:
329,192,187729,1,0,0:0:0:0:
256,192,187797,1,0,0:0:0:0:
36,192,187797,1,0,0:0:0:0:
182,192,187797,1,0,0:0:0:0:
475,192,187866,1,0,0:0:0:0:
182,192,187934,1,0,0:0:0:0:
329,192,188002,1,0,0:0:0:0:
402,192,188070,1,0,0:0:0:0:
475,192,188070,1,0,0:0:0:0:
109,192,188070,1,0,0:0:0:0:
256,192,188138,1,0,0:0:0:0:
475,192,188207,1,0,0:0:0:0:
329,192,188275,1,0,0:0:0:0:
402,192,188275,1,0,0:0:0:0:
36,192,188275,1,0,0:0:0:0:
182,192,188343,1,0,0:0:0:0:
329,192,188411,1,0,0:0:0:0:
402,192,188479,1,0,0:0:0:0:
36,192,188479,1,0,0:0:0:0:
109,192,188479,1,0,0:0:0:0:
182,192,188547,1,0,0:0:0:0:
256,192,188616,1,0,0:0:0:0:
36,192,188616,1,0,0:0:0:0:
475,192,188616,1,0,0:0:0:0:
402,192,188684,1,0,0:0:0:0:
256,192,188752,1,0,0:0:0:0:
109,192,188820,1,0,0:0:0:0:
36,192,188888,1,0,0:0:0:0:
475,192,188888,1,0,0:0:0:0:
329,192,188888,1,0,0:0:0:0:
182,192,188957,1,0,0:0:0:0:
329,192,189025,1,0,0:0:0:0:
109,192,189093,1,0,0:0:0:0:
475,192,189161,1,0,0:0:0:0:
256,192,189161,1,0,0:0:0:0:
402,192,189161,1,0,0:0:0:0:
36,192,189229,1,0,0:0:0:0:
475,192,189297,1,0,0:0:0:0:
329,192,189366,1,0,0:0:0:0:
182,192,189434,1,0,0:0:0:0:
329,192,189502,1,0,0:0:0:0:
109,192,189570,1,0,0:0:0:0:
36,192,189570,1,0,0:0:0:0:
402,192,189570,1,0,0:0:0:0:
256,192,189638,1,0,0:0:0:0:
36,192,189707,1,0,0:0:0:0:
475,192,189707,1,0,0:0:0:0:
182,192,189707,1,0,0:0:0:0:
329,192,189775,1,0,0:0:0:0:
182,192,189843,1,0,0:0:0:0:
402,192,189911,1,0,0:0:0:0:
109,192,189979,1,0,0:0:0:0:
36,192,189979,1,0,0:0:0:0:
475,192,189979,1,0,0:0:0:0:
256,192,190047,1,0,0:0:0:0:
109,192,190116,1,0,0:0:0:0:
329,192,190184,1,0,0:0:0:0:
182,192,190252,1,0,0:0:0:0:
475,192,190252,1,0,0:0:0:0:
402,192,190252,1,0,0:0:0:0:
36,192,190320,1,0,0:0:0:0:
475,192,190388,1,0,0:0:0:0:
256,192,190457,1,0,0:0:0:0:
182,192,190457,1,0,0:0:0:0:
402,192,190457,1,0,0:0:0:0:
109,192,190525,1,0,0:0:0:0:
402,192,190593,1,0,0:0:0:0:
329,192,190661,1,0,0:0:0:0:
182,192,190661,1,0,0:0:0:0:
36,192,190661,1,0,0:0:0:0:
256,192,190729,1,0,0:0:0:0:
36,192,190797,1,0,0:0:0:0:
475,192,190797,1,0,0:0:0:0:
329,192,190797,1,0,0:0:0:0:
329,192,190866,1,0,0:0:0:0:
475,192,190866,1,0,0:0:0:0:
182,192,190866,1,0,0:0:0:0:
109,192,190934,1,0,0:0:0:0:
182,192,191002,1,0,0:0:0:0:
256,192,191070,1,0,0:0:0:0:
475,192,191070,1,0,0:0:0:0:
36,192,191070,1,0,0:0:0:0:
402,192,191138,1,0,0:0:0:0:
36,192,191207,1,0,0:0:0:0:
109,192,191275,1,0,0:0:0:0:
256,192,191343,1,0,0:0:0:0:
329,192,191343,1,0,0:0:0:0:
475,192,191343,1,0,0:0:0:0:
182,192,191411,1,0,0:0:0:0:
475,192,191479,1,0,0:0:0:0:
109,192,191547,1,0,0:0:0:0:
329,192,191616,1,0,0:0:0:0:
109,192,191684,1,0,0:0:0:0:
36,192,191752,1,0,0:0:0:0:
256,192,191752,1,0,0:0:0:0:
182,192,191752,1,0,0:0:0:0:
402,192,191820,1,0,0:0:0:0:
475,192,191888,1,0,0:0:0:0:
329,192,191888,1,0,0:0:0:0:
182,192,191888,1,0,0:0:0:0:
109,192,191957,1,0,0:0:0:0:
329,192,192025,1,0,0:0:0:0:
256,192,192093,1,0,0:0:0:0:
36,192,192161,1,0,0:0:0:0:
182,192,192161,1,0,0:0:0:0:
475,192,192161,1,0,0:0:0:0:
402,192,192229,1,0,0:0:0:0:
182,192,192297,1,0,0:0:0:0:
256,192,192366,1,0,0:0:0:0:
36,192,192434,1,0,0:0:0:0:
329,192,192434,1,0,0:0:0:0:
475,192,192434,1,0,0:0:0:0:
182,192,192502,1,0,0:0:0:0:
475,192,192570,1,0,0:0:0:0:
402,192,192638,1,0,0:0:0:0:
329,192,192638,1,0,0:0:0:0:
109,192,192638,1,0,0:0:0:0:
182,192,192707,1,0,0:0:0:0:
329,192,192775,1,0,0:0:0:0:
402,192,192843,1,0,0:0:0:0:
36,192,192843,1,0,0:0:0:0:
109,192,192843,1,0,0:0:0:0:
182,192,192911,1,0,0:0:0:0:
36,192,192979,1,0,0:0:0:0:
256,192,192979,1,0,0:0:0:0:
475,192,192979,1,0,0:0:0:0:
402,192,193047,1,0,0:0:0:0:
256,192,193116,1,0,0:0:0:0:
109,192,193184,1,0,0:0:0:0:
402,192,193252,1,0,0:0:0:0:
475,192,193252,1,0,0:0:0:0:
36,192,193252,1,0,0:0:0:0:
182,192,193320,1,0,0:0:0:0:
402,192,193388,1,0,0:0:0:0:
256,192,193457,1,0,0:0:0:0:
475,192,193525,1,0,0:0:0:0:
109,192,193525,1,0,0:0:0:0:
182,192,193525,1,0,0:0:0:0:
329,192,193593,1,0,0:0:0:0:
182,192,193661,1,0,0:0:0:0:
256,192,193729,1,0,0:0:0:0:
475,192,193797,1,0,0:0:0:0:
256,192,193866,1,0,0:0:0:0:
109,192,193934,1,0,0:0:0:0:
402,192,193934,1,0,0:0:0:0:
36,192,193934,1,0,0:0:0:0:
182,192,194002,1,0,0:0:0:0:
329,192,194070,1,0,0:0:0:0:
109,192,194070,1,0,0:0:0:0:
475,192,194070,1,0,0:0:0:0:
256,192,194138,1,0,0:0:0:0:
329,192,194207,1,0,0:0:0:0:
182,192,194275,1,0,0:0:0:0:
402,192,194343,1,0,0:0:0:0:
109,192,194343,1,0,0:0:0:0:
36,192,194343,1,0,0:0:0:0:
256,192,194411,1,0,0:0:0:0:
109,192,194479,1,0,0:0:0:0:
329,192,194547,1,0,0:0:0:0:
402,192,194616,1,0,0:0:0:0:
182,192,194616,1,0,0:0:0:0:
475,192,194616,1,0,0:0:0:0:
36,192,194684,1,0,0:0:0:0:
402,192,194752,1,0,0:0:0:0:
329,192,194820,1,0,0:0:0:0:
109,192,194820,1,0,0:0:0:0:
475,192,194820,1,0,0:0:0:0:
182,192,194888,1,0,0:0:0:0:
475,192,194957,1,0,0:0:0:0:
36,192,195025,1,0,0:0:0:0:
402,192,195025,1,0,0:0:0:0:
109,192,195025,1,0,0:0:0:0:
256,192,195093,1,0,0:0:0:0:
475,192,195161,1,0,0:0:0:0:
182,192,195161,1,0,0:0:0:0:
36,192,195161,1,0,0:0:0:0:
329,192,195229,1,0,0:0:0:0:
36,192,195229,1,0,0:0:0:0:
182,192,195229,1,0,0:0:0:0:
402,192,195297,1,0,0:0:0:0:
329,192,195366,1,0,0:0:0:0:
475,192,195434,1,0,0:0:0:0:
402,192,195434,1,0,0:0:0:0:
36,192,195434,1,0,0:0:0:0:
256,192,195434,1,0,0:0:0:0:
182,192,195502,1,0,0:0:0:0:
36,192,195570,1,0,0:0:0:0:
329,192,195570,1,0,0:0:0:0:
109,192,195638,1,0,0:0:0:0:
256,192,195707,1,0,0:0:0:0:
402,192,195707,1,0,0:0:0:0:
475,192,195707,1,0,0:0:0:0:
182,192,195775,1,0,0:0:0:0:
109,192,195843,1,0,0:0:0:0:
475,192,195843,1,0,0:0:0:0:
402,192,195911,1,0,0:0:0:0:
256,192,195979,1,0,0:0:0:0:
109,192,195979,1,0,0:0:0:0:
329,192,196047,1,0,0:0:0:0:
402,192,196116,1,0,0:0:0:0:
182,192,196116,1,0,0:0:0:0:
36,192,196116,1,0,0:0:0:0:
256,192,196184,1,0,0:0:0:0:
475,192,196252,1,0,0:0:0:0:
182,192,196252,1,0,0:0:0:0:
329,192,196252,1,0,0:0:0:0:
36,192,196320,1,0,0:0:0:0:
109,192,196388,1,0,0:0:0:0:
329,192,196388,1,0,0:0:0:0:
256,192,196457,1,0,0:0:0:0:
475,192,196525,1,0,0:0:0:0:
36,192,196525,1,0,0:0:0:0:
402,192,196525,1,0,0:0:0:0:
329,192,196593,1,0,0:0:0:0:
36,192,196661,1,0,0:0:0:0:
182,192,196661,1,0,0:0:0:0:
402,192,196729,1,0,0:0:0:0:
109,192,196797,1,0,0:0:0:0:
475,192,196797,1,0,0:0:0:0:
329,192,196797,1,0,0:0:0:0:
256,192,196866,1,0,0:0:0:0:
36,192,196934,1,0,0:0:0:0:
475,192,196934,1,0,0:0:0:0:
182,192,197002,1,0,0:0:0:0:
402,192,197002,1,0,0:0:0:0:
329,192,197002,1,0,0:0:0:0:
109,192,197070,1,0,0:0:0:0:
256,192,197070,1,0,0:0:0:0:
329,192,197138,1,0,0:0:0:0:
182,192,197207,1,0,0:0:0:0:
36,192,197207,1,0,0:0:0:0:
402,192,197207,1,0,0:0:0:0:
109,192,197275,1,0,0:0:0:0:
475,192,197343,1,0,0:0:0:0:
182,192,197343,1,0,0:0:0:0:
256,192,197343,1,0,0:0:0:0:
402,192,197411,1,0,0:0:0:0:
109,192,197479,1,0,0:0:0:0:
256,192,197479,1,0,0:0:0:0:
329,192,197547,1,0,0:0:0:0:
182,192,197616,1,0,0:0:0:0:
475,192,197616,1,0,0:0:0:0:
36,192,197616,1,0,0:0:0:0:
256,192,197684,1,0,0:0:0:0:
36,192,197752,1,0,0:0:0:0:
402,192,197752,1,0,0:0:0:0:
182,192,197820,1,0,0:0:0:0:
329,192,197888,1,0,0:0:0:0:
109,192,197888,1,0,0:0:0:0:
475,192,197888,1,0,0:0:0:0:
256,192,197957,1,0,0:0:0:0:
182,192,198025,1,0,0:0:0:0:
475,192,198025,1,0,0:0:0:0:
36,192,198093,1,0,0:0:0:0:
402,192,198161,1,0,0:0:0:0:
182,192,198161,1,0,0:0:0:0:
256,192,198229,1,0,0:0:0:0:
329,192,198297,1,0,0:0:0:0:
36,192,198297,1,0,0:0:0:0:
109,192,198297,1,0,0:0:0:0:
182,192,198366,1,0,0:0:0:0:
329,192,198434,1,0,0:0:0:0:
475,192,198434,1,0,0:0:0:0:
256,192,198434,1,0,0:0:0:0:
109,192,198502,1,0,0:0:0:0:
182,192,198570,1,0,0:0:0:0:
256,192,198570,1,0,0:0:0:0:
402,192,198638,1,0,0:0:0:0:
109,192,198707,1,0,0:0:0:0:
36,192,198707,1,0,0:0:0:0:
329,192,198707,1,0,0:0:0:0:
475,192,198775,1,0,0:0:0:0:
109,192,198843,1,0,0:0:0:0:
256,192,198843,1,0,0:0:0:0:
36,192,198911,1,0,0:0:0:0:
402,192,198979,1,0,0:0:0:0:
475,192,198979,1,0,0:0:0:0:
182,192,198979,1,0,0:0:0:0:
256,192,199047,1,0,0:0:0:0:
36,192,199116,1,0,0:0:0:0:
402,192,199116,1,0,0:0:0:0:
329,192,199184,1,0,0:0:0:0:
182,192,199184,1,0,0:0:0:0:
475,192,199184,1,0,0:0:0:0:
109,192,199252,1,0,0:0:0:0:
256,192,199252,1,0,0:0:0:0:
475,192,199320,1,0,0:0:0:0:
36,192,199388,1,0,0:0:0:0:
182,192,199388,1,0,0:0:0:0:
329,192,199388,1,0,0:0:0:0:
256,192,199457,1,0,0:0:0:0:
402,192,199525,1,0,0:0:0:0:
475,192,199525,1,0,0:0:0:0:
36,192,199525,1,0,0:0:0:0:
182,192,199593,1,0,0:0:0:0:
475,192,199593,1,0,0:0:0:0:
402,192,199593,1,0,0:0:0:0:
109,192,199661,1,0,0:0:0:0:
182,192,199729,1,0,0:0:0:0:
36,192,199797,1,0,0:0:0:0:
475,192,199797,1,0,0:0:0:0:
256,192,199797,1,0,0:0:0:0:
329,192,199866,1,0,0:0:0:0:
36,192,199934,1,0,0:0:0:0:
182,192,199934,1,0,0:0:0:0:
402,192,200002,1,0,0:0:0:0:
475,192,200070,1,0,0:0:0:0:
109,192,200070,1,0,0:0:0:0:
256,192,200070,1,0,0:0:0:0:
329,192,200138,1,0,0:0:0:0:
182,192,200207,1,0,0:0:0:0:
475,192,200207,1,0,0:0:0:0:
36,192,200275,1,0,0:0:0:0:
182,192,200343,1,0,0:0:0:0:
329,192,200343,1,0,0:0:0:0:
109,192,200411,1,0,0:0:0:0:
402,192,200479,1,0,0:0:0:0:
256,192,200479,1,0,0:0:0:0:
36,192,200479,1,0,0:0:0:0:
182,192,200547,1,0,0:0:0:0:
109,192,200616,1,0,0:0:0:0:
402,192,200616,1,0,0:0:0:0:
475,192,200616,1,0,0:0:0:0:
256,192,200684,1,0,0:0:0:0:
109,192,200752,1,0,0:0:0:0:
329,192,200752,1,0,0:0:0:0:
475,192,200820,1,0,0:0:0:0:
402,192,200888,1,0,0:0:0:0:
182,192,200888,1,0,0:0:0:0:
36,192,200888,1,0,0:0:0:0:
256,192,200957,1,0,0:0:0:0:
36,192,201025,1,0,0:0:0:0:
329,192,201025,1,0,0:0:0:0:
109,192,201093,1,0,0:0:0:0:
475,192,201161,1,0,0:0:0:0:
402,192,201161,1,0,0:0:0:0:
256,192,201161,1,0,0:0:0:0:
182,192,201229,1,0,0:0:0:0:
36,192,201297,1,0,0:0:0:0:
402,192,201297,1,0,0:0:0:0:
109,192,201366,1,0,0:0:0:0:
475,192,201366,1,0,0:0:0:0:
329,192,201366,1,0,0:0:0:0:
182,192,201434,1,0,0:0:0:0:
256,192,201434,1,0,0:0:0:0:
475,192,201502,1,0,0:0:0:0:
109,192,201570,1,0,0:0:0:0:
36,192,201570,1,0,0:0:0:0:
329,192,201570,1,0,0:0:0:0:
402,192,201638,1,0,0:0:0:0:
475,192,201707,1,0,0:0:0:0:
109,192,201707,1,0,0:0:0:0:
256,192,201707,1,0,0:0:0:0:
329,192,201775,1,0,0:0:0:0:
182,192,201843,1,0,0:0:0:0:
256,192,201843,1,0,0:0:0:0:
109,192,201911,1,0,0:0:0:0:
36,192,201979,1,0,0:0:0:0:
475,192,201979,1,0,0:0:0:0:
329,192,201979,1,0,0:0:0:0:
182,192,202047,1,0,0:0:0:0:
109,192,202116,1,0,0:0:0:0:
329,192,202116,1,0,0:0:0:0:
256,192,202184,1,0,0:0:0:0:
182,192,202252,1,0,0:0:0:0:
402,192,202252,1,0,0:0:0:0:
475,192,202252,1,0,0:0:0:0:
36,192,202320,1,0,0:0:0:0:
256,192,202388,1,0,0:0:0:0:
475,192,202388,1,0,0:0:0:0:
109,192,202457,1,0,0:0:0:0:
402,192,202525,1,0,0:0:0:0:
256,192,202525,1,0,0:0:0:0:
475,192,202593,1,0,0:0:0:0:
36,192,202661,1,0,0:0:0:0:
329,192,202661,1,0,0:0:0:0:
109,192,202661,1,0,0:0:0:0:
256,192,202729,1,0,0:0:0:0:
475,192,202797,1,0,0:0:0:0:
182,192,202797,1,0,0:0:0:0:
36,192,202797,1,0,0:0:0:0:
329,192,202866,1,0,0:0:0:0:
182,192,202934,1,0,0:0:0:0:
402,192,202934,1,0,0:0:0:0:
256,192,203002,1,0,0:0:0:0:
36,192,203070,1,0,0:0:0:0:
109,192,203070,1,0,0:0:0:0:
475,192,203070,1,0,0:0:0:0:
329,192,203138,1,0,0:0:0:0:
109,192,203207,1,0,0:0:0:0:
256,192,203207,1,0,0:0:0:0:
402,192,203275,1,0,0:0:0:0:
475,192,203343,1,0,0:0:0:0:
36,192,203343,1,0,0:0:0:0:
329,192,203343,1,0,0:0:0:0:
182,192,203411,1,0,0:0:0:0:
256,192,203479,1,0,0:0:0:0:
475,192,203479,1,0,0:0:0:0:
329,192,203547,1,0,0:0:0:0:
36,192,203547,1,0,0:0:0:0:
402,192,203547,1,0,0:0:0:0:
182,192,203616,1,0,0:0:0:0:
109,192,203616,1,0,0:0:0:0:
402,192,203684,1,0,0:0:0:0:
329,192,203752,1,0,0:0:0:0:
256,192,203752,1,0,0:0:0:0:
36,192,203752,1,0,0:0:0:0:
182,192,203820,1,0,0:0:0:0:
109,192,203888,1,0,0:0:0:0:
36,192,203888,1,0,0:0:0:0:
475,192,203888,1,0,0:0:0:0:
329,192,203957,1,0,0:0:0:0:
109,192,203957,1,0,0:0:0:0:
36,192,203957,1,0,0:0:0:0:
402,192,204025,1,0,0:0:0:0:
329,192,204093,1,0,0:0:0:0:
36,192,204161,1,0,0:0:0:0:
256,192,204161,1,0,0:0:0:0:
475,192,204161,1,0,0:0:0:0:
402,192,204229,1,0,0:0:0:0:
182,192,204297,1,0,0:0:0:0:
256,192,204297,1,0,0:0:0:0:
109,192,204366,1,0,0:0:0:0:
475,192,204434,1,0,0:0:0:0:
402,192,204434,1,0,0:0:0:0:
36,192,204434,1,0,0:0:0:0:
256,192,204502,1,0,0:0:0:0:
182,192,204570,1,0,0:0:0:0:
402,192,204570,1,0,0:0:0:0:
36,192,204638,1,0,0:0:0:0:
182,192,204707,1,0,0:0:0:0:
329,192,204707,1,0,0:0:0:0:
402,192,204775,1,0,0:0:0:0:
36,192,204843,1,0,0:0:0:0:
109,192,204843,1,0,0:0:0:0:
256,192,204843,1,0,0:0:0:0:
475,192,204911,1,0,0:0:0:0:
402,192,204979,1,0,0:0:0:0:
109,192,204979,1,0,0:0:0:0:
329,192,204979,1,0,0:0:0:0:
182,192,205047,1,0,0:0:0:0:
475,192,205116,1,0,0:0:0:0:
329,192,205116,1,0,0:0:0:0:
256,192,205184,1,0,0:0:0:0:
402,192,205252,1,0,0:0:0:0:
36,192,205252,1,0,0:0:0:0:
182,192,205252,1,0,0:0:0:0:
329,192,205320,1,0,0:0:0:0:
109,192,205388,1,0,0:0:0:0:
36,192,205388,1,0,0:0:0:0:
256,192,205457,1,0,0:0:0:0:
402,192,205525,1,0,0:0:0:0:
475,192,205525,1,0,0:0:0:0:
182,192,205525,1,0,0:0:0:0:
329,192,205593,1,0,0:0:0:0:
109,192,205661,1,0,0:0:0:0:
402,192,205661,1,0,0:0:0:0:
475,192,205729,1,0,0:0:0:0:
36,192,205729,1,0,0:0:0:0:
256,192,205729,1,0,0:0:0:0:
182,192,205797,1,0,0:0:0:0:
329,192,205797,1,0,0:0:0:0:
475,192,205866,1,0,0:0:0:0:
402,192,205934,1,0,0:0:0:0:
36,192,205934,1,0,0:0:0:0:
109,192,205934,1,0,0:0:0:0:
329,192,206002,1,0,0:0:0:0:
256,192,206070,1,0,0:0:0:0:
109,192,206070,1,0,0:0:0:0:
475,192,206070,1,0,0:0:0:0:
402,192,206138,1,0,0:0:0:0:
182,192,206207,1,0,0:0:0:0:
256,192,206207,1,0,0:0:0:0:
329,192,206275,1,0,0:0:0:0:
36,192,206343,1,0,0:0:0:0:
475,192,206343,1,0,0:0:0:0:
109,192,206343,1,0,0:0:0:0:
402,192,206411,1,0,0:0:0:0:
182,192,206479,1,0,0:0:0:0:
36,192,206479,1,0,0:0:0:0:
256,192,206547,1,0,0:0:0:0:
475,192,206616,1,0,0:0:0:0:
109,192,206616,1,0,0:0:0:0:
402,192,206616,1,0,0:0:0:0:
182,192,206684,1,0,0:0:0:0:
475,192,206752,1,0,0:0:0:0:
329,192,206752,1,0,0:0:0:0:
36,192,206820,1,0,0:0:0:0:
109,192,206888,1,0,0:0:0:0:
329,192,206888,1,0,0:0:0:0:
475,192,206957,1,0,0:0:0:0:
402,192,207025,1,0,0:0:0:0:
36,192,207025,1,0,0:0:0:0:
182,192,207025,1,0,0:0:0:0:
109,192,207093,1,0,0:0:0:0:
256,192,207161,1,0,0:0:0:0:
475,192,207161,1,0,0:0:0:0:
182,192,207161,1,0,0:0:0:0:
402,192,207229,1,0,0:0:0:0:
109,192,207297,1,0,0:0:0:0:
256,192,207297,1,0,0:0:0:0:
329,192,207366,1,0,0:0:0:0:
182,192,207434,1,0,0:0:0:0:
36,192,207434,1,0,0:0:0:0:
475,192,207434,1,0,0:0:0:0:
402,192,207502,1,0,0:0:0:0:
182,192,207570,1,0,0:0:0:0:
109,192,207570,1,0,0:0:0:0:
36,192,207638,1,0,0:0:0:0:
256,192,207707,1,0,0:0:0:0:
475,192,207707,1,0,0:0:0:0:
402,192,207707,1,0,0:0:0:0:
109,192,207775,1,0,0:0:0:0:
182,192,207843,1,0,0:0:0:0:
402,192,207843,1,0,0:0:0:0:
475,192,207911,1,0,0:0:0:0:
256,192,207911,1,0,0:0:0:0:
36,192,207911,1,0,0:0:0:0:
329,192,207979,1,0,0:0:0:0:
109,192,207979,1,0,0:0:0:0:
475,192,208047,1,0,0:0:0:0:
402,192,208116,1,0,0:0:0:0:
256,192,208116,1,0,0:0:0:0:
36,192,208116,1,0,0:0:0:0:
182,192,208184,1,0,0:0:0:0:
36,192,208252,1,0,0:0:0:0:
475,192,208252,1,0,0:0:0:0:
329,192,208252,1,0,0:0:0:0:
109,192,208320,1,0,0:0:0:0:
475,192,208320,1,0,0:0:0:0:
329,192,208320,1,0,0:0:0:0:
182,192,208388,1,0,0:0:0:0:
109,192,208457,1,0,0:0:0:0:
256,192,208525,1,0,0:0:0:0:
475,192,208525,1,0,0:0:0:0:
36,192,208525,1,0,0:0:0:0:
402,192,208593,1,0,0:0:0:0:
182,192,208661,1,0,0:0:0:0:
36,192,208661,1,0,0:0:0:0:
329,192,208729,1,0,0:0:0:0:
256,192,208797,1,0,0:0:0:0:
109,192,208797,1,0,0:0:0:0:
475,192,208797,1,0,0:0:0:0:
36,192,208866,1,0,0:0:0:0:
475,192,208934,1,0,0:0:0:0:
329,192,208934,1,0,0:0:0:0:
182,192,209002,1,0,0:0:0:0:
109,192,209070,1,0,0:0:0:0:
329,192,209070,1,0,0:0:0:0:
256,192,209138,1,0,0:0:0:0:
36,192,209207,1,0,0:0:0:0:
402,192,209207,1,0,0:0:0:0:
182,192,209207,1,0,0:0:0:0:
329,192,209275,1,0,0:0:0:0:
475,192,209343,1,0,0:0:0:0:
182,192,209343,1,0,0:0:0:0:
256,192,209343,1,0,0:0:0:0:
109,192,209411,1,0,0:0:0:0:
402,192,209479,1,0,0:0:0:0:
256,192,209479,1,0,0:0:0:0:
182,192,209547,1,0,0:0:0:0:
36,192,209616,1,0,0:0:0:0:
475,192,209616,1,0,0:0:0:0:
329,192,209616,1,0,0:0:0:0:
109,192,209684,1,0,0:0:0:0:
182,192,209752,1,0,0:0:0:0:
329,192,209752,1,0,0:0:0:0:
402,192,209820,1,0,0:0:0:0:
256,192,209888,1,0,0:0:0:0:
109,192,209888,1,0,0:0:0:0:
475,192,209888,1,0,0:0:0:0:
36,192,209957,1,0,0:0:0:0:
329,192,210025,1,0,0:0:0:0:
475,192,210025,1,0,0:0:0:0:
402,192,210093,1,0,0:0:0:0:
256,192,210093,1,0,0:0:0:0:
109,192,210093,1,0,0:0:0:0:
182,192,210161,1,0,0:0:0:0:
36,192,210161,1,0,0:0:0:0:
402,192,210229,1,0,0:0:0:0:
329,192,210297,1,0,0:0:0:0:
36,192,210297,1,0,0:0:0:0:
109,192,210297,1,0,0:0:0:0:
182,192,210366,1,0,0:0:0:0:
256,192,210434,1,0,0:0:0:0:
109,192,210434,1,0,0:0:0:0:
475,192,210434,1,0,0:0:0:0:
402,192,210502,1,0,0:0:0:0:
329,192,210570,1,0,0:0:0:0:
256,192,210570,1,0,0:0:0:0:
182,192,210638,1,0,0:0:0:0:
475,192,210707,1,0,0:0:0:0:
109,192,210707,1,0,0:0:0:0:
36,192,210707,1,0,0:0:0:0:
256,192,210775,1,0,0:0:0:0:
36,192,210843,1,0,0:0:0:0:
402,192,210843,1,0,0:0:0:0:
182,192,210911,1,0,0:0:0:0:
475,192,210979,1,0,0:0:0:0:
329,192,210979,1,0,0:0:0:0:
256,192,210979,1,0,0:0:0:0:
109,192,211047,1,0,0:0:0:0:
182,192,211116,1,0,0:0:0:0:
475,192,211116,1,0,0:0:0:0:
36,192,211184,1,0,0:0:0:0:
182,192,211252,1,0,0:0:0:0:
329,192,211252,1,0,0:0:0:0:
475,192,211320,1,0,0:0:0:0:
109,192,211388,1,0,0:0:0:0:
256,192,211388,1,0,0:0:0:0:
36,192,211388,1,0,0:0:0:0:
402,192,211457,1,0,0:0:0:0:
329,192,211525,1,0,0:0:0:0:
256,192,211525,1,0,0:0:0:0:
475,192,211525,1,0,0:0:0:0:
109,192,211593,1,0,0:0:0:0:
182,192,211661,1,0,0:0:0:0:
36,192,211729,1,0,0:0:0:0:
329,192,211797,1,0,0:0:0:0:
475,192,211797,1,0,0:0:0:0:
109,192,211797,1,0,0:0:0:0:
475,192,211934,1,0,0:0:0:0:
329,192,211934,1,0,0:0:0:0:
475,192,212070,1,0,0:0:0:0:
329,192,212070,1,0,0:0:0:0:
475,192,212207,1,0,0:0:0:0:
329,192,212207,1,0,0:0:0:0:
109,192,212343,1,0,0:0:0:0:
36,192,212343,1,0,0:0:0:0:
256,192,212343,1,0,0:0:0:0:
36,192,212411,1,0,0:0:0:0:
109,192,212411,1,0,0:0:0:0:
475,192,212479,1,0,0:0:0:0:
402,192,212479,1,0,0:0:0:0:
256,192,212479,1,0,0:0:0:0:
329,192,212547,1,0,0:0:0:0:
182,192,212547,1,0,0:0:0:0:
36,192,212616,1,0,0:0:0:0:
109,192,212616,1,0,0:0:0:0:
256,192,212616,1,0,0:0:0:0:
36,192,212684,1,0,0:0:0:0:
109,192,212684,1,0,0:0:0:0:
475,192,212752,1,0,0:0:0:0:
402,192,212752,1,0,0:0:0:0:
256,192,212752,1,0,0:0:0:0:
402,192,212820,1,0,0:0:0:0:
475,192,212820,1,0,0:0:0:0:
256,192,212820,1,0,0:0:0:0:
109,192,212888,1,0,0:0:0:0:
36,192,212888,1,0,0:0:0:0:
329,192,212888,1,0,0:0:0:0:
182,192,212888,1,0,0:0:0:0:
402,192,213025,1,0,0:0:0:0:
256,192,213025,1,0,0:0:0:0:
475,192,213093,1,0,0:0:0:0:
182,192,213093,1,0,0:0:0:0:
329,192,213161,1,0,0:0:0:0:
36,192,213161,1,0,0:0:0:0:
475,192,213229,1,0,0:0:0:0:
402,192,213229,1,0,0:0:0:0:
256,192,213297,1,0,0:0:0:0:
109,192,213297,1,0,0:0:0:0:
36,192,213366,1,0,0:0:0:0:
329,192,213366,1,0,0:0:0:0:
475,192,213434,1,0,0:0:0:0:
402,192,213434,1,0,0:0:0:0:
182,192,213434,1,0,0:0:0:0:
475,192,213570,1,0,0:0:0:0:
402,192,213570,1,0,0:0:0:0:
182,192,213570,1,0,0:0:0:0:
256,192,213707,1,0,0:0:0:0:
329,192,213707,1,0,0:0:0:0:
36,192,213775,1,0,0:0:0:0:
182,192,213775,1,0,0:0:0:0:
402,192,213843,1,0,0:0:0:0:
475,192,213843,1,0,0:0:0:0:
475,192,213911,1,0,0:0:0:0:
402,192,213911,1,0,0:0:0:0:
256,192,213979,1,0,0:0:0:0:
109,192,213979,1,0,0:0:0:0:
36,192,213979,1,0,0:0:0:0:
109,192,214116,1,0,0:0:0:0:
329,192,214116,1,0,0:0:0:0:
182,192,214116,1,0,0:0:0:0:
182,192,214252,1,0,0:0:0:0:
256,192,214252,1,0,0:0:0:0:
402,192,214252,1,0,0:0:0:0:
475,192,214388,1,0,0:0:0:0:
329,192,214388,1,0,0:0:0:0:
256,192,214388,1,0,0:0:0:0:
109,192,214525,1,0,0:0:0:0:
402,192,214525,1,0,0:0:0:0:
109,192,214593,1,0,0:0:0:0:
402,192,214593,1,0,0:0:0:0:
329,192,214661,1,0,0:0:0:0:
182,192,214661,1,0,0:0:0:0:
402,192,214797,1,0,0:0:0:0:
256,192,214797,1,0,0:0:0:0:
475,192,214797,1,0,0:0:0:0:
329,192,214934,1,0,0:0:0:0:
182,192,214934,1,0,0:0:0:0:
402,192,214934,1,0,0:0:0:0:
256,192,215070,1,0,0:0:0:0:
109,192,215070,1,0,0:0:0:0:
329,192,215070,1,0,0:0:0:0:
329,192,215207,1,0,0:0:0:0:
256,192,215207,1,0,0:0:0:0:
109,192,215207,1,0,0:0:0:0:
402,192,215343,1,0,0:0:0:0:
182,192,215343,1,0,0:0:0:0:
36,192,215411,1,0,0:0:0:0:
475,192,215411,1,0,0:0:0:0:
402,192,215479,1,0,0:0:0:0:
256,192,215479,1,0,0:0:0:0:
109,192,215479,1,0,0:0:0:0:
475,192,215616,1,0,0:0:0:0:
182,192,215616,1,0,0:0:0:0:
329,192,215684,1,0,0:0:0:0:
36,192,215684,1,0,0:0:0:0:
256,192,215820,1,0,0:0:0:0:
182,192,215888,1,0,0:0:0:0:
329,192,215888,1,0,0:0:0:0:
475,192,215957,1,0,0:0:0:0:
36,192,215957,1,0,0:0:0:0:
182,192,216025,1,0,0:0:0:0:
329,192,216025,1,0,0:0:0:0:
475,192,216093,1,0,0:0:0:0:
36,192,216093,1,0,0:0:0:0:
256,192,216161,1,0,0:0:0:0:
402,192,216161,1,0,0:0:0:0:
109,192,216161,1,0,0:0:0:0:
256,192,216297,1,0,0:0:0:0:
36,192,216297,1,0,0:0:0:0:
329,192,216366,1,0,0:0:0:0:
109,192,216366,1,0,0:0:0:0:
182,192,216434,1,0,0:0:0:0:
402,192,216434,1,0,0:0:0:0:
475,192,216502,1,0,0:0:0:0:
329,192,216502,1,0,0:0:0:0:
256,192,216570,1,0,0:0:0:0:
109,192,216570,1,0,0:0:0:0:
36,192,216570,1,0,0:0:0:0:
475,192,216707,1,0,0:0:0:0:
329,192,216707,1,0,0:0:0:0:
182,192,216707,1,0,0:0:0:0:
36,192,216843,1,0,0:0:0:0:
182,192,216843,1,0,0:0:0:0:
329,192,216843,1,0,0:0:0:0:
402,192,216979,1,0,0:0:0:0:
256,192,216979,1,0,0:0:0:0:
109,192,216979,1,0,0:0:0:0:
109,192,217116,1,0,0:0:0:0:
402,192,217116,1,0,0:0:0:0:
256,192,217116,1,0,0:0:0:0:
329,192,217252,1,0,0:0:0:0:
475,192,217252,1,0,0:0:0:0:
182,192,217252,1,0,0:0:0:0:
36,192,217252,1,0,0:0:0:0:
36,192,217388,1,0,0:0:0:0:
182,192,217388,1,0,0:0:0:0:
329,192,217388,1,0,0:0:0:0:
475,192,217525,1,0,0:0:0:0:
256,192,217525,1,0,0:0:0:0:
109,192,217525,1,0,0:0:0:0:
402,192,217525,1,0,0:0:0:0:
256,192,217661,1,0,0:0:0:0:
402,192,217661,1,0,0:0:0:0:
109,192,217661,1,0,0:0:0:0:
36,192,217797,1,0,0:0:0:0:
329,192,217797,1,0,0:0:0:0:
182,192,217797,1,0,0:0:0:0:
109,192,217866,1,0,0:0:0:0:
402,192,217866,1,0,0:0:0:0:
475,192,217934,1,0,0:0:0:0:
256,192,217934,1,0,0:0:0:0:
109,192,218002,1,0,0:0:0:0:
329,192,218002,1,0,0:0:0:0:
402,192,218070,1,0,0:0:0:0:
256,192,218070,1,0,0:0:0:0:
182,192,218070,1,0,0:0:0:0:
182,192,218207,1,0,0:0:0:0:
256,192,218207,1,0,0:0:0:0:
402,192,218207,1,0,0:0:0:0:
329,192,218343,1,0,0:0:0:0:
109,192,218343,1,0,0:0:0:0:
36,192,218343,1,0,0:0:0:0:
109,192,218479,1,0,0:0:0:0:
36,192,218479,1,0,0:0:0:0:
329,192,218479,1,0,0:0:0:0:
475,192,218616,1,0,0:0:0:0:
256,192,218616,1,0,0:0:0:0:
182,192,218616,1,0,0:0:0:0:
36,192,218752,1,0,0:0:0:0:
256,192,218752,1,0,0:0:0:0:
109,192,218752,1,0,0:0:0:0:
329,192,218888,1,0,0:0:0:0:
182,192,218888,1,0,0:0:0:0:
402,192,218957,1,0,0:0:0:0:
256,192,218957,1,0,0:0:0:0:
109,192,219025,1,0,0:0:0:0:
475,192,219025,1,0,0:0:0:0:
329,192,219025,1,0,0:0:0:0:
475,192,219161,1,0,0:0:0:0:
329,192,219161,1,0,0:0:0:0:
329,192,219366,1,0,0:0:0:0:
182,192,219366,1,0,0:0:0:0:
475,192,219434,1,0,0:0:0:0:
36,192,219434,1,0,0:0:0:0:
402,192,219468,1,0,0:0:0:0:
109,192,219468,1,0,0:0:0:0:
329,192,219502,1,0,0:0:0:0:
182,192,219502,1,0,0:0:0:0:
475,192,219570,1,0,0:0:0:0:
36,192,219570,1,0,0:0:0:0:
256,192,219570,1,0,0:0:0:0:
329,192,219707,1,0,0:0:0:0:
182,192,219707,1,0,0:0:0:0:
109,192,219707,1,0,0:0:0:0:
402,192,219843,1,0,0:0:0:0:
329,192,219843,1,0,0:0:0:0:
182,192,219843,1,0,0:0:0:0:
475,192,219979,1,0,0:0:0:0:
402,192,219979,1,0,0:0:0:0:
256,192,219979,1,0,0:0:0:0:
182,192,220047,1,0,0:0:0:0:
109,192,220116,1,0,0:0:0:0:
329,192,220116,1,0,0:0:0:0:
36,192,220116,1,0,0:0:0:0:
475,192,220184,1,0,0:0:0:0:
256,192,220184,1,0,0:0:0:0:
402,192,220252,1,0,0:0:0:0:
109,192,220252,1,0,0:0:0:0:
182,192,220320,1,0,0:0:0:0:
475,192,220320,1,0,0:0:0:0:
36,192,220388,1,0,0:0:0:0:
329,192,220388,1,0,0:0:0:0:
109,192,220525,1,0,0:0:0:0:
402,192,220525,1,0,0:0:0:0:
256,192,220525,1,0,0:0:0:0:
402,192,220661,1,0,0:0:0:0:
109,192,220661,1,0,0:0:0:0:
256,192,220661,1,0,0:0:0:0:
329,192,220797,1,0,0:0:0:0:
182,192,220797,1,0,0:0:0:0:
475,192,220866,1,0,0:0:0:0:
36,192,220866,1,0,0:0:0:0:
256,192,220934,1,0,0:0:0:0:
109,192,220934,1,0,0:0:0:0:
402,192,220934,1,0,0:0:0:0:
36,192,221070,5,0,0:0:0:0:
475,192,221070,1,0,0:0:0:0:
182,192,221138,1,0,0:0:0:0:
402,192,221138,1,0,0:0:0:0:
475,192,221207,1,0,0:0:0:0:
36,192,221207,1,0,0:0:0:0:
109,192,221275,1,0,0:0:0:0:
329,192,221275,1,0,0:0:0:0:
402,192,221343,1,0,0:0:0:0:
36,192,221343,1,0,0:0:0:0:
329,192,221411,1,0,0:0:0:0:
182,192,221411,1,0,0:0:0:0:
475,192,221479,1,0,0:0:0:0:
109,192,221479,1,0,0:0:0:0:
402,192,221547,1,0,0:0:0:0:
182,192,221547,1,0,0:0:0:0:
36,192,221616,1,0,0:0:0:0:
329,192,221616,1,0,0:0:0:0:
256,192,221616,1,0,0:0:0:0:
329,192,221752,1,0,0:0:0:0:
256,192,221752,1,0,0:0:0:0:
36,192,221752,1,0,0:0:0:0:
329,192,221888,1,0,0:0:0:0:
182,192,221888,1,0,0:0:0:0:
402,192,221957,1,0,0:0:0:0:
109,192,221957,1,0,0:0:0:0:
329,192,222025,1,0,0:0:0:0:
182,192,222025,1,0,0:0:0:0:
402,192,222093,1,0,0:0:0:0:
109,192,222093,1,0,0:0:0:0:
475,192,222161,1,0,0:0:0:0:
256,192,222161,1,0,0:0:0:0:
36,192,222161,1,0,0:0:0:0:
475,192,222297,1,0,0:0:0:0:
36,192,222297,1,0,0:0:0:0:
329,192,222366,1,0,0:0:0:0:
182,192,222366,1,0,0:0:0:0:
402,192,222434,1,0,0:0:0:0:
256,192,222434,1,0,0:0:0:0:
109,192,222434,1,0,0:0:0:0:
475,192,222570,1,0,0:0:0:0:
36,192,222570,1,0,0:0:0:0:
256,192,222570,1,0,0:0:0:0:
402,192,222707,1,0,0:0:0:0:
256,192,222707,1,0,0:0:0:0:
109,192,222707,1,0,0:0:0:0:
329,192,222843,1,0,0:0:0:0:
182,192,222843,1,0,0:0:0:0:
402,192,222911,1,0,0:0:0:0:
109,192,222911,1,0,0:0:0:0:
475,192,222979,1,0,0:0:0:0:
256,192,222979,1,0,0:0:0:0:
329,192,223047,1,0,0:0:0:0:
109,192,223047,1,0,0:0:0:0:
402,192,223116,1,0,0:0:0:0:
182,192,223116,1,0,0:0:0:0:
256,192,223184,1,0,0:0:0:0:
36,192,223184,1,0,0:0:0:0:
329,192,223252,1,0,0:0:0:0:
182,192,223252,1,0,0:0:0:0:
402,192,223388,1,0,0:0:0:0:
256,192,223388,1,0,0:0:0:0:
109,192,223388,1,0,0:0:0:0:
182,192,223661,1,0,0:0:0:0:
109,192,223661,1,0,0:0:0:0:
402,192,223729,1,0,0:0:0:0:
329,192,223729,1,0,0:0:0:0:
475,192,223797,1,0,0:0:0:0:
182,192,223797,1,0,0:0:0:0:
36,192,223797,1,0,0:0:0:0:
182,192,223934,1,0,0:0:0:0:
329,192,223934,1,0,0:0:0:0:
36,192,224070,1,0,0:0:0:0:
475,192,224070,1,0,0:0:0:0:
329,192,224070,1,0,0:0:0:0:
182,192,224207,1,0,0:0:0:0:
329,192,224207,1,0,0:0:0:0:
475,192,224343,1,0,0:0:0:0:
36,192,224343,1,0,0:0:0:0:
182,192,224343,1,0,0:0:0:0:
256,192,224479,1,0,0:0:0:0:
109,192,224479,1,0,0:0:0:0:
475,192,224547,1,0,0:0:0:0:
329,192,224547,1,0,0:0:0:0:
182,192,224616,1,0,0:0:0:0:
36,192,224616,1,0,0:0:0:0:
256,192,224684,1,0,0:0:0:0:
402,192,224684,1,0,0:0:0:0:
109,192,224752,1,0,0:0:0:0:
475,192,224752,1,0,0:0:0:0:
182,192,224786,1,0,0:0:0:0:
256,192,224820,1,0,0:0:0:0:
329,192,224854,1,0,0:0:0:0:
109,192,224888,1,0,0:0:0:0:
36,192,224888,1,0,0:0:0:0:
402,192,224888,1,0,0:0:0:0:
109,192,225025,1,0,0:0:0:0:
36,192,225025,1,0,0:0:0:0:
402,192,225025,1,0,0:0:0:0:
329,192,225161,1,0,0:0:0:0:
182,192,225161,1,0,0:0:0:0:
475,192,225229,1,0,0:0:0:0:
36,192,225229,1,0,0:0:0:0:
256,192,225297,1,0,0:0:0:0:
402,192,225297,1,0,0:0:0:0:
109,192,225297,1,0,0:0:0:0:
256,192,225434,1,0,0:0:0:0:
475,192,225434,1,0,0:0:0:0:
36,192,225434,1,0,0:0:0:0:
402,192,225570,1,0,0:0:0:0:
109,192,225570,1,0,0:0:0:0:
182,192,225638,1,0,0:0:0:0:
329,192,225638,1,0,0:0:0:0:
475,192,225707,1,0,0:0:0:0:
402,192,225707,1,0,0:0:0:0:
109,192,225707,1,0,0:0:0:0:
36,192,225707,1,0,0:0:0:0:
256,192,225843,1,0,0:0:0:0:
109,192,225843,1,0,0:0:0:0:
402,192,225843,1,0,0:0:0:0:
329,192,225979,1,0,0:0:0:0:
475,192,225979,1,0,0:0:0:0:
36,192,225979,1,0,0:0:0:0:
182,192,225979,1,0,0:0:0:0:
109,192,226116,1,0,0:0:0:0:
402,192,226184,1,0,0:0:0:0:
256,192,226184,1,0,0:0:0:0:
109,192,226252,1,0,0:0:0:0:
402,192,226320,1,0,0:0:0:0:
256,192,226320,1,0,0:0:0:0:
329,192,226388,1,0,0:0:0:0:
36,192,226388,1,0,0:0:0:0:
182,192,226388,1,0,0:0:0:0:
402,192,226457,1,0,0:0:0:0:
256,192,226525,1,0,0:0:0:0:
109,192,226525,1,0,0:0:0:0:
36,192,226525,1,0,0:0:0:0:
475,192,226593,1,0,0:0:0:0:
329,192,226593,1,0,0:0:0:0:
109,192,226661,1,0,0:0:0:0:
475,192,226729,1,0,0:0:0:0:
329,192,226729,1,0,0:0:0:0:
36,192,226797,1,0,0:0:0:0:
182,192,226797,1,0,0:0:0:0:
402,192,226866,1,0,0:0:0:0:
329,192,226866,1,0,0:0:0:0:
109,192,226934,1,0,0:0:0:0:
182,192,226934,1,0,0:0:0:0:
475,192,227002,1,0,0:0:0:0:
329,192,227002,1,0,0:0:0:0:
402,192,227070,1,0,0:0:0:0:
36,192,227070,1,0,0:0:0:0:
109,192,227070,1,0,0:0:0:0:
256,192,227070,1,0,0:0:0:0:
329,192,227207,1,0,0:0:0:0:
182,192,227207,1,0,0:0:0:0:
109,192,227275,1,0,0:0:0:0:
402,192,227275,1,0,0:0:0:0:
182,192,227343,1,0,0:0:0:0:
256,192,227343,1,0,0:0:0:0:
475,192,227343,1,0,0:0:0:0:
109,192,227479,1,0,0:0:0:0:
402,192,227479,1,0,0:0:0:0:
256,192,227479,1,0,0:0:0:0:
256,192,227616,1,0,0:0:0:0:
36,192,227616,1,0,0:0:0:0:
329,192,227684,1,0,0:0:0:0:
475,192,227684,1,0,0:0:0:0:
109,192,227752,1,0,0:0:0:0:
182,192,227752,1,0,0:0:0:0:
256,192,227820,1,0,0:0:0:0:
402,192,227820,1,0,0:0:0:0:
109,192,227888,1,0,0:0:0:0:
329,192,227888,1,0,0:0:0:0:
36,192,227888,1,0,0:0:0:0:
475,192,228025,1,0,0:0:0:0:
329,192,228025,1,0,0:0:0:0:
182,192,228025,1,0,0:0:0:0:
36,192,228161,1,0,0:0:0:0:
256,192,228161,1,0,0:0:0:0:
109,192,228161,1,0,0:0:0:0:
182,192,228297,1,0,0:0:0:0:
475,192,228297,1,0,0:0:0:0:
329,192,228297,1,0,0:0:0:0:
36,192,228434,5,0,0:0:0:0:
329,192,228502,1,0,0:0:0:0:
182,192,228502,1,0,0:0:0:0:
475,192,228570,1,0,0:0:0:0:
256,192,228570,1,0,0:0:0:0:
36,192,228570,1,0,0:0:0:0:
329,192,228638,1,0,0:0:0:0:
182,192,228638,1,0,0:0:0:0:
475,192,228707,1,0,0:0:0:0:
329,192,228775,1,0,0:0:0:0:
182,192,228775,1,0,0:0:0:0:
109,192,228843,5,0,0:0:0:0:
402,192,228843,1,0,0:0:0:0:
329,192,228911,1,0,0:0:0:0:
182,192,228911,1,0,0:0:0:0:
402,192,228979,1,0,0:0:0:0:
109,192,228979,1,0,0:0:0:0:
329,192,229047,1,0,0:0:0:0:
182,192,229047,1,0,0:0:0:0:
402,192,229116,1,0,0:0:0:0:
109,192,229116,1,0,0:0:0:0:
329,192,229184,1,0,0:0:0:0:
182,192,229184,1,0,0:0:0:0:
256,192,229252,1,0,0:0:0:0:
475,192,229252,1,0,0:0:0:0:
36,192,229252,1,0,0:0:0:0:
475,192,230207,1,0,0:0:0:0:
402,192,230241,1,0,0:0:0:0:
256,192,230275,1,0,0:0:0:0:
109,192,230309,1,0,0:0:0:0:
329,192,230343,1,0,0:0:0:0:
475,192,230343,1,0,0:0:0:0:
36,192,230343,1,0,0:0:0:0:
182,192,230343,1,0,0:0:0:0:
36,192,230479,1,0,0:0:0:0:
182,192,230479,1,0,0:0:0:0:
329,192,230479,1,0,0:0:0:0:
402,192,230616,1,0,0:0:0:0:
475,192,230616,1,0,0:0:0:0:
256,192,230616,1,0,0:0:0:0:
329,192,230752,1,0,0:0:0:0:
36,192,230752,1,0,0:0:0:0:
475,192,230820,1,0,0:0:0:0:
182,192,230820,1,0,0:0:0:0:
36,192,230888,1,0,0:0:0:0:
329,192,230888,1,0,0:0:0:0:
475,192,230957,1,0,0:0:0:0:
182,192,230957,1,0,0:0:0:0:
402,192,231025,1,0,0:0:0:0:
256,192,231025,1,0,0:0:0:0:
109,192,231025,1,0,0:0:0:0:
36,192,231025,1,0,0:0:0:0:
329,192,231161,1,0,0:0:0:0:
182,192,231161,1,0,0:0:0:0:
402,192,231229,1,0,0:0:0:0:
109,192,231229,1,0,0:0:0:0:
182,192,231297,1,0,0:0:0:0:
36,192,231297,1,0,0:0:0:0:
256,192,231297,1,0,0:0:0:0:
329,192,231366,1,0,0:0:0:0:
475,192,231366,1,0,0:0:0:0:
36,192,231434,5,0,0:0:0:0:
109,192,231468,1,0,0:0:0:0:
182,192,231502,1,0,0:0:0:0:
256,192,231536,1,0,0:0:0:0:
329,192,231570,1,0,0:0:0:0:
36,192,231604,1,0,0:0:0:0:
109,192,231638,1,0,0:0:0:0:
182,192,231672,1,0,0:0:0:0:
329,192,231707,1,0,0:0:0:0:
402,192,231741,1,0,0:0:0:0:
475,192,231775,1,0,0:0:0:0:
182,192,231809,1,0,0:0:0:0:
256,192,231843,1,0,0:0:0:0:
329,192,231877,1,0,0:0:0:0:
402,192,231911,1,0,0:0:0:0:
475,192,231945,1,0,0:0:0:0:
109,192,231979,1,0,0:0:0:0:
182,192,231979,1,0,0:0:0:0:
36,192,231979,1,0,0:0:0:0:
256,192,232116,1,0,0:0:0:0:
402,192,232116,1,0,0:0:0:0:
109,192,232116,1,0,0:0:0:0:
475,192,232252,1,0,0:0:0:0:
182,192,232252,1,0,0:0:0:0:
329,192,232252,1,0,0:0:0:0:
329,192,232457,1,0,0:0:0:0:
182,192,232457,1,0,0:0:0:0:
402,192,232525,1,0,0:0:0:0:
475,192,232525,1,0,0:0:0:0:
256,192,232525,1,0,0:0:0:0:
36,192,232525,1,0,0:0:0:0:
109,192,232525,1,0,0:0:0:0:
329,192,232661,1,0,0:0:0:0:
182,192,232661,1,0,0:0:0:0:
402,192,232729,1,0,0:0:0:0:
256,192,232729,1,0,0:0:0:0:
109,192,232797,1,0,0:0:0:0:
329,192,232797,1,0,0:0:0:0:
475,192,232797,1,0,0:0:0:0:
475,192,232934,1,0,0:0:0:0:
182,192,232934,1,0,0:0:0:0:
36,192,233002,1,0,0:0:0:0:
329,192,233002,1,0,0:0:0:0:
402,192,233070,1,0,0:0:0:0:
475,192,233070,1,0,0:0:0:0:
109,192,233070,1,0,0:0:0:0:
256,192,233070,1,0,0:0:0:0:
329,192,233207,1,0,0:0:0:0:
36,192,233207,1,0,0:0:0:0:
182,192,233275,1,0,0:0:0:0:
475,192,233275,1,0,0:0:0:0:
256,192,233343,1,0,0:0:0:0:
402,192,233343,1,0,0:0:0:0:
36,192,233411,1,0,0:0:0:0:
182,192,233411,1,0,0:0:0:0:
329,192,233479,1,0,0:0:0:0:
109,192,233479,1,0,0:0:0:0:
475,192,233547,1,0,0:0:0:0:
182,192,233547,1,0,0:0:0:0:
256,192,233616,1,0,0:0:0:0:
329,192,233616,1,0,0:0:0:0:
36,192,233616,1,0,0:0:0:0:
109,192,233616,1,0,0:0:0:0:
109,192,233752,1,0,0:0:0:0:
256,192,233752,1,0,0:0:0:0:
36,192,233752,1,0,0:0:0:0:
329,192,233888,1,0,0:0:0:0:
109,192,233888,1,0,0:0:0:0:
475,192,233957,1,0,0:0:0:0:
36,192,233957,1,0,0:0:0:0:
402,192,234025,1,0,0:0:0:0:
329,192,234025,1,0,0:0:0:0:
109,192,234025,1,0,0:0:0:0:
182,192,234025,1,0,0:0:0:0:
182,192,234161,1,0,0:0:0:0:
402,192,234161,1,0,0:0:0:0:
36,192,234229,1,0,0:0:0:0:
329,192,234229,1,0,0:0:0:0:
475,192,234297,1,0,0:0:0:0:
402,192,234297,1,0,0:0:0:0:
182,192,234297,1,0,0:0:0:0:
256,192,234297,1,0,0:0:0:0:
256,192,234434,1,0,0:0:0:0:
475,192,234434,1,0,0:0:0:0:
329,192,234502,1,0,0:0:0:0:
109,192,234502,1,0,0:0:0:0:
475,192,234570,1,0,0:0:0:0:
402,192,234570,1,0,0:0:0:0:
182,192,234570,1,0,0:0:0:0:
256,192,234570,1,0,0:0:0:0:
329,192,234707,1,0,0:0:0:0:
109,192,234707,1,0,0:0:0:0:
182,192,234707,1,0,0:0:0:0:
36,192,234707,1,0,0:0:0:0:
329,192,234843,1,0,0:0:0:0:
109,192,234843,1,0,0:0:0:0:
182,192,234843,1,0,0:0:0:0:
475,192,234979,1,0,0:0:0:0:
36,192,234979,1,0,0:0:0:0:
256,192,234979,1,0,0:0:0:0:
402,192,234979,1,0,0:0:0:0:
475,192,235116,1,0,0:0:0:0:
36,192,235116,1,0,0:0:0:0:
329,192,235116,1,0,0:0:0:0:
182,192,235116,1,0,0:0:0:0:
109,192,235252,1,0,0:0:0:0:
36,192,235252,1,0,0:0:0:0:
475,192,235252,1,0,0:0:0:0:
256,192,235252,1,0,0:0:0:0:
475,192,235388,1,0,0:0:0:0:
329,192,235388,1,0,0:0:0:0:
36,192,235388,1,0,0:0:0:0:
182,192,235388,1,0,0:0:0:0:
329,192,235525,1,0,0:0:0:0:
182,192,235525,1,0,0:0:0:0:
475,192,235593,1,0,0:0:0:0:
402,192,235593,1,0,0:0:0:0:
36,192,235661,1,0,0:0:0:0:
109,192,235661,1,0,0:0:0:0:
256,192,235661,1,0,0:0:0:0:
402,192,235729,1,0,0:0:0:0:
475,192,235729,1,0,0:0:0:0:
256,192,235797,1,0,0:0:0:0:
36,192,235797,1,0,0:0:0:0:
329,192,235797,1,0,0:0:0:0:
182,192,235797,1,0,0:0:0:0:
329,192,235934,1,0,0:0:0:0:
36,192,235934,1,0,0:0:0:0:
402,192,236002,1,0,0:0:0:0:
109,192,236002,1,0,0:0:0:0:
256,192,236070,1,0,0:0:0:0:
182,192,236070,1,0,0:0:0:0:
475,192,236070,1,0,0:0:0:0:
329,192,236070,1,0,0:0:0:0:
402,192,236207,1,0,0:0:0:0:
109,192,236207,1,0,0:0:0:0:
109,192,236275,1,0,0:0:0:0:
402,192,236275,1,0,0:0:0:0:
182,192,236343,1,0,0:0:0:0:
36,192,236343,1,0,0:0:0:0:
329,192,236411,1,0,0:0:0:0:
475,192,236411,1,0,0:0:0:0:
36,192,236479,1,0,0:0:0:0:
109,192,236479,1,0,0:0:0:0:
256,192,236479,1,0,0:0:0:0:
475,192,236616,1,0,0:0:0:0:
402,192,236616,1,0,0:0:0:0:
256,192,236616,1,0,0:0:0:0:
475,192,236752,1,0,0:0:0:0:
402,192,236752,1,0,0:0:0:0:
256,192,236752,1,0,0:0:0:0:
182,192,236888,1,0,0:0:0:0:
475,192,236888,1,0,0:0:0:0:
36,192,236888,1,0,0:0:0:0:
329,192,236888,1,0,0:0:0:0:
402,192,237025,1,0,0:0:0:0:
256,192,237025,1,0,0:0:0:0:
36,192,237093,1,0,0:0:0:0:
182,192,237093,1,0,0:0:0:0:
329,192,237161,1,0,0:0:0:0:
109,192,237161,1,0,0:0:0:0:
475,192,237161,1,0,0:0:0:0:
256,192,237297,1,0,0:0:0:0:
182,192,237297,1,0,0:0:0:0:
475,192,237297,1,0,0:0:0:0:
402,192,237297,1,0,0:0:0:0:
256,192,237434,1,0,0:0:0:0:
36,192,237434,1,0,0:0:0:0:
475,192,237502,1,0,0:0:0:0:
329,192,237502,1,0,0:0:0:0:
182,192,237570,1,0,0:0:0:0:
36,192,237570,1,0,0:0:0:0:
475,192,237638,1,0,0:0:0:0:
256,192,237638,1,0,0:0:0:0:
402,192,237707,1,0,0:0:0:0:
109,192,237707,1,0,0:0:0:0:
329,192,237775,1,0,0:0:0:0:
182,192,237775,1,0,0:0:0:0:
329,192,237911,1,0,0:0:0:0:
182,192,237911,1,0,0:0:0:0:
402,192,237979,1,0,0:0:0:0:
475,192,237979,1,0,0:0:0:0:
36,192,237979,1,0,0:0:0:0:
109,192,237979,1,0,0:0:0:0:
475,192,238116,1,0,0:0:0:0:
36,192,238116,1,0,0:0:0:0:
256,192,238116,1,0,0:0:0:0:
256,192,238252,1,0,0:0:0:0:
182,192,238252,1,0,0:0:0:0:
109,192,238252,1,0,0:0:0:0:
402,192,238320,1,0,0:0:0:0:
329,192,238320,1,0,0:0:0:0:
256,192,238388,1,0,0:0:0:0:
475,192,238388,1,0,0:0:0:0:
36,192,238388,1,0,0:0:0:0:
109,192,238388,1,0,0:0:0:0:
182,192,238525,1,0,0:0:0:0:
36,192,238525,1,0,0:0:0:0:
475,192,238525,1,0,0:0:0:0:
256,192,238661,1,0,0:0:0:0:
402,192,238661,1,0,0:0:0:0:
329,192,238661,1,0,0:0:0:0:
109,192,238729,1,0,0:0:0:0:
182,192,238729,1,0,0:0:0:0:
475,192,238797,1,0,0:0:0:0:
402,192,238797,1,0,0:0:0:0:
36,192,238797,1,0,0:0:0:0:
256,192,238797,1,0,0:0:0:0:
109,192,238934,1,0,0:0:0:0:
475,192,238934,1,0,0:0:0:0:
329,192,238934,1,0,0:0:0:0:
402,192,239070,1,0,0:0:0:0:
182,192,239070,1,0,0:0:0:0:
36,192,239070,1,0,0:0:0:0:
256,192,239070,1,0,0:0:0:0:
36,192,239207,1,0,0:0:0:0:
402,192,239207,1,0,0:0:0:0:
182,192,239207,1,0,0:0:0:0:
329,192,239343,1,0,0:0:0:0:
109,192,239343,1,0,0:0:0:0:
256,192,239343,1,0,0:0:0:0:
475,192,239343,1,0,0:0:0:0:
109,192,239479,1,0,0:0:0:0:
329,192,239479,1,0,0:0:0:0:
475,192,239479,1,0,0:0:0:0:
256,192,239616,1,0,0:0:0:0:
182,192,239616,1,0,0:0:0:0:
36,192,239616,1,0,0:0:0:0:
402,192,239616,1,0,0:0:0:0:
329,192,239752,1,0,0:0:0:0:
109,192,239752,1,0,0:0:0:0:
402,192,239820,1,0,0:0:0:0:
256,192,239820,1,0,0:0:0:0:
329,192,239888,1,0,0:0:0:0:
475,192,239888,1,0,0:0:0:0:
36,192,239888,1,0,0:0:0:0:
182,192,239888,1,0,0:0:0:0:
329,192,240025,1,0,0:0:0:0:
182,192,240025,1,0,0:0:0:0:
256,192,240161,1,0,0:0:0:0:
402,192,240161,1,0,0:0:0:0:
36,192,240161,1,0,0:0:0:0:
109,192,240161,1,0,0:0:0:0:
182,192,240297,1,0,0:0:0:0:
109,192,240366,1,0,0:0:0:0:
329,192,240366,1,0,0:0:0:0:
402,192,240434,1,0,0:0:0:0:
475,192,240434,1,0,0:0:0:0:
36,192,240502,1,0,0:0:0:0:
182,192,240502,1,0,0:0:0:0:
475,192,240570,1,0,0:0:0:0:
329,192,240570,1,0,0:0:0:0:
109,192,240638,1,0,0:0:0:0:
36,192,240638,1,0,0:0:0:0:
402,192,240707,1,0,0:0:0:0:
256,192,240707,1,0,0:0:0:0:
475,192,240707,1,0,0:0:0:0:
182,192,240707,1,0,0:0:0:0:
475,192,240843,1,0,0:0:0:0:
329,192,240843,1,0,0:0:0:0:
329,192,240911,1,0,0:0:0:0:
475,192,240911,1,0,0:0:0:0:
36,192,240979,1,0,0:0:0:0:
182,192,240979,1,0,0:0:0:0:
182,192,241116,1,0,0:0:0:0:
36,192,241116,1,0,0:0:0:0:
402,192,241252,1,0,0:0:0:0:
256,192,241252,1,0,0:0:0:0:
475,192,241252,1,0,0:0:0:0:
36,192,241252,1,0,0:0:0:0:
109,192,241252,1,0,0:0:0:0:
329,192,241388,1,0,0:0:0:0:
182,192,241388,1,0,0:0:0:0:
109,192,241457,1,0,0:0:0:0:
402,192,241457,1,0,0:0:0:0:
475,192,241525,1,0,0:0:0:0:
256,192,241525,1,0,0:0:0:0:
36,192,241525,1,0,0:0:0:0:
182,192,241661,1,0,0:0:0:0:
329,192,241661,1,0,0:0:0:0:
475,192,241661,1,0,0:0:0:0:
36,192,241661,1,0,0:0:0:0:
475,192,241797,1,0,0:0:0:0:
36,192,241797,1,0,0:0:0:0:
329,192,241934,1,0,0:0:0:0:
182,192,241934,1,0,0:0:0:0:
329,192,242002,1,0,0:0:0:0:
182,192,242002,1,0,0:0:0:0:
402,192,242070,1,0,0:0:0:0:
109,192,242070,1,0,0:0:0:0:
256,192,242138,1,0,0:0:0:0:
36,192,242207,1,0,0:0:0:0:
182,192,242207,1,0,0:0:0:0:
475,192,242275,1,0,0:0:0:0:
329,192,242275,1,0,0:0:0:0:
109,192,242343,1,0,0:0:0:0:
402,192,242343,1,0,0:0:0:0:
256,192,242343,1,0,0:0:0:0:
36,192,242343,1,0,0:0:0:0:
475,192,242479,1,0,0:0:0:0:
36,192,242479,1,0,0:0:0:0:
329,192,242547,1,0,0:0:0:0:
182,192,242547,1,0,0:0:0:0:
256,192,242616,1,0,0:0:0:0:
402,192,242616,1,0,0:0:0:0:
109,192,242616,1,0,0:0:0:0:
256,192,242820,1,0,0:0:0:0:
36,192,242888,5,0,0:0:0:0:
402,192,242888,1,0,0:0:0:0:
329,192,242957,1,0,0:0:0:0:
182,192,242957,1,0,0:0:0:0:
109,192,243025,1,0,0:0:0:0:
475,192,243025,1,0,0:0:0:0:
402,192,243093,1,0,0:0:0:0:
182,192,243093,1,0,0:0:0:0:
36,192,243161,1,0,0:0:0:0:
475,192,243161,1,0,0:0:0:0:
329,192,243229,1,0,0:0:0:0:
109,192,243229,1,0,0:0:0:0:
402,192,243297,1,0,0:0:0:0:
36,192,243297,1,0,0:0:0:0:
329,192,243366,1,0,0:0:0:0:
182,192,243366,1,0,0:0:0:0:
475,192,243434,1,0,0:0:0:0:
256,192,243434,1,0,0:0:0:0:
109,192,243434,1,0,0:0:0:0:
36,192,243434,1,0,0:0:0:0:
329,192,243570,1,0,0:0:0:0:
182,192,243570,1,0,0:0:0:0:
475,192,243638,1,0,0:0:0:0:
402,192,243638,1,0,0:0:0:0:
109,192,243707,1,0,0:0:0:0:
256,192,243707,1,0,0:0:0:0:
402,192,243775,1,0,0:0:0:0:
475,192,243775,1,0,0:0:0:0:
36,192,243843,1,0,0:0:0:0:
256,192,243843,1,0,0:0:0:0:
329,192,243843,1,0,0:0:0:0:
182,192,243843,1,0,0:0:0:0:
475,192,243979,1,0,0:0:0:0:
329,192,243979,1,0,0:0:0:0:
182,192,243979,1,0,0:0:0:0:
256,192,244116,1,0,0:0:0:0:
402,192,244116,1,0,0:0:0:0:
109,192,244116,1,0,0:0:0:0:
475,192,244252,1,0,0:0:0:0:
329,192,244252,1,0,0:0:0:0:
182,192,244252,1,0,0:0:0:0:
36,192,244388,1,0,0:0:0:0:
182,192,244388,1,0,0:0:0:0:
329,192,244388,1,0,0:0:0:0:
256,192,244525,1,0,0:0:0:0:
402,192,244525,1,0,0:0:0:0:
36,192,244525,1,0,0:0:0:0:
109,192,244525,1,0,0:0:0:0:
475,192,244661,1,0,0:0:0:0:
36,192,244661,1,0,0:0:0:0:
182,192,244729,1,0,0:0:0:0:
329,192,244729,1,0,0:0:0:0:
402,192,244797,1,0,0:0:0:0:
475,192,244797,1,0,0:0:0:0:
109,192,244797,1,0,0:0:0:0:
256,192,244797,1,0,0:0:0:0:
475,192,244934,1,0,0:0:0:0:
329,192,244934,1,0,0:0:0:0:
36,192,244934,1,0,0:0:0:0:
182,192,244934,1,0,0:0:0:0:
36,192,245070,1,0,0:0:0:0:
109,192,245070,1,0,0:0:0:0:
402,192,245070,1,0,0:0:0:0:
256,192,245070,1,0,0:0:0:0:
109,192,245241,1,0,0:0:0:0:
36,192,245241,1,0,0:0:0:0:
256,192,245241,1,0,0:0:0:0:
475,192,245343,1,0,0:0:0:0:
329,192,245343,1,0,0:0:0:0:
36,192,245411,1,0,0:0:0:0:
182,192,245411,1,0,0:0:0:0:
475,192,245479,1,0,0:0:0:0:
329,192,245479,1,0,0:0:0:0:
36,192,245547,1,0,0:0:0:0:
182,192,245547,1,0,0:0:0:0:
402,192,245616,1,0,0:0:0:0:
475,192,245616,1,0,0:0:0:0:
109,192,245616,1,0,0:0:0:0:
256,192,245616,1,0,0:0:0:0:
329,192,245752,1,0,0:0:0:0:
182,192,245752,1,0,0:0:0:0:
256,192,245820,1,0,0:0:0:0:
402,192,245820,1,0,0:0:0:0:
329,192,245888,1,0,0:0:0:0:
36,192,245888,1,0,0:0:0:0:
475,192,245888,1,0,0:0:0:0:
475,192,246025,1,0,0:0:0:0:
109,192,246025,1,0,0:0:0:0:
36,192,246025,1,0,0:0:0:0:
256,192,246025,1,0,0:0:0:0:
329,192,246161,1,0,0:0:0:0:
109,192,246161,1,0,0:0:0:0:
182,192,246161,1,0,0:0:0:0:
402,192,246229,1,0,0:0:0:0:
329,192,246297,1,0,0:0:0:0:
36,192,246297,1,0,0:0:0:0:
182,192,246297,1,0,0:0:0:0:
475,192,246366,1,0,0:0:0:0:
109,192,246434,1,0,0:0:0:0:
36,192,246434,1,0,0:0:0:0:
256,192,246434,1,0,0:0:0:0:
475,192,246570,1,0,0:0:0:0:
402,192,246570,1,0,0:0:0:0:
256,192,246570,1,0,0:0:0:0:
329,192,246707,1,0,0:0:0:0:
475,192,246707,1,0,0:0:0:0:
182,192,246707,1,0,0:0:0:0:
256,192,246707,128,0,247797:0:0:0:0:
36,192,246707,1,0,0:0:0:0:
64,192,261293,5,0,0:0:0:0:
329,192,261293,1,0,0:0:0:0:
256,192,261293,1,0,0:0:0:0:
448,192,261293,1,0,0:0:0:0:
192,192,261486,1,0,0:0:0:0:
329,192,261680,1,0,0:0:0:0:
402,192,261680,1,0,0:0:0:0:
64,192,261680,1,0,0:0:0:0:
192,192,261873,1,0,0:0:0:0:
256,192,262067,1,0,0:0:0:0:
402,192,262067,1,0,0:0:0:0:
64,192,262067,1,0,0:0:0:0:
448,192,262067,1,0,0:0:0:0:
192,192,262260,1,0,0:0:0:0:
329,192,262454,1,0,0:0:0:0:
402,192,262454,1,0,0:0:0:0:
64,192,262454,1,0,0:0:0:0:
192,192,262647,1,0,0:0:0:0:
320,192,262841,1,0,0:0:0:0:
256,192,262841,1,0,0:0:0:0:
64,192,262841,1,0,0:0:0:0:
448,192,262841,1,0,0:0:0:0:
192,192,263034,1,0,0:0:0:0:
402,192,263228,1,0,0:0:0:0:
320,192,263228,1,0,0:0:0:0:
64,192,263228,1,0,0:0:0:0:
192,192,263422,1,0,0:0:0:0:
402,192,263615,1,0,0:0:0:0:
256,192,263615,1,0,0:0:0:0:
64,192,263615,1,0,0:0:0:0:
448,192,263615,1,0,0:0:0:0:
192,192,263809,1,0,0:0:0:0:
64,192,264002,1,0,0:0:0:0:
329,192,264002,1,0,0:0:0:0:
402,192,264002,1,0,0:0:0:0:
192,192,264196,1,0,0:0:0:0:
448,192,264389,1,0,0:0:0:0:
320,192,264389,1,0,0:0:0:0:
256,192,264389,1,0,0:0:0:0:
64,192,264389,1,0,0:0:0:0:
192,192,264583,1,0,0:0:0:0:
320,192,264776,1,0,0:0:0:0:
64,192,264776,1,0,0:0:0:0:
402,192,264776,1,0,0:0:0:0:
256,192,264970,1,0,0:0:0:0:
448,192,264970,1,0,0:0:0:0:
192,192,264970,1,0,0:0:0:0:
192,192,265163,1,0,0:0:0:0:
320,192,265163,1,0,0:0:0:0:
402,192,265163,1,0,0:0:0:0:
64,192,265163,1,0,0:0:0:0:
182,192,265357,1,0,0:0:0:0:
402,192,265357,1,0,0:0:0:0:
448,192,265357,1,0,0:0:0:0:
256,192,265551,1,0,0:0:0:0:
320,192,265551,1,0,0:0:0:0:
64,192,265551,1,0,0:0:0:0:
329,192,265744,1,0,0:0:0:0:
402,192,265744,1,0,0:0:0:0:
192,192,265744,1,0,0:0:0:0:
402,192,265938,1,0,0:0:0:0:
256,192,265938,1,0,0:0:0:0:
64,192,265938,1,0,0:0:0:0:
448,192,265938,1,0,0:0:0:0:
320,192,266131,1,0,0:0:0:0:
192,192,266131,1,0,0:0:0:0:
402,192,266131,1,0,0:0:0:0:
256,192,266325,1,0,0:0:0:0:
475,192,266325,1,0,0:0:0:0:
64,192,266325,1,0,0:0:0:0:
192,192,266518,1,0,0:0:0:0:
448,192,266712,1,0,0:0:0:0:
256,192,266712,1,0,0:0:0:0:
320,192,266712,1,0,0:0:0:0:
64,192,266712,1,0,0:0:0:0:
192,192,266712,1,0,0:0:0:0:
109,192,266905,1,0,0:0:0:0:
182,192,266905,1,0,0:0:0:0:
109,192,267002,1,0,0:0:0:0:
182,192,267002,1,0,0:0:0:0:
448,192,267099,1,0,0:0:0:0:
109,192,267099,1,0,0:0:0:0:
320,192,267099,1,0,0:0:0:0:
64,192,267099,1,0,0:0:0:0:
192,192,267099,1,0,0:0:0:0:
402,192,267293,1,0,0:0:0:0:
329,192,267293,1,0,0:0:0:0:
475,192,267293,1,0,0:0:0:0:
109,192,267341,1,0,0:0:0:0:
36,192,267341,1,0,0:0:0:0:
182,192,267341,1,0,0:0:0:0:
329,192,267389,1,0,0:0:0:0:
475,192,267389,1,0,0:0:0:0:
402,192,267389,1,0,0:0:0:0:
109,192,267438,1,0,0:0:0:0:
36,192,267438,1,0,0:0:0:0:
182,192,267438,1,0,0:0:0:0:
402,192,267486,1,0,0:0:0:0:
329,192,267486,1,0,0:0:0:0:
475,192,267486,1,0,0:0:0:0:
182,192,267873,1,0,0:0:0:0:
448,192,267873,1,0,0:0:0:0:
320,192,267873,1,0,0:0:0:0:
329,192,268260,1,0,0:0:0:0:
36,192,268260,1,0,0:0:0:0:
182,192,268260,1,0,0:0:0:0:
182,192,268647,1,0,0:0:0:0:
475,192,268647,1,0,0:0:0:0:
329,192,268647,1,0,0:0:0:0:
192,192,269034,1,0,0:0:0:0:
329,192,269034,1,0,0:0:0:0:
36,192,269034,1,0,0:0:0:0:
182,192,269422,1,0,0:0:0:0:
448,192,269422,1,0,0:0:0:0:
320,192,269422,1,0,0:0:0:0:
329,192,269809,1,0,0:0:0:0:
36,192,269809,1,0,0:0:0:0:
182,192,269809,1,0,0:0:0:0:
182,192,270196,1,0,0:0:0:0:
448,192,270196,1,0,0:0:0:0:
320,192,270196,1,0,0:0:0:0:
329,192,270389,1,0,0:0:0:0:
182,192,270389,1,0,0:0:0:0:
36,192,270389,1,0,0:0:0:0:
329,192,270583,1,0,0:0:0:0:
182,192,270583,1,0,0:0:0:0:
36,192,270583,1,0,0:0:0:0:
182,192,270970,1,0,0:0:0:0:
448,192,270970,1,0,0:0:0:0:
320,192,270970,1,0,0:0:0:0:
329,192,271357,1,0,0:0:0:0:
192,192,271357,1,0,0:0:0:0:
64,192,271357,1,0,0:0:0:0:
182,192,271744,1,0,0:0:0:0:
448,192,271744,1,0,0:0:0:0:
320,192,271744,1,0,0:0:0:0:
320,192,272131,1,0,0:0:0:0:
448,192,272131,1,0,0:0:0:0:
64,192,272131,1,0,0:0:0:0:
182,192,272131,1,0,0:0:0:0:
256,192,272131,1,0,0:0:0:0:
320,192,272518,1,0,0:0:0:0:
448,192,272518,1,0,0:0:0:0:
192,192,272518,1,0,0:0:0:0:
256,192,272518,1,0,0:0:0:0:
64,192,272518,1,0,0:0:0:0:
448,192,272809,1,0,0:0:0:0:
256,192,272809,1,0,0:0:0:0:
320,192,272809,1,0,0:0:0:0:
64,192,272809,1,0,0:0:0:0:
192,192,272809,1,0,0:0:0:0:
320,192,272905,1,0,0:0:0:0:
448,192,272905,1,0,0:0:0:0:
192,192,272905,1,0,0:0:0:0:
256,192,272905,1,0,0:0:0:0:
64,192,272905,1,0,0:0:0:0:
448,192,273099,1,0,0:0:0:0:
256,192,273099,1,0,0:0:0:0:
320,192,273099,1,0,0:0:0:0:
64,192,273099,1,0,0:0:0:0:
192,192,273099,1,0,0:0:0:0:
448,192,273680,1,0,0:0:0:0:
182,192,273680,1,0,0:0:0:0:
64,192,273680,1,0,0:0:0:0:
320,192,273680,1,0,0:0:0:0:
256,192,273744,1,0,0:0:0:0:
402,192,273809,1,0,0:0:0:0:
36,192,273873,1,0,0:0:0:0:
320,192,273873,1,0,0:0:0:0:
256,192,273938,1,0,0:0:0:0:
109,192,273938,1,0,0:0:0:0:
402,192,274002,1,0,0:0:0:0:
36,192,274067,1,0,0:0:0:0:
448,192,274067,1,0,0:0:0:0:
320,192,274067,1,0,0:0:0:0:
192,192,274131,1,0,0:0:0:0:
109,192,274131,1,0,0:0:0:0:
256,192,274196,1,0,0:0:0:0:
448,192,274260,1,0,0:0:0:0:
402,192,274260,1,0,0:0:0:0:
109,192,274325,1,0,0:0:0:0:
64,192,274325,1,0,0:0:0:0:
256,192,274389,1,0,0:0:0:0:
402,192,274454,1,0,0:0:0:0:
448,192,274454,1,0,0:0:0:0:
320,192,274454,1,0,0:0:0:0:
109,192,274518,1,0,0:0:0:0:
36,192,274518,1,0,0:0:0:0:
256,192,274583,1,0,0:0:0:0:
182,192,274583,1,0,0:0:0:0:
475,192,274647,1,0,0:0:0:0:
402,192,274647,1,0,0:0:0:0:
109,192,274712,1,0,0:0:0:0:
329,192,274712,1,0,0:0:0:0:
182,192,274776,1,0,0:0:0:0:
475,192,274841,1,0,0:0:0:0:
402,192,274841,1,0,0:0:0:0:
256,192,274841,1,0,0:0:0:0:
36,192,274905,1,0,0:0:0:0:
329,192,274970,1,0,0:0:0:0:
109,192,274970,1,0,0:0:0:0:
475,192,275034,1,0,0:0:0:0:
182,192,275034,1,0,0:0:0:0:
402,192,275099,1,0,0:0:0:0:
320,192,275163,1,0,0:0:0:0:
36,192,275163,1,0,0:0:0:0:
256,192,275228,1,0,0:0:0:0:
448,192,275228,1,0,0:0:0:0:
109,192,275228,1,0,0:0:0:0:
402,192,275293,1,0,0:0:0:0:
329,192,275357,1,0,0:0:0:0:
256,192,275422,1,0,0:0:0:0:
448,192,275422,1,0,0:0:0:0:
36,192,275422,1,0,0:0:0:0:
182,192,275486,1,0,0:0:0:0:
109,192,275551,1,0,0:0:0:0:
329,192,275551,1,0,0:0:0:0:
475,192,275615,1,0,0:0:0:0:
256,192,275615,1,0,0:0:0:0:
64,192,275615,1,0,0:0:0:0:
402,192,275680,1,0,0:0:0:0:
192,192,275680,1,0,0:0:0:0:
329,192,275744,1,0,0:0:0:0:
36,192,275809,1,0,0:0:0:0:
475,192,275809,1,0,0:0:0:0:
256,192,275809,1,0,0:0:0:0:
109,192,275873,1,0,0:0:0:0:
182,192,275938,1,0,0:0:0:0:
329,192,275938,1,0,0:0:0:0:
256,192,276002,1,0,0:0:0:0:
475,192,276002,1,0,0:0:0:0:
109,192,276067,1,0,0:0:0:0:
64,192,276131,1,0,0:0:0:0:
402,192,276131,1,0,0:0:0:0:
182,192,276196,1,0,0:0:0:0:
320,192,276196,1,0,0:0:0:0:
475,192,276196,1,0,0:0:0:0:
109,192,276260,1,0,0:0:0:0:
256,192,276325,1,0,0:0:0:0:
36,192,276325,1,0,0:0:0:0:
448,192,276389,1,0,0:0:0:0:
320,192,276389,1,0,0:0:0:0:
402,192,276389,1,0,0:0:0:0:
182,192,276454,1,0,0:0:0:0:
109,192,276518,1,0,0:0:0:0:
256,192,276518,1,0,0:0:0:0:
402,192,276583,1,0,0:0:0:0:
448,192,276583,1,0,0:0:0:0:
320,192,276583,1,0,0:0:0:0:
182,192,276647,1,0,0:0:0:0:
36,192,276647,1,0,0:0:0:0:
256,192,276712,1,0,0:0:0:0:
448,192,276776,1,0,0:0:0:0:
320,192,276776,1,0,0:0:0:0:
109,192,276776,1,0,0:0:0:0:
182,192,276841,1,0,0:0:0:0:
256,192,276905,1,0,0:0:0:0:
402,192,276905,1,0,0:0:0:0:
475,192,276970,1,0,0:0:0:0:
320,192,276970,1,0,0:0:0:0:
109,192,276970,1,0,0:0:0:0:
36,192,277034,1,0,0:0:0:0:
182,192,277099,1,0,0:0:0:0:
402,192,277099,1,0,0:0:0:0:
109,192,277163,1,0,0:0:0:0:
329,192,277163,1,0,0:0:0:0:
256,192,277228,1,0,0:0:0:0:
36,192,277293,1,0,0:0:0:0:
402,192,277293,1,0,0:0:0:0:
192,192,277357,1,0,0:0:0:0:
109,192,277357,1,0,0:0:0:0:
256,192,277422,1,0,0:0:0:0:
320,192,277422,1,0,0:0:0:0:
402,192,277486,1,0,0:0:0:0:
109,192,277551,1,0,0:0:0:0:
64,192,277551,1,0,0:0:0:0:
256,192,277615,1,0,0:0:0:0:
475,192,277615,1,0,0:0:0:0:
402,192,277680,1,0,0:0:0:0:
192,192,277680,1,0,0:0:0:0:
109,192,277744,1,0,0:0:0:0:
329,192,277744,1,0,0:0:0:0:
64,192,277744,1,0,0:0:0:0:
475,192,277809,1,0,0:0:0:0:
256,192,277809,1,0,0:0:0:0:
182,192,277873,1,0,0:0:0:0:
402,192,277938,1,0,0:0:0:0:
329,192,277938,1,0,0:0:0:0:
64,192,277938,1,0,0:0:0:0:
256,192,278002,1,0,0:0:0:0:
109,192,278067,1,0,0:0:0:0:
475,192,278067,1,0,0:0:0:0:
64,192,278131,1,0,0:0:0:0:
402,192,278131,1,0,0:0:0:0:
182,192,278196,1,0,0:0:0:0:
256,192,278196,1,0,0:0:0:0:
448,192,278260,1,0,0:0:0:0:
329,192,278260,1,0,0:0:0:0:
109,192,278325,1,0,0:0:0:0:
402,192,278325,1,0,0:0:0:0:
64,192,278325,1,0,0:0:0:0:
182,192,278389,1,0,0:0:0:0:
475,192,278454,1,0,0:0:0:0:
256,192,278454,1,0,0:0:0:0:
329,192,278518,1,0,0:0:0:0:
36,192,278518,1,0,0:0:0:0:
109,192,278518,1,0,0:0:0:0:
402,192,278583,1,0,0:0:0:0:
256,192,278647,1,0,0:0:0:0:
329,192,278712,1,0,0:0:0:0:
36,192,278712,1,0,0:0:0:0:
475,192,278712,1,0,0:0:0:0:
182,192,278776,1,0,0:0:0:0:
402,192,278841,1,0,0:0:0:0:
256,192,278841,1,0,0:0:0:0:
109,192,278905,1,0,0:0:0:0:
36,192,278905,1,0,0:0:0:0:
182,192,278970,1,0,0:0:0:0:
329,192,278970,1,0,0:0:0:0:
475,192,279034,1,0,0:0:0:0:
402,192,279034,1,0,0:0:0:0:
109,192,279099,1,0,0:0:0:0:
256,192,279099,1,0,0:0:0:0:
329,192,279163,1,0,0:0:0:0:
182,192,279163,1,0,0:0:0:0:
402,192,279228,1,0,0:0:0:0:
256,192,279293,1,0,0:0:0:0:
36,192,279293,1,0,0:0:0:0:
109,192,279293,1,0,0:0:0:0:
329,192,279357,1,0,0:0:0:0:
448,192,279357,1,0,0:0:0:0:
182,192,279422,1,0,0:0:0:0:
109,192,279486,1,0,0:0:0:0:
402,192,279486,1,0,0:0:0:0:
36,192,279551,1,0,0:0:0:0:
329,192,279551,1,0,0:0:0:0:
256,192,279615,1,0,0:0:0:0:
448,192,279680,1,0,0:0:0:0:
402,192,279680,1,0,0:0:0:0:
192,192,279728,1,0,0:0:0:0:
64,192,279728,1,0,0:0:0:0:
448,192,279776,1,0,0:0:0:0:
402,192,279776,1,0,0:0:0:0:
192,192,279825,1,0,0:0:0:0:
64,192,279825,1,0,0:0:0:0:
448,192,279873,1,0,0:0:0:0:
402,192,279873,1,0,0:0:0:0:
256,192,279938,1,0,0:0:0:0:
192,192,280002,1,0,0:0:0:0:
475,192,280067,1,0,0:0:0:0:
320,192,280067,1,0,0:0:0:0:
109,192,280131,1,0,0:0:0:0:
256,192,280196,1,0,0:0:0:0:
36,192,280196,1,0,0:0:0:0:
448,192,280260,1,0,0:0:0:0:
320,192,280260,1,0,0:0:0:0:
402,192,280260,1,0,0:0:0:0:
182,192,280325,1,0,0:0:0:0:
109,192,280325,1,0,0:0:0:0:
256,192,280389,1,0,0:0:0:0:
320,192,280454,1,0,0:0:0:0:
192,192,280518,1,0,0:0:0:0:
402,192,280518,1,0,0:0:0:0:
256,192,280583,1,0,0:0:0:0:
64,192,280583,1,0,0:0:0:0:
448,192,280647,1,0,0:0:0:0:
320,192,280647,1,0,0:0:0:0:
109,192,280647,1,0,0:0:0:0:
402,192,280712,1,0,0:0:0:0:
182,192,280712,1,0,0:0:0:0:
36,192,280776,1,0,0:0:0:0:
256,192,280776,1,0,0:0:0:0:
329,192,280841,1,0,0:0:0:0:
448,192,280841,1,0,0:0:0:0:
109,192,280905,1,0,0:0:0:0:
256,192,280970,1,0,0:0:0:0:
402,192,280970,1,0,0:0:0:0:
448,192,281034,1,0,0:0:0:0:
192,192,281034,1,0,0:0:0:0:
36,192,281034,1,0,0:0:0:0:
329,192,281099,1,0,0:0:0:0:
109,192,281099,1,0,0:0:0:0:
256,192,281163,1,0,0:0:0:0:
109,192,281228,1,0,0:0:0:0:
402,192,281228,1,0,0:0:0:0:
329,192,281293,1,0,0:0:0:0:
182,192,281293,1,0,0:0:0:0:
36,192,281357,1,0,0:0:0:0:
448,192,281357,1,0,0:0:0:0:
402,192,281422,1,0,0:0:0:0:
109,192,281422,1,0,0:0:0:0:
256,192,281486,1,0,0:0:0:0:
192,192,281486,1,0,0:0:0:0:
329,192,281551,1,0,0:0:0:0:
448,192,281551,1,0,0:0:0:0:
36,192,281615,1,0,0:0:0:0:
402,192,281615,1,0,0:0:0:0:
109,192,281615,1,0,0:0:0:0:
182,192,281680,1,0,0:0:0:0:
256,192,281744,1,0,0:0:0:0:
402,192,281809,1,0,0:0:0:0:
448,192,281809,1,0,0:0:0:0:
329,192,281809,1,0,0:0:0:0:
109,192,281873,1,0,0:0:0:0:
64,192,281873,1,0,0:0:0:0:
256,192,281938,1,0,0:0:0:0:
448,192,282002,1,0,0:0:0:0:
64,192,282002,1,0,0:0:0:0:
402,192,282002,1,0,0:0:0:0:
109,192,282067,1,0,0:0:0:0:
192,192,282067,1,0,0:0:0:0:
320,192,282131,1,0,0:0:0:0:
256,192,282131,1,0,0:0:0:0:
36,192,282196,1,0,0:0:0:0:
448,192,282196,1,0,0:0:0:0:
402,192,282260,1,0,0:0:0:0:
109,192,282260,1,0,0:0:0:0:
192,192,282325,1,0,0:0:0:0:
448,192,282389,1,0,0:0:0:0:
320,192,282389,1,0,0:0:0:0:
109,192,282389,1,0,0:0:0:0:
402,192,282454,1,0,0:0:0:0:
36,192,282454,1,0,0:0:0:0:
182,192,282518,1,0,0:0:0:0:
448,192,282583,1,0,0:0:0:0:
320,192,282583,1,0,0:0:0:0:
256,192,282583,1,0,0:0:0:0:
109,192,282647,1,0,0:0:0:0:
402,192,282647,1,0,0:0:0:0:
182,192,282712,1,0,0:0:0:0:
448,192,282776,1,0,0:0:0:0:
256,192,282776,1,0,0:0:0:0:
36,192,282776,1,0,0:0:0:0:
109,192,282841,1,0,0:0:0:0:
192,192,282905,1,0,0:0:0:0:
402,192,282905,1,0,0:0:0:0:
64,192,282970,1,0,0:0:0:0:
475,192,282970,1,0,0:0:0:0:
256,192,282970,1,0,0:0:0:0:
329,192,283034,1,0,0:0:0:0:
256,192,283099,1,0,0:0:0:0:
109,192,283099,1,0,0:0:0:0:
448,192,283163,1,0,0:0:0:0:
402,192,283163,1,0,0:0:0:0:
182,192,283163,1,0,0:0:0:0:
329,192,283228,1,0,0:0:0:0:
109,192,283293,1,0,0:0:0:0:
256,192,283293,1,0,0:0:0:0:
475,192,283357,1,0,0:0:0:0:
402,192,283357,1,0,0:0:0:0:
36,192,283357,1,0,0:0:0:0:
182,192,283422,1,0,0:0:0:0:
256,192,283486,1,0,0:0:0:0:
329,192,283551,1,0,0:0:0:0:
475,192,283551,1,0,0:0:0:0:
64,192,283551,1,0,0:0:0:0:
109,192,283615,1,0,0:0:0:0:
402,192,283615,1,0,0:0:0:0:
256,192,283680,1,0,0:0:0:0:
475,192,283744,1,0,0:0:0:0:
192,192,283744,1,0,0:0:0:0:
109,192,283809,1,0,0:0:0:0:
402,192,283809,1,0,0:0:0:0:
256,192,283873,1,0,0:0:0:0:
64,192,283873,1,0,0:0:0:0:
475,192,283938,1,0,0:0:0:0:
320,192,283938,1,0,0:0:0:0:
192,192,283938,1,0,0:0:0:0:
109,192,284002,1,0,0:0:0:0:
256,192,284067,1,0,0:0:0:0:
320,192,284131,1,0,0:0:0:0:
192,192,284131,1,0,0:0:0:0:
36,192,284131,1,0,0:0:0:0:
109,192,284196,1,0,0:0:0:0:
402,192,284196,1,0,0:0:0:0:
256,192,284260,1,0,0:0:0:0:
475,192,284260,1,0,0:0:0:0:
329,192,284325,1,0,0:0:0:0:
192,192,284325,1,0,0:0:0:0:
64,192,284325,1,0,0:0:0:0:
402,192,284389,1,0,0:0:0:0:
109,192,284454,1,0,0:0:0:0:
329,192,284454,1,0,0:0:0:0:
192,192,284518,1,0,0:0:0:0:
64,192,284518,1,0,0:0:0:0:
256,192,284518,1,0,0:0:0:0:
402,192,284583,1,0,0:0:0:0:
475,192,284647,1,0,0:0:0:0:
182,192,284712,1,0,0:0:0:0:
329,192,284712,1,0,0:0:0:0:
109,192,284712,1,0,0:0:0:0:
256,192,284776,1,0,0:0:0:0:
402,192,284776,1,0,0:0:0:0:
475,192,284841,1,0,0:0:0:0:
36,192,284905,1,0,0:0:0:0:
320,192,284905,1,0,0:0:0:0:
182,192,284905,1,0,0:0:0:0:
109,192,284970,1,0,0:0:0:0:
402,192,284970,1,0,0:0:0:0:
256,192,285034,1,0,0:0:0:0:
182,192,285099,1,0,0:0:0:0:
475,192,285099,1,0,0:0:0:0:
402,192,285163,1,0,0:0:0:0:
36,192,285163,1,0,0:0:0:0:
329,192,285228,1,0,0:0:0:0:
109,192,285293,1,0,0:0:0:0:
256,192,285293,1,0,0:0:0:0:
448,192,285293,1,0,0:0:0:0:
402,192,285357,1,0,0:0:0:0:
329,192,285422,1,0,0:0:0:0:
182,192,285486,1,0,0:0:0:0:
448,192,285486,1,0,0:0:0:0:
64,192,285486,1,0,0:0:0:0:
256,192,285551,1,0,0:0:0:0:
320,192,285583,1,0,0:0:0:0:
402,192,285615,1,0,0:0:0:0:
109,192,285680,1,0,0:0:0:0:
64,192,285680,1,0,0:0:0:0:
192,192,285680,1,0,0:0:0:0:
256,192,285744,1,0,0:0:0:0:
320,192,285744,1,0,0:0:0:0:
402,192,285809,1,0,0:0:0:0:
448,192,285809,1,0,0:0:0:0:
36,192,285873,1,0,0:0:0:0:
109,192,285873,1,0,0:0:0:0:
448,192,285922,1,0,0:0:0:0:
320,192,285922,1,0,0:0:0:0:
36,192,285970,1,0,0:0:0:0:
109,192,285970,1,0,0:0:0:0:
448,192,286018,1,0,0:0:0:0:
320,192,286018,1,0,0:0:0:0:
36,192,286067,1,0,0:0:0:0:
109,192,286067,1,0,0:0:0:0:
256,192,286131,1,0,0:0:0:0:
182,192,286131,1,0,0:0:0:0:
329,192,286196,1,0,0:0:0:0:
448,192,286196,1,0,0:0:0:0:
182,192,286260,1,0,0:0:0:0:
109,192,286260,1,0,0:0:0:0:
402,192,286325,1,0,0:0:0:0:
256,192,286325,1,0,0:0:0:0:
64,192,286389,1,0,0:0:0:0:
475,192,286389,1,0,0:0:0:0:
109,192,286454,1,0,0:0:0:0:
329,192,286454,1,0,0:0:0:0:
256,192,286518,1,0,0:0:0:0:
36,192,286583,1,0,0:0:0:0:
182,192,286583,1,0,0:0:0:0:
402,192,286647,1,0,0:0:0:0:
256,192,286712,1,0,0:0:0:0:
448,192,286712,1,0,0:0:0:0:
64,192,286776,1,0,0:0:0:0:
109,192,286776,1,0,0:0:0:0:
182,192,286841,1,0,0:0:0:0:
448,192,286841,1,0,0:0:0:0:
320,192,286841,1,0,0:0:0:0:
256,192,286905,1,0,0:0:0:0:
109,192,286970,1,0,0:0:0:0:
402,192,286970,1,0,0:0:0:0:
64,192,287034,1,0,0:0:0:0:
329,192,287034,1,0,0:0:0:0:
192,192,287099,1,0,0:0:0:0:
402,192,287163,1,0,0:0:0:0:
109,192,287163,1,0,0:0:0:0:
36,192,287228,1,0,0:0:0:0:
448,192,287228,1,0,0:0:0:0:
320,192,287228,1,0,0:0:0:0:
256,192,287293,1,0,0:0:0:0:
109,192,287357,1,0,0:0:0:0:
402,192,287357,1,0,0:0:0:0:
329,192,287422,1,0,0:0:0:0:
64,192,287422,1,0,0:0:0:0:
475,192,287486,1,0,0:0:0:0:
192,192,287486,1,0,0:0:0:0:
402,192,287551,1,0,0:0:0:0:
256,192,287551,1,0,0:0:0:0:
329,192,287615,1,0,0:0:0:0:
109,192,287615,1,0,0:0:0:0:
64,192,287615,1,0,0:0:0:0:
182,192,287680,1,0,0:0:0:0:
475,192,287680,1,0,0:0:0:0:
256,192,287744,1,0,0:0:0:0:
402,192,287809,1,0,0:0:0:0:
64,192,287809,1,0,0:0:0:0:
109,192,287873,1,0,0:0:0:0:
448,192,287873,1,0,0:0:0:0:
256,192,287938,1,0,0:0:0:0:
192,192,288002,1,0,0:0:0:0:
64,192,288002,1,0,0:0:0:0:
402,192,288002,1,0,0:0:0:0:
109,192,288067,1,0,0:0:0:0:
475,192,288067,1,0,0:0:0:0:
256,192,288131,1,0,0:0:0:0:
329,192,288131,1,0,0:0:0:0:
182,192,288196,1,0,0:0:0:0:
402,192,288196,1,0,0:0:0:0:
64,192,288196,1,0,0:0:0:0:
109,192,288260,1,0,0:0:0:0:
256,192,288325,1,0,0:0:0:0:
329,192,288389,1,0,0:0:0:0:
402,192,288389,1,0,0:0:0:0:
475,192,288389,1,0,0:0:0:0:
36,192,288454,1,0,0:0:0:0:
192,192,288454,1,0,0:0:0:0:
109,192,288518,1,0,0:0:0:0:
256,192,288583,1,0,0:0:0:0:
329,192,288583,1,0,0:0:0:0:
475,192,288583,1,0,0:0:0:0:
182,192,288647,1,0,0:0:0:0:
402,192,288712,1,0,0:0:0:0:
36,192,288712,1,0,0:0:0:0:
329,192,288776,1,0,0:0:0:0:
109,192,288776,1,0,0:0:0:0:
256,192,288776,1,0,0:0:0:0:
475,192,288841,1,0,0:0:0:0:
402,192,288905,1,0,0:0:0:0:
256,192,288970,1,0,0:0:0:0:
192,192,288970,1,0,0:0:0:0:
64,192,288970,1,0,0:0:0:0:
329,192,289034,1,0,0:0:0:0:
109,192,289034,1,0,0:0:0:0:
475,192,289099,1,0,0:0:0:0:
402,192,289099,1,0,0:0:0:0:
64,192,289163,1,0,0:0:0:0:
182,192,289163,1,0,0:0:0:0:
402,192,289228,1,0,0:0:0:0:
329,192,289228,1,0,0:0:0:0:
109,192,289293,1,0,0:0:0:0:
182,192,289293,1,0,0:0:0:0:
402,192,289357,1,0,0:0:0:0:
320,192,289357,1,0,0:0:0:0:
109,192,289422,1,0,0:0:0:0:
192,192,289422,1,0,0:0:0:0:
402,192,289486,1,0,0:0:0:0:
320,192,289486,1,0,0:0:0:0:
109,192,289551,1,0,0:0:0:0:
64,192,289551,1,0,0:0:0:0:
475,192,289551,1,0,0:0:0:0:
256,192,289615,1,0,0:0:0:0:
182,192,289680,1,0,0:0:0:0:
402,192,289744,1,0,0:0:0:0:
64,192,289744,1,0,0:0:0:0:
448,192,289744,1,0,0:0:0:0:
256,192,289809,1,0,0:0:0:0:
320,192,289809,1,0,0:0:0:0:
109,192,289873,1,0,0:0:0:0:
192,192,289873,1,0,0:0:0:0:
256,192,289938,1,0,0:0:0:0:
320,192,289938,1,0,0:0:0:0:
448,192,290002,1,0,0:0:0:0:
402,192,290002,1,0,0:0:0:0:
109,192,290067,1,0,0:0:0:0:
64,192,290067,1,0,0:0:0:0:
448,192,290131,1,0,0:0:0:0:
192,192,290131,1,0,0:0:0:0:
256,192,290131,1,0,0:0:0:0:
402,192,290196,1,0,0:0:0:0:
320,192,290196,1,0,0:0:0:0:
192,192,290260,1,0,0:0:0:0:
109,192,290260,1,0,0:0:0:0:
256,192,290325,1,0,0:0:0:0:
320,192,290325,1,0,0:0:0:0:
64,192,290325,1,0,0:0:0:0:
448,192,290389,1,0,0:0:0:0:
402,192,290389,1,0,0:0:0:0:
109,192,290454,1,0,0:0:0:0:
64,192,290454,1,0,0:0:0:0:
320,192,290518,1,0,0:0:0:0:
192,192,290518,1,0,0:0:0:0:
256,192,290518,1,0,0:0:0:0:
402,192,290583,1,0,0:0:0:0:
448,192,290583,1,0,0:0:0:0:
192,192,290647,1,0,0:0:0:0:
109,192,290647,1,0,0:0:0:0:
402,192,290712,1,0,0:0:0:0:
320,192,290712,1,0,0:0:0:0:
109,192,290776,1,0,0:0:0:0:
182,192,290776,1,0,0:0:0:0:
329,192,290841,1,0,0:0:0:0:
402,192,290841,1,0,0:0:0:0:
109,192,290905,1,0,0:0:0:0:
182,192,290905,1,0,0:0:0:0:
329,192,290970,1,0,0:0:0:0:
402,192,290970,1,0,0:0:0:0:
109,192,291034,1,0,0:0:0:0:
182,192,291034,1,0,0:0:0:0:
256,192,291099,1,0,0:0:0:0:
320,192,291099,1,0,0:0:0:0:
64,192,291163,1,0,0:0:0:0:
475,192,291163,1,0,0:0:0:0:
402,192,291228,1,0,0:0:0:0:
109,192,291228,1,0,0:0:0:0:
329,192,291293,1,0,0:0:0:0:
192,192,291293,1,0,0:0:0:0:
475,192,291357,1,0,0:0:0:0:
64,192,291357,1,0,0:0:0:0:
402,192,291422,1,0,0:0:0:0:
256,192,291422,1,0,0:0:0:0:
182,192,291486,1,0,0:0:0:0:
109,192,291486,1,0,0:0:0:0:
36,192,291551,1,0,0:0:0:0:
448,192,291551,1,0,0:0:0:0:
329,192,291615,1,0,0:0:0:0:
402,192,291615,1,0,0:0:0:0:
109,192,291680,1,0,0:0:0:0:
256,192,291680,1,0,0:0:0:0:
475,192,291744,1,0,0:0:0:0:
402,192,291776,1,0,0:0:0:0:
320,192,291809,1,0,0:0:0:0:
256,192,291873,1,0,0:0:0:0:
109,192,291873,1,0,0:0:0:0:
36,192,291873,1,0,0:0:0:0:
402,192,291938,1,0,0:0:0:0:
320,192,292002,1,0,0:0:0:0:
475,192,292002,1,0,0:0:0:0:
182,192,292067,1,0,0:0:0:0:
109,192,292067,1,0,0:0:0:0:
64,192,292067,1,0,0:0:0:0:
256,192,292131,1,0,0:0:0:0:
329,192,292196,1,0,0:0:0:0:
475,192,292196,1,0,0:0:0:0:
64,192,292260,1,0,0:0:0:0:
402,192,292260,1,0,0:0:0:0:
182,192,292260,1,0,0:0:0:0:
109,192,292325,1,0,0:0:0:0:
475,192,292389,1,0,0:0:0:0:
329,192,292389,1,0,0:0:0:0:
182,192,292454,1,0,0:0:0:0:
256,192,292454,1,0,0:0:0:0:
64,192,292454,1,0,0:0:0:0:
402,192,292518,1,0,0:0:0:0:
329,192,292583,1,0,0:0:0:0:
109,192,292583,1,0,0:0:0:0:
448,192,292647,1,0,0:0:0:0:
256,192,292647,1,0,0:0:0:0:
182,192,292712,1,0,0:0:0:0:
64,192,292712,1,0,0:0:0:0:
402,192,292776,1,0,0:0:0:0:
329,192,292841,1,0,0:0:0:0:
475,192,292841,1,0,0:0:0:0:
256,192,292841,1,0,0:0:0:0:
109,192,292905,1,0,0:0:0:0:
182,192,292970,1,0,0:0:0:0:
475,192,293034,1,0,0:0:0:0:
64,192,293034,1,0,0:0:0:0:
329,192,293034,1,0,0:0:0:0:
109,192,293099,1,0,0:0:0:0:
402,192,293163,1,0,0:0:0:0:
182,192,293163,1,0,0:0:0:0:
256,192,293228,1,0,0:0:0:0:
36,192,293228,1,0,0:0:0:0:
329,192,293293,1,0,0:0:0:0:
448,192,293293,1,0,0:0:0:0:
109,192,293357,1,0,0:0:0:0:
256,192,293422,1,0,0:0:0:0:
402,192,293422,1,0,0:0:0:0:
192,192,293422,1,0,0:0:0:0:
448,192,293486,1,0,0:0:0:0:
109,192,293551,1,0,0:0:0:0:
64,192,293551,1,0,0:0:0:0:
256,192,293615,1,0,0:0:0:0:
320,192,293680,1,0,0:0:0:0:
402,192,293744,1,0,0:0:0:0:
192,192,293744,1,0,0:0:0:0:
109,192,293809,1,0,0:0:0:0:
448,192,293809,1,0,0:0:0:0:
64,192,293809,1,0,0:0:0:0:
256,192,293873,1,0,0:0:0:0:
329,192,293938,1,0,0:0:0:0:
109,192,294002,1,0,0:0:0:0:
402,192,294002,1,0,0:0:0:0:
448,192,294067,1,0,0:0:0:0:
192,192,294131,1,0,0:0:0:0:
329,192,294131,1,0,0:0:0:0:
36,192,294196,1,0,0:0:0:0:
256,192,294196,1,0,0:0:0:0:
109,192,294196,1,0,0:0:0:0:
402,192,294260,1,0,0:0:0:0:
182,192,294325,1,0,0:0:0:0:
475,192,294325,1,0,0:0:0:0:
256,192,294389,1,0,0:0:0:0:
329,192,294454,1,0,0:0:0:0:
109,192,294518,1,0,0:0:0:0:
402,192,294518,1,0,0:0:0:0:
256,192,294583,1,0,0:0:0:0:
182,192,294583,1,0,0:0:0:0:
64,192,294583,1,0,0:0:0:0:
448,192,294647,1,0,0:0:0:0:
329,192,294647,1,0,0:0:0:0:
109,192,294712,1,0,0:0:0:0:
402,192,294776,1,0,0:0:0:0:
256,192,294776,1,0,0:0:0:0:
182,192,294776,1,0,0:0:0:0:
475,192,294841,1,0,0:0:0:0:
64,192,294841,1,0,0:0:0:0:
109,192,294905,1,0,0:0:0:0:
402,192,294970,1,0,0:0:0:0:
329,192,294970,1,0,0:0:0:0:
182,192,294970,1,0,0:0:0:0:
256,192,295034,1,0,0:0:0:0:
36,192,295099,1,0,0:0:0:0:
475,192,295163,1,0,0:0:0:0:
329,192,295163,1,0,0:0:0:0:
109,192,295163,1,0,0:0:0:0:
256,192,295228,1,0,0:0:0:0:
182,192,295293,1,0,0:0:0:0:
475,192,295357,1,0,0:0:0:0:
329,192,295357,1,0,0:0:0:0:
109,192,295357,1,0,0:0:0:0:
256,192,295422,1,0,0:0:0:0:
182,192,295486,1,0,0:0:0:0:
64,192,295486,1,0,0:0:0:0:
256,192,295551,1,0,0:0:0:0:
320,192,295615,1,0,0:0:0:0:
109,192,295680,1,0,0:0:0:0:
402,192,295680,1,0,0:0:0:0:
182,192,295744,1,0,0:0:0:0:
448,192,295744,1,0,0:0:0:0:
64,192,295744,1,0,0:0:0:0:
320,192,295809,1,0,0:0:0:0:
402,192,295873,1,0,0:0:0:0:
256,192,295873,1,0,0:0:0:0:
109,192,295938,1,0,0:0:0:0:
448,192,295938,1,0,0:0:0:0:
64,192,295938,1,0,0:0:0:0:
329,192,296002,1,0,0:0:0:0:
192,192,296067,1,0,0:0:0:0:
475,192,296131,1,0,0:0:0:0:
109,192,296131,1,0,0:0:0:0:
329,192,296196,1,0,0:0:0:0:
64,192,296260,1,0,0:0:0:0:
256,192,296260,1,0,0:0:0:0:
402,192,296325,1,0,0:0:0:0:
109,192,296325,1,0,0:0:0:0:
192,192,296325,1,0,0:0:0:0:
448,192,296389,1,0,0:0:0:0:
329,192,296389,1,0,0:0:0:0:
256,192,296454,1,0,0:0:0:0:
64,192,296454,1,0,0:0:0:0:
109,192,296518,1,0,0:0:0:0:
402,192,296518,1,0,0:0:0:0:
448,192,296583,1,0,0:0:0:0:
320,192,296647,1,0,0:0:0:0:
182,192,296647,1,0,0:0:0:0:
109,192,296712,1,0,0:0:0:0:
64,192,296712,1,0,0:0:0:0:
475,192,296776,1,0,0:0:0:0:
402,192,296776,1,0,0:0:0:0:
256,192,296841,1,0,0:0:0:0:
64,192,296905,1,0,0:0:0:0:
475,192,296905,1,0,0:0:0:0:
109,192,296905,1,0,0:0:0:0:
329,192,296954,1,0,0:0:0:0:
182,192,297002,1,0,0:0:0:0:
402,192,297051,1,0,0:0:0:0:
256,192,297099,1,0,0:0:0:0:
36,192,297147,1,0,0:0:0:0:
109,192,297196,1,0,0:0:0:0:
329,192,297244,1,0,0:0:0:0:
475,192,297292,1,0,0:0:0:0:
402,192,297292,1,0,0:0:0:0:
182,192,297341,1,0,0:0:0:0:
36,192,297389,1,0,0:0:0:0:
256,192,297438,1,0,0:0:0:0:
402,192,297486,1,0,0:0:0:0:
109,192,297534,1,0,0:0:0:0:
329,192,297583,1,0,0:0:0:0:
182,192,297583,1,0,0:0:0:0:
475,192,297631,1,0,0:0:0:0:
256,192,297680,1,0,0:0:0:0:
402,192,297680,1,0,0:0:0:0:
36,192,297728,1,0,0:0:0:0:
182,192,297776,1,0,0:0:0:0:
329,192,297825,1,0,0:0:0:0:
109,192,297873,1,0,0:0:0:0:
475,192,297873,1,0,0:0:0:0:
402,192,297922,1,0,0:0:0:0:
256,192,297970,1,0,0:0:0:0:
36,192,298018,1,0,0:0:0:0:
182,192,298067,1,0,0:0:0:0:
329,192,298131,1,0,0:0:0:0:
475,192,298131,1,0,0:0:0:0:
256,192,298196,1,0,0:0:0:0:
109,192,298196,1,0,0:0:0:0:
402,192,298260,1,0,0:0:0:0:
36,192,298260,1,0,0:0:0:0:
182,192,298325,1,0,0:0:0:0:
329,192,298325,1,0,0:0:0:0:
109,192,298389,1,0,0:0:0:0:
402,192,298454,1,0,0:0:0:0:
64,192,298454,1,0,0:0:0:0:
256,192,298454,1,0,0:0:0:0:
475,192,298518,1,0,0:0:0:0:
182,192,298518,1,0,0:0:0:0:
329,192,298583,1,0,0:0:0:0:
402,192,298841,1,0,0:0:0:0:
256,192,298841,1,0,0:0:0:0:
64,192,298841,1,0,0:0:0:0:
329,192,298905,1,0,0:0:0:0:
109,192,298905,1,0,0:0:0:0:
475,192,298970,1,0,0:0:0:0:
182,192,298970,1,0,0:0:0:0:
402,192,299034,1,0,0:0:0:0:
36,192,299034,1,0,0:0:0:0:
109,192,299099,1,0,0:0:0:0:
329,192,299099,1,0,0:0:0:0:
256,192,299163,1,0,0:0:0:0:
36,192,299228,1,0,0:0:0:0:
475,192,299228,1,0,0:0:0:0:
182,192,299228,1,0,0:0:0:0:
402,192,299292,1,0,0:0:0:0:
109,192,299292,1,0,0:0:0:0:
329,192,299357,1,0,0:0:0:0:
64,192,299615,1,0,0:0:0:0:
109,192,299615,1,0,0:0:0:0:
402,192,299615,1,0,0:0:0:0:
192,192,299680,1,0,0:0:0:0:
256,192,299680,1,0,0:0:0:0:
329,192,299744,1,0,0:0:0:0:
475,192,299744,1,0,0:0:0:0:
36,192,299809,1,0,0:0:0:0:
402,192,299809,1,0,0:0:0:0:
109,192,299873,1,0,0:0:0:0:
256,192,299873,1,0,0:0:0:0:
192,192,299938,1,0,0:0:0:0:
320,192,300002,1,0,0:0:0:0:
64,192,300002,1,0,0:0:0:0:
402,192,300002,1,0,0:0:0:0:
109,192,300067,1,0,0:0:0:0:
475,192,300067,1,0,0:0:0:0:
182,192,300131,1,0,0:0:0:0:
402,192,300389,1,0,0:0:0:0:
109,192,300389,1,0,0:0:0:0:
64,192,300389,1,0,0:0:0:0:
256,192,300454,1,0,0:0:0:0:
192,192,300454,1,0,0:0:0:0:
475,192,300518,1,0,0:0:0:0:
329,192,300518,1,0,0:0:0:0:
402,192,300583,1,0,0:0:0:0:
36,192,300583,1,0,0:0:0:0:
256,192,300647,1,0,0:0:0:0:
109,192,300647,1,0,0:0:0:0:
192,192,300712,1,0,0:0:0:0:
402,192,300776,1,0,0:0:0:0:
64,192,300776,1,0,0:0:0:0:
320,192,300776,1,0,0:0:0:0:
475,192,300841,1,0,0:0:0:0:
109,192,300841,1,0,0:0:0:0:
256,192,300905,1,0,0:0:0:0:
182,192,300905,1,0,0:0:0:0:
36,192,300970,1,0,0:0:0:0:
329,192,300970,1,0,0:0:0:0:
475,192,301034,1,0,0:0:0:0:
402,192,301034,1,0,0:0:0:0:
256,192,301099,1,0,0:0:0:0:
192,192,301099,1,0,0:0:0:0:
109,192,301163,1,0,0:0:0:0:
320,192,301163,1,0,0:0:0:0:
64,192,301163,1,0,0:0:0:0:
402,192,301228,1,0,0:0:0:0:
475,192,301228,1,0,0:0:0:0:
182,192,301292,1,0,0:0:0:0:
256,192,301292,1,0,0:0:0:0:
36,192,301357,1,0,0:0:0:0:
109,192,301357,1,0,0:0:0:0:
448,192,301357,1,0,0:0:0:0:
402,192,301422,1,0,0:0:0:0:
320,192,301422,1,0,0:0:0:0:
182,192,301486,1,0,0:0:0:0:
256,192,301551,1,0,0:0:0:0:
402,192,301551,1,0,0:0:0:0:
448,192,301551,1,0,0:0:0:0:
109,192,301599,1,0,0:0:0:0:
329,192,301647,1,0,0:0:0:0:
182,192,301696,1,0,0:0:0:0:
36,192,301744,1,0,0:0:0:0:
475,192,301744,1,0,0:0:0:0:
256,192,301792,1,0,0:0:0:0:
402,192,301841,1,0,0:0:0:0:
109,192,301889,1,0,0:0:0:0:
182,192,301938,1,0,0:0:0:0:
329,192,301938,1,0,0:0:0:0:
475,192,301986,1,0,0:0:0:0:
256,192,302034,1,0,0:0:0:0:
36,192,302083,1,0,0:0:0:0:
402,192,302131,1,0,0:0:0:0:
109,192,302131,1,0,0:0:0:0:
182,192,302180,1,0,0:0:0:0:
329,192,302228,1,0,0:0:0:0:
475,192,302276,1,0,0:0:0:0:
256,192,302325,1,0,0:0:0:0:
36,192,302325,1,0,0:0:0:0:
402,192,302373,1,0,0:0:0:0:
182,192,302422,1,0,0:0:0:0:
109,192,302470,1,0,0:0:0:0:
329,192,302518,1,0,0:0:0:0:
475,192,302518,1,0,0:0:0:0:
256,192,302567,1,0,0:0:0:0:
36,192,302615,1,0,0:0:0:0:
182,192,302663,1,0,0:0:0:0:
402,192,302712,1,0,0:0:0:0:
329,192,302712,1,0,0:0:0:0:
109,192,302760,1,0,0:0:0:0:
256,192,302809,1,0,0:0:0:0:
402,192,302857,1,0,0:0:0:0:
475,192,302905,1,0,0:0:0:0:
36,192,302905,1,0,0:0:0:0:
182,192,302954,1,0,0:0:0:0:
109,192,303002,1,0,0:0:0:0:
329,192,303051,1,0,0:0:0:0:
256,192,303099,1,0,0:0:0:0:
475,192,303099,1,0,0:0:0:0:
36,192,303099,1,0,0:0:0:0:
402,192,303147,1,0,0:0:0:0:
182,192,303196,1,0,0:0:0:0:
329,192,303244,1,0,0:0:0:0:
109,192,303292,1,0,0:0:0:0:
256,192,303341,1,0,0:0:0:0:
402,192,303389,1,0,0:0:0:0:
182,192,303438,1,0,0:0:0:0:
36,192,303486,1,0,0:0:0:0:
329,192,303486,1,0,0:0:0:0:
475,192,303486,1,0,0:0:0:0:
109,192,303534,1,0,0:0:0:0:
256,192,303583,1,0,0:0:0:0:
402,192,303631,1,0,0:0:0:0:
182,192,303680,1,0,0:0:0:0:
329,192,303728,1,0,0:0:0:0:
36,192,303776,1,0,0:0:0:0:
402,192,303825,1,0,0:0:0:0:
109,192,303873,1,0,0:0:0:0:
192,192,303873,1,0,0:0:0:0:
475,192,303873,1,0,0:0:0:0:
256,192,303938,1,0,0:0:0:0:
402,192,304002,1,0,0:0:0:0:
448,192,304002,1,0,0:0:0:0:
182,192,304067,1,0,0:0:0:0:
109,192,304067,1,0,0:0:0:0:
36,192,304131,1,0,0:0:0:0:
475,192,304163,1,0,0:0:0:0:
402,192,304163,1,0,0:0:0:0:
329,192,304212,1,0,0:0:0:0:
256,192,304212,1,0,0:0:0:0:
109,192,304260,1,0,0:0:0:0:
192,192,304260,1,0,0:0:0:0:
64,192,304260,1,0,0:0:0:0:
402,192,304325,1,0,0:0:0:0:
448,192,304325,1,0,0:0:0:0:
256,192,304389,1,0,0:0:0:0:
320,192,304389,1,0,0:0:0:0:
192,192,304454,1,0,0:0:0:0:
109,192,304454,1,0,0:0:0:0:
402,192,304502,1,0,0:0:0:0:
448,192,304502,1,0,0:0:0:0:
192,192,304551,1,0,0:0:0:0:
109,192,304551,1,0,0:0:0:0:
402,192,304599,1,0,0:0:0:0:
448,192,304599,1,0,0:0:0:0:
192,192,304647,1,0,0:0:0:0:
109,192,304647,1,0,0:0:0:0:
256,192,304712,1,0,0:0:0:0:
402,192,304776,1,0,0:0:0:0:
402,192,305034,1,0,0:0:0:0:
320,192,305034,1,0,0:0:0:0:
64,192,305034,1,0,0:0:0:0:
256,192,305099,1,0,0:0:0:0:
192,192,305099,1,0,0:0:0:0:
475,192,305163,1,0,0:0:0:0:
109,192,305163,1,0,0:0:0:0:
329,192,305228,1,0,0:0:0:0:
36,192,305228,1,0,0:0:0:0:
402,192,305228,1,0,0:0:0:0:
256,192,305292,1,0,0:0:0:0:
182,192,305292,1,0,0:0:0:0:
475,192,305357,1,0,0:0:0:0:
329,192,305422,1,0,0:0:0:0:
402,192,305422,1,0,0:0:0:0:
64,192,305422,1,0,0:0:0:0:
182,192,305486,1,0,0:0:0:0:
109,192,305486,1,0,0:0:0:0:
475,192,305551,1,0,0:0:0:0:
256,192,305551,1,0,0:0:0:0:
329,192,305615,1,0,0:0:0:0:
64,192,305809,1,0,0:0:0:0:
402,192,305809,1,0,0:0:0:0:
320,192,305809,1,0,0:0:0:0:
256,192,305873,1,0,0:0:0:0:
192,192,305873,1,0,0:0:0:0:
475,192,305938,1,0,0:0:0:0:
109,192,305938,1,0,0:0:0:0:
36,192,306002,1,0,0:0:0:0:
329,192,306002,1,0,0:0:0:0:
402,192,306002,1,0,0:0:0:0:
182,192,306067,1,0,0:0:0:0:
256,192,306067,1,0,0:0:0:0:
475,192,306131,1,0,0:0:0:0:
64,192,306196,1,0,0:0:0:0:
329,192,306196,1,0,0:0:0:0:
402,192,306196,1,0,0:0:0:0:
182,192,306260,1,0,0:0:0:0:
109,192,306260,1,0,0:0:0:0:
475,192,306325,1,0,0:0:0:0:
256,192,306325,1,0,0:0:0:0:
329,192,306389,1,0,0:0:0:0:
320,192,306583,1,0,0:0:0:0:
402,192,306583,1,0,0:0:0:0:
64,192,306583,1,0,0:0:0:0:
192,192,306647,1,0,0:0:0:0:
256,192,306647,1,0,0:0:0:0:
109,192,306712,1,0,0:0:0:0:
475,192,306712,1,0,0:0:0:0:
402,192,306776,1,0,0:0:0:0:
329,192,306776,1,0,0:0:0:0:
36,192,306776,1,0,0:0:0:0:
256,192,306841,1,0,0:0:0:0:
182,192,306841,1,0,0:0:0:0:
475,192,306905,1,0,0:0:0:0:
402,192,306970,1,0,0:0:0:0:
329,192,306970,1,0,0:0:0:0:
64,192,306970,1,0,0:0:0:0:
109,192,307034,1,0,0:0:0:0:
182,192,307034,1,0,0:0:0:0:
256,192,307099,1,0,0:0:0:0:
475,192,307099,1,0,0:0:0:0:
329,192,307163,1,0,0:0:0:0:
402,192,307163,1,0,0:0:0:0:
64,192,307196,1,0,0:0:0:0:
109,192,307228,1,0,0:0:0:0:
182,192,307260,1,0,0:0:0:0:
256,192,307292,1,0,0:0:0:0:
475,192,307325,1,0,0:0:0:0:
329,192,307325,1,0,0:0:0:0:
109,192,307551,1,0,0:0:0:0:
402,192,307551,1,0,0:0:0:0:
64,192,307551,1,0,0:0:0:0:
320,192,307551,1,0,0:0:0:0:
192,192,307615,1,0,0:0:0:0:
256,192,307680,1,0,0:0:0:0:
448,192,307744,1,0,0:0:0:0:
109,192,307744,1,0,0:0:0:0:
64,192,307744,1,0,0:0:0:0:
402,192,307744,1,0,0:0:0:0:
192,192,307809,1,0,0:0:0:0:
320,192,307873,1,0,0:0:0:0:
256,192,307938,1,0,0:0:0:0:
402,192,307938,1,0,0:0:0:0:
64,192,307938,1,0,0:0:0:0:
448,192,307938,1,0,0:0:0:0:
109,192,308002,1,0,0:0:0:0:
192,192,308067,1,0,0:0:0:0:
402,192,308131,1,0,0:0:0:0:
256,192,308131,1,0,0:0:0:0:
320,192,308131,1,0,0:0:0:0:
448,192,308131,1,0,0:0:0:0:
109,192,308196,1,0,0:0:0:0:
64,192,308260,1,0,0:0:0:0:
256,192,308325,1,0,0:0:0:0:
182,192,308325,1,0,0:0:0:0:
320,192,308325,1,0,0:0:0:0:
448,192,308325,1,0,0:0:0:0:
402,192,308389,1,0,0:0:0:0:
36,192,308454,1,0,0:0:0:0:
109,192,308518,1,0,0:0:0:0:
182,192,308518,1,0,0:0:0:0:
320,192,308518,1,0,0:0:0:0:
475,192,308518,1,0,0:0:0:0:
256,192,308583,1,0,0:0:0:0:
36,192,308647,1,0,0:0:0:0:
475,192,308712,1,0,0:0:0:0:
109,192,308712,1,0,0:0:0:0:
320,192,308712,1,0,0:0:0:0:
402,192,308712,1,0,0:0:0:0:
182,192,308776,1,0,0:0:0:0:
256,192,308841,1,0,0:0:0:0:
402,192,308905,1,0,0:0:0:0:
329,192,308905,1,0,0:0:0:0:
64,192,308905,1,0,0:0:0:0:
448,192,308905,1,0,0:0:0:0:
192,192,308970,1,0,0:0:0:0:
256,192,309034,1,0,0:0:0:0:
109,192,309099,1,0,0:0:0:0:
329,192,309099,1,0,0:0:0:0:
64,192,309099,1,0,0:0:0:0:
448,192,309099,1,0,0:0:0:0:
256,192,309292,1,0,0:0:0:0:
182,192,309292,1,0,0:0:0:0:
320,192,309292,1,0,0:0:0:0:
109,192,309292,1,0,0:0:0:0:
402,192,309486,1,0,0:0:0:0:
448,192,309486,1,0,0:0:0:0:
256,192,309680,1,0,0:0:0:0:
320,192,309680,1,0,0:0:0:0:
192,192,309680,1,0,0:0:0:0:
109,192,309873,1,0,0:0:0:0:
64,192,309873,1,0,0:0:0:0:
402,192,310067,1,0,0:0:0:0:
320,192,310067,1,0,0:0:0:0:
192,192,310067,1,0,0:0:0:0:
256,192,310260,1,0,0:0:0:0:
448,192,310260,1,0,0:0:0:0:
402,192,310454,1,0,0:0:0:0:
109,192,310454,1,0,0:0:0:0:
182,192,310454,1,0,0:0:0:0:
329,192,310454,1,0,0:0:0:0:
256,192,310518,1,0,0:0:0:0:
36,192,310583,1,0,0:0:0:0:
402,192,310647,1,0,0:0:0:0:
109,192,310647,1,0,0:0:0:0:
475,192,310647,1,0,0:0:0:0:
182,192,310647,1,0,0:0:0:0:
329,192,310712,1,0,0:0:0:0:
256,192,310776,1,0,0:0:0:0:
36,192,310841,1,0,0:0:0:0:
402,192,310841,1,0,0:0:0:0:
475,192,310841,1,0,0:0:0:0:
109,192,310841,1,0,0:0:0:0:
329,192,310905,1,0,0:0:0:0:
182,192,310970,1,0,0:0:0:0:
256,192,311034,1,0,0:0:0:0:
109,192,311034,1,0,0:0:0:0:
475,192,311034,1,0,0:0:0:0:
36,192,311034,1,0,0:0:0:0:
402,192,311099,1,0,0:0:0:0:
329,192,311163,1,0,0:0:0:0:
109,192,311228,1,0,0:0:0:0:
256,192,311228,1,0,0:0:0:0:
182,192,311228,1,0,0:0:0:0:
36,192,311228,1,0,0:0:0:0:
402,192,311292,1,0,0:0:0:0:
475,192,311357,1,0,0:0:0:0:
256,192,311422,1,0,0:0:0:0:
329,192,311422,1,0,0:0:0:0:
182,192,311422,1,0,0:0:0:0:
36,192,311422,1,0,0:0:0:0:
109,192,311486,1,0,0:0:0:0:
475,192,311551,1,0,0:0:0:0:
402,192,311615,1,0,0:0:0:0:
329,192,311615,1,0,0:0:0:0:
182,192,311615,1,0,0:0:0:0:
36,192,311615,1,0,0:0:0:0:
256,192,311680,1,0,0:0:0:0:
475,192,311744,1,0,0:0:0:0:
36,192,311809,1,0,0:0:0:0:
402,192,311809,1,0,0:0:0:0:
182,192,311809,1,0,0:0:0:0:
109,192,311809,1,0,0:0:0:0:
329,192,311873,1,0,0:0:0:0:
256,192,311938,1,0,0:0:0:0:
109,192,312002,1,0,0:0:0:0:
182,192,312002,1,0,0:0:0:0:
475,192,312002,1,0,0:0:0:0:
36,192,312002,1,0,0:0:0:0:
329,192,312067,1,0,0:0:0:0:
256,192,312131,1,0,0:0:0:0:
402,192,312196,1,0,0:0:0:0:
182,192,312196,1,0,0:0:0:0:
475,192,312196,1,0,0:0:0:0:
36,192,312196,1,0,0:0:0:0:
448,192,312389,1,0,0:0:0:0:
256,192,312389,1,0,0:0:0:0:
192,192,312389,1,0,0:0:0:0:
320,192,312389,1,0,0:0:0:0:
109,192,312776,1,0,0:0:0:0:
256,192,312776,1,0,0:0:0:0:
64,192,312776,1,0,0:0:0:0:
320,192,312776,1,0,0:0:0:0:
448,192,312873,1,0,0:0:0:0:
448,192,312970,1,0,0:0:0:0:
448,192,313067,1,0,0:0:0:0:
320,192,313163,1,0,0:0:0:0:
402,192,313163,1,0,0:0:0:0:
64,192,313163,1,0,0:0:0:0:
192,192,313163,1,0,0:0:0:0:
192,192,313357,1,0,0:0:0:0:
64,192,313357,1,0,0:0:0:0:
192,192,313454,1,0,0:0:0:0:
64,192,313454,1,0,0:0:0:0:
448,192,313551,1,0,0:0:0:0:
320,192,313551,1,0,0:0:0:0:
64,192,313551,1,0,0:0:0:0:
192,192,313551,1,0,0:0:0:0:
475,192,313744,1,0,0:0:0:0:
329,192,313744,1,0,0:0:0:0:
182,192,313792,1,0,0:0:0:0:
36,192,313792,1,0,0:0:0:0:
475,192,313841,1,0,0:0:0:0:
329,192,313841,1,0,0:0:0:0:
182,192,313889,1,0,0:0:0:0:
36,192,313889,1,0,0:0:0:0:
475,192,313938,1,0,0:0:0:0:
329,192,313938,1,0,0:0:0:0:
402,192,313938,1,0,0:0:0:0:
256,192,314002,1,0,0:0:0:0:
36,192,314067,1,0,0:0:0:0:
109,192,314067,1,0,0:0:0:0:
402,192,314131,1,0,0:0:0:0:
329,192,314131,1,0,0:0:0:0:
256,192,314196,1,0,0:0:0:0:
36,192,314260,1,0,0:0:0:0:
475,192,314260,1,0,0:0:0:0:
402,192,314325,1,0,0:0:0:0:
109,192,314325,1,0,0:0:0:0:
182,192,314389,1,0,0:0:0:0:
256,192,314389,1,0,0:0:0:0:
329,192,314454,1,0,0:0:0:0:
475,192,314454,1,0,0:0:0:0:
109,192,314518,1,0,0:0:0:0:
256,192,314583,1,0,0:0:0:0:
402,192,314647,1,0,0:0:0:0:
475,192,314647,1,0,0:0:0:0:
182,192,314712,1,0,0:0:0:0:
36,192,314712,1,0,0:0:0:0:
329,192,314712,1,0,0:0:0:0:
256,192,314776,1,0,0:0:0:0:
109,192,314841,1,0,0:0:0:0:
402,192,314841,1,0,0:0:0:0:
182,192,314905,1,0,0:0:0:0:
475,192,314905,1,0,0:0:0:0:
329,192,314970,1,0,0:0:0:0:
402,192,315034,1,0,0:0:0:0:
109,192,315034,1,0,0:0:0:0:
182,192,315099,1,0,0:0:0:0:
36,192,315099,1,0,0:0:0:0:
475,192,315099,1,0,0:0:0:0:
256,192,315163,1,0,0:0:0:0:
109,192,315228,1,0,0:0:0:0:
402,192,315228,1,0,0:0:0:0:
475,192,315292,1,0,0:0:0:0:
182,192,315292,1,0,0:0:0:0:
329,192,315357,1,0,0:0:0:0:
36,192,315357,1,0,0:0:0:0:
256,192,315422,1,0,0:0:0:0:
109,192,315422,1,0,0:0:0:0:
475,192,315486,1,0,0:0:0:0:
402,192,315486,1,0,0:0:0:0:
182,192,315486,1,0,0:0:0:0:
36,192,315551,1,0,0:0:0:0:
329,192,315551,1,0,0:0:0:0:
256,192,315615,1,0,0:0:0:0:
475,192,315680,1,0,0:0:0:0:
109,192,315680,1,0,0:0:0:0:
36,192,315744,1,0,0:0:0:0:
402,192,315744,1,0,0:0:0:0:
256,192,315809,1,0,0:0:0:0:
109,192,315873,1,0,0:0:0:0:
475,192,315873,1,0,0:0:0:0:
329,192,315873,1,0,0:0:0:0:
36,192,315938,1,0,0:0:0:0:
402,192,315938,1,0,0:0:0:0:
182,192,316002,1,0,0:0:0:0:
475,192,316067,1,0,0:0:0:0:
329,192,316067,1,0,0:0:0:0:
109,192,316067,1,0,0:0:0:0:
402,192,316131,1,0,0:0:0:0:
256,192,316196,1,0,0:0:0:0:
182,192,316196,1,0,0:0:0:0:
109,192,316260,1,0,0:0:0:0:
329,192,316325,1,0,0:0:0:0:
402,192,316325,1,0,0:0:0:0:
36,192,316389,1,0,0:0:0:0:
475,192,316389,1,0,0:0:0:0:
109,192,316454,1,0,0:0:0:0:
256,192,316454,1,0,0:0:0:0:
402,192,316518,1,0,0:0:0:0:
182,192,316518,1,0,0:0:0:0:
475,192,316583,1,0,0:0:0:0:
36,192,316583,1,0,0:0:0:0:
256,192,316647,1,0,0:0:0:0:
329,192,316647,1,0,0:0:0:0:
109,192,316647,1,0,0:0:0:0:
182,192,316712,1,0,0:0:0:0:
402,192,316712,1,0,0:0:0:0:
36,192,316776,1,0,0:0:0:0:
475,192,316841,1,0,0:0:0:0:
329,192,316841,1,0,0:0:0:0:
109,192,316841,1,0,0:0:0:0:
402,192,316905,1,0,0:0:0:0:
182,192,316905,1,0,0:0:0:0:
36,192,316970,1,0,0:0:0:0:
475,192,317034,1,0,0:0:0:0:
256,192,317034,1,0,0:0:0:0:
329,192,317034,1,0,0:0:0:0:
182,192,317099,1,0,0:0:0:0:
109,192,317099,1,0,0:0:0:0:
329,192,317163,1,0,0:0:0:0:
402,192,317163,1,0,0:0:0:0:
182,192,317228,1,0,0:0:0:0:
109,192,317228,1,0,0:0:0:0:
329,192,317292,1,0,0:0:0:0:
402,192,317292,1,0,0:0:0:0:
182,192,317357,1,0,0:0:0:0:
109,192,317357,1,0,0:0:0:0:
329,192,317422,1,0,0:0:0:0:
475,192,317422,1,0,0:0:0:0:
402,192,317422,1,0,0:0:0:0:
36,192,317486,1,0,0:0:0:0:
182,192,317486,1,0,0:0:0:0:
329,192,317551,1,0,0:0:0:0:
256,192,317551,1,0,0:0:0:0:
475,192,317615,1,0,0:0:0:0:
402,192,317615,1,0,0:0:0:0:
109,192,317615,1,0,0:0:0:0:
182,192,317680,1,0,0:0:0:0:
256,192,317680,1,0,0:0:0:0:
329,192,317744,1,0,0:0:0:0:
402,192,317744,1,0,0:0:0:0:
182,192,317809,1,0,0:0:0:0:
256,192,317809,1,0,0:0:0:0:
109,192,317873,1,0,0:0:0:0:
36,192,317873,1,0,0:0:0:0:
475,192,317938,1,0,0:0:0:0:
402,192,317938,1,0,0:0:0:0:
256,192,318002,1,0,0:0:0:0:
329,192,318002,1,0,0:0:0:0:
182,192,318067,1,0,0:0:0:0:
109,192,318067,1,0,0:0:0:0:
402,192,318131,1,0,0:0:0:0:
329,192,318131,1,0,0:0:0:0:
182,192,318196,1,0,0:0:0:0:
256,192,318196,1,0,0:0:0:0:
109,192,318260,1,0,0:0:0:0:
36,192,318260,1,0,0:0:0:0:
475,192,318325,1,0,0:0:0:0:
402,192,318325,1,0,0:0:0:0:
256,192,318389,1,0,0:0:0:0:
329,192,318389,1,0,0:0:0:0:
182,192,318389,1,0,0:0:0:0:
36,192,318454,1,0,0:0:0:0:
109,192,318454,1,0,0:0:0:0:
402,192,318518,1,0,0:0:0:0:
329,192,318518,1,0,0:0:0:0:
109,192,318583,1,0,0:0:0:0:
182,192,318583,1,0,0:0:0:0:
36,192,318583,1,0,0:0:0:0:
329,192,318647,1,0,0:0:0:0:
402,192,318647,1,0,0:0:0:0:
109,192,318712,1,0,0:0:0:0:
182,192,318712,1,0,0:0:0:0:
329,192,318776,1,0,0:0:0:0:
402,192,318776,1,0,0:0:0:0:
109,192,318841,1,0,0:0:0:0:
182,192,318841,1,0,0:0:0:0:
329,192,318905,1,0,0:0:0:0:
402,192,318905,1,0,0:0:0:0:
182,192,318970,1,0,0:0:0:0:
256,192,318970,1,0,0:0:0:0:
36,192,319034,1,0,0:0:0:0:
475,192,319034,1,0,0:0:0:0:
402,192,319099,1,0,0:0:0:0:
329,192,319163,1,0,0:0:0:0:
256,192,319163,1,0,0:0:0:0:
182,192,319163,1,0,0:0:0:0:
36,192,319228,1,0,0:0:0:0:
109,192,319292,1,0,0:0:0:0:
182,192,319292,1,0,0:0:0:0:
402,192,319357,1,0,0:0:0:0:
329,192,319357,1,0,0:0:0:0:
256,192,319357,1,0,0:0:0:0:
36,192,319422,1,0,0:0:0:0:
475,192,319422,1,0,0:0:0:0:
109,192,319486,1,0,0:0:0:0:
182,192,319486,1,0,0:0:0:0:
256,192,319486,1,0,0:0:0:0:
329,192,319551,1,0,0:0:0:0:
402,192,319551,1,0,0:0:0:0:
36,192,319615,1,0,0:0:0:0:
109,192,319647,1,0,0:0:0:0:
182,192,319680,1,0,0:0:0:0:
475,192,319744,1,0,0:0:0:0:
329,192,319744,1,0,0:0:0:0:
256,192,319744,1,0,0:0:0:0:
36,192,319809,1,0,0:0:0:0:
402,192,319809,1,0,0:0:0:0:
109,192,319873,1,0,0:0:0:0:
475,192,319938,1,0,0:0:0:0:
329,192,319938,1,0,0:0:0:0:
182,192,319938,1,0,0:0:0:0:
36,192,320002,1,0,0:0:0:0:
256,192,320002,1,0,0:0:0:0:
109,192,320067,1,0,0:0:0:0:
475,192,320067,1,0,0:0:0:0:
182,192,320131,1,0,0:0:0:0:
402,192,320131,1,0,0:0:0:0:
329,192,320131,1,0,0:0:0:0:
256,192,320196,1,0,0:0:0:0:
109,192,320260,1,0,0:0:0:0:
36,192,320260,1,0,0:0:0:0:
475,192,320325,1,0,0:0:0:0:
182,192,320325,1,0,0:0:0:0:
402,192,320325,1,0,0:0:0:0:
329,192,320389,1,0,0:0:0:0:
109,192,320454,1,0,0:0:0:0:
256,192,320518,1,0,0:0:0:0:
182,192,320518,1,0,0:0:0:0:
36,192,320518,1,0,0:0:0:0:
475,192,320583,1,0,0:0:0:0:
329,192,320583,1,0,0:0:0:0:
402,192,320647,1,0,0:0:0:0:
36,192,320712,1,0,0:0:0:0:
182,192,320712,1,0,0:0:0:0:
109,192,320712,1,0,0:0:0:0:
329,192,320776,1,0,0:0:0:0:
402,192,320841,1,0,0:0:0:0:
256,192,320905,1,0,0:0:0:0:
475,192,320905,1,0,0:0:0:0:
36,192,320905,1,0,0:0:0:0:
182,192,320970,1,0,0:0:0:0:
109,192,321034,1,0,0:0:0:0:
329,192,321034,1,0,0:0:0:0:
475,192,321099,1,0,0:0:0:0:
256,192,321099,1,0,0:0:0:0:
36,192,321163,1,0,0:0:0:0:
182,192,321163,1,0,0:0:0:0:
402,192,321228,1,0,0:0:0:0:
329,192,321292,1,0,0:0:0:0:
109,192,321292,1,0,0:0:0:0:
256,192,321292,1,0,0:0:0:0:
182,192,321357,1,0,0:0:0:0:
475,192,321422,1,0,0:0:0:0:
402,192,321422,1,0,0:0:0:0:
36,192,321486,1,0,0:0:0:0:
329,192,321486,1,0,0:0:0:0:
182,192,321551,1,0,0:0:0:0:
256,192,321615,1,0,0:0:0:0:
109,192,321615,1,0,0:0:0:0:
475,192,321680,1,0,0:0:0:0:
36,192,321680,1,0,0:0:0:0:
402,192,321680,1,0,0:0:0:0:
329,192,321744,1,0,0:0:0:0:
109,192,321809,1,0,0:0:0:0:
256,192,321809,1,0,0:0:0:0:
402,192,321873,1,0,0:0:0:0:
475,192,321873,1,0,0:0:0:0:
36,192,321938,1,0,0:0:0:0:
182,192,321938,1,0,0:0:0:0:
256,192,322002,1,0,0:0:0:0:
329,192,322002,1,0,0:0:0:0:
402,192,322067,1,0,0:0:0:0:
109,192,322067,1,0,0:0:0:0:
475,192,322067,1,0,0:0:0:0:
36,192,322131,1,0,0:0:0:0:
182,192,322131,1,0,0:0:0:0:
256,192,322196,1,0,0:0:0:0:
329,192,322260,1,0,0:0:0:0:
36,192,322325,1,0,0:0:0:0:
109,192,322325,1,0,0:0:0:0:
256,192,322389,1,0,0:0:0:0:
475,192,322454,1,0,0:0:0:0:
182,192,322454,1,0,0:0:0:0:
402,192,322454,1,0,0:0:0:0:
109,192,322518,1,0,0:0:0:0:
36,192,322518,1,0,0:0:0:0:
256,192,322583,1,0,0:0:0:0:
329,192,322583,1,0,0:0:0:0:
402,192,322647,1,0,0:0:0:0:
182,192,322647,1,0,0:0:0:0:
475,192,322712,1,0,0:0:0:0:
109,192,322712,1,0,0:0:0:0:
402,192,322776,1,0,0:0:0:0:
329,192,322841,1,0,0:0:0:0:
256,192,322841,1,0,0:0:0:0:
182,192,322841,1,0,0:0:0:0:
475,192,322905,1,0,0:0:0:0:
36,192,322905,1,0,0:0:0:0:
329,192,322970,1,0,0:0:0:0:
402,192,322970,1,0,0:0:0:0:
256,192,323034,1,0,0:0:0:0:
109,192,323034,1,0,0:0:0:0:
182,192,323034,1,0,0:0:0:0:
36,192,323099,1,0,0:0:0:0:
475,192,323099,1,0,0:0:0:0:
402,192,323163,1,0,0:0:0:0:
329,192,323228,1,0,0:0:0:0:
109,192,323228,1,0,0:0:0:0:
256,192,323228,1,0,0:0:0:0:
182,192,323292,1,0,0:0:0:0:
475,192,323357,1,0,0:0:0:0:
402,192,323357,1,0,0:0:0:0:
36,192,323422,1,0,0:0:0:0:
256,192,323422,1,0,0:0:0:0:
182,192,323486,1,0,0:0:0:0:
109,192,323486,1,0,0:0:0:0:
402,192,323551,1,0,0:0:0:0:
475,192,323615,1,0,0:0:0:0:
36,192,323615,1,0,0:0:0:0:
256,192,323615,1,0,0:0:0:0:
182,192,323680,1,0,0:0:0:0:
329,192,323744,1,0,0:0:0:0:
109,192,323744,1,0,0:0:0:0:
475,192,323809,1,0,0:0:0:0:
36,192,323809,1,0,0:0:0:0:
402,192,323809,1,0,0:0:0:0:
256,192,323873,1,0,0:0:0:0:
182,192,323873,1,0,0:0:0:0:
329,192,323938,1,0,0:0:0:0:
109,192,323938,1,0,0:0:0:0:
402,192,324002,1,0,0:0:0:0:
36,192,324002,1,0,0:0:0:0:
182,192,324067,1,0,0:0:0:0:
256,192,324131,1,0,0:0:0:0:
475,192,324131,1,0,0:0:0:0:
329,192,324196,1,0,0:0:0:0:
402,192,324196,1,0,0:0:0:0:
109,192,324196,1,0,0:0:0:0:
182,192,324260,1,0,0:0:0:0:
36,192,324260,1,0,0:0:0:0:
475,192,324325,1,0,0:0:0:0:
256,192,324325,1,0,0:0:0:0:
109,192,324389,1,0,0:0:0:0:
329,192,324389,1,0,0:0:0:0:
36,192,324454,1,0,0:0:0:0:
256,192,324518,1,0,0:0:0:0:
182,192,324518,1,0,0:0:0:0:
475,192,324583,1,0,0:0:0:0:
329,192,324583,1,0,0:0:0:0:
402,192,324583,1,0,0:0:0:0:
109,192,324647,1,0,0:0:0:0:
36,192,324647,1,0,0:0:0:0:
329,192,324712,1,0,0:0:0:0:
256,192,324712,1,0,0:0:0:0:
36,192,324776,1,0,0:0:0:0:
475,192,324776,1,0,0:0:0:0:
402,192,324776,1,0,0:0:0:0:
182,192,324825,1,0,0:0:0:0:
329,192,324873,1,0,0:0:0:0:
109,192,324922,1,0,0:0:0:0:
256,192,324970,1,0,0:0:0:0:
475,192,324970,1,0,0:0:0:0:
402,192,325018,1,0,0:0:0:0:
36,192,325067,1,0,0:0:0:0:
182,192,325115,1,0,0:0:0:0:
329,192,325163,1,0,0:0:0:0:
475,192,325163,1,0,0:0:0:0:
256,192,325212,1,0,0:0:0:0:
109,192,325260,1,0,0:0:0:0:
402,192,325309,1,0,0:0:0:0:
182,192,325357,1,0,0:0:0:0:
36,192,325357,1,0,0:0:0:0:
329,192,325405,1,0,0:0:0:0:
256,192,325454,1,0,0:0:0:0:
475,192,325454,1,0,0:0:0:0:
109,192,325502,1,0,0:0:0:0:
402,192,325551,1,0,0:0:0:0:
182,192,325551,1,0,0:0:0:0:
329,192,325599,1,0,0:0:0:0:
36,192,325647,1,0,0:0:0:0:
256,192,325696,1,0,0:0:0:0:
109,192,325744,1,0,0:0:0:0:
475,192,325744,1,0,0:0:0:0:
329,192,325792,1,0,0:0:0:0:
182,192,325841,1,0,0:0:0:0:
256,192,325889,1,0,0:0:0:0:
36,192,325938,1,0,0:0:0:0:
402,192,325938,1,0,0:0:0:0:
109,192,325938,1,0,0:0:0:0:
475,192,326002,1,0,0:0:0:0:
329,192,326002,1,0,0:0:0:0:
182,192,326067,1,0,0:0:0:0:
109,192,326067,1,0,0:0:0:0:
256,192,326131,1,0,0:0:0:0:
448,192,326131,1,0,0:0:0:0:
402,192,326196,1,0,0:0:0:0:
64,192,326196,1,0,0:0:0:0:
329,192,326260,1,0,0:0:0:0:
109,192,326260,1,0,0:0:0:0:
182,192,326325,1,0,0:0:0:0:
475,192,326325,1,0,0:0:0:0:
256,192,326325,1,0,0:0:0:0:
36,192,326389,1,0,0:0:0:0:
402,192,326389,1,0,0:0:0:0:
329,192,326454,1,0,0:0:0:0:
256,192,326712,1,0,0:0:0:0:
475,192,326712,1,0,0:0:0:0:
402,192,326712,1,0,0:0:0:0:
36,192,326776,1,0,0:0:0:0:
109,192,326776,1,0,0:0:0:0:
320,192,326841,1,0,0:0:0:0:
182,192,326841,1,0,0:0:0:0:
256,192,326905,1,0,0:0:0:0:
448,192,326905,1,0,0:0:0:0:
64,192,326970,1,0,0:0:0:0:
402,192,326970,1,0,0:0:0:0:
329,192,327034,1,0,0:0:0:0:
109,192,327034,1,0,0:0:0:0:
475,192,327099,1,0,0:0:0:0:
256,192,327099,1,0,0:0:0:0:
182,192,327099,1,0,0:0:0:0:
402,192,327163,1,0,0:0:0:0:
36,192,327163,1,0,0:0:0:0:
109,192,327228,1,0,0:0:0:0:
402,192,327486,1,0,0:0:0:0:
475,192,327486,1,0,0:0:0:0:
256,192,327486,1,0,0:0:0:0:
109,192,327551,1,0,0:0:0:0:
36,192,327551,1,0,0:0:0:0:
182,192,327615,1,0,0:0:0:0:
320,192,327615,1,0,0:0:0:0:
448,192,327680,1,0,0:0:0:0:
256,192,327680,1,0,0:0:0:0:
402,192,327744,1,0,0:0:0:0:
64,192,327744,1,0,0:0:0:0:
109,192,327809,1,0,0:0:0:0:
329,192,327809,1,0,0:0:0:0:
182,192,327873,1,0,0:0:0:0:
256,192,327873,1,0,0:0:0:0:
475,192,327873,1,0,0:0:0:0:
36,192,327938,1,0,0:0:0:0:
402,192,327938,1,0,0:0:0:0:
109,192,328002,1,0,0:0:0:0:
182,192,328002,1,0,0:0:0:0:
256,192,328067,1,0,0:0:0:0:
256,192,328260,1,0,0:0:0:0:
475,192,328260,1,0,0:0:0:0:
402,192,328260,1,0,0:0:0:0:
36,192,328325,1,0,0:0:0:0:
109,192,328325,1,0,0:0:0:0:
320,192,328389,1,0,0:0:0:0:
182,192,328389,1,0,0:0:0:0:
256,192,328454,1,0,0:0:0:0:
448,192,328454,1,0,0:0:0:0:
64,192,328518,1,0,0:0:0:0:
402,192,328518,1,0,0:0:0:0:
329,192,328583,1,0,0:0:0:0:
109,192,328583,1,0,0:0:0:0:
475,192,328647,1,0,0:0:0:0:
256,192,328647,1,0,0:0:0:0:
182,192,328647,1,0,0:0:0:0:
402,192,328712,1,0,0:0:0:0:
36,192,328712,1,0,0:0:0:0:
182,192,328776,1,0,0:0:0:0:
329,192,328841,1,0,0:0:0:0:
256,192,328841,1,0,0:0:0:0:
448,192,328841,1,0,0:0:0:0:
109,192,328905,1,0,0:0:0:0:
64,192,328905,1,0,0:0:0:0:
402,192,328970,1,0,0:0:0:0:
182,192,329034,1,0,0:0:0:0:
256,192,329034,1,0,0:0:0:0:
320,192,329034,1,0,0:0:0:0:
36,192,329099,1,0,0:0:0:0:
109,192,329099,1,0,0:0:0:0:
402,192,329163,1,0,0:0:0:0:
475,192,329163,1,0,0:0:0:0:
329,192,329228,1,0,0:0:0:0:
256,192,329228,1,0,0:0:0:0:
192,192,329228,1,0,0:0:0:0:
109,192,329292,1,0,0:0:0:0:
64,192,329292,1,0,0:0:0:0:
402,192,329357,1,0,0:0:0:0:
448,192,329357,1,0,0:0:0:0:
256,192,329422,1,0,0:0:0:0:
329,192,329422,1,0,0:0:0:0:
182,192,329422,1,0,0:0:0:0:
36,192,329470,1,0,0:0:0:0:
402,192,329518,1,0,0:0:0:0:
109,192,329567,1,0,0:0:0:0:
329,192,329615,1,0,0:0:0:0:
182,192,329615,1,0,0:0:0:0:
475,192,329663,1,0,0:0:0:0:
256,192,329712,1,0,0:0:0:0:
36,192,329760,1,0,0:0:0:0:
109,192,329809,1,0,0:0:0:0:
475,192,329809,1,0,0:0:0:0:
402,192,329857,1,0,0:0:0:0:
182,192,329905,1,0,0:0:0:0:
36,192,329954,1,0,0:0:0:0:
256,192,330002,1,0,0:0:0:0:
109,192,330002,1,0,0:0:0:0:
329,192,330051,1,0,0:0:0:0:
475,192,330099,1,0,0:0:0:0:
182,192,330147,1,0,0:0:0:0:
36,192,330196,1,0,0:0:0:0:
402,192,330196,1,0,0:0:0:0:
329,192,330244,1,0,0:0:0:0:
109,192,330292,1,0,0:0:0:0:
256,192,330341,1,0,0:0:0:0:
475,192,330389,1,0,0:0:0:0:
36,192,330389,1,0,0:0:0:0:
402,192,330438,1,0,0:0:0:0:
182,192,330486,1,0,0:0:0:0:
109,192,330534,1,0,0:0:0:0:
329,192,330583,1,0,0:0:0:0:
256,192,330583,1,0,0:0:0:0:
36,192,330631,1,0,0:0:0:0:
182,192,330680,1,0,0:0:0:0:
402,192,330728,1,0,0:0:0:0:
109,192,330776,1,0,0:0:0:0:
475,192,330776,1,0,0:0:0:0:
329,192,330825,1,0,0:0:0:0:
256,192,330873,1,0,0:0:0:0:
36,192,330922,1,0,0:0:0:0:
182,192,330970,1,0,0:0:0:0:
402,192,330970,1,0,0:0:0:0:
475,192,330970,1,0,0:0:0:0:
109,192,331018,1,0,0:0:0:0:
329,192,331067,1,0,0:0:0:0:
256,192,331115,1,0,0:0:0:0:
182,192,331163,1,0,0:0:0:0:
36,192,331212,1,0,0:0:0:0:
109,192,331260,1,0,0:0:0:0:
329,192,331309,1,0,0:0:0:0:
475,192,331357,1,0,0:0:0:0:
402,192,331357,1,0,0:0:0:0:
182,192,331357,1,0,0:0:0:0:
36,192,331405,1,0,0:0:0:0:
256,192,331454,1,0,0:0:0:0:
109,192,331502,1,0,0:0:0:0:
329,192,331551,1,0,0:0:0:0:
182,192,331599,1,0,0:0:0:0:
402,192,331647,1,0,0:0:0:0:
256,192,331696,1,0,0:0:0:0:
475,192,331744,1,0,0:0:0:0:
36,192,331744,1,0,0:0:0:0:
109,192,331744,1,0,0:0:0:0:
329,192,331809,1,0,0:0:0:0:
256,192,331873,1,0,0:0:0:0:
182,192,331873,1,0,0:0:0:0:
329,192,331938,1,0,0:0:0:0:
402,192,331938,1,0,0:0:0:0:
475,192,332002,1,0,0:0:0:0:
36,192,332034,1,0,0:0:0:0:
109,192,332034,1,0,0:0:0:0:
182,192,332083,1,0,0:0:0:0:
256,192,332083,1,0,0:0:0:0:
402,192,332131,1,0,0:0:0:0:
329,192,332131,1,0,0:0:0:0:
475,192,332131,1,0,0:0:0:0:
109,192,332196,1,0,0:0:0:0:
36,192,332196,1,0,0:0:0:0:
256,192,332260,1,0,0:0:0:0:
182,192,332260,1,0,0:0:0:0:
329,192,332325,1,0,0:0:0:0:
475,192,332325,1,0,0:0:0:0:
109,192,332373,1,0,0:0:0:0:
36,192,332373,1,0,0:0:0:0:
329,192,332422,1,0,0:0:0:0:
475,192,332422,1,0,0:0:0:0:
109,192,332470,1,0,0:0:0:0:
36,192,332470,1,0,0:0:0:0:
329,192,332518,1,0,0:0:0:0:
475,192,332518,1,0,0:0:0:0:
256,192,332583,1,0,0:0:0:0:
192,192,332647,1,0,0:0:0:0:
109,192,332905,1,0,0:0:0:0:
320,192,332905,1,0,0:0:0:0:
64,192,332905,1,0,0:0:0:0:
256,192,332970,1,0,0:0:0:0:
448,192,332970,1,0,0:0:0:0:
402,192,333034,1,0,0:0:0:0:
182,192,333034,1,0,0:0:0:0:
329,192,333099,1,0,0:0:0:0:
36,192,333099,1,0,0:0:0:0:
109,192,333099,1,0,0:0:0:0:
256,192,333163,1,0,0:0:0:0:
475,192,333163,1,0,0:0:0:0:
109,192,333228,1,0,0:0:0:0:
402,192,333292,1,0,0:0:0:0:
182,192,333292,1,0,0:0:0:0:
320,192,333292,1,0,0:0:0:0:
475,192,333357,1,0,0:0:0:0:
36,192,333357,1,0,0:0:0:0:
256,192,333422,1,0,0:0:0:0:
64,192,333680,1,0,0:0:0:0:
320,192,333680,1,0,0:0:0:0:
109,192,333680,1,0,0:0:0:0:
448,192,333744,1,0,0:0:0:0:
256,192,333744,1,0,0:0:0:0:
182,192,333809,1,0,0:0:0:0:
402,192,333809,1,0,0:0:0:0:
36,192,333873,1,0,0:0:0:0:
329,192,333873,1,0,0:0:0:0:
109,192,333873,1,0,0:0:0:0:
256,192,333938,1,0,0:0:0:0:
475,192,333938,1,0,0:0:0:0:
109,192,334002,1,0,0:0:0:0:
182,192,334067,1,0,0:0:0:0:
402,192,334067,1,0,0:0:0:0:
320,192,334067,1,0,0:0:0:0:
36,192,334131,1,0,0:0:0:0:
475,192,334131,1,0,0:0:0:0:
109,192,334196,1,0,0:0:0:0:
109,192,334454,1,0,0:0:0:0:
320,192,334454,1,0,0:0:0:0:
64,192,334454,1,0,0:0:0:0:
256,192,334518,1,0,0:0:0:0:
448,192,334518,1,0,0:0:0:0:
402,192,334583,1,0,0:0:0:0:
182,192,334583,1,0,0:0:0:0:
109,192,334647,1,0,0:0:0:0:
329,192,334647,1,0,0:0:0:0:
36,192,334647,1,0,0:0:0:0:
475,192,334712,1,0,0:0:0:0:
256,192,334712,1,0,0:0:0:0:
109,192,334776,1,0,0:0:0:0:
320,192,334841,1,0,0:0:0:0:
402,192,334841,1,0,0:0:0:0:
182,192,334841,1,0,0:0:0:0:
475,192,334905,1,0,0:0:0:0:
36,192,334905,1,0,0:0:0:0:
109,192,334970,1,0,0:0:0:0:
256,192,334970,1,0,0:0:0:0:
192,192,335034,1,0,0:0:0:0:
320,192,335067,1,0,0:0:0:0:
448,192,335099,1,0,0:0:0:0:
64,192,335131,1,0,0:0:0:0:
192,192,335163,1,0,0:0:0:0:
320,192,335196,1,0,0:0:0:0:
182,192,335422,1,0,0:0:0:0:
256,192,335422,1,0,0:0:0:0:
64,192,335422,1,0,0:0:0:0:
320,192,335422,1,0,0:0:0:0:
402,192,335486,1,0,0:0:0:0:
109,192,335551,1,0,0:0:0:0:
182,192,335615,1,0,0:0:0:0:
475,192,335615,1,0,0:0:0:0:
329,192,335615,1,0,0:0:0:0:
256,192,335615,1,0,0:0:0:0:
36,192,335680,1,0,0:0:0:0:
109,192,335744,1,0,0:0:0:0:
402,192,335809,1,0,0:0:0:0:
475,192,335809,1,0,0:0:0:0:
320,192,335809,1,0,0:0:0:0:
256,192,335809,1,0,0:0:0:0:
182,192,335873,1,0,0:0:0:0:
109,192,335938,1,0,0:0:0:0:
256,192,336002,1,0,0:0:0:0:
475,192,336002,1,0,0:0:0:0:
64,192,336002,1,0,0:0:0:0:
329,192,336002,1,0,0:0:0:0:
402,192,336067,1,0,0:0:0:0:
182,192,336131,1,0,0:0:0:0:
329,192,336196,1,0,0:0:0:0:
109,192,336196,1,0,0:0:0:0:
64,192,336196,1,0,0:0:0:0:
256,192,336196,1,0,0:0:0:0:
402,192,336260,1,0,0:0:0:0:
192,192,336325,1,0,0:0:0:0:
475,192,336389,1,0,0:0:0:0:
109,192,336389,1,0,0:0:0:0:
64,192,336389,1,0,0:0:0:0:
320,192,336389,1,0,0:0:0:0:
256,192,336454,1,0,0:0:0:0:
182,192,336518,1,0,0:0:0:0:
402,192,336583,1,0,0:0:0:0:
475,192,336583,1,0,0:0:0:0:
64,192,336583,1,0,0:0:0:0:
320,192,336583,1,0,0:0:0:0:
109,192,336647,1,0,0:0:0:0:
182,192,336712,1,0,0:0:0:0:
402,192,336776,1,0,0:0:0:0:
475,192,336776,1,0,0:0:0:0:
320,192,336776,1,0,0:0:0:0:
256,192,336776,1,0,0:0:0:0:
109,192,336841,1,0,0:0:0:0:
64,192,336905,1,0,0:0:0:0:
448,192,336970,1,0,0:0:0:0:
256,192,336970,1,0,0:0:0:0:
192,192,336970,1,0,0:0:0:0:
320,192,336970,1,0,0:0:0:0:
402,192,337163,1,0,0:0:0:0:
448,192,337163,1,0,0:0:0:0:
64,192,337163,1,0,0:0:0:0:
192,192,337357,1,0,0:0:0:0:
256,192,337551,1,0,0:0:0:0:
448,192,337551,1,0,0:0:0:0:
64,192,337551,1,0,0:0:0:0:
320,192,337744,1,0,0:0:0:0:
329,192,337938,1,0,0:0:0:0:
448,192,337938,1,0,0:0:0:0:
64,192,337938,1,0,0:0:0:0:
256,192,338131,1,0,0:0:0:0:
192,192,338131,1,0,0:0:0:0:
402,192,338325,1,0,0:0:0:0:
256,192,338325,1,0,0:0:0:0:
64,192,338325,1,0,0:0:0:0:
448,192,338325,1,0,0:0:0:0:
192,192,338389,1,0,0:0:0:0:
320,192,338454,1,0,0:0:0:0:
256,192,338518,1,0,0:0:0:0:
109,192,338518,1,0,0:0:0:0:
64,192,338518,1,0,0:0:0:0:
448,192,338518,1,0,0:0:0:0:
192,192,338583,1,0,0:0:0:0:
448,192,338647,1,0,0:0:0:0:
256,192,338712,1,0,0:0:0:0:
109,192,338712,1,0,0:0:0:0:
320,192,338712,1,0,0:0:0:0:
402,192,338712,1,0,0:0:0:0:
64,192,338776,1,0,0:0:0:0:
182,192,338841,1,0,0:0:0:0:
448,192,338841,1,0,0:0:0:0:
109,192,338905,1,0,0:0:0:0:
402,192,338905,1,0,0:0:0:0:
320,192,338905,1,0,0:0:0:0:
256,192,338905,1,0,0:0:0:0:
36,192,338970,1,0,0:0:0:0:
475,192,339034,1,0,0:0:0:0:
182,192,339099,1,0,0:0:0:0:
109,192,339099,1,0,0:0:0:0:
402,192,339099,1,0,0:0:0:0:
329,192,339099,1,0,0:0:0:0:
64,192,339163,1,0,0:0:0:0:
256,192,339228,1,0,0:0:0:0:
182,192,339292,1,0,0:0:0:0:
402,192,339292,1,0,0:0:0:0:
320,192,339292,1,0,0:0:0:0:
448,192,339292,1,0,0:0:0:0:
109,192,339357,1,0,0:0:0:0:
36,192,339422,1,0,0:0:0:0:
329,192,339486,1,0,0:0:0:0:
402,192,339486,1,0,0:0:0:0:
192,192,339486,1,0,0:0:0:0:
256,192,339486,1,0,0:0:0:0:
475,192,339551,1,0,0:0:0:0:
36,192,339615,1,0,0:0:0:0:
256,192,339680,1,0,0:0:0:0:
329,192,339680,1,0,0:0:0:0:
192,192,339680,1,0,0:0:0:0:
109,192,339680,1,0,0:0:0:0:
402,192,339744,1,0,0:0:0:0:
448,192,339809,1,0,0:0:0:0:
256,192,339873,1,0,0:0:0:0:
36,192,339873,1,0,0:0:0:0:
192,192,339873,1,0,0:0:0:0:
320,192,339873,1,0,0:0:0:0:
109,192,339938,1,0,0:0:0:0:
475,192,340002,1,0,0:0:0:0:
256,192,340067,1,0,0:0:0:0:
182,192,340067,1,0,0:0:0:0:
320,192,340067,1,0,0:0:0:0:
402,192,340067,1,0,0:0:0:0:
109,192,340260,1,0,0:0:0:0:
402,192,340260,1,0,0:0:0:0:
64,192,340260,1,0,0:0:0:0:
448,192,340260,1,0,0:0:0:0:
192,192,340615,1,0,0:0:0:0:
256,192,340647,1,0,0:0:0:0:
448,192,340647,1,0,0:0:0:0:
64,192,340647,1,0,0:0:0:0:
402,192,340841,1,0,0:0:0:0:
320,192,340841,1,0,0:0:0:0:
192,192,340841,1,0,0:0:0:0:
192,192,340938,1,0,0:0:0:0:
256,192,341034,1,0,0:0:0:0:
448,192,341034,1,0,0:0:0:0:
64,192,341034,1,0,0:0:0:0:
192,192,341228,1,0,0:0:0:0:
64,192,341228,1,0,0:0:0:0:
320,192,341260,1,0,0:0:0:0:
448,192,341292,1,0,0:0:0:0:
109,192,341325,1,0,0:0:0:0:
256,192,341357,1,0,0:0:0:0:
402,192,341389,1,0,0:0:0:0:
256,192,341615,1,0,0:0:0:0:
109,192,341615,1,0,0:0:0:0:
64,192,341615,1,0,0:0:0:0:
192,192,341615,1,0,0:0:0:0:
320,192,341680,1,0,0:0:0:0:
402,192,341744,1,0,0:0:0:0:
256,192,341809,1,0,0:0:0:0:
109,192,341809,1,0,0:0:0:0:
192,192,341809,1,0,0:0:0:0:
448,192,341809,1,0,0:0:0:0:
36,192,341873,1,0,0:0:0:0:
329,192,341938,1,0,0:0:0:0:
256,192,342002,1,0,0:0:0:0:
402,192,342002,1,0,0:0:0:0:
192,192,342002,1,0,0:0:0:0:
448,192,342002,1,0,0:0:0:0:
36,192,342067,1,0,0:0:0:0:
109,192,342131,1,0,0:0:0:0:
402,192,342196,1,0,0:0:0:0:
475,192,342196,1,0,0:0:0:0:
256,192,342196,1,0,0:0:0:0:
329,192,342196,1,0,0:0:0:0:
182,192,342260,1,0,0:0:0:0:
109,192,342325,1,0,0:0:0:0:
402,192,342389,1,0,0:0:0:0:
475,192,342389,1,0,0:0:0:0:
64,192,342389,1,0,0:0:0:0:
329,192,342389,1,0,0:0:0:0:
182,192,342454,1,0,0:0:0:0:
256,192,342518,1,0,0:0:0:0:
109,192,342583,1,0,0:0:0:0:
402,192,342583,1,0,0:0:0:0:
64,192,342583,1,0,0:0:0:0:
320,192,342583,1,0,0:0:0:0:
475,192,342647,1,0,0:0:0:0:
182,192,342712,1,0,0:0:0:0:
402,192,342776,1,0,0:0:0:0:
109,192,342776,1,0,0:0:0:0:
256,192,342776,1,0,0:0:0:0:
329,192,342776,1,0,0:0:0:0:
36,192,342841,1,0,0:0:0:0:
475,192,342905,1,0,0:0:0:0:
329,192,342970,1,0,0:0:0:0:
109,192,342970,1,0,0:0:0:0:
192,192,342970,1,0,0:0:0:0:
402,192,342970,1,0,0:0:0:0:
36,192,343034,1,0,0:0:0:0:
256,192,343099,1,0,0:0:0:0:
402,192,343163,1,0,0:0:0:0:
475,192,343163,1,0,0:0:0:0:
192,192,343163,1,0,0:0:0:0:
320,192,343163,1,0,0:0:0:0:
448,192,343357,1,0,0:0:0:0:
256,192,343357,1,0,0:0:0:0:
64,192,343357,1,0,0:0:0:0:
320,192,343357,1,0,0:0:0:0:
192,192,343551,1,0,0:0:0:0:
448,192,343744,1,0,0:0:0:0:
402,192,343744,1,0,0:0:0:0:
64,192,343744,1,0,0:0:0:0:
320,192,343744,1,0,0:0:0:0:
192,192,343938,1,0,0:0:0:0:
402,192,344131,1,0,0:0:0:0:
256,192,344131,1,0,0:0:0:0:
64,192,344131,1,0,0:0:0:0:
448,192,344131,1,0,0:0:0:0:
109,192,344228,1,0,0:0:0:0:
109,192,344325,1,0,0:0:0:0:
320,192,344518,1,0,0:0:0:0:
256,192,344518,1,0,0:0:0:0:
64,192,344518,1,0,0:0:0:0:
192,192,344518,1,0,0:0:0:0:
402,192,344583,1,0,0:0:0:0:
109,192,344647,1,0,0:0:0:0:
256,192,344712,1,0,0:0:0:0:
36,192,344712,1,0,0:0:0:0:
320,192,344712,1,0,0:0:0:0:
448,192,344712,1,0,0:0:0:0:
182,192,344776,1,0,0:0:0:0:
402,192,344841,1,0,0:0:0:0:
36,192,344905,1,0,0:0:0:0:
475,192,344905,1,0,0:0:0:0:
320,192,344905,1,0,0:0:0:0:
109,192,344905,1,0,0:0:0:0:
182,192,344970,1,0,0:0:0:0:
256,192,345034,1,0,0:0:0:0:
109,192,345099,1,0,0:0:0:0:
36,192,345099,1,0,0:0:0:0:
320,192,345099,1,0,0:0:0:0:
402,192,345099,1,0,0:0:0:0:
448,192,345163,1,0,0:0:0:0:
182,192,345228,1,0,0:0:0:0:
256,192,345292,1,0,0:0:0:0:
402,192,345292,1,0,0:0:0:0:
320,192,345292,1,0,0:0:0:0:
109,192,345292,1,0,0:0:0:0:
36,192,345357,1,0,0:0:0:0:
475,192,345422,1,0,0:0:0:0:
182,192,345486,1,0,0:0:0:0:
402,192,345486,1,0,0:0:0:0:
320,192,345486,1,0,0:0:0:0:
109,192,345486,1,0,0:0:0:0:
64,192,345551,1,0,0:0:0:0:
256,192,345615,1,0,0:0:0:0:
329,192,345680,1,0,0:0:0:0:
402,192,345680,1,0,0:0:0:0:
192,192,345680,1,0,0:0:0:0:
448,192,345680,1,0,0:0:0:0:
109,192,345744,1,0,0:0:0:0:
256,192,345809,1,0,0:0:0:0:
329,192,345873,1,0,0:0:0:0:
36,192,345873,1,0,0:0:0:0:
192,192,345873,1,0,0:0:0:0:
448,192,345873,1,0,0:0:0:0:
109,192,345938,1,0,0:0:0:0:
402,192,346002,1,0,0:0:0:0:
36,192,346067,1,0,0:0:0:0:
182,192,346067,1,0,0:0:0:0:
320,192,346067,1,0,0:0:0:0:
256,192,346067,1,0,0:0:0:0:
475,192,346131,1,0,0:0:0:0:
402,192,346196,1,0,0:0:0:0:
109,192,346260,1,0,0:0:0:0:
36,192,346260,1,0,0:0:0:0:
192,192,346260,1,0,0:0:0:0:
320,192,346260,1,0,0:0:0:0:
448,192,346454,1,0,0:0:0:0:
402,192,346454,1,0,0:0:0:0:
192,192,346454,1,0,0:0:0:0:
320,192,346454,1,0,0:0:0:0:
329,192,346647,1,0,0:0:0:0:
402,192,346647,1,0,0:0:0:0:
109,192,346647,1,0,0:0:0:0:
182,192,346647,1,0,0:0:0:0:
256,192,346841,1,0,0:0:0:0:
109,192,346841,1,0,0:0:0:0:
64,192,346841,1,0,0:0:0:0:
320,192,346841,1,0,0:0:0:0:
402,192,347034,1,0,0:0:0:0:
182,192,347034,1,0,0:0:0:0:
320,192,347034,1,0,0:0:0:0:
448,192,347034,1,0,0:0:0:0:
402,192,347131,1,0,0:0:0:0:
448,192,347131,1,0,0:0:0:0:
320,192,347131,1,0,0:0:0:0:
402,192,347228,1,0,0:0:0:0:
109,192,347228,1,0,0:0:0:0:
448,192,347228,1,0,0:0:0:0:
64,192,347228,1,0,0:0:0:0:
320,192,347228,1,0,0:0:0:0:
109,192,347422,1,0,0:0:0:0:
402,192,347422,1,0,0:0:0:0:
182,192,347422,1,0,0:0:0:0:
329,192,347422,1,0,0:0:0:0:
448,192,347615,1,0,0:0:0:0:
256,192,347615,1,0,0:0:0:0:
320,192,347615,1,0,0:0:0:0:
64,192,347615,1,0,0:0:0:0:
192,192,347615,1,0,0:0:0:0:
109,192,347809,1,0,0:0:0:0:
64,192,347809,1,0,0:0:0:0:
402,192,347809,1,0,0:0:0:0:
475,192,347809,1,0,0:0:0:0:
329,192,347857,1,0,0:0:0:0:
256,192,347857,1,0,0:0:0:0:
182,192,347857,1,0,0:0:0:0:
109,192,347905,1,0,0:0:0:0:
64,192,347905,1,0,0:0:0:0:
402,192,347905,1,0,0:0:0:0:
475,192,347905,1,0,0:0:0:0:
182,192,347954,1,0,0:0:0:0:
256,192,347954,1,0,0:0:0:0:
329,192,347954,1,0,0:0:0:0:
109,192,348002,1,0,0:0:0:0:
64,192,348002,1,0,0:0:0:0:
402,192,348002,1,0,0:0:0:0:
475,192,348002,1,0,0:0:0:0:
36,192,369569,5,0,0:0:0:0:
402,192,369569,1,0,0:0:0:0:
475,192,369569,1,0,0:0:0:0:
256,192,369569,1,0,0:0:0:0:
109,192,369569,1,0,0:0:0:0:
182,192,369722,1,0,0:0:0:0:
329,192,369722,1,0,0:0:0:0:
402,192,369799,1,0,0:0:0:0:
109,192,369876,1,0,0:0:0:0:
36,192,369876,1,0,0:0:0:0:
256,192,369876,1,0,0:0:0:0:
182,192,369953,1,0,0:0:0:0:
475,192,370030,1,0,0:0:0:0:
402,192,370030,1,0,0:0:0:0:
256,192,370030,1,0,0:0:0:0:
329,192,370184,1,0,0:0:0:0:
475,192,370184,1,0,0:0:0:0:
36,192,370184,1,0,0:0:0:0:
109,192,370184,1,0,0:0:0:0:
256,192,370338,1,0,0:0:0:0:
182,192,370338,1,0,0:0:0:0:
402,192,370415,1,0,0:0:0:0:
329,192,370492,1,0,0:0:0:0:
36,192,370492,1,0,0:0:0:0:
109,192,370492,1,0,0:0:0:0:
256,192,370569,1,0,0:0:0:0:
182,192,370645,1,0,0:0:0:0:
475,192,370645,1,0,0:0:0:0:
402,192,370645,1,0,0:0:0:0:
329,192,370799,1,0,0:0:0:0:
475,192,370799,1,0,0:0:0:0:
109,192,370799,1,0,0:0:0:0:
36,192,370799,1,0,0:0:0:0:
256,192,370953,1,0,0:0:0:0:
182,192,370953,1,0,0:0:0:0:
402,192,371030,1,0,0:0:0:0:
36,192,371107,1,0,0:0:0:0:
109,192,371107,1,0,0:0:0:0:
329,192,371107,1,0,0:0:0:0:
256,192,371184,1,0,0:0:0:0:
475,192,371261,1,0,0:0:0:0:
402,192,371261,1,0,0:0:0:0:
182,192,371261,1,0,0:0:0:0:
329,192,371415,1,0,0:0:0:0:
475,192,371415,1,0,0:0:0:0:
109,192,371415,1,0,0:0:0:0:
36,192,371415,1,0,0:0:0:0:
256,192,371569,1,0,0:0:0:0:
182,192,371569,1,0,0:0:0:0:
402,192,371645,1,0,0:0:0:0:
36,192,371722,1,0,0:0:0:0:
475,192,371722,1,0,0:0:0:0:
329,192,371722,1,0,0:0:0:0:
109,192,371799,1,0,0:0:0:0:
256,192,371876,1,0,0:0:0:0:
402,192,371876,1,0,0:0:0:0:
182,192,371876,1,0,0:0:0:0:
256,192,372030,1,0,0:0:0:0:
475,192,372030,1,0,0:0:0:0:
36,192,372030,1,0,0:0:0:0:
109,192,372030,1,0,0:0:0:0:
329,192,372184,1,0,0:0:0:0:
182,192,372184,1,0,0:0:0:0:
402,192,372261,1,0,0:0:0:0:
36,192,372338,1,0,0:0:0:0:
329,192,372338,1,0,0:0:0:0:
256,192,372338,1,0,0:0:0:0:
109,192,372415,1,0,0:0:0:0:
475,192,372492,1,0,0:0:0:0:
402,192,372492,1,0,0:0:0:0:
182,192,372492,1,0,0:0:0:0:
329,192,372645,1,0,0:0:0:0:
256,192,372645,1,0,0:0:0:0:
36,192,372645,1,0,0:0:0:0:
109,192,372645,1,0,0:0:0:0:
329,192,372799,1,0,0:0:0:0:
182,192,372799,1,0,0:0:0:0:
402,192,372876,1,0,0:0:0:0:
475,192,372953,1,0,0:0:0:0:
36,192,372953,1,0,0:0:0:0:
256,192,372953,1,0,0:0:0:0:
109,192,373030,1,0,0:0:0:0:
402,192,373107,1,0,0:0:0:0:
329,192,373107,1,0,0:0:0:0:
182,192,373107,1,0,0:0:0:0:
109,192,373261,1,0,0:0:0:0:
475,192,373261,1,0,0:0:0:0:
256,192,373261,1,0,0:0:0:0:
36,192,373261,1,0,0:0:0:0:
329,192,373338,1,0,0:0:0:0:
402,192,373415,1,0,0:0:0:0:
182,192,373415,1,0,0:0:0:0:
109,192,373492,1,0,0:0:0:0:
475,192,373569,1,0,0:0:0:0:
36,192,373569,1,0,0:0:0:0:
256,192,373569,1,0,0:0:0:0:
329,192,373569,1,0,0:0:0:0:
109,192,373645,1,0,0:0:0:0:
402,192,373722,1,0,0:0:0:0:
182,192,373722,1,0,0:0:0:0:
329,192,373799,1,0,0:0:0:0:
109,192,373876,1,0,0:0:0:0:
475,192,373876,1,0,0:0:0:0:
256,192,373876,1,0,0:0:0:0:
36,192,373876,1,0,0:0:0:0:
329,192,373953,1,0,0:0:0:0:
182,192,374030,1,0,0:0:0:0:
402,192,374030,1,0,0:0:0:0:
109,192,374107,1,0,0:0:0:0:
329,192,374184,1,0,0:0:0:0:
475,192,374184,1,0,0:0:0:0:
36,192,374184,1,0,0:0:0:0:
256,192,374184,1,0,0:0:0:0:
182,192,374261,1,0,0:0:0:0:
329,192,374338,1,0,0:0:0:0:
402,192,374338,1,0,0:0:0:0:
109,192,374338,1,0,0:0:0:0:
256,192,374492,1,0,0:0:0:0:
475,192,374492,1,0,0:0:0:0:
36,192,374492,1,0,0:0:0:0:
182,192,374492,1,0,0:0:0:0:
402,192,374645,1,0,0:0:0:0:
329,192,374645,1,0,0:0:0:0:
109,192,374722,1,0,0:0:0:0:
36,192,374799,1,0,0:0:0:0:
182,192,374799,1,0,0:0:0:0:
256,192,374799,1,0,0:0:0:0:
329,192,374876,1,0,0:0:0:0:
109,192,374953,1,0,0:0:0:0:
475,192,374953,1,0,0:0:0:0:
402,192,374953,1,0,0:0:0:0:
256,192,375107,1,0,0:0:0:0:
329,192,375107,1,0,0:0:0:0:
182,192,375107,1,0,0:0:0:0:
36,192,375107,1,0,0:0:0:0:
402,192,375261,1,0,0:0:0:0:
109,192,375261,1,0,0:0:0:0:
329,192,375338,1,0,0:0:0:0:
475,192,375415,1,0,0:0:0:0:
182,192,375415,1,0,0:0:0:0:
256,192,375415,1,0,0:0:0:0:
402,192,375492,1,0,0:0:0:0:
36,192,375569,1,0,0:0:0:0:
109,192,375569,1,0,0:0:0:0:
329,192,375569,1,0,0:0:0:0:
402,192,375722,1,0,0:0:0:0:
475,192,375722,1,0,0:0:0:0:
182,192,375722,1,0,0:0:0:0:
256,192,375722,1,0,0:0:0:0:
329,192,375876,1,0,0:0:0:0:
109,192,375876,1,0,0:0:0:0:
256,192,375953,1,0,0:0:0:0:
475,192,376030,1,0,0:0:0:0:
36,192,376030,1,0,0:0:0:0:
182,192,376030,1,0,0:0:0:0:
329,192,376107,1,0,0:0:0:0:
109,192,376184,1,0,0:0:0:0:
256,192,376184,1,0,0:0:0:0:
402,192,376184,1,0,0:0:0:0:
329,192,376338,1,0,0:0:0:0:
475,192,376338,1,0,0:0:0:0:
182,192,376338,1,0,0:0:0:0:
36,192,376338,1,0,0:0:0:0:
256,192,376492,1,0,0:0:0:0:
109,192,376492,1,0,0:0:0:0:
402,192,376569,1,0,0:0:0:0:
36,192,376645,1,0,0:0:0:0:
182,192,376645,1,0,0:0:0:0:
329,192,376645,1,0,0:0:0:0:
475,192,376722,1,0,0:0:0:0:
109,192,376799,1,0,0:0:0:0:
256,192,376799,1,0,0:0:0:0:
402,192,376799,1,0,0:0:0:0:
475,192,376953,1,0,0:0:0:0:
402,192,376953,1,0,0:0:0:0:
36,192,376953,1,0,0:0:0:0:
182,192,376953,1,0,0:0:0:0:
329,192,377030,1,0,0:0:0:0:
109,192,377107,1,0,0:0:0:0:
256,192,377107,1,0,0:0:0:0:
329,192,377184,1,0,0:0:0:0:
36,192,377261,1,0,0:0:0:0:
475,192,377261,1,0,0:0:0:0:
402,192,377261,1,0,0:0:0:0:
182,192,377261,1,0,0:0:0:0:
256,192,377338,1,0,0:0:0:0:
109,192,377415,1,0,0:0:0:0:
329,192,377415,1,0,0:0:0:0:
182,192,377492,1,0,0:0:0:0:
475,192,377569,1,0,0:0:0:0:
36,192,377569,1,0,0:0:0:0:
256,192,377569,1,0,0:0:0:0:
402,192,377569,1,0,0:0:0:0:
109,192,377645,1,0,0:0:0:0:
329,192,377722,1,0,0:0:0:0:
182,192,377722,1,0,0:0:0:0:
402,192,377799,1,0,0:0:0:0:
109,192,377876,1,0,0:0:0:0:
36,192,377876,1,0,0:0:0:0:
475,192,377876,1,0,0:0:0:0:
256,192,377876,1,0,0:0:0:0:
402,192,377953,1,0,0:0:0:0:
182,192,378030,1,0,0:0:0:0:
329,192,378030,1,0,0:0:0:0:
109,192,378107,1,0,0:0:0:0:
402,192,378184,1,0,0:0:0:0:
475,192,378184,1,0,0:0:0:0:
36,192,378184,1,0,0:0:0:0:
256,192,378184,1,0,0:0:0:0:
329,192,378338,1,0,0:0:0:0:
182,192,378338,1,0,0:0:0:0:
109,192,378415,1,0,0:0:0:0:
475,192,378492,1,0,0:0:0:0:
402,192,378492,1,0,0:0:0:0:
256,192,378492,1,0,0:0:0:0:
182,192,378569,1,0,0:0:0:0:
329,192,378645,1,0,0:0:0:0:
109,192,378645,1,0,0:0:0:0:
36,192,378645,1,0,0:0:0:0:
402,192,378799,1,0,0:0:0:0:
475,192,378799,1,0,0:0:0:0:
256,192,378799,1,0,0:0:0:0:
182,192,378799,1,0,0:0:0:0:
109,192,378953,1,0,0:0:0:0:
36,192,378953,1,0,0:0:0:0:
256,192,379030,1,0,0:0:0:0:
36,192,379107,1,0,0:0:0:0:
475,192,379107,1,0,0:0:0:0:
329,192,379107,1,0,0:0:0:0:
109,192,379184,1,0,0:0:0:0:
402,192,379261,1,0,0:0:0:0:
256,192,379261,1,0,0:0:0:0:
182,192,379261,1,0,0:0:0:0:
329,192,379415,1,0,0:0:0:0:
475,192,379415,1,0,0:0:0:0:
109,192,379415,1,0,0:0:0:0:
36,192,379415,1,0,0:0:0:0:
182,192,379569,1,0,0:0:0:0:
402,192,379569,1,0,0:0:0:0:
256,192,379569,1,0,0:0:0:0:
109,192,379645,1,0,0:0:0:0:
182,192,379722,1,0,0:0:0:0:
329,192,379722,1,0,0:0:0:0:
36,192,379722,1,0,0:0:0:0:
475,192,379799,1,0,0:0:0:0:
109,192,379876,1,0,0:0:0:0:
256,192,379876,1,0,0:0:0:0:
402,192,379876,1,0,0:0:0:0:
475,192,380030,1,0,0:0:0:0:
182,192,380030,1,0,0:0:0:0:
36,192,380030,1,0,0:0:0:0:
329,192,380030,1,0,0:0:0:0:
182,192,380184,1,0,0:0:0:0:
402,192,380184,1,0,0:0:0:0:
256,192,380184,1,0,0:0:0:0:
109,192,380261,1,0,0:0:0:0:
475,192,380338,1,0,0:0:0:0:
329,192,380338,1,0,0:0:0:0:
36,192,380338,1,0,0:0:0:0:
256,192,380415,1,0,0:0:0:0:
402,192,380492,1,0,0:0:0:0:
109,192,380492,1,0,0:0:0:0:
182,192,380492,1,0,0:0:0:0:
329,192,380645,1,0,0:0:0:0:
475,192,380645,1,0,0:0:0:0:
36,192,380645,1,0,0:0:0:0:
256,192,380645,1,0,0:0:0:0:
329,192,380799,1,0,0:0:0:0:
182,192,380799,1,0,0:0:0:0:
109,192,380799,1,0,0:0:0:0:
402,192,380876,1,0,0:0:0:0:
36,192,380953,1,0,0:0:0:0:
256,192,380953,1,0,0:0:0:0:
475,192,380953,1,0,0:0:0:0:
109,192,381030,1,0,0:0:0:0:
402,192,381107,1,0,0:0:0:0:
329,192,381107,1,0,0:0:0:0:
182,192,381107,1,0,0:0:0:0:
256,192,381261,1,0,0:0:0:0:
475,192,381261,1,0,0:0:0:0:
109,192,381261,1,0,0:0:0:0:
36,192,381261,1,0,0:0:0:0:
329,192,381415,1,0,0:0:0:0:
182,192,381415,1,0,0:0:0:0:
402,192,381415,1,0,0:0:0:0:
256,192,381492,1,0,0:0:0:0:
329,192,381569,1,0,0:0:0:0:
36,192,381569,1,0,0:0:0:0:
109,192,381569,1,0,0:0:0:0:
182,192,381645,1,0,0:0:0:0:
475,192,381722,1,0,0:0:0:0:
402,192,381722,1,0,0:0:0:0:
256,192,381722,1,0,0:0:0:0:
109,192,381799,1,0,0:0:0:0:
36,192,381876,1,0,0:0:0:0:
475,192,381876,1,0,0:0:0:0:
182,192,381876,1,0,0:0:0:0:
329,192,381876,1,0,0:0:0:0:
109,192,382030,1,0,0:0:0:0:
402,192,382030,1,0,0:0:0:0:
256,192,382030,1,0,0:0:0:0:
36,192,382107,1,0,0:0:0:0:
475,192,382184,1,0,0:0:0:0:
329,192,382184,1,0,0:0:0:0:
182,192,382184,1,0,0:0:0:0:
109,192,382261,1,0,0:0:0:0:
402,192,382338,1,0,0:0:0:0:
256,192,382338,1,0,0:0:0:0:
36,192,382338,1,0,0:0:0:0:
475,192,382492,1,0,0:0:0:0:
182,192,382492,1,0,0:0:0:0:
109,192,382492,1,0,0:0:0:0:
329,192,382492,1,0,0:0:0:0:
182,192,382645,1,0,0:0:0:0:
402,192,382645,1,0,0:0:0:0:
256,192,382645,1,0,0:0:0:0:
109,192,382722,1,0,0:0:0:0:
475,192,382799,1,0,0:0:0:0:
329,192,382799,1,0,0:0:0:0:
36,192,382799,1,0,0:0:0:0:
109,192,382876,1,0,0:0:0:0:
256,192,382953,1,0,0:0:0:0:
402,192,382953,1,0,0:0:0:0:
182,192,382953,1,0,0:0:0:0:
329,192,383107,1,0,0:0:0:0:
475,192,383107,1,0,0:0:0:0:
36,192,383107,1,0,0:0:0:0:
109,192,383107,1,0,0:0:0:0:
182,192,383261,1,0,0:0:0:0:
402,192,383261,1,0,0:0:0:0:
256,192,383261,1,0,0:0:0:0:
109,192,383338,1,0,0:0:0:0:
475,192,383415,1,0,0:0:0:0:
329,192,383415,1,0,0:0:0:0:
182,192,383415,1,0,0:0:0:0:
256,192,383492,1,0,0:0:0:0:
402,192,383569,1,0,0:0:0:0:
109,192,383569,1,0,0:0:0:0:
36,192,383569,1,0,0:0:0:0:
182,192,383722,1,0,0:0:0:0:
329,192,383722,1,0,0:0:0:0:
36,192,383722,1,0,0:0:0:0:
109,192,383722,1,0,0:0:0:0:
475,192,383876,1,0,0:0:0:0:
402,192,383876,1,0,0:0:0:0:
256,192,383876,1,0,0:0:0:0:
109,192,383953,1,0,0:0:0:0:
402,192,384030,1,0,0:0:0:0:
329,192,384030,1,0,0:0:0:0:
182,192,384030,1,0,0:0:0:0:
109,192,384107,1,0,0:0:0:0:
36,192,384184,1,0,0:0:0:0:
475,192,384184,1,0,0:0:0:0:
256,192,384184,1,0,0:0:0:0:
182,192,384261,1,0,0:0:0:0:
402,192,384338,1,0,0:0:0:0:
329,192,384338,1,0,0:0:0:0:
109,192,384338,1,0,0:0:0:0:
36,192,384338,1,0,0:0:0:0:
256,192,384415,1,0,0:0:0:0:
402,192,384492,1,0,0:0:0:0:
329,192,384492,1,0,0:0:0:0:
182,192,384492,1,0,0:0:0:0:
36,192,384569,1,0,0:0:0:0:
329,192,384645,1,0,0:0:0:0:
475,192,384645,1,0,0:0:0:0:
109,192,384645,1,0,0:0:0:0:
256,192,384645,1,0,0:0:0:0:
182,192,384722,1,0,0:0:0:0:
36,192,384799,1,0,0:0:0:0:
256,192,384799,1,0,0:0:0:0:
402,192,384799,1,0,0:0:0:0:
109,192,384876,1,0,0:0:0:0:
475,192,384953,1,0,0:0:0:0:
402,192,384953,1,0,0:0:0:0:
182,192,384953,1,0,0:0:0:0:
329,192,384953,1,0,0:0:0:0:
109,192,385030,1,0,0:0:0:0:
329,192,385107,1,0,0:0:0:0:
256,192,385107,1,0,0:0:0:0:
36,192,385107,1,0,0:0:0:0:
182,192,385184,1,0,0:0:0:0:
402,192,385261,1,0,0:0:0:0:
256,192,385261,1,0,0:0:0:0:
109,192,385261,1,0,0:0:0:0:
475,192,385338,1,0,0:0:0:0:
36,192,385415,1,0,0:0:0:0:
182,192,385415,1,0,0:0:0:0:
329,192,385415,1,0,0:0:0:0:
402,192,385492,1,0,0:0:0:0:
256,192,385569,1,0,0:0:0:0:
475,192,385569,1,0,0:0:0:0:
109,192,385569,1,0,0:0:0:0:
36,192,385569,1,0,0:0:0:0:
329,192,385645,1,0,0:0:0:0:
402,192,385722,1,0,0:0:0:0:
109,192,385722,1,0,0:0:0:0:
182,192,385722,1,0,0:0:0:0:
256,192,385799,1,0,0:0:0:0:
329,192,385876,1,0,0:0:0:0:
182,192,385876,1,0,0:0:0:0:
36,192,385876,1,0,0:0:0:0:
475,192,385953,1,0,0:0:0:0:
109,192,386030,1,0,0:0:0:0:
256,192,386030,1,0,0:0:0:0:
402,192,386030,1,0,0:0:0:0:
36,192,386107,1,0,0:0:0:0:
329,192,386184,1,0,0:0:0:0:
475,192,386184,1,0,0:0:0:0:
109,192,386184,1,0,0:0:0:0:
182,192,386184,1,0,0:0:0:0:
256,192,386261,1,0,0:0:0:0:
182,192,386338,1,0,0:0:0:0:
36,192,386338,1,0,0:0:0:0:
402,192,386338,1,0,0:0:0:0:
329,192,386415,1,0,0:0:0:0:
475,192,386492,1,0,0:0:0:0:
109,192,386492,1,0,0:0:0:0:
256,192,386492,1,0,0:0:0:0:
329,192,386569,1,0,0:0:0:0:
36,192,386645,1,0,0:0:0:0:
182,192,386645,1,0,0:0:0:0:
402,192,386645,1,0,0:0:0:0:
256,192,386722,1,0,0:0:0:0:
109,192,386799,1,0,0:0:0:0:
36,192,386799,1,0,0:0:0:0:
329,192,386799,1,0,0:0:0:0:
475,192,386799,1,0,0:0:0:0:
182,192,386876,1,0,0:0:0:0:
475,192,386953,1,0,0:0:0:0:
402,192,386953,1,0,0:0:0:0:
256,192,386953,1,0,0:0:0:0:
109,192,387030,1,0,0:0:0:0:
36,192,387107,1,0,0:0:0:0:
329,192,387107,1,0,0:0:0:0:
182,192,387107,1,0,0:0:0:0:
256,192,387184,1,0,0:0:0:0:
475,192,387261,1,0,0:0:0:0:
402,192,387261,1,0,0:0:0:0:
109,192,387261,1,0,0:0:0:0:
329,192,387338,1,0,0:0:0:0:
182,192,387415,1,0,0:0:0:0:
475,192,387415,1,0,0:0:0:0:
256,192,387415,1,0,0:0:0:0:
36,192,387415,1,0,0:0:0:0:
402,192,387492,1,0,0:0:0:0:
109,192,387569,1,0,0:0:0:0:
329,192,387569,1,0,0:0:0:0:
182,192,387645,1,0,0:0:0:0:
402,192,387722,1,0,0:0:0:0:
109,192,387722,1,0,0:0:0:0:
329,192,387799,1,0,0:0:0:0:
109,192,387876,1,0,0:0:0:0:
402,192,387876,1,0,0:0:0:0:
182,192,387953,1,0,0:0:0:0:
256,192,388030,1,0,0:0:0:0:
329,192,388184,1,0,0:0:0:0:
182,192,388261,1,0,0:0:0:0:
329,192,388338,1,0,0:0:0:0:
182,192,388415,1,0,0:0:0:0:
402,192,388492,1,0,0:0:0:0:
329,192,388569,1,0,0:0:0:0:
109,192,388645,1,0,0:0:0:0:
182,192,388722,1,0,0:0:0:0:
329,192,388799,1,0,0:0:0:0:
402,192,388876,1,0,0:0:0:0:
182,192,388953,1,0,0:0:0:0:
109,192,389030,1,0,0:0:0:0:
182,192,389107,1,0,0:0:0:0:
256,192,389184,1,0,0:0:0:0:
402,192,389261,1,0,0:0:0:0:
475,192,389261,1,0,0:0:0:0:
36,192,389261,1,0,0:0:0:0:
329,192,389261,1,0,0:0:0:0:
182,192,389338,1,0,0:0:0:0:
109,192,389338,1,0,0:0:0:0:
402,192,389415,1,0,0:0:0:0:
329,192,389415,1,0,0:0:0:0:
256,192,389415,1,0,0:0:0:0:
36,192,389492,1,0,0:0:0:0:
256,192,389569,1,0,0:0:0:0:
329,192,389569,1,0,0:0:0:0:
475,192,389569,1,0,0:0:0:0:
182,192,389645,1,0,0:0:0:0:
109,192,389645,1,0,0:0:0:0:
329,192,389722,1,0,0:0:0:0:
256,192,389722,1,0,0:0:0:0:
475,192,389799,1,0,0:0:0:0:
402,192,389799,1,0,0:0:0:0:
182,192,389876,1,0,0:0:0:0:
109,192,389876,1,0,0:0:0:0:
36,192,389876,1,0,0:0:0:0:
329,192,389953,1,0,0:0:0:0:
256,192,389953,1,0,0:0:0:0:
475,192,390030,1,0,0:0:0:0:
402,192,390030,1,0,0:0:0:0:
256,192,390107,1,0,0:0:0:0:
182,192,390107,1,0,0:0:0:0:
329,192,390184,1,0,0:0:0:0:
36,192,390184,1,0,0:0:0:0:
109,192,390184,1,0,0:0:0:0:
475,192,390261,1,0,0:0:0:0:
402,192,390261,1,0,0:0:0:0:
256,192,390338,1,0,0:0:0:0:
182,192,390338,1,0,0:0:0:0:
402,192,390415,1,0,0:0:0:0:
329,192,390415,1,0,0:0:0:0:
475,192,390492,1,0,0:0:0:0:
109,192,390492,1,0,0:0:0:0:
36,192,390492,1,0,0:0:0:0:
329,192,390569,1,0,0:0:0:0:
182,192,390569,1,0,0:0:0:0:
402,192,390645,1,0,0:0:0:0:
256,192,390645,1,0,0:0:0:0:
109,192,390722,1,0,0:0:0:0:
475,192,390799,1,0,0:0:0:0:
329,192,390799,1,0,0:0:0:0:
182,192,390799,1,0,0:0:0:0:
256,192,390876,1,0,0:0:0:0:
36,192,390876,1,0,0:0:0:0:
402,192,390953,1,0,0:0:0:0:
109,192,390953,1,0,0:0:0:0:
329,192,391030,1,0,0:0:0:0:
182,192,391030,1,0,0:0:0:0:
475,192,391107,1,0,0:0:0:0:
36,192,391107,1,0,0:0:0:0:
256,192,391107,1,0,0:0:0:0:
402,192,391184,1,0,0:0:0:0:
329,192,391184,1,0,0:0:0:0:
109,192,391261,1,0,0:0:0:0:
182,192,391261,1,0,0:0:0:0:
256,192,391338,1,0,0:0:0:0:
36,192,391338,1,0,0:0:0:0:
109,192,391415,1,0,0:0:0:0:
475,192,391415,1,0,0:0:0:0:
329,192,391415,1,0,0:0:0:0:
402,192,391492,1,0,0:0:0:0:
182,192,391492,1,0,0:0:0:0:
329,192,391569,1,0,0:0:0:0:
256,192,391569,1,0,0:0:0:0:
36,192,391645,1,0,0:0:0:0:
109,192,391645,1,0,0:0:0:0:
475,192,391722,1,0,0:0:0:0:
402,192,391722,1,0,0:0:0:0:
182,192,391722,1,0,0:0:0:0:
329,192,391799,1,0,0:0:0:0:
256,192,391799,1,0,0:0:0:0:
109,192,391876,1,0,0:0:0:0:
36,192,391876,1,0,0:0:0:0:
182,192,391953,1,0,0:0:0:0:
475,192,392030,1,0,0:0:0:0:
402,192,392030,1,0,0:0:0:0:
256,192,392030,1,0,0:0:0:0:
109,192,392107,1,0,0:0:0:0:
36,192,392107,1,0,0:0:0:0:
329,192,392184,1,0,0:0:0:0:
182,192,392184,1,0,0:0:0:0:
475,192,392261,1,0,0:0:0:0:
402,192,392261,1,0,0:0:0:0:
36,192,392338,1,0,0:0:0:0:
109,192,392338,1,0,0:0:0:0:
256,192,392338,1,0,0:0:0:0:
329,192,392415,1,0,0:0:0:0:
182,192,392415,1,0,0:0:0:0:
256,192,392492,1,0,0:0:0:0:
402,192,392492,1,0,0:0:0:0:
182,192,392569,1,0,0:0:0:0:
109,192,392569,1,0,0:0:0:0:
36,192,392645,1,0,0:0:0:0:
475,192,392645,1,0,0:0:0:0:
329,192,392645,1,0,0:0:0:0:
109,192,392722,1,0,0:0:0:0:
256,192,392722,1,0,0:0:0:0:
402,192,392799,1,0,0:0:0:0:
182,192,392799,1,0,0:0:0:0:
256,192,392876,1,0,0:0:0:0:
329,192,392876,1,0,0:0:0:0:
475,192,392953,1,0,0:0:0:0:
36,192,392953,1,0,0:0:0:0:
109,192,392953,1,0,0:0:0:0:
329,192,393030,1,0,0:0:0:0:
402,192,393030,1,0,0:0:0:0:
182,192,393107,1,0,0:0:0:0:
256,192,393107,1,0,0:0:0:0:
109,192,393184,1,0,0:0:0:0:
475,192,393261,1,0,0:0:0:0:
329,192,393261,1,0,0:0:0:0:
36,192,393261,1,0,0:0:0:0:
182,192,393338,1,0,0:0:0:0:
256,192,393338,1,0,0:0:0:0:
329,192,393415,1,0,0:0:0:0:
402,192,393415,1,0,0:0:0:0:
182,192,393492,1,0,0:0:0:0:
109,192,393492,1,0,0:0:0:0:
475,192,393569,1,0,0:0:0:0:
402,192,393569,1,0,0:0:0:0:
256,192,393569,1,0,0:0:0:0:
109,192,393645,1,0,0:0:0:0:
36,192,393645,1,0,0:0:0:0:
329,192,393722,1,0,0:0:0:0:
182,192,393722,1,0,0:0:0:0:
475,192,393799,1,0,0:0:0:0:
402,192,393799,1,0,0:0:0:0:
36,192,393876,1,0,0:0:0:0:
109,192,393876,1,0,0:0:0:0:
256,192,393876,1,0,0:0:0:0:
329,192,393953,1,0,0:0:0:0:
182,192,393953,1,0,0:0:0:0:
475,192,394030,1,0,0:0:0:0:
402,192,394030,1,0,0:0:0:0:
109,192,394107,1,0,0:0:0:0:
256,192,394107,1,0,0:0:0:0:
329,192,394184,1,0,0:0:0:0:
182,192,394184,1,0,0:0:0:0:
36,192,394184,1,0,0:0:0:0:
475,192,394261,1,0,0:0:0:0:
402,192,394261,1,0,0:0:0:0:
109,192,394338,1,0,0:0:0:0:
256,192,394338,1,0,0:0:0:0:
329,192,394415,1,0,0:0:0:0:
475,192,394492,1,0,0:0:0:0:
402,192,394492,1,0,0:0:0:0:
182,192,394492,1,0,0:0:0:0:
36,192,394569,1,0,0:0:0:0:
109,192,394569,1,0,0:0:0:0:
329,192,394645,1,0,0:0:0:0:
256,192,394645,1,0,0:0:0:0:
36,192,394722,1,0,0:0:0:0:
182,192,394722,1,0,0:0:0:0:
475,192,394799,1,0,0:0:0:0:
402,192,394799,1,0,0:0:0:0:
109,192,394799,1,0,0:0:0:0:
256,192,394876,1,0,0:0:0:0:
329,192,394876,1,0,0:0:0:0:
182,192,394953,1,0,0:0:0:0:
36,192,394953,1,0,0:0:0:0:
402,192,395030,1,0,0:0:0:0:
329,192,395030,1,0,0:0:0:0:
256,192,395107,1,0,0:0:0:0:
109,192,395107,1,0,0:0:0:0:
475,192,395107,1,0,0:0:0:0:
402,192,395184,1,0,0:0:0:0:
329,192,395184,1,0,0:0:0:0:
182,192,395261,1,0,0:0:0:0:
36,192,395261,1,0,0:0:0:0:
329,192,395338,1,0,0:0:0:0:
256,192,395338,1,0,0:0:0:0:
475,192,395415,1,0,0:0:0:0:
402,192,395415,1,0,0:0:0:0:
109,192,395415,1,0,0:0:0:0:
329,192,395492,1,0,0:0:0:0:
182,192,395492,1,0,0:0:0:0:
256,192,395569,1,0,0:0:0:0:
36,192,395569,1,0,0:0:0:0:
402,192,395645,1,0,0:0:0:0:
182,192,395722,1,0,0:0:0:0:
109,192,395722,1,0,0:0:0:0:
475,192,395722,1,0,0:0:0:0:
329,192,395799,1,0,0:0:0:0:
256,192,395799,1,0,0:0:0:0:
109,192,395876,1,0,0:0:0:0:
36,192,395876,1,0,0:0:0:0:
329,192,395953,1,0,0:0:0:0:
182,192,395953,1,0,0:0:0:0:
402,192,396030,1,0,0:0:0:0:
475,192,396030,1,0,0:0:0:0:
256,192,396030,1,0,0:0:0:0:
36,192,396107,1,0,0:0:0:0:
109,192,396107,1,0,0:0:0:0:
329,192,396184,1,0,0:0:0:0:
182,192,396184,1,0,0:0:0:0:
36,192,396261,1,0,0:0:0:0:
109,192,396261,1,0,0:0:0:0:
475,192,396338,1,0,0:0:0:0:
402,192,396338,1,0,0:0:0:0:
256,192,396338,1,0,0:0:0:0:
329,192,396415,1,0,0:0:0:0:
182,192,396415,1,0,0:0:0:0:
36,192,396492,1,0,0:0:0:0:
109,192,396492,1,0,0:0:0:0:
402,192,396569,1,0,0:0:0:0:
256,192,396569,1,0,0:0:0:0:
182,192,396645,1,0,0:0:0:0:
329,192,396645,1,0,0:0:0:0:
475,192,396645,1,0,0:0:0:0:
256,192,396722,1,0,0:0:0:0:
109,192,396722,1,0,0:0:0:0:
36,192,396799,1,0,0:0:0:0:
182,192,396799,1,0,0:0:0:0:
329,192,396876,1,0,0:0:0:0:
109,192,396953,1,0,0:0:0:0:
475,192,396953,1,0,0:0:0:0:
402,192,396953,1,0,0:0:0:0:
256,192,397030,1,0,0:0:0:0:
182,192,397030,1,0,0:0:0:0:
402,192,397107,1,0,0:0:0:0:
329,192,397107,1,0,0:0:0:0:
182,192,397184,1,0,0:0:0:0:
109,192,397184,1,0,0:0:0:0:
475,192,397261,1,0,0:0:0:0:
329,192,397261,1,0,0:0:0:0:
256,192,397261,1,0,0:0:0:0:
182,192,397338,1,0,0:0:0:0:
36,192,397338,1,0,0:0:0:0:
402,192,397415,1,0,0:0:0:0:
109,192,397415,1,0,0:0:0:0:
256,192,397492,1,0,0:0:0:0:
329,192,397492,1,0,0:0:0:0:
475,192,397569,1,0,0:0:0:0:
36,192,397569,1,0,0:0:0:0:
182,192,397569,1,0,0:0:0:0:
329,192,397645,1,0,0:0:0:0:
402,192,397645,1,0,0:0:0:0:
256,192,397722,1,0,0:0:0:0:
109,192,397722,1,0,0:0:0:0:
329,192,397799,1,0,0:0:0:0:
182,192,397799,1,0,0:0:0:0:
475,192,397876,1,0,0:0:0:0:
402,192,397876,1,0,0:0:0:0:
256,192,397876,1,0,0:0:0:0:
109,192,397953,1,0,0:0:0:0:
36,192,397953,1,0,0:0:0:0:
329,192,398030,1,0,0:0:0:0:
182,192,398030,1,0,0:0:0:0:
402,192,398107,1,0,0:0:0:0:
36,192,398184,1,0,0:0:0:0:
256,192,398184,1,0,0:0:0:0:
475,192,398184,1,0,0:0:0:0:
329,192,398261,1,0,0:0:0:0:
109,192,398261,1,0,0:0:0:0:
402,192,398338,1,0,0:0:0:0:
182,192,398338,1,0,0:0:0:0:
329,192,398415,1,0,0:0:0:0:
109,192,398415,1,0,0:0:0:0:
475,192,398492,1,0,0:0:0:0:
36,192,398492,1,0,0:0:0:0:
256,192,398492,1,0,0:0:0:0:
329,192,398569,1,0,0:0:0:0:
402,192,398569,1,0,0:0:0:0:
109,192,398645,1,0,0:0:0:0:
182,192,398645,1,0,0:0:0:0:
402,192,398722,1,0,0:0:0:0:
256,192,398722,1,0,0:0:0:0:
36,192,398799,1,0,0:0:0:0:
329,192,398799,1,0,0:0:0:0:
475,192,398799,1,0,0:0:0:0:
256,192,398876,1,0,0:0:0:0:
109,192,398876,1,0,0:0:0:0:
402,192,398953,1,0,0:0:0:0:
182,192,398953,1,0,0:0:0:0:
109,192,399030,1,0,0:0:0:0:
329,192,399030,1,0,0:0:0:0:
475,192,399107,1,0,0:0:0:0:
402,192,399107,1,0,0:0:0:0:
36,192,399107,1,0,0:0:0:0:
256,192,399107,1,0,0:0:0:0:
182,192,399184,1,0,0:0:0:0:
329,192,399261,1,0,0:0:0:0:
256,192,399338,1,0,0:0:0:0:
402,192,399415,1,0,0:0:0:0:
475,192,399415,1,0,0:0:0:0:
182,192,399415,1,0,0:0:0:0:
109,192,399415,1,0,0:0:0:0:
36,192,399415,1,0,0:0:0:0:
329,192,399492,1,0,0:0:0:0:
109,192,399569,1,0,0:0:0:0:
256,192,399645,1,0,0:0:0:0:
475,192,399722,1,0,0:0:0:0:
36,192,399722,1,0,0:0:0:0:
402,192,399722,1,0,0:0:0:0:
182,192,399722,1,0,0:0:0:0:
329,192,399722,1,0,0:0:0:0:
109,192,399799,1,0,0:0:0:0:
256,192,399876,1,0,0:0:0:0:
402,192,399953,1,0,0:0:0:0:
475,192,400030,1,0,0:0:0:0:
109,192,400030,1,0,0:0:0:0:
36,192,400030,1,0,0:0:0:0:
329,192,400030,1,0,0:0:0:0:
182,192,400030,1,0,0:0:0:0:
256,192,400107,1,0,0:0:0:0:
182,192,400184,1,0,0:0:0:0:
329,192,400261,1,0,0:0:0:0:
109,192,400338,1,0,0:0:0:0:
36,192,400338,1,0,0:0:0:0:
256,192,400338,1,0,0:0:0:0:
402,192,400338,1,0,0:0:0:0:
475,192,400338,1,0,0:0:0:0:
182,192,400415,1,0,0:0:0:0:
402,192,400492,1,0,0:0:0:0:
329,192,400569,1,0,0:0:0:0:
36,192,400645,1,0,0:0:0:0:
475,192,400645,1,0,0:0:0:0:
109,192,400645,1,0,0:0:0:0:
256,192,400645,1,0,0:0:0:0:
182,192,400645,1,0,0:0:0:0:
402,192,400722,1,0,0:0:0:0:
109,192,400799,1,0,0:0:0:0:
182,192,400876,1,0,0:0:0:0:
36,192,400953,1,0,0:0:0:0:
402,192,400953,1,0,0:0:0:0:
475,192,400953,1,0,0:0:0:0:
256,192,400953,1,0,0:0:0:0:
329,192,400953,1,0,0:0:0:0:
109,192,401030,1,0,0:0:0:0:
182,192,401107,1,0,0:0:0:0:
329,192,401184,1,0,0:0:0:0:
109,192,401261,1,0,0:0:0:0:
36,192,401261,1,0,0:0:0:0:
256,192,401261,1,0,0:0:0:0:
402,192,401261,1,0,0:0:0:0:
475,192,401261,1,0,0:0:0:0:
182,192,401338,1,0,0:0:0:0:
329,192,401415,1,0,0:0:0:0:
475,192,401492,1,0,0:0:0:0:
109,192,401569,1,0,0:0:0:0:
182,192,401569,1,0,0:0:0:0:
36,192,401569,1,0,0:0:0:0:
402,192,401569,1,0,0:0:0:0:
256,192,401569,1,0,0:0:0:0:
329,192,401645,1,0,0:0:0:0:
36,192,401722,1,0,0:0:0:0:
109,192,401799,1,0,0:0:0:0:
329,192,401876,1,0,0:0:0:0:
475,192,401876,1,0,0:0:0:0:
402,192,401876,1,0,0:0:0:0:
182,192,401876,1,0,0:0:0:0:
256,192,401876,1,0,0:0:0:0:
36,192,401953,1,0,0:0:0:0:
329,192,402030,1,0,0:0:0:0:
182,192,402107,1,0,0:0:0:0:
402,192,402184,1,0,0:0:0:0:
475,192,402184,1,0,0:0:0:0:
256,192,402184,1,0,0:0:0:0:
109,192,402184,1,0,0:0:0:0:
36,192,402184,1,0,0:0:0:0:
329,192,402261,1,0,0:0:0:0:
109,192,402338,1,0,0:0:0:0:
182,192,402415,1,0,0:0:0:0:
329,192,402492,1,0,0:0:0:0:
36,192,402492,1,0,0:0:0:0:
475,192,402492,1,0,0:0:0:0:
256,192,402492,1,0,0:0:0:0:
402,192,402492,1,0,0:0:0:0:
109,192,402569,1,0,0:0:0:0:
402,192,402645,1,0,0:0:0:0:
256,192,402722,1,0,0:0:0:0:
329,192,402799,1,0,0:0:0:0:
475,192,402799,1,0,0:0:0:0:
109,192,402799,1,0,0:0:0:0:
182,192,402799,1,0,0:0:0:0:
36,192,402799,1,0,0:0:0:0:
402,192,402876,1,0,0:0:0:0:
256,192,402953,1,0,0:0:0:0:
329,192,403030,1,0,0:0:0:0:
109,192,403107,1,0,0:0:0:0:
36,192,403107,1,0,0:0:0:0:
182,192,403107,1,0,0:0:0:0:
475,192,403107,1,0,0:0:0:0:
402,192,403107,1,0,0:0:0:0:
256,192,403184,1,0,0:0:0:0:
36,192,403261,1,0,0:0:0:0:
182,192,403338,1,0,0:0:0:0:
256,192,403415,1,0,0:0:0:0:
109,192,403415,1,0,0:0:0:0:
475,192,403415,1,0,0:0:0:0:
329,192,403415,1,0,0:0:0:0:
402,192,403415,1,0,0:0:0:0:
36,192,403492,1,0,0:0:0:0:
182,192,403569,1,0,0:0:0:0:
109,192,403645,1,0,0:0:0:0:
475,192,403722,1,0,0:0:0:0:
36,192,403722,1,0,0:0:0:0:
402,192,403722,1,0,0:0:0:0:
256,192,403722,1,0,0:0:0:0:
329,192,403722,1,0,0:0:0:0:
182,192,403799,1,0,0:0:0:0:
402,192,403876,1,0,0:0:0:0:
329,192,403953,1,0,0:0:0:0:
182,192,404030,1,0,0:0:0:0:
475,192,404030,1,0,0:0:0:0:
36,192,404030,1,0,0:0:0:0:
256,192,404030,1,0,0:0:0:0:
109,192,404030,1,0,0:0:0:0:
402,192,404184,1,0,0:0:0:0:
475,192,404184,1,0,0:0:0:0:
329,192,404184,1,0,0:0:0:0:
182,192,404184,1,0,0:0:0:0:
109,192,404184,1,0,0:0:0:0:
402,192,404338,1,0,0:0:0:0:
475,192,404338,1,0,0:0:0:0:
109,192,404338,1,0,0:0:0:0:
256,192,404338,1,0,0:0:0:0:
36,192,404338,1,0,0:0:0:0:
402,192,404492,1,0,0:0:0:0:
475,192,404492,1,0,0:0:0:0:
329,192,404492,1,0,0:0:0:0:
182,192,404492,1,0,0:0:0:0:
36,192,404492,1,0,0:0:0:0:
329,192,404645,1,0,0:0:0:0:
475,192,404645,1,0,0:0:0:0:
256,192,404645,1,0,0:0:0:0:
109,192,404645,1,0,0:0:0:0:
36,192,404645,1,0,0:0:0:0:
256,192,404799,1,0,0:0:0:0:
329,192,404799,1,0,0:0:0:0:
36,192,404799,1,0,0:0:0:0:
182,192,404799,1,0,0:0:0:0:
402,192,404799,1,0,0:0:0:0:
402,192,404953,1,0,0:0:0:0:
475,192,404953,1,0,0:0:0:0:
329,192,404953,1,0,0:0:0:0:
109,192,404953,1,0,0:0:0:0:
182,192,404953,1,0,0:0:0:0:
402,192,405107,1,0,0:0:0:0:
475,192,405107,1,0,0:0:0:0:
109,192,405107,1,0,0:0:0:0:
256,192,405107,1,0,0:0:0:0:
36,192,405107,1,0,0:0:0:0:
329,192,405261,1,0,0:0:0:0:
475,192,405261,1,0,0:0:0:0:
36,192,405261,1,0,0:0:0:0:
182,192,405261,1,0,0:0:0:0:
256,192,405261,1,0,0:0:0:0:
109,192,405415,1,0,0:0:0:0:
36,192,405415,1,0,0:0:0:0:
182,192,405415,1,0,0:0:0:0:
402,192,405415,1,0,0:0:0:0:
329,192,405415,1,0,0:0:0:0:
402,192,405569,1,0,0:0:0:0:
475,192,405569,1,0,0:0:0:0:
329,192,405569,1,0,0:0:0:0:
109,192,405569,1,0,0:0:0:0:
256,192,405569,1,0,0:0:0:0:
256,192,405722,1,0,0:0:0:0:
36,192,405722,1,0,0:0:0:0:
475,192,405722,1,0,0:0:0:0:
182,192,405722,1,0,0:0:0:0:
402,192,405722,1,0,0:0:0:0:
329,192,405876,1,0,0:0:0:0:
475,192,405876,1,0,0:0:0:0:
182,192,405876,1,0,0:0:0:0:
109,192,405876,1,0,0:0:0:0:
36,192,405876,1,0,0:0:0:0:
109,192,406030,1,0,0:0:0:0:
475,192,406030,1,0,0:0:0:0:
329,192,406030,1,0,0:0:0:0:
402,192,406030,1,0,0:0:0:0:
256,192,406030,1,0,0:0:0:0:
256,192,406184,1,0,0:0:0:0:
36,192,406184,1,0,0:0:0:0:
182,192,406184,1,0,0:0:0:0:
402,192,406184,1,0,0:0:0:0:
329,192,406184,1,0,0:0:0:0:
256,192,406338,1,0,0:0:0:0:
475,192,406338,1,0,0:0:0:0:
182,192,406338,1,0,0:0:0:0:
36,192,406338,1,0,0:0:0:0:
109,192,406338,1,0,0:0:0:0:
109,192,406492,1,0,0:0:0:0:
36,192,406492,1,0,0:0:0:0:
402,192,406492,1,0,0:0:0:0:
475,192,406492,1,0,0:0:0:0:
256,192,406569,1,0,0:0:0:0:
182,192,406569,1,0,0:0:0:0:
475,192,406645,1,0,0:0:0:0:
402,192,406645,1,0,0:0:0:0:
329,192,406645,1,0,0:0:0:0:
182,192,406722,1,0,0:0:0:0:
109,192,406722,1,0,0:0:0:0:
36,192,406722,1,0,0:0:0:0:
402,192,406799,1,0,0:0:0:0:
329,192,406799,1,0,0:0:0:0:
256,192,406799,1,0,0:0:0:0:
36,192,406876,1,0,0:0:0:0:
109,192,406876,1,0,0:0:0:0:
182,192,406876,1,0,0:0:0:0:
475,192,406953,1,0,0:0:0:0:
402,192,406953,1,0,0:0:0:0:
329,192,406953,1,0,0:0:0:0:
109,192,407030,1,0,0:0:0:0:
182,192,407030,1,0,0:0:0:0:
256,192,407030,1,0,0:0:0:0:
475,192,407107,1,0,0:0:0:0:
402,192,407107,1,0,0:0:0:0:
36,192,407107,1,0,0:0:0:0:
109,192,407184,1,0,0:0:0:0:
256,192,407184,1,0,0:0:0:0:
329,192,407184,1,0,0:0:0:0:
475,192,407261,1,0,0:0:0:0:
402,192,407261,1,0,0:0:0:0:
182,192,407261,1,0,0:0:0:0:
256,192,407338,1,0,0:0:0:0:
109,192,407338,1,0,0:0:0:0:
36,192,407338,1,0,0:0:0:0:
475,192,407415,1,0,0:0:0:0:
402,192,407415,1,0,0:0:0:0:
329,192,407415,1,0,0:0:0:0:
36,192,407492,1,0,0:0:0:0:
109,192,407492,1,0,0:0:0:0:
182,192,407492,1,0,0:0:0:0:
475,192,407569,1,0,0:0:0:0:
402,192,407569,1,0,0:0:0:0:
256,192,407569,1,0,0:0:0:0:
109,192,407645,1,0,0:0:0:0:
182,192,407645,1,0,0:0:0:0:
329,192,407645,1,0,0:0:0:0:
402,192,407722,1,0,0:0:0:0:
475,192,407722,1,0,0:0:0:0:
36,192,407722,1,0,0:0:0:0:
256,192,407722,1,0,0:0:0:0:
402,192,410184,1,0,0:0:0:0:
475,192,410184,1,0,0:0:0:0:
256,192,410184,1,0,0:0:0:0:
36,192,410184,1,0,0:0:0:0:
109,192,410184,1,0,0:0:0:0:
329,192,410261,1,0,0:0:0:0:
182,192,410261,1,0,0:0:0:0:
475,192,410338,1,0,0:0:0:0:
402,192,410338,1,0,0:0:0:0:
256,192,410338,1,0,0:0:0:0:
109,192,410415,1,0,0:0:0:0:
36,192,410415,1,0,0:0:0:0:
402,192,410492,1,0,0:0:0:0:
475,192,410492,1,0,0:0:0:0:
182,192,410492,1,0,0:0:0:0:
329,192,410492,1,0,0:0:0:0:
109,192,410569,1,0,0:0:0:0:
256,192,410569,1,0,0:0:0:0:
329,192,410645,1,0,0:0:0:0:
182,192,410645,1,0,0:0:0:0:
36,192,410645,1,0,0:0:0:0:
475,192,410722,1,0,0:0:0:0:
402,192,410722,1,0,0:0:0:0:
36,192,410799,1,0,0:0:0:0:
329,192,410799,1,0,0:0:0:0:
256,192,410799,1,0,0:0:0:0:
109,192,410799,1,0,0:0:0:0:
475,192,410876,1,0,0:0:0:0:
182,192,410876,1,0,0:0:0:0:
36,192,410953,1,0,0:0:0:0:
329,192,410953,1,0,0:0:0:0:
402,192,410953,1,0,0:0:0:0:
256,192,411030,1,0,0:0:0:0:
109,192,411030,1,0,0:0:0:0:
402,192,411107,1,0,0:0:0:0:
475,192,411107,1,0,0:0:0:0:
182,192,411107,1,0,0:0:0:0:
329,192,411107,1,0,0:0:0:0:
109,192,411184,1,0,0:0:0:0:
36,192,411184,1,0,0:0:0:0:
329,192,411261,1,0,0:0:0:0:
256,192,411261,1,0,0:0:0:0:
182,192,411261,1,0,0:0:0:0:
475,192,411338,1,0,0:0:0:0:
402,192,411338,1,0,0:0:0:0:
182,192,411415,1,0,0:0:0:0:
256,192,411415,1,0,0:0:0:0:
36,192,411415,1,0,0:0:0:0:
109,192,411415,1,0,0:0:0:0:
475,192,411492,1,0,0:0:0:0:
329,192,411492,1,0,0:0:0:0:
256,192,411569,1,0,0:0:0:0:
109,192,411569,1,0,0:0:0:0:
36,192,411569,1,0,0:0:0:0:
402,192,411645,1,0,0:0:0:0:
329,192,411645,1,0,0:0:0:0:
256,192,411722,1,0,0:0:0:0:
36,192,411722,1,0,0:0:0:0:
475,192,411722,1,0,0:0:0:0:
182,192,411722,1,0,0:0:0:0:
329,192,411799,1,0,0:0:0:0:
109,192,411799,1,0,0:0:0:0:
475,192,411876,1,0,0:0:0:0:
182,192,411876,1,0,0:0:0:0:
402,192,411876,1,0,0:0:0:0:
256,192,411953,1,0,0:0:0:0:
36,192,411953,1,0,0:0:0:0:
182,192,412030,1,0,0:0:0:0:
475,192,412030,1,0,0:0:0:0:
109,192,412030,1,0,0:0:0:0:
329,192,412030,1,0,0:0:0:0:
402,192,412107,1,0,0:0:0:0:
256,192,412107,1,0,0:0:0:0:
329,192,412184,1,0,0:0:0:0:
109,192,412184,1,0,0:0:0:0:
36,192,412184,1,0,0:0:0:0:
256,192,412261,1,0,0:0:0:0:
182,192,412261,1,0,0:0:0:0:
109,192,412338,1,0,0:0:0:0:
36,192,412338,1,0,0:0:0:0:
402,192,412338,1,0,0:0:0:0:
475,192,412338,1,0,0:0:0:0:
329,192,412415,1,0,0:0:0:0:
256,192,412415,1,0,0:0:0:0:
475,192,412492,1,0,0:0:0:0:
36,192,412492,1,0,0:0:0:0:
182,192,412492,1,0,0:0:0:0:
329,192,412569,1,0,0:0:0:0:
402,192,412569,1,0,0:0:0:0:
36,192,412645,1,0,0:0:0:0:
475,192,412645,1,0,0:0:0:0:
256,192,412645,1,0,0:0:0:0:
109,192,412645,1,0,0:0:0:0:
402,192,412722,1,0,0:0:0:0:
329,192,412722,1,0,0:0:0:0:
109,192,412799,1,0,0:0:0:0:
256,192,412799,1,0,0:0:0:0:
182,192,412799,1,0,0:0:0:0:
475,192,412876,1,0,0:0:0:0:
402,192,412876,1,0,0:0:0:0:
182,192,412953,1,0,0:0:0:0:
256,192,412953,1,0,0:0:0:0:
329,192,412953,1,0,0:0:0:0:
36,192,412953,1,0,0:0:0:0:
475,192,413030,1,0,0:0:0:0:
402,192,413030,1,0,0:0:0:0:
182,192,413107,1,0,0:0:0:0:
36,192,413107,1,0,0:0:0:0:
109,192,413107,1,0,0:0:0:0:
402,192,413184,1,0,0:0:0:0:
256,192,413184,1,0,0:0:0:0:
109,192,413261,1,0,0:0:0:0:
36,192,413261,1,0,0:0:0:0:
329,192,413261,1,0,0:0:0:0:
475,192,413261,1,0,0:0:0:0:
256,192,413338,1,0,0:0:0:0:
182,192,413338,1,0,0:0:0:0:
109,192,413415,1,0,0:0:0:0:
475,192,413415,1,0,0:0:0:0:
402,192,413415,1,0,0:0:0:0:
329,192,413492,1,0,0:0:0:0:
182,192,413492,1,0,0:0:0:0:
402,192,413569,1,0,0:0:0:0:
475,192,413569,1,0,0:0:0:0:
256,192,413569,1,0,0:0:0:0:
36,192,413569,1,0,0:0:0:0:
182,192,413645,1,0,0:0:0:0:
109,192,413645,1,0,0:0:0:0:
402,192,413722,1,0,0:0:0:0:
256,192,413722,1,0,0:0:0:0:
329,192,413722,1,0,0:0:0:0:
182,192,413799,1,0,0:0:0:0:
36,192,413799,1,0,0:0:0:0:
475,192,413876,1,0,0:0:0:0:
402,192,413876,1,0,0:0:0:0:
256,192,413876,1,0,0:0:0:0:
109,192,413876,1,0,0:0:0:0:
329,192,413876,1,0,0:0:0:0:
182,192,413953,1,0,0:0:0:0:
36,192,413953,1,0,0:0:0:0:
475,192,414030,1,0,0:0:0:0:
402,192,414030,1,0,0:0:0:0:
329,192,414030,1,0,0:0:0:0:
256,192,414107,1,0,0:0:0:0:
402,192,414184,1,0,0:0:0:0:
475,192,414184,1,0,0:0:0:0:
182,192,414184,1,0,0:0:0:0:
109,192,414184,1,0,0:0:0:0:
36,192,414184,1,0,0:0:0:0:
256,192,414261,1,0,0:0:0:0:
329,192,414261,1,0,0:0:0:0:
475,192,414338,1,0,0:0:0:0:
109,192,414338,1,0,0:0:0:0:
36,192,414338,1,0,0:0:0:0:
182,192,414415,1,0,0:0:0:0:
475,192,414492,1,0,0:0:0:0:
36,192,414492,1,0,0:0:0:0:
402,192,414492,1,0,0:0:0:0:
256,192,414492,1,0,0:0:0:0:
329,192,414492,1,0,0:0:0:0:
182,192,414569,1,0,0:0:0:0:
109,192,414569,1,0,0:0:0:0:
256,192,414645,1,0,0:0:0:0:
329,192,414645,1,0,0:0:0:0:
402,192,414645,1,0,0:0:0:0:
109,192,414722,1,0,0:0:0:0:
329,192,414799,1,0,0:0:0:0:
475,192,414799,1,0,0:0:0:0:
182,192,414799,1,0,0:0:0:0:
36,192,414799,1,0,0:0:0:0:
256,192,414799,1,0,0:0:0:0:
402,192,414876,1,0,0:0:0:0:
36,192,414953,1,0,0:0:0:0:
182,192,414953,1,0,0:0:0:0:
109,192,414953,1,0,0:0:0:0:
256,192,415030,1,0,0:0:0:0:
36,192,415107,1,0,0:0:0:0:
109,192,415107,1,0,0:0:0:0:
475,192,415107,1,0,0:0:0:0:
329,192,415107,1,0,0:0:0:0:
402,192,415107,1,0,0:0:0:0:
256,192,415184,1,0,0:0:0:0:
182,192,415184,1,0,0:0:0:0:
329,192,415261,1,0,0:0:0:0:
475,192,415261,1,0,0:0:0:0:
402,192,415261,1,0,0:0:0:0:
182,192,415338,1,0,0:0:0:0:
109,192,415338,1,0,0:0:0:0:
329,192,415415,1,0,0:0:0:0:
475,192,415415,1,0,0:0:0:0:
256,192,415415,1,0,0:0:0:0:
36,192,415415,1,0,0:0:0:0:
402,192,415492,1,0,0:0:0:0:
109,192,415492,1,0,0:0:0:0:
475,192,415569,1,0,0:0:0:0:
329,192,415569,1,0,0:0:0:0:
182,192,415569,1,0,0:0:0:0:
36,192,415645,1,0,0:0:0:0:
256,192,415645,1,0,0:0:0:0:
329,192,415722,1,0,0:0:0:0:
182,192,415722,1,0,0:0:0:0:
109,192,415722,1,0,0:0:0:0:
402,192,415722,1,0,0:0:0:0:
256,192,415799,1,0,0:0:0:0:
36,192,415799,1,0,0:0:0:0:
475,192,415876,1,0,0:0:0:0:
402,192,415876,1,0,0:0:0:0:
182,192,415876,1,0,0:0:0:0:
329,192,415953,1,0,0:0:0:0:
109,192,415953,1,0,0:0:0:0:
402,192,416030,1,0,0:0:0:0:
475,192,416030,1,0,0:0:0:0:
256,192,416030,1,0,0:0:0:0:
36,192,416030,1,0,0:0:0:0:
329,192,416107,1,0,0:0:0:0:
182,192,416107,1,0,0:0:0:0:
36,192,416184,1,0,0:0:0:0:
256,192,416184,1,0,0:0:0:0:
109,192,416184,1,0,0:0:0:0:
329,192,416261,1,0,0:0:0:0:
182,192,416261,1,0,0:0:0:0:
475,192,416338,1,0,0:0:0:0:
36,192,416338,1,0,0:0:0:0:
256,192,416338,1,0,0:0:0:0:
402,192,416338,1,0,0:0:0:0:
182,192,416415,1,0,0:0:0:0:
109,192,416415,1,0,0:0:0:0:
475,192,416492,1,0,0:0:0:0:
402,192,416492,1,0,0:0:0:0:
329,192,416492,1,0,0:0:0:0:
182,192,416569,1,0,0:0:0:0:
256,192,416569,1,0,0:0:0:0:
402,192,416645,1,0,0:0:0:0:
475,192,416645,1,0,0:0:0:0:
36,192,416645,1,0,0:0:0:0:
109,192,416645,1,0,0:0:0:0:
256,192,416722,1,0,0:0:0:0:
329,192,416722,1,0,0:0:0:0:
36,192,416799,1,0,0:0:0:0:
109,192,416799,1,0,0:0:0:0:
182,192,416799,1,0,0:0:0:0:
402,192,416876,1,0,0:0:0:0:
256,192,416876,1,0,0:0:0:0:
109,192,416953,1,0,0:0:0:0:
36,192,416953,1,0,0:0:0:0:
475,192,416953,1,0,0:0:0:0:
329,192,416953,1,0,0:0:0:0:
256,192,417030,1,0,0:0:0:0:
182,192,417030,1,0,0:0:0:0:
475,192,417107,1,0,0:0:0:0:
402,192,417107,1,0,0:0:0:0:
329,192,417107,1,0,0:0:0:0:
182,192,417184,1,0,0:0:0:0:
109,192,417184,1,0,0:0:0:0:
475,192,417261,1,0,0:0:0:0:
36,192,417261,1,0,0:0:0:0:
256,192,417261,1,0,0:0:0:0:
402,192,417261,1,0,0:0:0:0:
329,192,417338,1,0,0:0:0:0:
109,192,417338,1,0,0:0:0:0:
475,192,417415,1,0,0:0:0:0:
256,192,417415,1,0,0:0:0:0:
182,192,417415,1,0,0:0:0:0:
36,192,417492,1,0,0:0:0:0:
402,192,417492,1,0,0:0:0:0:
256,192,417569,1,0,0:0:0:0:
475,192,417569,1,0,0:0:0:0:
109,192,417569,1,0,0:0:0:0:
182,192,417569,1,0,0:0:0:0:
329,192,417569,1,0,0:0:0:0:
402,192,417645,1,0,0:0:0:0:
36,192,417645,1,0,0:0:0:0:
109,192,417722,1,0,0:0:0:0:
256,192,417722,1,0,0:0:0:0:
329,192,417722,1,0,0:0:0:0:
182,192,417799,1,0,0:0:0:0:
256,192,417876,1,0,0:0:0:0:
36,192,417876,1,0,0:0:0:0:
329,192,417876,1,0,0:0:0:0:
402,192,417876,1,0,0:0:0:0:
475,192,417876,1,0,0:0:0:0:
182,192,417953,1,0,0:0:0:0:
109,192,417953,1,0,0:0:0:0:
329,192,418030,1,0,0:0:0:0:
475,192,418030,1,0,0:0:0:0:
402,192,418030,1,0,0:0:0:0:
256,192,418107,1,0,0:0:0:0:
402,192,418184,1,0,0:0:0:0:
475,192,418184,1,0,0:0:0:0:
36,192,418184,1,0,0:0:0:0:
182,192,418184,1,0,0:0:0:0:
109,192,418184,1,0,0:0:0:0:
256,192,418261,1,0,0:0:0:0:
329,192,418261,1,0,0:0:0:0:
475,192,418338,1,0,0:0:0:0:
36,192,418338,1,0,0:0:0:0:
109,192,418338,1,0,0:0:0:0:
182,192,418415,1,0,0:0:0:0:
36,192,418492,1,0,0:0:0:0:
109,192,418492,1,0,0:0:0:0:
402,192,418492,1,0,0:0:0:0:
256,192,418492,1,0,0:0:0:0:
329,192,418492,1,0,0:0:0:0:
182,192,418569,1,0,0:0:0:0:
475,192,418569,1,0,0:0:0:0:
402,192,418645,1,0,0:0:0:0:
329,192,418645,1,0,0:0:0:0:
256,192,418645,1,0,0:0:0:0:
109,192,418722,1,0,0:0:0:0:
475,192,418799,1,0,0:0:0:0:
36,192,418799,1,0,0:0:0:0:
402,192,418799,1,0,0:0:0:0:
182,192,418799,1,0,0:0:0:0:
329,192,418799,1,0,0:0:0:0:
109,192,418876,1,0,0:0:0:0:
182,192,418953,1,0,0:0:0:0:
256,192,419030,1,0,0:0:0:0:
402,192,419107,1,0,0:0:0:0:
329,192,419107,1,0,0:0:0:0:
182,192,419184,1,0,0:0:0:0:
109,192,419261,1,0,0:0:0:0:
182,192,419338,1,0,0:0:0:0:
402,192,419415,1,0,0:0:0:0:
329,192,419415,1,0,0:0:0:0:
329,192,419722,1,0,0:0:0:0:
402,192,419722,1,0,0:0:0:0:
109,192,419722,1,0,0:0:0:0:
182,192,419722,1,0,0:0:0:0:
402,192,420030,1,0,0:0:0:0:
475,192,420030,1,0,0:0:0:0:
256,192,420030,1,0,0:0:0:0:
36,192,420030,1,0,0:0:0:0:
109,192,420030,1,0,0:0:0:0:
329,192,420107,1,0,0:0:0:0:
182,192,420107,1,0,0:0:0:0:
109,192,420184,1,0,0:0:0:0:
36,192,420184,1,0,0:0:0:0:
256,192,420184,1,0,0:0:0:0:
329,192,420261,1,0,0:0:0:0:
402,192,420261,1,0,0:0:0:0:
256,192,420338,1,0,0:0:0:0:
475,192,420338,1,0,0:0:0:0:
182,192,420338,1,0,0:0:0:0:
36,192,420338,1,0,0:0:0:0:
109,192,420415,1,0,0:0:0:0:
329,192,420415,1,0,0:0:0:0:
475,192,420492,1,0,0:0:0:0:
402,192,420492,1,0,0:0:0:0:
182,192,420492,1,0,0:0:0:0:
36,192,420569,1,0,0:0:0:0:
256,192,420569,1,0,0:0:0:0:
182,192,420645,1,0,0:0:0:0:
475,192,420645,1,0,0:0:0:0:
109,192,420645,1,0,0:0:0:0:
329,192,420645,1,0,0:0:0:0:
402,192,420722,1,0,0:0:0:0:
256,192,420722,1,0,0:0:0:0:
329,192,420799,1,0,0:0:0:0:
109,192,420799,1,0,0:0:0:0:
36,192,420799,1,0,0:0:0:0:
256,192,420876,1,0,0:0:0:0:
182,192,420876,1,0,0:0:0:0:
109,192,420953,1,0,0:0:0:0:
36,192,420953,1,0,0:0:0:0:
402,192,420953,1,0,0:0:0:0:
475,192,420953,1,0,0:0:0:0:
182,192,421030,1,0,0:0:0:0:
329,192,421030,1,0,0:0:0:0:
475,192,421107,1,0,0:0:0:0:
402,192,421107,1,0,0:0:0:0:
256,192,421107,1,0,0:0:0:0:
182,192,421184,1,0,0:0:0:0:
36,192,421184,1,0,0:0:0:0:
329,192,421261,1,0,0:0:0:0:
475,192,421261,1,0,0:0:0:0:
109,192,421261,1,0,0:0:0:0:
256,192,421261,1,0,0:0:0:0:
182,192,421338,1,0,0:0:0:0:
402,192,421338,1,0,0:0:0:0:
256,192,421415,1,0,0:0:0:0:
109,192,421415,1,0,0:0:0:0:
36,192,421415,1,0,0:0:0:0:
182,192,421492,1,0,0:0:0:0:
329,192,421492,1,0,0:0:0:0:
475,192,421569,1,0,0:0:0:0:
256,192,421569,1,0,0:0:0:0:
36,192,421569,1,0,0:0:0:0:
402,192,421569,1,0,0:0:0:0:
182,192,421645,1,0,0:0:0:0:
109,192,421645,1,0,0:0:0:0:
402,192,421722,1,0,0:0:0:0:
475,192,421722,1,0,0:0:0:0:
329,192,421722,1,0,0:0:0:0:
109,192,421799,1,0,0:0:0:0:
256,192,421799,1,0,0:0:0:0:
329,192,421876,1,0,0:0:0:0:
475,192,421876,1,0,0:0:0:0:
36,192,421876,1,0,0:0:0:0:
182,192,421876,1,0,0:0:0:0:
402,192,421953,1,0,0:0:0:0:
256,192,421953,1,0,0:0:0:0:
329,192,422030,1,0,0:0:0:0:
182,192,422030,1,0,0:0:0:0:
109,192,422030,1,0,0:0:0:0:
256,192,422107,1,0,0:0:0:0:
475,192,422107,1,0,0:0:0:0:
182,192,422184,1,0,0:0:0:0:
402,192,422184,1,0,0:0:0:0:
36,192,422184,1,0,0:0:0:0:
109,192,422184,1,0,0:0:0:0:
256,192,422261,1,0,0:0:0:0:
329,192,422261,1,0,0:0:0:0:
475,192,422338,1,0,0:0:0:0:
109,192,422338,1,0,0:0:0:0:
36,192,422338,1,0,0:0:0:0:
329,192,422415,1,0,0:0:0:0:
182,192,422415,1,0,0:0:0:0:
475,192,422492,1,0,0:0:0:0:
36,192,422492,1,0,0:0:0:0:
256,192,422492,1,0,0:0:0:0:
402,192,422492,1,0,0:0:0:0:
182,192,422569,1,0,0:0:0:0:
109,192,422569,1,0,0:0:0:0:
36,192,422645,1,0,0:0:0:0:
475,192,422645,1,0,0:0:0:0:
329,192,422645,1,0,0:0:0:0:
402,192,422722,1,0,0:0:0:0:
256,192,422722,1,0,0:0:0:0:
182,192,422799,1,0,0:0:0:0:
475,192,422799,1,0,0:0:0:0:
109,192,422799,1,0,0:0:0:0:
329,192,422799,1,0,0:0:0:0:
402,192,422876,1,0,0:0:0:0:
256,192,422876,1,0,0:0:0:0:
109,192,422953,1,0,0:0:0:0:
36,192,422953,1,0,0:0:0:0:
329,192,422953,1,0,0:0:0:0:
256,192,423030,1,0,0:0:0:0:
182,192,423030,1,0,0:0:0:0:
109,192,423107,1,0,0:0:0:0:
36,192,423107,1,0,0:0:0:0:
402,192,423107,1,0,0:0:0:0:
475,192,423107,1,0,0:0:0:0:
329,192,423184,1,0,0:0:0:0:
256,192,423184,1,0,0:0:0:0:
475,192,423261,1,0,0:0:0:0:
36,192,423261,1,0,0:0:0:0:
182,192,423261,1,0,0:0:0:0:
256,192,423338,1,0,0:0:0:0:
402,192,423338,1,0,0:0:0:0:
36,192,423415,1,0,0:0:0:0:
475,192,423415,1,0,0:0:0:0:
329,192,423415,1,0,0:0:0:0:
109,192,423415,1,0,0:0:0:0:
256,192,423492,1,0,0:0:0:0:
182,192,423492,1,0,0:0:0:0:
36,192,423569,1,0,0:0:0:0:
329,192,423569,1,0,0:0:0:0:
402,192,423569,1,0,0:0:0:0:
182,192,423645,1,0,0:0:0:0:
109,192,423645,1,0,0:0:0:0:
475,192,423722,1,0,0:0:0:0:
36,192,423722,1,0,0:0:0:0:
256,192,423722,1,0,0:0:0:0:
402,192,423722,1,0,0:0:0:0:
329,192,423799,1,0,0:0:0:0:
182,192,423799,1,0,0:0:0:0:
402,192,423876,1,0,0:0:0:0:
36,192,423876,1,0,0:0:0:0:
109,192,423876,1,0,0:0:0:0:
329,192,423953,1,0,0:0:0:0:
182,192,423953,1,0,0:0:0:0:
475,192,424030,1,0,0:0:0:0:
36,192,424030,1,0,0:0:0:0:
256,192,424030,1,0,0:0:0:0:
402,192,424030,1,0,0:0:0:0:
182,192,424107,1,0,0:0:0:0:
109,192,424107,1,0,0:0:0:0:
475,192,424184,1,0,0:0:0:0:
402,192,424184,1,0,0:0:0:0:
329,192,424184,1,0,0:0:0:0:
36,192,424261,1,0,0:0:0:0:
256,192,424261,1,0,0:0:0:0:
329,192,424338,1,0,0:0:0:0:
475,192,424338,1,0,0:0:0:0:
109,192,424338,1,0,0:0:0:0:
182,192,424338,1,0,0:0:0:0:
402,192,424415,1,0,0:0:0:0:
256,192,424415,1,0,0:0:0:0:
329,192,424492,1,0,0:0:0:0:
182,192,424492,1,0,0:0:0:0:
36,192,424492,1,0,0:0:0:0:
475,192,424569,1,0,0:0:0:0:
402,192,424569,1,0,0:0:0:0:
256,192,424645,1,0,0:0:0:0:
182,192,424645,1,0,0:0:0:0:
109,192,424645,1,0,0:0:0:0:
36,192,424645,1,0,0:0:0:0:
475,192,424722,1,0,0:0:0:0:
329,192,424722,1,0,0:0:0:0:
402,192,424799,1,0,0:0:0:0:
109,192,424799,1,0,0:0:0:0:
256,192,424799,1,0,0:0:0:0:
36,192,424876,1,0,0:0:0:0:
182,192,424876,1,0,0:0:0:0:
402,192,424953,1,0,0:0:0:0:
475,192,424953,1,0,0:0:0:0:
256,192,424953,1,0,0:0:0:0:
109,192,424953,1,0,0:0:0:0:
329,192,424953,1,0,0:0:0:0:
182,192,425030,1,0,0:0:0:0:
36,192,425030,1,0,0:0:0:0:
256,192,425107,1,0,0:0:0:0:
109,192,425107,1,0,0:0:0:0:
329,192,425184,1,0,0:0:0:0:
182,192,425184,1,0,0:0:0:0:
402,192,425261,1,0,0:0:0:0:
475,192,425261,1,0,0:0:0:0:
329,192,425338,1,0,0:0:0:0:
109,192,425338,1,0,0:0:0:0:
256,192,425415,1,0,0:0:0:0:
36,192,425415,1,0,0:0:0:0:
402,192,425492,1,0,0:0:0:0:
182,192,425492,1,0,0:0:0:0:
256,192,425569,1,0,0:0:0:0:
475,192,425569,1,0,0:0:0:0:
329,192,425569,1,0,0:0:0:0:
109,192,425569,1,0,0:0:0:0:
36,192,425569,1,0,0:0:0:0:
182,192,425645,1,0,0:0:0:0:
329,192,425722,1,0,0:0:0:0:
182,192,425799,1,0,0:0:0:0:
329,192,425876,1,0,0:0:0:0:
182,192,425953,1,0,0:0:0:0:
329,192,426030,1,0,0:0:0:0:
182,192,426107,1,0,0:0:0:0:
402,192,426184,1,0,0:0:0:0:
475,192,426184,1,0,0:0:0:0:
256,192,426184,1,0,0:0:0:0:
36,192,426184,1,0,0:0:0:0:
109,192,426184,1,0,0:0:0:0:
329,192,426261,1,0,0:0:0:0:
182,192,426261,1,0,0:0:0:0:
109,192,426338,1,0,0:0:0:0:
256,192,426338,1,0,0:0:0:0:
329,192,426415,1,0,0:0:0:0:
182,192,426415,1,0,0:0:0:0:
475,192,426492,1,0,0:0:0:0:
402,192,426492,1,0,0:0:0:0:
256,192,426569,1,0,0:0:0:0:
109,192,426569,1,0,0:0:0:0:
36,192,426645,1,0,0:0:0:0:
182,192,426645,1,0,0:0:0:0:
402,192,426722,1,0,0:0:0:0:
256,192,426722,1,0,0:0:0:0:
329,192,426799,1,0,0:0:0:0:
475,192,426799,1,0,0:0:0:0:
182,192,426799,1,0,0:0:0:0:
109,192,426799,1,0,0:0:0:0:
36,192,426799,1,0,0:0:0:0:
256,192,426876,1,0,0:0:0:0:
402,192,426953,1,0,0:0:0:0:
182,192,427030,1,0,0:0:0:0:
329,192,427107,1,0,0:0:0:0:
109,192,427184,1,0,0:0:0:0:
402,192,427261,1,0,0:0:0:0:
182,192,427338,1,0,0:0:0:0:
109,192,427415,1,0,0:0:0:0:
475,192,427415,1,0,0:0:0:0:
36,192,427415,1,0,0:0:0:0:
256,192,427415,1,0,0:0:0:0:
329,192,427415,1,0,0:0:0:0:
402,192,427492,1,0,0:0:0:0:
36,192,427569,1,0,0:0:0:0:
109,192,427569,1,0,0:0:0:0:
182,192,427569,1,0,0:0:0:0:
475,192,427569,1,0,0:0:0:0:
256,192,427569,1,0,0:0:0:0:
329,192,427645,1,0,0:0:0:0:
182,192,427722,1,0,0:0:0:0:
36,192,427722,1,0,0:0:0:0:
109,192,427722,1,0,0:0:0:0:
402,192,427722,1,0,0:0:0:0:
475,192,427722,1,0,0:0:0:0:
256,192,427799,1,0,0:0:0:0:
475,192,427876,1,0,0:0:0:0:
402,192,427876,1,0,0:0:0:0:
36,192,427876,1,0,0:0:0:0:
329,192,427876,1,0,0:0:0:0:
109,192,427876,1,0,0:0:0:0:
256,192,427953,1,0,0:0:0:0:
475,192,428030,1,0,0:0:0:0:
109,192,428030,1,0,0:0:0:0:
402,192,428030,1,0,0:0:0:0:
182,192,428030,1,0,0:0:0:0:
36,192,428030,1,0,0:0:0:0:
329,192,428107,1,0,0:0:0:0:
402,192,428184,1,0,0:0:0:0:
475,192,428184,1,0,0:0:0:0:
36,192,428184,1,0,0:0:0:0:
256,192,428184,1,0,0:0:0:0:
109,192,428184,1,0,0:0:0:0:
182,192,428261,1,0,0:0:0:0:
109,192,428338,1,0,0:0:0:0:
402,192,428338,1,0,0:0:0:0:
36,192,428338,1,0,0:0:0:0:
329,192,428338,1,0,0:0:0:0:
475,192,428338,1,0,0:0:0:0:
256,192,428415,1,0,0:0:0:0:
402,192,428492,1,0,0:0:0:0:
475,192,428492,1,0,0:0:0:0:
36,192,428492,1,0,0:0:0:0:
182,192,428492,1,0,0:0:0:0:
109,192,428492,1,0,0:0:0:0:
256,192,428569,1,0,0:0:0:0:
36,192,428645,1,0,0:0:0:0:
109,192,428645,1,0,0:0:0:0:
475,192,428645,1,0,0:0:0:0:
329,192,428645,1,0,0:0:0:0:
402,192,428645,1,0,0:0:0:0:
182,192,428722,1,0,0:0:0:0:
256,192,428799,1,0,0:0:0:0:
182,192,428876,1,0,0:0:0:0:
475,192,428953,1,0,0:0:0:0:
329,192,428953,1,0,0:0:0:0:
109,192,429030,1,0,0:0:0:0:
182,192,429107,1,0,0:0:0:0:
256,192,429184,1,0,0:0:0:0:
402,192,429261,1,0,0:0:0:0:
329,192,429261,1,0,0:0:0:0:
182,192,429338,1,0,0:0:0:0:
109,192,429415,1,0,0:0:0:0:
182,192,429492,1,0,0:0:0:0:
475,192,429569,1,0,0:0:0:0:
36,192,429569,1,0,0:0:0:0:
402,192,429569,1,0,0:0:0:0:
256,192,429569,1,0,0:0:0:0:
329,192,429569,1,0,0:0:0:0:
402,192,429876,1,0,0:0:0:0:
475,192,429876,1,0,0:0:0:0:
329,192,429876,1,0,0:0:0:0:
36,192,429876,1,0,0:0:0:0:
109,192,429876,1,0,0:0:0:0:
256,192,429953,1,0,0:0:0:0:
329,192,430030,1,0,0:0:0:0:
475,192,430030,1,0,0:0:0:0:
182,192,430030,1,0,0:0:0:0:
256,192,430107,1,0,0:0:0:0:
402,192,430184,1,0,0:0:0:0:
475,192,430184,1,0,0:0:0:0:
329,192,430184,1,0,0:0:0:0:
109,192,430184,1,0,0:0:0:0:
36,192,430184,1,0,0:0:0:0:
182,192,430261,1,0,0:0:0:0:
402,192,430338,1,0,0:0:0:0:
256,192,430338,1,0,0:0:0:0:
36,192,430338,1,0,0:0:0:0:
109,192,430415,1,0,0:0:0:0:
36,192,430492,1,0,0:0:0:0:
256,192,430492,1,0,0:0:0:0:
475,192,430492,1,0,0:0:0:0:
182,192,430492,1,0,0:0:0:0:
329,192,430492,1,0,0:0:0:0:
402,192,430569,1,0,0:0:0:0:
329,192,430645,1,0,0:0:0:0:
109,192,430645,1,0,0:0:0:0:
182,192,430645,1,0,0:0:0:0:
256,192,430722,1,0,0:0:0:0:
36,192,430799,1,0,0:0:0:0:
109,192,430799,1,0,0:0:0:0:
329,192,430799,1,0,0:0:0:0:
402,192,430799,1,0,0:0:0:0:
475,192,430799,1,0,0:0:0:0:
182,192,430876,1,0,0:0:0:0:
475,192,430953,1,0,0:0:0:0:
402,192,430953,1,0,0:0:0:0:
256,192,430953,1,0,0:0:0:0:
109,192,431030,1,0,0:0:0:0:
475,192,431107,1,0,0:0:0:0:
36,192,431107,1,0,0:0:0:0:
402,192,431107,1,0,0:0:0:0:
182,192,431107,1,0,0:0:0:0:
329,192,431107,1,0,0:0:0:0:
256,192,431184,1,0,0:0:0:0:
329,192,431261,1,0,0:0:0:0:
36,192,431261,1,0,0:0:0:0:
109,192,431261,1,0,0:0:0:0:
182,192,431338,1,0,0:0:0:0:
475,192,431415,1,0,0:0:0:0:
36,192,431415,1,0,0:0:0:0:
402,192,431415,1,0,0:0:0:0:
256,192,431415,1,0,0:0:0:0:
329,192,431415,1,0,0:0:0:0:
182,192,431492,1,0,0:0:0:0:
475,192,431569,1,0,0:0:0:0:
402,192,431569,1,0,0:0:0:0:
109,192,431569,1,0,0:0:0:0:
256,192,431645,1,0,0:0:0:0:
402,192,431722,1,0,0:0:0:0:
475,192,431722,1,0,0:0:0:0:
329,192,431722,1,0,0:0:0:0:
36,192,431722,1,0,0:0:0:0:
182,192,431722,1,0,0:0:0:0:
109,192,431799,1,0,0:0:0:0:
475,192,431876,1,0,0:0:0:0:
329,192,431876,1,0,0:0:0:0:
256,192,431876,1,0,0:0:0:0:
182,192,431953,1,0,0:0:0:0:
402,192,432030,1,0,0:0:0:0:
475,192,432030,1,0,0:0:0:0:
256,192,432030,1,0,0:0:0:0:
36,192,432030,1,0,0:0:0:0:
109,192,432030,1,0,0:0:0:0:
329,192,432107,1,0,0:0:0:0:
36,192,432184,1,0,0:0:0:0:
109,192,432184,1,0,0:0:0:0:
182,192,432184,1,0,0:0:0:0:
256,192,432261,1,0,0:0:0:0:
36,192,432338,1,0,0:0:0:0:
182,192,432338,1,0,0:0:0:0:
329,192,432338,1,0,0:0:0:0:
402,192,432338,1,0,0:0:0:0:
475,192,432338,1,0,0:0:0:0:
109,192,432415,1,0,0:0:0:0:
402,192,432492,1,0,0:0:0:0:
329,192,432492,1,0,0:0:0:0:
256,192,432492,1,0,0:0:0:0:
182,192,432569,1,0,0:0:0:0:
402,192,432645,1,0,0:0:0:0:
475,192,432645,1,0,0:0:0:0:
329,192,432645,1,0,0:0:0:0:
109,192,432645,1,0,0:0:0:0:
36,192,432645,1,0,0:0:0:0:
256,192,432722,1,0,0:0:0:0:
475,192,432799,1,0,0:0:0:0:
402,192,432799,1,0,0:0:0:0:
182,192,432799,1,0,0:0:0:0:
329,192,432876,1,0,0:0:0:0:
182,192,432953,1,0,0:0:0:0:
475,192,432953,1,0,0:0:0:0:
36,192,432953,1,0,0:0:0:0:
256,192,432953,1,0,0:0:0:0:
109,192,432953,1,0,0:0:0:0:
329,192,433030,1,0,0:0:0:0:
256,192,433107,1,0,0:0:0:0:
36,192,433107,1,0,0:0:0:0:
402,192,433107,1,0,0:0:0:0:
182,192,433184,1,0,0:0:0:0:
402,192,433261,1,0,0:0:0:0:
475,192,433261,1,0,0:0:0:0:
329,192,433261,1,0,0:0:0:0:
109,192,433261,1,0,0:0:0:0:
36,192,433261,1,0,0:0:0:0:
256,192,433338,1,0,0:0:0:0:
402,192,433415,1,0,0:0:0:0:
182,192,433415,1,0,0:0:0:0:
109,192,433415,1,0,0:0:0:0:
329,192,433492,1,0,0:0:0:0:
475,192,433569,1,0,0:0:0:0:
402,192,433569,1,0,0:0:0:0:
256,192,433569,1,0,0:0:0:0:
182,192,433645,1,0,0:0:0:0:
109,192,433645,1,0,0:0:0:0:
36,192,433645,1,0,0:0:0:0:
256,192,433722,1,0,0:0:0:0:
475,192,433722,1,0,0:0:0:0:
402,192,433722,1,0,0:0:0:0:
36,192,433799,1,0,0:0:0:0:
109,192,433799,1,0,0:0:0:0:
182,192,433799,1,0,0:0:0:0:
475,192,433876,1,0,0:0:0:0:
402,192,433876,1,0,0:0:0:0:
329,192,433876,1,0,0:0:0:0:
109,192,433953,1,0,0:0:0:0:
256,192,433953,1,0,0:0:0:0:
182,192,433953,1,0,0:0:0:0:
475,192,434030,1,0,0:0:0:0:
402,192,434030,1,0,0:0:0:0:
329,192,434030,1,0,0:0:0:0:
256,192,434107,1,0,0:0:0:0:
109,192,434107,1,0,0:0:0:0:
182,192,434107,1,0,0:0:0:0:
475,192,434184,1,0,0:0:0:0:
402,192,434184,1,0,0:0:0:0:
329,192,434184,1,0,0:0:0:0:
182,192,434261,1,0,0:0:0:0:
109,192,434261,1,0,0:0:0:0:
36,192,434261,1,0,0:0:0:0:
402,192,434338,1,0,0:0:0:0:
329,192,434338,1,0,0:0:0:0:
256,192,434338,1,0,0:0:0:0:
36,192,434415,1,0,0:0:0:0:
109,192,434415,1,0,0:0:0:0:
182,192,434415,1,0,0:0:0:0:
475,192,434492,1,0,0:0:0:0:
402,192,434492,1,0,0:0:0:0:
329,192,434492,1,0,0:0:0:0:
256,192,434569,1,0,0:0:0:0:
182,192,434569,1,0,0:0:0:0:
109,192,434569,1,0,0:0:0:0:
329,192,434645,1,0,0:0:0:0:
402,192,434645,1,0,0:0:0:0:
36,192,434645,1,0,0:0:0:0:
182,192,434722,1,0,0:0:0:0:
109,192,434722,1,0,0:0:0:0:
36,192,434799,1,0,0:0:0:0:
475,192,434799,1,0,0:0:0:0:
402,192,434799,1,0,0:0:0:0:
256,192,434799,1,0,0:0:0:0:
329,192,434799,1,0,0:0:0:0:
182,192,434876,1,0,0:0:0:0:
475,192,434953,1,0,0:0:0:0:
256,192,434953,1,0,0:0:0:0:
109,192,434953,1,0,0:0:0:0:
329,192,435030,1,0,0:0:0:0:
109,192,435107,1,0,0:0:0:0:
475,192,435107,1,0,0:0:0:0:
36,192,435107,1,0,0:0:0:0:
402,192,435107,1,0,0:0:0:0:
182,192,435107,1,0,0:0:0:0:
256,192,435184,1,0,0:0:0:0:
182,192,435261,1,0,0:0:0:0:
36,192,435261,1,0,0:0:0:0:
329,192,435261,1,0,0:0:0:0:
402,192,435338,1,0,0:0:0:0:
109,192,435415,1,0,0:0:0:0:
36,192,435415,1,0,0:0:0:0:
256,192,435415,1,0,0:0:0:0:
475,192,435415,1,0,0:0:0:0:
329,192,435415,1,0,0:0:0:0:
182,192,435492,1,0,0:0:0:0:
109,192,435569,1,0,0:0:0:0:
402,192,435569,1,0,0:0:0:0:
256,192,435569,1,0,0:0:0:0:
36,192,435645,1,0,0:0:0:0:
475,192,435722,1,0,0:0:0:0:
256,192,435722,1,0,0:0:0:0:
329,192,435722,1,0,0:0:0:0:
109,192,435722,1,0,0:0:0:0:
182,192,435722,1,0,0:0:0:0:
402,192,435799,1,0,0:0:0:0:
36,192,435876,1,0,0:0:0:0:
182,192,435876,1,0,0:0:0:0:
329,192,435876,1,0,0:0:0:0:
109,192,435953,1,0,0:0:0:0:
256,192,436030,1,0,0:0:0:0:
36,192,436030,1,0,0:0:0:0:
475,192,436030,1,0,0:0:0:0:
182,192,436030,1,0,0:0:0:0:
402,192,436030,1,0,0:0:0:0:
329,192,436107,1,0,0:0:0:0:
109,192,436184,1,0,0:0:0:0:
182,192,436184,1,0,0:0:0:0:
256,192,436184,1,0,0:0:0:0:
402,192,436261,1,0,0:0:0:0:
109,192,436338,1,0,0:0:0:0:
475,192,436338,1,0,0:0:0:0:
36,192,436338,1,0,0:0:0:0:
329,192,436338,1,0,0:0:0:0:
256,192,436338,1,0,0:0:0:0:
182,192,436415,1,0,0:0:0:0:
256,192,436492,1,0,0:0:0:0:
402,192,436492,1,0,0:0:0:0:
329,192,436492,1,0,0:0:0:0:
109,192,436569,1,0,0:0:0:0:
36,192,436645,1,0,0:0:0:0:
402,192,436645,1,0,0:0:0:0:
475,192,436645,1,0,0:0:0:0:
182,192,436645,1,0,0:0:0:0:
329,192,436645,1,0,0:0:0:0:
256,192,436722,1,0,0:0:0:0:
475,192,436799,1,0,0:0:0:0:
329,192,436799,1,0,0:0:0:0:
109,192,436799,1,0,0:0:0:0:
182,192,436876,1,0,0:0:0:0:
36,192,436953,1,0,0:0:0:0:
109,192,436953,1,0,0:0:0:0:
475,192,436953,1,0,0:0:0:0:
256,192,436953,1,0,0:0:0:0:
402,192,436953,1,0,0:0:0:0:
182,192,437030,1,0,0:0:0:0:
402,192,437107,1,0,0:0:0:0:
475,192,437107,1,0,0:0:0:0:
329,192,437107,1,0,0:0:0:0:
256,192,437184,1,0,0:0:0:0:
182,192,437261,1,0,0:0:0:0:
109,192,437261,1,0,0:0:0:0:
36,192,437261,1,0,0:0:0:0:
402,192,437338,1,0,0:0:0:0:
329,192,437338,1,0,0:0:0:0:
256,192,437338,1,0,0:0:0:0:
36,192,437415,1,0,0:0:0:0:
109,192,437415,1,0,0:0:0:0:
182,192,437415,1,0,0:0:0:0:
402,192,437492,1,0,0:0:0:0:
329,192,437492,1,0,0:0:0:0:
256,192,437492,1,0,0:0:0:0:
36,192,437569,1,0,0:0:0:0:
109,192,437569,1,0,0:0:0:0:
182,192,437569,1,0,0:0:0:0:
475,192,437645,1,0,0:0:0:0:
329,192,437645,1,0,0:0:0:0:
402,192,437645,1,0,0:0:0:0:
109,192,437722,1,0,0:0:0:0:
182,192,437722,1,0,0:0:0:0:
256,192,437722,1,0,0:0:0:0:
475,192,437799,1,0,0:0:0:0:
402,192,437799,1,0,0:0:0:0:
329,192,437799,1,0,0:0:0:0:
36,192,437876,1,0,0:0:0:0:
109,192,437876,1,0,0:0:0:0:
182,192,437876,1,0,0:0:0:0:
475,192,437953,1,0,0:0:0:0:
402,192,437953,1,0,0:0:0:0:
256,192,437953,1,0,0:0:0:0:
109,192,438030,1,0,0:0:0:0:
329,192,438030,1,0,0:0:0:0:
182,192,438030,1,0,0:0:0:0:
475,192,438107,1,0,0:0:0:0:
402,192,438107,1,0,0:0:0:0:
256,192,438107,1,0,0:0:0:0:
329,192,438184,1,0,0:0:0:0:
109,192,438184,1,0,0:0:0:0:
36,192,438184,1,0,0:0:0:0:
402,192,438261,1,0,0:0:0:0:
256,192,438261,1,0,0:0:0:0:
182,192,438261,1,0,0:0:0:0:
36,192,438338,1,0,0:0:0:0:
329,192,438338,1,0,0:0:0:0:
475,192,438338,1,0,0:0:0:0:
256,192,438415,1,0,0:0:0:0:
182,192,438415,1,0,0:0:0:0:
109,192,438492,1,0,0:0:0:0:
36,192,438492,1,0,0:0:0:0:
475,192,438492,1,0,0:0:0:0:
329,192,438492,1,0,0:0:0:0:
402,192,438492,1,0,0:0:0:0:
256,192,438569,1,0,0:0:0:0:
182,192,438645,1,0,0:0:0:0:
256,192,438722,1,0,0:0:0:0:
36,192,438799,1,0,0:0:0:0:
109,192,438799,1,0,0:0:0:0:
475,192,438799,1,0,0:0:0:0:
329,192,438799,1,0,0:0:0:0:
402,192,438799,1,0,0:0:0:0:
182,192,438876,1,0,0:0:0:0:
256,192,438953,1,0,0:0:0:0:
182,192,439030,1,0,0:0:0:0:
329,192,439107,1,0,0:0:0:0:
109,192,439107,1,0,0:0:0:0:
475,192,439415,1,0,0:0:0:0:
109,192,439415,1,0,0:0:0:0:
402,192,439415,1,0,0:0:0:0:
36,192,439415,1,0,0:0:0:0:
256,192,439415,1,0,0:0:0:0:
475,192,439722,1,0,0:0:0:0:
256,192,439722,1,0,0:0:0:0:
402,192,439722,1,0,0:0:0:0:
36,192,439722,1,0,0:0:0:0:
109,192,439722,1,0,0:0:0:0:
329,192,439799,1,0,0:0:0:0:
182,192,439799,1,0,0:0:0:0:
475,192,439876,1,0,0:0:0:0:
402,192,439876,1,0,0:0:0:0:
256,192,439876,1,0,0:0:0:0:
182,192,439953,1,0,0:0:0:0:
109,192,439953,1,0,0:0:0:0:
36,192,439953,1,0,0:0:0:0:
402,192,440030,1,0,0:0:0:0:
475,192,440030,1,0,0:0:0:0:
256,192,440030,1,0,0:0:0:0:
329,192,440030,1,0,0:0:0:0:
109,192,440107,1,0,0:0:0:0:
36,192,440107,1,0,0:0:0:0:
475,192,440184,1,0,0:0:0:0:
329,192,440184,1,0,0:0:0:0:
182,192,440184,1,0,0:0:0:0:
36,192,440261,1,0,0:0:0:0:
109,192,440261,1,0,0:0:0:0:
256,192,440261,1,0,0:0:0:0:
402,192,440338,1,0,0:0:0:0:
475,192,440338,1,0,0:0:0:0:
182,192,440338,1,0,0:0:0:0:
329,192,440338,1,0,0:0:0:0:
256,192,440415,1,0,0:0:0:0:
109,192,440415,1,0,0:0:0:0:
475,192,440492,1,0,0:0:0:0:
36,192,440492,1,0,0:0:0:0:
182,192,440492,1,0,0:0:0:0:
109,192,440569,1,0,0:0:0:0:
329,192,440569,1,0,0:0:0:0:
402,192,440569,1,0,0:0:0:0:
256,192,440645,1,0,0:0:0:0:
36,192,440645,1,0,0:0:0:0:
182,192,440645,1,0,0:0:0:0:
475,192,440645,1,0,0:0:0:0:
402,192,440722,1,0,0:0:0:0:
329,192,440722,1,0,0:0:0:0:
256,192,440799,1,0,0:0:0:0:
182,192,440799,1,0,0:0:0:0:
109,192,440799,1,0,0:0:0:0:
402,192,440876,1,0,0:0:0:0:
475,192,440876,1,0,0:0:0:0:
329,192,440876,1,0,0:0:0:0:
182,192,440953,1,0,0:0:0:0:
256,192,440953,1,0,0:0:0:0:
36,192,440953,1,0,0:0:0:0:
109,192,440953,1,0,0:0:0:0:
475,192,441030,1,0,0:0:0:0:
402,192,441030,1,0,0:0:0:0:
109,192,441107,1,0,0:0:0:0:
36,192,441107,1,0,0:0:0:0:
329,192,441107,1,0,0:0:0:0:
402,192,441184,1,0,0:0:0:0:
256,192,441184,1,0,0:0:0:0:
182,192,441184,1,0,0:0:0:0:
109,192,441261,1,0,0:0:0:0:
36,192,441261,1,0,0:0:0:0:
475,192,441261,1,0,0:0:0:0:
329,192,441261,1,0,0:0:0:0:
402,192,441338,1,0,0:0:0:0:
256,192,441338,1,0,0:0:0:0:
109,192,441415,1,0,0:0:0:0:
329,192,441415,1,0,0:0:0:0:
182,192,441415,1,0,0:0:0:0:
475,192,441492,1,0,0:0:0:0:
402,192,441492,1,0,0:0:0:0:
256,192,441492,1,0,0:0:0:0:
182,192,441569,1,0,0:0:0:0:
329,192,441569,1,0,0:0:0:0:
36,192,441569,1,0,0:0:0:0:
109,192,441569,1,0,0:0:0:0:
475,192,441645,1,0,0:0:0:0:
256,192,441645,1,0,0:0:0:0:
36,192,441722,1,0,0:0:0:0:
329,192,441722,1,0,0:0:0:0:
402,192,441722,1,0,0:0:0:0:
256,192,441799,1,0,0:0:0:0:
182,192,441799,1,0,0:0:0:0:
109,192,441799,1,0,0:0:0:0:
329,192,441876,1,0,0:0:0:0:
36,192,441876,1,0,0:0:0:0:
402,192,441876,1,0,0:0:0:0:
475,192,441876,1,0,0:0:0:0:
109,192,441953,1,0,0:0:0:0:
182,192,441953,1,0,0:0:0:0:
475,192,442030,1,0,0:0:0:0:
329,192,442030,1,0,0:0:0:0:
256,192,442030,1,0,0:0:0:0:
402,192,442107,1,0,0:0:0:0:
109,192,442107,1,0,0:0:0:0:
36,192,442107,1,0,0:0:0:0:
182,192,442184,1,0,0:0:0:0:
475,192,442184,1,0,0:0:0:0:
329,192,442184,1,0,0:0:0:0:
256,192,442184,1,0,0:0:0:0:
36,192,442261,1,0,0:0:0:0:
109,192,442261,1,0,0:0:0:0:
475,192,442338,1,0,0:0:0:0:
329,192,442338,1,0,0:0:0:0:
182,192,442338,1,0,0:0:0:0:
109,192,442415,1,0,0:0:0:0:
256,192,442415,1,0,0:0:0:0:
402,192,442415,1,0,0:0:0:0:
329,192,442492,1,0,0:0:0:0:
475,192,442492,1,0,0:0:0:0:
36,192,442492,1,0,0:0:0:0:
182,192,442492,1,0,0:0:0:0:
402,192,442569,1,0,0:0:0:0:
256,192,442569,1,0,0:0:0:0:
329,192,442645,1,0,0:0:0:0:
36,192,442645,1,0,0:0:0:0:
109,192,442645,1,0,0:0:0:0:
256,192,442722,1,0,0:0:0:0:
402,192,442722,1,0,0:0:0:0:
182,192,442722,1,0,0:0:0:0:
109,192,442799,1,0,0:0:0:0:
36,192,442799,1,0,0:0:0:0:
475,192,442799,1,0,0:0:0:0:
329,192,442799,1,0,0:0:0:0:
256,192,442876,1,0,0:0:0:0:
182,192,442876,1,0,0:0:0:0:
475,192,442953,1,0,0:0:0:0:
329,192,442953,1,0,0:0:0:0:
402,192,442953,1,0,0:0:0:0:
182,192,443030,1,0,0:0:0:0:
109,192,443030,1,0,0:0:0:0:
36,192,443030,1,0,0:0:0:0:
329,192,443107,1,0,0:0:0:0:
475,192,443107,1,0,0:0:0:0:
256,192,443107,1,0,0:0:0:0:
402,192,443107,1,0,0:0:0:0:
36,192,443184,1,0,0:0:0:0:
182,192,443184,1,0,0:0:0:0:
402,192,443261,1,0,0:0:0:0:
256,192,443261,1,0,0:0:0:0:
109,192,443261,1,0,0:0:0:0:
182,192,443338,1,0,0:0:0:0:
475,192,443338,1,0,0:0:0:0:
329,192,443338,1,0,0:0:0:0:
109,192,443415,1,0,0:0:0:0:
36,192,443415,1,0,0:0:0:0:
256,192,443415,1,0,0:0:0:0:
402,192,443415,1,0,0:0:0:0:
329,192,443492,1,0,0:0:0:0:
182,192,443492,1,0,0:0:0:0:
475,192,443569,1,0,0:0:0:0:
402,192,443569,1,0,0:0:0:0:
256,192,443569,1,0,0:0:0:0:
329,192,443645,1,0,0:0:0:0:
36,192,443645,1,0,0:0:0:0:
109,192,443645,1,0,0:0:0:0:
402,192,443722,1,0,0:0:0:0:
475,192,443722,1,0,0:0:0:0:
182,192,443722,1,0,0:0:0:0:
256,192,443722,1,0,0:0:0:0:
329,192,443799,1,0,0:0:0:0:
109,192,443799,1,0,0:0:0:0:
182,192,443876,1,0,0:0:0:0:
36,192,443876,1,0,0:0:0:0:
256,192,443876,1,0,0:0:0:0:
475,192,443953,1,0,0:0:0:0:
109,192,443953,1,0,0:0:0:0:
402,192,443953,1,0,0:0:0:0:
36,192,444030,1,0,0:0:0:0:
256,192,444030,1,0,0:0:0:0:
329,192,444030,1,0,0:0:0:0:
182,192,444030,1,0,0:0:0:0:
475,192,444107,1,0,0:0:0:0:
402,192,444107,1,0,0:0:0:0:
36,192,444184,1,0,0:0:0:0:
182,192,444184,1,0,0:0:0:0:
109,192,444184,1,0,0:0:0:0:
402,192,444261,1,0,0:0:0:0:
329,192,444261,1,0,0:0:0:0:
256,192,444261,1,0,0:0:0:0:
109,192,444338,1,0,0:0:0:0:
36,192,444338,1,0,0:0:0:0:
475,192,444338,1,0,0:0:0:0:
182,192,444338,1,0,0:0:0:0:
402,192,444415,1,0,0:0:0:0:
329,192,444415,1,0,0:0:0:0:
36,192,444492,1,0,0:0:0:0:
109,192,444492,1,0,0:0:0:0:
256,192,444492,1,0,0:0:0:0:
329,192,444569,1,0,0:0:0:0:
182,192,444569,1,0,0:0:0:0:
475,192,444645,1,0,0:0:0:0:
256,192,444645,1,0,0:0:0:0:
402,192,444645,1,0,0:0:0:0:
109,192,444722,1,0,0:0:0:0:
182,192,444722,1,0,0:0:0:0:
36,192,444722,1,0,0:0:0:0:
329,192,444799,1,0,0:0:0:0:
475,192,444799,1,0,0:0:0:0:
402,192,444799,1,0,0:0:0:0:
36,192,444876,1,0,0:0:0:0:
109,192,444876,1,0,0:0:0:0:
182,192,444876,1,0,0:0:0:0:
475,192,444953,1,0,0:0:0:0:
256,192,444953,1,0,0:0:0:0:
329,192,444953,1,0,0:0:0:0:
402,192,444953,1,0,0:0:0:0:
36,192,445030,1,0,0:0:0:0:
109,192,445030,1,0,0:0:0:0:
182,192,445030,1,0,0:0:0:0:
475,192,445107,1,0,0:0:0:0:
402,192,445107,1,0,0:0:0:0:
329,192,445107,1,0,0:0:0:0:
36,192,445184,1,0,0:0:0:0:
109,192,445184,1,0,0:0:0:0:
182,192,445184,1,0,0:0:0:0:
402,192,445261,1,0,0:0:0:0:
475,192,445261,1,0,0:0:0:0:
256,192,445261,1,0,0:0:0:0:
329,192,445261,1,0,0:0:0:0:
109,192,445338,1,0,0:0:0:0:
36,192,445338,1,0,0:0:0:0:
256,192,445415,1,0,0:0:0:0:
182,192,445415,1,0,0:0:0:0:
402,192,445492,1,0,0:0:0:0:
329,192,445492,1,0,0:0:0:0:
475,192,445569,1,0,0:0:0:0:
36,192,445569,1,0,0:0:0:0:
109,192,445645,1,0,0:0:0:0:
182,192,445645,1,0,0:0:0:0:
256,192,445722,1,0,0:0:0:0:
329,192,445722,1,0,0:0:0:0:
402,192,445799,1,0,0:0:0:0:
475,192,445799,1,0,0:0:0:0:
36,192,445876,1,0,0:0:0:0:
256,192,445876,1,0,0:0:0:0:
182,192,445876,1,0,0:0:0:0:
109,192,445876,1,0,0:0:0:0:
475,192,445953,1,0,0:0:0:0:
329,192,445953,1,0,0:0:0:0:
402,192,445953,1,0,0:0:0:0:
36,192,446030,1,0,0:0:0:0:
109,192,446030,1,0,0:0:0:0:
182,192,446030,1,0,0:0:0:0:
475,192,446107,1,0,0:0:0:0:
402,192,446107,1,0,0:0:0:0:
329,192,446107,1,0,0:0:0:0:
109,192,446184,1,0,0:0:0:0:
256,192,446184,1,0,0:0:0:0:
182,192,446184,1,0,0:0:0:0:
36,192,446184,1,0,0:0:0:0:
475,192,446261,1,0,0:0:0:0:
402,192,446261,1,0,0:0:0:0:
329,192,446261,1,0,0:0:0:0:
36,192,446338,1,0,0:0:0:0:
109,192,446338,1,0,0:0:0:0:
182,192,446338,1,0,0:0:0:0:
475,192,446415,1,0,0:0:0:0:
402,192,446415,1,0,0:0:0:0:
329,192,446415,1,0,0:0:0:0:
109,192,446492,1,0,0:0:0:0:
36,192,446492,1,0,0:0:0:0:
256,192,446492,1,0,0:0:0:0:
182,192,446492,1,0,0:0:0:0:
475,192,446569,1,0,0:0:0:0:
402,192,446569,1,0,0:0:0:0:
256,192,446645,1,0,0:0:0:0:
329,192,446645,1,0,0:0:0:0:
109,192,446722,1,0,0:0:0:0:
182,192,446722,1,0,0:0:0:0:
475,192,446799,1,0,0:0:0:0:
36,192,446799,1,0,0:0:0:0:
402,192,446876,1,0,0:0:0:0:
329,192,446876,1,0,0:0:0:0:
182,192,446953,1,0,0:0:0:0:
256,192,446953,1,0,0:0:0:0:
36,192,447030,1,0,0:0:0:0:
109,192,447030,1,0,0:0:0:0:
475,192,447107,1,0,0:0:0:0:
402,192,447107,1,0,0:0:0:0:
329,192,447107,1,0,0:0:0:0:
256,192,447107,1,0,0:0:0:0:
182,192,447184,1,0,0:0:0:0:
109,192,447261,1,0,0:0:0:0:
36,192,447261,1,0,0:0:0:0:
182,192,447338,1,0,0:0:0:0:
256,192,447338,1,0,0:0:0:0:
475,192,447415,1,0,0:0:0:0:
402,192,447415,1,0,0:0:0:0:
329,192,447415,1,0,0:0:0:0:
109,192,447492,1,0,0:0:0:0:
256,192,447569,1,0,0:0:0:0:
182,192,447569,1,0,0:0:0:0:
475,192,447645,1,0,0:0:0:0:
329,192,447645,1,0,0:0:0:0:
36,192,447722,1,0,0:0:0:0:
109,192,447722,1,0,0:0:0:0:
402,192,447722,1,0,0:0:0:0:
182,192,447799,1,0,0:0:0:0:
329,192,447876,1,0,0:0:0:0:
256,192,447876,1,0,0:0:0:0:
36,192,447953,1,0,0:0:0:0:
109,192,447953,1,0,0:0:0:0:
475,192,448030,1,0,0:0:0:0:
402,192,448030,1,0,0:0:0:0:
182,192,448030,1,0,0:0:0:0:
329,192,448107,1,0,0:0:0:0:
109,192,448184,1,0,0:0:0:0:
256,192,448184,1,0,0:0:0:0:
182,192,448261,1,0,0:0:0:0:
36,192,448261,1,0,0:0:0:0:
475,192,448338,1,0,0:0:0:0:
402,192,448338,1,0,0:0:0:0:
329,192,448338,1,0,0:0:0:0:
402,192,449569,1,0,0:0:0:0:
475,192,449569,1,0,0:0:0:0:
329,192,449569,1,0,0:0:0:0:
109,192,449569,1,0,0:0:0:0:
256,192,449569,1,0,0:0:0:0:
256,192,449722,1,0,0:0:0:0:
109,192,449722,1,0,0:0:0:0:
36,192,449876,1,0,0:0:0:0:
182,192,449876,1,0,0:0:0:0:
402,192,450030,1,0,0:0:0:0:
475,192,450030,1,0,0:0:0:0:
329,192,450030,1,0,0:0:0:0:
109,192,450030,1,0,0:0:0:0:
256,192,450030,1,0,0:0:0:0:
36,192,450184,1,0,0:0:0:0:
182,192,450184,1,0,0:0:0:0:
475,192,450338,1,0,0:0:0:0:
109,192,450338,1,0,0:0:0:0:
256,192,450338,1,0,0:0:0:0:
402,192,450338,1,0,0:0:0:0:
402,192,450492,1,0,0:0:0:0:
329,192,450492,1,0,0:0:0:0:
36,192,450492,1,0,0:0:0:0:
109,192,450492,1,0,0:0:0:0:
475,192,450569,1,0,0:0:0:0:
256,192,450569,1,0,0:0:0:0:
182,192,450569,1,0,0:0:0:0:
36,192,450645,1,0,0:0:0:0:
329,192,450645,1,0,0:0:0:0:
402,192,450645,1,0,0:0:0:0:
256,192,450722,1,0,0:0:0:0:
182,192,450722,1,0,0:0:0:0:
109,192,450722,1,0,0:0:0:0:
475,192,450799,1,0,0:0:0:0:
36,192,450799,1,0,0:0:0:0:
329,192,450799,1,0,0:0:0:0:
402,192,450799,1,0,0:0:0:0:
402,192,450953,1,0,0:0:0:0:
475,192,450953,1,0,0:0:0:0:
36,192,450953,1,0,0:0:0:0:
329,192,450953,1,0,0:0:0:0:
402,192,451107,1,0,0:0:0:0:
475,192,451107,1,0,0:0:0:0:
256,192,451107,1,0,0:0:0:0:
109,192,451107,1,0,0:0:0:0:
182,192,451107,1,0,0:0:0:0:
256,192,451261,1,0,0:0:0:0:
475,192,451261,1,0,0:0:0:0:
36,192,451261,1,0,0:0:0:0:
109,192,451261,1,0,0:0:0:0:
402,192,451338,1,0,0:0:0:0:
329,192,451338,1,0,0:0:0:0:
182,192,451338,1,0,0:0:0:0:
36,192,451415,1,0,0:0:0:0:
256,192,451415,1,0,0:0:0:0:
109,192,451415,1,0,0:0:0:0:
182,192,451492,1,0,0:0:0:0:
475,192,451492,1,0,0:0:0:0:
329,192,451492,1,0,0:0:0:0:
36,192,451569,1,0,0:0:0:0:
402,192,451569,1,0,0:0:0:0:
256,192,451569,1,0,0:0:0:0:
329,192,451645,1,0,0:0:0:0:
109,192,451645,1,0,0:0:0:0:
256,192,451722,1,0,0:0:0:0:
402,192,451722,1,0,0:0:0:0:
182,192,451722,1,0,0:0:0:0:
475,192,451722,1,0,0:0:0:0:
256,192,451876,1,0,0:0:0:0:
402,192,451876,1,0,0:0:0:0:
109,192,451876,1,0,0:0:0:0:
36,192,451876,1,0,0:0:0:0:
182,192,451953,1,0,0:0:0:0:
329,192,451953,1,0,0:0:0:0:
36,192,452030,1,0,0:0:0:0:
109,192,452030,1,0,0:0:0:0:
475,192,452030,1,0,0:0:0:0:
256,192,452030,1,0,0:0:0:0:
402,192,452030,1,0,0:0:0:0:
256,192,452184,1,0,0:0:0:0:
109,192,452184,1,0,0:0:0:0:
36,192,452338,1,0,0:0:0:0:
182,192,452338,1,0,0:0:0:0:
475,192,452492,1,0,0:0:0:0:
36,192,452492,1,0,0:0:0:0:
402,192,452492,1,0,0:0:0:0:
109,192,452492,1,0,0:0:0:0:
256,192,452492,1,0,0:0:0:0:
182,192,452645,1,0,0:0:0:0:
36,192,452645,1,0,0:0:0:0:
402,192,452799,1,0,0:0:0:0:
109,192,452799,1,0,0:0:0:0:
256,192,452799,1,0,0:0:0:0:
329,192,452799,1,0,0:0:0:0:
402,192,452953,1,0,0:0:0:0:
329,192,452953,1,0,0:0:0:0:
475,192,452953,1,0,0:0:0:0:
182,192,452953,1,0,0:0:0:0:
36,192,453030,1,0,0:0:0:0:
256,192,453030,1,0,0:0:0:0:
109,192,453030,1,0,0:0:0:0:
182,192,453107,1,0,0:0:0:0:
329,192,453107,1,0,0:0:0:0:
402,192,453107,1,0,0:0:0:0:
256,192,453184,1,0,0:0:0:0:
475,192,453184,1,0,0:0:0:0:
109,192,453184,1,0,0:0:0:0:
182,192,453261,1,0,0:0:0:0:
36,192,453261,1,0,0:0:0:0:
329,192,453261,1,0,0:0:0:0:
402,192,453261,1,0,0:0:0:0:
402,192,453415,1,0,0:0:0:0:
182,192,453415,1,0,0:0:0:0:
36,192,453415,1,0,0:0:0:0:
329,192,453415,1,0,0:0:0:0:
402,192,453569,1,0,0:0:0:0:
475,192,453569,1,0,0:0:0:0:
36,192,453569,1,0,0:0:0:0:
109,192,453569,1,0,0:0:0:0:
256,192,453569,1,0,0:0:0:0:
329,192,453722,1,0,0:0:0:0:
402,192,453722,1,0,0:0:0:0:
36,192,453722,1,0,0:0:0:0:
182,192,453722,1,0,0:0:0:0:
475,192,453799,1,0,0:0:0:0:
256,192,453799,1,0,0:0:0:0:
109,192,453799,1,0,0:0:0:0:
36,192,453876,1,0,0:0:0:0:
182,192,453876,1,0,0:0:0:0:
329,192,453876,1,0,0:0:0:0:
256,192,453953,1,0,0:0:0:0:
475,192,453953,1,0,0:0:0:0:
402,192,453953,1,0,0:0:0:0:
36,192,454030,1,0,0:0:0:0:
329,192,454030,1,0,0:0:0:0:
109,192,454030,1,0,0:0:0:0:
256,192,454107,1,0,0:0:0:0:
182,192,454107,1,0,0:0:0:0:
475,192,454184,1,0,0:0:0:0:
329,192,454184,1,0,0:0:0:0:
109,192,454184,1,0,0:0:0:0:
402,192,454184,1,0,0:0:0:0:
256,192,454338,1,0,0:0:0:0:
402,192,454338,1,0,0:0:0:0:
109,192,454338,1,0,0:0:0:0:
36,192,454338,1,0,0:0:0:0:
182,192,454415,1,0,0:0:0:0:
329,192,454415,1,0,0:0:0:0:
36,192,454492,1,0,0:0:0:0:
109,192,454492,1,0,0:0:0:0:
475,192,454492,1,0,0:0:0:0:
256,192,454492,1,0,0:0:0:0:
402,192,454492,1,0,0:0:0:0:
329,192,454645,1,0,0:0:0:0:
182,192,454645,1,0,0:0:0:0:
109,192,454799,1,0,0:0:0:0:
256,192,454799,1,0,0:0:0:0:
475,192,454953,1,0,0:0:0:0:
36,192,454953,1,0,0:0:0:0:
402,192,454953,1,0,0:0:0:0:
182,192,454953,1,0,0:0:0:0:
329,192,454953,1,0,0:0:0:0:
182,192,455107,1,0,0:0:0:0:
329,192,455107,1,0,0:0:0:0:
402,192,455261,1,0,0:0:0:0:
109,192,455261,1,0,0:0:0:0:
256,192,455261,1,0,0:0:0:0:
475,192,455261,1,0,0:0:0:0:
36,192,455415,1,0,0:0:0:0:
109,192,455415,1,0,0:0:0:0:
256,192,455415,1,0,0:0:0:0:
329,192,455415,1,0,0:0:0:0:
402,192,455492,1,0,0:0:0:0:
182,192,455492,1,0,0:0:0:0:
475,192,455492,1,0,0:0:0:0:
109,192,455569,1,0,0:0:0:0:
256,192,455569,1,0,0:0:0:0:
36,192,455569,1,0,0:0:0:0:
402,192,455645,1,0,0:0:0:0:
329,192,455645,1,0,0:0:0:0:
182,192,455645,1,0,0:0:0:0:
256,192,455722,1,0,0:0:0:0:
109,192,455722,1,0,0:0:0:0:
475,192,455722,1,0,0:0:0:0:
36,192,455722,1,0,0:0:0:0:
109,192,455876,1,0,0:0:0:0:
256,192,455876,1,0,0:0:0:0:
36,192,455876,1,0,0:0:0:0:
475,192,455876,1,0,0:0:0:0:
36,192,456030,1,0,0:0:0:0:
182,192,456030,1,0,0:0:0:0:
329,192,456030,1,0,0:0:0:0:
402,192,456030,1,0,0:0:0:0:
475,192,456030,1,0,0:0:0:0:
36,192,456184,1,0,0:0:0:0:
182,192,456184,1,0,0:0:0:0:
329,192,456184,1,0,0:0:0:0:
475,192,456184,1,0,0:0:0:0:
256,192,456261,1,0,0:0:0:0:
402,192,456261,1,0,0:0:0:0:
109,192,456261,1,0,0:0:0:0:
182,192,456338,1,0,0:0:0:0:
329,192,456338,1,0,0:0:0:0:
36,192,456338,1,0,0:0:0:0:
402,192,456415,1,0,0:0:0:0:
475,192,456415,1,0,0:0:0:0:
256,192,456415,1,0,0:0:0:0:
182,192,456492,1,0,0:0:0:0:
329,192,456492,1,0,0:0:0:0:
109,192,456492,1,0,0:0:0:0:
256,192,456569,1,0,0:0:0:0:
402,192,456569,1,0,0:0:0:0:
182,192,456645,1,0,0:0:0:0:
329,192,456645,1,0,0:0:0:0:
475,192,456645,1,0,0:0:0:0:
36,192,456645,1,0,0:0:0:0:
475,192,456799,1,0,0:0:0:0:
329,192,456799,1,0,0:0:0:0:
256,192,456799,1,0,0:0:0:0:
109,192,456799,1,0,0:0:0:0:
402,192,456876,1,0,0:0:0:0:
182,192,456876,1,0,0:0:0:0:
256,192,456953,1,0,0:0:0:0:
329,192,456953,1,0,0:0:0:0:
475,192,456953,1,0,0:0:0:0:
36,192,456953,1,0,0:0:0:0:
109,192,456953,1,0,0:0:0:0:
109,192,457107,1,0,0:0:0:0:
256,192,457107,1,0,0:0:0:0:
182,192,457261,1,0,0:0:0:0:
36,192,457261,1,0,0:0:0:0:
109,192,457415,1,0,0:0:0:0:
256,192,457415,1,0,0:0:0:0:
402,192,457415,1,0,0:0:0:0:
475,192,457415,1,0,0:0:0:0:
36,192,457415,1,0,0:0:0:0:
36,192,457569,1,0,0:0:0:0:
182,192,457569,1,0,0:0:0:0:
256,192,457722,1,0,0:0:0:0:
329,192,457722,1,0,0:0:0:0:
402,192,457722,1,0,0:0:0:0:
109,192,457722,1,0,0:0:0:0:
36,192,457876,1,0,0:0:0:0:
182,192,457876,1,0,0:0:0:0:
475,192,457876,1,0,0:0:0:0:
329,192,457876,1,0,0:0:0:0:
256,192,457953,1,0,0:0:0:0:
109,192,457953,1,0,0:0:0:0:
402,192,457953,1,0,0:0:0:0:
182,192,458030,1,0,0:0:0:0:
329,192,458030,1,0,0:0:0:0:
36,192,458030,1,0,0:0:0:0:
402,192,458107,1,0,0:0:0:0:
256,192,458107,1,0,0:0:0:0:
475,192,458107,1,0,0:0:0:0:
182,192,458184,1,0,0:0:0:0:
109,192,458184,1,0,0:0:0:0:
329,192,458184,1,0,0:0:0:0:
36,192,458184,1,0,0:0:0:0:
182,192,458338,1,0,0:0:0:0:
329,192,458338,1,0,0:0:0:0:
36,192,458338,1,0,0:0:0:0:
109,192,458338,1,0,0:0:0:0:
36,192,458492,1,0,0:0:0:0:
109,192,458492,1,0,0:0:0:0:
256,192,458492,1,0,0:0:0:0:
402,192,458492,1,0,0:0:0:0:
475,192,458492,1,0,0:0:0:0:
256,192,458645,1,0,0:0:0:0:
182,192,458645,1,0,0:0:0:0:
402,192,458645,1,0,0:0:0:0:
475,192,458645,1,0,0:0:0:0:
36,192,458722,1,0,0:0:0:0:
329,192,458722,1,0,0:0:0:0:
109,192,458722,1,0,0:0:0:0:
182,192,458799,1,0,0:0:0:0:
256,192,458799,1,0,0:0:0:0:
475,192,458799,1,0,0:0:0:0:
329,192,458876,1,0,0:0:0:0:
402,192,458876,1,0,0:0:0:0:
109,192,458876,1,0,0:0:0:0:
182,192,458953,1,0,0:0:0:0:
475,192,458953,1,0,0:0:0:0:
36,192,458953,1,0,0:0:0:0:
256,192,459030,1,0,0:0:0:0:
109,192,459030,1,0,0:0:0:0:
182,192,459107,1,0,0:0:0:0:
329,192,459107,1,0,0:0:0:0:
475,192,459107,1,0,0:0:0:0:
36,192,459107,1,0,0:0:0:0:
36,192,459261,1,0,0:0:0:0:
329,192,459261,1,0,0:0:0:0:
475,192,459261,1,0,0:0:0:0:
182,192,459261,1,0,0:0:0:0:
256,192,459338,1,0,0:0:0:0:
109,192,459338,1,0,0:0:0:0:
402,192,459415,1,0,0:0:0:0:
329,192,459415,1,0,0:0:0:0:
475,192,459415,1,0,0:0:0:0:
36,192,459415,1,0,0:0:0:0:
182,192,459415,1,0,0:0:0:0:
402,192,459569,1,0,0:0:0:0:
256,192,459569,1,0,0:0:0:0:
36,192,459722,1,0,0:0:0:0:
182,192,459722,1,0,0:0:0:0:
329,192,459876,1,0,0:0:0:0:
475,192,459876,1,0,0:0:0:0:
402,192,459876,1,0,0:0:0:0:
36,192,459876,1,0,0:0:0:0:
182,192,459876,1,0,0:0:0:0:
402,192,460030,1,0,0:0:0:0:
256,192,460030,1,0,0:0:0:0:
329,192,460184,1,0,0:0:0:0:
475,192,460184,1,0,0:0:0:0:
182,192,460184,1,0,0:0:0:0:
109,192,460184,1,0,0:0:0:0:
402,192,460338,1,0,0:0:0:0:
256,192,460338,1,0,0:0:0:0:
36,192,460338,1,0,0:0:0:0:
109,192,460338,1,0,0:0:0:0:
475,192,460415,1,0,0:0:0:0:
182,192,460415,1,0,0:0:0:0:
329,192,460415,1,0,0:0:0:0:
36,192,460492,1,0,0:0:0:0:
402,192,460492,1,0,0:0:0:0:
256,192,460492,1,0,0:0:0:0:
182,192,460569,1,0,0:0:0:0:
329,192,460569,1,0,0:0:0:0:
109,192,460569,1,0,0:0:0:0:
475,192,460645,1,0,0:0:0:0:
36,192,460645,1,0,0:0:0:0:
256,192,460645,1,0,0:0:0:0:
402,192,460645,1,0,0:0:0:0:
36,192,460799,1,0,0:0:0:0:
402,192,460799,1,0,0:0:0:0:
475,192,460799,1,0,0:0:0:0:
256,192,460799,1,0,0:0:0:0:
109,192,460953,1,0,0:0:0:0:
475,192,460953,1,0,0:0:0:0:
329,192,460953,1,0,0:0:0:0:
36,192,460953,1,0,0:0:0:0:
182,192,460953,1,0,0:0:0:0:
329,192,461107,1,0,0:0:0:0:
402,192,461107,1,0,0:0:0:0:
182,192,461107,1,0,0:0:0:0:
36,192,461107,1,0,0:0:0:0:
475,192,461184,1,0,0:0:0:0:
109,192,461184,1,0,0:0:0:0:
256,192,461184,1,0,0:0:0:0:
36,192,461261,1,0,0:0:0:0:
329,192,461261,1,0,0:0:0:0:
182,192,461261,1,0,0:0:0:0:
256,192,461338,1,0,0:0:0:0:
109,192,461338,1,0,0:0:0:0:
475,192,461338,1,0,0:0:0:0:
182,192,461415,1,0,0:0:0:0:
329,192,461415,1,0,0:0:0:0:
402,192,461415,1,0,0:0:0:0:
36,192,461492,1,0,0:0:0:0:
256,192,461492,1,0,0:0:0:0:
475,192,461569,1,0,0:0:0:0:
109,192,461569,1,0,0:0:0:0:
182,192,461569,1,0,0:0:0:0:
402,192,461569,1,0,0:0:0:0:
256,192,461722,1,0,0:0:0:0:
329,192,461722,1,0,0:0:0:0:
36,192,461722,1,0,0:0:0:0:
475,192,461722,1,0,0:0:0:0:
182,192,461799,1,0,0:0:0:0:
109,192,461799,1,0,0:0:0:0:
36,192,461876,1,0,0:0:0:0:
402,192,461876,1,0,0:0:0:0:
475,192,461876,1,0,0:0:0:0:
256,192,461876,1,0,0:0:0:0:
329,192,461876,1,0,0:0:0:0:
329,192,462030,1,0,0:0:0:0:
182,192,462030,1,0,0:0:0:0:
36,192,462184,1,0,0:0:0:0:
109,192,462184,1,0,0:0:0:0:
475,192,462338,1,0,0:0:0:0:
36,192,462338,1,0,0:0:0:0:
402,192,462338,1,0,0:0:0:0:
256,192,462338,1,0,0:0:0:0:
329,192,462338,1,0,0:0:0:0:
329,192,462492,1,0,0:0:0:0:
182,192,462492,1,0,0:0:0:0:
402,192,462645,1,0,0:0:0:0:
475,192,462645,1,0,0:0:0:0:
109,192,462645,1,0,0:0:0:0:
36,192,462645,1,0,0:0:0:0:
475,192,462799,1,0,0:0:0:0:
109,192,462799,1,0,0:0:0:0:
256,192,462799,1,0,0:0:0:0:
329,192,462799,1,0,0:0:0:0:
402,192,462876,1,0,0:0:0:0:
182,192,462876,1,0,0:0:0:0:
36,192,462876,1,0,0:0:0:0:
109,192,462953,1,0,0:0:0:0:
475,192,462953,1,0,0:0:0:0:
329,192,462953,1,0,0:0:0:0:
402,192,463030,1,0,0:0:0:0:
256,192,463030,1,0,0:0:0:0:
182,192,463030,1,0,0:0:0:0:
329,192,463107,1,0,0:0:0:0:
109,192,463107,1,0,0:0:0:0:
475,192,463107,1,0,0:0:0:0:
36,192,463107,1,0,0:0:0:0:
36,192,463261,1,0,0:0:0:0:
329,192,463261,1,0,0:0:0:0:
109,192,463261,1,0,0:0:0:0:
475,192,463261,1,0,0:0:0:0:
36,192,463415,1,0,0:0:0:0:
182,192,463415,1,0,0:0:0:0:
109,192,463415,1,0,0:0:0:0:
402,192,463415,1,0,0:0:0:0:
256,192,463415,1,0,0:0:0:0:
109,192,463569,1,0,0:0:0:0:
182,192,463569,1,0,0:0:0:0:
329,192,463569,1,0,0:0:0:0:
475,192,463569,1,0,0:0:0:0:
256,192,463645,1,0,0:0:0:0:
402,192,463645,1,0,0:0:0:0:
36,192,463645,1,0,0:0:0:0:
182,192,463722,1,0,0:0:0:0:
475,192,463722,1,0,0:0:0:0:
109,192,463722,1,0,0:0:0:0:
402,192,463799,1,0,0:0:0:0:
329,192,463799,1,0,0:0:0:0:
256,192,463799,1,0,0:0:0:0:
182,192,463876,1,0,0:0:0:0:
36,192,463876,1,0,0:0:0:0:
109,192,463876,1,0,0:0:0:0:
329,192,463953,1,0,0:0:0:0:
402,192,463953,1,0,0:0:0:0:
182,192,464030,1,0,0:0:0:0:
256,192,464030,1,0,0:0:0:0:
475,192,464030,1,0,0:0:0:0:
36,192,464030,1,0,0:0:0:0:
36,192,464184,1,0,0:0:0:0:
402,192,464184,1,0,0:0:0:0:
256,192,464184,1,0,0:0:0:0:
475,192,464184,1,0,0:0:0:0:
329,192,464261,1,0,0:0:0:0:
109,192,464261,1,0,0:0:0:0:
182,192,464338,1,0,0:0:0:0:
256,192,464338,1,0,0:0:0:0:
475,192,464338,1,0,0:0:0:0:
36,192,464338,1,0,0:0:0:0:
402,192,464338,1,0,0:0:0:0:
182,192,464492,1,0,0:0:0:0:
109,192,464492,1,0,0:0:0:0:
109,192,464645,1,0,0:0:0:0:
36,192,464645,1,0,0:0:0:0:
402,192,464799,1,0,0:0:0:0:
475,192,464799,1,0,0:0:0:0:
256,192,464799,1,0,0:0:0:0:
36,192,464799,1,0,0:0:0:0:
182,192,464799,1,0,0:0:0:0:
182,192,464953,1,0,0:0:0:0:
109,192,464953,1,0,0:0:0:0:
475,192,465107,1,0,0:0:0:0:
36,192,465107,1,0,0:0:0:0:
256,192,465107,1,0,0:0:0:0:
329,192,465107,1,0,0:0:0:0:
475,192,465261,1,0,0:0:0:0:
329,192,465261,1,0,0:0:0:0:
36,192,465261,1,0,0:0:0:0:
182,192,465261,1,0,0:0:0:0:
256,192,465338,1,0,0:0:0:0:
109,192,465338,1,0,0:0:0:0:
402,192,465338,1,0,0:0:0:0:
36,192,465415,1,0,0:0:0:0:
182,192,465415,1,0,0:0:0:0:
329,192,465415,1,0,0:0:0:0:
256,192,465492,1,0,0:0:0:0:
475,192,465492,1,0,0:0:0:0:
402,192,465492,1,0,0:0:0:0:
329,192,465569,1,0,0:0:0:0:
36,192,465569,1,0,0:0:0:0:
182,192,465569,1,0,0:0:0:0:
109,192,465569,1,0,0:0:0:0:
36,192,465722,1,0,0:0:0:0:
329,192,465722,1,0,0:0:0:0:
109,192,465722,1,0,0:0:0:0:
182,192,465722,1,0,0:0:0:0:
402,192,465876,1,0,0:0:0:0:
475,192,465876,1,0,0:0:0:0:
329,192,465876,1,0,0:0:0:0:
109,192,465876,1,0,0:0:0:0:
182,192,465876,1,0,0:0:0:0:
256,192,466030,1,0,0:0:0:0:
402,192,466030,1,0,0:0:0:0:
36,192,466030,1,0,0:0:0:0:
182,192,466030,1,0,0:0:0:0:
329,192,466107,1,0,0:0:0:0:
475,192,466107,1,0,0:0:0:0:
109,192,466107,1,0,0:0:0:0:
36,192,466184,1,0,0:0:0:0:
256,192,466184,1,0,0:0:0:0:
182,192,466184,1,0,0:0:0:0:
329,192,466261,1,0,0:0:0:0:
475,192,466261,1,0,0:0:0:0:
402,192,466261,1,0,0:0:0:0:
256,192,466338,1,0,0:0:0:0:
36,192,466338,1,0,0:0:0:0:
109,192,466338,1,0,0:0:0:0:
329,192,466415,1,0,0:0:0:0:
182,192,466415,1,0,0:0:0:0:
475,192,466492,1,0,0:0:0:0:
109,192,466492,1,0,0:0:0:0:
256,192,466492,1,0,0:0:0:0:
402,192,466492,1,0,0:0:0:0:
182,192,466645,1,0,0:0:0:0:
36,192,466645,1,0,0:0:0:0:
475,192,466645,1,0,0:0:0:0:
329,192,466645,1,0,0:0:0:0:
256,192,466722,1,0,0:0:0:0:
402,192,466722,1,0,0:0:0:0:
36,192,466799,1,0,0:0:0:0:
109,192,466799,1,0,0:0:0:0:
475,192,466799,1,0,0:0:0:0:
182,192,466799,1,0,0:0:0:0:
329,192,466799,1,0,0:0:0:0:
475,192,466953,1,0,0:0:0:0:
329,192,466953,1,0,0:0:0:0:
109,192,467107,1,0,0:0:0:0:
256,192,467107,1,0,0:0:0:0:
109,192,467261,1,0,0:0:0:0:
36,192,467261,1,0,0:0:0:0:
475,192,467261,1,0,0:0:0:0:
182,192,467261,1,0,0:0:0:0:
329,192,467261,1,0,0:0:0:0:
475,192,467415,1,0,0:0:0:0:
329,192,467415,1,0,0:0:0:0:
109,192,467569,1,0,0:0:0:0:
256,192,467569,1,0,0:0:0:0:
329,192,467722,1,0,0:0:0:0:
475,192,467722,1,0,0:0:0:0:
182,192,467722,1,0,0:0:0:0:
36,192,467722,1,0,0:0:0:0:
256,192,467799,1,0,0:0:0:0:
109,192,467799,1,0,0:0:0:0:
402,192,467876,1,0,0:0:0:0:
182,192,467876,1,0,0:0:0:0:
329,192,467876,1,0,0:0:0:0:
109,192,467953,1,0,0:0:0:0:
256,192,467953,1,0,0:0:0:0:
402,192,468030,1,0,0:0:0:0:
475,192,468030,1,0,0:0:0:0:
36,192,468030,1,0,0:0:0:0:
182,192,468030,1,0,0:0:0:0:
329,192,468184,1,0,0:0:0:0:
402,192,468184,1,0,0:0:0:0:
109,192,468184,1,0,0:0:0:0:
182,192,468184,1,0,0:0:0:0:
329,192,468338,1,0,0:0:0:0:
475,192,468338,1,0,0:0:0:0:
256,192,468338,1,0,0:0:0:0:
36,192,468338,1,0,0:0:0:0:
109,192,468338,1,0,0:0:0:0:
256,192,468492,1,0,0:0:0:0:
36,192,468492,1,0,0:0:0:0:
182,192,468492,1,0,0:0:0:0:
475,192,468569,1,0,0:0:0:0:
329,192,468569,1,0,0:0:0:0:
402,192,468569,1,0,0:0:0:0:
36,192,468645,1,0,0:0:0:0:
109,192,468645,1,0,0:0:0:0:
182,192,468645,1,0,0:0:0:0:
402,192,468722,1,0,0:0:0:0:
256,192,468722,1,0,0:0:0:0:
109,192,468799,1,0,0:0:0:0:
182,192,468799,1,0,0:0:0:0:
329,192,468799,1,0,0:0:0:0:
36,192,468953,1,0,0:0:0:0:
182,192,468953,1,0,0:0:0:0:
475,192,468953,1,0,0:0:0:0:
256,192,468953,1,0,0:0:0:0:
402,192,468953,1,0,0:0:0:0:
256,192,469107,1,0,0:0:0:0:
36,192,469107,1,0,0:0:0:0:
109,192,469107,1,0,0:0:0:0:
329,192,469184,1,0,0:0:0:0:
182,192,469184,1,0,0:0:0:0:
109,192,469261,1,0,0:0:0:0:
36,192,469261,1,0,0:0:0:0:
475,192,469261,1,0,0:0:0:0:
402,192,469261,1,0,0:0:0:0:
256,192,469261,1,0,0:0:0:0:
256,192,469415,1,0,0:0:0:0:
402,192,469415,1,0,0:0:0:0:
475,192,469569,1,0,0:0:0:0:
329,192,469569,1,0,0:0:0:0:
109,192,469722,1,0,0:0:0:0:
36,192,469722,1,0,0:0:0:0:
475,192,469722,1,0,0:0:0:0:
402,192,469722,1,0,0:0:0:0:
256,192,469722,1,0,0:0:0:0:
475,192,469876,1,0,0:0:0:0:
329,192,469876,1,0,0:0:0:0:
36,192,470030,1,0,0:0:0:0:
402,192,470030,1,0,0:0:0:0:
256,192,470030,1,0,0:0:0:0:
109,192,470030,1,0,0:0:0:0:
109,192,470184,1,0,0:0:0:0:
182,192,470184,1,0,0:0:0:0:
475,192,470184,1,0,0:0:0:0:
402,192,470184,1,0,0:0:0:0:
36,192,470261,1,0,0:0:0:0:
256,192,470261,1,0,0:0:0:0:
329,192,470261,1,0,0:0:0:0:
475,192,470338,1,0,0:0:0:0:
182,192,470338,1,0,0:0:0:0:
109,192,470338,1,0,0:0:0:0:
256,192,470415,1,0,0:0:0:0:
329,192,470415,1,0,0:0:0:0:
402,192,470415,1,0,0:0:0:0:
36,192,470492,1,0,0:0:0:0:
475,192,470492,1,0,0:0:0:0:
182,192,470492,1,0,0:0:0:0:
109,192,470492,1,0,0:0:0:0:
109,192,470645,1,0,0:0:0:0:
36,192,470645,1,0,0:0:0:0:
475,192,470645,1,0,0:0:0:0:
182,192,470645,1,0,0:0:0:0:
109,192,470799,1,0,0:0:0:0:
36,192,470799,1,0,0:0:0:0:
256,192,470799,1,0,0:0:0:0:
402,192,470799,1,0,0:0:0:0:
329,192,470799,1,0,0:0:0:0:
256,192,470953,1,0,0:0:0:0:
36,192,470953,1,0,0:0:0:0:
475,192,470953,1,0,0:0:0:0:
402,192,470953,1,0,0:0:0:0:
109,192,471030,1,0,0:0:0:0:
182,192,471030,1,0,0:0:0:0:
329,192,471030,1,0,0:0:0:0:
475,192,471107,1,0,0:0:0:0:
256,192,471107,1,0,0:0:0:0:
402,192,471107,1,0,0:0:0:0:
329,192,471184,1,0,0:0:0:0:
36,192,471184,1,0,0:0:0:0:
182,192,471184,1,0,0:0:0:0:
475,192,471261,1,0,0:0:0:0:
109,192,471261,1,0,0:0:0:0:
256,192,471261,1,0,0:0:0:0:
182,192,471338,1,0,0:0:0:0:
402,192,471338,1,0,0:0:0:0:
256,192,471415,1,0,0:0:0:0:
109,192,471415,1,0,0:0:0:0:
329,192,471415,1,0,0:0:0:0:
36,192,471415,1,0,0:0:0:0:
256,192,471569,1,0,0:0:0:0:
109,192,471569,1,0,0:0:0:0:
402,192,471569,1,0,0:0:0:0:
475,192,471569,1,0,0:0:0:0:
329,192,471645,1,0,0:0:0:0:
182,192,471645,1,0,0:0:0:0:
475,192,471722,1,0,0:0:0:0:
402,192,471722,1,0,0:0:0:0:
36,192,471722,1,0,0:0:0:0:
256,192,471722,1,0,0:0:0:0:
109,192,471722,1,0,0:0:0:0:
256,192,471876,1,0,0:0:0:0:
402,192,471876,1,0,0:0:0:0:
475,192,472030,1,0,0:0:0:0:
329,192,472030,1,0,0:0:0:0:
36,192,472184,1,0,0:0:0:0:
475,192,472184,1,0,0:0:0:0:
109,192,472184,1,0,0:0:0:0:
402,192,472184,1,0,0:0:0:0:
256,192,472184,1,0,0:0:0:0:
329,192,472338,1,0,0:0:0:0:
475,192,472338,1,0,0:0:0:0:
109,192,472492,1,0,0:0:0:0:
402,192,472492,1,0,0:0:0:0:
256,192,472492,1,0,0:0:0:0:
182,192,472492,1,0,0:0:0:0:
109,192,472645,1,0,0:0:0:0:
182,192,472645,1,0,0:0:0:0:
36,192,472645,1,0,0:0:0:0:
329,192,472645,1,0,0:0:0:0:
475,192,472722,1,0,0:0:0:0:
256,192,472722,1,0,0:0:0:0:
402,192,472722,1,0,0:0:0:0:
329,192,472799,1,0,0:0:0:0:
182,192,472799,1,0,0:0:0:0:
109,192,472799,1,0,0:0:0:0:
256,192,472876,1,0,0:0:0:0:
36,192,472876,1,0,0:0:0:0:
402,192,472876,1,0,0:0:0:0:
329,192,472953,1,0,0:0:0:0:
475,192,472953,1,0,0:0:0:0:
182,192,472953,1,0,0:0:0:0:
109,192,472953,1,0,0:0:0:0:
109,192,473107,1,0,0:0:0:0:
329,192,473107,1,0,0:0:0:0:
475,192,473107,1,0,0:0:0:0:
182,192,473107,1,0,0:0:0:0:
109,192,473261,1,0,0:0:0:0:
36,192,473261,1,0,0:0:0:0:
475,192,473261,1,0,0:0:0:0:
402,192,473261,1,0,0:0:0:0:
256,192,473261,1,0,0:0:0:0:
182,192,473415,1,0,0:0:0:0:
109,192,473415,1,0,0:0:0:0:
475,192,473415,1,0,0:0:0:0:
329,192,473415,1,0,0:0:0:0:
36,192,473492,1,0,0:0:0:0:
256,192,473492,1,0,0:0:0:0:
402,192,473492,1,0,0:0:0:0:
475,192,473569,1,0,0:0:0:0:
109,192,473569,1,0,0:0:0:0:
182,192,473569,1,0,0:0:0:0:
329,192,473569,1,0,0:0:0:0:
256,192,473645,1,0,0:0:0:0:
36,192,473645,1,0,0:0:0:0:
402,192,473645,1,0,0:0:0:0:
475,192,473722,1,0,0:0:0:0:
182,192,473722,1,0,0:0:0:0:
329,192,473722,1,0,0:0:0:0:
256,192,473799,1,0,0:0:0:0:
109,192,473799,1,0,0:0:0:0:
36,192,473876,1,0,0:0:0:0:
182,192,473876,1,0,0:0:0:0:
402,192,473876,1,0,0:0:0:0:
475,192,473876,1,0,0:0:0:0:
256,192,474030,1,0,0:0:0:0:
109,192,474030,1,0,0:0:0:0:
402,192,474030,1,0,0:0:0:0:
475,192,474030,1,0,0:0:0:0:
329,192,474107,1,0,0:0:0:0:
182,192,474107,1,0,0:0:0:0:
475,192,474184,1,0,0:0:0:0:
402,192,474184,1,0,0:0:0:0:
36,192,474184,1,0,0:0:0:0:
256,192,474184,1,0,0:0:0:0:
109,192,474184,1,0,0:0:0:0:
182,192,474338,1,0,0:0:0:0:
329,192,474338,1,0,0:0:0:0:
402,192,474492,1,0,0:0:0:0:
256,192,474492,1,0,0:0:0:0:
36,192,474645,1,0,0:0:0:0:
475,192,474645,1,0,0:0:0:0:
109,192,474645,1,0,0:0:0:0:
329,192,474645,1,0,0:0:0:0:
182,192,474645,1,0,0:0:0:0:
329,192,474799,1,0,0:0:0:0:
182,192,474799,1,0,0:0:0:0:
109,192,474953,1,0,0:0:0:0:
402,192,474953,1,0,0:0:0:0:
256,192,474953,1,0,0:0:0:0:
36,192,474953,1,0,0:0:0:0:
475,192,475107,1,0,0:0:0:0:
402,192,475107,1,0,0:0:0:0:
256,192,475107,1,0,0:0:0:0:
182,192,475107,1,0,0:0:0:0:
109,192,475184,1,0,0:0:0:0:
329,192,475184,1,0,0:0:0:0:
36,192,475184,1,0,0:0:0:0:
402,192,475261,1,0,0:0:0:0:
256,192,475261,1,0,0:0:0:0:
475,192,475261,1,0,0:0:0:0:
109,192,475338,1,0,0:0:0:0:
182,192,475338,1,0,0:0:0:0:
329,192,475338,1,0,0:0:0:0:
256,192,475415,1,0,0:0:0:0:
402,192,475415,1,0,0:0:0:0:
36,192,475415,1,0,0:0:0:0:
475,192,475415,1,0,0:0:0:0:
402,192,475569,1,0,0:0:0:0:
256,192,475569,1,0,0:0:0:0:
475,192,475569,1,0,0:0:0:0:
36,192,475569,1,0,0:0:0:0:
475,192,475722,1,0,0:0:0:0:
329,192,475722,1,0,0:0:0:0:
182,192,475722,1,0,0:0:0:0:
109,192,475722,1,0,0:0:0:0:
36,192,475722,1,0,0:0:0:0:
475,192,475876,1,0,0:0:0:0:
329,192,475876,1,0,0:0:0:0:
182,192,475876,1,0,0:0:0:0:
36,192,475876,1,0,0:0:0:0:
256,192,475953,1,0,0:0:0:0:
109,192,475953,1,0,0:0:0:0:
402,192,475953,1,0,0:0:0:0:
329,192,476030,1,0,0:0:0:0:
182,192,476030,1,0,0:0:0:0:
475,192,476030,1,0,0:0:0:0:
256,192,476107,1,0,0:0:0:0:
329,192,476184,1,0,0:0:0:0:
182,192,476184,1,0,0:0:0:0:
402,192,476184,1,0,0:0:0:0:
256,192,476261,1,0,0:0:0:0:
109,192,476261,1,0,0:0:0:0:
329,192,476338,1,0,0:0:0:0:
182,192,476338,1,0,0:0:0:0:
36,192,476338,1,0,0:0:0:0:
475,192,476338,1,0,0:0:0:0:
36,192,476492,1,0,0:0:0:0:
182,192,476492,1,0,0:0:0:0:
256,192,476492,1,0,0:0:0:0:
402,192,476492,1,0,0:0:0:0:
109,192,476569,1,0,0:0:0:0:
329,192,476569,1,0,0:0:0:0:
256,192,476645,1,0,0:0:0:0:
182,192,476645,1,0,0:0:0:0:
36,192,476645,1,0,0:0:0:0:
475,192,476645,1,0,0:0:0:0:
402,192,476645,1,0,0:0:0:0:
402,192,476799,1,0,0:0:0:0:
256,192,476799,1,0,0:0:0:0:
329,192,476953,1,0,0:0:0:0:
475,192,476953,1,0,0:0:0:0:
402,192,477107,1,0,0:0:0:0:
256,192,477107,1,0,0:0:0:0:
109,192,477107,1,0,0:0:0:0:
36,192,477107,1,0,0:0:0:0:
475,192,477107,1,0,0:0:0:0:
475,192,477261,1,0,0:0:0:0:
329,192,477261,1,0,0:0:0:0:
256,192,477415,1,0,0:0:0:0:
182,192,477415,1,0,0:0:0:0:
109,192,477415,1,0,0:0:0:0:
402,192,477415,1,0,0:0:0:0:
475,192,477569,1,0,0:0:0:0:
329,192,477569,1,0,0:0:0:0:
36,192,477569,1,0,0:0:0:0:
182,192,477569,1,0,0:0:0:0:
256,192,477645,1,0,0:0:0:0:
402,192,477645,1,0,0:0:0:0:
109,192,477645,1,0,0:0:0:0:
329,192,477722,1,0,0:0:0:0:
182,192,477722,1,0,0:0:0:0:
475,192,477722,1,0,0:0:0:0:
109,192,477799,1,0,0:0:0:0:
256,192,477799,1,0,0:0:0:0:
36,192,477799,1,0,0:0:0:0:
329,192,477876,1,0,0:0:0:0:
402,192,477876,1,0,0:0:0:0:
182,192,477876,1,0,0:0:0:0:
475,192,477876,1,0,0:0:0:0:
329,192,478030,1,0,0:0:0:0:
182,192,478030,1,0,0:0:0:0:
475,192,478030,1,0,0:0:0:0:
402,192,478030,1,0,0:0:0:0:
475,192,478184,1,0,0:0:0:0:
402,192,478184,1,0,0:0:0:0:
256,192,478184,1,0,0:0:0:0:
109,192,478184,1,0,0:0:0:0:
36,192,478184,1,0,0:0:0:0:
256,192,478338,1,0,0:0:0:0:
329,192,478338,1,0,0:0:0:0:
109,192,478338,1,0,0:0:0:0:
36,192,478338,1,0,0:0:0:0:
475,192,478415,1,0,0:0:0:0:
182,192,478415,1,0,0:0:0:0:
402,192,478415,1,0,0:0:0:0:
329,192,478492,1,0,0:0:0:0:
109,192,478492,1,0,0:0:0:0:
36,192,478492,1,0,0:0:0:0:
256,192,478492,1,0,0:0:0:0:
182,192,478569,1,0,0:0:0:0:
475,192,478569,1,0,0:0:0:0:
402,192,478569,1,0,0:0:0:0:
329,192,478645,1,0,0:0:0:0:
36,192,478645,1,0,0:0:0:0:
109,192,478645,1,0,0:0:0:0:
256,192,478722,1,0,0:0:0:0:
402,192,478722,1,0,0:0:0:0:
329,192,478799,1,0,0:0:0:0:
182,192,478799,1,0,0:0:0:0:
36,192,478799,1,0,0:0:0:0:
475,192,478799,1,0,0:0:0:0:
475,192,478953,1,0,0:0:0:0:
182,192,478953,1,0,0:0:0:0:
36,192,478953,1,0,0:0:0:0:
329,192,478953,1,0,0:0:0:0:
256,192,479030,1,0,0:0:0:0:
402,192,479030,1,0,0:0:0:0:
109,192,479107,1,0,0:0:0:0:
182,192,479107,1,0,0:0:0:0:
36,192,479107,1,0,0:0:0:0:
475,192,479107,1,0,0:0:0:0:
329,192,479107,1,0,0:0:0:0:
109,192,479261,1,0,0:0:0:0:
256,192,479261,1,0,0:0:0:0:
475,192,479415,1,0,0:0:0:0:
329,192,479415,1,0,0:0:0:0:
182,192,479569,1,0,0:0:0:0:
36,192,479569,1,0,0:0:0:0:
109,192,479569,1,0,0:0:0:0:
475,192,479569,1,0,0:0:0:0:
329,192,479569,1,0,0:0:0:0:
109,192,479722,1,0,0:0:0:0:
256,192,479722,1,0,0:0:0:0:
182,192,479876,1,0,0:0:0:0:
36,192,479876,1,0,0:0:0:0:
329,192,479876,1,0,0:0:0:0:
402,192,479876,1,0,0:0:0:0:
109,192,480030,1,0,0:0:0:0:
256,192,480030,1,0,0:0:0:0:
475,192,480030,1,0,0:0:0:0:
402,192,480030,1,0,0:0:0:0:
36,192,480107,1,0,0:0:0:0:
329,192,480107,1,0,0:0:0:0:
182,192,480107,1,0,0:0:0:0:
475,192,480184,1,0,0:0:0:0:
109,192,480184,1,0,0:0:0:0:
256,192,480184,1,0,0:0:0:0:
329,192,480261,1,0,0:0:0:0:
182,192,480261,1,0,0:0:0:0:
402,192,480261,1,0,0:0:0:0:
36,192,480338,1,0,0:0:0:0:
475,192,480338,1,0,0:0:0:0:
256,192,480338,1,0,0:0:0:0:
109,192,480338,1,0,0:0:0:0:
475,192,480492,1,0,0:0:0:0:
109,192,480492,1,0,0:0:0:0:
36,192,480492,1,0,0:0:0:0:
256,192,480492,1,0,0:0:0:0:
402,192,480645,1,0,0:0:0:0:
36,192,480645,1,0,0:0:0:0:
182,192,480645,1,0,0:0:0:0:
475,192,480645,1,0,0:0:0:0:
329,192,480645,1,0,0:0:0:0:
182,192,480799,1,0,0:0:0:0:
109,192,480799,1,0,0:0:0:0:
329,192,480799,1,0,0:0:0:0:
475,192,480799,1,0,0:0:0:0:
36,192,480876,1,0,0:0:0:0:
402,192,480876,1,0,0:0:0:0:
256,192,480876,1,0,0:0:0:0:
475,192,480953,1,0,0:0:0:0:
182,192,480953,1,0,0:0:0:0:
329,192,480953,1,0,0:0:0:0:
256,192,481030,1,0,0:0:0:0:
402,192,481030,1,0,0:0:0:0:
36,192,481030,1,0,0:0:0:0:
329,192,481107,1,0,0:0:0:0:
182,192,481107,1,0,0:0:0:0:
109,192,481107,1,0,0:0:0:0:
475,192,481184,1,0,0:0:0:0:
256,192,481184,1,0,0:0:0:0:
36,192,481261,1,0,0:0:0:0:
402,192,481261,1,0,0:0:0:0:
329,192,481261,1,0,0:0:0:0:
109,192,481261,1,0,0:0:0:0:
256,192,481415,1,0,0:0:0:0:
182,192,481415,1,0,0:0:0:0:
475,192,481415,1,0,0:0:0:0:
36,192,481415,1,0,0:0:0:0:
329,192,481492,1,0,0:0:0:0:
402,192,481492,1,0,0:0:0:0:
475,192,481569,1,0,0:0:0:0:
109,192,481569,1,0,0:0:0:0:
36,192,481569,1,0,0:0:0:0:
256,192,481569,1,0,0:0:0:0:
182,192,481569,1,0,0:0:0:0:
182,192,481722,1,0,0:0:0:0:
329,192,481722,1,0,0:0:0:0:
475,192,481876,1,0,0:0:0:0:
402,192,481876,1,0,0:0:0:0:
36,192,482030,1,0,0:0:0:0:
475,192,482030,1,0,0:0:0:0:
109,192,482030,1,0,0:0:0:0:
256,192,482030,1,0,0:0:0:0:
182,192,482030,1,0,0:0:0:0:
109,192,482184,1,0,0:0:0:0:
402,192,482184,1,0,0:0:0:0:
329,192,482184,1,0,0:0:0:0:
182,192,482184,1,0,0:0:0:0:
109,192,482338,1,0,0:0:0:0:
36,192,482338,1,0,0:0:0:0:
402,192,482338,1,0,0:0:0:0:
475,192,482338,1,0,0:0:0:0:
36,192,482492,1,0,0:0:0:0:
402,192,482492,1,0,0:0:0:0:
256,192,482492,1,0,0:0:0:0:
182,192,482492,1,0,0:0:0:0:
109,192,482569,1,0,0:0:0:0:
329,192,482569,1,0,0:0:0:0:
475,192,482569,1,0,0:0:0:0:
402,192,482645,1,0,0:0:0:0:
36,192,482645,1,0,0:0:0:0:
182,192,482645,1,0,0:0:0:0:
109,192,482722,1,0,0:0:0:0:
256,192,482722,1,0,0:0:0:0:
329,192,482722,1,0,0:0:0:0:
182,192,482799,1,0,0:0:0:0:
402,192,482799,1,0,0:0:0:0:
36,192,482799,1,0,0:0:0:0:
475,192,482799,1,0,0:0:0:0:
475,192,482953,1,0,0:0:0:0:
182,192,482953,1,0,0:0:0:0:
402,192,482953,1,0,0:0:0:0:
36,192,482953,1,0,0:0:0:0:
475,192,483107,1,0,0:0:0:0:
329,192,483107,1,0,0:0:0:0:
402,192,483107,1,0,0:0:0:0:
109,192,483107,1,0,0:0:0:0:
256,192,483107,1,0,0:0:0:0:
402,192,483261,1,0,0:0:0:0:
329,192,483261,1,0,0:0:0:0:
182,192,483261,1,0,0:0:0:0:
36,192,483261,1,0,0:0:0:0:
256,192,483338,1,0,0:0:0:0:
109,192,483338,1,0,0:0:0:0:
475,192,483338,1,0,0:0:0:0:
329,192,483415,1,0,0:0:0:0:
182,192,483415,1,0,0:0:0:0:
402,192,483415,1,0,0:0:0:0:
36,192,483415,1,0,0:0:0:0:
475,192,483492,1,0,0:0:0:0:
109,192,483492,1,0,0:0:0:0:
256,192,483492,1,0,0:0:0:0:
182,192,483569,1,0,0:0:0:0:
329,192,483569,1,0,0:0:0:0:
402,192,483569,1,0,0:0:0:0:
256,192,483645,1,0,0:0:0:0:
109,192,483645,1,0,0:0:0:0:
182,192,483722,1,0,0:0:0:0:
402,192,483722,1,0,0:0:0:0:
36,192,483722,1,0,0:0:0:0:
475,192,483722,1,0,0:0:0:0:
475,192,483876,1,0,0:0:0:0:
109,192,483876,1,0,0:0:0:0:
256,192,483876,1,0,0:0:0:0:
36,192,483876,1,0,0:0:0:0:
182,192,483953,1,0,0:0:0:0:
402,192,483953,1,0,0:0:0:0:
329,192,484030,1,0,0:0:0:0:
256,192,484030,1,0,0:0:0:0:
36,192,484030,1,0,0:0:0:0:
475,192,484030,1,0,0:0:0:0:
109,192,484030,1,0,0:0:0:0:
256,192,484184,1,0,0:0:0:0:
109,192,484184,1,0,0:0:0:0:
475,192,484338,1,0,0:0:0:0:
329,192,484338,1,0,0:0:0:0:
36,192,484492,1,0,0:0:0:0:
475,192,484492,1,0,0:0:0:0:
109,192,484492,1,0,0:0:0:0:
256,192,484492,1,0,0:0:0:0:
182,192,484492,1,0,0:0:0:0:
256,192,484645,1,0,0:0:0:0:
109,192,484645,1,0,0:0:0:0:
182,192,484799,1,0,0:0:0:0:
36,192,484799,1,0,0:0:0:0:
329,192,484799,1,0,0:0:0:0:
475,192,484799,1,0,0:0:0:0:
36,192,484953,1,0,0:0:0:0:
402,192,484953,1,0,0:0:0:0:
256,192,484953,1,0,0:0:0:0:
475,192,484953,1,0,0:0:0:0:
109,192,485030,1,0,0:0:0:0:
329,192,485030,1,0,0:0:0:0:
182,192,485030,1,0,0:0:0:0:
402,192,485107,1,0,0:0:0:0:
256,192,485107,1,0,0:0:0:0:
475,192,485107,1,0,0:0:0:0:
109,192,485184,1,0,0:0:0:0:
182,192,485184,1,0,0:0:0:0:
36,192,485184,1,0,0:0:0:0:
256,192,485261,1,0,0:0:0:0:
402,192,485261,1,0,0:0:0:0:
329,192,485261,1,0,0:0:0:0:
475,192,485261,1,0,0:0:0:0:
329,192,485415,1,0,0:0:0:0:
402,192,485415,1,0,0:0:0:0:
256,192,485415,1,0,0:0:0:0:
475,192,485415,1,0,0:0:0:0:
475,192,485569,1,0,0:0:0:0:
182,192,485569,1,0,0:0:0:0:
36,192,485569,1,0,0:0:0:0:
109,192,485569,1,0,0:0:0:0:
329,192,485569,1,0,0:0:0:0:
402,192,485722,1,0,0:0:0:0:
329,192,485722,1,0,0:0:0:0:
182,192,485722,1,0,0:0:0:0:
36,192,485722,1,0,0:0:0:0:
256,192,485799,1,0,0:0:0:0:
109,192,485799,1,0,0:0:0:0:
475,192,485799,1,0,0:0:0:0:
329,192,485876,1,0,0:0:0:0:
182,192,485876,1,0,0:0:0:0:
402,192,485876,1,0,0:0:0:0:
109,192,485953,1,0,0:0:0:0:
36,192,485953,1,0,0:0:0:0:
256,192,485953,1,0,0:0:0:0:
182,192,486030,1,0,0:0:0:0:
475,192,486030,1,0,0:0:0:0:
402,192,486030,1,0,0:0:0:0:
329,192,486107,1,0,0:0:0:0:
109,192,486107,1,0,0:0:0:0:
182,192,486184,1,0,0:0:0:0:
256,192,486184,1,0,0:0:0:0:
36,192,486184,1,0,0:0:0:0:
475,192,486184,1,0,0:0:0:0:
475,192,486338,1,0,0:0:0:0:
109,192,486338,1,0,0:0:0:0:
256,192,486338,1,0,0:0:0:0:
36,192,486338,1,0,0:0:0:0:
329,192,486415,1,0,0:0:0:0:
402,192,486415,1,0,0:0:0:0:
256,192,486492,1,0,0:0:0:0:
182,192,486492,1,0,0:0:0:0:
36,192,486492,1,0,0:0:0:0:
475,192,486492,1,0,0:0:0:0:
109,192,486492,1,0,0:0:0:0:
402,192,486645,1,0,0:0:0:0:
256,192,486645,1,0,0:0:0:0:
329,192,486799,1,0,0:0:0:0:
182,192,486799,1,0,0:0:0:0:
182,192,486953,1,0,0:0:0:0:
475,192,486953,1,0,0:0:0:0:
36,192,486953,1,0,0:0:0:0:
256,192,486953,1,0,0:0:0:0:
109,192,486953,1,0,0:0:0:0:
402,192,487107,1,0,0:0:0:0:
256,192,487107,1,0,0:0:0:0:
109,192,487261,1,0,0:0:0:0:
475,192,487261,1,0,0:0:0:0:
329,192,487261,1,0,0:0:0:0:
182,192,487261,1,0,0:0:0:0:
182,192,487415,1,0,0:0:0:0:
109,192,487415,1,0,0:0:0:0:
475,192,487492,1,0,0:0:0:0:
402,192,487492,1,0,0:0:0:0:
329,192,487492,1,0,0:0:0:0:
182,192,487569,1,0,0:0:0:0:
109,192,487569,1,0,0:0:0:0:
475,192,487645,1,0,0:0:0:0:
402,192,487645,1,0,0:0:0:0:
329,192,487645,1,0,0:0:0:0:
256,192,487722,1,0,0:0:0:0:
109,192,487722,1,0,0:0:0:0:
36,192,487722,1,0,0:0:0:0:
109,192,487876,1,0,0:0:0:0:
256,192,487876,1,0,0:0:0:0:
475,192,488030,1,0,0:0:0:0:
36,192,488030,1,0,0:0:0:0:
182,192,488030,1,0,0:0:0:0:
329,192,488030,1,0,0:0:0:0:
256,192,488184,1,0,0:0:0:0:
402,192,488261,1,0,0:0:0:0:
182,192,488338,1,0,0:0:0:0:
109,192,488338,1,0,0:0:0:0:
329,192,488415,1,0,0:0:0:0:
109,192,488492,1,0,0:0:0:0:
36,192,488492,1,0,0:0:0:0:
256,192,488492,1,0,0:0:0:0:
475,192,488645,1,0,0:0:0:0:
182,192,488645,1,0,0:0:0:0:
329,192,488645,1,0,0:0:0:0:
402,192,488645,1,0,0:0:0:0:
256,192,488799,1,0,0:0:0:0:
109,192,488799,1,0,0:0:0:0:
36,192,488799,1,0,0:0:0:0:
329,192,488876,1,0,0:0:0:0:
182,192,488876,1,0,0:0:0:0:
402,192,488953,1,0,0:0:0:0:
475,192,488953,1,0,0:0:0:0:
36,192,488953,1,0,0:0:0:0:
256,192,488953,1,0,0:0:0:0:
109,192,488953,1,0,0:0:0:0:
