osu file format v14

[General]
AudioFilename: Dan_10.mp3
AudioLeadIn: 0
PreviewTime: 15534
Countdown: 0
SampleSet: Soft
StackLeniency: 0.7
Mode: 3
LetterboxInBreaks: 0
SpecialStyle: 0
WidescreenStoryboard: 1

[Editor]
DistanceSpacing: 0.3
BeatDivisor: 4
GridSize: 32
TimelineZoom: 2.2

[Metadata]
Title:Regular Dan Phase III
TitleUnicode:Regular Dan Phase III
Artist:osu!mania 7K Dan Course
ArtistUnicode:osu!mania 7K Dan Course
Creator:Jinjin
Version:10th Dan
Source:
Tags:rain- blocko jinjin spoonguy scytheleg gazer stellabee ubiquity ueotan mario paint time regression mix for bms helblinde solace of oblivion samba master satoh land puru toki maidable remix beta blue white crazystars getty vs dj dia fox4 raize shk identity part u1 high-speed egoism 440 vertex gamma silvia leaf paraclete manabu namiki tenshi true final boss goreshit najimi breakers dj technorch nijuu silentroom finixe rokina icicle stinger lunaticsounds rinjuu ereharmonika remixed by kors k der wald frums we want to run eleharmonica
BeatmapID:1966467
BeatmapSetID:930218

[Difficulty]
HPDrainRate:8
CircleSize:7
OverallDifficulty:8.5
ApproachRate:5
SliderMultiplier:1.4
SliderTickRate:1

[Events]
//Background and Video events
0,0,"Dan_10.png",0,0
//Break Periods
2,119825,131285
2,231713,243071
2,340264,351819
//Storyboard Layer 0 (Background)
//Storyboard Layer 1 (Fail)
//Storyboard Layer 2 (Pass)
//Storyboard Layer 3 (Foreground)
//Storyboard Layer 4 (Overlay)
//Storyboard Sound Samples

[TimingPoints]
80,454.545454545455,4,2,0,0,1,0
131800,342.857142857143,4,2,0,0,1,0
131800,-131.578947368421,4,2,0,0,0,0
187685,342.857142857143,4,2,0,0,1,0
187685,-131.578947368421,4,2,0,0,0,0
244271,206.896551724138,4,2,0,0,1,0
244271,-217.391304347826,4,2,0,0,0,0
353019,300,4,2,0,0,1,0
353019,-151.515151515152,4,2,0,0,0,0

[HitObjects]
256,192,1443,128,0,1898:0:0:0:0:
36,192,1898,1,0,0:0:0:0:
109,192,1898,1,0,0:0:0:0:
329,192,1898,1,0,0:0:0:0:
475,192,1898,1,0,0:0:0:0:
182,192,2011,1,0,0:0:0:0:
256,192,2125,1,0,0:0:0:0:
402,192,2125,1,0,0:0:0:0:
109,192,2125,1,0,0:0:0:0:
475,192,2125,1,0,0:0:0:0:
402,192,2239,1,0,0:0:0:0:
256,192,2239,1,0,0:0:0:0:
36,192,2352,1,0,0:0:0:0:
182,192,2352,1,0,0:0:0:0:
329,192,2352,1,0,0:0:0:0:
182,192,2466,1,0,0:0:0:0:
402,192,2466,1,0,0:0:0:0:
256,192,2466,1,0,0:0:0:0:
109,192,2580,1,0,0:0:0:0:
36,192,2580,1,0,0:0:0:0:
329,192,2580,1,0,0:0:0:0:
475,192,2580,1,0,0:0:0:0:
182,192,2693,1,0,0:0:0:0:
329,192,2693,1,0,0:0:0:0:
109,192,2807,1,0,0:0:0:0:
36,192,2807,1,0,0:0:0:0:
256,192,2807,1,0,0:0:0:0:
402,192,2807,1,0,0:0:0:0:
402,192,2920,1,0,0:0:0:0:
182,192,3034,1,0,0:0:0:0:
109,192,3034,1,0,0:0:0:0:
329,192,3034,1,0,0:0:0:0:
182,192,3148,1,0,0:0:0:0:
109,192,3148,1,0,0:0:0:0:
256,192,3261,1,0,0:0:0:0:
329,192,3261,1,0,0:0:0:0:
475,192,3261,1,0,0:0:0:0:
36,192,3261,1,0,0:0:0:0:
182,192,3375,1,0,0:0:0:0:
329,192,3375,1,0,0:0:0:0:
109,192,3489,1,0,0:0:0:0:
256,192,3489,1,0,0:0:0:0:
402,192,3489,1,0,0:0:0:0:
109,192,3602,1,0,0:0:0:0:
329,192,3602,1,0,0:0:0:0:
256,192,3716,1,0,0:0:0:0:
402,192,3716,1,0,0:0:0:0:
475,192,3716,1,0,0:0:0:0:
36,192,3716,1,0,0:0:0:0:
182,192,3830,1,0,0:0:0:0:
402,192,3867,1,0,0:0:0:0:
475,192,3867,1,0,0:0:0:0:
109,192,3943,1,0,0:0:0:0:
402,192,4019,1,0,0:0:0:0:
475,192,4019,1,0,0:0:0:0:
182,192,4057,1,0,0:0:0:0:
402,192,4170,1,0,0:0:0:0:
475,192,4170,1,0,0:0:0:0:
329,192,4170,1,0,0:0:0:0:
36,192,4170,1,0,0:0:0:0:
109,192,4170,1,0,0:0:0:0:
182,192,4284,1,0,0:0:0:0:
402,192,4322,1,0,0:0:0:0:
475,192,4322,1,0,0:0:0:0:
109,192,4398,1,0,0:0:0:0:
402,192,4473,1,0,0:0:0:0:
475,192,4473,1,0,0:0:0:0:
36,192,4511,1,0,0:0:0:0:
256,192,4625,1,0,0:0:0:0:
329,192,4625,1,0,0:0:0:0:
182,192,4625,1,0,0:0:0:0:
475,192,4625,1,0,0:0:0:0:
182,192,4739,1,0,0:0:0:0:
329,192,4852,1,0,0:0:0:0:
402,192,4852,1,0,0:0:0:0:
36,192,4852,1,0,0:0:0:0:
402,192,4966,1,0,0:0:0:0:
109,192,5080,1,0,0:0:0:0:
36,192,5080,1,0,0:0:0:0:
256,192,5080,1,0,0:0:0:0:
475,192,5080,1,0,0:0:0:0:
109,192,5193,1,0,0:0:0:0:
329,192,5307,1,0,0:0:0:0:
475,192,5307,1,0,0:0:0:0:
182,192,5307,1,0,0:0:0:0:
475,192,5420,1,0,0:0:0:0:
36,192,5534,1,0,0:0:0:0:
109,192,5534,1,0,0:0:0:0:
256,192,5534,1,0,0:0:0:0:
402,192,5534,1,0,0:0:0:0:
182,192,5648,1,0,0:0:0:0:
329,192,5648,1,0,0:0:0:0:
256,192,5761,1,0,0:0:0:0:
329,192,5761,1,0,0:0:0:0:
475,192,5761,1,0,0:0:0:0:
36,192,5761,1,0,0:0:0:0:
109,192,5875,1,0,0:0:0:0:
256,192,5875,1,0,0:0:0:0:
182,192,5989,1,0,0:0:0:0:
36,192,5989,1,0,0:0:0:0:
402,192,5989,1,0,0:0:0:0:
475,192,5989,1,0,0:0:0:0:
402,192,6102,1,0,0:0:0:0:
475,192,6102,1,0,0:0:0:0:
256,192,6102,1,0,0:0:0:0:
109,192,6216,1,0,0:0:0:0:
36,192,6216,1,0,0:0:0:0:
329,192,6216,1,0,0:0:0:0:
402,192,6330,1,0,0:0:0:0:
475,192,6330,1,0,0:0:0:0:
182,192,6330,1,0,0:0:0:0:
36,192,6443,1,0,0:0:0:0:
109,192,6443,1,0,0:0:0:0:
182,192,6443,1,0,0:0:0:0:
329,192,6443,1,0,0:0:0:0:
256,192,6557,1,0,0:0:0:0:
402,192,6557,1,0,0:0:0:0:
182,192,6670,1,0,0:0:0:0:
109,192,6670,1,0,0:0:0:0:
329,192,6670,1,0,0:0:0:0:
475,192,6670,1,0,0:0:0:0:
329,192,6784,1,0,0:0:0:0:
36,192,6784,1,0,0:0:0:0:
109,192,6784,1,0,0:0:0:0:
182,192,6898,1,0,0:0:0:0:
256,192,6898,1,0,0:0:0:0:
402,192,6898,1,0,0:0:0:0:
475,192,6898,1,0,0:0:0:0:
109,192,7011,1,0,0:0:0:0:
36,192,7011,1,0,0:0:0:0:
329,192,7011,1,0,0:0:0:0:
256,192,7125,1,0,0:0:0:0:
182,192,7125,1,0,0:0:0:0:
402,192,7125,1,0,0:0:0:0:
329,192,7239,1,0,0:0:0:0:
402,192,7239,1,0,0:0:0:0:
36,192,7352,1,0,0:0:0:0:
109,192,7352,1,0,0:0:0:0:
182,192,7352,1,0,0:0:0:0:
475,192,7352,1,0,0:0:0:0:
402,192,7466,1,0,0:0:0:0:
109,192,7504,1,0,0:0:0:0:
36,192,7504,1,0,0:0:0:0:
329,192,7580,1,0,0:0:0:0:
36,192,7655,1,0,0:0:0:0:
109,192,7655,1,0,0:0:0:0:
402,192,7693,1,0,0:0:0:0:
109,192,7807,1,0,0:0:0:0:
36,192,7807,1,0,0:0:0:0:
182,192,7807,1,0,0:0:0:0:
329,192,7807,1,0,0:0:0:0:
475,192,7807,1,0,0:0:0:0:
402,192,7920,1,0,0:0:0:0:
36,192,7958,1,0,0:0:0:0:
109,192,7958,1,0,0:0:0:0:
329,192,8034,1,0,0:0:0:0:
109,192,8110,1,0,0:0:0:0:
36,192,8110,1,0,0:0:0:0:
256,192,8148,1,0,0:0:0:0:
402,192,8148,1,0,0:0:0:0:
182,192,8261,1,0,0:0:0:0:
36,192,8261,1,0,0:0:0:0:
329,192,8261,1,0,0:0:0:0:
475,192,8261,1,0,0:0:0:0:
329,192,8375,1,0,0:0:0:0:
109,192,8375,1,0,0:0:0:0:
182,192,8489,1,0,0:0:0:0:
256,192,8489,1,0,0:0:0:0:
402,192,8489,1,0,0:0:0:0:
36,192,8602,1,0,0:0:0:0:
182,192,8602,1,0,0:0:0:0:
109,192,8716,1,0,0:0:0:0:
329,192,8716,1,0,0:0:0:0:
256,192,8716,1,0,0:0:0:0:
475,192,8716,1,0,0:0:0:0:
329,192,8830,1,0,0:0:0:0:
475,192,8830,1,0,0:0:0:0:
182,192,8943,1,0,0:0:0:0:
109,192,8943,1,0,0:0:0:0:
402,192,8943,1,0,0:0:0:0:
256,192,8943,1,0,0:0:0:0:
36,192,8943,1,0,0:0:0:0:
36,192,9057,1,0,0:0:0:0:
109,192,9057,1,0,0:0:0:0:
256,192,9170,1,0,0:0:0:0:
329,192,9170,1,0,0:0:0:0:
475,192,9170,1,0,0:0:0:0:
109,192,9170,1,0,0:0:0:0:
36,192,9170,1,0,0:0:0:0:
182,192,9284,1,0,0:0:0:0:
329,192,9284,1,0,0:0:0:0:
256,192,9398,1,0,0:0:0:0:
109,192,9398,1,0,0:0:0:0:
36,192,9398,1,0,0:0:0:0:
402,192,9398,1,0,0:0:0:0:
109,192,9511,1,0,0:0:0:0:
329,192,9511,1,0,0:0:0:0:
256,192,9625,1,0,0:0:0:0:
182,192,9625,1,0,0:0:0:0:
402,192,9625,1,0,0:0:0:0:
475,192,9625,1,0,0:0:0:0:
402,192,9739,1,0,0:0:0:0:
109,192,9739,1,0,0:0:0:0:
36,192,9739,1,0,0:0:0:0:
182,192,9852,1,0,0:0:0:0:
256,192,9852,1,0,0:0:0:0:
329,192,9852,1,0,0:0:0:0:
475,192,9852,1,0,0:0:0:0:
256,192,9966,1,0,0:0:0:0:
109,192,9966,1,0,0:0:0:0:
36,192,10080,1,0,0:0:0:0:
182,192,10080,1,0,0:0:0:0:
329,192,10080,1,0,0:0:0:0:
402,192,10080,1,0,0:0:0:0:
182,192,10193,1,0,0:0:0:0:
329,192,10193,1,0,0:0:0:0:
256,192,10307,1,0,0:0:0:0:
109,192,10307,1,0,0:0:0:0:
36,192,10307,1,0,0:0:0:0:
475,192,10307,1,0,0:0:0:0:
475,192,10420,1,0,0:0:0:0:
182,192,10534,1,0,0:0:0:0:
329,192,10534,1,0,0:0:0:0:
402,192,10534,1,0,0:0:0:0:
109,192,10534,1,0,0:0:0:0:
256,192,10648,1,0,0:0:0:0:
109,192,10648,1,0,0:0:0:0:
182,192,10761,1,0,0:0:0:0:
329,192,10761,1,0,0:0:0:0:
475,192,10761,1,0,0:0:0:0:
402,192,10761,1,0,0:0:0:0:
36,192,10875,1,0,0:0:0:0:
109,192,10875,1,0,0:0:0:0:
329,192,10989,1,0,0:0:0:0:
402,192,10989,1,0,0:0:0:0:
256,192,10989,1,0,0:0:0:0:
182,192,10989,1,0,0:0:0:0:
109,192,11102,1,0,0:0:0:0:
329,192,11140,1,0,0:0:0:0:
402,192,11140,1,0,0:0:0:0:
182,192,11216,1,0,0:0:0:0:
402,192,11292,1,0,0:0:0:0:
329,192,11292,1,0,0:0:0:0:
36,192,11330,1,0,0:0:0:0:
329,192,11443,1,0,0:0:0:0:
402,192,11443,1,0,0:0:0:0:
109,192,11443,1,0,0:0:0:0:
182,192,11443,1,0,0:0:0:0:
475,192,11443,1,0,0:0:0:0:
36,192,11557,1,0,0:0:0:0:
402,192,11595,1,0,0:0:0:0:
329,192,11595,1,0,0:0:0:0:
182,192,11670,1,0,0:0:0:0:
329,192,11746,1,0,0:0:0:0:
402,192,11746,1,0,0:0:0:0:
109,192,11784,1,0,0:0:0:0:
329,192,11898,1,0,0:0:0:0:
475,192,11898,1,0,0:0:0:0:
256,192,11898,1,0,0:0:0:0:
36,192,11898,1,0,0:0:0:0:
182,192,11898,1,0,0:0:0:0:
402,192,12011,1,0,0:0:0:0:
182,192,12011,1,0,0:0:0:0:
109,192,12125,1,0,0:0:0:0:
36,192,12125,1,0,0:0:0:0:
329,192,12125,1,0,0:0:0:0:
256,192,12239,1,0,0:0:0:0:
402,192,12239,1,0,0:0:0:0:
256,192,12352,1,0,0:0:0:0:
475,192,12352,1,0,0:0:0:0:
182,192,12352,1,0,0:0:0:0:
109,192,12352,1,0,0:0:0:0:
329,192,12466,1,0,0:0:0:0:
402,192,12466,1,0,0:0:0:0:
329,192,12580,1,0,0:0:0:0:
182,192,12580,1,0,0:0:0:0:
36,192,12580,1,0,0:0:0:0:
475,192,12580,1,0,0:0:0:0:
109,192,12693,1,0,0:0:0:0:
182,192,12693,1,0,0:0:0:0:
402,192,12693,1,0,0:0:0:0:
256,192,12807,1,0,0:0:0:0:
36,192,12807,1,0,0:0:0:0:
109,192,12807,1,0,0:0:0:0:
329,192,12807,1,0,0:0:0:0:
475,192,12807,1,0,0:0:0:0:
329,192,12920,1,0,0:0:0:0:
182,192,12920,1,0,0:0:0:0:
109,192,13034,1,0,0:0:0:0:
36,192,13034,1,0,0:0:0:0:
256,192,13034,1,0,0:0:0:0:
402,192,13034,1,0,0:0:0:0:
329,192,13148,1,0,0:0:0:0:
182,192,13148,1,0,0:0:0:0:
402,192,13261,1,0,0:0:0:0:
475,192,13261,1,0,0:0:0:0:
256,192,13261,1,0,0:0:0:0:
109,192,13261,1,0,0:0:0:0:
256,192,13375,1,0,0:0:0:0:
475,192,13375,1,0,0:0:0:0:
36,192,13375,1,0,0:0:0:0:
182,192,13489,1,0,0:0:0:0:
109,192,13489,1,0,0:0:0:0:
402,192,13489,1,0,0:0:0:0:
329,192,13602,1,0,0:0:0:0:
182,192,13602,1,0,0:0:0:0:
36,192,13716,1,0,0:0:0:0:
109,192,13716,1,0,0:0:0:0:
256,192,13716,1,0,0:0:0:0:
475,192,13716,1,0,0:0:0:0:
402,192,13830,1,0,0:0:0:0:
329,192,13830,1,0,0:0:0:0:
182,192,13943,1,0,0:0:0:0:
329,192,13943,1,0,0:0:0:0:
109,192,14057,1,0,0:0:0:0:
182,192,14057,1,0,0:0:0:0:
256,192,14170,1,0,0:0:0:0:
36,192,14170,1,0,0:0:0:0:
402,192,14170,1,0,0:0:0:0:
475,192,14170,1,0,0:0:0:0:
182,192,14284,1,0,0:0:0:0:
329,192,14284,1,0,0:0:0:0:
36,192,14398,1,0,0:0:0:0:
182,192,14398,1,0,0:0:0:0:
475,192,14398,1,0,0:0:0:0:
256,192,14511,1,0,0:0:0:0:
402,192,14511,1,0,0:0:0:0:
36,192,14625,1,0,0:0:0:0:
109,192,14625,1,0,0:0:0:0:
182,192,14625,1,0,0:0:0:0:
329,192,14625,1,0,0:0:0:0:
475,192,14625,1,0,0:0:0:0:
109,192,14776,1,0,0:0:0:0:
256,192,14776,1,0,0:0:0:0:
402,192,14776,1,0,0:0:0:0:
475,192,14776,1,0,0:0:0:0:
36,192,14776,1,0,0:0:0:0:
182,192,14928,1,0,0:0:0:0:
36,192,14928,1,0,0:0:0:0:
329,192,14928,1,0,0:0:0:0:
402,192,14928,1,0,0:0:0:0:
475,192,14928,1,0,0:0:0:0:
36,192,15080,1,0,0:0:0:0:
109,192,15080,1,0,0:0:0:0:
256,192,15080,1,0,0:0:0:0:
402,192,15080,1,0,0:0:0:0:
475,192,15080,1,0,0:0:0:0:
182,192,15231,1,0,0:0:0:0:
109,192,15231,1,0,0:0:0:0:
36,192,15231,1,0,0:0:0:0:
329,192,15231,1,0,0:0:0:0:
475,192,15231,1,0,0:0:0:0:
256,192,15383,1,0,0:0:0:0:
109,192,15383,1,0,0:0:0:0:
36,192,15383,1,0,0:0:0:0:
402,192,15383,1,0,0:0:0:0:
475,192,15383,1,0,0:0:0:0:
182,192,15534,1,0,0:0:0:0:
109,192,15534,1,0,0:0:0:0:
329,192,15534,1,0,0:0:0:0:
402,192,15534,1,0,0:0:0:0:
475,192,15534,1,0,0:0:0:0:
36,192,15534,1,0,0:0:0:0:
36,192,15686,1,0,0:0:0:0:
182,192,15686,1,0,0:0:0:0:
109,192,15686,1,0,0:0:0:0:
329,192,15686,1,0,0:0:0:0:
402,192,15686,1,0,0:0:0:0:
475,192,15686,1,0,0:0:0:0:
109,192,15837,1,0,0:0:0:0:
182,192,15837,1,0,0:0:0:0:
36,192,15837,1,0,0:0:0:0:
329,192,15837,1,0,0:0:0:0:
402,192,15837,1,0,0:0:0:0:
475,192,15837,1,0,0:0:0:0:
36,192,15989,1,0,0:0:0:0:
109,192,15989,1,0,0:0:0:0:
182,192,15989,1,0,0:0:0:0:
329,192,15989,1,0,0:0:0:0:
402,192,15989,1,0,0:0:0:0:
475,192,15989,1,0,0:0:0:0:
36,192,16443,1,0,0:0:0:0:
109,192,16443,1,0,0:0:0:0:
256,192,16443,1,0,0:0:0:0:
402,192,16443,1,0,0:0:0:0:
475,192,16443,1,0,0:0:0:0:
329,192,16557,1,0,0:0:0:0:
182,192,16557,1,0,0:0:0:0:
402,192,16557,1,0,0:0:0:0:
109,192,16670,1,0,0:0:0:0:
256,192,16670,1,0,0:0:0:0:
36,192,16670,1,0,0:0:0:0:
109,192,16784,1,0,0:0:0:0:
182,192,16784,1,0,0:0:0:0:
329,192,16784,1,0,0:0:0:0:
256,192,16898,1,0,0:0:0:0:
475,192,16898,1,0,0:0:0:0:
36,192,16898,1,0,0:0:0:0:
402,192,16898,1,0,0:0:0:0:
256,192,17011,1,0,0:0:0:0:
402,192,17011,1,0,0:0:0:0:
182,192,17011,1,0,0:0:0:0:
109,192,17125,1,0,0:0:0:0:
36,192,17125,1,0,0:0:0:0:
329,192,17125,1,0,0:0:0:0:
109,192,17239,1,0,0:0:0:0:
256,192,17239,1,0,0:0:0:0:
402,192,17239,1,0,0:0:0:0:
182,192,17352,1,0,0:0:0:0:
329,192,17352,1,0,0:0:0:0:
475,192,17352,1,0,0:0:0:0:
36,192,17466,1,0,0:0:0:0:
109,192,17466,1,0,0:0:0:0:
256,192,17466,1,0,0:0:0:0:
256,192,17580,1,0,0:0:0:0:
402,192,17580,1,0,0:0:0:0:
475,192,17580,1,0,0:0:0:0:
182,192,17580,1,0,0:0:0:0:
109,192,17693,1,0,0:0:0:0:
36,192,17693,1,0,0:0:0:0:
329,192,17693,1,0,0:0:0:0:
256,192,17807,1,0,0:0:0:0:
402,192,17807,1,0,0:0:0:0:
475,192,17807,1,0,0:0:0:0:
475,192,17920,1,0,0:0:0:0:
402,192,17920,1,0,0:0:0:0:
36,192,17920,1,0,0:0:0:0:
182,192,17920,1,0,0:0:0:0:
109,192,18034,1,0,0:0:0:0:
256,192,18034,1,0,0:0:0:0:
329,192,18034,1,0,0:0:0:0:
256,192,18148,1,0,0:0:0:0:
36,192,18148,1,0,0:0:0:0:
182,192,18261,1,0,0:0:0:0:
329,192,18261,1,0,0:0:0:0:
402,192,18261,1,0,0:0:0:0:
475,192,18261,1,0,0:0:0:0:
109,192,18375,1,0,0:0:0:0:
256,192,18375,1,0,0:0:0:0:
182,192,18489,1,0,0:0:0:0:
475,192,18489,1,0,0:0:0:0:
329,192,18489,1,0,0:0:0:0:
36,192,18489,1,0,0:0:0:0:
182,192,18602,1,0,0:0:0:0:
329,192,18602,1,0,0:0:0:0:
402,192,18602,1,0,0:0:0:0:
109,192,18716,1,0,0:0:0:0:
36,192,18716,1,0,0:0:0:0:
256,192,18716,1,0,0:0:0:0:
475,192,18716,1,0,0:0:0:0:
329,192,18830,1,0,0:0:0:0:
402,192,18830,1,0,0:0:0:0:
109,192,18830,1,0,0:0:0:0:
182,192,18943,1,0,0:0:0:0:
329,192,18943,1,0,0:0:0:0:
36,192,19057,1,0,0:0:0:0:
109,192,19057,1,0,0:0:0:0:
256,192,19057,1,0,0:0:0:0:
402,192,19057,1,0,0:0:0:0:
109,192,19170,1,0,0:0:0:0:
182,192,19170,1,0,0:0:0:0:
329,192,19170,1,0,0:0:0:0:
475,192,19170,1,0,0:0:0:0:
36,192,19284,1,0,0:0:0:0:
329,192,19284,1,0,0:0:0:0:
256,192,19284,1,0,0:0:0:0:
182,192,19398,1,0,0:0:0:0:
402,192,19398,1,0,0:0:0:0:
475,192,19398,1,0,0:0:0:0:
109,192,19398,1,0,0:0:0:0:
402,192,19511,1,0,0:0:0:0:
256,192,19511,1,0,0:0:0:0:
36,192,19511,1,0,0:0:0:0:
109,192,19625,1,0,0:0:0:0:
329,192,19625,1,0,0:0:0:0:
475,192,19625,1,0,0:0:0:0:
182,192,19625,1,0,0:0:0:0:
36,192,19739,1,0,0:0:0:0:
182,192,19739,1,0,0:0:0:0:
256,192,19739,1,0,0:0:0:0:
402,192,19739,1,0,0:0:0:0:
329,192,19852,1,0,0:0:0:0:
475,192,19852,1,0,0:0:0:0:
256,192,19966,1,0,0:0:0:0:
402,192,19966,1,0,0:0:0:0:
109,192,19966,1,0,0:0:0:0:
182,192,20080,1,0,0:0:0:0:
109,192,20080,1,0,0:0:0:0:
36,192,20080,1,0,0:0:0:0:
329,192,20080,1,0,0:0:0:0:
475,192,20080,1,0,0:0:0:0:
329,192,20193,1,0,0:0:0:0:
475,192,20193,1,0,0:0:0:0:
256,192,20307,1,0,0:0:0:0:
182,192,20307,1,0,0:0:0:0:
109,192,20307,1,0,0:0:0:0:
402,192,20307,1,0,0:0:0:0:
182,192,20420,1,0,0:0:0:0:
109,192,20420,1,0,0:0:0:0:
329,192,20420,1,0,0:0:0:0:
256,192,20534,1,0,0:0:0:0:
402,192,20534,1,0,0:0:0:0:
475,192,20534,1,0,0:0:0:0:
36,192,20534,1,0,0:0:0:0:
182,192,20648,1,0,0:0:0:0:
329,192,20648,1,0,0:0:0:0:
109,192,20761,1,0,0:0:0:0:
329,192,20761,1,0,0:0:0:0:
256,192,20761,1,0,0:0:0:0:
475,192,20761,1,0,0:0:0:0:
182,192,20875,1,0,0:0:0:0:
402,192,20875,1,0,0:0:0:0:
36,192,20989,1,0,0:0:0:0:
109,192,20989,1,0,0:0:0:0:
256,192,20989,1,0,0:0:0:0:
329,192,20989,1,0,0:0:0:0:
109,192,21102,1,0,0:0:0:0:
36,192,21102,1,0,0:0:0:0:
402,192,21102,1,0,0:0:0:0:
182,192,21216,1,0,0:0:0:0:
256,192,21216,1,0,0:0:0:0:
475,192,21216,1,0,0:0:0:0:
329,192,21216,1,0,0:0:0:0:
109,192,21330,1,0,0:0:0:0:
329,192,21330,1,0,0:0:0:0:
182,192,21443,1,0,0:0:0:0:
36,192,21443,1,0,0:0:0:0:
256,192,21443,1,0,0:0:0:0:
402,192,21443,1,0,0:0:0:0:
182,192,21557,1,0,0:0:0:0:
329,192,21557,1,0,0:0:0:0:
402,192,21557,1,0,0:0:0:0:
475,192,21557,1,0,0:0:0:0:
256,192,21670,1,0,0:0:0:0:
109,192,21670,1,0,0:0:0:0:
36,192,21784,1,0,0:0:0:0:
182,192,21784,1,0,0:0:0:0:
329,192,21784,1,0,0:0:0:0:
109,192,21898,1,0,0:0:0:0:
256,192,21898,1,0,0:0:0:0:
402,192,21898,1,0,0:0:0:0:
475,192,21898,1,0,0:0:0:0:
36,192,21898,1,0,0:0:0:0:
402,192,22011,1,0,0:0:0:0:
475,192,22011,1,0,0:0:0:0:
182,192,22011,1,0,0:0:0:0:
182,192,22125,1,0,0:0:0:0:
329,192,22125,1,0,0:0:0:0:
256,192,22239,1,0,0:0:0:0:
402,192,22239,1,0,0:0:0:0:
36,192,22352,1,0,0:0:0:0:
109,192,22352,1,0,0:0:0:0:
182,192,22352,1,0,0:0:0:0:
329,192,22352,1,0,0:0:0:0:
475,192,22352,1,0,0:0:0:0:
256,192,22466,1,0,0:0:0:0:
402,192,22466,1,0,0:0:0:0:
182,192,22580,1,0,0:0:0:0:
329,192,22580,1,0,0:0:0:0:
109,192,22693,1,0,0:0:0:0:
256,192,22693,1,0,0:0:0:0:
329,192,22693,1,0,0:0:0:0:
182,192,22807,1,0,0:0:0:0:
36,192,22807,1,0,0:0:0:0:
256,192,22807,1,0,0:0:0:0:
402,192,22807,1,0,0:0:0:0:
475,192,22807,1,0,0:0:0:0:
182,192,22920,1,0,0:0:0:0:
36,192,22920,1,0,0:0:0:0:
109,192,23034,1,0,0:0:0:0:
256,192,23034,1,0,0:0:0:0:
402,192,23034,1,0,0:0:0:0:
475,192,23034,1,0,0:0:0:0:
402,192,23148,1,0,0:0:0:0:
475,192,23148,1,0,0:0:0:0:
182,192,23148,1,0,0:0:0:0:
36,192,23261,1,0,0:0:0:0:
109,192,23261,1,0,0:0:0:0:
256,192,23261,1,0,0:0:0:0:
329,192,23261,1,0,0:0:0:0:
402,192,23375,1,0,0:0:0:0:
475,192,23375,1,0,0:0:0:0:
329,192,23375,1,0,0:0:0:0:
182,192,23375,1,0,0:0:0:0:
256,192,23489,1,0,0:0:0:0:
109,192,23489,1,0,0:0:0:0:
182,192,23602,1,0,0:0:0:0:
36,192,23602,1,0,0:0:0:0:
402,192,23602,1,0,0:0:0:0:
329,192,23716,1,0,0:0:0:0:
475,192,23716,1,0,0:0:0:0:
256,192,23716,1,0,0:0:0:0:
109,192,23716,1,0,0:0:0:0:
36,192,23716,1,0,0:0:0:0:
329,192,23830,1,0,0:0:0:0:
182,192,23830,1,0,0:0:0:0:
256,192,23943,1,0,0:0:0:0:
402,192,23943,1,0,0:0:0:0:
475,192,23943,1,0,0:0:0:0:
109,192,23943,1,0,0:0:0:0:
182,192,24057,1,0,0:0:0:0:
329,192,24057,1,0,0:0:0:0:
402,192,24057,1,0,0:0:0:0:
109,192,24170,1,0,0:0:0:0:
256,192,24170,1,0,0:0:0:0:
475,192,24170,1,0,0:0:0:0:
36,192,24170,1,0,0:0:0:0:
256,192,24284,1,0,0:0:0:0:
109,192,24284,1,0,0:0:0:0:
182,192,24398,1,0,0:0:0:0:
329,192,24398,1,0,0:0:0:0:
402,192,24398,1,0,0:0:0:0:
475,192,24398,1,0,0:0:0:0:
109,192,24511,1,0,0:0:0:0:
329,192,24511,1,0,0:0:0:0:
475,192,24511,1,0,0:0:0:0:
182,192,24625,1,0,0:0:0:0:
256,192,24625,1,0,0:0:0:0:
402,192,24625,1,0,0:0:0:0:
36,192,24625,1,0,0:0:0:0:
182,192,24739,1,0,0:0:0:0:
329,192,24739,1,0,0:0:0:0:
402,192,24852,1,0,0:0:0:0:
475,192,24852,1,0,0:0:0:0:
256,192,24852,1,0,0:0:0:0:
109,192,24852,1,0,0:0:0:0:
36,192,24966,1,0,0:0:0:0:
182,192,24966,1,0,0:0:0:0:
109,192,25080,1,0,0:0:0:0:
256,192,25080,1,0,0:0:0:0:
329,192,25080,1,0,0:0:0:0:
402,192,25080,1,0,0:0:0:0:
182,192,25193,1,0,0:0:0:0:
329,192,25193,1,0,0:0:0:0:
402,192,25193,1,0,0:0:0:0:
475,192,25193,1,0,0:0:0:0:
109,192,25307,1,0,0:0:0:0:
36,192,25307,1,0,0:0:0:0:
256,192,25307,1,0,0:0:0:0:
329,192,25420,1,0,0:0:0:0:
182,192,25420,1,0,0:0:0:0:
182,192,25534,1,0,0:0:0:0:
36,192,25534,1,0,0:0:0:0:
256,192,25534,1,0,0:0:0:0:
402,192,25534,1,0,0:0:0:0:
475,192,25534,1,0,0:0:0:0:
402,192,25648,1,0,0:0:0:0:
109,192,25648,1,0,0:0:0:0:
182,192,25761,1,0,0:0:0:0:
36,192,25761,1,0,0:0:0:0:
329,192,25761,1,0,0:0:0:0:
256,192,25875,1,0,0:0:0:0:
402,192,25875,1,0,0:0:0:0:
475,192,25875,1,0,0:0:0:0:
109,192,25875,1,0,0:0:0:0:
329,192,25989,1,0,0:0:0:0:
182,192,25989,1,0,0:0:0:0:
36,192,25989,1,0,0:0:0:0:
36,192,26102,1,0,0:0:0:0:
182,192,26102,1,0,0:0:0:0:
402,192,26102,1,0,0:0:0:0:
256,192,26216,1,0,0:0:0:0:
329,192,26216,1,0,0:0:0:0:
109,192,26216,1,0,0:0:0:0:
475,192,26216,1,0,0:0:0:0:
182,192,26330,1,0,0:0:0:0:
329,192,26330,1,0,0:0:0:0:
109,192,26443,1,0,0:0:0:0:
256,192,26443,1,0,0:0:0:0:
402,192,26443,1,0,0:0:0:0:
475,192,26443,1,0,0:0:0:0:
109,192,26557,1,0,0:0:0:0:
256,192,26557,1,0,0:0:0:0:
36,192,26670,1,0,0:0:0:0:
329,192,26670,1,0,0:0:0:0:
182,192,26670,1,0,0:0:0:0:
402,192,26670,1,0,0:0:0:0:
256,192,26784,1,0,0:0:0:0:
329,192,26784,1,0,0:0:0:0:
182,192,26898,1,0,0:0:0:0:
109,192,26898,1,0,0:0:0:0:
402,192,26898,1,0,0:0:0:0:
475,192,26898,1,0,0:0:0:0:
402,192,27011,1,0,0:0:0:0:
475,192,27011,1,0,0:0:0:0:
256,192,27011,1,0,0:0:0:0:
36,192,27125,1,0,0:0:0:0:
109,192,27125,1,0,0:0:0:0:
329,192,27125,1,0,0:0:0:0:
256,192,27239,1,0,0:0:0:0:
109,192,27239,1,0,0:0:0:0:
182,192,27352,1,0,0:0:0:0:
36,192,27352,1,0,0:0:0:0:
475,192,27352,1,0,0:0:0:0:
402,192,27352,1,0,0:0:0:0:
329,192,27352,1,0,0:0:0:0:
329,192,27466,1,0,0:0:0:0:
109,192,27466,1,0,0:0:0:0:
256,192,27580,1,0,0:0:0:0:
475,192,27580,1,0,0:0:0:0:
402,192,27580,1,0,0:0:0:0:
182,192,27580,1,0,0:0:0:0:
36,192,27693,1,0,0:0:0:0:
109,192,27693,1,0,0:0:0:0:
256,192,27807,1,0,0:0:0:0:
475,192,27807,1,0,0:0:0:0:
182,192,27807,1,0,0:0:0:0:
329,192,27807,1,0,0:0:0:0:
109,192,27920,1,0,0:0:0:0:
256,192,27920,1,0,0:0:0:0:
402,192,27920,1,0,0:0:0:0:
182,192,28034,1,0,0:0:0:0:
329,192,28034,1,0,0:0:0:0:
256,192,28148,1,0,0:0:0:0:
402,192,28148,1,0,0:0:0:0:
36,192,28261,1,0,0:0:0:0:
109,192,28261,1,0,0:0:0:0:
256,192,28261,1,0,0:0:0:0:
329,192,28261,1,0,0:0:0:0:
475,192,28261,1,0,0:0:0:0:
182,192,28375,1,0,0:0:0:0:
329,192,28375,1,0,0:0:0:0:
109,192,28489,1,0,0:0:0:0:
256,192,28489,1,0,0:0:0:0:
402,192,28489,1,0,0:0:0:0:
475,192,28489,1,0,0:0:0:0:
182,192,28602,1,0,0:0:0:0:
329,192,28602,1,0,0:0:0:0:
36,192,28716,1,0,0:0:0:0:
109,192,28716,1,0,0:0:0:0:
256,192,28716,1,0,0:0:0:0:
402,192,28716,1,0,0:0:0:0:
329,192,28830,1,0,0:0:0:0:
475,192,28830,1,0,0:0:0:0:
402,192,28830,1,0,0:0:0:0:
109,192,28830,1,0,0:0:0:0:
182,192,28943,1,0,0:0:0:0:
256,192,28943,1,0,0:0:0:0:
36,192,29057,1,0,0:0:0:0:
256,192,29057,1,0,0:0:0:0:
402,192,29057,1,0,0:0:0:0:
109,192,29170,1,0,0:0:0:0:
182,192,29170,1,0,0:0:0:0:
402,192,29170,1,0,0:0:0:0:
475,192,29170,1,0,0:0:0:0:
329,192,29170,1,0,0:0:0:0:
36,192,29284,1,0,0:0:0:0:
329,192,29322,1,0,0:0:0:0:
475,192,29322,1,0,0:0:0:0:
182,192,29398,1,0,0:0:0:0:
329,192,29473,1,0,0:0:0:0:
475,192,29473,1,0,0:0:0:0:
182,192,29511,1,0,0:0:0:0:
329,192,29625,1,0,0:0:0:0:
475,192,29625,1,0,0:0:0:0:
109,192,29625,1,0,0:0:0:0:
36,192,29625,1,0,0:0:0:0:
182,192,29739,1,0,0:0:0:0:
329,192,29776,1,0,0:0:0:0:
475,192,29776,1,0,0:0:0:0:
109,192,29852,1,0,0:0:0:0:
329,192,29928,1,0,0:0:0:0:
475,192,29928,1,0,0:0:0:0:
36,192,29966,1,0,0:0:0:0:
36,192,30080,1,0,0:0:0:0:
109,192,30080,1,0,0:0:0:0:
182,192,30080,1,0,0:0:0:0:
329,192,30080,1,0,0:0:0:0:
402,192,30080,1,0,0:0:0:0:
182,192,30231,1,0,0:0:0:0:
109,192,30231,1,0,0:0:0:0:
329,192,30231,1,0,0:0:0:0:
402,192,30231,1,0,0:0:0:0:
475,192,30231,1,0,0:0:0:0:
36,192,30383,1,0,0:0:0:0:
182,192,30383,1,0,0:0:0:0:
329,192,30383,1,0,0:0:0:0:
475,192,30383,1,0,0:0:0:0:
256,192,30383,1,0,0:0:0:0:
182,192,30534,1,0,0:0:0:0:
36,192,30534,1,0,0:0:0:0:
329,192,30534,1,0,0:0:0:0:
475,192,30534,1,0,0:0:0:0:
256,192,30534,1,0,0:0:0:0:
36,192,30989,1,0,0:0:0:0:
182,192,30989,1,0,0:0:0:0:
329,192,30989,1,0,0:0:0:0:
256,192,30989,1,0,0:0:0:0:
475,192,30989,1,0,0:0:0:0:
109,192,31102,1,0,0:0:0:0:
256,192,31102,1,0,0:0:0:0:
329,192,31216,1,0,0:0:0:0:
182,192,31216,1,0,0:0:0:0:
475,192,31216,1,0,0:0:0:0:
182,192,31330,1,0,0:0:0:0:
402,192,31330,1,0,0:0:0:0:
36,192,31330,1,0,0:0:0:0:
109,192,31443,1,0,0:0:0:0:
256,192,31443,1,0,0:0:0:0:
329,192,31443,1,0,0:0:0:0:
475,192,31443,1,0,0:0:0:0:
256,192,31557,1,0,0:0:0:0:
36,192,31557,1,0,0:0:0:0:
109,192,31670,1,0,0:0:0:0:
182,192,31670,1,0,0:0:0:0:
402,192,31670,1,0,0:0:0:0:
329,192,31670,1,0,0:0:0:0:
109,192,31784,1,0,0:0:0:0:
182,192,31784,1,0,0:0:0:0:
329,192,31898,1,0,0:0:0:0:
256,192,31898,1,0,0:0:0:0:
475,192,31898,1,0,0:0:0:0:
36,192,31898,1,0,0:0:0:0:
329,192,32011,1,0,0:0:0:0:
182,192,32011,1,0,0:0:0:0:
109,192,32125,1,0,0:0:0:0:
36,192,32125,1,0,0:0:0:0:
256,192,32125,1,0,0:0:0:0:
402,192,32125,1,0,0:0:0:0:
475,192,32125,1,0,0:0:0:0:
256,192,32239,1,0,0:0:0:0:
402,192,32239,1,0,0:0:0:0:
475,192,32239,1,0,0:0:0:0:
182,192,32352,1,0,0:0:0:0:
109,192,32352,1,0,0:0:0:0:
329,192,32352,1,0,0:0:0:0:
36,192,32352,1,0,0:0:0:0:
256,192,32466,1,0,0:0:0:0:
402,192,32466,1,0,0:0:0:0:
475,192,32466,1,0,0:0:0:0:
182,192,32580,1,0,0:0:0:0:
329,192,32580,1,0,0:0:0:0:
402,192,32580,1,0,0:0:0:0:
109,192,32693,1,0,0:0:0:0:
256,192,32693,1,0,0:0:0:0:
329,192,32693,1,0,0:0:0:0:
182,192,32807,1,0,0:0:0:0:
36,192,32807,1,0,0:0:0:0:
256,192,32807,1,0,0:0:0:0:
475,192,32807,1,0,0:0:0:0:
402,192,32920,1,0,0:0:0:0:
329,192,32920,1,0,0:0:0:0:
109,192,33034,1,0,0:0:0:0:
256,192,33034,1,0,0:0:0:0:
109,192,33148,1,0,0:0:0:0:
36,192,33148,1,0,0:0:0:0:
402,192,33148,1,0,0:0:0:0:
475,192,33148,1,0,0:0:0:0:
256,192,33148,1,0,0:0:0:0:
182,192,33261,1,0,0:0:0:0:
329,192,33261,1,0,0:0:0:0:
475,192,33261,1,0,0:0:0:0:
109,192,33375,1,0,0:0:0:0:
256,192,33375,1,0,0:0:0:0:
329,192,33489,1,0,0:0:0:0:
402,192,33489,1,0,0:0:0:0:
475,192,33489,1,0,0:0:0:0:
36,192,33489,1,0,0:0:0:0:
182,192,33489,1,0,0:0:0:0:
256,192,33602,1,0,0:0:0:0:
402,192,33602,1,0,0:0:0:0:
109,192,33716,1,0,0:0:0:0:
36,192,33716,1,0,0:0:0:0:
182,192,33716,1,0,0:0:0:0:
329,192,33716,1,0,0:0:0:0:
475,192,33716,1,0,0:0:0:0:
182,192,33830,1,0,0:0:0:0:
329,192,33830,1,0,0:0:0:0:
256,192,33943,1,0,0:0:0:0:
109,192,33943,1,0,0:0:0:0:
402,192,33943,1,0,0:0:0:0:
475,192,33943,1,0,0:0:0:0:
109,192,34057,1,0,0:0:0:0:
36,192,34057,1,0,0:0:0:0:
256,192,34057,1,0,0:0:0:0:
402,192,34057,1,0,0:0:0:0:
182,192,34170,1,0,0:0:0:0:
329,192,34170,1,0,0:0:0:0:
475,192,34170,1,0,0:0:0:0:
109,192,34284,1,0,0:0:0:0:
36,192,34284,1,0,0:0:0:0:
256,192,34284,1,0,0:0:0:0:
402,192,34284,1,0,0:0:0:0:
182,192,34398,1,0,0:0:0:0:
329,192,34398,1,0,0:0:0:0:
402,192,34398,1,0,0:0:0:0:
36,192,34398,1,0,0:0:0:0:
109,192,34511,1,0,0:0:0:0:
256,192,34511,1,0,0:0:0:0:
402,192,34625,1,0,0:0:0:0:
475,192,34625,1,0,0:0:0:0:
329,192,34625,1,0,0:0:0:0:
182,192,34625,1,0,0:0:0:0:
36,192,34625,1,0,0:0:0:0:
182,192,34739,1,0,0:0:0:0:
329,192,34739,1,0,0:0:0:0:
475,192,34739,1,0,0:0:0:0:
402,192,34852,1,0,0:0:0:0:
256,192,34852,1,0,0:0:0:0:
109,192,34852,1,0,0:0:0:0:
36,192,34966,1,0,0:0:0:0:
109,192,34966,1,0,0:0:0:0:
182,192,34966,1,0,0:0:0:0:
329,192,34966,1,0,0:0:0:0:
256,192,35080,1,0,0:0:0:0:
475,192,35080,1,0,0:0:0:0:
402,192,35080,1,0,0:0:0:0:
182,192,35193,1,0,0:0:0:0:
329,192,35193,1,0,0:0:0:0:
109,192,35193,1,0,0:0:0:0:
256,192,35307,1,0,0:0:0:0:
36,192,35307,1,0,0:0:0:0:
109,192,35307,1,0,0:0:0:0:
402,192,35307,1,0,0:0:0:0:
329,192,35420,1,0,0:0:0:0:
475,192,35420,1,0,0:0:0:0:
182,192,35534,1,0,0:0:0:0:
109,192,35534,1,0,0:0:0:0:
402,192,35534,1,0,0:0:0:0:
256,192,35534,1,0,0:0:0:0:
329,192,35648,1,0,0:0:0:0:
182,192,35648,1,0,0:0:0:0:
36,192,35761,1,0,0:0:0:0:
109,192,35761,1,0,0:0:0:0:
256,192,35761,1,0,0:0:0:0:
402,192,35761,1,0,0:0:0:0:
475,192,35761,1,0,0:0:0:0:
256,192,35875,1,0,0:0:0:0:
109,192,35875,1,0,0:0:0:0:
36,192,35875,1,0,0:0:0:0:
182,192,35989,1,0,0:0:0:0:
329,192,35989,1,0,0:0:0:0:
402,192,35989,1,0,0:0:0:0:
475,192,35989,1,0,0:0:0:0:
329,192,36102,1,0,0:0:0:0:
402,192,36102,1,0,0:0:0:0:
109,192,36102,1,0,0:0:0:0:
256,192,36102,1,0,0:0:0:0:
182,192,36216,1,0,0:0:0:0:
36,192,36216,1,0,0:0:0:0:
256,192,36330,1,0,0:0:0:0:
109,192,36330,1,0,0:0:0:0:
329,192,36443,1,0,0:0:0:0:
182,192,36443,1,0,0:0:0:0:
402,192,36443,1,0,0:0:0:0:
475,192,36443,1,0,0:0:0:0:
182,192,36557,1,0,0:0:0:0:
329,192,36557,1,0,0:0:0:0:
36,192,36557,1,0,0:0:0:0:
256,192,36670,1,0,0:0:0:0:
402,192,36670,1,0,0:0:0:0:
109,192,36784,1,0,0:0:0:0:
36,192,36784,1,0,0:0:0:0:
182,192,36784,1,0,0:0:0:0:
329,192,36784,1,0,0:0:0:0:
109,192,36898,1,0,0:0:0:0:
256,192,36898,1,0,0:0:0:0:
329,192,36898,1,0,0:0:0:0:
475,192,36898,1,0,0:0:0:0:
182,192,37011,1,0,0:0:0:0:
402,192,37011,1,0,0:0:0:0:
36,192,37125,1,0,0:0:0:0:
109,192,37125,1,0,0:0:0:0:
256,192,37125,1,0,0:0:0:0:
475,192,37125,1,0,0:0:0:0:
182,192,37239,1,0,0:0:0:0:
329,192,37239,1,0,0:0:0:0:
256,192,37352,1,0,0:0:0:0:
109,192,37352,1,0,0:0:0:0:
402,192,37352,1,0,0:0:0:0:
475,192,37352,1,0,0:0:0:0:
256,192,37466,1,0,0:0:0:0:
402,192,37466,1,0,0:0:0:0:
109,192,37580,1,0,0:0:0:0:
256,192,37580,1,0,0:0:0:0:
36,192,37580,1,0,0:0:0:0:
256,192,37693,1,0,0:0:0:0:
109,192,37693,1,0,0:0:0:0:
402,192,37693,1,0,0:0:0:0:
182,192,37807,1,0,0:0:0:0:
36,192,37807,1,0,0:0:0:0:
329,192,37807,1,0,0:0:0:0:
475,192,37807,1,0,0:0:0:0:
256,192,37920,1,0,0:0:0:0:
109,192,37920,1,0,0:0:0:0:
329,192,37920,1,0,0:0:0:0:
475,192,37920,1,0,0:0:0:0:
182,192,38034,1,0,0:0:0:0:
36,192,38034,1,0,0:0:0:0:
402,192,38034,1,0,0:0:0:0:
475,192,38148,1,0,0:0:0:0:
109,192,38148,1,0,0:0:0:0:
256,192,38148,1,0,0:0:0:0:
182,192,38261,1,0,0:0:0:0:
36,192,38261,1,0,0:0:0:0:
329,192,38261,1,0,0:0:0:0:
475,192,38261,1,0,0:0:0:0:
256,192,38375,1,0,0:0:0:0:
109,192,38375,1,0,0:0:0:0:
36,192,38375,1,0,0:0:0:0:
182,192,38489,1,0,0:0:0:0:
329,192,38489,1,0,0:0:0:0:
475,192,38489,1,0,0:0:0:0:
402,192,38489,1,0,0:0:0:0:
329,192,38602,1,0,0:0:0:0:
256,192,38602,1,0,0:0:0:0:
109,192,38602,1,0,0:0:0:0:
475,192,38602,1,0,0:0:0:0:
182,192,38716,1,0,0:0:0:0:
36,192,38716,1,0,0:0:0:0:
402,192,38716,1,0,0:0:0:0:
182,192,38830,1,0,0:0:0:0:
329,192,38830,1,0,0:0:0:0:
109,192,38943,1,0,0:0:0:0:
36,192,38943,1,0,0:0:0:0:
256,192,38943,1,0,0:0:0:0:
402,192,38943,1,0,0:0:0:0:
256,192,39057,1,0,0:0:0:0:
109,192,39057,1,0,0:0:0:0:
36,192,39057,1,0,0:0:0:0:
182,192,39170,1,0,0:0:0:0:
329,192,39170,1,0,0:0:0:0:
402,192,39284,1,0,0:0:0:0:
182,192,39284,1,0,0:0:0:0:
256,192,39398,1,0,0:0:0:0:
109,192,39398,1,0,0:0:0:0:
475,192,39398,1,0,0:0:0:0:
36,192,39398,1,0,0:0:0:0:
36,192,39511,1,0,0:0:0:0:
256,192,39511,1,0,0:0:0:0:
475,192,39511,1,0,0:0:0:0:
182,192,39625,1,0,0:0:0:0:
329,192,39625,1,0,0:0:0:0:
402,192,39625,1,0,0:0:0:0:
36,192,39739,1,0,0:0:0:0:
109,192,39739,1,0,0:0:0:0:
256,192,39739,1,0,0:0:0:0:
475,192,39739,1,0,0:0:0:0:
109,192,39852,1,0,0:0:0:0:
182,192,39852,1,0,0:0:0:0:
329,192,39852,1,0,0:0:0:0:
182,192,39966,1,0,0:0:0:0:
256,192,39966,1,0,0:0:0:0:
402,192,39966,1,0,0:0:0:0:
256,192,40080,1,0,0:0:0:0:
329,192,40080,1,0,0:0:0:0:
475,192,40080,1,0,0:0:0:0:
36,192,40080,1,0,0:0:0:0:
109,192,40193,1,0,0:0:0:0:
182,192,40193,1,0,0:0:0:0:
256,192,40307,1,0,0:0:0:0:
402,192,40307,1,0,0:0:0:0:
36,192,40307,1,0,0:0:0:0:
182,192,40420,1,0,0:0:0:0:
109,192,40420,1,0,0:0:0:0:
329,192,40420,1,0,0:0:0:0:
475,192,40420,1,0,0:0:0:0:
402,192,40420,1,0,0:0:0:0:
256,192,40534,1,0,0:0:0:0:
36,192,40534,1,0,0:0:0:0:
109,192,40534,1,0,0:0:0:0:
182,192,40648,1,0,0:0:0:0:
329,192,40648,1,0,0:0:0:0:
256,192,40761,1,0,0:0:0:0:
402,192,40761,1,0,0:0:0:0:
109,192,40761,1,0,0:0:0:0:
109,192,40875,1,0,0:0:0:0:
256,192,40875,1,0,0:0:0:0:
182,192,40989,1,0,0:0:0:0:
329,192,40989,1,0,0:0:0:0:
402,192,40989,1,0,0:0:0:0:
475,192,40989,1,0,0:0:0:0:
36,192,40989,1,0,0:0:0:0:
329,192,41102,1,0,0:0:0:0:
475,192,41102,1,0,0:0:0:0:
256,192,41216,1,0,0:0:0:0:
109,192,41216,1,0,0:0:0:0:
182,192,41216,1,0,0:0:0:0:
402,192,41216,1,0,0:0:0:0:
329,192,41330,1,0,0:0:0:0:
182,192,41330,1,0,0:0:0:0:
36,192,41330,1,0,0:0:0:0:
109,192,41330,1,0,0:0:0:0:
256,192,41443,1,0,0:0:0:0:
402,192,41443,1,0,0:0:0:0:
475,192,41443,1,0,0:0:0:0:
402,192,41557,1,0,0:0:0:0:
182,192,41557,1,0,0:0:0:0:
109,192,41557,1,0,0:0:0:0:
36,192,41557,1,0,0:0:0:0:
109,192,41670,1,0,0:0:0:0:
256,192,41670,1,0,0:0:0:0:
329,192,41670,1,0,0:0:0:0:
475,192,41670,1,0,0:0:0:0:
182,192,41784,1,0,0:0:0:0:
256,192,41784,1,0,0:0:0:0:
402,192,41784,1,0,0:0:0:0:
36,192,41898,1,0,0:0:0:0:
109,192,41898,1,0,0:0:0:0:
329,192,41898,1,0,0:0:0:0:
475,192,41898,1,0,0:0:0:0:
256,192,42011,1,0,0:0:0:0:
475,192,42011,1,0,0:0:0:0:
182,192,42011,1,0,0:0:0:0:
109,192,42125,1,0,0:0:0:0:
36,192,42125,1,0,0:0:0:0:
329,192,42125,1,0,0:0:0:0:
109,192,42239,1,0,0:0:0:0:
182,192,42239,1,0,0:0:0:0:
402,192,42239,1,0,0:0:0:0:
256,192,42352,1,0,0:0:0:0:
36,192,42352,1,0,0:0:0:0:
329,192,42352,1,0,0:0:0:0:
475,192,42352,1,0,0:0:0:0:
182,192,42352,1,0,0:0:0:0:
329,192,42466,1,0,0:0:0:0:
475,192,42466,1,0,0:0:0:0:
109,192,42580,1,0,0:0:0:0:
182,192,42580,1,0,0:0:0:0:
256,192,42580,1,0,0:0:0:0:
402,192,42580,1,0,0:0:0:0:
36,192,42580,1,0,0:0:0:0:
109,192,42693,1,0,0:0:0:0:
402,192,42693,1,0,0:0:0:0:
182,192,42807,1,0,0:0:0:0:
329,192,42807,1,0,0:0:0:0:
475,192,42807,1,0,0:0:0:0:
109,192,42920,1,0,0:0:0:0:
329,192,42920,1,0,0:0:0:0:
36,192,43034,1,0,0:0:0:0:
182,192,43034,1,0,0:0:0:0:
256,192,43034,1,0,0:0:0:0:
402,192,43034,1,0,0:0:0:0:
475,192,43034,1,0,0:0:0:0:
182,192,43148,1,0,0:0:0:0:
402,192,43148,1,0,0:0:0:0:
475,192,43148,1,0,0:0:0:0:
109,192,43261,1,0,0:0:0:0:
36,192,43261,1,0,0:0:0:0:
256,192,43261,1,0,0:0:0:0:
329,192,43261,1,0,0:0:0:0:
182,192,43375,1,0,0:0:0:0:
402,192,43375,1,0,0:0:0:0:
475,192,43375,1,0,0:0:0:0:
109,192,43489,1,0,0:0:0:0:
329,192,43489,1,0,0:0:0:0:
402,192,43489,1,0,0:0:0:0:
256,192,43602,1,0,0:0:0:0:
329,192,43602,1,0,0:0:0:0:
36,192,43602,1,0,0:0:0:0:
109,192,43716,1,0,0:0:0:0:
182,192,43716,1,0,0:0:0:0:
256,192,43716,1,0,0:0:0:0:
475,192,43716,1,0,0:0:0:0:
329,192,43830,1,0,0:0:0:0:
475,192,43830,1,0,0:0:0:0:
36,192,43943,1,0,0:0:0:0:
182,192,43943,1,0,0:0:0:0:
402,192,43943,1,0,0:0:0:0:
182,192,44057,1,0,0:0:0:0:
329,192,44057,1,0,0:0:0:0:
109,192,44170,1,0,0:0:0:0:
36,192,44170,1,0,0:0:0:0:
256,192,44170,1,0,0:0:0:0:
402,192,44170,1,0,0:0:0:0:
109,192,44284,1,0,0:0:0:0:
329,192,44284,1,0,0:0:0:0:
182,192,44398,1,0,0:0:0:0:
402,192,44398,1,0,0:0:0:0:
475,192,44398,1,0,0:0:0:0:
402,192,44511,1,0,0:0:0:0:
36,192,44511,1,0,0:0:0:0:
256,192,44511,1,0,0:0:0:0:
109,192,44625,1,0,0:0:0:0:
182,192,44625,1,0,0:0:0:0:
329,192,44625,1,0,0:0:0:0:
475,192,44625,1,0,0:0:0:0:
329,192,44739,1,0,0:0:0:0:
475,192,44739,1,0,0:0:0:0:
36,192,44852,1,0,0:0:0:0:
256,192,44852,1,0,0:0:0:0:
182,192,44852,1,0,0:0:0:0:
182,192,44966,1,0,0:0:0:0:
36,192,44966,1,0,0:0:0:0:
109,192,45080,1,0,0:0:0:0:
256,192,45080,1,0,0:0:0:0:
329,192,45080,1,0,0:0:0:0:
402,192,45080,1,0,0:0:0:0:
109,192,45193,1,0,0:0:0:0:
329,192,45193,1,0,0:0:0:0:
402,192,45193,1,0,0:0:0:0:
182,192,45307,1,0,0:0:0:0:
36,192,45307,1,0,0:0:0:0:
256,192,45307,1,0,0:0:0:0:
475,192,45307,1,0,0:0:0:0:
329,192,45420,1,0,0:0:0:0:
402,192,45420,1,0,0:0:0:0:
109,192,45534,1,0,0:0:0:0:
36,192,45534,1,0,0:0:0:0:
182,192,45534,1,0,0:0:0:0:
256,192,45534,1,0,0:0:0:0:
475,192,45534,1,0,0:0:0:0:
475,192,45648,1,0,0:0:0:0:
329,192,45648,1,0,0:0:0:0:
475,192,45761,1,0,0:0:0:0:
182,192,45761,1,0,0:0:0:0:
36,192,45761,1,0,0:0:0:0:
475,192,45875,1,0,0:0:0:0:
256,192,45875,1,0,0:0:0:0:
109,192,45875,1,0,0:0:0:0:
182,192,45989,1,0,0:0:0:0:
329,192,45989,1,0,0:0:0:0:
402,192,45989,1,0,0:0:0:0:
182,192,46102,1,0,0:0:0:0:
36,192,46102,1,0,0:0:0:0:
182,192,46216,1,0,0:0:0:0:
475,192,46216,1,0,0:0:0:0:
329,192,46216,1,0,0:0:0:0:
182,192,46330,1,0,0:0:0:0:
402,192,46330,1,0,0:0:0:0:
109,192,46443,1,0,0:0:0:0:
36,192,46443,1,0,0:0:0:0:
329,192,46443,1,0,0:0:0:0:
329,192,46557,1,0,0:0:0:0:
182,192,46557,1,0,0:0:0:0:
475,192,46557,1,0,0:0:0:0:
329,192,46670,1,0,0:0:0:0:
109,192,46670,1,0,0:0:0:0:
36,192,46670,1,0,0:0:0:0:
329,192,46784,1,0,0:0:0:0:
402,192,46784,1,0,0:0:0:0:
182,192,46784,1,0,0:0:0:0:
36,192,46898,1,0,0:0:0:0:
256,192,46898,1,0,0:0:0:0:
475,192,46898,1,0,0:0:0:0:
109,192,46898,1,0,0:0:0:0:
36,192,47011,1,0,0:0:0:0:
402,192,47011,1,0,0:0:0:0:
329,192,47011,1,0,0:0:0:0:
36,192,47125,1,0,0:0:0:0:
182,192,47125,1,0,0:0:0:0:
475,192,47125,1,0,0:0:0:0:
36,192,47239,1,0,0:0:0:0:
256,192,47239,1,0,0:0:0:0:
402,192,47239,1,0,0:0:0:0:
329,192,47352,1,0,0:0:0:0:
475,192,47352,1,0,0:0:0:0:
182,192,47352,1,0,0:0:0:0:
109,192,47352,1,0,0:0:0:0:
182,192,47466,1,0,0:0:0:0:
36,192,47466,1,0,0:0:0:0:
475,192,47504,1,0,0:0:0:0:
402,192,47504,1,0,0:0:0:0:
109,192,47580,1,0,0:0:0:0:
329,192,47655,1,0,0:0:0:0:
475,192,47655,1,0,0:0:0:0:
182,192,47693,1,0,0:0:0:0:
329,192,47807,1,0,0:0:0:0:
402,192,47807,1,0,0:0:0:0:
36,192,47807,1,0,0:0:0:0:
109,192,47807,1,0,0:0:0:0:
256,192,47807,1,0,0:0:0:0:
36,192,47920,1,0,0:0:0:0:
182,192,47920,1,0,0:0:0:0:
475,192,47958,1,0,0:0:0:0:
329,192,47958,1,0,0:0:0:0:
109,192,48034,1,0,0:0:0:0:
475,192,48110,1,0,0:0:0:0:
402,192,48110,1,0,0:0:0:0:
182,192,48148,1,0,0:0:0:0:
475,192,48261,1,0,0:0:0:0:
329,192,48261,1,0,0:0:0:0:
36,192,48261,1,0,0:0:0:0:
109,192,48261,1,0,0:0:0:0:
256,192,48261,1,0,0:0:0:0:
182,192,48375,1,0,0:0:0:0:
329,192,48375,1,0,0:0:0:0:
109,192,48489,1,0,0:0:0:0:
36,192,48489,1,0,0:0:0:0:
256,192,48489,1,0,0:0:0:0:
402,192,48489,1,0,0:0:0:0:
475,192,48489,1,0,0:0:0:0:
109,192,48602,1,0,0:0:0:0:
256,192,48602,1,0,0:0:0:0:
182,192,48716,1,0,0:0:0:0:
329,192,48716,1,0,0:0:0:0:
402,192,48716,1,0,0:0:0:0:
475,192,48716,1,0,0:0:0:0:
36,192,48716,1,0,0:0:0:0:
329,192,48830,1,0,0:0:0:0:
475,192,48830,1,0,0:0:0:0:
256,192,48943,1,0,0:0:0:0:
182,192,48943,1,0,0:0:0:0:
109,192,48943,1,0,0:0:0:0:
36,192,48943,1,0,0:0:0:0:
402,192,48943,1,0,0:0:0:0:
109,192,49057,1,0,0:0:0:0:
182,192,49057,1,0,0:0:0:0:
36,192,49170,1,0,0:0:0:0:
256,192,49170,1,0,0:0:0:0:
329,192,49170,1,0,0:0:0:0:
402,192,49170,1,0,0:0:0:0:
475,192,49170,1,0,0:0:0:0:
256,192,49284,1,0,0:0:0:0:
109,192,49284,1,0,0:0:0:0:
256,192,49398,1,0,0:0:0:0:
36,192,49398,1,0,0:0:0:0:
475,192,49398,1,0,0:0:0:0:
256,192,49511,1,0,0:0:0:0:
402,192,49511,1,0,0:0:0:0:
182,192,49511,1,0,0:0:0:0:
109,192,49625,1,0,0:0:0:0:
329,192,49625,1,0,0:0:0:0:
475,192,49625,1,0,0:0:0:0:
36,192,49625,1,0,0:0:0:0:
109,192,49739,1,0,0:0:0:0:
256,192,49739,1,0,0:0:0:0:
402,192,49739,1,0,0:0:0:0:
109,192,49852,1,0,0:0:0:0:
329,192,49852,1,0,0:0:0:0:
475,192,49852,1,0,0:0:0:0:
109,192,49966,1,0,0:0:0:0:
256,192,49966,1,0,0:0:0:0:
402,192,50080,1,0,0:0:0:0:
182,192,50080,1,0,0:0:0:0:
36,192,50080,1,0,0:0:0:0:
329,192,50080,1,0,0:0:0:0:
475,192,50080,1,0,0:0:0:0:
402,192,50193,1,0,0:0:0:0:
109,192,50193,1,0,0:0:0:0:
256,192,50193,1,0,0:0:0:0:
182,192,50307,1,0,0:0:0:0:
402,192,50307,1,0,0:0:0:0:
475,192,50307,1,0,0:0:0:0:
402,192,50420,1,0,0:0:0:0:
109,192,50420,1,0,0:0:0:0:
256,192,50420,1,0,0:0:0:0:
36,192,50534,1,0,0:0:0:0:
329,192,50534,1,0,0:0:0:0:
182,192,50534,1,0,0:0:0:0:
475,192,50534,1,0,0:0:0:0:
36,192,50648,1,0,0:0:0:0:
256,192,50648,1,0,0:0:0:0:
402,192,50648,1,0,0:0:0:0:
36,192,50761,1,0,0:0:0:0:
329,192,50761,1,0,0:0:0:0:
182,192,50761,1,0,0:0:0:0:
475,192,50761,1,0,0:0:0:0:
36,192,50875,1,0,0:0:0:0:
256,192,50875,1,0,0:0:0:0:
402,192,50875,1,0,0:0:0:0:
402,192,50989,1,0,0:0:0:0:
109,192,50989,1,0,0:0:0:0:
182,192,50989,1,0,0:0:0:0:
329,192,50989,1,0,0:0:0:0:
329,192,51102,1,0,0:0:0:0:
475,192,51102,1,0,0:0:0:0:
109,192,51140,1,0,0:0:0:0:
36,192,51140,1,0,0:0:0:0:
402,192,51216,1,0,0:0:0:0:
36,192,51292,1,0,0:0:0:0:
182,192,51292,1,0,0:0:0:0:
329,192,51330,1,0,0:0:0:0:
109,192,51443,1,0,0:0:0:0:
402,192,51443,1,0,0:0:0:0:
475,192,51443,1,0,0:0:0:0:
182,192,51443,1,0,0:0:0:0:
256,192,51443,1,0,0:0:0:0:
329,192,51557,1,0,0:0:0:0:
475,192,51557,1,0,0:0:0:0:
36,192,51595,1,0,0:0:0:0:
182,192,51595,1,0,0:0:0:0:
402,192,51670,1,0,0:0:0:0:
36,192,51746,1,0,0:0:0:0:
109,192,51746,1,0,0:0:0:0:
329,192,51784,1,0,0:0:0:0:
36,192,51898,1,0,0:0:0:0:
475,192,51898,1,0,0:0:0:0:
182,192,51898,1,0,0:0:0:0:
256,192,51898,1,0,0:0:0:0:
402,192,51898,1,0,0:0:0:0:
256,192,52011,1,0,0:0:0:0:
402,192,52011,1,0,0:0:0:0:
109,192,52011,1,0,0:0:0:0:
36,192,52125,1,0,0:0:0:0:
182,192,52125,1,0,0:0:0:0:
329,192,52125,1,0,0:0:0:0:
475,192,52125,1,0,0:0:0:0:
109,192,52239,1,0,0:0:0:0:
256,192,52239,1,0,0:0:0:0:
182,192,52352,1,0,0:0:0:0:
329,192,52352,1,0,0:0:0:0:
402,192,52352,1,0,0:0:0:0:
36,192,52352,1,0,0:0:0:0:
475,192,52352,1,0,0:0:0:0:
329,192,52466,1,0,0:0:0:0:
475,192,52466,1,0,0:0:0:0:
182,192,52580,1,0,0:0:0:0:
109,192,52580,1,0,0:0:0:0:
36,192,52580,1,0,0:0:0:0:
256,192,52580,1,0,0:0:0:0:
402,192,52580,1,0,0:0:0:0:
109,192,52693,1,0,0:0:0:0:
256,192,52693,1,0,0:0:0:0:
182,192,52807,1,0,0:0:0:0:
36,192,52807,1,0,0:0:0:0:
329,192,52807,1,0,0:0:0:0:
475,192,52807,1,0,0:0:0:0:
402,192,52807,1,0,0:0:0:0:
329,192,52920,1,0,0:0:0:0:
109,192,52920,1,0,0:0:0:0:
256,192,52920,1,0,0:0:0:0:
329,192,53034,1,0,0:0:0:0:
182,192,53034,1,0,0:0:0:0:
36,192,53034,1,0,0:0:0:0:
329,192,53148,1,0,0:0:0:0:
109,192,53148,1,0,0:0:0:0:
402,192,53148,1,0,0:0:0:0:
182,192,53261,1,0,0:0:0:0:
256,192,53261,1,0,0:0:0:0:
475,192,53261,1,0,0:0:0:0:
36,192,53261,1,0,0:0:0:0:
182,192,53375,1,0,0:0:0:0:
329,192,53375,1,0,0:0:0:0:
402,192,53375,1,0,0:0:0:0:
182,192,53489,1,0,0:0:0:0:
109,192,53489,1,0,0:0:0:0:
475,192,53489,1,0,0:0:0:0:
182,192,53602,1,0,0:0:0:0:
329,192,53602,1,0,0:0:0:0:
36,192,53602,1,0,0:0:0:0:
402,192,53716,1,0,0:0:0:0:
109,192,53716,1,0,0:0:0:0:
256,192,53716,1,0,0:0:0:0:
475,192,53716,1,0,0:0:0:0:
402,192,53830,1,0,0:0:0:0:
182,192,53830,1,0,0:0:0:0:
36,192,53830,1,0,0:0:0:0:
402,192,53943,1,0,0:0:0:0:
256,192,53943,1,0,0:0:0:0:
109,192,53943,1,0,0:0:0:0:
402,192,54057,1,0,0:0:0:0:
182,192,54057,1,0,0:0:0:0:
475,192,54057,1,0,0:0:0:0:
109,192,54170,1,0,0:0:0:0:
256,192,54170,1,0,0:0:0:0:
329,192,54170,1,0,0:0:0:0:
36,192,54170,1,0,0:0:0:0:
109,192,54284,1,0,0:0:0:0:
182,192,54284,1,0,0:0:0:0:
402,192,54284,1,0,0:0:0:0:
109,192,54398,1,0,0:0:0:0:
329,192,54398,1,0,0:0:0:0:
475,192,54398,1,0,0:0:0:0:
109,192,54511,1,0,0:0:0:0:
402,192,54511,1,0,0:0:0:0:
256,192,54511,1,0,0:0:0:0:
182,192,54625,1,0,0:0:0:0:
36,192,54625,1,0,0:0:0:0:
329,192,54625,1,0,0:0:0:0:
475,192,54625,1,0,0:0:0:0:
182,192,54739,1,0,0:0:0:0:
109,192,54739,1,0,0:0:0:0:
329,192,54776,1,0,0:0:0:0:
402,192,54776,1,0,0:0:0:0:
36,192,54852,1,0,0:0:0:0:
402,192,54928,1,0,0:0:0:0:
475,192,54928,1,0,0:0:0:0:
182,192,54966,1,0,0:0:0:0:
329,192,55080,1,0,0:0:0:0:
475,192,55080,1,0,0:0:0:0:
36,192,55080,1,0,0:0:0:0:
109,192,55080,1,0,0:0:0:0:
256,192,55080,1,0,0:0:0:0:
36,192,55193,1,0,0:0:0:0:
182,192,55193,1,0,0:0:0:0:
329,192,55231,1,0,0:0:0:0:
402,192,55231,1,0,0:0:0:0:
109,192,55307,1,0,0:0:0:0:
402,192,55383,1,0,0:0:0:0:
475,192,55383,1,0,0:0:0:0:
182,192,55420,1,0,0:0:0:0:
329,192,55534,1,0,0:0:0:0:
475,192,55534,1,0,0:0:0:0:
36,192,55534,1,0,0:0:0:0:
109,192,55534,1,0,0:0:0:0:
256,192,55534,1,0,0:0:0:0:
182,192,55648,1,0,0:0:0:0:
329,192,55648,1,0,0:0:0:0:
256,192,55761,1,0,0:0:0:0:
402,192,55761,1,0,0:0:0:0:
475,192,55761,1,0,0:0:0:0:
109,192,55761,1,0,0:0:0:0:
36,192,55761,1,0,0:0:0:0:
182,192,55875,1,0,0:0:0:0:
402,192,55875,1,0,0:0:0:0:
109,192,55989,1,0,0:0:0:0:
36,192,55989,1,0,0:0:0:0:
256,192,55989,1,0,0:0:0:0:
329,192,55989,1,0,0:0:0:0:
475,192,55989,1,0,0:0:0:0:
109,192,56102,1,0,0:0:0:0:
256,192,56102,1,0,0:0:0:0:
182,192,56216,1,0,0:0:0:0:
329,192,56216,1,0,0:0:0:0:
402,192,56216,1,0,0:0:0:0:
36,192,56216,1,0,0:0:0:0:
182,192,56330,1,0,0:0:0:0:
329,192,56330,1,0,0:0:0:0:
109,192,56443,1,0,0:0:0:0:
36,192,56443,1,0,0:0:0:0:
256,192,56443,1,0,0:0:0:0:
402,192,56443,1,0,0:0:0:0:
475,192,56443,1,0,0:0:0:0:
36,192,56557,1,0,0:0:0:0:
182,192,56557,1,0,0:0:0:0:
329,192,56557,1,0,0:0:0:0:
36,192,56670,1,0,0:0:0:0:
256,192,56670,1,0,0:0:0:0:
402,192,56670,1,0,0:0:0:0:
36,192,56784,1,0,0:0:0:0:
182,192,56784,1,0,0:0:0:0:
329,192,56784,1,0,0:0:0:0:
475,192,56898,1,0,0:0:0:0:
109,192,56898,1,0,0:0:0:0:
256,192,56898,1,0,0:0:0:0:
402,192,56898,1,0,0:0:0:0:
475,192,57011,1,0,0:0:0:0:
182,192,57011,1,0,0:0:0:0:
36,192,57011,1,0,0:0:0:0:
475,192,57125,1,0,0:0:0:0:
109,192,57125,1,0,0:0:0:0:
256,192,57125,1,0,0:0:0:0:
475,192,57239,1,0,0:0:0:0:
402,192,57239,1,0,0:0:0:0:
36,192,57239,1,0,0:0:0:0:
182,192,57352,1,0,0:0:0:0:
109,192,57352,1,0,0:0:0:0:
256,192,57352,1,0,0:0:0:0:
329,192,57352,1,0,0:0:0:0:
182,192,57466,1,0,0:0:0:0:
402,192,57466,1,0,0:0:0:0:
475,192,57466,1,0,0:0:0:0:
182,192,57580,1,0,0:0:0:0:
36,192,57580,1,0,0:0:0:0:
329,192,57580,1,0,0:0:0:0:
182,192,57693,1,0,0:0:0:0:
109,192,57693,1,0,0:0:0:0:
402,192,57693,1,0,0:0:0:0:
329,192,57807,1,0,0:0:0:0:
475,192,57807,1,0,0:0:0:0:
256,192,57807,1,0,0:0:0:0:
36,192,57807,1,0,0:0:0:0:
329,192,57920,1,0,0:0:0:0:
109,192,57920,1,0,0:0:0:0:
182,192,57920,1,0,0:0:0:0:
329,192,58034,1,0,0:0:0:0:
256,192,58034,1,0,0:0:0:0:
36,192,58034,1,0,0:0:0:0:
475,192,58034,1,0,0:0:0:0:
329,192,58148,1,0,0:0:0:0:
109,192,58148,1,0,0:0:0:0:
402,192,58148,1,0,0:0:0:0:
182,192,58261,1,0,0:0:0:0:
256,192,58261,1,0,0:0:0:0:
36,192,58261,1,0,0:0:0:0:
475,192,58261,1,0,0:0:0:0:
475,192,58375,1,0,0:0:0:0:
329,192,58375,1,0,0:0:0:0:
109,192,58413,1,0,0:0:0:0:
182,192,58413,1,0,0:0:0:0:
402,192,58489,1,0,0:0:0:0:
36,192,58564,1,0,0:0:0:0:
109,192,58564,1,0,0:0:0:0:
475,192,58602,1,0,0:0:0:0:
36,192,58716,1,0,0:0:0:0:
182,192,58716,1,0,0:0:0:0:
329,192,58716,1,0,0:0:0:0:
402,192,58716,1,0,0:0:0:0:
256,192,58716,1,0,0:0:0:0:
329,192,58830,1,0,0:0:0:0:
475,192,58830,1,0,0:0:0:0:
109,192,58867,1,0,0:0:0:0:
182,192,58867,1,0,0:0:0:0:
402,192,58943,1,0,0:0:0:0:
36,192,59019,1,0,0:0:0:0:
109,192,59019,1,0,0:0:0:0:
329,192,59057,1,0,0:0:0:0:
36,192,59170,1,0,0:0:0:0:
256,192,59170,1,0,0:0:0:0:
182,192,59170,1,0,0:0:0:0:
402,192,59170,1,0,0:0:0:0:
475,192,59170,1,0,0:0:0:0:
109,192,59284,1,0,0:0:0:0:
256,192,59284,1,0,0:0:0:0:
182,192,59398,1,0,0:0:0:0:
329,192,59398,1,0,0:0:0:0:
475,192,59398,1,0,0:0:0:0:
402,192,59398,1,0,0:0:0:0:
36,192,59511,1,0,0:0:0:0:
109,192,59511,1,0,0:0:0:0:
329,192,59511,1,0,0:0:0:0:
256,192,59511,1,0,0:0:0:0:
182,192,59625,1,0,0:0:0:0:
402,192,59625,1,0,0:0:0:0:
475,192,59625,1,0,0:0:0:0:
109,192,59739,1,0,0:0:0:0:
256,192,59739,1,0,0:0:0:0:
402,192,59739,1,0,0:0:0:0:
182,192,59852,1,0,0:0:0:0:
36,192,59852,1,0,0:0:0:0:
329,192,59852,1,0,0:0:0:0:
256,192,59966,1,0,0:0:0:0:
475,192,60080,1,0,0:0:0:0:
329,192,60080,1,0,0:0:0:0:
182,192,60080,1,0,0:0:0:0:
36,192,60080,1,0,0:0:0:0:
109,192,60080,1,0,0:0:0:0:
402,192,60080,1,0,0:0:0:0:
182,192,60231,1,0,0:0:0:0:
36,192,60231,1,0,0:0:0:0:
256,192,60231,1,0,0:0:0:0:
402,192,60231,1,0,0:0:0:0:
475,192,60231,1,0,0:0:0:0:
329,192,60231,1,0,0:0:0:0:
109,192,60383,1,0,0:0:0:0:
36,192,60383,1,0,0:0:0:0:
475,192,60383,1,0,0:0:0:0:
256,192,60383,1,0,0:0:0:0:
329,192,60383,1,0,0:0:0:0:
182,192,60383,1,0,0:0:0:0:
36,192,60534,1,0,0:0:0:0:
109,192,60534,1,0,0:0:0:0:
256,192,60534,1,0,0:0:0:0:
329,192,60534,1,0,0:0:0:0:
402,192,60534,1,0,0:0:0:0:
475,192,60534,1,0,0:0:0:0:
402,192,60686,1,0,0:0:0:0:
329,192,60686,1,0,0:0:0:0:
256,192,60686,1,0,0:0:0:0:
182,192,60686,1,0,0:0:0:0:
109,192,60686,1,0,0:0:0:0:
36,192,60686,1,0,0:0:0:0:
109,192,60837,1,0,0:0:0:0:
182,192,60837,1,0,0:0:0:0:
329,192,60837,1,0,0:0:0:0:
475,192,60837,1,0,0:0:0:0:
402,192,60837,1,0,0:0:0:0:
256,192,60837,1,0,0:0:0:0:
36,192,60989,1,0,0:0:0:0:
109,192,60989,1,0,0:0:0:0:
182,192,60989,1,0,0:0:0:0:
329,192,60989,1,0,0:0:0:0:
402,192,60989,1,0,0:0:0:0:
475,192,60989,1,0,0:0:0:0:
182,192,61140,1,0,0:0:0:0:
109,192,61140,1,0,0:0:0:0:
36,192,61140,1,0,0:0:0:0:
402,192,61140,1,0,0:0:0:0:
329,192,61140,1,0,0:0:0:0:
475,192,61140,1,0,0:0:0:0:
475,192,61292,1,0,0:0:0:0:
402,192,61292,1,0,0:0:0:0:
329,192,61292,1,0,0:0:0:0:
182,192,61292,1,0,0:0:0:0:
109,192,61292,1,0,0:0:0:0:
36,192,61292,1,0,0:0:0:0:
36,192,61443,1,0,0:0:0:0:
109,192,61443,1,0,0:0:0:0:
182,192,61443,1,0,0:0:0:0:
329,192,61443,1,0,0:0:0:0:
475,192,61443,1,0,0:0:0:0:
402,192,61443,1,0,0:0:0:0:
256,192,61443,1,0,0:0:0:0:
475,192,61898,1,0,0:0:0:0:
36,192,61898,1,0,0:0:0:0:
182,192,61898,1,0,0:0:0:0:
329,192,61898,1,0,0:0:0:0:
182,192,62807,1,0,0:0:0:0:
256,192,62920,1,0,0:0:0:0:
329,192,63148,1,0,0:0:0:0:
256,192,63375,1,0,0:0:0:0:
109,192,63602,1,0,0:0:0:0:
182,192,65193,1,0,0:0:0:0:
182,192,65307,1,0,0:0:0:0:
182,192,65420,1,0,0:0:0:0:
329,192,65534,1,0,0:0:0:0:
109,192,66443,1,0,0:0:0:0:
182,192,66557,1,0,0:0:0:0:
329,192,66784,1,0,0:0:0:0:
475,192,67011,1,0,0:0:0:0:
256,192,67239,1,0,0:0:0:0:
329,192,67466,1,0,0:0:0:0:
256,192,67580,1,0,0:0:0:0:
182,192,67693,1,0,0:0:0:0:
36,192,68716,1,0,0:0:0:0:
475,192,69170,1,0,0:0:0:0:
182,192,70080,1,0,0:0:0:0:
256,192,70193,1,0,0:0:0:0:
329,192,70420,1,0,0:0:0:0:
182,192,70648,1,0,0:0:0:0:
475,192,70875,1,0,0:0:0:0:
402,192,72352,1,0,0:0:0:0:
329,192,72807,1,0,0:0:0:0:
182,192,73489,1,0,0:0:0:0:
256,192,73716,1,0,0:0:0:0:
329,192,73830,1,0,0:0:0:0:
402,192,74057,1,0,0:0:0:0:
475,192,74284,1,0,0:0:0:0:
402,192,74511,1,0,0:0:0:0:
182,192,74625,1,0,0:0:0:0:
475,192,74739,1,0,0:0:0:0:
182,192,74776,1,0,0:0:0:0:
402,192,74852,1,0,0:0:0:0:
182,192,74928,1,0,0:0:0:0:
329,192,74966,1,0,0:0:0:0:
109,192,75080,1,0,0:0:0:0:
182,192,75080,1,0,0:0:0:0:
109,192,75231,1,0,0:0:0:0:
182,192,75231,1,0,0:0:0:0:
182,192,75383,1,0,0:0:0:0:
109,192,75383,1,0,0:0:0:0:
36,192,75534,1,0,0:0:0:0:
109,192,75534,1,0,0:0:0:0:
182,192,75534,1,0,0:0:0:0:
329,192,75534,1,0,0:0:0:0:
402,192,75534,1,0,0:0:0:0:
475,192,75534,1,0,0:0:0:0:
182,192,75686,1,0,0:0:0:0:
109,192,75686,1,0,0:0:0:0:
36,192,75686,1,0,0:0:0:0:
475,192,75686,1,0,0:0:0:0:
402,192,75686,1,0,0:0:0:0:
329,192,75686,1,0,0:0:0:0:
36,192,75837,1,0,0:0:0:0:
109,192,75837,1,0,0:0:0:0:
182,192,75837,1,0,0:0:0:0:
329,192,75837,1,0,0:0:0:0:
402,192,75837,1,0,0:0:0:0:
475,192,75837,1,0,0:0:0:0:
182,192,75989,1,0,0:0:0:0:
109,192,75989,1,0,0:0:0:0:
36,192,75989,1,0,0:0:0:0:
475,192,75989,1,0,0:0:0:0:
402,192,75989,1,0,0:0:0:0:
329,192,75989,1,0,0:0:0:0:
109,192,76443,1,0,0:0:0:0:
475,192,76443,1,0,0:0:0:0:
402,192,76443,1,0,0:0:0:0:
256,192,76443,1,0,0:0:0:0:
36,192,76443,1,0,0:0:0:0:
109,192,76557,1,0,0:0:0:0:
182,192,76557,1,0,0:0:0:0:
329,192,76557,1,0,0:0:0:0:
256,192,76670,1,0,0:0:0:0:
402,192,76670,1,0,0:0:0:0:
475,192,76670,1,0,0:0:0:0:
36,192,76670,1,0,0:0:0:0:
182,192,76784,1,0,0:0:0:0:
329,192,76784,1,0,0:0:0:0:
109,192,76898,1,0,0:0:0:0:
36,192,76898,1,0,0:0:0:0:
256,192,76898,1,0,0:0:0:0:
402,192,76898,1,0,0:0:0:0:
475,192,76898,1,0,0:0:0:0:
109,192,77011,1,0,0:0:0:0:
256,192,77011,1,0,0:0:0:0:
402,192,77011,1,0,0:0:0:0:
475,192,77011,1,0,0:0:0:0:
182,192,77125,1,0,0:0:0:0:
329,192,77125,1,0,0:0:0:0:
109,192,77239,1,0,0:0:0:0:
256,192,77239,1,0,0:0:0:0:
36,192,77239,1,0,0:0:0:0:
182,192,77352,1,0,0:0:0:0:
329,192,77352,1,0,0:0:0:0:
402,192,77352,1,0,0:0:0:0:
475,192,77352,1,0,0:0:0:0:
182,192,77466,1,0,0:0:0:0:
329,192,77466,1,0,0:0:0:0:
402,192,77466,1,0,0:0:0:0:
475,192,77466,1,0,0:0:0:0:
109,192,77580,1,0,0:0:0:0:
256,192,77580,1,0,0:0:0:0:
182,192,77693,1,0,0:0:0:0:
329,192,77693,1,0,0:0:0:0:
402,192,77693,1,0,0:0:0:0:
36,192,77807,1,0,0:0:0:0:
109,192,77807,1,0,0:0:0:0:
256,192,77807,1,0,0:0:0:0:
475,192,77807,1,0,0:0:0:0:
256,192,77920,1,0,0:0:0:0:
109,192,77920,1,0,0:0:0:0:
36,192,77920,1,0,0:0:0:0:
475,192,77920,1,0,0:0:0:0:
402,192,78034,1,0,0:0:0:0:
182,192,78034,1,0,0:0:0:0:
109,192,78148,1,0,0:0:0:0:
256,192,78148,1,0,0:0:0:0:
329,192,78148,1,0,0:0:0:0:
182,192,78261,1,0,0:0:0:0:
36,192,78261,1,0,0:0:0:0:
402,192,78261,1,0,0:0:0:0:
475,192,78261,1,0,0:0:0:0:
329,192,78375,1,0,0:0:0:0:
402,192,78375,1,0,0:0:0:0:
109,192,78375,1,0,0:0:0:0:
109,192,78489,1,0,0:0:0:0:
182,192,78489,1,0,0:0:0:0:
329,192,78489,1,0,0:0:0:0:
256,192,78602,1,0,0:0:0:0:
402,192,78602,1,0,0:0:0:0:
475,192,78602,1,0,0:0:0:0:
36,192,78602,1,0,0:0:0:0:
109,192,78716,1,0,0:0:0:0:
182,192,78716,1,0,0:0:0:0:
329,192,78716,1,0,0:0:0:0:
475,192,78716,1,0,0:0:0:0:
256,192,78830,1,0,0:0:0:0:
36,192,78830,1,0,0:0:0:0:
182,192,78830,1,0,0:0:0:0:
109,192,78943,1,0,0:0:0:0:
329,192,78943,1,0,0:0:0:0:
402,192,78943,1,0,0:0:0:0:
475,192,78943,1,0,0:0:0:0:
182,192,79057,1,0,0:0:0:0:
329,192,79057,1,0,0:0:0:0:
256,192,79170,1,0,0:0:0:0:
402,192,79170,1,0,0:0:0:0:
109,192,79170,1,0,0:0:0:0:
36,192,79170,1,0,0:0:0:0:
109,192,79284,1,0,0:0:0:0:
329,192,79284,1,0,0:0:0:0:
475,192,79284,1,0,0:0:0:0:
256,192,79398,1,0,0:0:0:0:
402,192,79398,1,0,0:0:0:0:
182,192,79398,1,0,0:0:0:0:
36,192,79398,1,0,0:0:0:0:
182,192,79511,1,0,0:0:0:0:
329,192,79511,1,0,0:0:0:0:
109,192,79511,1,0,0:0:0:0:
256,192,79625,1,0,0:0:0:0:
402,192,79625,1,0,0:0:0:0:
475,192,79625,1,0,0:0:0:0:
109,192,79625,1,0,0:0:0:0:
36,192,79625,1,0,0:0:0:0:
329,192,79739,1,0,0:0:0:0:
182,192,79739,1,0,0:0:0:0:
36,192,79852,1,0,0:0:0:0:
182,192,79852,1,0,0:0:0:0:
329,192,79852,1,0,0:0:0:0:
475,192,79852,1,0,0:0:0:0:
329,192,79966,1,0,0:0:0:0:
182,192,79966,1,0,0:0:0:0:
109,192,80080,1,0,0:0:0:0:
36,192,80080,1,0,0:0:0:0:
256,192,80080,1,0,0:0:0:0:
402,192,80080,1,0,0:0:0:0:
475,192,80080,1,0,0:0:0:0:
329,192,80193,1,0,0:0:0:0:
182,192,80193,1,0,0:0:0:0:
109,192,80307,1,0,0:0:0:0:
256,192,80307,1,0,0:0:0:0:
402,192,80307,1,0,0:0:0:0:
256,192,80420,1,0,0:0:0:0:
182,192,80420,1,0,0:0:0:0:
475,192,80420,1,0,0:0:0:0:
329,192,80534,1,0,0:0:0:0:
402,192,80534,1,0,0:0:0:0:
109,192,80534,1,0,0:0:0:0:
36,192,80534,1,0,0:0:0:0:
109,192,80648,1,0,0:0:0:0:
182,192,80648,1,0,0:0:0:0:
475,192,80648,1,0,0:0:0:0:
256,192,80761,1,0,0:0:0:0:
402,192,80761,1,0,0:0:0:0:
36,192,80761,1,0,0:0:0:0:
329,192,80761,1,0,0:0:0:0:
36,192,80875,1,0,0:0:0:0:
256,192,80875,1,0,0:0:0:0:
329,192,80875,1,0,0:0:0:0:
402,192,80875,1,0,0:0:0:0:
182,192,80989,1,0,0:0:0:0:
109,192,80989,1,0,0:0:0:0:
475,192,80989,1,0,0:0:0:0:
182,192,81102,1,0,0:0:0:0:
256,192,81102,1,0,0:0:0:0:
402,192,81102,1,0,0:0:0:0:
36,192,81102,1,0,0:0:0:0:
109,192,81216,1,0,0:0:0:0:
256,192,81216,1,0,0:0:0:0:
329,192,81216,1,0,0:0:0:0:
475,192,81216,1,0,0:0:0:0:
182,192,81330,1,0,0:0:0:0:
36,192,81330,1,0,0:0:0:0:
402,192,81330,1,0,0:0:0:0:
36,192,81443,1,0,0:0:0:0:
182,192,81443,1,0,0:0:0:0:
329,192,81443,1,0,0:0:0:0:
475,192,81443,1,0,0:0:0:0:
256,192,81557,1,0,0:0:0:0:
109,192,81557,1,0,0:0:0:0:
475,192,81557,1,0,0:0:0:0:
402,192,81557,1,0,0:0:0:0:
182,192,81670,1,0,0:0:0:0:
36,192,81670,1,0,0:0:0:0:
329,192,81670,1,0,0:0:0:0:
256,192,81784,1,0,0:0:0:0:
109,192,81784,1,0,0:0:0:0:
402,192,81784,1,0,0:0:0:0:
475,192,81784,1,0,0:0:0:0:
182,192,81898,1,0,0:0:0:0:
329,192,81898,1,0,0:0:0:0:
475,192,81898,1,0,0:0:0:0:
36,192,81898,1,0,0:0:0:0:
182,192,82011,1,0,0:0:0:0:
329,192,82011,1,0,0:0:0:0:
109,192,82011,1,0,0:0:0:0:
402,192,82011,1,0,0:0:0:0:
256,192,82125,1,0,0:0:0:0:
402,192,82125,1,0,0:0:0:0:
475,192,82125,1,0,0:0:0:0:
182,192,82239,1,0,0:0:0:0:
36,192,82239,1,0,0:0:0:0:
329,192,82239,1,0,0:0:0:0:
109,192,82352,1,0,0:0:0:0:
256,192,82352,1,0,0:0:0:0:
402,192,82352,1,0,0:0:0:0:
475,192,82352,1,0,0:0:0:0:
329,192,82466,1,0,0:0:0:0:
475,192,82466,1,0,0:0:0:0:
182,192,82466,1,0,0:0:0:0:
36,192,82580,1,0,0:0:0:0:
109,192,82580,1,0,0:0:0:0:
256,192,82580,1,0,0:0:0:0:
402,192,82580,1,0,0:0:0:0:
109,192,82693,1,0,0:0:0:0:
256,192,82693,1,0,0:0:0:0:
36,192,82693,1,0,0:0:0:0:
329,192,82693,1,0,0:0:0:0:
182,192,82807,1,0,0:0:0:0:
402,192,82807,1,0,0:0:0:0:
475,192,82807,1,0,0:0:0:0:
329,192,82920,1,0,0:0:0:0:
475,192,82920,1,0,0:0:0:0:
109,192,82920,1,0,0:0:0:0:
256,192,82920,1,0,0:0:0:0:
182,192,83034,1,0,0:0:0:0:
36,192,83034,1,0,0:0:0:0:
329,192,83034,1,0,0:0:0:0:
402,192,83148,1,0,0:0:0:0:
475,192,83148,1,0,0:0:0:0:
256,192,83148,1,0,0:0:0:0:
109,192,83148,1,0,0:0:0:0:
182,192,83261,1,0,0:0:0:0:
329,192,83261,1,0,0:0:0:0:
36,192,83261,1,0,0:0:0:0:
182,192,83375,1,0,0:0:0:0:
36,192,83375,1,0,0:0:0:0:
402,192,83375,1,0,0:0:0:0:
182,192,83489,1,0,0:0:0:0:
36,192,83489,1,0,0:0:0:0:
329,192,83489,1,0,0:0:0:0:
475,192,83489,1,0,0:0:0:0:
329,192,83602,1,0,0:0:0:0:
475,192,83602,1,0,0:0:0:0:
109,192,83602,1,0,0:0:0:0:
256,192,83602,1,0,0:0:0:0:
182,192,83716,1,0,0:0:0:0:
402,192,83716,1,0,0:0:0:0:
475,192,83716,1,0,0:0:0:0:
36,192,83716,1,0,0:0:0:0:
256,192,83830,1,0,0:0:0:0:
329,192,83830,1,0,0:0:0:0:
109,192,83830,1,0,0:0:0:0:
182,192,83943,1,0,0:0:0:0:
329,192,83943,1,0,0:0:0:0:
475,192,83943,1,0,0:0:0:0:
402,192,83943,1,0,0:0:0:0:
36,192,84057,1,0,0:0:0:0:
109,192,84057,1,0,0:0:0:0:
256,192,84057,1,0,0:0:0:0:
182,192,84170,1,0,0:0:0:0:
329,192,84170,1,0,0:0:0:0:
475,192,84170,1,0,0:0:0:0:
402,192,84170,1,0,0:0:0:0:
36,192,84170,1,0,0:0:0:0:
182,192,84284,1,0,0:0:0:0:
329,192,84284,1,0,0:0:0:0:
402,192,84284,1,0,0:0:0:0:
475,192,84284,1,0,0:0:0:0:
109,192,84398,1,0,0:0:0:0:
256,192,84398,1,0,0:0:0:0:
182,192,84511,1,0,0:0:0:0:
329,192,84511,1,0,0:0:0:0:
402,192,84511,1,0,0:0:0:0:
109,192,84625,1,0,0:0:0:0:
36,192,84625,1,0,0:0:0:0:
256,192,84625,1,0,0:0:0:0:
475,192,84625,1,0,0:0:0:0:
475,192,84739,1,0,0:0:0:0:
256,192,84739,1,0,0:0:0:0:
36,192,84739,1,0,0:0:0:0:
109,192,84739,1,0,0:0:0:0:
182,192,84852,1,0,0:0:0:0:
329,192,84852,1,0,0:0:0:0:
256,192,84966,1,0,0:0:0:0:
36,192,84966,1,0,0:0:0:0:
475,192,84966,1,0,0:0:0:0:
182,192,85080,1,0,0:0:0:0:
329,192,85080,1,0,0:0:0:0:
402,192,85080,1,0,0:0:0:0:
109,192,85080,1,0,0:0:0:0:
109,192,85193,1,0,0:0:0:0:
182,192,85193,1,0,0:0:0:0:
329,192,85193,1,0,0:0:0:0:
402,192,85193,1,0,0:0:0:0:
256,192,85307,1,0,0:0:0:0:
475,192,85307,1,0,0:0:0:0:
109,192,85420,1,0,0:0:0:0:
182,192,85420,1,0,0:0:0:0:
329,192,85420,1,0,0:0:0:0:
36,192,85534,1,0,0:0:0:0:
109,192,85534,1,0,0:0:0:0:
256,192,85534,1,0,0:0:0:0:
402,192,85534,1,0,0:0:0:0:
475,192,85534,1,0,0:0:0:0:
329,192,85648,1,0,0:0:0:0:
402,192,85648,1,0,0:0:0:0:
182,192,85648,1,0,0:0:0:0:
109,192,85761,1,0,0:0:0:0:
36,192,85761,1,0,0:0:0:0:
256,192,85761,1,0,0:0:0:0:
329,192,85875,1,0,0:0:0:0:
182,192,85875,1,0,0:0:0:0:
402,192,85875,1,0,0:0:0:0:
475,192,85875,1,0,0:0:0:0:
36,192,85875,1,0,0:0:0:0:
109,192,85989,1,0,0:0:0:0:
256,192,85989,1,0,0:0:0:0:
402,192,85989,1,0,0:0:0:0:
475,192,85989,1,0,0:0:0:0:
182,192,86102,1,0,0:0:0:0:
329,192,86102,1,0,0:0:0:0:
256,192,86216,1,0,0:0:0:0:
36,192,86216,1,0,0:0:0:0:
109,192,86216,1,0,0:0:0:0:
402,192,86216,1,0,0:0:0:0:
109,192,86330,1,0,0:0:0:0:
256,192,86330,1,0,0:0:0:0:
329,192,86330,1,0,0:0:0:0:
475,192,86330,1,0,0:0:0:0:
182,192,86443,1,0,0:0:0:0:
36,192,86443,1,0,0:0:0:0:
402,192,86443,1,0,0:0:0:0:
329,192,86443,1,0,0:0:0:0:
109,192,86557,1,0,0:0:0:0:
256,192,86557,1,0,0:0:0:0:
182,192,86670,1,0,0:0:0:0:
329,192,86670,1,0,0:0:0:0:
475,192,86670,1,0,0:0:0:0:
402,192,86670,1,0,0:0:0:0:
36,192,86784,1,0,0:0:0:0:
109,192,86784,1,0,0:0:0:0:
329,192,86784,1,0,0:0:0:0:
256,192,86784,1,0,0:0:0:0:
182,192,86898,1,0,0:0:0:0:
36,192,86898,1,0,0:0:0:0:
402,192,86898,1,0,0:0:0:0:
475,192,86898,1,0,0:0:0:0:
256,192,87011,1,0,0:0:0:0:
402,192,87011,1,0,0:0:0:0:
475,192,87011,1,0,0:0:0:0:
109,192,87125,1,0,0:0:0:0:
36,192,87125,1,0,0:0:0:0:
182,192,87125,1,0,0:0:0:0:
329,192,87125,1,0,0:0:0:0:
182,192,87239,1,0,0:0:0:0:
329,192,87239,1,0,0:0:0:0:
402,192,87239,1,0,0:0:0:0:
109,192,87352,1,0,0:0:0:0:
36,192,87352,1,0,0:0:0:0:
256,192,87352,1,0,0:0:0:0:
475,192,87352,1,0,0:0:0:0:
402,192,87352,1,0,0:0:0:0:
182,192,87466,1,0,0:0:0:0:
36,192,87466,1,0,0:0:0:0:
329,192,87466,1,0,0:0:0:0:
109,192,87580,1,0,0:0:0:0:
256,192,87580,1,0,0:0:0:0:
402,192,87580,1,0,0:0:0:0:
475,192,87580,1,0,0:0:0:0:
329,192,87693,1,0,0:0:0:0:
182,192,87693,1,0,0:0:0:0:
402,192,87693,1,0,0:0:0:0:
109,192,87807,1,0,0:0:0:0:
36,192,87807,1,0,0:0:0:0:
256,192,87807,1,0,0:0:0:0:
475,192,87807,1,0,0:0:0:0:
475,192,87920,1,0,0:0:0:0:
329,192,87920,1,0,0:0:0:0:
182,192,88034,1,0,0:0:0:0:
109,192,88034,1,0,0:0:0:0:
36,192,88034,1,0,0:0:0:0:
256,192,88034,1,0,0:0:0:0:
402,192,88034,1,0,0:0:0:0:
109,192,88148,1,0,0:0:0:0:
182,192,88148,1,0,0:0:0:0:
36,192,88148,1,0,0:0:0:0:
329,192,88148,1,0,0:0:0:0:
256,192,88261,1,0,0:0:0:0:
402,192,88261,1,0,0:0:0:0:
475,192,88261,1,0,0:0:0:0:
256,192,88375,1,0,0:0:0:0:
402,192,88375,1,0,0:0:0:0:
475,192,88375,1,0,0:0:0:0:
109,192,88375,1,0,0:0:0:0:
182,192,88489,1,0,0:0:0:0:
329,192,88489,1,0,0:0:0:0:
36,192,88489,1,0,0:0:0:0:
109,192,88602,1,0,0:0:0:0:
256,192,88602,1,0,0:0:0:0:
402,192,88602,1,0,0:0:0:0:
182,192,88716,1,0,0:0:0:0:
329,192,88716,1,0,0:0:0:0:
475,192,88716,1,0,0:0:0:0:
256,192,88830,1,0,0:0:0:0:
329,192,88830,1,0,0:0:0:0:
475,192,88830,1,0,0:0:0:0:
109,192,88830,1,0,0:0:0:0:
402,192,88943,1,0,0:0:0:0:
182,192,88943,1,0,0:0:0:0:
36,192,88943,1,0,0:0:0:0:
256,192,88943,1,0,0:0:0:0:
182,192,89057,1,0,0:0:0:0:
329,192,89057,1,0,0:0:0:0:
109,192,89170,1,0,0:0:0:0:
36,192,89170,1,0,0:0:0:0:
256,192,89170,1,0,0:0:0:0:
402,192,89170,1,0,0:0:0:0:
475,192,89170,1,0,0:0:0:0:
182,192,89322,1,0,0:0:0:0:
36,192,89322,1,0,0:0:0:0:
109,192,89322,1,0,0:0:0:0:
329,192,89322,1,0,0:0:0:0:
402,192,89322,1,0,0:0:0:0:
475,192,89322,1,0,0:0:0:0:
109,192,89473,1,0,0:0:0:0:
36,192,89473,1,0,0:0:0:0:
256,192,89473,1,0,0:0:0:0:
475,192,89473,1,0,0:0:0:0:
402,192,89473,1,0,0:0:0:0:
182,192,89625,1,0,0:0:0:0:
329,192,89625,1,0,0:0:0:0:
36,192,89625,1,0,0:0:0:0:
475,192,89625,1,0,0:0:0:0:
256,192,89776,1,0,0:0:0:0:
109,192,89776,1,0,0:0:0:0:
36,192,89776,1,0,0:0:0:0:
402,192,89776,1,0,0:0:0:0:
475,192,89776,1,0,0:0:0:0:
182,192,89928,1,0,0:0:0:0:
109,192,89928,1,0,0:0:0:0:
329,192,89928,1,0,0:0:0:0:
402,192,89928,1,0,0:0:0:0:
36,192,90080,1,0,0:0:0:0:
109,192,90080,1,0,0:0:0:0:
402,192,90080,1,0,0:0:0:0:
475,192,90080,1,0,0:0:0:0:
182,192,90080,1,0,0:0:0:0:
329,192,90080,1,0,0:0:0:0:
329,192,90231,1,0,0:0:0:0:
182,192,90231,1,0,0:0:0:0:
109,192,90231,1,0,0:0:0:0:
36,192,90231,1,0,0:0:0:0:
402,192,90231,1,0,0:0:0:0:
475,192,90231,1,0,0:0:0:0:
36,192,90383,1,0,0:0:0:0:
109,192,90383,1,0,0:0:0:0:
182,192,90383,1,0,0:0:0:0:
402,192,90383,1,0,0:0:0:0:
329,192,90383,1,0,0:0:0:0:
475,192,90383,1,0,0:0:0:0:
36,192,90534,1,0,0:0:0:0:
109,192,90534,1,0,0:0:0:0:
182,192,90534,1,0,0:0:0:0:
329,192,90534,1,0,0:0:0:0:
402,192,90534,1,0,0:0:0:0:
475,192,90534,1,0,0:0:0:0:
475,192,90989,1,0,0:0:0:0:
402,192,90989,1,0,0:0:0:0:
256,192,90989,1,0,0:0:0:0:
109,192,90989,1,0,0:0:0:0:
36,192,90989,1,0,0:0:0:0:
182,192,91102,1,0,0:0:0:0:
329,192,91102,1,0,0:0:0:0:
402,192,91216,1,0,0:0:0:0:
256,192,91216,1,0,0:0:0:0:
475,192,91216,1,0,0:0:0:0:
36,192,91216,1,0,0:0:0:0:
109,192,91216,1,0,0:0:0:0:
402,192,91330,1,0,0:0:0:0:
329,192,91330,1,0,0:0:0:0:
182,192,91330,1,0,0:0:0:0:
256,192,91443,1,0,0:0:0:0:
36,192,91443,1,0,0:0:0:0:
475,192,91443,1,0,0:0:0:0:
182,192,91443,1,0,0:0:0:0:
109,192,91557,1,0,0:0:0:0:
329,192,91557,1,0,0:0:0:0:
402,192,91557,1,0,0:0:0:0:
475,192,91670,1,0,0:0:0:0:
182,192,91670,1,0,0:0:0:0:
256,192,91670,1,0,0:0:0:0:
36,192,91670,1,0,0:0:0:0:
329,192,91670,1,0,0:0:0:0:
402,192,91784,1,0,0:0:0:0:
256,192,91784,1,0,0:0:0:0:
109,192,91784,1,0,0:0:0:0:
329,192,91898,1,0,0:0:0:0:
182,192,91898,1,0,0:0:0:0:
36,192,91898,1,0,0:0:0:0:
475,192,92011,1,0,0:0:0:0:
402,192,92011,1,0,0:0:0:0:
256,192,92011,1,0,0:0:0:0:
256,192,92125,1,0,0:0:0:0:
109,192,92125,1,0,0:0:0:0:
36,192,92125,1,0,0:0:0:0:
329,192,92125,1,0,0:0:0:0:
402,192,92239,1,0,0:0:0:0:
475,192,92239,1,0,0:0:0:0:
182,192,92239,1,0,0:0:0:0:
256,192,92352,1,0,0:0:0:0:
109,192,92352,1,0,0:0:0:0:
36,192,92352,1,0,0:0:0:0:
402,192,92352,1,0,0:0:0:0:
36,192,92466,1,0,0:0:0:0:
109,192,92466,1,0,0:0:0:0:
475,192,92466,1,0,0:0:0:0:
329,192,92466,1,0,0:0:0:0:
402,192,92580,1,0,0:0:0:0:
256,192,92580,1,0,0:0:0:0:
182,192,92580,1,0,0:0:0:0:
475,192,92693,1,0,0:0:0:0:
182,192,92693,1,0,0:0:0:0:
329,192,92693,1,0,0:0:0:0:
329,192,92807,1,0,0:0:0:0:
182,192,92807,1,0,0:0:0:0:
109,192,92807,1,0,0:0:0:0:
36,192,92807,1,0,0:0:0:0:
402,192,92920,1,0,0:0:0:0:
256,192,92920,1,0,0:0:0:0:
329,192,93034,1,0,0:0:0:0:
36,192,93034,1,0,0:0:0:0:
182,192,93034,1,0,0:0:0:0:
475,192,93034,1,0,0:0:0:0:
329,192,93148,1,0,0:0:0:0:
182,192,93148,1,0,0:0:0:0:
109,192,93148,1,0,0:0:0:0:
402,192,93261,1,0,0:0:0:0:
475,192,93261,1,0,0:0:0:0:
256,192,93261,1,0,0:0:0:0:
36,192,93261,1,0,0:0:0:0:
182,192,93375,1,0,0:0:0:0:
109,192,93375,1,0,0:0:0:0:
402,192,93375,1,0,0:0:0:0:
329,192,93489,1,0,0:0:0:0:
182,192,93489,1,0,0:0:0:0:
475,192,93602,1,0,0:0:0:0:
402,192,93602,1,0,0:0:0:0:
256,192,93602,1,0,0:0:0:0:
109,192,93602,1,0,0:0:0:0:
402,192,93716,1,0,0:0:0:0:
329,192,93716,1,0,0:0:0:0:
182,192,93716,1,0,0:0:0:0:
36,192,93716,1,0,0:0:0:0:
475,192,93830,1,0,0:0:0:0:
182,192,93830,1,0,0:0:0:0:
256,192,93830,1,0,0:0:0:0:
329,192,93943,1,0,0:0:0:0:
109,192,93943,1,0,0:0:0:0:
36,192,93943,1,0,0:0:0:0:
402,192,93943,1,0,0:0:0:0:
109,192,94057,1,0,0:0:0:0:
256,192,94057,1,0,0:0:0:0:
475,192,94057,1,0,0:0:0:0:
402,192,94170,1,0,0:0:0:0:
182,192,94170,1,0,0:0:0:0:
36,192,94170,1,0,0:0:0:0:
329,192,94170,1,0,0:0:0:0:
475,192,94284,1,0,0:0:0:0:
329,192,94284,1,0,0:0:0:0:
256,192,94284,1,0,0:0:0:0:
109,192,94284,1,0,0:0:0:0:
182,192,94398,1,0,0:0:0:0:
36,192,94398,1,0,0:0:0:0:
475,192,94398,1,0,0:0:0:0:
256,192,94511,1,0,0:0:0:0:
109,192,94511,1,0,0:0:0:0:
475,192,94511,1,0,0:0:0:0:
329,192,94511,1,0,0:0:0:0:
329,192,94625,1,0,0:0:0:0:
182,192,94625,1,0,0:0:0:0:
36,192,94625,1,0,0:0:0:0:
402,192,94625,1,0,0:0:0:0:
182,192,94739,1,0,0:0:0:0:
36,192,94739,1,0,0:0:0:0:
256,192,94852,1,0,0:0:0:0:
329,192,94852,1,0,0:0:0:0:
402,192,94852,1,0,0:0:0:0:
109,192,94852,1,0,0:0:0:0:
329,192,94966,1,0,0:0:0:0:
402,192,94966,1,0,0:0:0:0:
182,192,94966,1,0,0:0:0:0:
256,192,95080,1,0,0:0:0:0:
109,192,95080,1,0,0:0:0:0:
36,192,95080,1,0,0:0:0:0:
475,192,95080,1,0,0:0:0:0:
402,192,95080,1,0,0:0:0:0:
329,192,95193,1,0,0:0:0:0:
182,192,95193,1,0,0:0:0:0:
402,192,95307,1,0,0:0:0:0:
182,192,95307,1,0,0:0:0:0:
256,192,95307,1,0,0:0:0:0:
36,192,95307,1,0,0:0:0:0:
329,192,95420,1,0,0:0:0:0:
109,192,95420,1,0,0:0:0:0:
475,192,95534,1,0,0:0:0:0:
402,192,95534,1,0,0:0:0:0:
256,192,95534,1,0,0:0:0:0:
182,192,95534,1,0,0:0:0:0:
402,192,95648,1,0,0:0:0:0:
475,192,95648,1,0,0:0:0:0:
109,192,95648,1,0,0:0:0:0:
329,192,95761,1,0,0:0:0:0:
256,192,95761,1,0,0:0:0:0:
36,192,95761,1,0,0:0:0:0:
182,192,95761,1,0,0:0:0:0:
402,192,95875,1,0,0:0:0:0:
182,192,95875,1,0,0:0:0:0:
36,192,95875,1,0,0:0:0:0:
329,192,95989,1,0,0:0:0:0:
475,192,95989,1,0,0:0:0:0:
256,192,95989,1,0,0:0:0:0:
109,192,95989,1,0,0:0:0:0:
329,192,96102,1,0,0:0:0:0:
182,192,96102,1,0,0:0:0:0:
109,192,96102,1,0,0:0:0:0:
36,192,96102,1,0,0:0:0:0:
475,192,96102,1,0,0:0:0:0:
256,192,96216,1,0,0:0:0:0:
402,192,96216,1,0,0:0:0:0:
475,192,96330,1,0,0:0:0:0:
329,192,96330,1,0,0:0:0:0:
182,192,96330,1,0,0:0:0:0:
109,192,96330,1,0,0:0:0:0:
402,192,96443,1,0,0:0:0:0:
256,192,96443,1,0,0:0:0:0:
109,192,96443,1,0,0:0:0:0:
36,192,96443,1,0,0:0:0:0:
475,192,96443,1,0,0:0:0:0:
109,192,96557,1,0,0:0:0:0:
36,192,96557,1,0,0:0:0:0:
329,192,96557,1,0,0:0:0:0:
329,192,96670,1,0,0:0:0:0:
182,192,96670,1,0,0:0:0:0:
475,192,96670,1,0,0:0:0:0:
256,192,96784,1,0,0:0:0:0:
109,192,96784,1,0,0:0:0:0:
475,192,96784,1,0,0:0:0:0:
475,192,96898,1,0,0:0:0:0:
402,192,96898,1,0,0:0:0:0:
329,192,96898,1,0,0:0:0:0:
182,192,96898,1,0,0:0:0:0:
36,192,96898,1,0,0:0:0:0:
256,192,97011,1,0,0:0:0:0:
109,192,97011,1,0,0:0:0:0:
329,192,97125,1,0,0:0:0:0:
182,192,97125,1,0,0:0:0:0:
36,192,97125,1,0,0:0:0:0:
402,192,97239,1,0,0:0:0:0:
256,192,97239,1,0,0:0:0:0:
182,192,97239,1,0,0:0:0:0:
36,192,97239,1,0,0:0:0:0:
329,192,97352,1,0,0:0:0:0:
475,192,97352,1,0,0:0:0:0:
256,192,97352,1,0,0:0:0:0:
109,192,97352,1,0,0:0:0:0:
36,192,97352,1,0,0:0:0:0:
329,192,97466,1,0,0:0:0:0:
475,192,97466,1,0,0:0:0:0:
402,192,97580,1,0,0:0:0:0:
256,192,97580,1,0,0:0:0:0:
109,192,97580,1,0,0:0:0:0:
36,192,97580,1,0,0:0:0:0:
109,192,97693,1,0,0:0:0:0:
36,192,97693,1,0,0:0:0:0:
329,192,97693,1,0,0:0:0:0:
475,192,97807,1,0,0:0:0:0:
402,192,97807,1,0,0:0:0:0:
256,192,97807,1,0,0:0:0:0:
182,192,97807,1,0,0:0:0:0:
109,192,97920,1,0,0:0:0:0:
36,192,97920,1,0,0:0:0:0:
182,192,97920,1,0,0:0:0:0:
329,192,97920,1,0,0:0:0:0:
256,192,98034,1,0,0:0:0:0:
402,192,98034,1,0,0:0:0:0:
329,192,98148,1,0,0:0:0:0:
475,192,98148,1,0,0:0:0:0:
109,192,98148,1,0,0:0:0:0:
182,192,98261,1,0,0:0:0:0:
36,192,98261,1,0,0:0:0:0:
256,192,98261,1,0,0:0:0:0:
402,192,98261,1,0,0:0:0:0:
475,192,98261,1,0,0:0:0:0:
182,192,98375,1,0,0:0:0:0:
329,192,98375,1,0,0:0:0:0:
256,192,98489,1,0,0:0:0:0:
109,192,98489,1,0,0:0:0:0:
36,192,98489,1,0,0:0:0:0:
402,192,98489,1,0,0:0:0:0:
475,192,98489,1,0,0:0:0:0:
329,192,98602,1,0,0:0:0:0:
182,192,98602,1,0,0:0:0:0:
109,192,98602,1,0,0:0:0:0:
402,192,98716,1,0,0:0:0:0:
256,192,98716,1,0,0:0:0:0:
36,192,98716,1,0,0:0:0:0:
475,192,98716,1,0,0:0:0:0:
256,192,98830,1,0,0:0:0:0:
402,192,98830,1,0,0:0:0:0:
475,192,98830,1,0,0:0:0:0:
329,192,98943,1,0,0:0:0:0:
182,192,98943,1,0,0:0:0:0:
109,192,98943,1,0,0:0:0:0:
36,192,98943,1,0,0:0:0:0:
402,192,99057,1,0,0:0:0:0:
182,192,99057,1,0,0:0:0:0:
36,192,99057,1,0,0:0:0:0:
329,192,99170,1,0,0:0:0:0:
256,192,99170,1,0,0:0:0:0:
109,192,99170,1,0,0:0:0:0:
475,192,99170,1,0,0:0:0:0:
329,192,99284,1,0,0:0:0:0:
182,192,99284,1,0,0:0:0:0:
109,192,99398,1,0,0:0:0:0:
36,192,99398,1,0,0:0:0:0:
256,192,99398,1,0,0:0:0:0:
402,192,99398,1,0,0:0:0:0:
475,192,99511,1,0,0:0:0:0:
329,192,99511,1,0,0:0:0:0:
36,192,99511,1,0,0:0:0:0:
402,192,99625,1,0,0:0:0:0:
256,192,99625,1,0,0:0:0:0:
182,192,99625,1,0,0:0:0:0:
109,192,99625,1,0,0:0:0:0:
329,192,99739,1,0,0:0:0:0:
182,192,99739,1,0,0:0:0:0:
109,192,99739,1,0,0:0:0:0:
36,192,99739,1,0,0:0:0:0:
402,192,99852,1,0,0:0:0:0:
475,192,99852,1,0,0:0:0:0:
256,192,99852,1,0,0:0:0:0:
182,192,99966,1,0,0:0:0:0:
329,192,99966,1,0,0:0:0:0:
475,192,99966,1,0,0:0:0:0:
329,192,100080,1,0,0:0:0:0:
475,192,100080,1,0,0:0:0:0:
256,192,100080,1,0,0:0:0:0:
109,192,100080,1,0,0:0:0:0:
36,192,100080,1,0,0:0:0:0:
402,192,100193,1,0,0:0:0:0:
36,192,100193,1,0,0:0:0:0:
329,192,100307,1,0,0:0:0:0:
475,192,100307,1,0,0:0:0:0:
182,192,100307,1,0,0:0:0:0:
36,192,100307,1,0,0:0:0:0:
256,192,100420,1,0,0:0:0:0:
109,192,100420,1,0,0:0:0:0:
402,192,100420,1,0,0:0:0:0:
182,192,100534,1,0,0:0:0:0:
329,192,100534,1,0,0:0:0:0:
475,192,100534,1,0,0:0:0:0:
36,192,100534,1,0,0:0:0:0:
475,192,100648,1,0,0:0:0:0:
329,192,100648,1,0,0:0:0:0:
109,192,100648,1,0,0:0:0:0:
256,192,100761,1,0,0:0:0:0:
182,192,100761,1,0,0:0:0:0:
402,192,100761,1,0,0:0:0:0:
36,192,100761,1,0,0:0:0:0:
329,192,100875,1,0,0:0:0:0:
182,192,100875,1,0,0:0:0:0:
402,192,100989,1,0,0:0:0:0:
256,192,100989,1,0,0:0:0:0:
109,192,100989,1,0,0:0:0:0:
36,192,100989,1,0,0:0:0:0:
475,192,100989,1,0,0:0:0:0:
402,192,101102,1,0,0:0:0:0:
475,192,101102,1,0,0:0:0:0:
36,192,101102,1,0,0:0:0:0:
475,192,101216,1,0,0:0:0:0:
182,192,101216,1,0,0:0:0:0:
109,192,101216,1,0,0:0:0:0:
402,192,101216,1,0,0:0:0:0:
256,192,101330,1,0,0:0:0:0:
182,192,101330,1,0,0:0:0:0:
329,192,101443,1,0,0:0:0:0:
402,192,101443,1,0,0:0:0:0:
109,192,101443,1,0,0:0:0:0:
36,192,101443,1,0,0:0:0:0:
475,192,101443,1,0,0:0:0:0:
109,192,101557,1,0,0:0:0:0:
36,192,101557,1,0,0:0:0:0:
256,192,101557,1,0,0:0:0:0:
475,192,101670,1,0,0:0:0:0:
402,192,101670,1,0,0:0:0:0:
182,192,101670,1,0,0:0:0:0:
256,192,101784,1,0,0:0:0:0:
402,192,101784,1,0,0:0:0:0:
475,192,101784,1,0,0:0:0:0:
329,192,101898,1,0,0:0:0:0:
475,192,101898,1,0,0:0:0:0:
36,192,101898,1,0,0:0:0:0:
109,192,101898,1,0,0:0:0:0:
182,192,101898,1,0,0:0:0:0:
182,192,102011,1,0,0:0:0:0:
402,192,102011,1,0,0:0:0:0:
256,192,102125,1,0,0:0:0:0:
36,192,102125,1,0,0:0:0:0:
109,192,102125,1,0,0:0:0:0:
329,192,102125,1,0,0:0:0:0:
475,192,102239,1,0,0:0:0:0:
402,192,102239,1,0,0:0:0:0:
109,192,102239,1,0,0:0:0:0:
256,192,102352,1,0,0:0:0:0:
36,192,102352,1,0,0:0:0:0:
329,192,102352,1,0,0:0:0:0:
182,192,102352,1,0,0:0:0:0:
402,192,102466,1,0,0:0:0:0:
256,192,102466,1,0,0:0:0:0:
109,192,102466,1,0,0:0:0:0:
329,192,102580,1,0,0:0:0:0:
182,192,102580,1,0,0:0:0:0:
256,192,102693,1,0,0:0:0:0:
109,192,102693,1,0,0:0:0:0:
475,192,102807,1,0,0:0:0:0:
402,192,102807,1,0,0:0:0:0:
256,192,102807,1,0,0:0:0:0:
182,192,102807,1,0,0:0:0:0:
36,192,102807,1,0,0:0:0:0:
329,192,102920,1,0,0:0:0:0:
182,192,102920,1,0,0:0:0:0:
36,192,102920,1,0,0:0:0:0:
402,192,103034,1,0,0:0:0:0:
256,192,103034,1,0,0:0:0:0:
109,192,103034,1,0,0:0:0:0:
36,192,103034,1,0,0:0:0:0:
329,192,103148,1,0,0:0:0:0:
182,192,103148,1,0,0:0:0:0:
475,192,103261,1,0,0:0:0:0:
402,192,103261,1,0,0:0:0:0:
256,192,103261,1,0,0:0:0:0:
109,192,103261,1,0,0:0:0:0:
182,192,103375,1,0,0:0:0:0:
36,192,103375,1,0,0:0:0:0:
109,192,103375,1,0,0:0:0:0:
402,192,103375,1,0,0:0:0:0:
329,192,103489,1,0,0:0:0:0:
256,192,103489,1,0,0:0:0:0:
475,192,103602,1,0,0:0:0:0:
256,192,103602,1,0,0:0:0:0:
109,192,103602,1,0,0:0:0:0:
36,192,103716,1,0,0:0:0:0:
182,192,103716,1,0,0:0:0:0:
402,192,103716,1,0,0:0:0:0:
329,192,103716,1,0,0:0:0:0:
256,192,103830,1,0,0:0:0:0:
109,192,103830,1,0,0:0:0:0:
329,192,103830,1,0,0:0:0:0:
475,192,103830,1,0,0:0:0:0:
182,192,103943,1,0,0:0:0:0:
36,192,103943,1,0,0:0:0:0:
402,192,103943,1,0,0:0:0:0:
256,192,104057,1,0,0:0:0:0:
329,192,104057,1,0,0:0:0:0:
475,192,104057,1,0,0:0:0:0:
109,192,104057,1,0,0:0:0:0:
182,192,104057,1,0,0:0:0:0:
36,192,104170,1,0,0:0:0:0:
109,192,104170,1,0,0:0:0:0:
256,192,104170,1,0,0:0:0:0:
402,192,104170,1,0,0:0:0:0:
182,192,104284,1,0,0:0:0:0:
329,192,104284,1,0,0:0:0:0:
256,192,104398,1,0,0:0:0:0:
402,192,104398,1,0,0:0:0:0:
475,192,104398,1,0,0:0:0:0:
109,192,104398,1,0,0:0:0:0:
109,192,104511,1,0,0:0:0:0:
256,192,104511,1,0,0:0:0:0:
182,192,104625,1,0,0:0:0:0:
36,192,104625,1,0,0:0:0:0:
402,192,104625,1,0,0:0:0:0:
329,192,104625,1,0,0:0:0:0:
475,192,104625,1,0,0:0:0:0:
36,192,104776,1,0,0:0:0:0:
109,192,104776,1,0,0:0:0:0:
256,192,104776,1,0,0:0:0:0:
329,192,104776,1,0,0:0:0:0:
475,192,104776,1,0,0:0:0:0:
36,192,104928,1,0,0:0:0:0:
182,192,104928,1,0,0:0:0:0:
256,192,104928,1,0,0:0:0:0:
402,192,104928,1,0,0:0:0:0:
329,192,104928,1,0,0:0:0:0:
109,192,105080,1,0,0:0:0:0:
36,192,105080,1,0,0:0:0:0:
256,192,105080,1,0,0:0:0:0:
329,192,105080,1,0,0:0:0:0:
402,192,105080,1,0,0:0:0:0:
475,192,105080,1,0,0:0:0:0:
36,192,105534,1,0,0:0:0:0:
109,192,105534,1,0,0:0:0:0:
182,192,105534,1,0,0:0:0:0:
329,192,105534,1,0,0:0:0:0:
402,192,105534,1,0,0:0:0:0:
475,192,105534,1,0,0:0:0:0:
329,192,105648,1,0,0:0:0:0:
402,192,105648,1,0,0:0:0:0:
182,192,105648,1,0,0:0:0:0:
329,192,105761,1,0,0:0:0:0:
402,192,105761,1,0,0:0:0:0:
109,192,105761,1,0,0:0:0:0:
36,192,105761,1,0,0:0:0:0:
329,192,105875,1,0,0:0:0:0:
402,192,105875,1,0,0:0:0:0:
36,192,105989,1,0,0:0:0:0:
109,192,105989,1,0,0:0:0:0:
256,192,105989,1,0,0:0:0:0:
182,192,105989,1,0,0:0:0:0:
475,192,105989,1,0,0:0:0:0:
109,192,106102,1,0,0:0:0:0:
36,192,106102,1,0,0:0:0:0:
475,192,106102,1,0,0:0:0:0:
329,192,106102,1,0,0:0:0:0:
36,192,106216,1,0,0:0:0:0:
109,192,106216,1,0,0:0:0:0:
402,192,106216,1,0,0:0:0:0:
256,192,106216,1,0,0:0:0:0:
109,192,106330,1,0,0:0:0:0:
36,192,106330,1,0,0:0:0:0:
182,192,106443,1,0,0:0:0:0:
256,192,106443,1,0,0:0:0:0:
329,192,106443,1,0,0:0:0:0:
402,192,106443,1,0,0:0:0:0:
475,192,106443,1,0,0:0:0:0:
402,192,106557,1,0,0:0:0:0:
475,192,106557,1,0,0:0:0:0:
109,192,106557,1,0,0:0:0:0:
36,192,106557,1,0,0:0:0:0:
402,192,106670,1,0,0:0:0:0:
475,192,106670,1,0,0:0:0:0:
182,192,106670,1,0,0:0:0:0:
256,192,106670,1,0,0:0:0:0:
402,192,106784,1,0,0:0:0:0:
475,192,106784,1,0,0:0:0:0:
329,192,106898,1,0,0:0:0:0:
256,192,106898,1,0,0:0:0:0:
182,192,106898,1,0,0:0:0:0:
109,192,106898,1,0,0:0:0:0:
36,192,106898,1,0,0:0:0:0:
109,192,107011,1,0,0:0:0:0:
182,192,107011,1,0,0:0:0:0:
402,192,107011,1,0,0:0:0:0:
475,192,107011,1,0,0:0:0:0:
182,192,107125,1,0,0:0:0:0:
109,192,107125,1,0,0:0:0:0:
329,192,107125,1,0,0:0:0:0:
475,192,107125,1,0,0:0:0:0:
109,192,107239,1,0,0:0:0:0:
182,192,107239,1,0,0:0:0:0:
402,192,107239,1,0,0:0:0:0:
256,192,107352,1,0,0:0:0:0:
36,192,107352,1,0,0:0:0:0:
329,192,107352,1,0,0:0:0:0:
475,192,107352,1,0,0:0:0:0:
36,192,107466,1,0,0:0:0:0:
256,192,107466,1,0,0:0:0:0:
182,192,107466,1,0,0:0:0:0:
256,192,107580,1,0,0:0:0:0:
475,192,107580,1,0,0:0:0:0:
109,192,107580,1,0,0:0:0:0:
402,192,107580,1,0,0:0:0:0:
256,192,107693,1,0,0:0:0:0:
475,192,107693,1,0,0:0:0:0:
36,192,107693,1,0,0:0:0:0:
109,192,107807,1,0,0:0:0:0:
182,192,107807,1,0,0:0:0:0:
402,192,107807,1,0,0:0:0:0:
182,192,107920,1,0,0:0:0:0:
109,192,107920,1,0,0:0:0:0:
475,192,107920,1,0,0:0:0:0:
329,192,108034,1,0,0:0:0:0:
402,192,108034,1,0,0:0:0:0:
36,192,108034,1,0,0:0:0:0:
256,192,108034,1,0,0:0:0:0:
402,192,108148,1,0,0:0:0:0:
329,192,108148,1,0,0:0:0:0:
109,192,108148,1,0,0:0:0:0:
256,192,108261,1,0,0:0:0:0:
475,192,108261,1,0,0:0:0:0:
182,192,108261,1,0,0:0:0:0:
36,192,108261,1,0,0:0:0:0:
256,192,108375,1,0,0:0:0:0:
475,192,108375,1,0,0:0:0:0:
402,192,108375,1,0,0:0:0:0:
256,192,108489,1,0,0:0:0:0:
36,192,108489,1,0,0:0:0:0:
182,192,108489,1,0,0:0:0:0:
256,192,108602,1,0,0:0:0:0:
109,192,108602,1,0,0:0:0:0:
402,192,108602,1,0,0:0:0:0:
475,192,108716,1,0,0:0:0:0:
182,192,108716,1,0,0:0:0:0:
329,192,108716,1,0,0:0:0:0:
256,192,108830,1,0,0:0:0:0:
402,192,108830,1,0,0:0:0:0:
36,192,108830,1,0,0:0:0:0:
329,192,108943,1,0,0:0:0:0:
182,192,108943,1,0,0:0:0:0:
36,192,108943,1,0,0:0:0:0:
109,192,109057,1,0,0:0:0:0:
256,192,109057,1,0,0:0:0:0:
475,192,109170,1,0,0:0:0:0:
402,192,109170,1,0,0:0:0:0:
329,192,109170,1,0,0:0:0:0:
182,192,109170,1,0,0:0:0:0:
36,192,109170,1,0,0:0:0:0:
182,192,109284,1,0,0:0:0:0:
329,192,109284,1,0,0:0:0:0:
329,192,109398,1,0,0:0:0:0:
182,192,109398,1,0,0:0:0:0:
109,192,109398,1,0,0:0:0:0:
36,192,109398,1,0,0:0:0:0:
256,192,109511,1,0,0:0:0:0:
402,192,109511,1,0,0:0:0:0:
475,192,109511,1,0,0:0:0:0:
475,192,109625,1,0,0:0:0:0:
402,192,109625,1,0,0:0:0:0:
109,192,109625,1,0,0:0:0:0:
182,192,109625,1,0,0:0:0:0:
402,192,109739,1,0,0:0:0:0:
475,192,109739,1,0,0:0:0:0:
256,192,109739,1,0,0:0:0:0:
36,192,109852,1,0,0:0:0:0:
109,192,109852,1,0,0:0:0:0:
329,192,109852,1,0,0:0:0:0:
109,192,109966,1,0,0:0:0:0:
36,192,109966,1,0,0:0:0:0:
256,192,109966,1,0,0:0:0:0:
402,192,109966,1,0,0:0:0:0:
36,192,110080,1,0,0:0:0:0:
109,192,110080,1,0,0:0:0:0:
475,192,110080,1,0,0:0:0:0:
329,192,110080,1,0,0:0:0:0:
182,192,110193,1,0,0:0:0:0:
256,192,110193,1,0,0:0:0:0:
402,192,110193,1,0,0:0:0:0:
109,192,110307,1,0,0:0:0:0:
36,192,110307,1,0,0:0:0:0:
256,192,110307,1,0,0:0:0:0:
329,192,110307,1,0,0:0:0:0:
475,192,110307,1,0,0:0:0:0:
182,192,110420,1,0,0:0:0:0:
329,192,110420,1,0,0:0:0:0:
36,192,110534,1,0,0:0:0:0:
109,192,110534,1,0,0:0:0:0:
256,192,110534,1,0,0:0:0:0:
182,192,110648,1,0,0:0:0:0:
329,192,110648,1,0,0:0:0:0:
402,192,110648,1,0,0:0:0:0:
475,192,110648,1,0,0:0:0:0:
109,192,110648,1,0,0:0:0:0:
256,192,110761,1,0,0:0:0:0:
402,192,110761,1,0,0:0:0:0:
475,192,110761,1,0,0:0:0:0:
182,192,110875,1,0,0:0:0:0:
329,192,110875,1,0,0:0:0:0:
109,192,110875,1,0,0:0:0:0:
36,192,110989,1,0,0:0:0:0:
109,192,110989,1,0,0:0:0:0:
256,192,110989,1,0,0:0:0:0:
402,192,110989,1,0,0:0:0:0:
475,192,110989,1,0,0:0:0:0:
329,192,111102,1,0,0:0:0:0:
182,192,111102,1,0,0:0:0:0:
256,192,111216,1,0,0:0:0:0:
109,192,111216,1,0,0:0:0:0:
36,192,111216,1,0,0:0:0:0:
182,192,111330,1,0,0:0:0:0:
329,192,111330,1,0,0:0:0:0:
402,192,111330,1,0,0:0:0:0:
475,192,111330,1,0,0:0:0:0:
109,192,111330,1,0,0:0:0:0:
256,192,111443,1,0,0:0:0:0:
402,192,111443,1,0,0:0:0:0:
36,192,111443,1,0,0:0:0:0:
182,192,111557,1,0,0:0:0:0:
329,192,111557,1,0,0:0:0:0:
109,192,111670,1,0,0:0:0:0:
36,192,111670,1,0,0:0:0:0:
256,192,111670,1,0,0:0:0:0:
402,192,111670,1,0,0:0:0:0:
475,192,111670,1,0,0:0:0:0:
329,192,111784,1,0,0:0:0:0:
182,192,111784,1,0,0:0:0:0:
109,192,111784,1,0,0:0:0:0:
256,192,111898,1,0,0:0:0:0:
402,192,111898,1,0,0:0:0:0:
475,192,111898,1,0,0:0:0:0:
36,192,111898,1,0,0:0:0:0:
182,192,111898,1,0,0:0:0:0:
109,192,112011,1,0,0:0:0:0:
256,192,112011,1,0,0:0:0:0:
182,192,112125,1,0,0:0:0:0:
402,192,112125,1,0,0:0:0:0:
475,192,112125,1,0,0:0:0:0:
329,192,112125,1,0,0:0:0:0:
36,192,112125,1,0,0:0:0:0:
329,192,112239,1,0,0:0:0:0:
402,192,112239,1,0,0:0:0:0:
475,192,112239,1,0,0:0:0:0:
182,192,112239,1,0,0:0:0:0:
36,192,112239,1,0,0:0:0:0:
256,192,112352,1,0,0:0:0:0:
109,192,112352,1,0,0:0:0:0:
36,192,112466,1,0,0:0:0:0:
182,192,112466,1,0,0:0:0:0:
329,192,112466,1,0,0:0:0:0:
475,192,112466,1,0,0:0:0:0:
475,192,112580,1,0,0:0:0:0:
329,192,112580,1,0,0:0:0:0:
182,192,112580,1,0,0:0:0:0:
36,192,112580,1,0,0:0:0:0:
36,192,112693,1,0,0:0:0:0:
182,192,112693,1,0,0:0:0:0:
329,192,112693,1,0,0:0:0:0:
475,192,112693,1,0,0:0:0:0:
109,192,112807,1,0,0:0:0:0:
256,192,112807,1,0,0:0:0:0:
402,192,112807,1,0,0:0:0:0:
182,192,112920,1,0,0:0:0:0:
329,192,112920,1,0,0:0:0:0:
36,192,112920,1,0,0:0:0:0:
256,192,113034,1,0,0:0:0:0:
475,192,113034,1,0,0:0:0:0:
402,192,113034,1,0,0:0:0:0:
109,192,113034,1,0,0:0:0:0:
36,192,113148,1,0,0:0:0:0:
182,192,113148,1,0,0:0:0:0:
329,192,113148,1,0,0:0:0:0:
402,192,113148,1,0,0:0:0:0:
109,192,113261,1,0,0:0:0:0:
36,192,113261,1,0,0:0:0:0:
256,192,113261,1,0,0:0:0:0:
182,192,113375,1,0,0:0:0:0:
329,192,113375,1,0,0:0:0:0:
402,192,113375,1,0,0:0:0:0:
475,192,113375,1,0,0:0:0:0:
36,192,113489,1,0,0:0:0:0:
109,192,113489,1,0,0:0:0:0:
256,192,113489,1,0,0:0:0:0:
475,192,113489,1,0,0:0:0:0:
402,192,113489,1,0,0:0:0:0:
329,192,113602,1,0,0:0:0:0:
182,192,113602,1,0,0:0:0:0:
36,192,113716,1,0,0:0:0:0:
256,192,113716,1,0,0:0:0:0:
329,192,113716,1,0,0:0:0:0:
475,192,113716,1,0,0:0:0:0:
182,192,113830,1,0,0:0:0:0:
402,192,113830,1,0,0:0:0:0:
109,192,113830,1,0,0:0:0:0:
109,192,113943,1,0,0:0:0:0:
256,192,113943,1,0,0:0:0:0:
329,192,113943,1,0,0:0:0:0:
475,192,113943,1,0,0:0:0:0:
36,192,113943,1,0,0:0:0:0:
329,192,114057,1,0,0:0:0:0:
475,192,114057,1,0,0:0:0:0:
182,192,114170,1,0,0:0:0:0:
256,192,114170,1,0,0:0:0:0:
36,192,114170,1,0,0:0:0:0:
402,192,114170,1,0,0:0:0:0:
109,192,114284,1,0,0:0:0:0:
329,192,114284,1,0,0:0:0:0:
475,192,114284,1,0,0:0:0:0:
182,192,114284,1,0,0:0:0:0:
109,192,114398,1,0,0:0:0:0:
329,192,114398,1,0,0:0:0:0:
475,192,114398,1,0,0:0:0:0:
256,192,114511,1,0,0:0:0:0:
182,192,114511,1,0,0:0:0:0:
402,192,114511,1,0,0:0:0:0:
109,192,114625,1,0,0:0:0:0:
36,192,114625,1,0,0:0:0:0:
256,192,114625,1,0,0:0:0:0:
329,192,114625,1,0,0:0:0:0:
475,192,114625,1,0,0:0:0:0:
182,192,114739,1,0,0:0:0:0:
402,192,114739,1,0,0:0:0:0:
109,192,114852,1,0,0:0:0:0:
256,192,114852,1,0,0:0:0:0:
329,192,114852,1,0,0:0:0:0:
182,192,114966,1,0,0:0:0:0:
329,192,114966,1,0,0:0:0:0:
475,192,114966,1,0,0:0:0:0:
256,192,115080,1,0,0:0:0:0:
36,192,115080,1,0,0:0:0:0:
109,192,115080,1,0,0:0:0:0:
402,192,115080,1,0,0:0:0:0:
109,192,115193,1,0,0:0:0:0:
36,192,115193,1,0,0:0:0:0:
329,192,115193,1,0,0:0:0:0:
182,192,115307,1,0,0:0:0:0:
256,192,115307,1,0,0:0:0:0:
402,192,115307,1,0,0:0:0:0:
475,192,115307,1,0,0:0:0:0:
329,192,115420,1,0,0:0:0:0:
402,192,115420,1,0,0:0:0:0:
109,192,115420,1,0,0:0:0:0:
182,192,115420,1,0,0:0:0:0:
256,192,115534,1,0,0:0:0:0:
475,192,115534,1,0,0:0:0:0:
36,192,115534,1,0,0:0:0:0:
109,192,115534,1,0,0:0:0:0:
329,192,115648,1,0,0:0:0:0:
402,192,115648,1,0,0:0:0:0:
182,192,115648,1,0,0:0:0:0:
36,192,115648,1,0,0:0:0:0:
109,192,115761,1,0,0:0:0:0:
256,192,115761,1,0,0:0:0:0:
329,192,115761,1,0,0:0:0:0:
475,192,115761,1,0,0:0:0:0:
182,192,115875,1,0,0:0:0:0:
36,192,115875,1,0,0:0:0:0:
402,192,115875,1,0,0:0:0:0:
256,192,115989,1,0,0:0:0:0:
109,192,115989,1,0,0:0:0:0:
329,192,115989,1,0,0:0:0:0:
475,192,115989,1,0,0:0:0:0:
475,192,116102,1,0,0:0:0:0:
329,192,116102,1,0,0:0:0:0:
36,192,116102,1,0,0:0:0:0:
109,192,116102,1,0,0:0:0:0:
256,192,116216,1,0,0:0:0:0:
402,192,116216,1,0,0:0:0:0:
182,192,116216,1,0,0:0:0:0:
402,192,116330,1,0,0:0:0:0:
256,192,116330,1,0,0:0:0:0:
109,192,116330,1,0,0:0:0:0:
36,192,116330,1,0,0:0:0:0:
36,192,116443,1,0,0:0:0:0:
109,192,116443,1,0,0:0:0:0:
182,192,116443,1,0,0:0:0:0:
329,192,116443,1,0,0:0:0:0:
475,192,116443,1,0,0:0:0:0:
182,192,116557,1,0,0:0:0:0:
402,192,116557,1,0,0:0:0:0:
109,192,116670,1,0,0:0:0:0:
36,192,116670,1,0,0:0:0:0:
256,192,116670,1,0,0:0:0:0:
329,192,116670,1,0,0:0:0:0:
109,192,116784,1,0,0:0:0:0:
256,192,116784,1,0,0:0:0:0:
402,192,116784,1,0,0:0:0:0:
182,192,116898,1,0,0:0:0:0:
36,192,116898,1,0,0:0:0:0:
329,192,116898,1,0,0:0:0:0:
475,192,116898,1,0,0:0:0:0:
182,192,117011,1,0,0:0:0:0:
402,192,117011,1,0,0:0:0:0:
109,192,117011,1,0,0:0:0:0:
256,192,117125,1,0,0:0:0:0:
329,192,117125,1,0,0:0:0:0:
36,192,117125,1,0,0:0:0:0:
475,192,117125,1,0,0:0:0:0:
402,192,117239,1,0,0:0:0:0:
329,192,117239,1,0,0:0:0:0:
182,192,117239,1,0,0:0:0:0:
36,192,117352,1,0,0:0:0:0:
109,192,117352,1,0,0:0:0:0:
256,192,117352,1,0,0:0:0:0:
475,192,117352,1,0,0:0:0:0:
402,192,117352,1,0,0:0:0:0:
182,192,117466,1,0,0:0:0:0:
329,192,117466,1,0,0:0:0:0:
109,192,117580,1,0,0:0:0:0:
256,192,117580,1,0,0:0:0:0:
402,192,117580,1,0,0:0:0:0:
475,192,117580,1,0,0:0:0:0:
256,192,117693,1,0,0:0:0:0:
36,192,117693,1,0,0:0:0:0:
109,192,117693,1,0,0:0:0:0:
402,192,117693,1,0,0:0:0:0:
182,192,117807,1,0,0:0:0:0:
329,192,117807,1,0,0:0:0:0:
109,192,117920,1,0,0:0:0:0:
36,192,117920,1,0,0:0:0:0:
256,192,117920,1,0,0:0:0:0:
402,192,117920,1,0,0:0:0:0:
475,192,117920,1,0,0:0:0:0:
109,192,118034,1,0,0:0:0:0:
182,192,118034,1,0,0:0:0:0:
329,192,118034,1,0,0:0:0:0:
475,192,118034,1,0,0:0:0:0:
36,192,118148,1,0,0:0:0:0:
256,192,118148,1,0,0:0:0:0:
109,192,118261,1,0,0:0:0:0:
256,192,118261,1,0,0:0:0:0:
329,192,118261,1,0,0:0:0:0:
402,192,118261,1,0,0:0:0:0:
475,192,118261,1,0,0:0:0:0:
182,192,118261,1,0,0:0:0:0:
109,192,118413,1,0,0:0:0:0:
182,192,118413,1,0,0:0:0:0:
256,192,118413,1,0,0:0:0:0:
402,192,118413,1,0,0:0:0:0:
475,192,118413,1,0,0:0:0:0:
329,192,118413,1,0,0:0:0:0:
109,192,118564,1,0,0:0:0:0:
182,192,118564,1,0,0:0:0:0:
256,192,118564,1,0,0:0:0:0:
329,192,118564,1,0,0:0:0:0:
402,192,118564,1,0,0:0:0:0:
475,192,118564,1,0,0:0:0:0:
402,192,118716,1,0,0:0:0:0:
329,192,118716,1,0,0:0:0:0:
256,192,118716,1,0,0:0:0:0:
182,192,118716,1,0,0:0:0:0:
109,192,118716,1,0,0:0:0:0:
475,192,118716,1,0,0:0:0:0:
109,192,118867,1,0,0:0:0:0:
182,192,118867,1,0,0:0:0:0:
256,192,118867,1,0,0:0:0:0:
329,192,118867,1,0,0:0:0:0:
402,192,118867,1,0,0:0:0:0:
475,192,118867,1,0,0:0:0:0:
475,192,119019,1,0,0:0:0:0:
402,192,119019,1,0,0:0:0:0:
329,192,119019,1,0,0:0:0:0:
256,192,119019,1,0,0:0:0:0:
182,192,119019,1,0,0:0:0:0:
109,192,119019,1,0,0:0:0:0:
36,192,119170,1,0,0:0:0:0:
109,192,119170,1,0,0:0:0:0:
182,192,119170,1,0,0:0:0:0:
256,192,119170,1,0,0:0:0:0:
329,192,119170,1,0,0:0:0:0:
402,192,119170,1,0,0:0:0:0:
36,192,119322,1,0,0:0:0:0:
109,192,119322,1,0,0:0:0:0:
182,192,119322,1,0,0:0:0:0:
402,192,119322,1,0,0:0:0:0:
256,192,119322,1,0,0:0:0:0:
329,192,119322,1,0,0:0:0:0:
36,192,119473,1,0,0:0:0:0:
109,192,119473,1,0,0:0:0:0:
182,192,119473,1,0,0:0:0:0:
256,192,119473,1,0,0:0:0:0:
402,192,119473,1,0,0:0:0:0:
329,192,119473,1,0,0:0:0:0:
36,192,119625,1,0,0:0:0:0:
109,192,119625,1,0,0:0:0:0:
182,192,119625,1,0,0:0:0:0:
256,192,119625,1,0,0:0:0:0:
329,192,119625,1,0,0:0:0:0:
402,192,119625,1,0,0:0:0:0:
475,192,119625,1,0,0:0:0:0:
192,192,132485,5,0,0:0:0:0:
192,192,132828,1,0,0:0:0:0:
192,192,133342,1,0,0:0:0:0:
192,192,133857,1,0,0:0:0:0:
192,192,134371,1,0,0:0:0:0:
192,192,134885,1,0,0:0:0:0:
192,192,135400,1,0,0:0:0:0:
192,192,135571,1,0,0:0:0:0:
192,192,136085,1,0,0:0:0:0:
192,192,136600,1,0,0:0:0:0:
192,192,137114,1,0,0:0:0:0:
192,192,137628,1,0,0:0:0:0:
192,192,138142,1,0,0:0:0:0:
192,192,138314,1,0,0:0:0:0:
192,192,138828,1,0,0:0:0:0:
192,192,139342,1,0,0:0:0:0:
192,192,139857,1,0,0:0:0:0:
192,192,140371,1,0,0:0:0:0:
192,192,140885,1,0,0:0:0:0:
329,192,141057,1,0,0:0:0:0:
182,192,141228,1,0,0:0:0:0:
329,192,141400,1,0,0:0:0:0:
182,192,141571,1,0,0:0:0:0:
329,192,141742,1,0,0:0:0:0:
182,192,141914,1,0,0:0:0:0:
329,192,142085,1,0,0:0:0:0:
329,192,142257,1,0,0:0:0:0:
329,192,142428,1,0,0:0:0:0:
329,192,142514,1,0,0:0:0:0:
256,192,142600,1,0,0:0:0:0:
256,192,142685,1,0,0:0:0:0:
182,192,142771,1,0,0:0:0:0:
182,192,142857,1,0,0:0:0:0:
329,192,142942,1,0,0:0:0:0:
109,192,142942,1,0,0:0:0:0:
329,192,143028,1,0,0:0:0:0:
109,192,143028,1,0,0:0:0:0:
402,192,143114,1,0,0:0:0:0:
182,192,143114,1,0,0:0:0:0:
256,192,143114,1,0,0:0:0:0:
448,192,143114,1,0,0:0:0:0:
64,192,143114,1,0,0:0:0:0:
36,192,143800,1,0,0:0:0:0:
109,192,143800,1,0,0:0:0:0:
329,192,143800,1,0,0:0:0:0:
448,192,143800,1,0,0:0:0:0:
192,192,143800,1,0,0:0:0:0:
36,192,144057,1,0,0:0:0:0:
329,192,144057,1,0,0:0:0:0:
109,192,144057,1,0,0:0:0:0:
448,192,144057,1,0,0:0:0:0:
192,192,144057,1,0,0:0:0:0:
109,192,144314,1,0,0:0:0:0:
36,192,144314,1,0,0:0:0:0:
475,192,144314,1,0,0:0:0:0:
192,192,144314,1,0,0:0:0:0:
329,192,144314,1,0,0:0:0:0:
329,192,144485,1,0,0:0:0:0:
256,192,144514,1,0,0:0:0:0:
182,192,144542,1,0,0:0:0:0:
109,192,144571,1,0,0:0:0:0:
36,192,144657,1,0,0:0:0:0:
402,192,144657,1,0,0:0:0:0:
448,192,144657,1,0,0:0:0:0:
329,192,144657,1,0,0:0:0:0:
109,192,144771,1,0,0:0:0:0:
182,192,144942,1,0,0:0:0:0:
36,192,145000,1,0,0:0:0:0:
329,192,145000,1,0,0:0:0:0:
448,192,145000,1,0,0:0:0:0:
402,192,145000,1,0,0:0:0:0:
256,192,145285,1,0,0:0:0:0:
109,192,145285,1,0,0:0:0:0:
402,192,145342,1,0,0:0:0:0:
36,192,145342,1,0,0:0:0:0:
448,192,145342,1,0,0:0:0:0:
192,192,145342,1,0,0:0:0:0:
256,192,145400,1,0,0:0:0:0:
109,192,145400,1,0,0:0:0:0:
402,192,145514,1,0,0:0:0:0:
182,192,145514,1,0,0:0:0:0:
320,192,145514,1,0,0:0:0:0:
448,192,145542,1,0,0:0:0:0:
256,192,145571,1,0,0:0:0:0:
36,192,145600,1,0,0:0:0:0:
109,192,145600,1,0,0:0:0:0:
402,192,145685,1,0,0:0:0:0:
192,192,145685,1,0,0:0:0:0:
448,192,145685,1,0,0:0:0:0:
256,192,145771,1,0,0:0:0:0:
320,192,145771,1,0,0:0:0:0:
402,192,145857,1,0,0:0:0:0:
256,192,145857,1,0,0:0:0:0:
475,192,145857,1,0,0:0:0:0:
109,192,145857,1,0,0:0:0:0:
36,192,145857,1,0,0:0:0:0:
109,192,146114,1,0,0:0:0:0:
402,192,146114,1,0,0:0:0:0:
36,192,146114,1,0,0:0:0:0:
475,192,146114,1,0,0:0:0:0:
256,192,146114,1,0,0:0:0:0:
402,192,146371,1,0,0:0:0:0:
475,192,146371,1,0,0:0:0:0:
256,192,146371,1,0,0:0:0:0:
109,192,146371,1,0,0:0:0:0:
36,192,146371,1,0,0:0:0:0:
329,192,146457,1,0,0:0:0:0:
402,192,146628,1,0,0:0:0:0:
475,192,146628,1,0,0:0:0:0:
109,192,146628,1,0,0:0:0:0:
320,192,146628,1,0,0:0:0:0:
192,192,146628,1,0,0:0:0:0:
64,192,146714,1,0,0:0:0:0:
402,192,146885,1,0,0:0:0:0:
475,192,146885,1,0,0:0:0:0:
109,192,146885,1,0,0:0:0:0:
320,192,146885,1,0,0:0:0:0:
192,192,146885,1,0,0:0:0:0:
475,192,147057,1,0,0:0:0:0:
64,192,147057,1,0,0:0:0:0:
329,192,147114,1,0,0:0:0:0:
192,192,147114,1,0,0:0:0:0:
475,192,147171,1,0,0:0:0:0:
64,192,147171,1,0,0:0:0:0:
192,192,147228,1,0,0:0:0:0:
320,192,147228,1,0,0:0:0:0:
402,192,147314,1,0,0:0:0:0:
256,192,147342,1,0,0:0:0:0:
109,192,147371,1,0,0:0:0:0:
475,192,147400,1,0,0:0:0:0:
36,192,147400,1,0,0:0:0:0:
320,192,147400,1,0,0:0:0:0:
182,192,147400,1,0,0:0:0:0:
109,192,147742,1,0,0:0:0:0:
402,192,147742,1,0,0:0:0:0:
320,192,147742,1,0,0:0:0:0:
182,192,147742,1,0,0:0:0:0:
256,192,148085,1,0,0:0:0:0:
475,192,148085,1,0,0:0:0:0:
109,192,148085,1,0,0:0:0:0:
320,192,148085,1,0,0:0:0:0:
64,192,148085,1,0,0:0:0:0:
256,192,148428,1,0,0:0:0:0:
109,192,148428,1,0,0:0:0:0:
329,192,148428,1,0,0:0:0:0:
64,192,148428,1,0,0:0:0:0:
475,192,148428,1,0,0:0:0:0:
182,192,148457,1,0,0:0:0:0:
402,192,148485,1,0,0:0:0:0:
109,192,148542,1,0,0:0:0:0:
182,192,148685,1,0,0:0:0:0:
475,192,148685,1,0,0:0:0:0:
402,192,148685,1,0,0:0:0:0:
320,192,148685,1,0,0:0:0:0:
64,192,148685,1,0,0:0:0:0:
402,192,148942,1,0,0:0:0:0:
475,192,148942,1,0,0:0:0:0:
109,192,148942,1,0,0:0:0:0:
64,192,148942,1,0,0:0:0:0:
256,192,148942,1,0,0:0:0:0:
182,192,149000,1,0,0:0:0:0:
329,192,149000,1,0,0:0:0:0:
402,192,149057,1,0,0:0:0:0:
256,192,149057,1,0,0:0:0:0:
109,192,149057,1,0,0:0:0:0:
256,192,149285,1,0,0:0:0:0:
475,192,149285,1,0,0:0:0:0:
109,192,149285,1,0,0:0:0:0:
320,192,149285,1,0,0:0:0:0:
64,192,149285,1,0,0:0:0:0:
182,192,149457,1,0,0:0:0:0:
256,192,149485,1,0,0:0:0:0:
402,192,149514,1,0,0:0:0:0:
329,192,149542,1,0,0:0:0:0:
109,192,149542,1,0,0:0:0:0:
64,192,149542,1,0,0:0:0:0:
182,192,149628,1,0,0:0:0:0:
448,192,149628,1,0,0:0:0:0:
329,192,149800,1,0,0:0:0:0:
475,192,149800,1,0,0:0:0:0:
256,192,149800,1,0,0:0:0:0:
64,192,149800,1,0,0:0:0:0:
109,192,149800,1,0,0:0:0:0:
402,192,150142,1,0,0:0:0:0:
475,192,150142,1,0,0:0:0:0:
192,192,150142,1,0,0:0:0:0:
64,192,150142,1,0,0:0:0:0:
256,192,150200,1,0,0:0:0:0:
320,192,150200,1,0,0:0:0:0:
402,192,150257,1,0,0:0:0:0:
109,192,150257,1,0,0:0:0:0:
182,192,150314,1,0,0:0:0:0:
329,192,150314,1,0,0:0:0:0:
402,192,150485,1,0,0:0:0:0:
475,192,150485,1,0,0:0:0:0:
256,192,150485,1,0,0:0:0:0:
192,192,150485,1,0,0:0:0:0:
64,192,150485,1,0,0:0:0:0:
402,192,150828,1,0,0:0:0:0:
475,192,150828,1,0,0:0:0:0:
256,192,150828,1,0,0:0:0:0:
192,192,150828,1,0,0:0:0:0:
64,192,150828,1,0,0:0:0:0:
256,192,151064,1,0,0:0:0:0:
329,192,151085,1,0,0:0:0:0:
402,192,151107,1,0,0:0:0:0:
475,192,151128,1,0,0:0:0:0:
182,192,151171,1,0,0:0:0:0:
109,192,151171,1,0,0:0:0:0:
64,192,151171,1,0,0:0:0:0:
109,192,151342,1,0,0:0:0:0:
402,192,151342,1,0,0:0:0:0:
256,192,151342,1,0,0:0:0:0:
192,192,151342,1,0,0:0:0:0:
64,192,151342,1,0,0:0:0:0:
402,192,151600,1,0,0:0:0:0:
475,192,151600,1,0,0:0:0:0:
182,192,151600,1,0,0:0:0:0:
329,192,151600,1,0,0:0:0:0:
36,192,151857,1,0,0:0:0:0:
475,192,151857,1,0,0:0:0:0:
109,192,151857,1,0,0:0:0:0:
329,192,151857,1,0,0:0:0:0:
256,192,151942,1,0,0:0:0:0:
402,192,151942,1,0,0:0:0:0:
182,192,152000,1,0,0:0:0:0:
320,192,152000,1,0,0:0:0:0:
109,192,152057,1,0,0:0:0:0:
448,192,152057,1,0,0:0:0:0:
256,192,152114,1,0,0:0:0:0:
402,192,152114,1,0,0:0:0:0:
192,192,152114,1,0,0:0:0:0:
64,192,152114,1,0,0:0:0:0:
402,192,152371,1,0,0:0:0:0:
475,192,152371,1,0,0:0:0:0:
256,192,152371,1,0,0:0:0:0:
192,192,152371,1,0,0:0:0:0:
64,192,152371,1,0,0:0:0:0:
109,192,152414,1,0,0:0:0:0:
329,192,152428,1,0,0:0:0:0:
402,192,152485,1,0,0:0:0:0:
182,192,152500,1,0,0:0:0:0:
256,192,152542,1,0,0:0:0:0:
402,192,152714,1,0,0:0:0:0:
475,192,152714,1,0,0:0:0:0:
256,192,152714,1,0,0:0:0:0:
192,192,152714,1,0,0:0:0:0:
64,192,152714,1,0,0:0:0:0:
329,192,152771,1,0,0:0:0:0:
109,192,152771,1,0,0:0:0:0:
402,192,152828,1,0,0:0:0:0:
182,192,152828,1,0,0:0:0:0:
475,192,152885,1,0,0:0:0:0:
109,192,152885,1,0,0:0:0:0:
64,192,152885,1,0,0:0:0:0:
256,192,152885,1,0,0:0:0:0:
402,192,153228,1,0,0:0:0:0:
182,192,153228,1,0,0:0:0:0:
329,192,153228,1,0,0:0:0:0:
64,192,153228,1,0,0:0:0:0:
109,192,153228,1,0,0:0:0:0:
448,192,153257,1,0,0:0:0:0:
256,192,153271,1,0,0:0:0:0:
182,192,153314,1,0,0:0:0:0:
256,192,153571,1,0,0:0:0:0:
329,192,153571,1,0,0:0:0:0:
109,192,153571,1,0,0:0:0:0:
448,192,153571,1,0,0:0:0:0:
64,192,153571,1,0,0:0:0:0:
256,192,153914,1,0,0:0:0:0:
109,192,153914,1,0,0:0:0:0:
329,192,153914,1,0,0:0:0:0:
64,192,153914,1,0,0:0:0:0:
475,192,153914,1,0,0:0:0:0:
182,192,153942,1,0,0:0:0:0:
402,192,153971,1,0,0:0:0:0:
256,192,154000,1,0,0:0:0:0:
109,192,154028,1,0,0:0:0:0:
182,192,154085,1,0,0:0:0:0:
329,192,154085,1,0,0:0:0:0:
402,192,154171,1,0,0:0:0:0:
256,192,154171,1,0,0:0:0:0:
182,192,154171,1,0,0:0:0:0:
448,192,154171,1,0,0:0:0:0:
64,192,154171,1,0,0:0:0:0:
182,192,154428,1,0,0:0:0:0:
329,192,154428,1,0,0:0:0:0:
448,192,154428,1,0,0:0:0:0:
64,192,154428,1,0,0:0:0:0:
36,192,154771,1,0,0:0:0:0:
402,192,154771,1,0,0:0:0:0:
182,192,154771,1,0,0:0:0:0:
448,192,154771,1,0,0:0:0:0:
320,192,154771,1,0,0:0:0:0:
329,192,155114,1,0,0:0:0:0:
36,192,155114,1,0,0:0:0:0:
402,192,155114,1,0,0:0:0:0:
448,192,155114,1,0,0:0:0:0:
192,192,155114,1,0,0:0:0:0:
36,192,155285,1,0,0:0:0:0:
182,192,155435,1,0,0:0:0:0:
402,192,155457,1,0,0:0:0:0:
256,192,155457,1,0,0:0:0:0:
448,192,155457,1,0,0:0:0:0:
109,192,155457,1,0,0:0:0:0:
36,192,155478,1,0,0:0:0:0:
329,192,155500,1,0,0:0:0:0:
182,192,155542,1,0,0:0:0:0:
402,192,155714,1,0,0:0:0:0:
36,192,155714,1,0,0:0:0:0:
256,192,155714,1,0,0:0:0:0:
448,192,155714,1,0,0:0:0:0:
192,192,155714,1,0,0:0:0:0:
320,192,155800,1,0,0:0:0:0:
402,192,155971,1,0,0:0:0:0:
256,192,155971,1,0,0:0:0:0:
475,192,155971,1,0,0:0:0:0:
192,192,155971,1,0,0:0:0:0:
64,192,155971,1,0,0:0:0:0:
109,192,156014,1,0,0:0:0:0:
329,192,156057,1,0,0:0:0:0:
256,192,156257,1,0,0:0:0:0:
320,192,156257,1,0,0:0:0:0:
109,192,156314,1,0,0:0:0:0:
36,192,156314,1,0,0:0:0:0:
402,192,156314,1,0,0:0:0:0:
448,192,156314,1,0,0:0:0:0:
192,192,156314,1,0,0:0:0:0:
182,192,156400,1,0,0:0:0:0:
320,192,156485,1,0,0:0:0:0:
256,192,156507,1,0,0:0:0:0:
64,192,156514,1,0,0:0:0:0:
402,192,156528,1,0,0:0:0:0:
109,192,156571,1,0,0:0:0:0:
182,192,156571,1,0,0:0:0:0:
448,192,156571,1,0,0:0:0:0:
256,192,156657,1,0,0:0:0:0:
36,192,156828,1,0,0:0:0:0:
402,192,156828,1,0,0:0:0:0:
109,192,156828,1,0,0:0:0:0:
448,192,156828,1,0,0:0:0:0:
256,192,156828,1,0,0:0:0:0:
36,192,157085,1,0,0:0:0:0:
182,192,157085,1,0,0:0:0:0:
256,192,157085,1,0,0:0:0:0:
475,192,157085,1,0,0:0:0:0:
402,192,157085,1,0,0:0:0:0:
109,192,157171,1,0,0:0:0:0:
329,192,157171,1,0,0:0:0:0:
182,192,157200,1,0,0:0:0:0:
256,192,157214,1,0,0:0:0:0:
402,192,157235,1,0,0:0:0:0:
475,192,157257,1,0,0:0:0:0:
109,192,157342,1,0,0:0:0:0:
256,192,157342,1,0,0:0:0:0:
36,192,157342,1,0,0:0:0:0:
320,192,157342,1,0,0:0:0:0:
192,192,157342,1,0,0:0:0:0:
402,192,157428,1,0,0:0:0:0:
109,192,157685,1,0,0:0:0:0:
256,192,157685,1,0,0:0:0:0:
36,192,157685,1,0,0:0:0:0:
320,192,157685,1,0,0:0:0:0:
192,192,157685,1,0,0:0:0:0:
109,192,157942,1,0,0:0:0:0:
256,192,157942,1,0,0:0:0:0:
36,192,157942,1,0,0:0:0:0:
320,192,157942,1,0,0:0:0:0:
192,192,157942,1,0,0:0:0:0:
402,192,158028,1,0,0:0:0:0:
448,192,158028,1,0,0:0:0:0:
256,192,158085,1,0,0:0:0:0:
109,192,158085,1,0,0:0:0:0:
64,192,158085,1,0,0:0:0:0:
402,192,158142,1,0,0:0:0:0:
448,192,158142,1,0,0:0:0:0:
36,192,158200,1,0,0:0:0:0:
109,192,158200,1,0,0:0:0:0:
256,192,158200,1,0,0:0:0:0:
320,192,158200,1,0,0:0:0:0:
192,192,158200,1,0,0:0:0:0:
475,192,158264,1,0,0:0:0:0:
402,192,158285,1,0,0:0:0:0:
329,192,158307,1,0,0:0:0:0:
182,192,158371,1,0,0:0:0:0:
36,192,158371,1,0,0:0:0:0:
402,192,158542,1,0,0:0:0:0:
475,192,158542,1,0,0:0:0:0:
109,192,158542,1,0,0:0:0:0:
320,192,158542,1,0,0:0:0:0:
192,192,158542,1,0,0:0:0:0:
475,192,158714,1,0,0:0:0:0:
109,192,158714,1,0,0:0:0:0:
402,192,158714,1,0,0:0:0:0:
192,192,158714,1,0,0:0:0:0:
329,192,158714,1,0,0:0:0:0:
182,192,159057,1,0,0:0:0:0:
475,192,159057,1,0,0:0:0:0:
109,192,159057,1,0,0:0:0:0:
320,192,159057,1,0,0:0:0:0:
64,192,159057,1,0,0:0:0:0:
109,192,159400,1,0,0:0:0:0:
475,192,159400,1,0,0:0:0:0:
182,192,159400,1,0,0:0:0:0:
64,192,159400,1,0,0:0:0:0:
329,192,159400,1,0,0:0:0:0:
256,192,159428,1,0,0:0:0:0:
402,192,159457,1,0,0:0:0:0:
182,192,159485,1,0,0:0:0:0:
329,192,159514,1,0,0:0:0:0:
109,192,159657,1,0,0:0:0:0:
256,192,159657,1,0,0:0:0:0:
320,192,159657,1,0,0:0:0:0:
64,192,159657,1,0,0:0:0:0:
402,192,159742,1,0,0:0:0:0:
475,192,159742,1,0,0:0:0:0:
182,192,159742,1,0,0:0:0:0:
256,192,159742,1,0,0:0:0:0:
256,192,159914,1,0,0:0:0:0:
475,192,159914,1,0,0:0:0:0:
36,192,159914,1,0,0:0:0:0:
320,192,159914,1,0,0:0:0:0:
109,192,159914,1,0,0:0:0:0:
402,192,159971,1,0,0:0:0:0:
192,192,159971,1,0,0:0:0:0:
256,192,160028,1,0,0:0:0:0:
329,192,160057,1,0,0:0:0:0:
109,192,160057,1,0,0:0:0:0:
182,192,160257,1,0,0:0:0:0:
475,192,160257,1,0,0:0:0:0:
109,192,160257,1,0,0:0:0:0:
320,192,160257,1,0,0:0:0:0:
64,192,160257,1,0,0:0:0:0:
475,192,160428,1,0,0:0:0:0:
402,192,160457,1,0,0:0:0:0:
256,192,160485,1,0,0:0:0:0:
36,192,160514,1,0,0:0:0:0:
192,192,160514,1,0,0:0:0:0:
402,192,160600,1,0,0:0:0:0:
475,192,160600,1,0,0:0:0:0:
329,192,160600,1,0,0:0:0:0:
36,192,160600,1,0,0:0:0:0:
182,192,160600,1,0,0:0:0:0:
402,192,160771,1,0,0:0:0:0:
475,192,160771,1,0,0:0:0:0:
256,192,160771,1,0,0:0:0:0:
64,192,160771,1,0,0:0:0:0:
182,192,160771,1,0,0:0:0:0:
475,192,160942,1,0,0:0:0:0:
256,192,160942,1,0,0:0:0:0:
402,192,160942,1,0,0:0:0:0:
192,192,160942,1,0,0:0:0:0:
64,192,160942,1,0,0:0:0:0:
329,192,161114,1,0,0:0:0:0:
182,192,161114,1,0,0:0:0:0:
402,192,161171,1,0,0:0:0:0:
475,192,161171,1,0,0:0:0:0:
256,192,161171,1,0,0:0:0:0:
36,192,161171,1,0,0:0:0:0:
109,192,161171,1,0,0:0:0:0:
329,192,161228,1,0,0:0:0:0:
182,192,161228,1,0,0:0:0:0:
256,192,161285,1,0,0:0:0:0:
109,192,161285,1,0,0:0:0:0:
402,192,161457,1,0,0:0:0:0:
329,192,161457,1,0,0:0:0:0:
475,192,161457,1,0,0:0:0:0:
192,192,161457,1,0,0:0:0:0:
64,192,161457,1,0,0:0:0:0:
402,192,161800,1,0,0:0:0:0:
475,192,161800,1,0,0:0:0:0:
329,192,161800,1,0,0:0:0:0:
192,192,161800,1,0,0:0:0:0:
64,192,161800,1,0,0:0:0:0:
329,192,162057,1,0,0:0:0:0:
402,192,162100,1,0,0:0:0:0:
475,192,162142,1,0,0:0:0:0:
182,192,162142,1,0,0:0:0:0:
64,192,162142,1,0,0:0:0:0:
402,192,162314,1,0,0:0:0:0:
329,192,162314,1,0,0:0:0:0:
109,192,162314,1,0,0:0:0:0:
192,192,162314,1,0,0:0:0:0:
475,192,162314,1,0,0:0:0:0:
182,192,162571,1,0,0:0:0:0:
329,192,162571,1,0,0:0:0:0:
475,192,162571,1,0,0:0:0:0:
36,192,162828,1,0,0:0:0:0:
402,192,162828,1,0,0:0:0:0:
192,192,162828,1,0,0:0:0:0:
256,192,162828,1,0,0:0:0:0:
109,192,162871,1,0,0:0:0:0:
448,192,162914,1,0,0:0:0:0:
402,192,162957,1,0,0:0:0:0:
256,192,163000,1,0,0:0:0:0:
64,192,163000,1,0,0:0:0:0:
192,192,163000,1,0,0:0:0:0:
475,192,163085,1,0,0:0:0:0:
329,192,163085,1,0,0:0:0:0:
64,192,163257,1,0,0:0:0:0:
192,192,163257,1,0,0:0:0:0:
182,192,163342,1,0,0:0:0:0:
475,192,163342,1,0,0:0:0:0:
402,192,163428,1,0,0:0:0:0:
329,192,163471,1,0,0:0:0:0:
182,192,163514,1,0,0:0:0:0:
256,192,163514,1,0,0:0:0:0:
64,192,163514,1,0,0:0:0:0:
329,192,163600,1,0,0:0:0:0:
402,192,163685,1,0,0:0:0:0:
64,192,163771,1,0,0:0:0:0:
192,192,163771,1,0,0:0:0:0:
402,192,163800,1,0,0:0:0:0:
448,192,163800,1,0,0:0:0:0:
109,192,163857,1,0,0:0:0:0:
329,192,163857,1,0,0:0:0:0:
36,192,164028,1,0,0:0:0:0:
402,192,164028,1,0,0:0:0:0:
448,192,164028,1,0,0:0:0:0:
192,192,164028,1,0,0:0:0:0:
329,192,164114,1,0,0:0:0:0:
192,192,164200,1,0,0:0:0:0:
402,192,164228,1,0,0:0:0:0:
329,192,164285,1,0,0:0:0:0:
182,192,164285,1,0,0:0:0:0:
36,192,164371,1,0,0:0:0:0:
109,192,164371,1,0,0:0:0:0:
256,192,164371,1,0,0:0:0:0:
475,192,164371,1,0,0:0:0:0:
329,192,164542,1,0,0:0:0:0:
109,192,164542,1,0,0:0:0:0:
448,192,164542,1,0,0:0:0:0:
192,192,164542,1,0,0:0:0:0:
329,192,164628,1,0,0:0:0:0:
36,192,164714,1,0,0:0:0:0:
256,192,164714,1,0,0:0:0:0:
109,192,164800,1,0,0:0:0:0:
402,192,164800,1,0,0:0:0:0:
448,192,164800,1,0,0:0:0:0:
192,192,164800,1,0,0:0:0:0:
329,192,164885,1,0,0:0:0:0:
256,192,164928,1,0,0:0:0:0:
475,192,164971,1,0,0:0:0:0:
182,192,164971,1,0,0:0:0:0:
256,192,165057,1,0,0:0:0:0:
329,192,165057,1,0,0:0:0:0:
109,192,165057,1,0,0:0:0:0:
448,192,165057,1,0,0:0:0:0:
64,192,165057,1,0,0:0:0:0:
109,192,165742,1,0,0:0:0:0:
402,192,165742,1,0,0:0:0:0:
329,192,165742,1,0,0:0:0:0:
448,192,165742,1,0,0:0:0:0:
192,192,165742,1,0,0:0:0:0:
109,192,165914,1,0,0:0:0:0:
64,192,165914,1,0,0:0:0:0:
402,192,166000,1,0,0:0:0:0:
329,192,166000,1,0,0:0:0:0:
448,192,166000,1,0,0:0:0:0:
182,192,166000,1,0,0:0:0:0:
256,192,166085,1,0,0:0:0:0:
109,192,166085,1,0,0:0:0:0:
36,192,166257,1,0,0:0:0:0:
109,192,166257,1,0,0:0:0:0:
402,192,166257,1,0,0:0:0:0:
448,192,166257,1,0,0:0:0:0:
256,192,166257,1,0,0:0:0:0:
109,192,166342,1,0,0:0:0:0:
329,192,166428,1,0,0:0:0:0:
182,192,166428,1,0,0:0:0:0:
448,192,166428,1,0,0:0:0:0:
36,192,166471,1,0,0:0:0:0:
329,192,166514,1,0,0:0:0:0:
109,192,166514,1,0,0:0:0:0:
475,192,166685,1,0,0:0:0:0:
402,192,166685,1,0,0:0:0:0:
182,192,166685,1,0,0:0:0:0:
256,192,166685,1,0,0:0:0:0:
329,192,166771,1,0,0:0:0:0:
109,192,166771,1,0,0:0:0:0:
109,192,166857,1,0,0:0:0:0:
402,192,166942,1,0,0:0:0:0:
192,192,166942,1,0,0:0:0:0:
448,192,166942,1,0,0:0:0:0:
329,192,167000,1,0,0:0:0:0:
109,192,167028,1,0,0:0:0:0:
402,192,167057,1,0,0:0:0:0:
36,192,167114,1,0,0:0:0:0:
256,192,167114,1,0,0:0:0:0:
448,192,167114,1,0,0:0:0:0:
192,192,167114,1,0,0:0:0:0:
320,192,167200,1,0,0:0:0:0:
109,192,167257,1,0,0:0:0:0:
320,192,167314,1,0,0:0:0:0:
36,192,167371,1,0,0:0:0:0:
402,192,167371,1,0,0:0:0:0:
192,192,167371,1,0,0:0:0:0:
475,192,167457,1,0,0:0:0:0:
256,192,167457,1,0,0:0:0:0:
109,192,167457,1,0,0:0:0:0:
320,192,167485,1,0,0:0:0:0:
182,192,167542,1,0,0:0:0:0:
402,192,167628,1,0,0:0:0:0:
36,192,167628,1,0,0:0:0:0:
448,192,167628,1,0,0:0:0:0:
192,192,167628,1,0,0:0:0:0:
329,192,167714,1,0,0:0:0:0:
475,192,167800,1,0,0:0:0:0:
36,192,167800,1,0,0:0:0:0:
192,192,167800,1,0,0:0:0:0:
402,192,167800,1,0,0:0:0:0:
402,192,167971,1,0,0:0:0:0:
36,192,167971,1,0,0:0:0:0:
109,192,168014,1,0,0:0:0:0:
182,192,168057,1,0,0:0:0:0:
320,192,168057,1,0,0:0:0:0:
256,192,168142,1,0,0:0:0:0:
402,192,168142,1,0,0:0:0:0:
64,192,168142,1,0,0:0:0:0:
320,192,168185,1,0,0:0:0:0:
109,192,168228,1,0,0:0:0:0:
475,192,168228,1,0,0:0:0:0:
36,192,168314,1,0,0:0:0:0:
402,192,168314,1,0,0:0:0:0:
320,192,168314,1,0,0:0:0:0:
192,192,168314,1,0,0:0:0:0:
36,192,168485,1,0,0:0:0:0:
192,192,168485,1,0,0:0:0:0:
320,192,168485,1,0,0:0:0:0:
402,192,168571,1,0,0:0:0:0:
109,192,168571,1,0,0:0:0:0:
448,192,168571,1,0,0:0:0:0:
36,192,168742,1,0,0:0:0:0:
256,192,168742,1,0,0:0:0:0:
320,192,168742,1,0,0:0:0:0:
192,192,168742,1,0,0:0:0:0:
402,192,168828,1,0,0:0:0:0:
109,192,168828,1,0,0:0:0:0:
448,192,168828,1,0,0:0:0:0:
36,192,169000,1,0,0:0:0:0:
256,192,169000,1,0,0:0:0:0:
320,192,169000,1,0,0:0:0:0:
192,192,169000,1,0,0:0:0:0:
109,192,169057,1,0,0:0:0:0:
448,192,169057,1,0,0:0:0:0:
182,192,169114,1,0,0:0:0:0:
402,192,169114,1,0,0:0:0:0:
475,192,169171,1,0,0:0:0:0:
256,192,169171,1,0,0:0:0:0:
320,192,169171,1,0,0:0:0:0:
36,192,169257,1,0,0:0:0:0:
109,192,169300,1,0,0:0:0:0:
402,192,169342,1,0,0:0:0:0:
475,192,169342,1,0,0:0:0:0:
182,192,169342,1,0,0:0:0:0:
192,192,169428,1,0,0:0:0:0:
320,192,169428,1,0,0:0:0:0:
402,192,169600,1,0,0:0:0:0:
448,192,169600,1,0,0:0:0:0:
36,192,169685,1,0,0:0:0:0:
109,192,169685,1,0,0:0:0:0:
320,192,169685,1,0,0:0:0:0:
192,192,169685,1,0,0:0:0:0:
109,192,169857,1,0,0:0:0:0:
182,192,169857,1,0,0:0:0:0:
475,192,169857,1,0,0:0:0:0:
320,192,169857,1,0,0:0:0:0:
402,192,169857,1,0,0:0:0:0:
329,192,169942,1,0,0:0:0:0:
182,192,170028,1,0,0:0:0:0:
329,192,170028,1,0,0:0:0:0:
402,192,170114,1,0,0:0:0:0:
475,192,170114,1,0,0:0:0:0:
64,192,170114,1,0,0:0:0:0:
256,192,170114,1,0,0:0:0:0:
192,192,170200,1,0,0:0:0:0:
192,192,170285,1,0,0:0:0:0:
109,192,170371,1,0,0:0:0:0:
36,192,170371,1,0,0:0:0:0:
320,192,170371,1,0,0:0:0:0:
402,192,170371,1,0,0:0:0:0:
475,192,170428,1,0,0:0:0:0:
182,192,170457,1,0,0:0:0:0:
402,192,170485,1,0,0:0:0:0:
109,192,170542,1,0,0:0:0:0:
256,192,170542,1,0,0:0:0:0:
64,192,170542,1,0,0:0:0:0:
329,192,170542,1,0,0:0:0:0:
402,192,170628,1,0,0:0:0:0:
448,192,170628,1,0,0:0:0:0:
329,192,170714,1,0,0:0:0:0:
36,192,170714,1,0,0:0:0:0:
109,192,170714,1,0,0:0:0:0:
256,192,170714,1,0,0:0:0:0:
182,192,170800,1,0,0:0:0:0:
402,192,170800,1,0,0:0:0:0:
329,192,170842,1,0,0:0:0:0:
36,192,170885,1,0,0:0:0:0:
256,192,170885,1,0,0:0:0:0:
448,192,170885,1,0,0:0:0:0:
109,192,170942,1,0,0:0:0:0:
402,192,171000,1,0,0:0:0:0:
182,192,171057,1,0,0:0:0:0:
475,192,171057,1,0,0:0:0:0:
320,192,171057,1,0,0:0:0:0:
64,192,171057,1,0,0:0:0:0:
109,192,171142,1,0,0:0:0:0:
329,192,171142,1,0,0:0:0:0:
402,192,171228,1,0,0:0:0:0:
475,192,171228,1,0,0:0:0:0:
192,192,171228,1,0,0:0:0:0:
64,192,171228,1,0,0:0:0:0:
256,192,171314,1,0,0:0:0:0:
475,192,171400,1,0,0:0:0:0:
402,192,171421,1,0,0:0:0:0:
256,192,171442,1,0,0:0:0:0:
109,192,171485,1,0,0:0:0:0:
182,192,171485,1,0,0:0:0:0:
64,192,171485,1,0,0:0:0:0:
256,192,171571,1,0,0:0:0:0:
475,192,171571,1,0,0:0:0:0:
329,192,171571,1,0,0:0:0:0:
329,192,171657,1,0,0:0:0:0:
402,192,171742,1,0,0:0:0:0:
475,192,171742,1,0,0:0:0:0:
192,192,171742,1,0,0:0:0:0:
64,192,171742,1,0,0:0:0:0:
320,192,171828,1,0,0:0:0:0:
109,192,171914,1,0,0:0:0:0:
475,192,171914,1,0,0:0:0:0:
192,192,171914,1,0,0:0:0:0:
36,192,171914,1,0,0:0:0:0:
329,192,172000,1,0,0:0:0:0:
109,192,172085,1,0,0:0:0:0:
256,192,172085,1,0,0:0:0:0:
448,192,172114,1,0,0:0:0:0:
402,192,172142,1,0,0:0:0:0:
64,192,172171,1,0,0:0:0:0:
192,192,172171,1,0,0:0:0:0:
329,192,172214,1,0,0:0:0:0:
256,192,172257,1,0,0:0:0:0:
182,192,172300,1,0,0:0:0:0:
475,192,172428,1,0,0:0:0:0:
402,192,172428,1,0,0:0:0:0:
192,192,172428,1,0,0:0:0:0:
64,192,172428,1,0,0:0:0:0:
109,192,172514,1,0,0:0:0:0:
329,192,172514,1,0,0:0:0:0:
402,192,172600,1,0,0:0:0:0:
475,192,172600,1,0,0:0:0:0:
192,192,172600,1,0,0:0:0:0:
64,192,172600,1,0,0:0:0:0:
256,192,172685,1,0,0:0:0:0:
256,192,172771,1,0,0:0:0:0:
475,192,172857,1,0,0:0:0:0:
329,192,172857,1,0,0:0:0:0:
192,192,172857,1,0,0:0:0:0:
64,192,172857,1,0,0:0:0:0:
256,192,172942,1,0,0:0:0:0:
256,192,173028,1,0,0:0:0:0:
402,192,173071,1,0,0:0:0:0:
109,192,173114,1,0,0:0:0:0:
475,192,173114,1,0,0:0:0:0:
64,192,173114,1,0,0:0:0:0:
182,192,173200,1,0,0:0:0:0:
320,192,173200,1,0,0:0:0:0:
402,192,173285,1,0,0:0:0:0:
475,192,173285,1,0,0:0:0:0:
64,192,173285,1,0,0:0:0:0:
182,192,173285,1,0,0:0:0:0:
256,192,173371,1,0,0:0:0:0:
320,192,173371,1,0,0:0:0:0:
402,192,173542,1,0,0:0:0:0:
475,192,173542,1,0,0:0:0:0:
192,192,173542,1,0,0:0:0:0:
64,192,173542,1,0,0:0:0:0:
109,192,173628,1,0,0:0:0:0:
320,192,173628,1,0,0:0:0:0:
109,192,173800,1,0,0:0:0:0:
256,192,173800,1,0,0:0:0:0:
192,192,173800,1,0,0:0:0:0:
329,192,173800,1,0,0:0:0:0:
402,192,173842,1,0,0:0:0:0:
475,192,173885,1,0,0:0:0:0:
329,192,173971,1,0,0:0:0:0:
402,192,173971,1,0,0:0:0:0:
64,192,173971,1,0,0:0:0:0:
109,192,173971,1,0,0:0:0:0:
256,192,174028,1,0,0:0:0:0:
182,192,174085,1,0,0:0:0:0:
475,192,174142,1,0,0:0:0:0:
320,192,174142,1,0,0:0:0:0:
36,192,174228,1,0,0:0:0:0:
402,192,174228,1,0,0:0:0:0:
192,192,174228,1,0,0:0:0:0:
109,192,174228,1,0,0:0:0:0:
475,192,174314,1,0,0:0:0:0:
320,192,174314,1,0,0:0:0:0:
329,192,174400,1,0,0:0:0:0:
402,192,174485,1,0,0:0:0:0:
256,192,174485,1,0,0:0:0:0:
182,192,174485,1,0,0:0:0:0:
109,192,174485,1,0,0:0:0:0:
320,192,174571,1,0,0:0:0:0:
109,192,174657,1,0,0:0:0:0:
475,192,174657,1,0,0:0:0:0:
36,192,174657,1,0,0:0:0:0:
256,192,174657,1,0,0:0:0:0:
182,192,174714,1,0,0:0:0:0:
109,192,174771,1,0,0:0:0:0:
475,192,174828,1,0,0:0:0:0:
329,192,174828,1,0,0:0:0:0:
182,192,174828,1,0,0:0:0:0:
402,192,174914,1,0,0:0:0:0:
109,192,174914,1,0,0:0:0:0:
64,192,174914,1,0,0:0:0:0:
256,192,174914,1,0,0:0:0:0:
182,192,175000,1,0,0:0:0:0:
329,192,175000,1,0,0:0:0:0:
475,192,175000,1,0,0:0:0:0:
256,192,175171,1,0,0:0:0:0:
109,192,175171,1,0,0:0:0:0:
64,192,175171,1,0,0:0:0:0:
320,192,175200,1,0,0:0:0:0:
402,192,175214,1,0,0:0:0:0:
182,192,175257,1,0,0:0:0:0:
109,192,175342,1,0,0:0:0:0:
402,192,175342,1,0,0:0:0:0:
256,192,175342,1,0,0:0:0:0:
448,192,175342,1,0,0:0:0:0:
64,192,175342,1,0,0:0:0:0:
192,192,175428,1,0,0:0:0:0:
329,192,175514,1,0,0:0:0:0:
192,192,175514,1,0,0:0:0:0:
402,192,175600,1,0,0:0:0:0:
109,192,175600,1,0,0:0:0:0:
448,192,175600,1,0,0:0:0:0:
256,192,175600,1,0,0:0:0:0:
329,192,175685,1,0,0:0:0:0:
329,192,175771,1,0,0:0:0:0:
192,192,175771,1,0,0:0:0:0:
402,192,175857,1,0,0:0:0:0:
475,192,175857,1,0,0:0:0:0:
256,192,175857,1,0,0:0:0:0:
36,192,175857,1,0,0:0:0:0:
109,192,175857,1,0,0:0:0:0:
256,192,176028,1,0,0:0:0:0:
329,192,176028,1,0,0:0:0:0:
182,192,176028,1,0,0:0:0:0:
448,192,176028,1,0,0:0:0:0:
64,192,176028,1,0,0:0:0:0:
329,192,176114,1,0,0:0:0:0:
192,192,176114,1,0,0:0:0:0:
402,192,176285,1,0,0:0:0:0:
109,192,176285,1,0,0:0:0:0:
256,192,176285,1,0,0:0:0:0:
448,192,176285,1,0,0:0:0:0:
64,192,176285,1,0,0:0:0:0:
329,192,176371,1,0,0:0:0:0:
192,192,176371,1,0,0:0:0:0:
256,192,176542,1,0,0:0:0:0:
109,192,176542,1,0,0:0:0:0:
448,192,176542,1,0,0:0:0:0:
402,192,176542,1,0,0:0:0:0:
329,192,176628,1,0,0:0:0:0:
192,192,176628,1,0,0:0:0:0:
109,192,176714,1,0,0:0:0:0:
256,192,176714,1,0,0:0:0:0:
448,192,176714,1,0,0:0:0:0:
402,192,176714,1,0,0:0:0:0:
36,192,176714,1,0,0:0:0:0:
256,192,176885,1,0,0:0:0:0:
64,192,176885,1,0,0:0:0:0:
329,192,176971,1,0,0:0:0:0:
402,192,176971,1,0,0:0:0:0:
448,192,176971,1,0,0:0:0:0:
192,192,176971,1,0,0:0:0:0:
256,192,177057,1,0,0:0:0:0:
109,192,177057,1,0,0:0:0:0:
36,192,177228,1,0,0:0:0:0:
402,192,177228,1,0,0:0:0:0:
448,192,177228,1,0,0:0:0:0:
192,192,177228,1,0,0:0:0:0:
64,192,177314,1,0,0:0:0:0:
182,192,177400,1,0,0:0:0:0:
402,192,177400,1,0,0:0:0:0:
448,192,177400,1,0,0:0:0:0:
109,192,177400,1,0,0:0:0:0:
329,192,177442,1,0,0:0:0:0:
36,192,177485,1,0,0:0:0:0:
256,192,177485,1,0,0:0:0:0:
109,192,177571,1,0,0:0:0:0:
402,192,177657,1,0,0:0:0:0:
329,192,177657,1,0,0:0:0:0:
448,192,177657,1,0,0:0:0:0:
192,192,177657,1,0,0:0:0:0:
402,192,177742,1,0,0:0:0:0:
36,192,177742,1,0,0:0:0:0:
182,192,177828,1,0,0:0:0:0:
402,192,177914,1,0,0:0:0:0:
36,192,177914,1,0,0:0:0:0:
448,192,177914,1,0,0:0:0:0:
329,192,177957,1,0,0:0:0:0:
182,192,178000,1,0,0:0:0:0:
402,192,178085,1,0,0:0:0:0:
36,192,178085,1,0,0:0:0:0:
256,192,178085,1,0,0:0:0:0:
448,192,178085,1,0,0:0:0:0:
109,192,178085,1,0,0:0:0:0:
320,192,178171,1,0,0:0:0:0:
182,192,178228,1,0,0:0:0:0:
109,192,178257,1,0,0:0:0:0:
320,192,178285,1,0,0:0:0:0:
402,192,178342,1,0,0:0:0:0:
36,192,178342,1,0,0:0:0:0:
448,192,178342,1,0,0:0:0:0:
192,192,178342,1,0,0:0:0:0:
329,192,178428,1,0,0:0:0:0:
182,192,178457,1,0,0:0:0:0:
109,192,178492,1,0,0:0:0:0:
402,192,178600,1,0,0:0:0:0:
36,192,178600,1,0,0:0:0:0:
448,192,178600,1,0,0:0:0:0:
256,192,178600,1,0,0:0:0:0:
256,192,178685,1,0,0:0:0:0:
475,192,178771,1,0,0:0:0:0:
36,192,178771,1,0,0:0:0:0:
109,192,178771,1,0,0:0:0:0:
329,192,178771,1,0,0:0:0:0:
182,192,178771,1,0,0:0:0:0:
329,192,178942,1,0,0:0:0:0:
256,192,178964,1,0,0:0:0:0:
109,192,179028,1,0,0:0:0:0:
402,192,179028,1,0,0:0:0:0:
448,192,179028,1,0,0:0:0:0:
182,192,179071,1,0,0:0:0:0:
256,192,179114,1,0,0:0:0:0:
64,192,179114,1,0,0:0:0:0:
320,192,179157,1,0,0:0:0:0:
402,192,179200,1,0,0:0:0:0:
109,192,179285,1,0,0:0:0:0:
36,192,179285,1,0,0:0:0:0:
320,192,179285,1,0,0:0:0:0:
192,192,179285,1,0,0:0:0:0:
402,192,179371,1,0,0:0:0:0:
109,192,179457,1,0,0:0:0:0:
36,192,179457,1,0,0:0:0:0:
320,192,179457,1,0,0:0:0:0:
192,192,179457,1,0,0:0:0:0:
475,192,179457,1,0,0:0:0:0:
256,192,179542,1,0,0:0:0:0:
402,192,179542,1,0,0:0:0:0:
109,192,179714,1,0,0:0:0:0:
402,192,179714,1,0,0:0:0:0:
320,192,179714,1,0,0:0:0:0:
192,192,179714,1,0,0:0:0:0:
256,192,179800,1,0,0:0:0:0:
448,192,179800,1,0,0:0:0:0:
402,192,179971,1,0,0:0:0:0:
109,192,179971,1,0,0:0:0:0:
320,192,179971,1,0,0:0:0:0:
192,192,179971,1,0,0:0:0:0:
64,192,180028,1,0,0:0:0:0:
256,192,180085,1,0,0:0:0:0:
448,192,180085,1,0,0:0:0:0:
109,192,180100,1,0,0:0:0:0:
402,192,180142,1,0,0:0:0:0:
182,192,180142,1,0,0:0:0:0:
320,192,180142,1,0,0:0:0:0:
475,192,180228,1,0,0:0:0:0:
256,192,180250,1,0,0:0:0:0:
36,192,180271,1,0,0:0:0:0:
109,192,180400,1,0,0:0:0:0:
402,192,180400,1,0,0:0:0:0:
320,192,180400,1,0,0:0:0:0:
192,192,180400,1,0,0:0:0:0:
182,192,180485,1,0,0:0:0:0:
329,192,180571,1,0,0:0:0:0:
448,192,180571,1,0,0:0:0:0:
192,192,180657,1,0,0:0:0:0:
320,192,180657,1,0,0:0:0:0:
256,192,180742,1,0,0:0:0:0:
109,192,180828,1,0,0:0:0:0:
182,192,180828,1,0,0:0:0:0:
64,192,180828,1,0,0:0:0:0:
402,192,180828,1,0,0:0:0:0:
329,192,180828,1,0,0:0:0:0:
475,192,180914,1,0,0:0:0:0:
448,192,181000,1,0,0:0:0:0:
109,192,181085,1,0,0:0:0:0:
402,192,181085,1,0,0:0:0:0:
320,192,181085,1,0,0:0:0:0:
182,192,181085,1,0,0:0:0:0:
36,192,181171,1,0,0:0:0:0:
36,192,181257,1,0,0:0:0:0:
329,192,181342,1,0,0:0:0:0:
402,192,181342,1,0,0:0:0:0:
109,192,181342,1,0,0:0:0:0:
182,192,181342,1,0,0:0:0:0:
475,192,181342,1,0,0:0:0:0:
256,192,181428,1,0,0:0:0:0:
329,192,181471,1,0,0:0:0:0:
109,192,181514,1,0,0:0:0:0:
36,192,181514,1,0,0:0:0:0:
402,192,181514,1,0,0:0:0:0:
475,192,181514,1,0,0:0:0:0:
182,192,181571,1,0,0:0:0:0:
256,192,181628,1,0,0:0:0:0:
475,192,181685,1,0,0:0:0:0:
329,192,181685,1,0,0:0:0:0:
182,192,181771,1,0,0:0:0:0:
64,192,181771,1,0,0:0:0:0:
256,192,181857,1,0,0:0:0:0:
402,192,181857,1,0,0:0:0:0:
109,192,181914,1,0,0:0:0:0:
192,192,181914,1,0,0:0:0:0:
329,192,181971,1,0,0:0:0:0:
448,192,181971,1,0,0:0:0:0:
256,192,182028,1,0,0:0:0:0:
64,192,182028,1,0,0:0:0:0:
182,192,182114,1,0,0:0:0:0:
402,192,182114,1,0,0:0:0:0:
475,192,182200,1,0,0:0:0:0:
36,192,182200,1,0,0:0:0:0:
109,192,182200,1,0,0:0:0:0:
329,192,182200,1,0,0:0:0:0:
329,192,182285,1,0,0:0:0:0:
182,192,182285,1,0,0:0:0:0:
475,192,182371,1,0,0:0:0:0:
402,192,182414,1,0,0:0:0:0:
182,192,182457,1,0,0:0:0:0:
329,192,182457,1,0,0:0:0:0:
64,192,182457,1,0,0:0:0:0:
402,192,182542,1,0,0:0:0:0:
475,192,182542,1,0,0:0:0:0:
256,192,182542,1,0,0:0:0:0:
109,192,182542,1,0,0:0:0:0:
109,192,182628,1,0,0:0:0:0:
182,192,182714,1,0,0:0:0:0:
402,192,182714,1,0,0:0:0:0:
329,192,182714,1,0,0:0:0:0:
329,192,182800,1,0,0:0:0:0:
36,192,182885,1,0,0:0:0:0:
475,192,182885,1,0,0:0:0:0:
256,192,182885,1,0,0:0:0:0:
109,192,182885,1,0,0:0:0:0:
402,192,182885,1,0,0:0:0:0:
182,192,183057,1,0,0:0:0:0:
329,192,183057,1,0,0:0:0:0:
475,192,183085,1,0,0:0:0:0:
256,192,183142,1,0,0:0:0:0:
109,192,183142,1,0,0:0:0:0:
402,192,183200,1,0,0:0:0:0:
36,192,183228,1,0,0:0:0:0:
182,192,183228,1,0,0:0:0:0:
402,192,183314,1,0,0:0:0:0:
320,192,183314,1,0,0:0:0:0:
109,192,183400,1,0,0:0:0:0:
256,192,183400,1,0,0:0:0:0:
475,192,183400,1,0,0:0:0:0:
36,192,183400,1,0,0:0:0:0:
329,192,183485,1,0,0:0:0:0:
36,192,183571,1,0,0:0:0:0:
256,192,183571,1,0,0:0:0:0:
402,192,183571,1,0,0:0:0:0:
475,192,183571,1,0,0:0:0:0:
109,192,183571,1,0,0:0:0:0:
182,192,183657,1,0,0:0:0:0:
182,192,183742,1,0,0:0:0:0:
402,192,183828,1,0,0:0:0:0:
475,192,183828,1,0,0:0:0:0:
109,192,183828,1,0,0:0:0:0:
329,192,183828,1,0,0:0:0:0:
182,192,183914,1,0,0:0:0:0:
182,192,184000,1,0,0:0:0:0:
402,192,184085,1,0,0:0:0:0:
475,192,184085,1,0,0:0:0:0:
64,192,184085,1,0,0:0:0:0:
329,192,184085,1,0,0:0:0:0:
320,192,184171,1,0,0:0:0:0:
36,192,184257,1,0,0:0:0:0:
256,192,184257,1,0,0:0:0:0:
109,192,184257,1,0,0:0:0:0:
475,192,184257,1,0,0:0:0:0:
182,192,184257,1,0,0:0:0:0:
402,192,184342,1,0,0:0:0:0:
475,192,184514,1,0,0:0:0:0:
182,192,184514,1,0,0:0:0:0:
329,192,184514,1,0,0:0:0:0:
64,192,184514,1,0,0:0:0:0:
109,192,184514,1,0,0:0:0:0:
182,192,184600,1,0,0:0:0:0:
109,192,184771,1,0,0:0:0:0:
192,192,184771,1,0,0:0:0:0:
256,192,184792,1,0,0:0:0:0:
329,192,184814,1,0,0:0:0:0:
402,192,184828,1,0,0:0:0:0:
182,192,184900,1,0,0:0:0:0:
475,192,184942,1,0,0:0:0:0:
36,192,184942,1,0,0:0:0:0:
402,192,184942,1,0,0:0:0:0:
256,192,184942,1,0,0:0:0:0:
182,192,185371,1,0,0:0:0:0:
109,192,185392,1,0,0:0:0:0:
329,192,185457,1,0,0:0:0:0:
402,192,185478,1,0,0:0:0:0:
475,192,185628,1,0,0:0:0:0:
320,192,185628,1,0,0:0:0:0:
192,192,185685,1,0,0:0:0:0:
320,192,185742,1,0,0:0:0:0:
36,192,185800,1,0,0:0:0:0:
192,192,185800,1,0,0:0:0:0:
475,192,185971,1,0,0:0:0:0:
402,192,185971,1,0,0:0:0:0:
182,192,186142,1,0,0:0:0:0:
329,192,186185,1,0,0:0:0:0:
475,192,186228,1,0,0:0:0:0:
256,192,186314,1,0,0:0:0:0:
109,192,186314,1,0,0:0:0:0:
36,192,186314,1,0,0:0:0:0:
256,192,186657,1,0,0:0:0:0:
402,192,186828,1,0,0:0:0:0:
329,192,186850,1,0,0:0:0:0:
109,192,186914,1,0,0:0:0:0:
182,192,186935,1,0,0:0:0:0:
475,192,187000,1,0,0:0:0:0:
256,192,187000,1,0,0:0:0:0:
36,192,187000,1,0,0:0:0:0:
256,192,187685,1,0,0:0:0:0:
182,192,187685,1,0,0:0:0:0:
64,192,187685,1,0,0:0:0:0:
329,192,187799,1,0,0:0:0:0:
256,192,187799,1,0,0:0:0:0:
109,192,187799,1,0,0:0:0:0:
402,192,187913,1,0,0:0:0:0:
329,192,187913,1,0,0:0:0:0:
182,192,187913,1,0,0:0:0:0:
402,192,188027,1,0,0:0:0:0:
256,192,188027,1,0,0:0:0:0:
448,192,188027,1,0,0:0:0:0:
36,192,188256,1,0,0:0:0:0:
329,192,188256,1,0,0:0:0:0:
192,192,188256,1,0,0:0:0:0:
36,192,188370,1,0,0:0:0:0:
475,192,188370,1,0,0:0:0:0:
192,192,188370,1,0,0:0:0:0:
329,192,188370,1,0,0:0:0:0:
109,192,188485,1,0,0:0:0:0:
402,192,188542,1,0,0:0:0:0:
256,192,188542,1,0,0:0:0:0:
182,192,188627,1,0,0:0:0:0:
329,192,188627,1,0,0:0:0:0:
448,192,188627,1,0,0:0:0:0:
36,192,188627,1,0,0:0:0:0:
320,192,188827,1,0,0:0:0:0:
402,192,188885,1,0,0:0:0:0:
475,192,188885,1,0,0:0:0:0:
192,192,188885,1,0,0:0:0:0:
109,192,188885,1,0,0:0:0:0:
256,192,188942,1,0,0:0:0:0:
109,192,189056,1,0,0:0:0:0:
329,192,189056,1,0,0:0:0:0:
448,192,189056,1,0,0:0:0:0:
36,192,189056,1,0,0:0:0:0:
182,192,189056,1,0,0:0:0:0:
320,192,189170,1,0,0:0:0:0:
402,192,189256,1,0,0:0:0:0:
109,192,189256,1,0,0:0:0:0:
36,192,189313,1,0,0:0:0:0:
256,192,189313,1,0,0:0:0:0:
448,192,189313,1,0,0:0:0:0:
192,192,189313,1,0,0:0:0:0:
182,192,189456,1,0,0:0:0:0:
64,192,189456,1,0,0:0:0:0:
329,192,189513,1,0,0:0:0:0:
256,192,189570,1,0,0:0:0:0:
109,192,189570,1,0,0:0:0:0:
448,192,189570,1,0,0:0:0:0:
402,192,189656,1,0,0:0:0:0:
256,192,189742,1,0,0:0:0:0:
475,192,189742,1,0,0:0:0:0:
192,192,189742,1,0,0:0:0:0:
109,192,189770,1,0,0:0:0:0:
36,192,189799,1,0,0:0:0:0:
402,192,189827,1,0,0:0:0:0:
320,192,189856,1,0,0:0:0:0:
256,192,189913,1,0,0:0:0:0:
109,192,189999,1,0,0:0:0:0:
192,192,189999,1,0,0:0:0:0:
475,192,190085,1,0,0:0:0:0:
402,192,190085,1,0,0:0:0:0:
192,192,190085,1,0,0:0:0:0:
109,192,190085,1,0,0:0:0:0:
256,192,190127,1,0,0:0:0:0:
329,192,190170,1,0,0:0:0:0:
402,192,190256,1,0,0:0:0:0:
182,192,190256,1,0,0:0:0:0:
475,192,190256,1,0,0:0:0:0:
36,192,190256,1,0,0:0:0:0:
109,192,190256,1,0,0:0:0:0:
475,192,190427,1,0,0:0:0:0:
36,192,190427,1,0,0:0:0:0:
402,192,190427,1,0,0:0:0:0:
109,192,190427,1,0,0:0:0:0:
256,192,190427,1,0,0:0:0:0:
402,192,190542,1,0,0:0:0:0:
109,192,190627,1,0,0:0:0:0:
475,192,190685,1,0,0:0:0:0:
192,192,190685,1,0,0:0:0:0:
320,192,190685,1,0,0:0:0:0:
109,192,190742,1,0,0:0:0:0:
475,192,190885,1,0,0:0:0:0:
320,192,190885,1,0,0:0:0:0:
256,192,190885,1,0,0:0:0:0:
36,192,190885,1,0,0:0:0:0:
182,192,190942,1,0,0:0:0:0:
475,192,190999,1,0,0:0:0:0:
320,192,190999,1,0,0:0:0:0:
109,192,191027,1,0,0:0:0:0:
182,192,191113,1,0,0:0:0:0:
36,192,191113,1,0,0:0:0:0:
320,192,191113,1,0,0:0:0:0:
475,192,191113,1,0,0:0:0:0:
256,192,191227,1,0,0:0:0:0:
402,192,191285,1,0,0:0:0:0:
109,192,191285,1,0,0:0:0:0:
36,192,191285,1,0,0:0:0:0:
329,192,191370,1,0,0:0:0:0:
109,192,191370,1,0,0:0:0:0:
36,192,191370,1,0,0:0:0:0:
402,192,191456,1,0,0:0:0:0:
256,192,191456,1,0,0:0:0:0:
36,192,191456,1,0,0:0:0:0:
109,192,191456,1,0,0:0:0:0:
448,192,191570,1,0,0:0:0:0:
192,192,191627,1,0,0:0:0:0:
320,192,191627,1,0,0:0:0:0:
36,192,191627,1,0,0:0:0:0:
109,192,191656,1,0,0:0:0:0:
402,192,191685,1,0,0:0:0:0:
475,192,191799,1,0,0:0:0:0:
36,192,191799,1,0,0:0:0:0:
320,192,191799,1,0,0:0:0:0:
192,192,191799,1,0,0:0:0:0:
256,192,191913,1,0,0:0:0:0:
109,192,191913,1,0,0:0:0:0:
402,192,191999,1,0,0:0:0:0:
475,192,192056,1,0,0:0:0:0:
182,192,192056,1,0,0:0:0:0:
320,192,192056,1,0,0:0:0:0:
36,192,192142,1,0,0:0:0:0:
109,192,192142,1,0,0:0:0:0:
256,192,192199,1,0,0:0:0:0:
402,192,192256,1,0,0:0:0:0:
182,192,192313,1,0,0:0:0:0:
475,192,192313,1,0,0:0:0:0:
320,192,192313,1,0,0:0:0:0:
64,192,192313,1,0,0:0:0:0:
109,192,192399,1,0,0:0:0:0:
182,192,192485,1,0,0:0:0:0:
36,192,192485,1,0,0:0:0:0:
329,192,192485,1,0,0:0:0:0:
475,192,192485,1,0,0:0:0:0:
192,192,192592,1,0,0:0:0:0:
256,192,192656,1,0,0:0:0:0:
402,192,192656,1,0,0:0:0:0:
109,192,192685,1,0,0:0:0:0:
475,192,192742,1,0,0:0:0:0:
64,192,192742,1,0,0:0:0:0:
320,192,192742,1,0,0:0:0:0:
256,192,192827,1,0,0:0:0:0:
402,192,192827,1,0,0:0:0:0:
192,192,192827,1,0,0:0:0:0:
36,192,192913,1,0,0:0:0:0:
402,192,192942,1,0,0:0:0:0:
256,192,192999,1,0,0:0:0:0:
109,192,192999,1,0,0:0:0:0:
448,192,193056,1,0,0:0:0:0:
329,192,193085,1,0,0:0:0:0:
192,192,193113,1,0,0:0:0:0:
109,192,193170,1,0,0:0:0:0:
256,192,193170,1,0,0:0:0:0:
64,192,193170,1,0,0:0:0:0:
402,192,193170,1,0,0:0:0:0:
329,192,193285,1,0,0:0:0:0:
448,192,193285,1,0,0:0:0:0:
64,192,193399,1,0,0:0:0:0:
192,192,193399,1,0,0:0:0:0:
475,192,193427,1,0,0:0:0:0:
402,192,193427,1,0,0:0:0:0:
256,192,193513,1,0,0:0:0:0:
64,192,193513,1,0,0:0:0:0:
192,192,193513,1,0,0:0:0:0:
320,192,193542,1,0,0:0:0:0:
402,192,193599,1,0,0:0:0:0:
475,192,193742,1,0,0:0:0:0:
109,192,193742,1,0,0:0:0:0:
192,192,193742,1,0,0:0:0:0:
402,192,193799,1,0,0:0:0:0:
36,192,193856,1,0,0:0:0:0:
256,192,193856,1,0,0:0:0:0:
192,192,193856,1,0,0:0:0:0:
109,192,193856,1,0,0:0:0:0:
329,192,193970,1,0,0:0:0:0:
402,192,194027,1,0,0:0:0:0:
64,192,194085,1,0,0:0:0:0:
192,192,194085,1,0,0:0:0:0:
329,192,194113,1,0,0:0:0:0:
475,192,194199,1,0,0:0:0:0:
402,192,194199,1,0,0:0:0:0:
192,192,194199,1,0,0:0:0:0:
64,192,194199,1,0,0:0:0:0:
109,192,194313,1,0,0:0:0:0:
182,192,194313,1,0,0:0:0:0:
329,192,194313,1,0,0:0:0:0:
402,192,194427,1,0,0:0:0:0:
182,192,194427,1,0,0:0:0:0:
329,192,194427,1,0,0:0:0:0:
36,192,194542,1,0,0:0:0:0:
109,192,194542,1,0,0:0:0:0:
475,192,194542,1,0,0:0:0:0:
329,192,194542,1,0,0:0:0:0:
256,192,194627,1,0,0:0:0:0:
182,192,194685,1,0,0:0:0:0:
402,192,194742,1,0,0:0:0:0:
36,192,194799,1,0,0:0:0:0:
109,192,194799,1,0,0:0:0:0:
256,192,194799,1,0,0:0:0:0:
329,192,194856,1,0,0:0:0:0:
182,192,194913,1,0,0:0:0:0:
402,192,194942,1,0,0:0:0:0:
36,192,194970,1,0,0:0:0:0:
256,192,194999,1,0,0:0:0:0:
109,192,195056,1,0,0:0:0:0:
182,192,195113,1,0,0:0:0:0:
329,192,195113,1,0,0:0:0:0:
475,192,195113,1,0,0:0:0:0:
109,192,195227,1,0,0:0:0:0:
36,192,195227,1,0,0:0:0:0:
475,192,195227,1,0,0:0:0:0:
329,192,195227,1,0,0:0:0:0:
402,192,195227,1,0,0:0:0:0:
256,192,195342,1,0,0:0:0:0:
329,192,195485,1,0,0:0:0:0:
36,192,195485,1,0,0:0:0:0:
192,192,195485,1,0,0:0:0:0:
402,192,195513,1,0,0:0:0:0:
475,192,195570,1,0,0:0:0:0:
109,192,195570,1,0,0:0:0:0:
182,192,195627,1,0,0:0:0:0:
256,192,195685,1,0,0:0:0:0:
475,192,195742,1,0,0:0:0:0:
402,192,195742,1,0,0:0:0:0:
109,192,195742,1,0,0:0:0:0:
36,192,195742,1,0,0:0:0:0:
329,192,195799,1,0,0:0:0:0:
256,192,195856,1,0,0:0:0:0:
475,192,195913,1,0,0:0:0:0:
402,192,195913,1,0,0:0:0:0:
192,192,195913,1,0,0:0:0:0:
64,192,195913,1,0,0:0:0:0:
109,192,195999,1,0,0:0:0:0:
320,192,196027,1,0,0:0:0:0:
182,192,196085,1,0,0:0:0:0:
448,192,196142,1,0,0:0:0:0:
402,192,196170,1,0,0:0:0:0:
64,192,196170,1,0,0:0:0:0:
256,192,196170,1,0,0:0:0:0:
475,192,196256,1,0,0:0:0:0:
109,192,196256,1,0,0:0:0:0:
329,192,196256,1,0,0:0:0:0:
256,192,196427,1,0,0:0:0:0:
402,192,196427,1,0,0:0:0:0:
192,192,196427,1,0,0:0:0:0:
64,192,196427,1,0,0:0:0:0:
320,192,196470,1,0,0:0:0:0:
475,192,196599,1,0,0:0:0:0:
36,192,196599,1,0,0:0:0:0:
402,192,196599,1,0,0:0:0:0:
109,192,196599,1,0,0:0:0:0:
256,192,196599,1,0,0:0:0:0:
109,192,196713,1,0,0:0:0:0:
182,192,196770,1,0,0:0:0:0:
329,192,196770,1,0,0:0:0:0:
475,192,196770,1,0,0:0:0:0:
329,192,196856,1,0,0:0:0:0:
475,192,196856,1,0,0:0:0:0:
256,192,196885,1,0,0:0:0:0:
64,192,196942,1,0,0:0:0:0:
192,192,196942,1,0,0:0:0:0:
329,192,196999,1,0,0:0:0:0:
402,192,197056,1,0,0:0:0:0:
64,192,197113,1,0,0:0:0:0:
192,192,197113,1,0,0:0:0:0:
475,192,197113,1,0,0:0:0:0:
320,192,197142,1,0,0:0:0:0:
256,192,197199,1,0,0:0:0:0:
402,192,197285,1,0,0:0:0:0:
36,192,197285,1,0,0:0:0:0:
448,192,197285,1,0,0:0:0:0:
109,192,197285,1,0,0:0:0:0:
192,192,197370,1,0,0:0:0:0:
320,192,197427,1,0,0:0:0:0:
192,192,197485,1,0,0:0:0:0:
109,192,197542,1,0,0:0:0:0:
402,192,197542,1,0,0:0:0:0:
320,192,197599,1,0,0:0:0:0:
475,192,197627,1,0,0:0:0:0:
109,192,197656,1,0,0:0:0:0:
182,192,197685,1,0,0:0:0:0:
329,192,197742,1,0,0:0:0:0:
256,192,197799,1,0,0:0:0:0:
475,192,197799,1,0,0:0:0:0:
402,192,197799,1,0,0:0:0:0:
64,192,197799,1,0,0:0:0:0:
182,192,197885,1,0,0:0:0:0:
36,192,197970,1,0,0:0:0:0:
402,192,197970,1,0,0:0:0:0:
329,192,197970,1,0,0:0:0:0:
448,192,197970,1,0,0:0:0:0:
109,192,197970,1,0,0:0:0:0:
192,192,198085,1,0,0:0:0:0:
329,192,198142,1,0,0:0:0:0:
256,192,198170,1,0,0:0:0:0:
36,192,198227,1,0,0:0:0:0:
109,192,198227,1,0,0:0:0:0:
402,192,198227,1,0,0:0:0:0:
475,192,198227,1,0,0:0:0:0:
320,192,198285,1,0,0:0:0:0:
182,192,198342,1,0,0:0:0:0:
109,192,198399,1,0,0:0:0:0:
402,192,198427,1,0,0:0:0:0:
475,192,198485,1,0,0:0:0:0:
36,192,198485,1,0,0:0:0:0:
329,192,198485,1,0,0:0:0:0:
256,192,198485,1,0,0:0:0:0:
192,192,198542,1,0,0:0:0:0:
402,192,198599,1,0,0:0:0:0:
475,192,198656,1,0,0:0:0:0:
109,192,198656,1,0,0:0:0:0:
256,192,198656,1,0,0:0:0:0:
36,192,198656,1,0,0:0:0:0:
402,192,198770,1,0,0:0:0:0:
64,192,198770,1,0,0:0:0:0:
192,192,198770,1,0,0:0:0:0:
109,192,198885,1,0,0:0:0:0:
256,192,198885,1,0,0:0:0:0:
448,192,198885,1,0,0:0:0:0:
320,192,198885,1,0,0:0:0:0:
475,192,198999,1,0,0:0:0:0:
256,192,198999,1,0,0:0:0:0:
402,192,198999,1,0,0:0:0:0:
192,192,198999,1,0,0:0:0:0:
36,192,198999,1,0,0:0:0:0:
192,192,199227,1,0,0:0:0:0:
320,192,199256,1,0,0:0:0:0:
475,192,199342,1,0,0:0:0:0:
36,192,199342,1,0,0:0:0:0:
402,192,199342,1,0,0:0:0:0:
109,192,199342,1,0,0:0:0:0:
256,192,199342,1,0,0:0:0:0:
320,192,199406,1,0,0:0:0:0:
182,192,199470,1,0,0:0:0:0:
36,192,199513,1,0,0:0:0:0:
256,192,199599,1,0,0:0:0:0:
109,192,199599,1,0,0:0:0:0:
448,192,199599,1,0,0:0:0:0:
402,192,199599,1,0,0:0:0:0:
182,192,199799,1,0,0:0:0:0:
109,192,199856,1,0,0:0:0:0:
402,192,199856,1,0,0:0:0:0:
329,192,199856,1,0,0:0:0:0:
475,192,199856,1,0,0:0:0:0:
182,192,199913,1,0,0:0:0:0:
402,192,200027,1,0,0:0:0:0:
36,192,200027,1,0,0:0:0:0:
448,192,200027,1,0,0:0:0:0:
256,192,200027,1,0,0:0:0:0:
109,192,200113,1,0,0:0:0:0:
182,192,200170,1,0,0:0:0:0:
329,192,200199,1,0,0:0:0:0:
109,192,200227,1,0,0:0:0:0:
256,192,200285,1,0,0:0:0:0:
36,192,200285,1,0,0:0:0:0:
448,192,200285,1,0,0:0:0:0:
402,192,200342,1,0,0:0:0:0:
182,192,200370,1,0,0:0:0:0:
329,192,200399,1,0,0:0:0:0:
402,192,200456,1,0,0:0:0:0:
36,192,200542,1,0,0:0:0:0:
256,192,200542,1,0,0:0:0:0:
448,192,200542,1,0,0:0:0:0:
109,192,200542,1,0,0:0:0:0:
329,192,200585,1,0,0:0:0:0:
109,192,200713,1,0,0:0:0:0:
402,192,200713,1,0,0:0:0:0:
448,192,200713,1,0,0:0:0:0:
192,192,200713,1,0,0:0:0:0:
256,192,200713,1,0,0:0:0:0:
329,192,200799,1,0,0:0:0:0:
36,192,200885,1,0,0:0:0:0:
402,192,200970,1,0,0:0:0:0:
256,192,200970,1,0,0:0:0:0:
192,192,200970,1,0,0:0:0:0:
36,192,201056,1,0,0:0:0:0:
109,192,201056,1,0,0:0:0:0:
475,192,201056,1,0,0:0:0:0:
329,192,201056,1,0,0:0:0:0:
256,192,201099,1,0,0:0:0:0:
182,192,201170,1,0,0:0:0:0:
475,192,201227,1,0,0:0:0:0:
109,192,201227,1,0,0:0:0:0:
402,192,201227,1,0,0:0:0:0:
329,192,201285,1,0,0:0:0:0:
256,192,201342,1,0,0:0:0:0:
36,192,201399,1,0,0:0:0:0:
192,192,201399,1,0,0:0:0:0:
448,192,201399,1,0,0:0:0:0:
402,192,201399,1,0,0:0:0:0:
109,192,201399,1,0,0:0:0:0:
320,192,201513,1,0,0:0:0:0:
402,192,201570,1,0,0:0:0:0:
192,192,201627,1,0,0:0:0:0:
320,192,201627,1,0,0:0:0:0:
475,192,201627,1,0,0:0:0:0:
36,192,201656,1,0,0:0:0:0:
109,192,201685,1,0,0:0:0:0:
256,192,201742,1,0,0:0:0:0:
402,192,201799,1,0,0:0:0:0:
192,192,201856,1,0,0:0:0:0:
320,192,201856,1,0,0:0:0:0:
448,192,201885,1,0,0:0:0:0:
256,192,201913,1,0,0:0:0:0:
109,192,201913,1,0,0:0:0:0:
64,192,202027,1,0,0:0:0:0:
329,192,202085,1,0,0:0:0:0:
402,192,202085,1,0,0:0:0:0:
192,192,202085,1,0,0:0:0:0:
475,192,202142,1,0,0:0:0:0:
109,192,202142,1,0,0:0:0:0:
256,192,202256,1,0,0:0:0:0:
192,192,202313,1,0,0:0:0:0:
320,192,202313,1,0,0:0:0:0:
109,192,202342,1,0,0:0:0:0:
402,192,202342,1,0,0:0:0:0:
448,192,202399,1,0,0:0:0:0:
36,192,202427,1,0,0:0:0:0:
109,192,202485,1,0,0:0:0:0:
402,192,202542,1,0,0:0:0:0:
192,192,202542,1,0,0:0:0:0:
320,192,202542,1,0,0:0:0:0:
448,192,202656,1,0,0:0:0:0:
256,192,202713,1,0,0:0:0:0:
109,192,202713,1,0,0:0:0:0:
36,192,202770,1,0,0:0:0:0:
192,192,202770,1,0,0:0:0:0:
320,192,202770,1,0,0:0:0:0:
402,192,202827,1,0,0:0:0:0:
448,192,202856,1,0,0:0:0:0:
36,192,202942,1,0,0:0:0:0:
192,192,202942,1,0,0:0:0:0:
256,192,202942,1,0,0:0:0:0:
109,192,202999,1,0,0:0:0:0:
320,192,202999,1,0,0:0:0:0:
402,192,203056,1,0,0:0:0:0:
475,192,203085,1,0,0:0:0:0:
192,192,203113,1,0,0:0:0:0:
36,192,203199,1,0,0:0:0:0:
256,192,203199,1,0,0:0:0:0:
109,192,203227,1,0,0:0:0:0:
320,192,203227,1,0,0:0:0:0:
402,192,203285,1,0,0:0:0:0:
448,192,203342,1,0,0:0:0:0:
192,192,203399,1,0,0:0:0:0:
36,192,203456,1,0,0:0:0:0:
402,192,203456,1,0,0:0:0:0:
320,192,203456,1,0,0:0:0:0:
109,192,203456,1,0,0:0:0:0:
475,192,203456,1,0,0:0:0:0:
256,192,203542,1,0,0:0:0:0:
192,192,203570,1,0,0:0:0:0:
402,192,203627,1,0,0:0:0:0:
109,192,203685,1,0,0:0:0:0:
320,192,203685,1,0,0:0:0:0:
448,192,203742,1,0,0:0:0:0:
36,192,203799,1,0,0:0:0:0:
256,192,203799,1,0,0:0:0:0:
192,192,203856,1,0,0:0:0:0:
329,192,203885,1,0,0:0:0:0:
402,192,203913,1,0,0:0:0:0:
109,192,203970,1,0,0:0:0:0:
448,192,203999,1,0,0:0:0:0:
256,192,204027,1,0,0:0:0:0:
36,192,204056,1,0,0:0:0:0:
182,192,204142,1,0,0:0:0:0:
402,192,204142,1,0,0:0:0:0:
320,192,204142,1,0,0:0:0:0:
109,192,204142,1,0,0:0:0:0:
475,192,204142,1,0,0:0:0:0:
329,192,204256,1,0,0:0:0:0:
256,192,204256,1,0,0:0:0:0:
256,192,204370,1,0,0:0:0:0:
192,192,204370,1,0,0:0:0:0:
402,192,204485,1,0,0:0:0:0:
475,192,204485,1,0,0:0:0:0:
192,192,204485,1,0,0:0:0:0:
109,192,204485,1,0,0:0:0:0:
36,192,204485,1,0,0:0:0:0:
320,192,204656,1,0,0:0:0:0:
64,192,204713,1,0,0:0:0:0:
192,192,204713,1,0,0:0:0:0:
402,192,204742,1,0,0:0:0:0:
475,192,204827,1,0,0:0:0:0:
182,192,204827,1,0,0:0:0:0:
64,192,204827,1,0,0:0:0:0:
256,192,204827,1,0,0:0:0:0:
320,192,204942,1,0,0:0:0:0:
448,192,204999,1,0,0:0:0:0:
109,192,205056,1,0,0:0:0:0:
192,192,205056,1,0,0:0:0:0:
402,192,205085,1,0,0:0:0:0:
256,192,205170,1,0,0:0:0:0:
109,192,205170,1,0,0:0:0:0:
192,192,205170,1,0,0:0:0:0:
475,192,205170,1,0,0:0:0:0:
329,192,205285,1,0,0:0:0:0:
402,192,205285,1,0,0:0:0:0:
36,192,205342,1,0,0:0:0:0:
109,192,205385,1,0,0:0:0:0:
329,192,205399,1,0,0:0:0:0:
402,192,205399,1,0,0:0:0:0:
182,192,205513,1,0,0:0:0:0:
36,192,205513,1,0,0:0:0:0:
402,192,205513,1,0,0:0:0:0:
329,192,205513,1,0,0:0:0:0:
475,192,205513,1,0,0:0:0:0:
256,192,205599,1,0,0:0:0:0:
109,192,205656,1,0,0:0:0:0:
402,192,205713,1,0,0:0:0:0:
329,192,205770,1,0,0:0:0:0:
192,192,205770,1,0,0:0:0:0:
36,192,205827,1,0,0:0:0:0:
402,192,205885,1,0,0:0:0:0:
256,192,205942,1,0,0:0:0:0:
109,192,205942,1,0,0:0:0:0:
475,192,205985,1,0,0:0:0:0:
320,192,206027,1,0,0:0:0:0:
64,192,206085,1,0,0:0:0:0:
192,192,206085,1,0,0:0:0:0:
402,192,206142,1,0,0:0:0:0:
475,192,206199,1,0,0:0:0:0:
36,192,206199,1,0,0:0:0:0:
192,192,206199,1,0,0:0:0:0:
109,192,206199,1,0,0:0:0:0:
329,192,206256,1,0,0:0:0:0:
256,192,206313,1,0,0:0:0:0:
475,192,206456,1,0,0:0:0:0:
402,192,206456,1,0,0:0:0:0:
109,192,206456,1,0,0:0:0:0:
329,192,206513,1,0,0:0:0:0:
256,192,206570,1,0,0:0:0:0:
182,192,206627,1,0,0:0:0:0:
402,192,206713,1,0,0:0:0:0:
109,192,206713,1,0,0:0:0:0:
64,192,206713,1,0,0:0:0:0:
320,192,206756,1,0,0:0:0:0:
448,192,206799,1,0,0:0:0:0:
109,192,206885,1,0,0:0:0:0:
475,192,206885,1,0,0:0:0:0:
64,192,206885,1,0,0:0:0:0:
256,192,206885,1,0,0:0:0:0:
329,192,206942,1,0,0:0:0:0:
402,192,206999,1,0,0:0:0:0:
109,192,207056,1,0,0:0:0:0:
256,192,207113,1,0,0:0:0:0:
320,192,207170,1,0,0:0:0:0:
448,192,207227,1,0,0:0:0:0:
182,192,207285,1,0,0:0:0:0:
109,192,207342,1,0,0:0:0:0:
256,192,207399,1,0,0:0:0:0:
192,192,207456,1,0,0:0:0:0:
329,192,207513,1,0,0:0:0:0:
256,192,207570,1,0,0:0:0:0:
402,192,207627,1,0,0:0:0:0:
109,192,207685,1,0,0:0:0:0:
182,192,207742,1,0,0:0:0:0:
329,192,207799,1,0,0:0:0:0:
475,192,207856,1,0,0:0:0:0:
36,192,207913,1,0,0:0:0:0:
182,192,207970,1,0,0:0:0:0:
256,192,208027,1,0,0:0:0:0:
109,192,208085,1,0,0:0:0:0:
182,192,208142,1,0,0:0:0:0:
329,192,208199,1,0,0:0:0:0:
256,192,208256,1,0,0:0:0:0:
109,192,208313,1,0,0:0:0:0:
402,192,208370,1,0,0:0:0:0:
320,192,208427,1,0,0:0:0:0:
182,192,208485,1,0,0:0:0:0:
256,192,208542,1,0,0:0:0:0:
402,192,208599,1,0,0:0:0:0:
448,192,208656,1,0,0:0:0:0:
109,192,208713,1,0,0:0:0:0:
182,192,208770,1,0,0:0:0:0:
329,192,208827,1,0,0:0:0:0:
36,192,208885,1,0,0:0:0:0:
402,192,208942,1,0,0:0:0:0:
256,192,208942,1,0,0:0:0:0:
448,192,208942,1,0,0:0:0:0:
109,192,208999,1,0,0:0:0:0:
320,192,209056,1,0,0:0:0:0:
402,192,209113,1,0,0:0:0:0:
182,192,209113,1,0,0:0:0:0:
64,192,209170,1,0,0:0:0:0:
475,192,209227,1,0,0:0:0:0:
256,192,209227,1,0,0:0:0:0:
109,192,209285,1,0,0:0:0:0:
329,192,209342,1,0,0:0:0:0:
182,192,209399,1,0,0:0:0:0:
36,192,209456,1,0,0:0:0:0:
402,192,209456,1,0,0:0:0:0:
256,192,209513,1,0,0:0:0:0:
109,192,209570,1,0,0:0:0:0:
475,192,209570,1,0,0:0:0:0:
402,192,209627,1,0,0:0:0:0:
182,192,209627,1,0,0:0:0:0:
329,192,209627,1,0,0:0:0:0:
36,192,209627,1,0,0:0:0:0:
109,192,209742,1,0,0:0:0:0:
329,192,209742,1,0,0:0:0:0:
182,192,209742,1,0,0:0:0:0:
475,192,209799,1,0,0:0:0:0:
256,192,209799,1,0,0:0:0:0:
402,192,209856,1,0,0:0:0:0:
36,192,209970,1,0,0:0:0:0:
329,192,209970,1,0,0:0:0:0:
448,192,209970,1,0,0:0:0:0:
192,192,209970,1,0,0:0:0:0:
36,192,210085,1,0,0:0:0:0:
192,192,210085,1,0,0:0:0:0:
448,192,210085,1,0,0:0:0:0:
256,192,210085,1,0,0:0:0:0:
329,192,210199,1,0,0:0:0:0:
256,192,210256,1,0,0:0:0:0:
402,192,210313,1,0,0:0:0:0:
36,192,210313,1,0,0:0:0:0:
448,192,210313,1,0,0:0:0:0:
192,192,210313,1,0,0:0:0:0:
109,192,210342,1,0,0:0:0:0:
329,192,210427,1,0,0:0:0:0:
182,192,210485,1,0,0:0:0:0:
402,192,210542,1,0,0:0:0:0:
256,192,210542,1,0,0:0:0:0:
109,192,210570,1,0,0:0:0:0:
36,192,210656,1,0,0:0:0:0:
182,192,210656,1,0,0:0:0:0:
320,192,210656,1,0,0:0:0:0:
475,192,210656,1,0,0:0:0:0:
109,192,210770,1,0,0:0:0:0:
402,192,210827,1,0,0:0:0:0:
192,192,210827,1,0,0:0:0:0:
256,192,210827,1,0,0:0:0:0:
329,192,210885,1,0,0:0:0:0:
36,192,210942,1,0,0:0:0:0:
402,192,210999,1,0,0:0:0:0:
109,192,210999,1,0,0:0:0:0:
448,192,210999,1,0,0:0:0:0:
256,192,210999,1,0,0:0:0:0:
329,192,211113,1,0,0:0:0:0:
182,192,211113,1,0,0:0:0:0:
36,192,211170,1,0,0:0:0:0:
256,192,211227,1,0,0:0:0:0:
402,192,211227,1,0,0:0:0:0:
475,192,211256,1,0,0:0:0:0:
109,192,211256,1,0,0:0:0:0:
182,192,211342,1,0,0:0:0:0:
320,192,211342,1,0,0:0:0:0:
64,192,211370,1,0,0:0:0:0:
402,192,211456,1,0,0:0:0:0:
109,192,211513,1,0,0:0:0:0:
256,192,211513,1,0,0:0:0:0:
448,192,211513,1,0,0:0:0:0:
64,192,211599,1,0,0:0:0:0:
329,192,211685,1,0,0:0:0:0:
109,192,211685,1,0,0:0:0:0:
448,192,211685,1,0,0:0:0:0:
192,192,211685,1,0,0:0:0:0:
329,192,211799,1,0,0:0:0:0:
475,192,211885,1,0,0:0:0:0:
256,192,211942,1,0,0:0:0:0:
36,192,211942,1,0,0:0:0:0:
192,192,211942,1,0,0:0:0:0:
256,192,212027,1,0,0:0:0:0:
109,192,212027,1,0,0:0:0:0:
320,192,212027,1,0,0:0:0:0:
402,192,212085,1,0,0:0:0:0:
448,192,212142,1,0,0:0:0:0:
36,192,212199,1,0,0:0:0:0:
256,192,212199,1,0,0:0:0:0:
192,192,212199,1,0,0:0:0:0:
329,192,212199,1,0,0:0:0:0:
402,192,212285,1,0,0:0:0:0:
256,192,212370,1,0,0:0:0:0:
475,192,212370,1,0,0:0:0:0:
109,192,212370,1,0,0:0:0:0:
36,192,212370,1,0,0:0:0:0:
329,192,212456,1,0,0:0:0:0:
182,192,212485,1,0,0:0:0:0:
402,192,212542,1,0,0:0:0:0:
109,192,212542,1,0,0:0:0:0:
192,192,212599,1,0,0:0:0:0:
320,192,212599,1,0,0:0:0:0:
36,192,212627,1,0,0:0:0:0:
109,192,212656,1,0,0:0:0:0:
256,192,212713,1,0,0:0:0:0:
402,192,212713,1,0,0:0:0:0:
448,192,212713,1,0,0:0:0:0:
36,192,212827,1,0,0:0:0:0:
192,192,212827,1,0,0:0:0:0:
320,192,212827,1,0,0:0:0:0:
36,192,212942,1,0,0:0:0:0:
192,192,212942,1,0,0:0:0:0:
320,192,212942,1,0,0:0:0:0:
36,192,213056,1,0,0:0:0:0:
192,192,213056,1,0,0:0:0:0:
320,192,213056,1,0,0:0:0:0:
402,192,213113,1,0,0:0:0:0:
448,192,213142,1,0,0:0:0:0:
256,192,213227,1,0,0:0:0:0:
109,192,213227,1,0,0:0:0:0:
402,192,213313,1,0,0:0:0:0:
475,192,213313,1,0,0:0:0:0:
320,192,213313,1,0,0:0:0:0:
192,192,213313,1,0,0:0:0:0:
256,192,213399,1,0,0:0:0:0:
36,192,213399,1,0,0:0:0:0:
402,192,213485,1,0,0:0:0:0:
109,192,213513,1,0,0:0:0:0:
192,192,213570,1,0,0:0:0:0:
320,192,213570,1,0,0:0:0:0:
402,192,213627,1,0,0:0:0:0:
256,192,213685,1,0,0:0:0:0:
109,192,213742,1,0,0:0:0:0:
475,192,213742,1,0,0:0:0:0:
320,192,213742,1,0,0:0:0:0:
64,192,213742,1,0,0:0:0:0:
192,192,213856,1,0,0:0:0:0:
402,192,213913,1,0,0:0:0:0:
109,192,213970,1,0,0:0:0:0:
320,192,213970,1,0,0:0:0:0:
192,192,214027,1,0,0:0:0:0:
36,192,214085,1,0,0:0:0:0:
475,192,214085,1,0,0:0:0:0:
256,192,214085,1,0,0:0:0:0:
402,192,214142,1,0,0:0:0:0:
182,192,214170,1,0,0:0:0:0:
109,192,214199,1,0,0:0:0:0:
36,192,214256,1,0,0:0:0:0:
475,192,214256,1,0,0:0:0:0:
320,192,214256,1,0,0:0:0:0:
256,192,214313,1,0,0:0:0:0:
182,192,214370,1,0,0:0:0:0:
329,192,214427,1,0,0:0:0:0:
475,192,214427,1,0,0:0:0:0:
64,192,214427,1,0,0:0:0:0:
402,192,214427,1,0,0:0:0:0:
109,192,214513,1,0,0:0:0:0:
182,192,214599,1,0,0:0:0:0:
329,192,214599,1,0,0:0:0:0:
475,192,214599,1,0,0:0:0:0:
329,192,214685,1,0,0:0:0:0:
36,192,214685,1,0,0:0:0:0:
329,192,214770,1,0,0:0:0:0:
109,192,214770,1,0,0:0:0:0:
475,192,214770,1,0,0:0:0:0:
192,192,214827,1,0,0:0:0:0:
402,192,214885,1,0,0:0:0:0:
475,192,214942,1,0,0:0:0:0:
36,192,214942,1,0,0:0:0:0:
256,192,214942,1,0,0:0:0:0:
109,192,214942,1,0,0:0:0:0:
329,192,214999,1,0,0:0:0:0:
182,192,215056,1,0,0:0:0:0:
402,192,215113,1,0,0:0:0:0:
475,192,215113,1,0,0:0:0:0:
64,192,215113,1,0,0:0:0:0:
256,192,215113,1,0,0:0:0:0:
109,192,215113,1,0,0:0:0:0:
320,192,215227,1,0,0:0:0:0:
448,192,215313,1,0,0:0:0:0:
36,192,215370,1,0,0:0:0:0:
182,192,215370,1,0,0:0:0:0:
256,192,215370,1,0,0:0:0:0:
448,192,215427,1,0,0:0:0:0:
109,192,215456,1,0,0:0:0:0:
329,192,215456,1,0,0:0:0:0:
402,192,215570,1,0,0:0:0:0:
64,192,215627,1,0,0:0:0:0:
192,192,215627,1,0,0:0:0:0:
320,192,215685,1,0,0:0:0:0:
475,192,215713,1,0,0:0:0:0:
109,192,215713,1,0,0:0:0:0:
256,192,215713,1,0,0:0:0:0:
402,192,215799,1,0,0:0:0:0:
64,192,215799,1,0,0:0:0:0:
192,192,215799,1,0,0:0:0:0:
448,192,215885,1,0,0:0:0:0:
256,192,215942,1,0,0:0:0:0:
320,192,215999,1,0,0:0:0:0:
36,192,216056,1,0,0:0:0:0:
475,192,216056,1,0,0:0:0:0:
109,192,216056,1,0,0:0:0:0:
402,192,216056,1,0,0:0:0:0:
182,192,216113,1,0,0:0:0:0:
256,192,216170,1,0,0:0:0:0:
329,192,216199,1,0,0:0:0:0:
402,192,216256,1,0,0:0:0:0:
182,192,216313,1,0,0:0:0:0:
475,192,216313,1,0,0:0:0:0:
64,192,216313,1,0,0:0:0:0:
109,192,216313,1,0,0:0:0:0:
256,192,216485,1,0,0:0:0:0:
475,192,216485,1,0,0:0:0:0:
402,192,216485,1,0,0:0:0:0:
64,192,216485,1,0,0:0:0:0:
109,192,216485,1,0,0:0:0:0:
182,192,216570,1,0,0:0:0:0:
320,192,216570,1,0,0:0:0:0:
36,192,216656,1,0,0:0:0:0:
402,192,216685,1,0,0:0:0:0:
109,192,216742,1,0,0:0:0:0:
256,192,216742,1,0,0:0:0:0:
475,192,216742,1,0,0:0:0:0:
402,192,216799,1,0,0:0:0:0:
182,192,216856,1,0,0:0:0:0:
320,192,216885,1,0,0:0:0:0:
36,192,216942,1,0,0:0:0:0:
402,192,216999,1,0,0:0:0:0:
475,192,216999,1,0,0:0:0:0:
256,192,216999,1,0,0:0:0:0:
109,192,216999,1,0,0:0:0:0:
182,192,217085,1,0,0:0:0:0:
402,192,217170,1,0,0:0:0:0:
329,192,217170,1,0,0:0:0:0:
64,192,217170,1,0,0:0:0:0:
256,192,217170,1,0,0:0:0:0:
475,192,217256,1,0,0:0:0:0:
402,192,217342,1,0,0:0:0:0:
256,192,217342,1,0,0:0:0:0:
109,192,217342,1,0,0:0:0:0:
320,192,217370,1,0,0:0:0:0:
448,192,217485,1,0,0:0:0:0:
402,192,217542,1,0,0:0:0:0:
109,192,217599,1,0,0:0:0:0:
192,192,217599,1,0,0:0:0:0:
329,192,217599,1,0,0:0:0:0:
448,192,217656,1,0,0:0:0:0:
109,192,217685,1,0,0:0:0:0:
192,192,217685,1,0,0:0:0:0:
402,192,217727,1,0,0:0:0:0:
256,192,217770,1,0,0:0:0:0:
448,192,217770,1,0,0:0:0:0:
329,192,217856,1,0,0:0:0:0:
64,192,217856,1,0,0:0:0:0:
192,192,217856,1,0,0:0:0:0:
329,192,217942,1,0,0:0:0:0:
182,192,217942,1,0,0:0:0:0:
109,192,218056,1,0,0:0:0:0:
475,192,218113,1,0,0:0:0:0:
329,192,218113,1,0,0:0:0:0:
402,192,218113,1,0,0:0:0:0:
182,192,218170,1,0,0:0:0:0:
36,192,218199,1,0,0:0:0:0:
256,192,218285,1,0,0:0:0:0:
402,192,218285,1,0,0:0:0:0:
475,192,218327,1,0,0:0:0:0:
109,192,218370,1,0,0:0:0:0:
192,192,218370,1,0,0:0:0:0:
36,192,218370,1,0,0:0:0:0:
320,192,218427,1,0,0:0:0:0:
256,192,218542,1,0,0:0:0:0:
475,192,218542,1,0,0:0:0:0:
64,192,218542,1,0,0:0:0:0:
109,192,218542,1,0,0:0:0:0:
402,192,218627,1,0,0:0:0:0:
448,192,218656,1,0,0:0:0:0:
36,192,218713,1,0,0:0:0:0:
329,192,218713,1,0,0:0:0:0:
182,192,218713,1,0,0:0:0:0:
256,192,218799,1,0,0:0:0:0:
109,192,218799,1,0,0:0:0:0:
402,192,218885,1,0,0:0:0:0:
475,192,218885,1,0,0:0:0:0:
329,192,218970,1,0,0:0:0:0:
36,192,218970,1,0,0:0:0:0:
192,192,218970,1,0,0:0:0:0:
36,192,219056,1,0,0:0:0:0:
192,192,219056,1,0,0:0:0:0:
320,192,219085,1,0,0:0:0:0:
402,192,219142,1,0,0:0:0:0:
256,192,219227,1,0,0:0:0:0:
36,192,219227,1,0,0:0:0:0:
448,192,219227,1,0,0:0:0:0:
109,192,219227,1,0,0:0:0:0:
402,192,219313,1,0,0:0:0:0:
320,192,219370,1,0,0:0:0:0:
192,192,219427,1,0,0:0:0:0:
475,192,219485,1,0,0:0:0:0:
64,192,219485,1,0,0:0:0:0:
109,192,219485,1,0,0:0:0:0:
256,192,219542,1,0,0:0:0:0:
402,192,219542,1,0,0:0:0:0:
182,192,219599,1,0,0:0:0:0:
329,192,219656,1,0,0:0:0:0:
109,192,219685,1,0,0:0:0:0:
182,192,219742,1,0,0:0:0:0:
402,192,219742,1,0,0:0:0:0:
475,192,219742,1,0,0:0:0:0:
36,192,219742,1,0,0:0:0:0:
329,192,219827,1,0,0:0:0:0:
109,192,219913,1,0,0:0:0:0:
256,192,219913,1,0,0:0:0:0:
448,192,219913,1,0,0:0:0:0:
64,192,219913,1,0,0:0:0:0:
402,192,219999,1,0,0:0:0:0:
192,192,219999,1,0,0:0:0:0:
320,192,220085,1,0,0:0:0:0:
36,192,220142,1,0,0:0:0:0:
109,192,220142,1,0,0:0:0:0:
448,192,220142,1,0,0:0:0:0:
192,192,220199,1,0,0:0:0:0:
402,192,220256,1,0,0:0:0:0:
320,192,220313,1,0,0:0:0:0:
256,192,220370,1,0,0:0:0:0:
109,192,220370,1,0,0:0:0:0:
64,192,220370,1,0,0:0:0:0:
402,192,220427,1,0,0:0:0:0:
182,192,220485,1,0,0:0:0:0:
329,192,220542,1,0,0:0:0:0:
109,192,220599,1,0,0:0:0:0:
256,192,220599,1,0,0:0:0:0:
448,192,220599,1,0,0:0:0:0:
64,192,220599,1,0,0:0:0:0:
402,192,220685,1,0,0:0:0:0:
192,192,220713,1,0,0:0:0:0:
329,192,220770,1,0,0:0:0:0:
109,192,220770,1,0,0:0:0:0:
182,192,220827,1,0,0:0:0:0:
256,192,220885,1,0,0:0:0:0:
109,192,220942,1,0,0:0:0:0:
329,192,220942,1,0,0:0:0:0:
402,192,220942,1,0,0:0:0:0:
448,192,220942,1,0,0:0:0:0:
36,192,220942,1,0,0:0:0:0:
109,192,221170,1,0,0:0:0:0:
329,192,221199,1,0,0:0:0:0:
182,192,221199,1,0,0:0:0:0:
402,192,221285,1,0,0:0:0:0:
475,192,221285,1,0,0:0:0:0:
36,192,221285,1,0,0:0:0:0:
256,192,221285,1,0,0:0:0:0:
320,192,221349,1,0,0:0:0:0:
109,192,221413,1,0,0:0:0:0:
182,192,221456,1,0,0:0:0:0:
329,192,221542,1,0,0:0:0:0:
402,192,221542,1,0,0:0:0:0:
448,192,221542,1,0,0:0:0:0:
36,192,221542,1,0,0:0:0:0:
109,192,221570,1,0,0:0:0:0:
182,192,221627,1,0,0:0:0:0:
256,192,221713,1,0,0:0:0:0:
402,192,221742,1,0,0:0:0:0:
329,192,221799,1,0,0:0:0:0:
36,192,221799,1,0,0:0:0:0:
448,192,221799,1,0,0:0:0:0:
182,192,221799,1,0,0:0:0:0:
109,192,221856,1,0,0:0:0:0:
256,192,221885,1,0,0:0:0:0:
36,192,221970,1,0,0:0:0:0:
475,192,221970,1,0,0:0:0:0:
182,192,221970,1,0,0:0:0:0:
402,192,221970,1,0,0:0:0:0:
329,192,222056,1,0,0:0:0:0:
109,192,222113,1,0,0:0:0:0:
256,192,222170,1,0,0:0:0:0:
36,192,222227,1,0,0:0:0:0:
402,192,222227,1,0,0:0:0:0:
448,192,222227,1,0,0:0:0:0:
329,192,222285,1,0,0:0:0:0:
192,192,222342,1,0,0:0:0:0:
36,192,222399,1,0,0:0:0:0:
320,192,222399,1,0,0:0:0:0:
402,192,222485,1,0,0:0:0:0:
192,192,222485,1,0,0:0:0:0:
448,192,222485,1,0,0:0:0:0:
109,192,222570,1,0,0:0:0:0:
256,192,222570,1,0,0:0:0:0:
475,192,222656,1,0,0:0:0:0:
36,192,222656,1,0,0:0:0:0:
402,192,222656,1,0,0:0:0:0:
182,192,222656,1,0,0:0:0:0:
329,192,222656,1,0,0:0:0:0:
329,192,222799,1,0,0:0:0:0:
109,192,222856,1,0,0:0:0:0:
475,192,222913,1,0,0:0:0:0:
402,192,222913,1,0,0:0:0:0:
192,192,222913,1,0,0:0:0:0:
256,192,222913,1,0,0:0:0:0:
36,192,222999,1,0,0:0:0:0:
329,192,222999,1,0,0:0:0:0:
192,192,223042,1,0,0:0:0:0:
109,192,223085,1,0,0:0:0:0:
475,192,223170,1,0,0:0:0:0:
36,192,223170,1,0,0:0:0:0:
256,192,223170,1,0,0:0:0:0:
402,192,223170,1,0,0:0:0:0:
182,192,223256,1,0,0:0:0:0:
36,192,223342,1,0,0:0:0:0:
109,192,223342,1,0,0:0:0:0:
475,192,223342,1,0,0:0:0:0:
402,192,223342,1,0,0:0:0:0:
256,192,223342,1,0,0:0:0:0:
182,192,223456,1,0,0:0:0:0:
329,192,223513,1,0,0:0:0:0:
109,192,223542,1,0,0:0:0:0:
256,192,223599,1,0,0:0:0:0:
192,192,223599,1,0,0:0:0:0:
402,192,223599,1,0,0:0:0:0:
475,192,223599,1,0,0:0:0:0:
36,192,223685,1,0,0:0:0:0:
329,192,223685,1,0,0:0:0:0:
402,192,223770,1,0,0:0:0:0:
64,192,223799,1,0,0:0:0:0:
329,192,223856,1,0,0:0:0:0:
475,192,223856,1,0,0:0:0:0:
192,192,223856,1,0,0:0:0:0:
109,192,223856,1,0,0:0:0:0:
256,192,223942,1,0,0:0:0:0:
402,192,223985,1,0,0:0:0:0:
36,192,224027,1,0,0:0:0:0:
475,192,224027,1,0,0:0:0:0:
320,192,224027,1,0,0:0:0:0:
109,192,224027,1,0,0:0:0:0:
182,192,224113,1,0,0:0:0:0:
475,192,224199,1,0,0:0:0:0:
256,192,224199,1,0,0:0:0:0:
109,192,224285,1,0,0:0:0:0:
182,192,224285,1,0,0:0:0:0:
402,192,224285,1,0,0:0:0:0:
36,192,224285,1,0,0:0:0:0:
329,192,224370,1,0,0:0:0:0:
256,192,224456,1,0,0:0:0:0:
109,192,224456,1,0,0:0:0:0:
402,192,224485,1,0,0:0:0:0:
36,192,224542,1,0,0:0:0:0:
475,192,224542,1,0,0:0:0:0:
192,192,224542,1,0,0:0:0:0:
329,192,224627,1,0,0:0:0:0:
402,192,224670,1,0,0:0:0:0:
109,192,224713,1,0,0:0:0:0:
475,192,224713,1,0,0:0:0:0:
64,192,224713,1,0,0:0:0:0:
256,192,224713,1,0,0:0:0:0:
192,192,224799,1,0,0:0:0:0:
329,192,224856,1,0,0:0:0:0:
402,192,224913,1,0,0:0:0:0:
36,192,224970,1,0,0:0:0:0:
109,192,224970,1,0,0:0:0:0:
256,192,224970,1,0,0:0:0:0:
448,192,224999,1,0,0:0:0:0:
182,192,225056,1,0,0:0:0:0:
320,192,225056,1,0,0:0:0:0:
109,192,225113,1,0,0:0:0:0:
256,192,225142,1,0,0:0:0:0:
402,192,225170,1,0,0:0:0:0:
475,192,225227,1,0,0:0:0:0:
36,192,225227,1,0,0:0:0:0:
320,192,225227,1,0,0:0:0:0:
182,192,225227,1,0,0:0:0:0:
109,192,225313,1,0,0:0:0:0:
256,192,225356,1,0,0:0:0:0:
475,192,225399,1,0,0:0:0:0:
182,192,225399,1,0,0:0:0:0:
64,192,225399,1,0,0:0:0:0:
402,192,225399,1,0,0:0:0:0:
329,192,225485,1,0,0:0:0:0:
182,192,225570,1,0,0:0:0:0:
402,192,225570,1,0,0:0:0:0:
475,192,225570,1,0,0:0:0:0:
109,192,225656,1,0,0:0:0:0:
256,192,225656,1,0,0:0:0:0:
64,192,225656,1,0,0:0:0:0:
192,192,225742,1,0,0:0:0:0:
329,192,225770,1,0,0:0:0:0:
402,192,225799,1,0,0:0:0:0:
448,192,225856,1,0,0:0:0:0:
109,192,225913,1,0,0:0:0:0:
256,192,225913,1,0,0:0:0:0:
64,192,225913,1,0,0:0:0:0:
182,192,225913,1,0,0:0:0:0:
329,192,225999,1,0,0:0:0:0:
36,192,225999,1,0,0:0:0:0:
109,192,225999,1,0,0:0:0:0:
402,192,226085,1,0,0:0:0:0:
475,192,226085,1,0,0:0:0:0:
109,192,226085,1,0,0:0:0:0:
36,192,226085,1,0,0:0:0:0:
256,192,226170,1,0,0:0:0:0:
402,192,226199,1,0,0:0:0:0:
182,192,226227,1,0,0:0:0:0:
320,192,226256,1,0,0:0:0:0:
256,192,226342,1,0,0:0:0:0:
182,192,226342,1,0,0:0:0:0:
109,192,226342,1,0,0:0:0:0:
36,192,226342,1,0,0:0:0:0:
320,192,226399,1,0,0:0:0:0:
402,192,226427,1,0,0:0:0:0:
475,192,226427,1,0,0:0:0:0:
256,192,226513,1,0,0:0:0:0:
402,192,226599,1,0,0:0:0:0:
475,192,226599,1,0,0:0:0:0:
64,192,226599,1,0,0:0:0:0:
109,192,226599,1,0,0:0:0:0:
329,192,226642,1,0,0:0:0:0:
182,192,226685,1,0,0:0:0:0:
402,192,226713,1,0,0:0:0:0:
475,192,226770,1,0,0:0:0:0:
36,192,226770,1,0,0:0:0:0:
109,192,226770,1,0,0:0:0:0:
256,192,226856,1,0,0:0:0:0:
402,192,226913,1,0,0:0:0:0:
109,192,226942,1,0,0:0:0:0:
320,192,226970,1,0,0:0:0:0:
475,192,227027,1,0,0:0:0:0:
36,192,227027,1,0,0:0:0:0:
192,192,227027,1,0,0:0:0:0:
256,192,227085,1,0,0:0:0:0:
109,192,227142,1,0,0:0:0:0:
402,192,227170,1,0,0:0:0:0:
182,192,227227,1,0,0:0:0:0:
256,192,227285,1,0,0:0:0:0:
64,192,227285,1,0,0:0:0:0:
475,192,227285,1,0,0:0:0:0:
329,192,227342,1,0,0:0:0:0:
109,192,227370,1,0,0:0:0:0:
475,192,227456,1,0,0:0:0:0:
402,192,227456,1,0,0:0:0:0:
192,192,227456,1,0,0:0:0:0:
256,192,227456,1,0,0:0:0:0:
109,192,227542,1,0,0:0:0:0:
320,192,227542,1,0,0:0:0:0:
64,192,227599,1,0,0:0:0:0:
182,192,227627,1,0,0:0:0:0:
402,192,227656,1,0,0:0:0:0:
475,192,227713,1,0,0:0:0:0:
109,192,227713,1,0,0:0:0:0:
256,192,227713,1,0,0:0:0:0:
320,192,227770,1,0,0:0:0:0:
402,192,227827,1,0,0:0:0:0:
182,192,227885,1,0,0:0:0:0:
475,192,227885,1,0,0:0:0:0:
256,192,227927,1,0,0:0:0:0:
36,192,227970,1,0,0:0:0:0:
109,192,227970,1,0,0:0:0:0:
329,192,227970,1,0,0:0:0:0:
402,192,228027,1,0,0:0:0:0:
320,192,228085,1,0,0:0:0:0:
475,192,228142,1,0,0:0:0:0:
36,192,228142,1,0,0:0:0:0:
182,192,228142,1,0,0:0:0:0:
109,192,228142,1,0,0:0:0:0:
256,192,228199,1,0,0:0:0:0:
64,192,228256,1,0,0:0:0:0:
402,192,228313,1,0,0:0:0:0:
182,192,228342,1,0,0:0:0:0:
475,192,228399,1,0,0:0:0:0:
109,192,228399,1,0,0:0:0:0:
329,192,228399,1,0,0:0:0:0:
256,192,228456,1,0,0:0:0:0:
36,192,228485,1,0,0:0:0:0:
182,192,228513,1,0,0:0:0:0:
320,192,228570,1,0,0:0:0:0:
256,192,228656,1,0,0:0:0:0:
64,192,228656,1,0,0:0:0:0:
109,192,228656,1,0,0:0:0:0:
475,192,228699,1,0,0:0:0:0:
182,192,228742,1,0,0:0:0:0:
402,192,228742,1,0,0:0:0:0:
109,192,228827,1,0,0:0:0:0:
64,192,228827,1,0,0:0:0:0:
329,192,228827,1,0,0:0:0:0:
192,192,228885,1,0,0:0:0:0:
475,192,228913,1,0,0:0:0:0:
256,192,228942,1,0,0:0:0:0:
402,192,228999,1,0,0:0:0:0:
109,192,229056,1,0,0:0:0:0:
475,192,229085,1,0,0:0:0:0:
182,192,229113,1,0,0:0:0:0:
329,192,229170,1,0,0:0:0:0:
36,192,229227,1,0,0:0:0:0:
402,192,229256,1,0,0:0:0:0:
109,192,229285,1,0,0:0:0:0:
256,192,229342,1,0,0:0:0:0:
192,192,229399,1,0,0:0:0:0:
329,192,229427,1,0,0:0:0:0:
109,192,229456,1,0,0:0:0:0:
475,192,229513,1,0,0:0:0:0:
36,192,229513,1,0,0:0:0:0:
182,192,229570,1,0,0:0:0:0:
402,192,229599,1,0,0:0:0:0:
256,192,229627,1,0,0:0:0:0:
475,192,229685,1,0,0:0:0:0:
109,192,229685,1,0,0:0:0:0:
182,192,229742,1,0,0:0:0:0:
36,192,229770,1,0,0:0:0:0:
256,192,229799,1,0,0:0:0:0:
109,192,229856,1,0,0:0:0:0:
402,192,229856,1,0,0:0:0:0:
448,192,229913,1,0,0:0:0:0:
182,192,229942,1,0,0:0:0:0:
329,192,229970,1,0,0:0:0:0:
109,192,230027,1,0,0:0:0:0:
402,192,230027,1,0,0:0:0:0:
256,192,230085,1,0,0:0:0:0:
36,192,230113,1,0,0:0:0:0:
329,192,230142,1,0,0:0:0:0:
109,192,230199,1,0,0:0:0:0:
402,192,230199,1,0,0:0:0:0:
448,192,230256,1,0,0:0:0:0:
182,192,230285,1,0,0:0:0:0:
402,192,230313,1,0,0:0:0:0:
36,192,230370,1,0,0:0:0:0:
320,192,230370,1,0,0:0:0:0:
256,192,230427,1,0,0:0:0:0:
475,192,230456,1,0,0:0:0:0:
192,192,230485,1,0,0:0:0:0:
402,192,230542,1,0,0:0:0:0:
109,192,230542,1,0,0:0:0:0:
256,192,230599,1,0,0:0:0:0:
329,192,230627,1,0,0:0:0:0:
36,192,230656,1,0,0:0:0:0:
402,192,230713,1,0,0:0:0:0:
109,192,230713,1,0,0:0:0:0:
182,192,230770,1,0,0:0:0:0:
329,192,230799,1,0,0:0:0:0:
36,192,230827,1,0,0:0:0:0:
109,192,230885,1,0,0:0:0:0:
448,192,230885,1,0,0:0:0:0:
256,192,230942,1,0,0:0:0:0:
402,192,230970,1,0,0:0:0:0:
182,192,230999,1,0,0:0:0:0:
36,192,231056,1,0,0:0:0:0:
329,192,231056,1,0,0:0:0:0:
256,192,231113,1,0,0:0:0:0:
109,192,231142,1,0,0:0:0:0:
402,192,231170,1,0,0:0:0:0:
182,192,231227,1,0,0:0:0:0:
320,192,231227,1,0,0:0:0:0:
475,192,231285,1,0,0:0:0:0:
36,192,231313,1,0,0:0:0:0:
402,192,231342,1,0,0:0:0:0:
109,192,231399,1,0,0:0:0:0:
256,192,231399,1,0,0:0:0:0:
329,192,231456,1,0,0:0:0:0:
64,192,231485,1,0,0:0:0:0:
475,192,231513,1,0,0:0:0:0:
475,192,244271,5,0,0:0:0:0:
36,192,244271,1,0,0:0:0:0:
402,192,244322,1,0,0:0:0:0:
329,192,244374,1,0,0:0:0:0:
256,192,244426,1,0,0:0:0:0:
36,192,244477,1,0,0:0:0:0:
109,192,244529,1,0,0:0:0:0:
182,192,244581,1,0,0:0:0:0:
256,192,244633,1,0,0:0:0:0:
475,192,244684,1,0,0:0:0:0:
402,192,244736,1,0,0:0:0:0:
329,192,244788,1,0,0:0:0:0:
256,192,244839,1,0,0:0:0:0:
36,192,244891,1,0,0:0:0:0:
109,192,244943,1,0,0:0:0:0:
182,192,244995,1,0,0:0:0:0:
256,192,245046,1,0,0:0:0:0:
329,192,245098,1,0,0:0:0:0:
475,192,245098,1,0,0:0:0:0:
109,192,245150,1,0,0:0:0:0:
182,192,245202,1,0,0:0:0:0:
36,192,245253,1,0,0:0:0:0:
256,192,245305,1,0,0:0:0:0:
475,192,245305,1,0,0:0:0:0:
109,192,245357,1,0,0:0:0:0:
329,192,245408,1,0,0:0:0:0:
182,192,245460,1,0,0:0:0:0:
36,192,245512,1,0,0:0:0:0:
402,192,245512,1,0,0:0:0:0:
329,192,245564,1,0,0:0:0:0:
109,192,245564,1,0,0:0:0:0:
475,192,245615,1,0,0:0:0:0:
256,192,245615,1,0,0:0:0:0:
182,192,245667,1,0,0:0:0:0:
402,192,245719,1,0,0:0:0:0:
36,192,245719,1,0,0:0:0:0:
109,192,245771,1,0,0:0:0:0:
329,192,245771,1,0,0:0:0:0:
182,192,245822,1,0,0:0:0:0:
475,192,245822,1,0,0:0:0:0:
256,192,245874,1,0,0:0:0:0:
402,192,245926,1,0,0:0:0:0:
109,192,245926,1,0,0:0:0:0:
36,192,245926,1,0,0:0:0:0:
182,192,246133,1,0,0:0:0:0:
256,192,246339,1,0,0:0:0:0:
329,192,246546,1,0,0:0:0:0:
402,192,246753,1,0,0:0:0:0:
182,192,247167,1,0,0:0:0:0:
256,192,247374,1,0,0:0:0:0:
109,192,247581,1,0,0:0:0:0:
475,192,247581,1,0,0:0:0:0:
329,192,247581,1,0,0:0:0:0:
36,192,247581,1,0,0:0:0:0:
402,192,247788,1,0,0:0:0:0:
329,192,247995,1,0,0:0:0:0:
256,192,248202,1,0,0:0:0:0:
402,192,248408,1,0,0:0:0:0:
475,192,248408,1,0,0:0:0:0:
182,192,248408,1,0,0:0:0:0:
36,192,248408,1,0,0:0:0:0:
402,192,248615,1,0,0:0:0:0:
329,192,248615,1,0,0:0:0:0:
109,192,248667,1,0,0:0:0:0:
36,192,248667,1,0,0:0:0:0:
475,192,248719,1,0,0:0:0:0:
402,192,248719,1,0,0:0:0:0:
182,192,248771,1,0,0:0:0:0:
109,192,248771,1,0,0:0:0:0:
475,192,248822,1,0,0:0:0:0:
36,192,248822,1,0,0:0:0:0:
256,192,248822,1,0,0:0:0:0:
256,192,249029,1,0,0:0:0:0:
329,192,249236,1,0,0:0:0:0:
475,192,249236,1,0,0:0:0:0:
36,192,249236,1,0,0:0:0:0:
109,192,249236,1,0,0:0:0:0:
182,192,249443,1,0,0:0:0:0:
256,192,249650,1,0,0:0:0:0:
329,192,249857,1,0,0:0:0:0:
402,192,250064,1,0,0:0:0:0:
182,192,250477,1,0,0:0:0:0:
256,192,250684,1,0,0:0:0:0:
329,192,250891,1,0,0:0:0:0:
402,192,250891,1,0,0:0:0:0:
36,192,250891,1,0,0:0:0:0:
109,192,250891,1,0,0:0:0:0:
475,192,251098,1,0,0:0:0:0:
182,192,251305,1,0,0:0:0:0:
475,192,251512,1,0,0:0:0:0:
36,192,251719,1,0,0:0:0:0:
402,192,251719,1,0,0:0:0:0:
256,192,251719,1,0,0:0:0:0:
109,192,251719,1,0,0:0:0:0:
329,192,251926,1,0,0:0:0:0:
475,192,251926,1,0,0:0:0:0:
182,192,251926,1,0,0:0:0:0:
109,192,251926,1,0,0:0:0:0:
256,192,252133,1,0,0:0:0:0:
402,192,252133,1,0,0:0:0:0:
36,192,252133,1,0,0:0:0:0:
182,192,252133,1,0,0:0:0:0:
329,192,252339,1,0,0:0:0:0:
256,192,252546,1,0,0:0:0:0:
475,192,252546,1,0,0:0:0:0:
36,192,252546,1,0,0:0:0:0:
182,192,252546,1,0,0:0:0:0:
402,192,252650,1,0,0:0:0:0:
329,192,252753,1,0,0:0:0:0:
182,192,252753,1,0,0:0:0:0:
109,192,252753,1,0,0:0:0:0:
402,192,252857,1,0,0:0:0:0:
475,192,252960,1,0,0:0:0:0:
36,192,252960,1,0,0:0:0:0:
256,192,252960,1,0,0:0:0:0:
182,192,253064,1,0,0:0:0:0:
109,192,253167,1,0,0:0:0:0:
402,192,253167,1,0,0:0:0:0:
329,192,253167,1,0,0:0:0:0:
256,192,253271,1,0,0:0:0:0:
402,192,253374,1,0,0:0:0:0:
475,192,253374,1,0,0:0:0:0:
182,192,253374,1,0,0:0:0:0:
36,192,253374,1,0,0:0:0:0:
256,192,253477,1,0,0:0:0:0:
329,192,253581,1,0,0:0:0:0:
36,192,253581,1,0,0:0:0:0:
109,192,253581,1,0,0:0:0:0:
182,192,253684,1,0,0:0:0:0:
475,192,253788,1,0,0:0:0:0:
402,192,253788,1,0,0:0:0:0:
256,192,253788,1,0,0:0:0:0:
109,192,253891,1,0,0:0:0:0:
329,192,253995,1,0,0:0:0:0:
182,192,253995,1,0,0:0:0:0:
402,192,253995,1,0,0:0:0:0:
109,192,254098,1,0,0:0:0:0:
329,192,254202,1,0,0:0:0:0:
475,192,254202,1,0,0:0:0:0:
256,192,254202,1,0,0:0:0:0:
36,192,254202,1,0,0:0:0:0:
256,192,254305,1,0,0:0:0:0:
402,192,254408,1,0,0:0:0:0:
475,192,254408,1,0,0:0:0:0:
182,192,254408,1,0,0:0:0:0:
109,192,254408,1,0,0:0:0:0:
182,192,254512,1,0,0:0:0:0:
329,192,254615,1,0,0:0:0:0:
475,192,254615,1,0,0:0:0:0:
109,192,254615,1,0,0:0:0:0:
36,192,254615,1,0,0:0:0:0:
329,192,254719,1,0,0:0:0:0:
182,192,254822,1,0,0:0:0:0:
109,192,254822,1,0,0:0:0:0:
402,192,254822,1,0,0:0:0:0:
475,192,254822,1,0,0:0:0:0:
109,192,254926,1,0,0:0:0:0:
329,192,255029,1,0,0:0:0:0:
475,192,255029,1,0,0:0:0:0:
36,192,255029,1,0,0:0:0:0:
256,192,255029,1,0,0:0:0:0:
182,192,255133,1,0,0:0:0:0:
256,192,255236,1,0,0:0:0:0:
475,192,255236,1,0,0:0:0:0:
109,192,255236,1,0,0:0:0:0:
36,192,255236,1,0,0:0:0:0:
329,192,255339,1,0,0:0:0:0:
402,192,255443,1,0,0:0:0:0:
475,192,255443,1,0,0:0:0:0:
182,192,255443,1,0,0:0:0:0:
36,192,255443,1,0,0:0:0:0:
256,192,255546,1,0,0:0:0:0:
402,192,255650,1,0,0:0:0:0:
329,192,255650,1,0,0:0:0:0:
109,192,255650,1,0,0:0:0:0:
182,192,255753,1,0,0:0:0:0:
402,192,255857,1,0,0:0:0:0:
475,192,255857,1,0,0:0:0:0:
256,192,255857,1,0,0:0:0:0:
36,192,255857,1,0,0:0:0:0:
256,192,255960,1,0,0:0:0:0:
402,192,256064,1,0,0:0:0:0:
475,192,256064,1,0,0:0:0:0:
109,192,256064,1,0,0:0:0:0:
182,192,256064,1,0,0:0:0:0:
402,192,256167,1,0,0:0:0:0:
256,192,256271,1,0,0:0:0:0:
475,192,256271,1,0,0:0:0:0:
36,192,256271,1,0,0:0:0:0:
109,192,256271,1,0,0:0:0:0:
329,192,256322,1,0,0:0:0:0:
182,192,256374,1,0,0:0:0:0:
256,192,256426,1,0,0:0:0:0:
36,192,256477,1,0,0:0:0:0:
475,192,256477,1,0,0:0:0:0:
402,192,256477,1,0,0:0:0:0:
182,192,256581,1,0,0:0:0:0:
475,192,256684,1,0,0:0:0:0:
36,192,256684,1,0,0:0:0:0:
109,192,256684,1,0,0:0:0:0:
329,192,256684,1,0,0:0:0:0:
329,192,256788,1,0,0:0:0:0:
402,192,256891,1,0,0:0:0:0:
256,192,256891,1,0,0:0:0:0:
182,192,256891,1,0,0:0:0:0:
36,192,256891,1,0,0:0:0:0:
182,192,256995,1,0,0:0:0:0:
109,192,257098,1,0,0:0:0:0:
36,192,257098,1,0,0:0:0:0:
329,192,257098,1,0,0:0:0:0:
475,192,257098,1,0,0:0:0:0:
256,192,257150,1,0,0:0:0:0:
182,192,257202,1,0,0:0:0:0:
402,192,257253,1,0,0:0:0:0:
475,192,257305,1,0,0:0:0:0:
109,192,257305,1,0,0:0:0:0:
329,192,257305,1,0,0:0:0:0:
36,192,257305,1,0,0:0:0:0:
256,192,257408,1,0,0:0:0:0:
402,192,257512,1,0,0:0:0:0:
475,192,257512,1,0,0:0:0:0:
182,192,257512,1,0,0:0:0:0:
36,192,257512,1,0,0:0:0:0:
109,192,257564,1,0,0:0:0:0:
256,192,257615,1,0,0:0:0:0:
329,192,257667,1,0,0:0:0:0:
402,192,257719,1,0,0:0:0:0:
182,192,257719,1,0,0:0:0:0:
36,192,257719,1,0,0:0:0:0:
475,192,257719,1,0,0:0:0:0:
256,192,257822,1,0,0:0:0:0:
329,192,257926,1,0,0:0:0:0:
475,192,257926,1,0,0:0:0:0:
109,192,257926,1,0,0:0:0:0:
36,192,257926,1,0,0:0:0:0:
182,192,257977,1,0,0:0:0:0:
402,192,258029,1,0,0:0:0:0:
256,192,258081,1,0,0:0:0:0:
475,192,258133,1,0,0:0:0:0:
36,192,258133,1,0,0:0:0:0:
109,192,258133,1,0,0:0:0:0:
329,192,258133,1,0,0:0:0:0:
256,192,258236,1,0,0:0:0:0:
402,192,258339,1,0,0:0:0:0:
475,192,258339,1,0,0:0:0:0:
182,192,258339,1,0,0:0:0:0:
36,192,258339,1,0,0:0:0:0:
329,192,258443,1,0,0:0:0:0:
256,192,258443,1,0,0:0:0:0:
402,192,258546,1,0,0:0:0:0:
475,192,258546,1,0,0:0:0:0:
109,192,258546,1,0,0:0:0:0:
36,192,258546,1,0,0:0:0:0:
256,192,258650,1,0,0:0:0:0:
182,192,258650,1,0,0:0:0:0:
475,192,258753,1,0,0:0:0:0:
402,192,258753,1,0,0:0:0:0:
36,192,258779,1,0,0:0:0:0:
109,192,258805,1,0,0:0:0:0:
182,192,258831,1,0,0:0:0:0:
256,192,258857,1,0,0:0:0:0:
329,192,258883,1,0,0:0:0:0:
402,192,258908,1,0,0:0:0:0:
475,192,258934,1,0,0:0:0:0:
36,192,258960,1,0,0:0:0:0:
109,192,258986,1,0,0:0:0:0:
182,192,259012,1,0,0:0:0:0:
256,192,259038,1,0,0:0:0:0:
329,192,259064,1,0,0:0:0:0:
402,192,259089,1,0,0:0:0:0:
475,192,259115,1,0,0:0:0:0:
182,192,259167,1,0,0:0:0:0:
109,192,259167,1,0,0:0:0:0:
36,192,259167,1,0,0:0:0:0:
329,192,259219,1,0,0:0:0:0:
475,192,259271,1,0,0:0:0:0:
256,192,259322,1,0,0:0:0:0:
402,192,259374,1,0,0:0:0:0:
36,192,259374,1,0,0:0:0:0:
109,192,259374,1,0,0:0:0:0:
182,192,259426,1,0,0:0:0:0:
329,192,259477,1,0,0:0:0:0:
36,192,259529,1,0,0:0:0:0:
475,192,259581,1,0,0:0:0:0:
256,192,259581,1,0,0:0:0:0:
109,192,259581,1,0,0:0:0:0:
402,192,259633,1,0,0:0:0:0:
182,192,259684,1,0,0:0:0:0:
36,192,259736,1,0,0:0:0:0:
475,192,259788,1,0,0:0:0:0:
256,192,259788,1,0,0:0:0:0:
109,192,259788,1,0,0:0:0:0:
329,192,259839,1,0,0:0:0:0:
182,192,259891,1,0,0:0:0:0:
402,192,259943,1,0,0:0:0:0:
109,192,259995,1,0,0:0:0:0:
36,192,259995,1,0,0:0:0:0:
256,192,259995,1,0,0:0:0:0:
475,192,260046,1,0,0:0:0:0:
182,192,260098,1,0,0:0:0:0:
329,192,260150,1,0,0:0:0:0:
36,192,260202,1,0,0:0:0:0:
256,192,260202,1,0,0:0:0:0:
402,192,260202,1,0,0:0:0:0:
109,192,260253,1,0,0:0:0:0:
329,192,260305,1,0,0:0:0:0:
182,192,260357,1,0,0:0:0:0:
475,192,260408,1,0,0:0:0:0:
402,192,260408,1,0,0:0:0:0:
256,192,260408,1,0,0:0:0:0:
109,192,260460,1,0,0:0:0:0:
36,192,260512,1,0,0:0:0:0:
182,192,260564,1,0,0:0:0:0:
475,192,260615,1,0,0:0:0:0:
256,192,260615,1,0,0:0:0:0:
329,192,260615,1,0,0:0:0:0:
109,192,260667,1,0,0:0:0:0:
402,192,260719,1,0,0:0:0:0:
329,192,260771,1,0,0:0:0:0:
475,192,260822,1,0,0:0:0:0:
36,192,260822,1,0,0:0:0:0:
182,192,260822,1,0,0:0:0:0:
256,192,260874,1,0,0:0:0:0:
109,192,260926,1,0,0:0:0:0:
329,192,260977,1,0,0:0:0:0:
475,192,261029,1,0,0:0:0:0:
182,192,261029,1,0,0:0:0:0:
402,192,261029,1,0,0:0:0:0:
36,192,261081,1,0,0:0:0:0:
256,192,261133,1,0,0:0:0:0:
109,192,261184,1,0,0:0:0:0:
182,192,261236,1,0,0:0:0:0:
475,192,261236,1,0,0:0:0:0:
329,192,261236,1,0,0:0:0:0:
402,192,261288,1,0,0:0:0:0:
256,192,261339,1,0,0:0:0:0:
109,192,261391,1,0,0:0:0:0:
329,192,261443,1,0,0:0:0:0:
182,192,261443,1,0,0:0:0:0:
36,192,261443,1,0,0:0:0:0:
402,192,261495,1,0,0:0:0:0:
256,192,261546,1,0,0:0:0:0:
109,192,261598,1,0,0:0:0:0:
475,192,261650,1,0,0:0:0:0:
329,192,261650,1,0,0:0:0:0:
182,192,261650,1,0,0:0:0:0:
36,192,261702,1,0,0:0:0:0:
256,192,261753,1,0,0:0:0:0:
402,192,261805,1,0,0:0:0:0:
329,192,261857,1,0,0:0:0:0:
109,192,261857,1,0,0:0:0:0:
182,192,261857,1,0,0:0:0:0:
475,192,261908,1,0,0:0:0:0:
256,192,261960,1,0,0:0:0:0:
36,192,262012,1,0,0:0:0:0:
402,192,262064,1,0,0:0:0:0:
329,192,262064,1,0,0:0:0:0:
182,192,262064,1,0,0:0:0:0:
109,192,262115,1,0,0:0:0:0:
256,192,262167,1,0,0:0:0:0:
36,192,262219,1,0,0:0:0:0:
475,192,262271,1,0,0:0:0:0:
329,192,262271,1,0,0:0:0:0:
109,192,262271,1,0,0:0:0:0:
182,192,262322,1,0,0:0:0:0:
36,192,262374,1,0,0:0:0:0:
402,192,262374,1,0,0:0:0:0:
256,192,262426,1,0,0:0:0:0:
329,192,262477,1,0,0:0:0:0:
475,192,262477,1,0,0:0:0:0:
36,192,262477,1,0,0:0:0:0:
109,192,262477,1,0,0:0:0:0:
182,192,262581,1,0,0:0:0:0:
256,192,262633,1,0,0:0:0:0:
475,192,262684,1,0,0:0:0:0:
109,192,262684,1,0,0:0:0:0:
402,192,262684,1,0,0:0:0:0:
182,192,262736,1,0,0:0:0:0:
329,192,262788,1,0,0:0:0:0:
36,192,262839,1,0,0:0:0:0:
475,192,262891,1,0,0:0:0:0:
256,192,262891,1,0,0:0:0:0:
109,192,262891,1,0,0:0:0:0:
402,192,262943,1,0,0:0:0:0:
329,192,262995,1,0,0:0:0:0:
182,192,263046,1,0,0:0:0:0:
256,192,263098,1,0,0:0:0:0:
109,192,263098,1,0,0:0:0:0:
36,192,263098,1,0,0:0:0:0:
402,192,263150,1,0,0:0:0:0:
475,192,263202,1,0,0:0:0:0:
182,192,263253,1,0,0:0:0:0:
36,192,263305,1,0,0:0:0:0:
256,192,263305,1,0,0:0:0:0:
329,192,263305,1,0,0:0:0:0:
109,192,263357,1,0,0:0:0:0:
402,192,263408,1,0,0:0:0:0:
256,192,263460,1,0,0:0:0:0:
36,192,263512,1,0,0:0:0:0:
475,192,263512,1,0,0:0:0:0:
329,192,263512,1,0,0:0:0:0:
182,192,263564,1,0,0:0:0:0:
109,192,263615,1,0,0:0:0:0:
256,192,263667,1,0,0:0:0:0:
329,192,263719,1,0,0:0:0:0:
475,192,263719,1,0,0:0:0:0:
402,192,263719,1,0,0:0:0:0:
182,192,263771,1,0,0:0:0:0:
36,192,263822,1,0,0:0:0:0:
109,192,263874,1,0,0:0:0:0:
475,192,263926,1,0,0:0:0:0:
329,192,263926,1,0,0:0:0:0:
256,192,263926,1,0,0:0:0:0:
182,192,263977,1,0,0:0:0:0:
402,192,264029,1,0,0:0:0:0:
329,192,264081,1,0,0:0:0:0:
256,192,264133,1,0,0:0:0:0:
36,192,264133,1,0,0:0:0:0:
109,192,264133,1,0,0:0:0:0:
402,192,264184,1,0,0:0:0:0:
475,192,264236,1,0,0:0:0:0:
182,192,264288,1,0,0:0:0:0:
36,192,264339,1,0,0:0:0:0:
329,192,264339,1,0,0:0:0:0:
256,192,264339,1,0,0:0:0:0:
402,192,264391,1,0,0:0:0:0:
109,192,264443,1,0,0:0:0:0:
182,192,264495,1,0,0:0:0:0:
475,192,264546,1,0,0:0:0:0:
329,192,264546,1,0,0:0:0:0:
256,192,264546,1,0,0:0:0:0:
36,192,264598,1,0,0:0:0:0:
182,192,264650,1,0,0:0:0:0:
109,192,264702,1,0,0:0:0:0:
402,192,264753,1,0,0:0:0:0:
36,192,264753,1,0,0:0:0:0:
329,192,264753,1,0,0:0:0:0:
256,192,264805,1,0,0:0:0:0:
182,192,264857,1,0,0:0:0:0:
402,192,264908,1,0,0:0:0:0:
36,192,264960,1,0,0:0:0:0:
329,192,264960,1,0,0:0:0:0:
475,192,264960,1,0,0:0:0:0:
109,192,265012,1,0,0:0:0:0:
256,192,265064,1,0,0:0:0:0:
182,192,265064,1,0,0:0:0:0:
402,192,265115,1,0,0:0:0:0:
329,192,265167,1,0,0:0:0:0:
109,192,265167,1,0,0:0:0:0:
36,192,265167,1,0,0:0:0:0:
475,192,265219,1,0,0:0:0:0:
256,192,265271,1,0,0:0:0:0:
402,192,265271,1,0,0:0:0:0:
182,192,265322,1,0,0:0:0:0:
475,192,265374,1,0,0:0:0:0:
329,192,265374,1,0,0:0:0:0:
109,192,265374,1,0,0:0:0:0:
256,192,265426,1,0,0:0:0:0:
402,192,265477,1,0,0:0:0:0:
182,192,265529,1,0,0:0:0:0:
256,192,265581,1,0,0:0:0:0:
109,192,265581,1,0,0:0:0:0:
36,192,265581,1,0,0:0:0:0:
329,192,265607,1,0,0:0:0:0:
402,192,265633,1,0,0:0:0:0:
475,192,265658,1,0,0:0:0:0:
182,192,265684,1,0,0:0:0:0:
256,192,265710,1,0,0:0:0:0:
329,192,265736,1,0,0:0:0:0:
402,192,265762,1,0,0:0:0:0:
109,192,265788,1,0,0:0:0:0:
36,192,265788,1,0,0:0:0:0:
475,192,265788,1,0,0:0:0:0:
182,192,265839,1,0,0:0:0:0:
256,192,265891,1,0,0:0:0:0:
402,192,265943,1,0,0:0:0:0:
475,192,265995,1,0,0:0:0:0:
109,192,265995,1,0,0:0:0:0:
329,192,265995,1,0,0:0:0:0:
182,192,266046,1,0,0:0:0:0:
402,192,266098,1,0,0:0:0:0:
256,192,266150,1,0,0:0:0:0:
36,192,266202,1,0,0:0:0:0:
329,192,266202,1,0,0:0:0:0:
182,192,266202,1,0,0:0:0:0:
109,192,266253,1,0,0:0:0:0:
402,192,266305,1,0,0:0:0:0:
329,192,266357,1,0,0:0:0:0:
475,192,266408,1,0,0:0:0:0:
36,192,266408,1,0,0:0:0:0:
256,192,266408,1,0,0:0:0:0:
182,192,266460,1,0,0:0:0:0:
329,192,266512,1,0,0:0:0:0:
402,192,266564,1,0,0:0:0:0:
36,192,266615,1,0,0:0:0:0:
256,192,266615,1,0,0:0:0:0:
475,192,266615,1,0,0:0:0:0:
329,192,266667,1,0,0:0:0:0:
109,192,266719,1,0,0:0:0:0:
182,192,266771,1,0,0:0:0:0:
36,192,266822,1,0,0:0:0:0:
475,192,266822,1,0,0:0:0:0:
256,192,266822,1,0,0:0:0:0:
109,192,266874,1,0,0:0:0:0:
329,192,266926,1,0,0:0:0:0:
256,192,266977,1,0,0:0:0:0:
475,192,267029,1,0,0:0:0:0:
36,192,267029,1,0,0:0:0:0:
182,192,267029,1,0,0:0:0:0:
402,192,267081,1,0,0:0:0:0:
109,192,267133,1,0,0:0:0:0:
256,192,267184,1,0,0:0:0:0:
36,192,267236,1,0,0:0:0:0:
182,192,267236,1,0,0:0:0:0:
329,192,267236,1,0,0:0:0:0:
475,192,267288,1,0,0:0:0:0:
256,192,267339,1,0,0:0:0:0:
109,192,267391,1,0,0:0:0:0:
182,192,267443,1,0,0:0:0:0:
402,192,267443,1,0,0:0:0:0:
329,192,267443,1,0,0:0:0:0:
475,192,267495,1,0,0:0:0:0:
256,192,267546,1,0,0:0:0:0:
36,192,267598,1,0,0:0:0:0:
402,192,267650,1,0,0:0:0:0:
109,192,267650,1,0,0:0:0:0:
182,192,267650,1,0,0:0:0:0:
329,192,267702,1,0,0:0:0:0:
256,192,267753,1,0,0:0:0:0:
36,192,267805,1,0,0:0:0:0:
475,192,267857,1,0,0:0:0:0:
402,192,267857,1,0,0:0:0:0:
109,192,267857,1,0,0:0:0:0:
182,192,267908,1,0,0:0:0:0:
256,192,267960,1,0,0:0:0:0:
329,192,268012,1,0,0:0:0:0:
475,192,268064,1,0,0:0:0:0:
109,192,268064,1,0,0:0:0:0:
36,192,268064,1,0,0:0:0:0:
402,192,268115,1,0,0:0:0:0:
256,192,268167,1,0,0:0:0:0:
109,192,268219,1,0,0:0:0:0:
475,192,268271,1,0,0:0:0:0:
329,192,268271,1,0,0:0:0:0:
182,192,268271,1,0,0:0:0:0:
36,192,268322,1,0,0:0:0:0:
256,192,268374,1,0,0:0:0:0:
109,192,268426,1,0,0:0:0:0:
182,192,268477,1,0,0:0:0:0:
329,192,268477,1,0,0:0:0:0:
402,192,268477,1,0,0:0:0:0:
36,192,268529,1,0,0:0:0:0:
256,192,268581,1,0,0:0:0:0:
109,192,268633,1,0,0:0:0:0:
475,192,268684,1,0,0:0:0:0:
402,192,268684,1,0,0:0:0:0:
329,192,268684,1,0,0:0:0:0:
182,192,268736,1,0,0:0:0:0:
36,192,268788,1,0,0:0:0:0:
256,192,268839,1,0,0:0:0:0:
475,192,268891,1,0,0:0:0:0:
402,192,268891,1,0,0:0:0:0:
109,192,268891,1,0,0:0:0:0:
182,192,268943,1,0,0:0:0:0:
329,192,268995,1,0,0:0:0:0:
36,192,269046,1,0,0:0:0:0:
475,192,269098,1,0,0:0:0:0:
256,192,269098,1,0,0:0:0:0:
109,192,269098,1,0,0:0:0:0:
402,192,269150,1,0,0:0:0:0:
329,192,269202,1,0,0:0:0:0:
182,192,269253,1,0,0:0:0:0:
256,192,269305,1,0,0:0:0:0:
109,192,269305,1,0,0:0:0:0:
36,192,269305,1,0,0:0:0:0:
402,192,269357,1,0,0:0:0:0:
329,192,269408,1,0,0:0:0:0:
182,192,269460,1,0,0:0:0:0:
475,192,269512,1,0,0:0:0:0:
402,192,269512,1,0,0:0:0:0:
256,192,269512,1,0,0:0:0:0:
109,192,269564,1,0,0:0:0:0:
36,192,269615,1,0,0:0:0:0:
182,192,269667,1,0,0:0:0:0:
402,192,269719,1,0,0:0:0:0:
109,192,269719,1,0,0:0:0:0:
256,192,269719,1,0,0:0:0:0:
329,192,269771,1,0,0:0:0:0:
182,192,269822,1,0,0:0:0:0:
36,192,269874,1,0,0:0:0:0:
475,192,269926,1,0,0:0:0:0:
402,192,269926,1,0,0:0:0:0:
256,192,269926,1,0,0:0:0:0:
109,192,269977,1,0,0:0:0:0:
329,192,270029,1,0,0:0:0:0:
182,192,270081,1,0,0:0:0:0:
475,192,270133,1,0,0:0:0:0:
256,192,270133,1,0,0:0:0:0:
36,192,270133,1,0,0:0:0:0:
402,192,270184,1,0,0:0:0:0:
109,192,270236,1,0,0:0:0:0:
329,192,270288,1,0,0:0:0:0:
475,192,270339,1,0,0:0:0:0:
36,192,270339,1,0,0:0:0:0:
182,192,270339,1,0,0:0:0:0:
256,192,270391,1,0,0:0:0:0:
402,192,270443,1,0,0:0:0:0:
109,192,270495,1,0,0:0:0:0:
475,192,270546,1,0,0:0:0:0:
329,192,270546,1,0,0:0:0:0:
182,192,270546,1,0,0:0:0:0:
36,192,270598,1,0,0:0:0:0:
256,192,270650,1,0,0:0:0:0:
109,192,270702,1,0,0:0:0:0:
475,192,270753,1,0,0:0:0:0:
402,192,270753,1,0,0:0:0:0:
182,192,270753,1,0,0:0:0:0:
329,192,270805,1,0,0:0:0:0:
109,192,270857,1,0,0:0:0:0:
36,192,270908,1,0,0:0:0:0:
402,192,270960,1,0,0:0:0:0:
182,192,270960,1,0,0:0:0:0:
256,192,270960,1,0,0:0:0:0:
475,192,271012,1,0,0:0:0:0:
109,192,271064,1,0,0:0:0:0:
329,192,271064,1,0,0:0:0:0:
36,192,271115,1,0,0:0:0:0:
475,192,271167,1,0,0:0:0:0:
256,192,271167,1,0,0:0:0:0:
402,192,271167,1,0,0:0:0:0:
182,192,271219,1,0,0:0:0:0:
329,192,271271,1,0,0:0:0:0:
109,192,271271,1,0,0:0:0:0:
402,192,271322,1,0,0:0:0:0:
182,192,271374,1,0,0:0:0:0:
36,192,271374,1,0,0:0:0:0:
475,192,271374,1,0,0:0:0:0:
256,192,271426,1,0,0:0:0:0:
329,192,271477,1,0,0:0:0:0:
109,192,271477,1,0,0:0:0:0:
402,192,271529,1,0,0:0:0:0:
475,192,271581,1,0,0:0:0:0:
36,192,271581,1,0,0:0:0:0:
182,192,271581,1,0,0:0:0:0:
329,192,271633,1,0,0:0:0:0:
109,192,271684,1,0,0:0:0:0:
256,192,271684,1,0,0:0:0:0:
402,192,271736,1,0,0:0:0:0:
329,192,271788,1,0,0:0:0:0:
182,192,271788,1,0,0:0:0:0:
36,192,271822,1,0,0:0:0:0:
109,192,271857,1,0,0:0:0:0:
475,192,271891,1,0,0:0:0:0:
402,192,271891,1,0,0:0:0:0:
256,192,271926,1,0,0:0:0:0:
182,192,271960,1,0,0:0:0:0:
36,192,271995,1,0,0:0:0:0:
109,192,271995,1,0,0:0:0:0:
329,192,271995,1,0,0:0:0:0:
475,192,271995,1,0,0:0:0:0:
109,192,272202,1,0,0:0:0:0:
182,192,272227,1,0,0:0:0:0:
256,192,272253,1,0,0:0:0:0:
329,192,272279,1,0,0:0:0:0:
109,192,272305,1,0,0:0:0:0:
402,192,272305,1,0,0:0:0:0:
182,192,272331,1,0,0:0:0:0:
256,192,272357,1,0,0:0:0:0:
329,192,272383,1,0,0:0:0:0:
402,192,272408,1,0,0:0:0:0:
36,192,272408,1,0,0:0:0:0:
475,192,272408,1,0,0:0:0:0:
182,192,272512,1,0,0:0:0:0:
36,192,272615,1,0,0:0:0:0:
329,192,272615,1,0,0:0:0:0:
109,192,272615,1,0,0:0:0:0:
256,192,272719,1,0,0:0:0:0:
402,192,272719,1,0,0:0:0:0:
182,192,272771,1,0,0:0:0:0:
329,192,272822,1,0,0:0:0:0:
109,192,272822,1,0,0:0:0:0:
475,192,272874,1,0,0:0:0:0:
402,192,272926,1,0,0:0:0:0:
256,192,272926,1,0,0:0:0:0:
329,192,273029,1,0,0:0:0:0:
109,192,273029,1,0,0:0:0:0:
182,192,273029,1,0,0:0:0:0:
256,192,273133,1,0,0:0:0:0:
475,192,273236,1,0,0:0:0:0:
182,192,273236,1,0,0:0:0:0:
36,192,273236,1,0,0:0:0:0:
402,192,273236,1,0,0:0:0:0:
256,192,273339,1,0,0:0:0:0:
109,192,273339,1,0,0:0:0:0:
475,192,273443,1,0,0:0:0:0:
329,192,273443,1,0,0:0:0:0:
182,192,273443,1,0,0:0:0:0:
36,192,273546,1,0,0:0:0:0:
256,192,273546,1,0,0:0:0:0:
109,192,273598,1,0,0:0:0:0:
402,192,273650,1,0,0:0:0:0:
182,192,273650,1,0,0:0:0:0:
329,192,273702,1,0,0:0:0:0:
36,192,273753,1,0,0:0:0:0:
256,192,273753,1,0,0:0:0:0:
402,192,273857,1,0,0:0:0:0:
182,192,273857,1,0,0:0:0:0:
109,192,273857,1,0,0:0:0:0:
256,192,273908,1,0,0:0:0:0:
329,192,273960,1,0,0:0:0:0:
475,192,273960,1,0,0:0:0:0:
402,192,274064,1,0,0:0:0:0:
182,192,274064,1,0,0:0:0:0:
36,192,274064,1,0,0:0:0:0:
109,192,274064,1,0,0:0:0:0:
256,192,274167,1,0,0:0:0:0:
475,192,274271,1,0,0:0:0:0:
36,192,274271,1,0,0:0:0:0:
182,192,274271,1,0,0:0:0:0:
329,192,274322,1,0,0:0:0:0:
256,192,274374,1,0,0:0:0:0:
109,192,274374,1,0,0:0:0:0:
402,192,274426,1,0,0:0:0:0:
36,192,274477,1,0,0:0:0:0:
475,192,274477,1,0,0:0:0:0:
182,192,274477,1,0,0:0:0:0:
256,192,274581,1,0,0:0:0:0:
475,192,274684,1,0,0:0:0:0:
329,192,274684,1,0,0:0:0:0:
109,192,274684,1,0,0:0:0:0:
329,192,274788,1,0,0:0:0:0:
182,192,274788,1,0,0:0:0:0:
402,192,274891,1,0,0:0:0:0:
475,192,274891,1,0,0:0:0:0:
36,192,274891,1,0,0:0:0:0:
256,192,274891,1,0,0:0:0:0:
329,192,274995,1,0,0:0:0:0:
182,192,274995,1,0,0:0:0:0:
256,192,275098,1,0,0:0:0:0:
109,192,275098,1,0,0:0:0:0:
36,192,275202,1,0,0:0:0:0:
182,192,275202,1,0,0:0:0:0:
329,192,275253,1,0,0:0:0:0:
475,192,275305,1,0,0:0:0:0:
256,192,275305,1,0,0:0:0:0:
109,192,275357,1,0,0:0:0:0:
402,192,275408,1,0,0:0:0:0:
182,192,275408,1,0,0:0:0:0:
329,192,275512,1,0,0:0:0:0:
109,192,275512,1,0,0:0:0:0:
36,192,275512,1,0,0:0:0:0:
402,192,275615,1,0,0:0:0:0:
256,192,275615,1,0,0:0:0:0:
182,192,275615,1,0,0:0:0:0:
329,192,275719,1,0,0:0:0:0:
475,192,275719,1,0,0:0:0:0:
109,192,275719,1,0,0:0:0:0:
36,192,275719,1,0,0:0:0:0:
256,192,275822,1,0,0:0:0:0:
402,192,275926,1,0,0:0:0:0:
36,192,275926,1,0,0:0:0:0:
182,192,275926,1,0,0:0:0:0:
329,192,275977,1,0,0:0:0:0:
475,192,276029,1,0,0:0:0:0:
109,192,276029,1,0,0:0:0:0:
182,192,276081,1,0,0:0:0:0:
36,192,276133,1,0,0:0:0:0:
402,192,276133,1,0,0:0:0:0:
256,192,276133,1,0,0:0:0:0:
329,192,276236,1,0,0:0:0:0:
182,192,276236,1,0,0:0:0:0:
256,192,276339,1,0,0:0:0:0:
36,192,276339,1,0,0:0:0:0:
109,192,276339,1,0,0:0:0:0:
329,192,276443,1,0,0:0:0:0:
402,192,276443,1,0,0:0:0:0:
475,192,276546,1,0,0:0:0:0:
109,192,276546,1,0,0:0:0:0:
182,192,276546,1,0,0:0:0:0:
36,192,276546,1,0,0:0:0:0:
329,192,276650,1,0,0:0:0:0:
109,192,276650,1,0,0:0:0:0:
182,192,276650,1,0,0:0:0:0:
402,192,276753,1,0,0:0:0:0:
475,192,276753,1,0,0:0:0:0:
36,192,276753,1,0,0:0:0:0:
256,192,276753,1,0,0:0:0:0:
182,192,276805,1,0,0:0:0:0:
329,192,276857,1,0,0:0:0:0:
109,192,276857,1,0,0:0:0:0:
402,192,276908,1,0,0:0:0:0:
36,192,276960,1,0,0:0:0:0:
475,192,276960,1,0,0:0:0:0:
256,192,276960,1,0,0:0:0:0:
109,192,277012,1,0,0:0:0:0:
329,192,277064,1,0,0:0:0:0:
182,192,277064,1,0,0:0:0:0:
36,192,277167,1,0,0:0:0:0:
475,192,277167,1,0,0:0:0:0:
256,192,277167,1,0,0:0:0:0:
402,192,277219,1,0,0:0:0:0:
109,192,277271,1,0,0:0:0:0:
329,192,277271,1,0,0:0:0:0:
182,192,277322,1,0,0:0:0:0:
475,192,277374,1,0,0:0:0:0:
256,192,277374,1,0,0:0:0:0:
402,192,277408,1,0,0:0:0:0:
329,192,277443,1,0,0:0:0:0:
36,192,277477,1,0,0:0:0:0:
109,192,277512,1,0,0:0:0:0:
182,192,277546,1,0,0:0:0:0:
475,192,277581,1,0,0:0:0:0:
402,192,277581,1,0,0:0:0:0:
256,192,277581,1,0,0:0:0:0:
329,192,277684,1,0,0:0:0:0:
36,192,277684,1,0,0:0:0:0:
109,192,277684,1,0,0:0:0:0:
475,192,277788,1,0,0:0:0:0:
402,192,277788,1,0,0:0:0:0:
182,192,277788,1,0,0:0:0:0:
256,192,277839,1,0,0:0:0:0:
329,192,277891,1,0,0:0:0:0:
36,192,277891,1,0,0:0:0:0:
109,192,277943,1,0,0:0:0:0:
475,192,277995,1,0,0:0:0:0:
182,192,277995,1,0,0:0:0:0:
402,192,278046,1,0,0:0:0:0:
36,192,278098,1,0,0:0:0:0:
256,192,278098,1,0,0:0:0:0:
109,192,278098,1,0,0:0:0:0:
329,192,278098,1,0,0:0:0:0:
256,192,278305,1,0,0:0:0:0:
329,192,278305,1,0,0:0:0:0:
36,192,278305,1,0,0:0:0:0:
109,192,278305,1,0,0:0:0:0:
256,192,278512,1,0,0:0:0:0:
329,192,278512,1,0,0:0:0:0:
36,192,278512,1,0,0:0:0:0:
109,192,278512,1,0,0:0:0:0:
475,192,278615,1,0,0:0:0:0:
402,192,278615,1,0,0:0:0:0:
182,192,278615,1,0,0:0:0:0:
256,192,278822,1,0,0:0:0:0:
36,192,278822,1,0,0:0:0:0:
109,192,278822,1,0,0:0:0:0:
329,192,278857,1,0,0:0:0:0:
402,192,278891,1,0,0:0:0:0:
182,192,278926,1,0,0:0:0:0:
475,192,278926,1,0,0:0:0:0:
256,192,278960,1,0,0:0:0:0:
329,192,278995,1,0,0:0:0:0:
109,192,279029,1,0,0:0:0:0:
36,192,279029,1,0,0:0:0:0:
402,192,279029,1,0,0:0:0:0:
182,192,279133,1,0,0:0:0:0:
475,192,279236,1,0,0:0:0:0:
329,192,279236,1,0,0:0:0:0:
256,192,279236,1,0,0:0:0:0:
402,192,279339,1,0,0:0:0:0:
182,192,279339,1,0,0:0:0:0:
36,192,279339,1,0,0:0:0:0:
329,192,279391,1,0,0:0:0:0:
256,192,279443,1,0,0:0:0:0:
109,192,279443,1,0,0:0:0:0:
475,192,279495,1,0,0:0:0:0:
182,192,279546,1,0,0:0:0:0:
402,192,279546,1,0,0:0:0:0:
256,192,279650,1,0,0:0:0:0:
109,192,279650,1,0,0:0:0:0:
36,192,279650,1,0,0:0:0:0:
329,192,279702,1,0,0:0:0:0:
475,192,279753,1,0,0:0:0:0:
182,192,279753,1,0,0:0:0:0:
109,192,279805,1,0,0:0:0:0:
402,192,279857,1,0,0:0:0:0:
256,192,279857,1,0,0:0:0:0:
36,192,279857,1,0,0:0:0:0:
329,192,279960,1,0,0:0:0:0:
182,192,279960,1,0,0:0:0:0:
475,192,280064,1,0,0:0:0:0:
109,192,280064,1,0,0:0:0:0:
256,192,280064,1,0,0:0:0:0:
402,192,280115,1,0,0:0:0:0:
36,192,280167,1,0,0:0:0:0:
329,192,280167,1,0,0:0:0:0:
182,192,280219,1,0,0:0:0:0:
475,192,280271,1,0,0:0:0:0:
256,192,280271,1,0,0:0:0:0:
109,192,280322,1,0,0:0:0:0:
329,192,280374,1,0,0:0:0:0:
182,192,280374,1,0,0:0:0:0:
402,192,280477,1,0,0:0:0:0:
475,192,280477,1,0,0:0:0:0:
36,192,280477,1,0,0:0:0:0:
256,192,280477,1,0,0:0:0:0:
182,192,280581,1,0,0:0:0:0:
329,192,280684,1,0,0:0:0:0:
475,192,280684,1,0,0:0:0:0:
109,192,280684,1,0,0:0:0:0:
36,192,280684,1,0,0:0:0:0:
256,192,280788,1,0,0:0:0:0:
402,192,280891,1,0,0:0:0:0:
36,192,280891,1,0,0:0:0:0:
182,192,280891,1,0,0:0:0:0:
329,192,280943,1,0,0:0:0:0:
475,192,280995,1,0,0:0:0:0:
109,192,280995,1,0,0:0:0:0:
256,192,281046,1,0,0:0:0:0:
36,192,281098,1,0,0:0:0:0:
182,192,281098,1,0,0:0:0:0:
329,192,281150,1,0,0:0:0:0:
109,192,281202,1,0,0:0:0:0:
402,192,281202,1,0,0:0:0:0:
475,192,281305,1,0,0:0:0:0:
256,192,281305,1,0,0:0:0:0:
329,192,281408,1,0,0:0:0:0:
109,192,281408,1,0,0:0:0:0:
36,192,281408,1,0,0:0:0:0:
182,192,281512,1,0,0:0:0:0:
256,192,281512,1,0,0:0:0:0:
402,192,281512,1,0,0:0:0:0:
475,192,281512,1,0,0:0:0:0:
329,192,281615,1,0,0:0:0:0:
109,192,281615,1,0,0:0:0:0:
475,192,281719,1,0,0:0:0:0:
402,192,281719,1,0,0:0:0:0:
182,192,281719,1,0,0:0:0:0:
36,192,281822,1,0,0:0:0:0:
256,192,281822,1,0,0:0:0:0:
329,192,281874,1,0,0:0:0:0:
475,192,281926,1,0,0:0:0:0:
109,192,281926,1,0,0:0:0:0:
182,192,281977,1,0,0:0:0:0:
256,192,282029,1,0,0:0:0:0:
402,192,282029,1,0,0:0:0:0:
329,192,282133,1,0,0:0:0:0:
109,192,282133,1,0,0:0:0:0:
36,192,282133,1,0,0:0:0:0:
256,192,282236,1,0,0:0:0:0:
182,192,282236,1,0,0:0:0:0:
402,192,282339,1,0,0:0:0:0:
475,192,282339,1,0,0:0:0:0:
109,192,282339,1,0,0:0:0:0:
36,192,282339,1,0,0:0:0:0:
475,192,282546,1,0,0:0:0:0:
182,192,282546,1,0,0:0:0:0:
329,192,282546,1,0,0:0:0:0:
256,192,282650,1,0,0:0:0:0:
109,192,282650,1,0,0:0:0:0:
402,192,282702,1,0,0:0:0:0:
329,192,282753,1,0,0:0:0:0:
182,192,282753,1,0,0:0:0:0:
36,192,282805,1,0,0:0:0:0:
475,192,282857,1,0,0:0:0:0:
256,192,282857,1,0,0:0:0:0:
36,192,282960,1,0,0:0:0:0:
329,192,282960,1,0,0:0:0:0:
109,192,282960,1,0,0:0:0:0:
182,192,283064,1,0,0:0:0:0:
475,192,283167,1,0,0:0:0:0:
402,192,283167,1,0,0:0:0:0:
256,192,283167,1,0,0:0:0:0:
329,192,283271,1,0,0:0:0:0:
109,192,283271,1,0,0:0:0:0:
182,192,283271,1,0,0:0:0:0:
475,192,283374,1,0,0:0:0:0:
36,192,283374,1,0,0:0:0:0:
256,192,283374,1,0,0:0:0:0:
402,192,283426,1,0,0:0:0:0:
329,192,283477,1,0,0:0:0:0:
182,192,283477,1,0,0:0:0:0:
109,192,283529,1,0,0:0:0:0:
475,192,283581,1,0,0:0:0:0:
256,192,283581,1,0,0:0:0:0:
36,192,283581,1,0,0:0:0:0:
402,192,283633,1,0,0:0:0:0:
329,192,283684,1,0,0:0:0:0:
182,192,283684,1,0,0:0:0:0:
36,192,283788,1,0,0:0:0:0:
475,192,283788,1,0,0:0:0:0:
256,192,283788,1,0,0:0:0:0:
109,192,283822,1,0,0:0:0:0:
402,192,283857,1,0,0:0:0:0:
182,192,283891,1,0,0:0:0:0:
329,192,283926,1,0,0:0:0:0:
36,192,283960,1,0,0:0:0:0:
475,192,283995,1,0,0:0:0:0:
256,192,283995,1,0,0:0:0:0:
109,192,283995,1,0,0:0:0:0:
402,192,284046,1,0,0:0:0:0:
329,192,284098,1,0,0:0:0:0:
182,192,284098,1,0,0:0:0:0:
36,192,284150,1,0,0:0:0:0:
475,192,284202,1,0,0:0:0:0:
256,192,284202,1,0,0:0:0:0:
109,192,284202,1,0,0:0:0:0:
329,192,284253,1,0,0:0:0:0:
402,192,284305,1,0,0:0:0:0:
182,192,284305,1,0,0:0:0:0:
36,192,284357,1,0,0:0:0:0:
475,192,284408,1,0,0:0:0:0:
256,192,284408,1,0,0:0:0:0:
109,192,284408,1,0,0:0:0:0:
329,192,284460,1,0,0:0:0:0:
182,192,284512,1,0,0:0:0:0:
402,192,284512,1,0,0:0:0:0:
256,192,284564,1,0,0:0:0:0:
475,192,284615,1,0,0:0:0:0:
109,192,284615,1,0,0:0:0:0:
36,192,284615,1,0,0:0:0:0:
329,192,284667,1,0,0:0:0:0:
402,192,284719,1,0,0:0:0:0:
182,192,284719,1,0,0:0:0:0:
36,192,284771,1,0,0:0:0:0:
475,192,284822,1,0,0:0:0:0:
256,192,284822,1,0,0:0:0:0:
109,192,284822,1,0,0:0:0:0:
402,192,284874,1,0,0:0:0:0:
182,192,284926,1,0,0:0:0:0:
329,192,284926,1,0,0:0:0:0:
109,192,284977,1,0,0:0:0:0:
475,192,285029,1,0,0:0:0:0:
256,192,285029,1,0,0:0:0:0:
36,192,285029,1,0,0:0:0:0:
329,192,285081,1,0,0:0:0:0:
109,192,285133,1,0,0:0:0:0:
402,192,285133,1,0,0:0:0:0:
182,192,285184,1,0,0:0:0:0:
36,192,285236,1,0,0:0:0:0:
475,192,285236,1,0,0:0:0:0:
256,192,285236,1,0,0:0:0:0:
329,192,285288,1,0,0:0:0:0:
402,192,285339,1,0,0:0:0:0:
182,192,285339,1,0,0:0:0:0:
109,192,285391,1,0,0:0:0:0:
36,192,285443,1,0,0:0:0:0:
475,192,285443,1,0,0:0:0:0:
402,192,285469,1,0,0:0:0:0:
329,192,285495,1,0,0:0:0:0:
256,192,285521,1,0,0:0:0:0:
182,192,285546,1,0,0:0:0:0:
109,192,285572,1,0,0:0:0:0:
36,192,285598,1,0,0:0:0:0:
475,192,285650,1,0,0:0:0:0:
402,192,285650,1,0,0:0:0:0:
329,192,285650,1,0,0:0:0:0:
256,192,285702,1,0,0:0:0:0:
109,192,285753,1,0,0:0:0:0:
402,192,285805,1,0,0:0:0:0:
329,192,285857,1,0,0:0:0:0:
182,192,285857,1,0,0:0:0:0:
36,192,285908,1,0,0:0:0:0:
329,192,285960,1,0,0:0:0:0:
182,192,285960,1,0,0:0:0:0:
475,192,286012,1,0,0:0:0:0:
109,192,286064,1,0,0:0:0:0:
256,192,286064,1,0,0:0:0:0:
402,192,286115,1,0,0:0:0:0:
182,192,286167,1,0,0:0:0:0:
36,192,286219,1,0,0:0:0:0:
475,192,286271,1,0,0:0:0:0:
329,192,286271,1,0,0:0:0:0:
109,192,286322,1,0,0:0:0:0:
256,192,286374,1,0,0:0:0:0:
36,192,286426,1,0,0:0:0:0:
402,192,286477,1,0,0:0:0:0:
182,192,286477,1,0,0:0:0:0:
329,192,286529,1,0,0:0:0:0:
109,192,286581,1,0,0:0:0:0:
256,192,286633,1,0,0:0:0:0:
402,192,286684,1,0,0:0:0:0:
475,192,286684,1,0,0:0:0:0:
182,192,286736,1,0,0:0:0:0:
36,192,286788,1,0,0:0:0:0:
329,192,286839,1,0,0:0:0:0:
256,192,286891,1,0,0:0:0:0:
109,192,286891,1,0,0:0:0:0:
475,192,286943,1,0,0:0:0:0:
402,192,286995,1,0,0:0:0:0:
182,192,287046,1,0,0:0:0:0:
329,192,287098,1,0,0:0:0:0:
36,192,287098,1,0,0:0:0:0:
475,192,287150,1,0,0:0:0:0:
109,192,287202,1,0,0:0:0:0:
256,192,287253,1,0,0:0:0:0:
36,192,287305,1,0,0:0:0:0:
475,192,287305,1,0,0:0:0:0:
402,192,287305,1,0,0:0:0:0:
182,192,287357,1,0,0:0:0:0:
329,192,287408,1,0,0:0:0:0:
256,192,287460,1,0,0:0:0:0:
36,192,287512,1,0,0:0:0:0:
109,192,287512,1,0,0:0:0:0:
402,192,287564,1,0,0:0:0:0:
36,192,287615,1,0,0:0:0:0:
109,192,287615,1,0,0:0:0:0:
256,192,287667,1,0,0:0:0:0:
329,192,287719,1,0,0:0:0:0:
475,192,287719,1,0,0:0:0:0:
182,192,287771,1,0,0:0:0:0:
36,192,287822,1,0,0:0:0:0:
256,192,287874,1,0,0:0:0:0:
402,192,287926,1,0,0:0:0:0:
109,192,287926,1,0,0:0:0:0:
182,192,287977,1,0,0:0:0:0:
475,192,288029,1,0,0:0:0:0:
329,192,288081,1,0,0:0:0:0:
256,192,288133,1,0,0:0:0:0:
109,192,288133,1,0,0:0:0:0:
36,192,288133,1,0,0:0:0:0:
402,192,288184,1,0,0:0:0:0:
182,192,288236,1,0,0:0:0:0:
329,192,288288,1,0,0:0:0:0:
475,192,288339,1,0,0:0:0:0:
109,192,288339,1,0,0:0:0:0:
256,192,288391,1,0,0:0:0:0:
36,192,288443,1,0,0:0:0:0:
402,192,288495,1,0,0:0:0:0:
329,192,288546,1,0,0:0:0:0:
182,192,288546,1,0,0:0:0:0:
475,192,288598,1,0,0:0:0:0:
109,192,288650,1,0,0:0:0:0:
256,192,288702,1,0,0:0:0:0:
36,192,288753,1,0,0:0:0:0:
402,192,288753,1,0,0:0:0:0:
182,192,288805,1,0,0:0:0:0:
329,192,288857,1,0,0:0:0:0:
475,192,288908,1,0,0:0:0:0:
256,192,288960,1,0,0:0:0:0:
36,192,288960,1,0,0:0:0:0:
109,192,288960,1,0,0:0:0:0:
402,192,289012,1,0,0:0:0:0:
182,192,289064,1,0,0:0:0:0:
329,192,289115,1,0,0:0:0:0:
475,192,289167,1,0,0:0:0:0:
109,192,289167,1,0,0:0:0:0:
256,192,289219,1,0,0:0:0:0:
36,192,289271,1,0,0:0:0:0:
182,192,289322,1,0,0:0:0:0:
475,192,289374,1,0,0:0:0:0:
329,192,289374,1,0,0:0:0:0:
109,192,289426,1,0,0:0:0:0:
402,192,289477,1,0,0:0:0:0:
256,192,289529,1,0,0:0:0:0:
182,192,289581,1,0,0:0:0:0:
36,192,289581,1,0,0:0:0:0:
329,192,289633,1,0,0:0:0:0:
109,192,289684,1,0,0:0:0:0:
256,192,289736,1,0,0:0:0:0:
36,192,289788,1,0,0:0:0:0:
475,192,289788,1,0,0:0:0:0:
402,192,289788,1,0,0:0:0:0:
182,192,289839,1,0,0:0:0:0:
329,192,289891,1,0,0:0:0:0:
109,192,289943,1,0,0:0:0:0:
402,192,289995,1,0,0:0:0:0:
256,192,289995,1,0,0:0:0:0:
475,192,290046,1,0,0:0:0:0:
182,192,290098,1,0,0:0:0:0:
36,192,290150,1,0,0:0:0:0:
402,192,290202,1,0,0:0:0:0:
329,192,290202,1,0,0:0:0:0:
109,192,290253,1,0,0:0:0:0:
256,192,290305,1,0,0:0:0:0:
475,192,290357,1,0,0:0:0:0:
182,192,290408,1,0,0:0:0:0:
36,192,290408,1,0,0:0:0:0:
402,192,290460,1,0,0:0:0:0:
256,192,290512,1,0,0:0:0:0:
109,192,290564,1,0,0:0:0:0:
36,192,290615,1,0,0:0:0:0:
475,192,290615,1,0,0:0:0:0:
329,192,290615,1,0,0:0:0:0:
182,192,290667,1,0,0:0:0:0:
402,192,290719,1,0,0:0:0:0:
256,192,290771,1,0,0:0:0:0:
36,192,290822,1,0,0:0:0:0:
329,192,290822,1,0,0:0:0:0:
109,192,290822,1,0,0:0:0:0:
475,192,290874,1,0,0:0:0:0:
182,192,290926,1,0,0:0:0:0:
402,192,290977,1,0,0:0:0:0:
36,192,291029,1,0,0:0:0:0:
329,192,291029,1,0,0:0:0:0:
256,192,291029,1,0,0:0:0:0:
109,192,291081,1,0,0:0:0:0:
475,192,291133,1,0,0:0:0:0:
329,192,291184,1,0,0:0:0:0:
36,192,291236,1,0,0:0:0:0:
402,192,291236,1,0,0:0:0:0:
182,192,291236,1,0,0:0:0:0:
256,192,291288,1,0,0:0:0:0:
109,192,291339,1,0,0:0:0:0:
329,192,291391,1,0,0:0:0:0:
36,192,291443,1,0,0:0:0:0:
256,192,291443,1,0,0:0:0:0:
475,192,291443,1,0,0:0:0:0:
182,192,291495,1,0,0:0:0:0:
402,192,291546,1,0,0:0:0:0:
109,192,291598,1,0,0:0:0:0:
475,192,291650,1,0,0:0:0:0:
329,192,291650,1,0,0:0:0:0:
36,192,291702,1,0,0:0:0:0:
256,192,291719,1,0,0:0:0:0:
182,192,291753,1,0,0:0:0:0:
402,192,291788,1,0,0:0:0:0:
475,192,291857,1,0,0:0:0:0:
329,192,291857,1,0,0:0:0:0:
109,192,291908,1,0,0:0:0:0:
256,192,291960,1,0,0:0:0:0:
36,192,292012,1,0,0:0:0:0:
402,192,292064,1,0,0:0:0:0:
475,192,292064,1,0,0:0:0:0:
182,192,292064,1,0,0:0:0:0:
329,192,292115,1,0,0:0:0:0:
475,192,292167,1,0,0:0:0:0:
402,192,292167,1,0,0:0:0:0:
109,192,292219,1,0,0:0:0:0:
36,192,292271,1,0,0:0:0:0:
256,192,292271,1,0,0:0:0:0:
182,192,292322,1,0,0:0:0:0:
329,192,292374,1,0,0:0:0:0:
475,192,292426,1,0,0:0:0:0:
36,192,292477,1,0,0:0:0:0:
256,192,292477,1,0,0:0:0:0:
109,192,292477,1,0,0:0:0:0:
402,192,292529,1,0,0:0:0:0:
182,192,292581,1,0,0:0:0:0:
36,192,292633,1,0,0:0:0:0:
109,192,292684,1,0,0:0:0:0:
475,192,292684,1,0,0:0:0:0:
329,192,292684,1,0,0:0:0:0:
256,192,292736,1,0,0:0:0:0:
402,192,292788,1,0,0:0:0:0:
182,192,292839,1,0,0:0:0:0:
329,192,292891,1,0,0:0:0:0:
109,192,292891,1,0,0:0:0:0:
36,192,292891,1,0,0:0:0:0:
475,192,292943,1,0,0:0:0:0:
256,192,292995,1,0,0:0:0:0:
402,192,293046,1,0,0:0:0:0:
36,192,293098,1,0,0:0:0:0:
182,192,293098,1,0,0:0:0:0:
329,192,293098,1,0,0:0:0:0:
475,192,293150,1,0,0:0:0:0:
256,192,293202,1,0,0:0:0:0:
109,192,293253,1,0,0:0:0:0:
402,192,293305,1,0,0:0:0:0:
329,192,293305,1,0,0:0:0:0:
182,192,293357,1,0,0:0:0:0:
36,192,293408,1,0,0:0:0:0:
256,192,293460,1,0,0:0:0:0:
475,192,293512,1,0,0:0:0:0:
109,192,293512,1,0,0:0:0:0:
402,192,293512,1,0,0:0:0:0:
329,192,293564,1,0,0:0:0:0:
182,192,293615,1,0,0:0:0:0:
36,192,293667,1,0,0:0:0:0:
402,192,293719,1,0,0:0:0:0:
256,192,293719,1,0,0:0:0:0:
109,192,293719,1,0,0:0:0:0:
475,192,293771,1,0,0:0:0:0:
329,192,293822,1,0,0:0:0:0:
402,192,293874,1,0,0:0:0:0:
256,192,293926,1,0,0:0:0:0:
36,192,293926,1,0,0:0:0:0:
182,192,293926,1,0,0:0:0:0:
475,192,293977,1,0,0:0:0:0:
329,192,294029,1,0,0:0:0:0:
109,192,294081,1,0,0:0:0:0:
256,192,294133,1,0,0:0:0:0:
402,192,294133,1,0,0:0:0:0:
182,192,294133,1,0,0:0:0:0:
36,192,294184,1,0,0:0:0:0:
475,192,294236,1,0,0:0:0:0:
109,192,294288,1,0,0:0:0:0:
329,192,294339,1,0,0:0:0:0:
402,192,294339,1,0,0:0:0:0:
182,192,294339,1,0,0:0:0:0:
256,192,294391,1,0,0:0:0:0:
36,192,294443,1,0,0:0:0:0:
182,192,294495,1,0,0:0:0:0:
402,192,294546,1,0,0:0:0:0:
475,192,294546,1,0,0:0:0:0:
329,192,294546,1,0,0:0:0:0:
256,192,294598,1,0,0:0:0:0:
109,192,294650,1,0,0:0:0:0:
36,192,294702,1,0,0:0:0:0:
475,192,294753,1,0,0:0:0:0:
402,192,294753,1,0,0:0:0:0:
182,192,294753,1,0,0:0:0:0:
329,192,294805,1,0,0:0:0:0:
109,192,294857,1,0,0:0:0:0:
256,192,294908,1,0,0:0:0:0:
402,192,294960,1,0,0:0:0:0:
36,192,294960,1,0,0:0:0:0:
182,192,295012,1,0,0:0:0:0:
329,192,295064,1,0,0:0:0:0:
475,192,295115,1,0,0:0:0:0:
36,192,295167,1,0,0:0:0:0:
402,192,295167,1,0,0:0:0:0:
256,192,295167,1,0,0:0:0:0:
109,192,295219,1,0,0:0:0:0:
329,192,295271,1,0,0:0:0:0:
182,192,295322,1,0,0:0:0:0:
36,192,295374,1,0,0:0:0:0:
475,192,295374,1,0,0:0:0:0:
256,192,295374,1,0,0:0:0:0:
402,192,295426,1,0,0:0:0:0:
182,192,295477,1,0,0:0:0:0:
329,192,295529,1,0,0:0:0:0:
109,192,295581,1,0,0:0:0:0:
36,192,295581,1,0,0:0:0:0:
475,192,295581,1,0,0:0:0:0:
402,192,295581,1,0,0:0:0:0:
256,192,295633,1,0,0:0:0:0:
182,192,295684,1,0,0:0:0:0:
329,192,295736,1,0,0:0:0:0:
36,192,295788,1,0,0:0:0:0:
475,192,295788,1,0,0:0:0:0:
256,192,295788,1,0,0:0:0:0:
109,192,295839,1,0,0:0:0:0:
402,192,295891,1,0,0:0:0:0:
182,192,295943,1,0,0:0:0:0:
329,192,295995,1,0,0:0:0:0:
256,192,295995,1,0,0:0:0:0:
36,192,295995,1,0,0:0:0:0:
475,192,296046,1,0,0:0:0:0:
402,192,296098,1,0,0:0:0:0:
182,192,296150,1,0,0:0:0:0:
329,192,296202,1,0,0:0:0:0:
36,192,296202,1,0,0:0:0:0:
109,192,296202,1,0,0:0:0:0:
475,192,296253,1,0,0:0:0:0:
182,192,296305,1,0,0:0:0:0:
256,192,296357,1,0,0:0:0:0:
109,192,296408,1,0,0:0:0:0:
36,192,296408,1,0,0:0:0:0:
402,192,296408,1,0,0:0:0:0:
475,192,296408,1,0,0:0:0:0:
329,192,296460,1,0,0:0:0:0:
182,192,296512,1,0,0:0:0:0:
402,192,296564,1,0,0:0:0:0:
475,192,296615,1,0,0:0:0:0:
109,192,296615,1,0,0:0:0:0:
256,192,296615,1,0,0:0:0:0:
36,192,296667,1,0,0:0:0:0:
329,192,296719,1,0,0:0:0:0:
182,192,296771,1,0,0:0:0:0:
475,192,296822,1,0,0:0:0:0:
402,192,296822,1,0,0:0:0:0:
109,192,296822,1,0,0:0:0:0:
256,192,296874,1,0,0:0:0:0:
329,192,296926,1,0,0:0:0:0:
475,192,296977,1,0,0:0:0:0:
36,192,297029,1,0,0:0:0:0:
109,192,297029,1,0,0:0:0:0:
182,192,297029,1,0,0:0:0:0:
402,192,297081,1,0,0:0:0:0:
256,192,297133,1,0,0:0:0:0:
329,192,297184,1,0,0:0:0:0:
475,192,297236,1,0,0:0:0:0:
182,192,297236,1,0,0:0:0:0:
109,192,297236,1,0,0:0:0:0:
36,192,297236,1,0,0:0:0:0:
402,192,297288,1,0,0:0:0:0:
256,192,297339,1,0,0:0:0:0:
182,192,297391,1,0,0:0:0:0:
36,192,297443,1,0,0:0:0:0:
475,192,297443,1,0,0:0:0:0:
329,192,297443,1,0,0:0:0:0:
109,192,297495,1,0,0:0:0:0:
256,192,297546,1,0,0:0:0:0:
402,192,297598,1,0,0:0:0:0:
329,192,297650,1,0,0:0:0:0:
36,192,297650,1,0,0:0:0:0:
182,192,297650,1,0,0:0:0:0:
475,192,297702,1,0,0:0:0:0:
256,192,297753,1,0,0:0:0:0:
109,192,297805,1,0,0:0:0:0:
329,192,297857,1,0,0:0:0:0:
402,192,297857,1,0,0:0:0:0:
182,192,297857,1,0,0:0:0:0:
36,192,297908,1,0,0:0:0:0:
256,192,297960,1,0,0:0:0:0:
329,192,298012,1,0,0:0:0:0:
109,192,298064,1,0,0:0:0:0:
36,192,298064,1,0,0:0:0:0:
402,192,298064,1,0,0:0:0:0:
475,192,298064,1,0,0:0:0:0:
256,192,298115,1,0,0:0:0:0:
329,192,298167,1,0,0:0:0:0:
182,192,298167,1,0,0:0:0:0:
109,192,298219,1,0,0:0:0:0:
402,192,298271,1,0,0:0:0:0:
256,192,298271,1,0,0:0:0:0:
475,192,298339,1,0,0:0:0:0:
182,192,298374,1,0,0:0:0:0:
36,192,298374,1,0,0:0:0:0:
329,192,298408,1,0,0:0:0:0:
256,192,298477,1,0,0:0:0:0:
109,192,298477,1,0,0:0:0:0:
402,192,298477,1,0,0:0:0:0:
475,192,298503,1,0,0:0:0:0:
182,192,298529,1,0,0:0:0:0:
329,192,298555,1,0,0:0:0:0:
36,192,298581,1,0,0:0:0:0:
109,192,298607,1,0,0:0:0:0:
256,192,298633,1,0,0:0:0:0:
402,192,298658,1,0,0:0:0:0:
475,192,298684,1,0,0:0:0:0:
182,192,298710,1,0,0:0:0:0:
329,192,298736,1,0,0:0:0:0:
109,192,298762,1,0,0:0:0:0:
36,192,298788,1,0,0:0:0:0:
256,192,298814,1,0,0:0:0:0:
402,192,298839,1,0,0:0:0:0:
182,192,298865,1,0,0:0:0:0:
329,192,298891,1,0,0:0:0:0:
475,192,298891,1,0,0:0:0:0:
329,192,299098,1,0,0:0:0:0:
182,192,299512,1,0,0:0:0:0:
36,192,299719,1,0,0:0:0:0:
329,192,299926,1,0,0:0:0:0:
182,192,300339,1,0,0:0:0:0:
36,192,300546,1,0,0:0:0:0:
329,192,300753,1,0,0:0:0:0:
182,192,301167,1,0,0:0:0:0:
36,192,301374,1,0,0:0:0:0:
329,192,301581,1,0,0:0:0:0:
36,192,301788,1,0,0:0:0:0:
182,192,301995,1,0,0:0:0:0:
475,192,302202,1,0,0:0:0:0:
36,192,302202,1,0,0:0:0:0:
329,192,302408,1,0,0:0:0:0:
182,192,302822,1,0,0:0:0:0:
36,192,303029,1,0,0:0:0:0:
475,192,303236,1,0,0:0:0:0:
36,192,303443,1,0,0:0:0:0:
329,192,303650,1,0,0:0:0:0:
36,192,303857,1,0,0:0:0:0:
475,192,304064,1,0,0:0:0:0:
36,192,304064,1,0,0:0:0:0:
182,192,304271,1,0,0:0:0:0:
36,192,304271,1,0,0:0:0:0:
329,192,304477,1,0,0:0:0:0:
36,192,304477,1,0,0:0:0:0:
402,192,304684,1,0,0:0:0:0:
36,192,304684,1,0,0:0:0:0:
36,192,304788,1,0,0:0:0:0:
36,192,304891,1,0,0:0:0:0:
36,192,304995,1,0,0:0:0:0:
475,192,305098,1,0,0:0:0:0:
36,192,305098,1,0,0:0:0:0:
402,192,305124,1,0,0:0:0:0:
329,192,305150,1,0,0:0:0:0:
256,192,305176,1,0,0:0:0:0:
182,192,305202,1,0,0:0:0:0:
109,192,305227,1,0,0:0:0:0:
36,192,305253,1,0,0:0:0:0:
475,192,305279,1,0,0:0:0:0:
402,192,305305,1,0,0:0:0:0:
329,192,305331,1,0,0:0:0:0:
256,192,305357,1,0,0:0:0:0:
182,192,305383,1,0,0:0:0:0:
109,192,305408,1,0,0:0:0:0:
36,192,305434,1,0,0:0:0:0:
475,192,305460,1,0,0:0:0:0:
402,192,305486,1,0,0:0:0:0:
182,192,305512,1,0,0:0:0:0:
329,192,305512,1,0,0:0:0:0:
256,192,305564,1,0,0:0:0:0:
109,192,305615,1,0,0:0:0:0:
182,192,305667,1,0,0:0:0:0:
36,192,305719,1,0,0:0:0:0:
475,192,305719,1,0,0:0:0:0:
329,192,305719,1,0,0:0:0:0:
256,192,305771,1,0,0:0:0:0:
402,192,305822,1,0,0:0:0:0:
182,192,305874,1,0,0:0:0:0:
475,192,305926,1,0,0:0:0:0:
36,192,305926,1,0,0:0:0:0:
329,192,305926,1,0,0:0:0:0:
256,192,305977,1,0,0:0:0:0:
109,192,306029,1,0,0:0:0:0:
402,192,306081,1,0,0:0:0:0:
329,192,306133,1,0,0:0:0:0:
36,192,306133,1,0,0:0:0:0:
182,192,306133,1,0,0:0:0:0:
475,192,306184,1,0,0:0:0:0:
256,192,306236,1,0,0:0:0:0:
402,192,306288,1,0,0:0:0:0:
182,192,306339,1,0,0:0:0:0:
109,192,306339,1,0,0:0:0:0:
329,192,306391,1,0,0:0:0:0:
36,192,306443,1,0,0:0:0:0:
256,192,306495,1,0,0:0:0:0:
475,192,306546,1,0,0:0:0:0:
402,192,306546,1,0,0:0:0:0:
182,192,306546,1,0,0:0:0:0:
109,192,306598,1,0,0:0:0:0:
329,192,306650,1,0,0:0:0:0:
256,192,306702,1,0,0:0:0:0:
475,192,306753,1,0,0:0:0:0:
182,192,306753,1,0,0:0:0:0:
36,192,306753,1,0,0:0:0:0:
402,192,306805,1,0,0:0:0:0:
109,192,306857,1,0,0:0:0:0:
256,192,306908,1,0,0:0:0:0:
182,192,306960,1,0,0:0:0:0:
475,192,306960,1,0,0:0:0:0:
329,192,306960,1,0,0:0:0:0:
36,192,307012,1,0,0:0:0:0:
109,192,307064,1,0,0:0:0:0:
256,192,307115,1,0,0:0:0:0:
182,192,307167,1,0,0:0:0:0:
475,192,307167,1,0,0:0:0:0:
402,192,307167,1,0,0:0:0:0:
36,192,307219,1,0,0:0:0:0:
329,192,307271,1,0,0:0:0:0:
109,192,307322,1,0,0:0:0:0:
475,192,307374,1,0,0:0:0:0:
402,192,307374,1,0,0:0:0:0:
256,192,307374,1,0,0:0:0:0:
36,192,307426,1,0,0:0:0:0:
182,192,307477,1,0,0:0:0:0:
329,192,307529,1,0,0:0:0:0:
256,192,307581,1,0,0:0:0:0:
36,192,307581,1,0,0:0:0:0:
109,192,307581,1,0,0:0:0:0:
402,192,307633,1,0,0:0:0:0:
182,192,307684,1,0,0:0:0:0:
329,192,307736,1,0,0:0:0:0:
109,192,307788,1,0,0:0:0:0:
256,192,307788,1,0,0:0:0:0:
475,192,307788,1,0,0:0:0:0:
36,192,307839,1,0,0:0:0:0:
182,192,307891,1,0,0:0:0:0:
329,192,307943,1,0,0:0:0:0:
475,192,307995,1,0,0:0:0:0:
256,192,307995,1,0,0:0:0:0:
109,192,307995,1,0,0:0:0:0:
402,192,308046,1,0,0:0:0:0:
182,192,308098,1,0,0:0:0:0:
329,192,308150,1,0,0:0:0:0:
256,192,308202,1,0,0:0:0:0:
36,192,308202,1,0,0:0:0:0:
402,192,308253,1,0,0:0:0:0:
182,192,308305,1,0,0:0:0:0:
109,192,308305,1,0,0:0:0:0:
329,192,308357,1,0,0:0:0:0:
36,192,308408,1,0,0:0:0:0:
256,192,308408,1,0,0:0:0:0:
475,192,308408,1,0,0:0:0:0:
182,192,308460,1,0,0:0:0:0:
329,192,308512,1,0,0:0:0:0:
402,192,308512,1,0,0:0:0:0:
109,192,308564,1,0,0:0:0:0:
475,192,308615,1,0,0:0:0:0:
36,192,308615,1,0,0:0:0:0:
256,192,308615,1,0,0:0:0:0:
329,192,308667,1,0,0:0:0:0:
182,192,308719,1,0,0:0:0:0:
109,192,308719,1,0,0:0:0:0:
402,192,308771,1,0,0:0:0:0:
475,192,308822,1,0,0:0:0:0:
36,192,308822,1,0,0:0:0:0:
256,192,308822,1,0,0:0:0:0:
182,192,308874,1,0,0:0:0:0:
329,192,308926,1,0,0:0:0:0:
109,192,308977,1,0,0:0:0:0:
36,192,309029,1,0,0:0:0:0:
402,192,309029,1,0,0:0:0:0:
256,192,309029,1,0,0:0:0:0:
182,192,309081,1,0,0:0:0:0:
329,192,309133,1,0,0:0:0:0:
475,192,309184,1,0,0:0:0:0:
36,192,309236,1,0,0:0:0:0:
256,192,309236,1,0,0:0:0:0:
109,192,309236,1,0,0:0:0:0:
402,192,309288,1,0,0:0:0:0:
182,192,309339,1,0,0:0:0:0:
329,192,309391,1,0,0:0:0:0:
402,192,309443,1,0,0:0:0:0:
475,192,309443,1,0,0:0:0:0:
109,192,309443,1,0,0:0:0:0:
256,192,309495,1,0,0:0:0:0:
36,192,309546,1,0,0:0:0:0:
182,192,309598,1,0,0:0:0:0:
475,192,309650,1,0,0:0:0:0:
329,192,309650,1,0,0:0:0:0:
109,192,309702,1,0,0:0:0:0:
36,192,309753,1,0,0:0:0:0:
256,192,309805,1,0,0:0:0:0:
109,192,309857,1,0,0:0:0:0:
182,192,309857,1,0,0:0:0:0:
402,192,309857,1,0,0:0:0:0:
329,192,309908,1,0,0:0:0:0:
36,192,309960,1,0,0:0:0:0:
256,192,310012,1,0,0:0:0:0:
475,192,310064,1,0,0:0:0:0:
402,192,310064,1,0,0:0:0:0:
109,192,310064,1,0,0:0:0:0:
182,192,310115,1,0,0:0:0:0:
329,192,310167,1,0,0:0:0:0:
36,192,310219,1,0,0:0:0:0:
475,192,310271,1,0,0:0:0:0:
256,192,310271,1,0,0:0:0:0:
109,192,310271,1,0,0:0:0:0:
402,192,310322,1,0,0:0:0:0:
182,192,310374,1,0,0:0:0:0:
329,192,310426,1,0,0:0:0:0:
256,192,310477,1,0,0:0:0:0:
109,192,310477,1,0,0:0:0:0:
36,192,310477,1,0,0:0:0:0:
475,192,310529,1,0,0:0:0:0:
329,192,310581,1,0,0:0:0:0:
402,192,310633,1,0,0:0:0:0:
36,192,310684,1,0,0:0:0:0:
182,192,310684,1,0,0:0:0:0:
256,192,310684,1,0,0:0:0:0:
475,192,310736,1,0,0:0:0:0:
329,192,310788,1,0,0:0:0:0:
109,192,310839,1,0,0:0:0:0:
475,192,310891,1,0,0:0:0:0:
402,192,310891,1,0,0:0:0:0:
182,192,310891,1,0,0:0:0:0:
36,192,310943,1,0,0:0:0:0:
256,192,310995,1,0,0:0:0:0:
109,192,311046,1,0,0:0:0:0:
475,192,311098,1,0,0:0:0:0:
182,192,311098,1,0,0:0:0:0:
329,192,311098,1,0,0:0:0:0:
402,192,311150,1,0,0:0:0:0:
256,192,311202,1,0,0:0:0:0:
109,192,311253,1,0,0:0:0:0:
329,192,311305,1,0,0:0:0:0:
182,192,311305,1,0,0:0:0:0:
36,192,311305,1,0,0:0:0:0:
475,192,311357,1,0,0:0:0:0:
402,192,311408,1,0,0:0:0:0:
256,192,311408,1,0,0:0:0:0:
109,192,311460,1,0,0:0:0:0:
329,192,311512,1,0,0:0:0:0:
182,192,311512,1,0,0:0:0:0:
36,192,311512,1,0,0:0:0:0:
475,192,311564,1,0,0:0:0:0:
256,192,311615,1,0,0:0:0:0:
109,192,311615,1,0,0:0:0:0:
402,192,311667,1,0,0:0:0:0:
475,192,311719,1,0,0:0:0:0:
329,192,311719,1,0,0:0:0:0:
182,192,311719,1,0,0:0:0:0:
36,192,311771,1,0,0:0:0:0:
256,192,311822,1,0,0:0:0:0:
109,192,311874,1,0,0:0:0:0:
475,192,311926,1,0,0:0:0:0:
402,192,311926,1,0,0:0:0:0:
329,192,311952,1,0,0:0:0:0:
182,192,311977,1,0,0:0:0:0:
109,192,312003,1,0,0:0:0:0:
36,192,312029,1,0,0:0:0:0:
256,192,312055,1,0,0:0:0:0:
402,192,312081,1,0,0:0:0:0:
475,192,312107,1,0,0:0:0:0:
182,192,312133,1,0,0:0:0:0:
329,192,312133,1,0,0:0:0:0:
109,192,312133,1,0,0:0:0:0:
36,192,312184,1,0,0:0:0:0:
256,192,312236,1,0,0:0:0:0:
402,192,312288,1,0,0:0:0:0:
329,192,312339,1,0,0:0:0:0:
475,192,312339,1,0,0:0:0:0:
109,192,312339,1,0,0:0:0:0:
182,192,312391,1,0,0:0:0:0:
36,192,312443,1,0,0:0:0:0:
256,192,312495,1,0,0:0:0:0:
475,192,312546,1,0,0:0:0:0:
402,192,312546,1,0,0:0:0:0:
109,192,312546,1,0,0:0:0:0:
329,192,312598,1,0,0:0:0:0:
182,192,312650,1,0,0:0:0:0:
36,192,312702,1,0,0:0:0:0:
475,192,312753,1,0,0:0:0:0:
256,192,312753,1,0,0:0:0:0:
109,192,312753,1,0,0:0:0:0:
329,192,312805,1,0,0:0:0:0:
182,192,312857,1,0,0:0:0:0:
402,192,312908,1,0,0:0:0:0:
109,192,312960,1,0,0:0:0:0:
256,192,312960,1,0,0:0:0:0:
36,192,312960,1,0,0:0:0:0:
475,192,313012,1,0,0:0:0:0:
182,192,313064,1,0,0:0:0:0:
402,192,313115,1,0,0:0:0:0:
36,192,313167,1,0,0:0:0:0:
256,192,313167,1,0,0:0:0:0:
329,192,313167,1,0,0:0:0:0:
475,192,313219,1,0,0:0:0:0:
109,192,313271,1,0,0:0:0:0:
182,192,313322,1,0,0:0:0:0:
36,192,313374,1,0,0:0:0:0:
402,192,313374,1,0,0:0:0:0:
256,192,313374,1,0,0:0:0:0:
329,192,313426,1,0,0:0:0:0:
109,192,313477,1,0,0:0:0:0:
475,192,313529,1,0,0:0:0:0:
36,192,313581,1,0,0:0:0:0:
182,192,313581,1,0,0:0:0:0:
402,192,313581,1,0,0:0:0:0:
329,192,313633,1,0,0:0:0:0:
109,192,313684,1,0,0:0:0:0:
256,192,313736,1,0,0:0:0:0:
182,192,313788,1,0,0:0:0:0:
475,192,313788,1,0,0:0:0:0:
402,192,313788,1,0,0:0:0:0:
109,192,313839,1,0,0:0:0:0:
36,192,313891,1,0,0:0:0:0:
256,192,313943,1,0,0:0:0:0:
109,192,313995,1,0,0:0:0:0:
475,192,313995,1,0,0:0:0:0:
329,192,313995,1,0,0:0:0:0:
182,192,314046,1,0,0:0:0:0:
402,192,314098,1,0,0:0:0:0:
256,192,314150,1,0,0:0:0:0:
329,192,314202,1,0,0:0:0:0:
109,192,314202,1,0,0:0:0:0:
36,192,314202,1,0,0:0:0:0:
475,192,314253,1,0,0:0:0:0:
182,192,314305,1,0,0:0:0:0:
402,192,314357,1,0,0:0:0:0:
475,192,314408,1,0,0:0:0:0:
36,192,314408,1,0,0:0:0:0:
256,192,314408,1,0,0:0:0:0:
329,192,314460,1,0,0:0:0:0:
109,192,314512,1,0,0:0:0:0:
182,192,314564,1,0,0:0:0:0:
256,192,314615,1,0,0:0:0:0:
475,192,314615,1,0,0:0:0:0:
402,192,314615,1,0,0:0:0:0:
36,192,314667,1,0,0:0:0:0:
182,192,314719,1,0,0:0:0:0:
109,192,314771,1,0,0:0:0:0:
475,192,314822,1,0,0:0:0:0:
256,192,314822,1,0,0:0:0:0:
329,192,314822,1,0,0:0:0:0:
36,192,314874,1,0,0:0:0:0:
182,192,314926,1,0,0:0:0:0:
402,192,314977,1,0,0:0:0:0:
36,192,315029,1,0,0:0:0:0:
109,192,315029,1,0,0:0:0:0:
329,192,315029,1,0,0:0:0:0:
475,192,315081,1,0,0:0:0:0:
256,192,315133,1,0,0:0:0:0:
402,192,315184,1,0,0:0:0:0:
329,192,315236,1,0,0:0:0:0:
182,192,315236,1,0,0:0:0:0:
36,192,315288,1,0,0:0:0:0:
475,192,315339,1,0,0:0:0:0:
256,192,315339,1,0,0:0:0:0:
109,192,315391,1,0,0:0:0:0:
182,192,315443,1,0,0:0:0:0:
402,192,315443,1,0,0:0:0:0:
329,192,315443,1,0,0:0:0:0:
36,192,315495,1,0,0:0:0:0:
256,192,315546,1,0,0:0:0:0:
475,192,315598,1,0,0:0:0:0:
329,192,315650,1,0,0:0:0:0:
182,192,315650,1,0,0:0:0:0:
109,192,315650,1,0,0:0:0:0:
402,192,315702,1,0,0:0:0:0:
36,192,315753,1,0,0:0:0:0:
256,192,315805,1,0,0:0:0:0:
329,192,315857,1,0,0:0:0:0:
475,192,315857,1,0,0:0:0:0:
109,192,315857,1,0,0:0:0:0:
182,192,315908,1,0,0:0:0:0:
36,192,315960,1,0,0:0:0:0:
256,192,316012,1,0,0:0:0:0:
475,192,316064,1,0,0:0:0:0:
402,192,316064,1,0,0:0:0:0:
109,192,316064,1,0,0:0:0:0:
329,192,316115,1,0,0:0:0:0:
182,192,316167,1,0,0:0:0:0:
402,192,316219,1,0,0:0:0:0:
36,192,316271,1,0,0:0:0:0:
109,192,316271,1,0,0:0:0:0:
256,192,316271,1,0,0:0:0:0:
329,192,316322,1,0,0:0:0:0:
475,192,316374,1,0,0:0:0:0:
256,192,316426,1,0,0:0:0:0:
36,192,316477,1,0,0:0:0:0:
182,192,316477,1,0,0:0:0:0:
402,192,316477,1,0,0:0:0:0:
329,192,316529,1,0,0:0:0:0:
109,192,316581,1,0,0:0:0:0:
256,192,316633,1,0,0:0:0:0:
182,192,316684,1,0,0:0:0:0:
475,192,316684,1,0,0:0:0:0:
402,192,316684,1,0,0:0:0:0:
36,192,316736,1,0,0:0:0:0:
329,192,316788,1,0,0:0:0:0:
109,192,316839,1,0,0:0:0:0:
475,192,316891,1,0,0:0:0:0:
402,192,316891,1,0,0:0:0:0:
256,192,316891,1,0,0:0:0:0:
182,192,316943,1,0,0:0:0:0:
329,192,316995,1,0,0:0:0:0:
402,192,317046,1,0,0:0:0:0:
36,192,317098,1,0,0:0:0:0:
109,192,317098,1,0,0:0:0:0:
256,192,317098,1,0,0:0:0:0:
475,192,317150,1,0,0:0:0:0:
329,192,317202,1,0,0:0:0:0:
182,192,317253,1,0,0:0:0:0:
36,192,317305,1,0,0:0:0:0:
402,192,317357,1,0,0:0:0:0:
256,192,317408,1,0,0:0:0:0:
109,192,317460,1,0,0:0:0:0:
475,192,317512,1,0,0:0:0:0:
329,192,317564,1,0,0:0:0:0:
182,192,317615,1,0,0:0:0:0:
36,192,317667,1,0,0:0:0:0:
475,192,317719,1,0,0:0:0:0:
402,192,317719,1,0,0:0:0:0:
256,192,317771,1,0,0:0:0:0:
475,192,317822,1,0,0:0:0:0:
402,192,317822,1,0,0:0:0:0:
109,192,317822,1,0,0:0:0:0:
36,192,317926,1,0,0:0:0:0:
475,192,317926,1,0,0:0:0:0:
182,192,317952,1,0,0:0:0:0:
256,192,317977,1,0,0:0:0:0:
329,192,318003,1,0,0:0:0:0:
402,192,318029,1,0,0:0:0:0:
109,192,318055,1,0,0:0:0:0:
182,192,318081,1,0,0:0:0:0:
256,192,318107,1,0,0:0:0:0:
329,192,318133,1,0,0:0:0:0:
109,192,318236,1,0,0:0:0:0:
36,192,318236,1,0,0:0:0:0:
475,192,318339,1,0,0:0:0:0:
329,192,318365,1,0,0:0:0:0:
256,192,318391,1,0,0:0:0:0:
182,192,318417,1,0,0:0:0:0:
109,192,318443,1,0,0:0:0:0:
402,192,318469,1,0,0:0:0:0:
329,192,318495,1,0,0:0:0:0:
256,192,318521,1,0,0:0:0:0:
182,192,318546,1,0,0:0:0:0:
475,192,318598,1,0,0:0:0:0:
402,192,318624,1,0,0:0:0:0:
329,192,318650,1,0,0:0:0:0:
256,192,318676,1,0,0:0:0:0:
182,192,318702,1,0,0:0:0:0:
109,192,318727,1,0,0:0:0:0:
402,192,318753,1,0,0:0:0:0:
475,192,318753,1,0,0:0:0:0:
36,192,318753,1,0,0:0:0:0:
329,192,318805,1,0,0:0:0:0:
109,192,318857,1,0,0:0:0:0:
256,192,318857,1,0,0:0:0:0:
402,192,318908,1,0,0:0:0:0:
36,192,318960,1,0,0:0:0:0:
182,192,318960,1,0,0:0:0:0:
329,192,319012,1,0,0:0:0:0:
109,192,319064,1,0,0:0:0:0:
256,192,319064,1,0,0:0:0:0:
402,192,319115,1,0,0:0:0:0:
475,192,319167,1,0,0:0:0:0:
329,192,319167,1,0,0:0:0:0:
182,192,319167,1,0,0:0:0:0:
36,192,319219,1,0,0:0:0:0:
256,192,319271,1,0,0:0:0:0:
109,192,319322,1,0,0:0:0:0:
182,192,319374,1,0,0:0:0:0:
402,192,319374,1,0,0:0:0:0:
36,192,319426,1,0,0:0:0:0:
475,192,319477,1,0,0:0:0:0:
329,192,319477,1,0,0:0:0:0:
256,192,319529,1,0,0:0:0:0:
109,192,319581,1,0,0:0:0:0:
182,192,319581,1,0,0:0:0:0:
402,192,319633,1,0,0:0:0:0:
329,192,319684,1,0,0:0:0:0:
36,192,319684,1,0,0:0:0:0:
182,192,319736,1,0,0:0:0:0:
475,192,319788,1,0,0:0:0:0:
256,192,319788,1,0,0:0:0:0:
109,192,319839,1,0,0:0:0:0:
402,192,319891,1,0,0:0:0:0:
329,192,319891,1,0,0:0:0:0:
182,192,319943,1,0,0:0:0:0:
256,192,319995,1,0,0:0:0:0:
36,192,319995,1,0,0:0:0:0:
475,192,320046,1,0,0:0:0:0:
182,192,320098,1,0,0:0:0:0:
402,192,320098,1,0,0:0:0:0:
109,192,320150,1,0,0:0:0:0:
256,192,320202,1,0,0:0:0:0:
329,192,320202,1,0,0:0:0:0:
36,192,320253,1,0,0:0:0:0:
402,192,320305,1,0,0:0:0:0:
182,192,320305,1,0,0:0:0:0:
475,192,320357,1,0,0:0:0:0:
109,192,320408,1,0,0:0:0:0:
329,192,320408,1,0,0:0:0:0:
402,192,320460,1,0,0:0:0:0:
256,192,320512,1,0,0:0:0:0:
329,192,320564,1,0,0:0:0:0:
36,192,320615,1,0,0:0:0:0:
182,192,320615,1,0,0:0:0:0:
256,192,320667,1,0,0:0:0:0:
402,192,320719,1,0,0:0:0:0:
109,192,320719,1,0,0:0:0:0:
329,192,320771,1,0,0:0:0:0:
36,192,320822,1,0,0:0:0:0:
182,192,320822,1,0,0:0:0:0:
402,192,320874,1,0,0:0:0:0:
475,192,320926,1,0,0:0:0:0:
256,192,320926,1,0,0:0:0:0:
109,192,320977,1,0,0:0:0:0:
182,192,321029,1,0,0:0:0:0:
329,192,321029,1,0,0:0:0:0:
402,192,321081,1,0,0:0:0:0:
36,192,321133,1,0,0:0:0:0:
475,192,321133,1,0,0:0:0:0:
256,192,321184,1,0,0:0:0:0:
329,192,321236,1,0,0:0:0:0:
182,192,321236,1,0,0:0:0:0:
109,192,321236,1,0,0:0:0:0:
475,192,321288,1,0,0:0:0:0:
402,192,321339,1,0,0:0:0:0:
256,192,321339,1,0,0:0:0:0:
36,192,321391,1,0,0:0:0:0:
329,192,321443,1,0,0:0:0:0:
109,192,321443,1,0,0:0:0:0:
182,192,321495,1,0,0:0:0:0:
475,192,321546,1,0,0:0:0:0:
402,192,321546,1,0,0:0:0:0:
256,192,321598,1,0,0:0:0:0:
329,192,321650,1,0,0:0:0:0:
36,192,321650,1,0,0:0:0:0:
182,192,321702,1,0,0:0:0:0:
475,192,321753,1,0,0:0:0:0:
256,192,321753,1,0,0:0:0:0:
109,192,321805,1,0,0:0:0:0:
402,192,321857,1,0,0:0:0:0:
329,192,321857,1,0,0:0:0:0:
182,192,321908,1,0,0:0:0:0:
256,192,321960,1,0,0:0:0:0:
36,192,321960,1,0,0:0:0:0:
402,192,322012,1,0,0:0:0:0:
475,192,322064,1,0,0:0:0:0:
329,192,322064,1,0,0:0:0:0:
109,192,322064,1,0,0:0:0:0:
182,192,322115,1,0,0:0:0:0:
36,192,322167,1,0,0:0:0:0:
256,192,322167,1,0,0:0:0:0:
402,192,322219,1,0,0:0:0:0:
182,192,322271,1,0,0:0:0:0:
109,192,322271,1,0,0:0:0:0:
329,192,322322,1,0,0:0:0:0:
36,192,322374,1,0,0:0:0:0:
475,192,322374,1,0,0:0:0:0:
256,192,322426,1,0,0:0:0:0:
182,192,322477,1,0,0:0:0:0:
402,192,322477,1,0,0:0:0:0:
109,192,322529,1,0,0:0:0:0:
475,192,322581,1,0,0:0:0:0:
329,192,322581,1,0,0:0:0:0:
182,192,322633,1,0,0:0:0:0:
256,192,322684,1,0,0:0:0:0:
36,192,322684,1,0,0:0:0:0:
402,192,322736,1,0,0:0:0:0:
182,192,322788,1,0,0:0:0:0:
109,192,322788,1,0,0:0:0:0:
329,192,322839,1,0,0:0:0:0:
36,192,322891,1,0,0:0:0:0:
475,192,322891,1,0,0:0:0:0:
256,192,322891,1,0,0:0:0:0:
182,192,322943,1,0,0:0:0:0:
402,192,322995,1,0,0:0:0:0:
329,192,322995,1,0,0:0:0:0:
109,192,323046,1,0,0:0:0:0:
36,192,323098,1,0,0:0:0:0:
256,192,323098,1,0,0:0:0:0:
402,192,323150,1,0,0:0:0:0:
329,192,323202,1,0,0:0:0:0:
182,192,323202,1,0,0:0:0:0:
109,192,323253,1,0,0:0:0:0:
475,192,323305,1,0,0:0:0:0:
256,192,323305,1,0,0:0:0:0:
402,192,323357,1,0,0:0:0:0:
329,192,323408,1,0,0:0:0:0:
182,192,323408,1,0,0:0:0:0:
36,192,323460,1,0,0:0:0:0:
256,192,323512,1,0,0:0:0:0:
109,192,323512,1,0,0:0:0:0:
402,192,323564,1,0,0:0:0:0:
329,192,323615,1,0,0:0:0:0:
182,192,323615,1,0,0:0:0:0:
36,192,323667,1,0,0:0:0:0:
475,192,323719,1,0,0:0:0:0:
256,192,323719,1,0,0:0:0:0:
402,192,323771,1,0,0:0:0:0:
109,192,323822,1,0,0:0:0:0:
182,192,323822,1,0,0:0:0:0:
329,192,323874,1,0,0:0:0:0:
256,192,323926,1,0,0:0:0:0:
36,192,323926,1,0,0:0:0:0:
402,192,323977,1,0,0:0:0:0:
182,192,324029,1,0,0:0:0:0:
475,192,324029,1,0,0:0:0:0:
329,192,324081,1,0,0:0:0:0:
256,192,324133,1,0,0:0:0:0:
109,192,324133,1,0,0:0:0:0:
402,192,324184,1,0,0:0:0:0:
36,192,324236,1,0,0:0:0:0:
182,192,324236,1,0,0:0:0:0:
329,192,324288,1,0,0:0:0:0:
475,192,324339,1,0,0:0:0:0:
402,192,324339,1,0,0:0:0:0:
256,192,324391,1,0,0:0:0:0:
36,192,324443,1,0,0:0:0:0:
182,192,324443,1,0,0:0:0:0:
329,192,324495,1,0,0:0:0:0:
475,192,324546,1,0,0:0:0:0:
256,192,324546,1,0,0:0:0:0:
109,192,324546,1,0,0:0:0:0:
402,192,324598,1,0,0:0:0:0:
329,192,324650,1,0,0:0:0:0:
182,192,324650,1,0,0:0:0:0:
36,192,324702,1,0,0:0:0:0:
475,192,324753,1,0,0:0:0:0:
256,192,324753,1,0,0:0:0:0:
109,192,324753,1,0,0:0:0:0:
402,192,324805,1,0,0:0:0:0:
329,192,324857,1,0,0:0:0:0:
182,192,324857,1,0,0:0:0:0:
36,192,324908,1,0,0:0:0:0:
402,192,324960,1,0,0:0:0:0:
256,192,324960,1,0,0:0:0:0:
109,192,324960,1,0,0:0:0:0:
475,192,325012,1,0,0:0:0:0:
329,192,325064,1,0,0:0:0:0:
182,192,325064,1,0,0:0:0:0:
402,192,325115,1,0,0:0:0:0:
109,192,325167,1,0,0:0:0:0:
36,192,325167,1,0,0:0:0:0:
256,192,325167,1,0,0:0:0:0:
475,192,325193,1,0,0:0:0:0:
329,192,325219,1,0,0:0:0:0:
182,192,325245,1,0,0:0:0:0:
402,192,325271,1,0,0:0:0:0:
256,192,325296,1,0,0:0:0:0:
109,192,325322,1,0,0:0:0:0:
36,192,325348,1,0,0:0:0:0:
475,192,325374,1,0,0:0:0:0:
329,192,325374,1,0,0:0:0:0:
256,192,325426,1,0,0:0:0:0:
182,192,325477,1,0,0:0:0:0:
109,192,325529,1,0,0:0:0:0:
402,192,325581,1,0,0:0:0:0:
475,192,325581,1,0,0:0:0:0:
36,192,325581,1,0,0:0:0:0:
329,192,325581,1,0,0:0:0:0:
256,192,325633,1,0,0:0:0:0:
182,192,325684,1,0,0:0:0:0:
329,192,325736,1,0,0:0:0:0:
36,192,325788,1,0,0:0:0:0:
109,192,325788,1,0,0:0:0:0:
402,192,325788,1,0,0:0:0:0:
475,192,325788,1,0,0:0:0:0:
182,192,325839,1,0,0:0:0:0:
256,192,325891,1,0,0:0:0:0:
329,192,325943,1,0,0:0:0:0:
182,192,325995,1,0,0:0:0:0:
402,192,325995,1,0,0:0:0:0:
36,192,325995,1,0,0:0:0:0:
109,192,325995,1,0,0:0:0:0:
329,192,326046,1,0,0:0:0:0:
256,192,326098,1,0,0:0:0:0:
182,192,326150,1,0,0:0:0:0:
475,192,326202,1,0,0:0:0:0:
329,192,326202,1,0,0:0:0:0:
109,192,326202,1,0,0:0:0:0:
402,192,326202,1,0,0:0:0:0:
256,192,326253,1,0,0:0:0:0:
182,192,326305,1,0,0:0:0:0:
109,192,326357,1,0,0:0:0:0:
475,192,326408,1,0,0:0:0:0:
256,192,326408,1,0,0:0:0:0:
36,192,326408,1,0,0:0:0:0:
402,192,326408,1,0,0:0:0:0:
329,192,326460,1,0,0:0:0:0:
182,192,326512,1,0,0:0:0:0:
256,192,326564,1,0,0:0:0:0:
36,192,326615,1,0,0:0:0:0:
109,192,326615,1,0,0:0:0:0:
475,192,326615,1,0,0:0:0:0:
329,192,326615,1,0,0:0:0:0:
182,192,326667,1,0,0:0:0:0:
256,192,326719,1,0,0:0:0:0:
329,192,326771,1,0,0:0:0:0:
36,192,326822,1,0,0:0:0:0:
475,192,326822,1,0,0:0:0:0:
402,192,326822,1,0,0:0:0:0:
109,192,326822,1,0,0:0:0:0:
256,192,326874,1,0,0:0:0:0:
182,192,326926,1,0,0:0:0:0:
109,192,326977,1,0,0:0:0:0:
402,192,327029,1,0,0:0:0:0:
475,192,327029,1,0,0:0:0:0:
36,192,327029,1,0,0:0:0:0:
329,192,327029,1,0,0:0:0:0:
256,192,327081,1,0,0:0:0:0:
182,192,327133,1,0,0:0:0:0:
329,192,327184,1,0,0:0:0:0:
109,192,327236,1,0,0:0:0:0:
475,192,327236,1,0,0:0:0:0:
402,192,327236,1,0,0:0:0:0:
36,192,327236,1,0,0:0:0:0:
182,192,327288,1,0,0:0:0:0:
256,192,327339,1,0,0:0:0:0:
329,192,327391,1,0,0:0:0:0:
36,192,327443,1,0,0:0:0:0:
109,192,327443,1,0,0:0:0:0:
402,192,327443,1,0,0:0:0:0:
475,192,327443,1,0,0:0:0:0:
182,192,327495,1,0,0:0:0:0:
256,192,327546,1,0,0:0:0:0:
329,192,327598,1,0,0:0:0:0:
109,192,327650,1,0,0:0:0:0:
36,192,327650,1,0,0:0:0:0:
402,192,327650,1,0,0:0:0:0:
182,192,327650,1,0,0:0:0:0:
475,192,327702,1,0,0:0:0:0:
329,192,327753,1,0,0:0:0:0:
182,192,327805,1,0,0:0:0:0:
402,192,327857,1,0,0:0:0:0:
475,192,327857,1,0,0:0:0:0:
109,192,327857,1,0,0:0:0:0:
36,192,327857,1,0,0:0:0:0:
329,192,327908,1,0,0:0:0:0:
256,192,327960,1,0,0:0:0:0:
182,192,328012,1,0,0:0:0:0:
109,192,328064,1,0,0:0:0:0:
36,192,328064,1,0,0:0:0:0:
402,192,328064,1,0,0:0:0:0:
475,192,328064,1,0,0:0:0:0:
329,192,328115,1,0,0:0:0:0:
256,192,328167,1,0,0:0:0:0:
182,192,328219,1,0,0:0:0:0:
475,192,328271,1,0,0:0:0:0:
109,192,328271,1,0,0:0:0:0:
36,192,328271,1,0,0:0:0:0:
402,192,328271,1,0,0:0:0:0:
329,192,328322,1,0,0:0:0:0:
256,192,328374,1,0,0:0:0:0:
182,192,328426,1,0,0:0:0:0:
475,192,328477,1,0,0:0:0:0:
36,192,328477,1,0,0:0:0:0:
109,192,328477,1,0,0:0:0:0:
402,192,328503,1,0,0:0:0:0:
329,192,328529,1,0,0:0:0:0:
256,192,328555,1,0,0:0:0:0:
182,192,328581,1,0,0:0:0:0:
109,192,328607,1,0,0:0:0:0:
36,192,328633,1,0,0:0:0:0:
329,192,328684,1,0,0:0:0:0:
475,192,328684,1,0,0:0:0:0:
402,192,328684,1,0,0:0:0:0:
256,192,328736,1,0,0:0:0:0:
182,192,328788,1,0,0:0:0:0:
329,192,328839,1,0,0:0:0:0:
475,192,328891,1,0,0:0:0:0:
109,192,328891,1,0,0:0:0:0:
36,192,328891,1,0,0:0:0:0:
402,192,328891,1,0,0:0:0:0:
256,192,328943,1,0,0:0:0:0:
329,192,328995,1,0,0:0:0:0:
182,192,329046,1,0,0:0:0:0:
475,192,329098,1,0,0:0:0:0:
36,192,329098,1,0,0:0:0:0:
256,192,329098,1,0,0:0:0:0:
402,192,329098,1,0,0:0:0:0:
109,192,329150,1,0,0:0:0:0:
329,192,329202,1,0,0:0:0:0:
182,192,329253,1,0,0:0:0:0:
402,192,329305,1,0,0:0:0:0:
109,192,329305,1,0,0:0:0:0:
36,192,329305,1,0,0:0:0:0:
256,192,329305,1,0,0:0:0:0:
475,192,329357,1,0,0:0:0:0:
329,192,329408,1,0,0:0:0:0:
182,192,329460,1,0,0:0:0:0:
402,192,329512,1,0,0:0:0:0:
475,192,329512,1,0,0:0:0:0:
36,192,329512,1,0,0:0:0:0:
256,192,329512,1,0,0:0:0:0:
109,192,329564,1,0,0:0:0:0:
329,192,329615,1,0,0:0:0:0:
256,192,329667,1,0,0:0:0:0:
402,192,329719,1,0,0:0:0:0:
475,192,329719,1,0,0:0:0:0:
182,192,329719,1,0,0:0:0:0:
36,192,329719,1,0,0:0:0:0:
329,192,329771,1,0,0:0:0:0:
109,192,329822,1,0,0:0:0:0:
256,192,329874,1,0,0:0:0:0:
36,192,329926,1,0,0:0:0:0:
182,192,329926,1,0,0:0:0:0:
402,192,329926,1,0,0:0:0:0:
475,192,329926,1,0,0:0:0:0:
329,192,329960,1,0,0:0:0:0:
109,192,329995,1,0,0:0:0:0:
256,192,330029,1,0,0:0:0:0:
402,192,330064,1,0,0:0:0:0:
182,192,330098,1,0,0:0:0:0:
36,192,330133,1,0,0:0:0:0:
329,192,330167,1,0,0:0:0:0:
109,192,330202,1,0,0:0:0:0:
256,192,330236,1,0,0:0:0:0:
402,192,330271,1,0,0:0:0:0:
182,192,330305,1,0,0:0:0:0:
475,192,330339,1,0,0:0:0:0:
329,192,330339,1,0,0:0:0:0:
36,192,330443,1,0,0:0:0:0:
109,192,330443,1,0,0:0:0:0:
402,192,330546,1,0,0:0:0:0:
256,192,330546,1,0,0:0:0:0:
182,192,330650,1,0,0:0:0:0:
109,192,330650,1,0,0:0:0:0:
475,192,330753,1,0,0:0:0:0:
402,192,330753,1,0,0:0:0:0:
329,192,330753,1,0,0:0:0:0:
256,192,330857,1,0,0:0:0:0:
182,192,330857,1,0,0:0:0:0:
36,192,330960,1,0,0:0:0:0:
109,192,330986,1,0,0:0:0:0:
256,192,331012,1,0,0:0:0:0:
402,192,331038,1,0,0:0:0:0:
182,192,331064,1,0,0:0:0:0:
329,192,331089,1,0,0:0:0:0:
475,192,331115,1,0,0:0:0:0:
36,192,331141,1,0,0:0:0:0:
256,192,331167,1,0,0:0:0:0:
109,192,331167,1,0,0:0:0:0:
329,192,331271,1,0,0:0:0:0:
402,192,331271,1,0,0:0:0:0:
36,192,331374,1,0,0:0:0:0:
182,192,331374,1,0,0:0:0:0:
329,192,331477,1,0,0:0:0:0:
256,192,331477,1,0,0:0:0:0:
109,192,331581,1,0,0:0:0:0:
475,192,331581,1,0,0:0:0:0:
402,192,331581,1,0,0:0:0:0:
256,192,331684,1,0,0:0:0:0:
182,192,331684,1,0,0:0:0:0:
402,192,331788,1,0,0:0:0:0:
329,192,331788,1,0,0:0:0:0:
109,192,331814,1,0,0:0:0:0:
256,192,331839,1,0,0:0:0:0:
36,192,331865,1,0,0:0:0:0:
475,192,331891,1,0,0:0:0:0:
329,192,331917,1,0,0:0:0:0:
182,192,331943,1,0,0:0:0:0:
109,192,331969,1,0,0:0:0:0:
402,192,331995,1,0,0:0:0:0:
256,192,331995,1,0,0:0:0:0:
182,192,332098,1,0,0:0:0:0:
36,192,332098,1,0,0:0:0:0:
475,192,332202,1,0,0:0:0:0:
329,192,332202,1,0,0:0:0:0:
256,192,332305,1,0,0:0:0:0:
109,192,332305,1,0,0:0:0:0:
329,192,332408,1,0,0:0:0:0:
475,192,332408,1,0,0:0:0:0:
402,192,332408,1,0,0:0:0:0:
182,192,332512,1,0,0:0:0:0:
36,192,332512,1,0,0:0:0:0:
256,192,332615,1,0,0:0:0:0:
402,192,332641,1,0,0:0:0:0:
109,192,332667,1,0,0:0:0:0:
182,192,332693,1,0,0:0:0:0:
329,192,332719,1,0,0:0:0:0:
475,192,332745,1,0,0:0:0:0:
256,192,332771,1,0,0:0:0:0:
36,192,332796,1,0,0:0:0:0:
182,192,332822,1,0,0:0:0:0:
109,192,332822,1,0,0:0:0:0:
402,192,332926,1,0,0:0:0:0:
329,192,332926,1,0,0:0:0:0:
109,192,333029,1,0,0:0:0:0:
36,192,333029,1,0,0:0:0:0:
475,192,333133,1,0,0:0:0:0:
402,192,333133,1,0,0:0:0:0:
256,192,333236,1,0,0:0:0:0:
109,192,333236,1,0,0:0:0:0:
182,192,333236,1,0,0:0:0:0:
475,192,333339,1,0,0:0:0:0:
402,192,333339,1,0,0:0:0:0:
109,192,333443,1,0,0:0:0:0:
36,192,333443,1,0,0:0:0:0:
329,192,333469,1,0,0:0:0:0:
475,192,333495,1,0,0:0:0:0:
256,192,333521,1,0,0:0:0:0:
182,192,333546,1,0,0:0:0:0:
36,192,333572,1,0,0:0:0:0:
402,192,333598,1,0,0:0:0:0:
329,192,333624,1,0,0:0:0:0:
109,192,333650,1,0,0:0:0:0:
256,192,333650,1,0,0:0:0:0:
475,192,333753,1,0,0:0:0:0:
402,192,333753,1,0,0:0:0:0:
329,192,333857,1,0,0:0:0:0:
182,192,333857,1,0,0:0:0:0:
36,192,333891,1,0,0:0:0:0:
256,192,333926,1,0,0:0:0:0:
109,192,333960,1,0,0:0:0:0:
402,192,333995,1,0,0:0:0:0:
182,192,334029,1,0,0:0:0:0:
475,192,334064,1,0,0:0:0:0:
329,192,334064,1,0,0:0:0:0:
256,192,334167,1,0,0:0:0:0:
109,192,334167,1,0,0:0:0:0:
475,192,334271,1,0,0:0:0:0:
402,192,334271,1,0,0:0:0:0:
329,192,334296,1,0,0:0:0:0:
182,192,334322,1,0,0:0:0:0:
36,192,334348,1,0,0:0:0:0:
256,192,334374,1,0,0:0:0:0:
402,192,334400,1,0,0:0:0:0:
109,192,334426,1,0,0:0:0:0:
182,192,334452,1,0,0:0:0:0:
475,192,334477,1,0,0:0:0:0:
329,192,334477,1,0,0:0:0:0:
109,192,334581,1,0,0:0:0:0:
36,192,334581,1,0,0:0:0:0:
402,192,334684,1,0,0:0:0:0:
256,192,334684,1,0,0:0:0:0:
182,192,334719,1,0,0:0:0:0:
329,192,334753,1,0,0:0:0:0:
109,192,334788,1,0,0:0:0:0:
256,192,334822,1,0,0:0:0:0:
402,192,334857,1,0,0:0:0:0:
36,192,334891,1,0,0:0:0:0:
475,192,334891,1,0,0:0:0:0:
329,192,334995,1,0,0:0:0:0:
182,192,334995,1,0,0:0:0:0:
256,192,335098,1,0,0:0:0:0:
109,192,335098,1,0,0:0:0:0:
402,192,335124,1,0,0:0:0:0:
475,192,335150,1,0,0:0:0:0:
182,192,335176,1,0,0:0:0:0:
329,192,335202,1,0,0:0:0:0:
36,192,335227,1,0,0:0:0:0:
256,192,335253,1,0,0:0:0:0:
109,192,335279,1,0,0:0:0:0:
475,192,335305,1,0,0:0:0:0:
402,192,335305,1,0,0:0:0:0:
329,192,335408,1,0,0:0:0:0:
182,192,335408,1,0,0:0:0:0:
109,192,335512,1,0,0:0:0:0:
36,192,335512,1,0,0:0:0:0:
256,192,335546,1,0,0:0:0:0:
402,192,335581,1,0,0:0:0:0:
182,192,335615,1,0,0:0:0:0:
329,192,335650,1,0,0:0:0:0:
475,192,335684,1,0,0:0:0:0:
256,192,335719,1,0,0:0:0:0:
109,192,335719,1,0,0:0:0:0:
329,192,335822,1,0,0:0:0:0:
402,192,335822,1,0,0:0:0:0:
475,192,335926,1,0,0:0:0:0:
36,192,335926,1,0,0:0:0:0:
182,192,335952,1,0,0:0:0:0:
329,192,335977,1,0,0:0:0:0:
402,192,336003,1,0,0:0:0:0:
109,192,336029,1,0,0:0:0:0:
256,192,336055,1,0,0:0:0:0:
182,192,336081,1,0,0:0:0:0:
36,192,336107,1,0,0:0:0:0:
329,192,336133,1,0,0:0:0:0:
475,192,336133,1,0,0:0:0:0:
182,192,336236,1,0,0:0:0:0:
109,192,336236,1,0,0:0:0:0:
329,192,336339,1,0,0:0:0:0:
402,192,336339,1,0,0:0:0:0:
36,192,336443,1,0,0:0:0:0:
182,192,336443,1,0,0:0:0:0:
475,192,336546,1,0,0:0:0:0:
402,192,336572,1,0,0:0:0:0:
329,192,336598,1,0,0:0:0:0:
256,192,336624,1,0,0:0:0:0:
182,192,336650,1,0,0:0:0:0:
109,192,336676,1,0,0:0:0:0:
475,192,336702,1,0,0:0:0:0:
36,192,336702,1,0,0:0:0:0:
402,192,336727,1,0,0:0:0:0:
329,192,336753,1,0,0:0:0:0:
256,192,336779,1,0,0:0:0:0:
182,192,336805,1,0,0:0:0:0:
109,192,336831,1,0,0:0:0:0:
475,192,336857,1,0,0:0:0:0:
36,192,336857,1,0,0:0:0:0:
402,192,336883,1,0,0:0:0:0:
329,192,336908,1,0,0:0:0:0:
256,192,336934,1,0,0:0:0:0:
182,192,336960,1,0,0:0:0:0:
36,192,336995,1,0,0:0:0:0:
109,192,337029,1,0,0:0:0:0:
329,192,337064,1,0,0:0:0:0:
475,192,337098,1,0,0:0:0:0:
182,192,337133,1,0,0:0:0:0:
256,192,337167,1,0,0:0:0:0:
402,192,337202,1,0,0:0:0:0:
109,192,337236,1,0,0:0:0:0:
36,192,337271,1,0,0:0:0:0:
329,192,337305,1,0,0:0:0:0:
182,192,337339,1,0,0:0:0:0:
475,192,337374,1,0,0:0:0:0:
256,192,337408,1,0,0:0:0:0:
109,192,337443,1,0,0:0:0:0:
329,192,337477,1,0,0:0:0:0:
182,192,337512,1,0,0:0:0:0:
36,192,337546,1,0,0:0:0:0:
256,192,337581,1,0,0:0:0:0:
402,192,337615,1,0,0:0:0:0:
109,192,337650,1,0,0:0:0:0:
329,192,337684,1,0,0:0:0:0:
182,192,337719,1,0,0:0:0:0:
475,192,337753,1,0,0:0:0:0:
36,192,337788,1,0,0:0:0:0:
402,192,337822,1,0,0:0:0:0:
329,192,337857,1,0,0:0:0:0:
182,192,337891,1,0,0:0:0:0:
36,192,337926,1,0,0:0:0:0:
256,192,337960,1,0,0:0:0:0:
109,192,337995,1,0,0:0:0:0:
402,192,338029,1,0,0:0:0:0:
329,192,338064,1,0,0:0:0:0:
182,192,338098,1,0,0:0:0:0:
475,192,338133,1,0,0:0:0:0:
256,192,338167,1,0,0:0:0:0:
402,192,338202,1,0,0:0:0:0:
36,192,338236,1,0,0:0:0:0:
329,192,338271,1,0,0:0:0:0:
182,192,338305,1,0,0:0:0:0:
475,192,338339,1,0,0:0:0:0:
256,192,338374,1,0,0:0:0:0:
109,192,338408,1,0,0:0:0:0:
36,192,338443,1,0,0:0:0:0:
329,192,338477,1,0,0:0:0:0:
182,192,338512,1,0,0:0:0:0:
475,192,338546,1,0,0:0:0:0:
256,192,338581,1,0,0:0:0:0:
36,192,338615,1,0,0:0:0:0:
402,192,338615,1,0,0:0:0:0:
109,192,338667,1,0,0:0:0:0:
329,192,338684,1,0,0:0:0:0:
475,192,338719,1,0,0:0:0:0:
182,192,338719,1,0,0:0:0:0:
256,192,338753,1,0,0:0:0:0:
402,192,338822,1,0,0:0:0:0:
36,192,338822,1,0,0:0:0:0:
329,192,338874,1,0,0:0:0:0:
256,192,338926,1,0,0:0:0:0:
475,192,338926,1,0,0:0:0:0:
182,192,338960,1,0,0:0:0:0:
109,192,338977,1,0,0:0:0:0:
402,192,339029,1,0,0:0:0:0:
36,192,339029,1,0,0:0:0:0:
256,192,339081,1,0,0:0:0:0:
475,192,339098,1,0,0:0:0:0:
109,192,339133,1,0,0:0:0:0:
329,192,339133,1,0,0:0:0:0:
182,192,339167,1,0,0:0:0:0:
256,192,339236,1,0,0:0:0:0:
36,192,339236,1,0,0:0:0:0:
109,192,339288,1,0,0:0:0:0:
402,192,339305,1,0,0:0:0:0:
475,192,339339,1,0,0:0:0:0:
182,192,339339,1,0,0:0:0:0:
329,192,339391,1,0,0:0:0:0:
36,192,339443,1,0,0:0:0:0:
109,192,339469,1,0,0:0:0:0:
182,192,339495,1,0,0:0:0:0:
329,192,339521,1,0,0:0:0:0:
402,192,339546,1,0,0:0:0:0:
475,192,339572,1,0,0:0:0:0:
256,192,339598,1,0,0:0:0:0:
109,192,339624,1,0,0:0:0:0:
36,192,339650,1,0,0:0:0:0:
329,192,339676,1,0,0:0:0:0:
182,192,339702,1,0,0:0:0:0:
475,192,339727,1,0,0:0:0:0:
402,192,339753,1,0,0:0:0:0:
256,192,339779,1,0,0:0:0:0:
109,192,339805,1,0,0:0:0:0:
329,192,339857,1,0,0:0:0:0:
475,192,339857,1,0,0:0:0:0:
36,192,339857,1,0,0:0:0:0:
182,192,339857,1,0,0:0:0:0:
329,192,340064,1,0,0:0:0:0:
402,192,340064,1,0,0:0:0:0:
475,192,340064,1,0,0:0:0:0:
36,192,340064,1,0,0:0:0:0:
109,192,340064,1,0,0:0:0:0:
182,192,340064,1,0,0:0:0:0:
182,192,353019,5,0,0:0:0:0:
402,192,353019,1,0,0:0:0:0:
475,192,353019,1,0,0:0:0:0:
256,192,353019,1,0,0:0:0:0:
329,192,353094,1,0,0:0:0:0:
36,192,353094,1,0,0:0:0:0:
109,192,353094,1,0,0:0:0:0:
256,192,353244,1,0,0:0:0:0:
182,192,353244,1,0,0:0:0:0:
402,192,353244,1,0,0:0:0:0:
475,192,353244,1,0,0:0:0:0:
329,192,353319,1,0,0:0:0:0:
109,192,353319,1,0,0:0:0:0:
36,192,353319,1,0,0:0:0:0:
475,192,353469,1,0,0:0:0:0:
182,192,353469,1,0,0:0:0:0:
256,192,353469,1,0,0:0:0:0:
402,192,353469,1,0,0:0:0:0:
329,192,353544,1,0,0:0:0:0:
36,192,353544,1,0,0:0:0:0:
109,192,353544,1,0,0:0:0:0:
182,192,353694,1,0,0:0:0:0:
329,192,353769,1,0,0:0:0:0:
402,192,353769,1,0,0:0:0:0:
109,192,353844,1,0,0:0:0:0:
475,192,353919,1,0,0:0:0:0:
256,192,353919,1,0,0:0:0:0:
182,192,353994,1,0,0:0:0:0:
36,192,353994,1,0,0:0:0:0:
402,192,354069,1,0,0:0:0:0:
329,192,354069,1,0,0:0:0:0:
256,192,354144,1,0,0:0:0:0:
109,192,354144,1,0,0:0:0:0:
475,192,354219,1,0,0:0:0:0:
402,192,354219,1,0,0:0:0:0:
182,192,354294,1,0,0:0:0:0:
329,192,354369,1,0,0:0:0:0:
256,192,354444,1,0,0:0:0:0:
109,192,354444,1,0,0:0:0:0:
36,192,354444,1,0,0:0:0:0:
256,192,354669,1,0,0:0:0:0:
475,192,354669,1,0,0:0:0:0:
402,192,354669,1,0,0:0:0:0:
182,192,354894,1,0,0:0:0:0:
109,192,354894,1,0,0:0:0:0:
256,192,354969,1,0,0:0:0:0:
402,192,354969,1,0,0:0:0:0:
36,192,355044,1,0,0:0:0:0:
329,192,355119,1,0,0:0:0:0:
182,192,355119,1,0,0:0:0:0:
256,192,355194,1,0,0:0:0:0:
109,192,355194,1,0,0:0:0:0:
475,192,355269,1,0,0:0:0:0:
402,192,355269,1,0,0:0:0:0:
329,192,355344,1,0,0:0:0:0:
182,192,355344,1,0,0:0:0:0:
256,192,355419,1,0,0:0:0:0:
402,192,355419,1,0,0:0:0:0:
109,192,355419,1,0,0:0:0:0:
36,192,355419,1,0,0:0:0:0:
475,192,355494,1,0,0:0:0:0:
329,192,355494,1,0,0:0:0:0:
182,192,355494,1,0,0:0:0:0:
256,192,355644,1,0,0:0:0:0:
402,192,355644,1,0,0:0:0:0:
36,192,355644,1,0,0:0:0:0:
109,192,355644,1,0,0:0:0:0:
475,192,355719,1,0,0:0:0:0:
329,192,355719,1,0,0:0:0:0:
182,192,355719,1,0,0:0:0:0:
256,192,355869,1,0,0:0:0:0:
402,192,355869,1,0,0:0:0:0:
36,192,355869,1,0,0:0:0:0:
109,192,355869,1,0,0:0:0:0:
475,192,355944,1,0,0:0:0:0:
329,192,355944,1,0,0:0:0:0:
182,192,355944,1,0,0:0:0:0:
402,192,356094,1,0,0:0:0:0:
256,192,356169,1,0,0:0:0:0:
109,192,356169,1,0,0:0:0:0:
329,192,356244,1,0,0:0:0:0:
36,192,356319,1,0,0:0:0:0:
182,192,356319,1,0,0:0:0:0:
329,192,356394,1,0,0:0:0:0:
475,192,356394,1,0,0:0:0:0:
256,192,356469,1,0,0:0:0:0:
109,192,356469,1,0,0:0:0:0:
475,192,356544,1,0,0:0:0:0:
402,192,356544,1,0,0:0:0:0:
36,192,356619,1,0,0:0:0:0:
182,192,356619,1,0,0:0:0:0:
402,192,356694,1,0,0:0:0:0:
329,192,356694,1,0,0:0:0:0:
182,192,356769,1,0,0:0:0:0:
329,192,356844,1,0,0:0:0:0:
182,192,356919,1,0,0:0:0:0:
109,192,356919,1,0,0:0:0:0:
475,192,357069,1,0,0:0:0:0:
402,192,357069,1,0,0:0:0:0:
256,192,357069,1,0,0:0:0:0:
36,192,357219,1,0,0:0:0:0:
329,192,357219,1,0,0:0:0:0:
182,192,357219,1,0,0:0:0:0:
109,192,357219,1,0,0:0:0:0:
402,192,357294,1,0,0:0:0:0:
256,192,357294,1,0,0:0:0:0:
329,192,357369,1,0,0:0:0:0:
182,192,357369,1,0,0:0:0:0:
256,192,357444,1,0,0:0:0:0:
109,192,357444,1,0,0:0:0:0:
329,192,357519,1,0,0:0:0:0:
475,192,357519,1,0,0:0:0:0:
182,192,357519,1,0,0:0:0:0:
402,192,357594,1,0,0:0:0:0:
256,192,357594,1,0,0:0:0:0:
182,192,357669,1,0,0:0:0:0:
329,192,357669,1,0,0:0:0:0:
256,192,357744,1,0,0:0:0:0:
109,192,357744,1,0,0:0:0:0:
475,192,357819,1,0,0:0:0:0:
36,192,357819,1,0,0:0:0:0:
182,192,357819,1,0,0:0:0:0:
402,192,357819,1,0,0:0:0:0:
329,192,357894,1,0,0:0:0:0:
256,192,357894,1,0,0:0:0:0:
109,192,357894,1,0,0:0:0:0:
402,192,358044,1,0,0:0:0:0:
475,192,358044,1,0,0:0:0:0:
182,192,358044,1,0,0:0:0:0:
36,192,358044,1,0,0:0:0:0:
329,192,358119,1,0,0:0:0:0:
256,192,358119,1,0,0:0:0:0:
109,192,358119,1,0,0:0:0:0:
402,192,358269,1,0,0:0:0:0:
475,192,358269,1,0,0:0:0:0:
182,192,358269,1,0,0:0:0:0:
36,192,358269,1,0,0:0:0:0:
329,192,358344,1,0,0:0:0:0:
256,192,358344,1,0,0:0:0:0:
109,192,358344,1,0,0:0:0:0:
182,192,358494,1,0,0:0:0:0:
402,192,358569,1,0,0:0:0:0:
329,192,358569,1,0,0:0:0:0:
109,192,358644,1,0,0:0:0:0:
329,192,358719,1,0,0:0:0:0:
256,192,358719,1,0,0:0:0:0:
36,192,358794,1,0,0:0:0:0:
182,192,358794,1,0,0:0:0:0:
475,192,358869,1,0,0:0:0:0:
402,192,358869,1,0,0:0:0:0:
329,192,358944,1,0,0:0:0:0:
182,192,358944,1,0,0:0:0:0:
256,192,359019,1,0,0:0:0:0:
109,192,359019,1,0,0:0:0:0:
36,192,359019,1,0,0:0:0:0:
475,192,359169,1,0,0:0:0:0:
402,192,359169,1,0,0:0:0:0:
256,192,359244,1,0,0:0:0:0:
109,192,359244,1,0,0:0:0:0:
36,192,359244,1,0,0:0:0:0:
256,192,359469,1,0,0:0:0:0:
475,192,359469,1,0,0:0:0:0:
402,192,359469,1,0,0:0:0:0:
36,192,359694,1,0,0:0:0:0:
182,192,359694,1,0,0:0:0:0:
329,192,359769,1,0,0:0:0:0:
475,192,359769,1,0,0:0:0:0:
109,192,359844,1,0,0:0:0:0:
402,192,359919,1,0,0:0:0:0:
329,192,359919,1,0,0:0:0:0:
182,192,359919,1,0,0:0:0:0:
109,192,359994,1,0,0:0:0:0:
36,192,359994,1,0,0:0:0:0:
475,192,360069,1,0,0:0:0:0:
256,192,360069,1,0,0:0:0:0:
329,192,360144,1,0,0:0:0:0:
182,192,360144,1,0,0:0:0:0:
402,192,360219,1,0,0:0:0:0:
475,192,360219,1,0,0:0:0:0:
109,192,360219,1,0,0:0:0:0:
256,192,360219,1,0,0:0:0:0:
329,192,360294,1,0,0:0:0:0:
36,192,360294,1,0,0:0:0:0:
182,192,360294,1,0,0:0:0:0:
402,192,360444,1,0,0:0:0:0:
475,192,360444,1,0,0:0:0:0:
109,192,360444,1,0,0:0:0:0:
256,192,360444,1,0,0:0:0:0:
36,192,360519,1,0,0:0:0:0:
182,192,360519,1,0,0:0:0:0:
329,192,360519,1,0,0:0:0:0:
402,192,360669,1,0,0:0:0:0:
475,192,360669,1,0,0:0:0:0:
256,192,360669,1,0,0:0:0:0:
109,192,360669,1,0,0:0:0:0:
36,192,360744,1,0,0:0:0:0:
182,192,360744,1,0,0:0:0:0:
329,192,360744,1,0,0:0:0:0:
402,192,360894,1,0,0:0:0:0:
256,192,360894,1,0,0:0:0:0:
36,192,360969,1,0,0:0:0:0:
182,192,360969,1,0,0:0:0:0:
329,192,361044,1,0,0:0:0:0:
475,192,361119,1,0,0:0:0:0:
256,192,361119,1,0,0:0:0:0:
109,192,361119,1,0,0:0:0:0:
329,192,361194,1,0,0:0:0:0:
182,192,361194,1,0,0:0:0:0:
36,192,361269,1,0,0:0:0:0:
256,192,361269,1,0,0:0:0:0:
402,192,361344,1,0,0:0:0:0:
109,192,361344,1,0,0:0:0:0:
475,192,361419,1,0,0:0:0:0:
329,192,361419,1,0,0:0:0:0:
182,192,361419,1,0,0:0:0:0:
109,192,361494,1,0,0:0:0:0:
36,192,361494,1,0,0:0:0:0:
329,192,361569,1,0,0:0:0:0:
256,192,361569,1,0,0:0:0:0:
182,192,361569,1,0,0:0:0:0:
475,192,361644,1,0,0:0:0:0:
402,192,361644,1,0,0:0:0:0:
329,192,361719,1,0,0:0:0:0:
109,192,361719,1,0,0:0:0:0:
36,192,361719,1,0,0:0:0:0:
109,192,361869,1,0,0:0:0:0:
402,192,361869,1,0,0:0:0:0:
256,192,361869,1,0,0:0:0:0:
402,192,362019,1,0,0:0:0:0:
475,192,362019,1,0,0:0:0:0:
256,192,362019,1,0,0:0:0:0:
36,192,362019,1,0,0:0:0:0:
182,192,362019,1,0,0:0:0:0:
329,192,362094,1,0,0:0:0:0:
109,192,362094,1,0,0:0:0:0:
402,192,362169,1,0,0:0:0:0:
182,192,362169,1,0,0:0:0:0:
329,192,362244,1,0,0:0:0:0:
109,192,362244,1,0,0:0:0:0:
256,192,362319,1,0,0:0:0:0:
475,192,362319,1,0,0:0:0:0:
402,192,362394,1,0,0:0:0:0:
182,192,362394,1,0,0:0:0:0:
256,192,362469,1,0,0:0:0:0:
36,192,362469,1,0,0:0:0:0:
329,192,362544,1,0,0:0:0:0:
109,192,362544,1,0,0:0:0:0:
475,192,362619,1,0,0:0:0:0:
36,192,362619,1,0,0:0:0:0:
182,192,362619,1,0,0:0:0:0:
402,192,362619,1,0,0:0:0:0:
256,192,362694,1,0,0:0:0:0:
36,192,362769,1,0,0:0:0:0:
329,192,362769,1,0,0:0:0:0:
475,192,362769,1,0,0:0:0:0:
109,192,362769,1,0,0:0:0:0:
182,192,362844,1,0,0:0:0:0:
109,192,362919,1,0,0:0:0:0:
36,192,362919,1,0,0:0:0:0:
402,192,362919,1,0,0:0:0:0:
256,192,362919,1,0,0:0:0:0:
475,192,362919,1,0,0:0:0:0:
329,192,362994,1,0,0:0:0:0:
475,192,363069,1,0,0:0:0:0:
402,192,363069,1,0,0:0:0:0:
182,192,363069,1,0,0:0:0:0:
36,192,363144,1,0,0:0:0:0:
256,192,363144,1,0,0:0:0:0:
475,192,363219,1,0,0:0:0:0:
109,192,363219,1,0,0:0:0:0:
182,192,363219,1,0,0:0:0:0:
329,192,363219,1,0,0:0:0:0:
402,192,363294,1,0,0:0:0:0:
36,192,363369,1,0,0:0:0:0:
329,192,363369,1,0,0:0:0:0:
256,192,363369,1,0,0:0:0:0:
109,192,363369,1,0,0:0:0:0:
182,192,363444,1,0,0:0:0:0:
109,192,363519,1,0,0:0:0:0:
36,192,363519,1,0,0:0:0:0:
329,192,363519,1,0,0:0:0:0:
475,192,363519,1,0,0:0:0:0:
402,192,363519,1,0,0:0:0:0:
256,192,363594,1,0,0:0:0:0:
36,192,363669,1,0,0:0:0:0:
402,192,363669,1,0,0:0:0:0:
182,192,363669,1,0,0:0:0:0:
475,192,363744,1,0,0:0:0:0:
329,192,363744,1,0,0:0:0:0:
256,192,363819,1,0,0:0:0:0:
182,192,363819,1,0,0:0:0:0:
109,192,363819,1,0,0:0:0:0:
402,192,363819,1,0,0:0:0:0:
329,192,363894,1,0,0:0:0:0:
182,192,363969,1,0,0:0:0:0:
475,192,363969,1,0,0:0:0:0:
36,192,363969,1,0,0:0:0:0:
109,192,363969,1,0,0:0:0:0:
402,192,364044,1,0,0:0:0:0:
256,192,364044,1,0,0:0:0:0:
475,192,364119,1,0,0:0:0:0:
36,192,364119,1,0,0:0:0:0:
182,192,364119,1,0,0:0:0:0:
329,192,364119,1,0,0:0:0:0:
109,192,364194,1,0,0:0:0:0:
475,192,364269,1,0,0:0:0:0:
182,192,364269,1,0,0:0:0:0:
256,192,364269,1,0,0:0:0:0:
402,192,364269,1,0,0:0:0:0:
109,192,364344,1,0,0:0:0:0:
329,192,364344,1,0,0:0:0:0:
36,192,364344,1,0,0:0:0:0:
402,192,364419,1,0,0:0:0:0:
475,192,364419,1,0,0:0:0:0:
256,192,364419,1,0,0:0:0:0:
329,192,364494,1,0,0:0:0:0:
182,192,364494,1,0,0:0:0:0:
109,192,364569,1,0,0:0:0:0:
475,192,364569,1,0,0:0:0:0:
256,192,364569,1,0,0:0:0:0:
36,192,364569,1,0,0:0:0:0:
182,192,364644,1,0,0:0:0:0:
36,192,364719,1,0,0:0:0:0:
109,192,364719,1,0,0:0:0:0:
329,192,364719,1,0,0:0:0:0:
402,192,364719,1,0,0:0:0:0:
256,192,364769,1,0,0:0:0:0:
182,192,364819,1,0,0:0:0:0:
329,192,364869,1,0,0:0:0:0:
475,192,364869,1,0,0:0:0:0:
402,192,364869,1,0,0:0:0:0:
256,192,364944,1,0,0:0:0:0:
109,192,364944,1,0,0:0:0:0:
402,192,365019,1,0,0:0:0:0:
475,192,365019,1,0,0:0:0:0:
182,192,365019,1,0,0:0:0:0:
36,192,365019,1,0,0:0:0:0:
256,192,365094,1,0,0:0:0:0:
329,192,365169,1,0,0:0:0:0:
475,192,365169,1,0,0:0:0:0:
109,192,365169,1,0,0:0:0:0:
36,192,365169,1,0,0:0:0:0:
182,192,365244,1,0,0:0:0:0:
36,192,365319,1,0,0:0:0:0:
475,192,365319,1,0,0:0:0:0:
109,192,365319,1,0,0:0:0:0:
256,192,365319,1,0,0:0:0:0:
402,192,365319,1,0,0:0:0:0:
329,192,365394,1,0,0:0:0:0:
402,192,365469,1,0,0:0:0:0:
109,192,365469,1,0,0:0:0:0:
182,192,365469,1,0,0:0:0:0:
256,192,365544,1,0,0:0:0:0:
475,192,365619,1,0,0:0:0:0:
329,192,365619,1,0,0:0:0:0:
36,192,365619,1,0,0:0:0:0:
109,192,365694,1,0,0:0:0:0:
182,192,365694,1,0,0:0:0:0:
475,192,365769,1,0,0:0:0:0:
36,192,365769,1,0,0:0:0:0:
256,192,365769,1,0,0:0:0:0:
402,192,365769,1,0,0:0:0:0:
329,192,365844,1,0,0:0:0:0:
182,192,365844,1,0,0:0:0:0:
402,192,365919,1,0,0:0:0:0:
475,192,365919,1,0,0:0:0:0:
109,192,365919,1,0,0:0:0:0:
256,192,365919,1,0,0:0:0:0:
182,192,365994,1,0,0:0:0:0:
256,192,366069,1,0,0:0:0:0:
109,192,366069,1,0,0:0:0:0:
329,192,366069,1,0,0:0:0:0:
36,192,366069,1,0,0:0:0:0:
402,192,366144,1,0,0:0:0:0:
329,192,366219,1,0,0:0:0:0:
475,192,366219,1,0,0:0:0:0:
182,192,366219,1,0,0:0:0:0:
36,192,366219,1,0,0:0:0:0:
256,192,366294,1,0,0:0:0:0:
329,192,366369,1,0,0:0:0:0:
402,192,366369,1,0,0:0:0:0:
109,192,366369,1,0,0:0:0:0:
182,192,366369,1,0,0:0:0:0:
256,192,366444,1,0,0:0:0:0:
109,192,366519,1,0,0:0:0:0:
402,192,366519,1,0,0:0:0:0:
36,192,366519,1,0,0:0:0:0:
475,192,366519,1,0,0:0:0:0:
329,192,366594,1,0,0:0:0:0:
182,192,366594,1,0,0:0:0:0:
402,192,366669,1,0,0:0:0:0:
475,192,366669,1,0,0:0:0:0:
256,192,366669,1,0,0:0:0:0:
36,192,366669,1,0,0:0:0:0:
109,192,366744,1,0,0:0:0:0:
402,192,366819,1,0,0:0:0:0:
475,192,366819,1,0,0:0:0:0:
329,192,366819,1,0,0:0:0:0:
182,192,366819,1,0,0:0:0:0:
256,192,366819,1,0,0:0:0:0:
36,192,366894,1,0,0:0:0:0:
256,192,366969,1,0,0:0:0:0:
109,192,366969,1,0,0:0:0:0:
182,192,366969,1,0,0:0:0:0:
329,192,366969,1,0,0:0:0:0:
402,192,367044,1,0,0:0:0:0:
182,192,367119,1,0,0:0:0:0:
329,192,367119,1,0,0:0:0:0:
475,192,367119,1,0,0:0:0:0:
36,192,367119,1,0,0:0:0:0:
109,192,367119,1,0,0:0:0:0:
475,192,367269,1,0,0:0:0:0:
329,192,367269,1,0,0:0:0:0:
36,192,367269,1,0,0:0:0:0:
182,192,367269,1,0,0:0:0:0:
109,192,367269,1,0,0:0:0:0:
109,192,367419,1,0,0:0:0:0:
36,192,367419,1,0,0:0:0:0:
475,192,367419,1,0,0:0:0:0:
256,192,367419,1,0,0:0:0:0:
402,192,367419,1,0,0:0:0:0:
329,192,367569,1,0,0:0:0:0:
182,192,367569,1,0,0:0:0:0:
109,192,367644,1,0,0:0:0:0:
475,192,367719,1,0,0:0:0:0:
182,192,367719,1,0,0:0:0:0:
402,192,367719,1,0,0:0:0:0:
36,192,367719,1,0,0:0:0:0:
256,192,367719,1,0,0:0:0:0:
109,192,367869,1,0,0:0:0:0:
329,192,367869,1,0,0:0:0:0:
182,192,367944,1,0,0:0:0:0:
109,192,368019,1,0,0:0:0:0:
36,192,368019,1,0,0:0:0:0:
475,192,368019,1,0,0:0:0:0:
256,192,368019,1,0,0:0:0:0:
402,192,368019,1,0,0:0:0:0:
402,192,368169,1,0,0:0:0:0:
182,192,368169,1,0,0:0:0:0:
329,192,368244,1,0,0:0:0:0:
402,192,368319,1,0,0:0:0:0:
475,192,368319,1,0,0:0:0:0:
36,192,368319,1,0,0:0:0:0:
256,192,368319,1,0,0:0:0:0:
109,192,368319,1,0,0:0:0:0:
402,192,368469,1,0,0:0:0:0:
475,192,368469,1,0,0:0:0:0:
256,192,368469,1,0,0:0:0:0:
109,192,368469,1,0,0:0:0:0:
36,192,368469,1,0,0:0:0:0:
256,192,368619,1,0,0:0:0:0:
475,192,368619,1,0,0:0:0:0:
329,192,368619,1,0,0:0:0:0:
182,192,368619,1,0,0:0:0:0:
36,192,368619,1,0,0:0:0:0:
109,192,368694,1,0,0:0:0:0:
182,192,368769,1,0,0:0:0:0:
402,192,368769,1,0,0:0:0:0:
36,192,368844,1,0,0:0:0:0:
402,192,368919,1,0,0:0:0:0:
182,192,368919,1,0,0:0:0:0:
475,192,368919,1,0,0:0:0:0:
109,192,368919,1,0,0:0:0:0:
329,192,368919,1,0,0:0:0:0:
256,192,368994,1,0,0:0:0:0:
36,192,369069,1,0,0:0:0:0:
329,192,369069,1,0,0:0:0:0:
182,192,369144,1,0,0:0:0:0:
475,192,369219,1,0,0:0:0:0:
36,192,369219,1,0,0:0:0:0:
402,192,369219,1,0,0:0:0:0:
256,192,369219,1,0,0:0:0:0:
109,192,369219,1,0,0:0:0:0:
329,192,369294,1,0,0:0:0:0:
109,192,369369,1,0,0:0:0:0:
36,192,369369,1,0,0:0:0:0:
402,192,369369,1,0,0:0:0:0:
475,192,369369,1,0,0:0:0:0:
182,192,369444,1,0,0:0:0:0:
329,192,369444,1,0,0:0:0:0:
109,192,369519,1,0,0:0:0:0:
36,192,369519,1,0,0:0:0:0:
402,192,369519,1,0,0:0:0:0:
475,192,369519,1,0,0:0:0:0:
329,192,369594,1,0,0:0:0:0:
182,192,369669,1,0,0:0:0:0:
109,192,369669,1,0,0:0:0:0:
402,192,369669,1,0,0:0:0:0:
475,192,369669,1,0,0:0:0:0:
36,192,369744,1,0,0:0:0:0:
329,192,369744,1,0,0:0:0:0:
109,192,369819,1,0,0:0:0:0:
182,192,369819,1,0,0:0:0:0:
402,192,369819,1,0,0:0:0:0:
475,192,369819,1,0,0:0:0:0:
329,192,369894,1,0,0:0:0:0:
256,192,369894,1,0,0:0:0:0:
402,192,369969,1,0,0:0:0:0:
475,192,369969,1,0,0:0:0:0:
36,192,369969,1,0,0:0:0:0:
109,192,369969,1,0,0:0:0:0:
256,192,370044,1,0,0:0:0:0:
182,192,370044,1,0,0:0:0:0:
109,192,370119,1,0,0:0:0:0:
475,192,370119,1,0,0:0:0:0:
329,192,370119,1,0,0:0:0:0:
36,192,370119,1,0,0:0:0:0:
402,192,370194,1,0,0:0:0:0:
256,192,370194,1,0,0:0:0:0:
109,192,370269,1,0,0:0:0:0:
36,192,370269,1,0,0:0:0:0:
329,192,370269,1,0,0:0:0:0:
182,192,370269,1,0,0:0:0:0:
475,192,370344,1,0,0:0:0:0:
402,192,370344,1,0,0:0:0:0:
109,192,370419,1,0,0:0:0:0:
329,192,370419,1,0,0:0:0:0:
256,192,370419,1,0,0:0:0:0:
182,192,370419,1,0,0:0:0:0:
402,192,370494,1,0,0:0:0:0:
36,192,370494,1,0,0:0:0:0:
256,192,370569,1,0,0:0:0:0:
329,192,370569,1,0,0:0:0:0:
475,192,370569,1,0,0:0:0:0:
182,192,370569,1,0,0:0:0:0:
36,192,370644,1,0,0:0:0:0:
109,192,370644,1,0,0:0:0:0:
329,192,370719,1,0,0:0:0:0:
475,192,370719,1,0,0:0:0:0:
256,192,370719,1,0,0:0:0:0:
402,192,370719,1,0,0:0:0:0:
182,192,370794,1,0,0:0:0:0:
36,192,370794,1,0,0:0:0:0:
402,192,370869,1,0,0:0:0:0:
475,192,370869,1,0,0:0:0:0:
109,192,370869,1,0,0:0:0:0:
329,192,370869,1,0,0:0:0:0:
256,192,370944,1,0,0:0:0:0:
402,192,371019,1,0,0:0:0:0:
182,192,371019,1,0,0:0:0:0:
329,192,371019,1,0,0:0:0:0:
475,192,371019,1,0,0:0:0:0:
36,192,371019,1,0,0:0:0:0:
109,192,371019,1,0,0:0:0:0:
329,192,371169,1,0,0:0:0:0:
475,192,371169,1,0,0:0:0:0:
256,192,371169,1,0,0:0:0:0:
182,192,371169,1,0,0:0:0:0:
36,192,371169,1,0,0:0:0:0:
329,192,371319,1,0,0:0:0:0:
475,192,371319,1,0,0:0:0:0:
182,192,371319,1,0,0:0:0:0:
109,192,371319,1,0,0:0:0:0:
36,192,371319,1,0,0:0:0:0:
182,192,371469,1,0,0:0:0:0:
475,192,371469,1,0,0:0:0:0:
109,192,371469,1,0,0:0:0:0:
256,192,371469,1,0,0:0:0:0:
402,192,371469,1,0,0:0:0:0:
402,192,371619,1,0,0:0:0:0:
256,192,371619,1,0,0:0:0:0:
329,192,371619,1,0,0:0:0:0:
36,192,371619,1,0,0:0:0:0:
109,192,371619,1,0,0:0:0:0:
36,192,371769,1,0,0:0:0:0:
402,192,371769,1,0,0:0:0:0:
182,192,371769,1,0,0:0:0:0:
329,192,371769,1,0,0:0:0:0:
475,192,371769,1,0,0:0:0:0:
475,192,371919,1,0,0:0:0:0:
36,192,371919,1,0,0:0:0:0:
402,192,371919,1,0,0:0:0:0:
329,192,371919,1,0,0:0:0:0:
256,192,371919,1,0,0:0:0:0:
182,192,371919,1,0,0:0:0:0:
109,192,371919,1,0,0:0:0:0:
182,192,372069,1,0,0:0:0:0:
329,192,372069,1,0,0:0:0:0:
402,192,372219,1,0,0:0:0:0:
475,192,372219,1,0,0:0:0:0:
36,192,372219,1,0,0:0:0:0:
256,192,372219,1,0,0:0:0:0:
109,192,372256,1,0,0:0:0:0:
182,192,372294,1,0,0:0:0:0:
329,192,372331,1,0,0:0:0:0:
256,192,372369,1,0,0:0:0:0:
109,192,372406,1,0,0:0:0:0:
402,192,372444,1,0,0:0:0:0:
182,192,372481,1,0,0:0:0:0:
36,192,372519,1,0,0:0:0:0:
256,192,372519,1,0,0:0:0:0:
329,192,372519,1,0,0:0:0:0:
475,192,372519,1,0,0:0:0:0:
402,192,372669,1,0,0:0:0:0:
182,192,372669,1,0,0:0:0:0:
109,192,372669,1,0,0:0:0:0:
475,192,372819,1,0,0:0:0:0:
256,192,372819,1,0,0:0:0:0:
36,192,372819,1,0,0:0:0:0:
109,192,372819,1,0,0:0:0:0:
402,192,372894,1,0,0:0:0:0:
182,192,372894,1,0,0:0:0:0:
475,192,372969,1,0,0:0:0:0:
36,192,372969,1,0,0:0:0:0:
329,192,372969,1,0,0:0:0:0:
256,192,373044,1,0,0:0:0:0:
109,192,373044,1,0,0:0:0:0:
182,192,373119,1,0,0:0:0:0:
475,192,373119,1,0,0:0:0:0:
402,192,373119,1,0,0:0:0:0:
329,192,373119,1,0,0:0:0:0:
256,192,373194,1,0,0:0:0:0:
36,192,373194,1,0,0:0:0:0:
402,192,373269,1,0,0:0:0:0:
182,192,373269,1,0,0:0:0:0:
109,192,373269,1,0,0:0:0:0:
36,192,373344,1,0,0:0:0:0:
329,192,373344,1,0,0:0:0:0:
402,192,373419,1,0,0:0:0:0:
475,192,373419,1,0,0:0:0:0:
109,192,373419,1,0,0:0:0:0:
256,192,373419,1,0,0:0:0:0:
329,192,373494,1,0,0:0:0:0:
182,192,373494,1,0,0:0:0:0:
475,192,373569,1,0,0:0:0:0:
256,192,373569,1,0,0:0:0:0:
36,192,373569,1,0,0:0:0:0:
182,192,373644,1,0,0:0:0:0:
109,192,373644,1,0,0:0:0:0:
36,192,373719,1,0,0:0:0:0:
475,192,373719,1,0,0:0:0:0:
329,192,373719,1,0,0:0:0:0:
402,192,373719,1,0,0:0:0:0:
182,192,373794,1,0,0:0:0:0:
256,192,373794,1,0,0:0:0:0:
402,192,373869,1,0,0:0:0:0:
329,192,373869,1,0,0:0:0:0:
109,192,373869,1,0,0:0:0:0:
256,192,373944,1,0,0:0:0:0:
36,192,373944,1,0,0:0:0:0:
402,192,374019,1,0,0:0:0:0:
475,192,374019,1,0,0:0:0:0:
182,192,374019,1,0,0:0:0:0:
109,192,374019,1,0,0:0:0:0:
36,192,374119,1,0,0:0:0:0:
329,192,374119,1,0,0:0:0:0:
256,192,374119,1,0,0:0:0:0:
402,192,374219,1,0,0:0:0:0:
182,192,374219,1,0,0:0:0:0:
109,192,374219,1,0,0:0:0:0:
329,192,374319,1,0,0:0:0:0:
475,192,374319,1,0,0:0:0:0:
36,192,374319,1,0,0:0:0:0:
256,192,374319,1,0,0:0:0:0:
329,192,374469,1,0,0:0:0:0:
475,192,374469,1,0,0:0:0:0:
36,192,374469,1,0,0:0:0:0:
256,192,374469,1,0,0:0:0:0:
256,192,374619,1,0,0:0:0:0:
475,192,374619,1,0,0:0:0:0:
182,192,374619,1,0,0:0:0:0:
36,192,374619,1,0,0:0:0:0:
402,192,374656,1,0,0:0:0:0:
109,192,374694,1,0,0:0:0:0:
329,192,374731,1,0,0:0:0:0:
182,192,374769,1,0,0:0:0:0:
36,192,374806,1,0,0:0:0:0:
256,192,374844,1,0,0:0:0:0:
402,192,374881,1,0,0:0:0:0:
182,192,374919,1,0,0:0:0:0:
329,192,374919,1,0,0:0:0:0:
475,192,374919,1,0,0:0:0:0:
109,192,374919,1,0,0:0:0:0:
402,192,375069,1,0,0:0:0:0:
36,192,375069,1,0,0:0:0:0:
256,192,375069,1,0,0:0:0:0:
329,192,375219,1,0,0:0:0:0:
475,192,375219,1,0,0:0:0:0:
109,192,375219,1,0,0:0:0:0:
36,192,375219,1,0,0:0:0:0:
256,192,375294,1,0,0:0:0:0:
182,192,375294,1,0,0:0:0:0:
329,192,375369,1,0,0:0:0:0:
109,192,375369,1,0,0:0:0:0:
402,192,375369,1,0,0:0:0:0:
36,192,375444,1,0,0:0:0:0:
182,192,375444,1,0,0:0:0:0:
402,192,375519,1,0,0:0:0:0:
475,192,375519,1,0,0:0:0:0:
109,192,375519,1,0,0:0:0:0:
256,192,375519,1,0,0:0:0:0:
182,192,375594,1,0,0:0:0:0:
329,192,375594,1,0,0:0:0:0:
475,192,375669,1,0,0:0:0:0:
256,192,375669,1,0,0:0:0:0:
36,192,375669,1,0,0:0:0:0:
329,192,375744,1,0,0:0:0:0:
402,192,375744,1,0,0:0:0:0:
109,192,375744,1,0,0:0:0:0:
256,192,375819,1,0,0:0:0:0:
475,192,375819,1,0,0:0:0:0:
182,192,375819,1,0,0:0:0:0:
36,192,375819,1,0,0:0:0:0:
109,192,375894,1,0,0:0:0:0:
402,192,375969,1,0,0:0:0:0:
329,192,375969,1,0,0:0:0:0:
36,192,375969,1,0,0:0:0:0:
182,192,375969,1,0,0:0:0:0:
109,192,376044,1,0,0:0:0:0:
475,192,376119,1,0,0:0:0:0:
256,192,376119,1,0,0:0:0:0:
329,192,376119,1,0,0:0:0:0:
36,192,376119,1,0,0:0:0:0:
182,192,376119,1,0,0:0:0:0:
402,192,376194,1,0,0:0:0:0:
109,192,376269,1,0,0:0:0:0:
182,192,376269,1,0,0:0:0:0:
329,192,376269,1,0,0:0:0:0:
475,192,376269,1,0,0:0:0:0:
402,192,376344,1,0,0:0:0:0:
109,192,376419,1,0,0:0:0:0:
256,192,376419,1,0,0:0:0:0:
36,192,376419,1,0,0:0:0:0:
329,192,376419,1,0,0:0:0:0:
475,192,376419,1,0,0:0:0:0:
182,192,376494,1,0,0:0:0:0:
329,192,376569,1,0,0:0:0:0:
402,192,376569,1,0,0:0:0:0:
109,192,376569,1,0,0:0:0:0:
36,192,376569,1,0,0:0:0:0:
256,192,376644,1,0,0:0:0:0:
402,192,376719,1,0,0:0:0:0:
475,192,376719,1,0,0:0:0:0:
182,192,376719,1,0,0:0:0:0:
109,192,376719,1,0,0:0:0:0:
402,192,376869,1,0,0:0:0:0:
475,192,376869,1,0,0:0:0:0:
182,192,376869,1,0,0:0:0:0:
109,192,376869,1,0,0:0:0:0:
329,192,377019,1,0,0:0:0:0:
475,192,377019,1,0,0:0:0:0:
36,192,377019,1,0,0:0:0:0:
256,192,377019,1,0,0:0:0:0:
109,192,377056,1,0,0:0:0:0:
182,192,377094,1,0,0:0:0:0:
402,192,377131,1,0,0:0:0:0:
329,192,377169,1,0,0:0:0:0:
109,192,377206,1,0,0:0:0:0:
36,192,377244,1,0,0:0:0:0:
256,192,377281,1,0,0:0:0:0:
182,192,377319,1,0,0:0:0:0:
329,192,377319,1,0,0:0:0:0:
402,192,377319,1,0,0:0:0:0:
475,192,377319,1,0,0:0:0:0:
256,192,377469,1,0,0:0:0:0:
36,192,377469,1,0,0:0:0:0:
109,192,377469,1,0,0:0:0:0:
402,192,377619,1,0,0:0:0:0:
475,192,377619,1,0,0:0:0:0:
182,192,377619,1,0,0:0:0:0:
36,192,377619,1,0,0:0:0:0:
329,192,377694,1,0,0:0:0:0:
256,192,377694,1,0,0:0:0:0:
475,192,377769,1,0,0:0:0:0:
182,192,377769,1,0,0:0:0:0:
109,192,377769,1,0,0:0:0:0:
329,192,377844,1,0,0:0:0:0:
402,192,377844,1,0,0:0:0:0:
256,192,377919,1,0,0:0:0:0:
475,192,377919,1,0,0:0:0:0:
36,192,377919,1,0,0:0:0:0:
109,192,377919,1,0,0:0:0:0:
329,192,377994,1,0,0:0:0:0:
182,192,377994,1,0,0:0:0:0:
36,192,378069,1,0,0:0:0:0:
402,192,378069,1,0,0:0:0:0:
256,192,378069,1,0,0:0:0:0:
182,192,378144,1,0,0:0:0:0:
109,192,378144,1,0,0:0:0:0:
256,192,378219,1,0,0:0:0:0:
402,192,378219,1,0,0:0:0:0:
329,192,378219,1,0,0:0:0:0:
475,192,378219,1,0,0:0:0:0:
109,192,378294,1,0,0:0:0:0:
36,192,378294,1,0,0:0:0:0:
475,192,378369,1,0,0:0:0:0:
329,192,378369,1,0,0:0:0:0:
182,192,378369,1,0,0:0:0:0:
109,192,378444,1,0,0:0:0:0:
256,192,378444,1,0,0:0:0:0:
402,192,378519,1,0,0:0:0:0:
475,192,378519,1,0,0:0:0:0:
36,192,378519,1,0,0:0:0:0:
182,192,378519,1,0,0:0:0:0:
256,192,378594,1,0,0:0:0:0:
329,192,378594,1,0,0:0:0:0:
402,192,378669,1,0,0:0:0:0:
36,192,378669,1,0,0:0:0:0:
109,192,378669,1,0,0:0:0:0:
329,192,378744,1,0,0:0:0:0:
182,192,378744,1,0,0:0:0:0:
109,192,378819,1,0,0:0:0:0:
402,192,378819,1,0,0:0:0:0:
475,192,378819,1,0,0:0:0:0:
256,192,378819,1,0,0:0:0:0:
329,192,378919,1,0,0:0:0:0:
182,192,378919,1,0,0:0:0:0:
36,192,378919,1,0,0:0:0:0:
402,192,379019,1,0,0:0:0:0:
109,192,379019,1,0,0:0:0:0:
256,192,379019,1,0,0:0:0:0:
182,192,379119,1,0,0:0:0:0:
36,192,379119,1,0,0:0:0:0:
475,192,379119,1,0,0:0:0:0:
329,192,379119,1,0,0:0:0:0:
109,192,379269,1,0,0:0:0:0:
402,192,379269,1,0,0:0:0:0:
329,192,379269,1,0,0:0:0:0:
182,192,379269,1,0,0:0:0:0:
36,192,379419,1,0,0:0:0:0:
109,192,379419,1,0,0:0:0:0:
475,192,379419,1,0,0:0:0:0:
256,192,379419,1,0,0:0:0:0:
329,192,379456,1,0,0:0:0:0:
182,192,379494,1,0,0:0:0:0:
402,192,379531,1,0,0:0:0:0:
256,192,379569,1,0,0:0:0:0:
109,192,379606,1,0,0:0:0:0:
36,192,379644,1,0,0:0:0:0:
182,192,379681,1,0,0:0:0:0:
109,192,379719,1,0,0:0:0:0:
256,192,379719,1,0,0:0:0:0:
475,192,379719,1,0,0:0:0:0:
402,192,379719,1,0,0:0:0:0:
329,192,379869,1,0,0:0:0:0:
402,192,379869,1,0,0:0:0:0:
182,192,379869,1,0,0:0:0:0:
36,192,379869,1,0,0:0:0:0:
329,192,380019,1,0,0:0:0:0:
475,192,380019,1,0,0:0:0:0:
256,192,380019,1,0,0:0:0:0:
109,192,380019,1,0,0:0:0:0:
36,192,380019,1,0,0:0:0:0:
402,192,380169,1,0,0:0:0:0:
182,192,380169,1,0,0:0:0:0:
475,192,380244,1,0,0:0:0:0:
256,192,380244,1,0,0:0:0:0:
109,192,380244,1,0,0:0:0:0:
402,192,380319,1,0,0:0:0:0:
36,192,380319,1,0,0:0:0:0:
182,192,380319,1,0,0:0:0:0:
329,192,380319,1,0,0:0:0:0:
329,192,380469,1,0,0:0:0:0:
475,192,380469,1,0,0:0:0:0:
256,192,380469,1,0,0:0:0:0:
109,192,380469,1,0,0:0:0:0:
36,192,380469,1,0,0:0:0:0:
475,192,380619,1,0,0:0:0:0:
402,192,380619,1,0,0:0:0:0:
182,192,380619,1,0,0:0:0:0:
36,192,380694,1,0,0:0:0:0:
109,192,380694,1,0,0:0:0:0:
475,192,380769,1,0,0:0:0:0:
402,192,380769,1,0,0:0:0:0:
182,192,380769,1,0,0:0:0:0:
36,192,380844,1,0,0:0:0:0:
109,192,380844,1,0,0:0:0:0:
475,192,380919,1,0,0:0:0:0:
329,192,380919,1,0,0:0:0:0:
256,192,380919,1,0,0:0:0:0:
109,192,380994,1,0,0:0:0:0:
182,192,380994,1,0,0:0:0:0:
329,192,381069,1,0,0:0:0:0:
256,192,381069,1,0,0:0:0:0:
475,192,381069,1,0,0:0:0:0:
182,192,381144,1,0,0:0:0:0:
402,192,381219,1,0,0:0:0:0:
475,192,381219,1,0,0:0:0:0:
109,192,381219,1,0,0:0:0:0:
36,192,381219,1,0,0:0:0:0:
329,192,381294,1,0,0:0:0:0:
256,192,381294,1,0,0:0:0:0:
182,192,381294,1,0,0:0:0:0:
402,192,381369,1,0,0:0:0:0:
475,192,381369,1,0,0:0:0:0:
109,192,381369,1,0,0:0:0:0:
36,192,381369,1,0,0:0:0:0:
329,192,381444,1,0,0:0:0:0:
256,192,381444,1,0,0:0:0:0:
182,192,381444,1,0,0:0:0:0:
402,192,381519,1,0,0:0:0:0:
475,192,381519,1,0,0:0:0:0:
109,192,381519,1,0,0:0:0:0:
36,192,381519,1,0,0:0:0:0:
475,192,381819,1,0,0:0:0:0:
256,192,381819,1,0,0:0:0:0:
402,192,381819,1,0,0:0:0:0:
36,192,381819,1,0,0:0:0:0:
109,192,381819,1,0,0:0:0:0:
329,192,381894,1,0,0:0:0:0:
182,192,381894,1,0,0:0:0:0:
475,192,381969,1,0,0:0:0:0:
256,192,381969,1,0,0:0:0:0:
402,192,381969,1,0,0:0:0:0:
109,192,381969,1,0,0:0:0:0:
36,192,381969,1,0,0:0:0:0:
402,192,382119,1,0,0:0:0:0:
329,192,382119,1,0,0:0:0:0:
109,192,382119,1,0,0:0:0:0:
182,192,382119,1,0,0:0:0:0:
36,192,382119,1,0,0:0:0:0:
402,192,382269,1,0,0:0:0:0:
475,192,382269,1,0,0:0:0:0:
256,192,382269,1,0,0:0:0:0:
182,192,382269,1,0,0:0:0:0:
109,192,382269,1,0,0:0:0:0:
402,192,382419,1,0,0:0:0:0:
475,192,382419,1,0,0:0:0:0:
329,192,382419,1,0,0:0:0:0:
36,192,382419,1,0,0:0:0:0:
182,192,382419,1,0,0:0:0:0:
256,192,382494,1,0,0:0:0:0:
329,192,382569,1,0,0:0:0:0:
182,192,382569,1,0,0:0:0:0:
109,192,382569,1,0,0:0:0:0:
36,192,382569,1,0,0:0:0:0:
402,192,382644,1,0,0:0:0:0:
475,192,382719,1,0,0:0:0:0:
36,192,382719,1,0,0:0:0:0:
329,192,382719,1,0,0:0:0:0:
256,192,382719,1,0,0:0:0:0:
109,192,382719,1,0,0:0:0:0:
402,192,382869,1,0,0:0:0:0:
109,192,382869,1,0,0:0:0:0:
182,192,382869,1,0,0:0:0:0:
256,192,382869,1,0,0:0:0:0:
475,192,383019,1,0,0:0:0:0:
182,192,383019,1,0,0:0:0:0:
402,192,383019,1,0,0:0:0:0:
36,192,383019,1,0,0:0:0:0:
329,192,383019,1,0,0:0:0:0:
256,192,383094,1,0,0:0:0:0:
109,192,383094,1,0,0:0:0:0:
475,192,383169,1,0,0:0:0:0:
329,192,383169,1,0,0:0:0:0:
402,192,383169,1,0,0:0:0:0:
182,192,383169,1,0,0:0:0:0:
36,192,383169,1,0,0:0:0:0:
329,192,383319,1,0,0:0:0:0:
475,192,383319,1,0,0:0:0:0:
256,192,383319,1,0,0:0:0:0:
182,192,383319,1,0,0:0:0:0:
109,192,383319,1,0,0:0:0:0:
402,192,383469,1,0,0:0:0:0:
329,192,383469,1,0,0:0:0:0:
256,192,383469,1,0,0:0:0:0:
36,192,383469,1,0,0:0:0:0:
109,192,383469,1,0,0:0:0:0:
402,192,383619,1,0,0:0:0:0:
475,192,383619,1,0,0:0:0:0:
256,192,383619,1,0,0:0:0:0:
36,192,383619,1,0,0:0:0:0:
182,192,383619,1,0,0:0:0:0:
109,192,383694,1,0,0:0:0:0:
329,192,383769,1,0,0:0:0:0:
182,192,383769,1,0,0:0:0:0:
256,192,383769,1,0,0:0:0:0:
475,192,383769,1,0,0:0:0:0:
402,192,383844,1,0,0:0:0:0:
475,192,383919,1,0,0:0:0:0:
36,192,383919,1,0,0:0:0:0:
329,192,383919,1,0,0:0:0:0:
182,192,383919,1,0,0:0:0:0:
109,192,383919,1,0,0:0:0:0:
109,192,384069,1,0,0:0:0:0:
329,192,384069,1,0,0:0:0:0:
402,192,384069,1,0,0:0:0:0:
182,192,384069,1,0,0:0:0:0:
256,192,384069,1,0,0:0:0:0:
475,192,384219,1,0,0:0:0:0:
182,192,384219,1,0,0:0:0:0:
329,192,384219,1,0,0:0:0:0:
36,192,384219,1,0,0:0:0:0:
109,192,384219,1,0,0:0:0:0:
402,192,384294,1,0,0:0:0:0:
256,192,384294,1,0,0:0:0:0:
475,192,384369,1,0,0:0:0:0:
182,192,384369,1,0,0:0:0:0:
329,192,384369,1,0,0:0:0:0:
109,192,384369,1,0,0:0:0:0:
36,192,384369,1,0,0:0:0:0:
402,192,384519,1,0,0:0:0:0:
109,192,384519,1,0,0:0:0:0:
475,192,384519,1,0,0:0:0:0:
256,192,384519,1,0,0:0:0:0:
36,192,384519,1,0,0:0:0:0:
402,192,384669,1,0,0:0:0:0:
475,192,384669,1,0,0:0:0:0:
329,192,384669,1,0,0:0:0:0:
182,192,384669,1,0,0:0:0:0:
36,192,384669,1,0,0:0:0:0:
402,192,384819,1,0,0:0:0:0:
475,192,384819,1,0,0:0:0:0:
329,192,384819,1,0,0:0:0:0:
109,192,384819,1,0,0:0:0:0:
256,192,384819,1,0,0:0:0:0:
182,192,384894,1,0,0:0:0:0:
329,192,384969,1,0,0:0:0:0:
402,192,384969,1,0,0:0:0:0:
109,192,384969,1,0,0:0:0:0:
36,192,384969,1,0,0:0:0:0:
256,192,385044,1,0,0:0:0:0:
475,192,385119,1,0,0:0:0:0:
36,192,385119,1,0,0:0:0:0:
329,192,385119,1,0,0:0:0:0:
182,192,385119,1,0,0:0:0:0:
109,192,385119,1,0,0:0:0:0:
402,192,385269,1,0,0:0:0:0:
109,192,385269,1,0,0:0:0:0:
182,192,385269,1,0,0:0:0:0:
256,192,385269,1,0,0:0:0:0:
36,192,385419,1,0,0:0:0:0:
109,192,385419,1,0,0:0:0:0:
402,192,385419,1,0,0:0:0:0:
475,192,385419,1,0,0:0:0:0:
256,192,385419,1,0,0:0:0:0:
182,192,385494,1,0,0:0:0:0:
329,192,385494,1,0,0:0:0:0:
109,192,385569,1,0,0:0:0:0:
36,192,385569,1,0,0:0:0:0:
402,192,385569,1,0,0:0:0:0:
475,192,385569,1,0,0:0:0:0:
256,192,385569,1,0,0:0:0:0:
475,192,385719,1,0,0:0:0:0:
36,192,385719,1,0,0:0:0:0:
256,192,385719,1,0,0:0:0:0:
182,192,385719,1,0,0:0:0:0:
329,192,385719,1,0,0:0:0:0:
182,192,385869,1,0,0:0:0:0:
109,192,385869,1,0,0:0:0:0:
36,192,385869,1,0,0:0:0:0:
329,192,385869,1,0,0:0:0:0:
402,192,385869,1,0,0:0:0:0:
109,192,386019,1,0,0:0:0:0:
182,192,386019,1,0,0:0:0:0:
329,192,386019,1,0,0:0:0:0:
402,192,386019,1,0,0:0:0:0:
475,192,386019,1,0,0:0:0:0:
256,192,386094,1,0,0:0:0:0:
475,192,386169,1,0,0:0:0:0:
36,192,386169,1,0,0:0:0:0:
329,192,386169,1,0,0:0:0:0:
182,192,386169,1,0,0:0:0:0:
256,192,386244,1,0,0:0:0:0:
402,192,386244,1,0,0:0:0:0:
109,192,386244,1,0,0:0:0:0:
475,192,386319,1,0,0:0:0:0:
329,192,386319,1,0,0:0:0:0:
182,192,386319,1,0,0:0:0:0:
36,192,386319,1,0,0:0:0:0:
256,192,386469,1,0,0:0:0:0:
402,192,386469,1,0,0:0:0:0:
182,192,386469,1,0,0:0:0:0:
329,192,386469,1,0,0:0:0:0:
109,192,386469,1,0,0:0:0:0:
329,192,386619,1,0,0:0:0:0:
475,192,386619,1,0,0:0:0:0:
182,192,386619,1,0,0:0:0:0:
36,192,386619,1,0,0:0:0:0:
109,192,386619,1,0,0:0:0:0:
402,192,386694,1,0,0:0:0:0:
256,192,386694,1,0,0:0:0:0:
329,192,386769,1,0,0:0:0:0:
182,192,386769,1,0,0:0:0:0:
109,192,386844,1,0,0:0:0:0:
182,192,386919,1,0,0:0:0:0:
36,192,386919,1,0,0:0:0:0:
475,192,386919,1,0,0:0:0:0:
402,192,386937,1,0,0:0:0:0:
329,192,386956,1,0,0:0:0:0:
256,192,386975,1,0,0:0:0:0:
109,192,387069,1,0,0:0:0:0:
36,192,387069,1,0,0:0:0:0:
182,192,387069,1,0,0:0:0:0:
256,192,387219,1,0,0:0:0:0:
329,192,387237,1,0,0:0:0:0:
402,192,387256,1,0,0:0:0:0:
475,192,387275,1,0,0:0:0:0:
182,192,387369,1,0,0:0:0:0:
36,192,387369,1,0,0:0:0:0:
109,192,387369,1,0,0:0:0:0:
475,192,387519,1,0,0:0:0:0:
402,192,387537,1,0,0:0:0:0:
329,192,387556,1,0,0:0:0:0:
256,192,387575,1,0,0:0:0:0:
36,192,387669,1,0,0:0:0:0:
109,192,387669,1,0,0:0:0:0:
182,192,387669,1,0,0:0:0:0:
475,192,387819,1,0,0:0:0:0:
182,192,387819,1,0,0:0:0:0:
402,192,387819,1,0,0:0:0:0:
36,192,387819,1,0,0:0:0:0:
329,192,387819,1,0,0:0:0:0:
256,192,387894,1,0,0:0:0:0:
109,192,387894,1,0,0:0:0:0:
329,192,387969,1,0,0:0:0:0:
182,192,387969,1,0,0:0:0:0:
402,192,388044,1,0,0:0:0:0:
36,192,388119,1,0,0:0:0:0:
109,192,388137,1,0,0:0:0:0:
182,192,388156,1,0,0:0:0:0:
256,192,388175,1,0,0:0:0:0:
475,192,388269,1,0,0:0:0:0:
402,192,388269,1,0,0:0:0:0:
329,192,388269,1,0,0:0:0:0:
475,192,388419,1,0,0:0:0:0:
402,192,388419,1,0,0:0:0:0:
256,192,388419,1,0,0:0:0:0:
182,192,388437,1,0,0:0:0:0:
109,192,388456,1,0,0:0:0:0:
36,192,388475,1,0,0:0:0:0:
329,192,388494,1,0,0:0:0:0:
256,192,388569,1,0,0:0:0:0:
329,192,388644,1,0,0:0:0:0:
475,192,388719,1,0,0:0:0:0:
402,192,388719,1,0,0:0:0:0:
36,192,388719,1,0,0:0:0:0:
109,192,388737,1,0,0:0:0:0:
182,192,388756,1,0,0:0:0:0:
256,192,388775,1,0,0:0:0:0:
329,192,388794,1,0,0:0:0:0:
402,192,388869,1,0,0:0:0:0:
475,192,388869,1,0,0:0:0:0:
36,192,388869,1,0,0:0:0:0:
109,192,388869,1,0,0:0:0:0:
256,192,388944,1,0,0:0:0:0:
182,192,388944,1,0,0:0:0:0:
109,192,389019,1,0,0:0:0:0:
36,192,389019,1,0,0:0:0:0:
475,192,389019,1,0,0:0:0:0:
329,192,389019,1,0,0:0:0:0:
402,192,389019,1,0,0:0:0:0:
182,192,389094,1,0,0:0:0:0:
256,192,389094,1,0,0:0:0:0:
329,192,389169,1,0,0:0:0:0:
475,192,389169,1,0,0:0:0:0:
402,192,389169,1,0,0:0:0:0:
182,192,389244,1,0,0:0:0:0:
109,192,389244,1,0,0:0:0:0:
329,192,389319,1,0,0:0:0:0:
402,192,389319,1,0,0:0:0:0:
36,192,389319,1,0,0:0:0:0:
256,192,389319,1,0,0:0:0:0:
182,192,389394,1,0,0:0:0:0:
109,192,389394,1,0,0:0:0:0:
36,192,389469,1,0,0:0:0:0:
402,192,389469,1,0,0:0:0:0:
256,192,389469,1,0,0:0:0:0:
475,192,389469,1,0,0:0:0:0:
182,192,389544,1,0,0:0:0:0:
329,192,389544,1,0,0:0:0:0:
256,192,389619,1,0,0:0:0:0:
36,192,389619,1,0,0:0:0:0:
109,192,389619,1,0,0:0:0:0:
475,192,389694,1,0,0:0:0:0:
402,192,389694,1,0,0:0:0:0:
329,192,389769,1,0,0:0:0:0:
109,192,389769,1,0,0:0:0:0:
182,192,389769,1,0,0:0:0:0:
402,192,389844,1,0,0:0:0:0:
36,192,389844,1,0,0:0:0:0:
256,192,389844,1,0,0:0:0:0:
182,192,389919,1,0,0:0:0:0:
109,192,389919,1,0,0:0:0:0:
475,192,389919,1,0,0:0:0:0:
329,192,389919,1,0,0:0:0:0:
256,192,389994,1,0,0:0:0:0:
329,192,390069,1,0,0:0:0:0:
402,192,390069,1,0,0:0:0:0:
182,192,390069,1,0,0:0:0:0:
36,192,390069,1,0,0:0:0:0:
256,192,390144,1,0,0:0:0:0:
402,192,390219,1,0,0:0:0:0:
475,192,390219,1,0,0:0:0:0:
109,192,390219,1,0,0:0:0:0:
36,192,390219,1,0,0:0:0:0:
402,192,390369,1,0,0:0:0:0:
109,192,390369,1,0,0:0:0:0:
329,192,390519,1,0,0:0:0:0:
182,192,390519,1,0,0:0:0:0:
109,192,390519,1,0,0:0:0:0:
402,192,390519,1,0,0:0:0:0:
402,192,390669,1,0,0:0:0:0:
109,192,390669,1,0,0:0:0:0:
329,192,390744,1,0,0:0:0:0:
182,192,390744,1,0,0:0:0:0:
402,192,390819,1,0,0:0:0:0:
475,192,390819,1,0,0:0:0:0:
256,192,390819,1,0,0:0:0:0:
36,192,390819,1,0,0:0:0:0:
109,192,390819,1,0,0:0:0:0:
329,192,390894,1,0,0:0:0:0:
182,192,390894,1,0,0:0:0:0:
402,192,390969,1,0,0:0:0:0:
475,192,390969,1,0,0:0:0:0:
256,192,390969,1,0,0:0:0:0:
109,192,390969,1,0,0:0:0:0:
36,192,390969,1,0,0:0:0:0:
402,192,391119,1,0,0:0:0:0:
475,192,391119,1,0,0:0:0:0:
256,192,391119,1,0,0:0:0:0:
109,192,391119,1,0,0:0:0:0:
36,192,391119,1,0,0:0:0:0:
402,192,391419,1,0,0:0:0:0:
475,192,391419,1,0,0:0:0:0:
256,192,391419,1,0,0:0:0:0:
329,192,391419,1,0,0:0:0:0:
36,192,391419,1,0,0:0:0:0:
109,192,391419,1,0,0:0:0:0:
182,192,391419,1,0,0:0:0:0:
475,192,392019,1,0,0:0:0:0:
109,192,392019,1,0,0:0:0:0:
402,192,392019,1,0,0:0:0:0:
36,192,392019,1,0,0:0:0:0:
182,192,392019,1,0,0:0:0:0:
329,192,392019,1,0,0:0:0:0:
329,192,392169,1,0,0:0:0:0:
475,192,392169,1,0,0:0:0:0:
182,192,392169,1,0,0:0:0:0:
36,192,392169,1,0,0:0:0:0:
402,192,392244,1,0,0:0:0:0:
109,192,392244,1,0,0:0:0:0:
329,192,392319,1,0,0:0:0:0:
475,192,392319,1,0,0:0:0:0:
36,192,392319,1,0,0:0:0:0:
182,192,392319,1,0,0:0:0:0:
182,192,392469,1,0,0:0:0:0:
329,192,392469,1,0,0:0:0:0:
402,192,392469,1,0,0:0:0:0:
109,192,392469,1,0,0:0:0:0:
256,192,392469,1,0,0:0:0:0:
475,192,392619,1,0,0:0:0:0:
256,192,392619,1,0,0:0:0:0:
402,192,392619,1,0,0:0:0:0:
36,192,392619,1,0,0:0:0:0:
109,192,392619,1,0,0:0:0:0:
329,192,392769,1,0,0:0:0:0:
475,192,392769,1,0,0:0:0:0:
182,192,392769,1,0,0:0:0:0:
36,192,392769,1,0,0:0:0:0:
402,192,392919,1,0,0:0:0:0:
329,192,392919,1,0,0:0:0:0:
182,192,392919,1,0,0:0:0:0:
109,192,392919,1,0,0:0:0:0:
256,192,392919,1,0,0:0:0:0:
402,192,393069,1,0,0:0:0:0:
475,192,393069,1,0,0:0:0:0:
256,192,393069,1,0,0:0:0:0:
36,192,393069,1,0,0:0:0:0:
109,192,393069,1,0,0:0:0:0:
402,192,393219,1,0,0:0:0:0:
256,192,393219,1,0,0:0:0:0:
329,192,393219,1,0,0:0:0:0:
182,192,393219,1,0,0:0:0:0:
109,192,393219,1,0,0:0:0:0:
475,192,393369,1,0,0:0:0:0:
36,192,393369,1,0,0:0:0:0:
329,192,393369,1,0,0:0:0:0:
109,192,393369,1,0,0:0:0:0:
182,192,393369,1,0,0:0:0:0:
402,192,393369,1,0,0:0:0:0:
402,192,393519,1,0,0:0:0:0:
182,192,393519,1,0,0:0:0:0:
256,192,393519,1,0,0:0:0:0:
475,192,393519,1,0,0:0:0:0:
36,192,393519,1,0,0:0:0:0:
109,192,393519,1,0,0:0:0:0:
329,192,393519,1,0,0:0:0:0:
475,192,393819,1,0,0:0:0:0:
402,192,393819,1,0,0:0:0:0:
329,192,393819,1,0,0:0:0:0:
256,192,393819,1,0,0:0:0:0:
182,192,393819,1,0,0:0:0:0:
36,192,393819,1,0,0:0:0:0:
109,192,393819,1,0,0:0:0:0:
475,192,394419,1,0,0:0:0:0:
256,192,394419,1,0,0:0:0:0:
402,192,394419,1,0,0:0:0:0:
36,192,394419,1,0,0:0:0:0:
109,192,394419,1,0,0:0:0:0:
402,192,394569,1,0,0:0:0:0:
475,192,394569,1,0,0:0:0:0:
36,192,394569,1,0,0:0:0:0:
109,192,394569,1,0,0:0:0:0:
329,192,394644,1,0,0:0:0:0:
182,192,394644,1,0,0:0:0:0:
36,192,394719,1,0,0:0:0:0:
256,192,394719,1,0,0:0:0:0:
475,192,394719,1,0,0:0:0:0:
109,192,394719,1,0,0:0:0:0:
402,192,394719,1,0,0:0:0:0:
475,192,394869,1,0,0:0:0:0:
256,192,394869,1,0,0:0:0:0:
329,192,394869,1,0,0:0:0:0:
182,192,394869,1,0,0:0:0:0:
109,192,394869,1,0,0:0:0:0:
109,192,395019,1,0,0:0:0:0:
475,192,395019,1,0,0:0:0:0:
329,192,395019,1,0,0:0:0:0:
36,192,395019,1,0,0:0:0:0:
182,192,395019,1,0,0:0:0:0:
402,192,395019,1,0,0:0:0:0:
329,192,395169,1,0,0:0:0:0:
402,192,395169,1,0,0:0:0:0:
182,192,395169,1,0,0:0:0:0:
36,192,395169,1,0,0:0:0:0:
475,192,395244,1,0,0:0:0:0:
109,192,395244,1,0,0:0:0:0:
256,192,395244,1,0,0:0:0:0:
182,192,395319,1,0,0:0:0:0:
36,192,395319,1,0,0:0:0:0:
329,192,395319,1,0,0:0:0:0:
402,192,395319,1,0,0:0:0:0:
402,192,395469,1,0,0:0:0:0:
475,192,395469,1,0,0:0:0:0:
36,192,395469,1,0,0:0:0:0:
256,192,395469,1,0,0:0:0:0:
109,192,395469,1,0,0:0:0:0:
475,192,395619,1,0,0:0:0:0:
109,192,395619,1,0,0:0:0:0:
182,192,395619,1,0,0:0:0:0:
329,192,395619,1,0,0:0:0:0:
402,192,395694,1,0,0:0:0:0:
256,192,395694,1,0,0:0:0:0:
36,192,395694,1,0,0:0:0:0:
329,192,395769,1,0,0:0:0:0:
475,192,395769,1,0,0:0:0:0:
182,192,395769,1,0,0:0:0:0:
109,192,395769,1,0,0:0:0:0:
329,192,395919,1,0,0:0:0:0:
402,192,395919,1,0,0:0:0:0:
475,192,395919,1,0,0:0:0:0:
182,192,395919,1,0,0:0:0:0:
36,192,395919,1,0,0:0:0:0:
109,192,395919,1,0,0:0:0:0:
256,192,395919,1,0,0:0:0:0:
402,192,396219,1,0,0:0:0:0:
475,192,396219,1,0,0:0:0:0:
256,192,396219,1,0,0:0:0:0:
329,192,396219,1,0,0:0:0:0:
36,192,396219,1,0,0:0:0:0:
109,192,396219,1,0,0:0:0:0:
182,192,396219,1,0,0:0:0:0:
329,192,396519,1,0,0:0:0:0:
402,192,396519,1,0,0:0:0:0:
475,192,396519,1,0,0:0:0:0:
256,192,396519,1,0,0:0:0:0:
36,192,396519,1,0,0:0:0:0:
109,192,396519,1,0,0:0:0:0:
182,192,396519,1,0,0:0:0:0:
402,192,396819,1,0,0:0:0:0:
475,192,396819,1,0,0:0:0:0:
256,192,396819,1,0,0:0:0:0:
109,192,396819,1,0,0:0:0:0:
36,192,396819,1,0,0:0:0:0:
329,192,396969,1,0,0:0:0:0:
402,192,396969,1,0,0:0:0:0:
182,192,396969,1,0,0:0:0:0:
109,192,396969,1,0,0:0:0:0:
475,192,397044,1,0,0:0:0:0:
36,192,397044,1,0,0:0:0:0:
256,192,397044,1,0,0:0:0:0:
329,192,397119,1,0,0:0:0:0:
402,192,397119,1,0,0:0:0:0:
109,192,397119,1,0,0:0:0:0:
182,192,397119,1,0,0:0:0:0:
329,192,397269,1,0,0:0:0:0:
475,192,397269,1,0,0:0:0:0:
256,192,397269,1,0,0:0:0:0:
36,192,397269,1,0,0:0:0:0:
109,192,397269,1,0,0:0:0:0:
402,192,397419,1,0,0:0:0:0:
256,192,397419,1,0,0:0:0:0:
475,192,397419,1,0,0:0:0:0:
182,192,397419,1,0,0:0:0:0:
109,192,397419,1,0,0:0:0:0:
36,192,397419,1,0,0:0:0:0:
329,192,397569,1,0,0:0:0:0:
475,192,397569,1,0,0:0:0:0:
182,192,397569,1,0,0:0:0:0:
36,192,397569,1,0,0:0:0:0:
402,192,397644,1,0,0:0:0:0:
256,192,397644,1,0,0:0:0:0:
109,192,397644,1,0,0:0:0:0:
329,192,397719,1,0,0:0:0:0:
475,192,397719,1,0,0:0:0:0:
182,192,397719,1,0,0:0:0:0:
36,192,397719,1,0,0:0:0:0:
402,192,397869,1,0,0:0:0:0:
475,192,397869,1,0,0:0:0:0:
256,192,397869,1,0,0:0:0:0:
109,192,397869,1,0,0:0:0:0:
36,192,397869,1,0,0:0:0:0:
109,192,398019,1,0,0:0:0:0:
256,192,398019,1,0,0:0:0:0:
402,192,398019,1,0,0:0:0:0:
182,192,398019,1,0,0:0:0:0:
329,192,398019,1,0,0:0:0:0:
329,192,398169,1,0,0:0:0:0:
475,192,398169,1,0,0:0:0:0:
256,192,398169,1,0,0:0:0:0:
36,192,398169,1,0,0:0:0:0:
182,192,398169,1,0,0:0:0:0:
329,192,398319,1,0,0:0:0:0:
402,192,398319,1,0,0:0:0:0:
475,192,398319,1,0,0:0:0:0:
109,192,398319,1,0,0:0:0:0:
36,192,398319,1,0,0:0:0:0:
182,192,398319,1,0,0:0:0:0:
329,192,398469,1,0,0:0:0:0:
475,192,398469,1,0,0:0:0:0:
402,192,398469,1,0,0:0:0:0:
109,192,398469,1,0,0:0:0:0:
182,192,398469,1,0,0:0:0:0:
36,192,398469,1,0,0:0:0:0:
329,192,398619,1,0,0:0:0:0:
475,192,398619,1,0,0:0:0:0:
109,192,398619,1,0,0:0:0:0:
402,192,398619,1,0,0:0:0:0:
36,192,398619,1,0,0:0:0:0:
182,192,398619,1,0,0:0:0:0:
256,192,398619,1,0,0:0:0:0:
109,192,398919,1,0,0:0:0:0:
256,192,399069,1,0,0:0:0:0:
329,192,399069,1,0,0:0:0:0:
402,192,399069,1,0,0:0:0:0:
36,192,399069,1,0,0:0:0:0:
109,192,399069,1,0,0:0:0:0:
182,192,399069,1,0,0:0:0:0:
182,192,399369,1,0,0:0:0:0:
329,192,399519,1,0,0:0:0:0:
402,192,399519,1,0,0:0:0:0:
475,192,399519,1,0,0:0:0:0:
109,192,399519,1,0,0:0:0:0:
36,192,399519,1,0,0:0:0:0:
182,192,399519,1,0,0:0:0:0:
256,192,399819,1,0,0:0:0:0:
402,192,399969,1,0,0:0:0:0:
329,192,399969,1,0,0:0:0:0:
475,192,399969,1,0,0:0:0:0:
256,192,399969,1,0,0:0:0:0:
182,192,399969,1,0,0:0:0:0:
36,192,399969,1,0,0:0:0:0:
329,192,400269,1,0,0:0:0:0:
475,192,400419,1,0,0:0:0:0:
256,192,400419,1,0,0:0:0:0:
329,192,400419,1,0,0:0:0:0:
109,192,400419,1,0,0:0:0:0:
36,192,400419,1,0,0:0:0:0:
182,192,400419,1,0,0:0:0:0:
182,192,400569,1,0,0:0:0:0:
475,192,400569,1,0,0:0:0:0:
402,192,400569,1,0,0:0:0:0:
109,192,400719,1,0,0:0:0:0:
256,192,400719,1,0,0:0:0:0:
36,192,400719,1,0,0:0:0:0:
402,192,400719,1,0,0:0:0:0:
475,192,400719,1,0,0:0:0:0:
36,192,400869,1,0,0:0:0:0:
256,192,400869,1,0,0:0:0:0:
109,192,400869,1,0,0:0:0:0:
402,192,400869,1,0,0:0:0:0:
475,192,400869,1,0,0:0:0:0:
109,192,401019,1,0,0:0:0:0:
402,192,401019,1,0,0:0:0:0:
36,192,401019,1,0,0:0:0:0:
475,192,401019,1,0,0:0:0:0:
329,192,401056,1,0,0:0:0:0:
256,192,401094,1,0,0:0:0:0:
182,192,401131,1,0,0:0:0:0:
109,192,401169,1,0,0:0:0:0:
402,192,401206,1,0,0:0:0:0:
329,192,401244,1,0,0:0:0:0:
256,192,401281,1,0,0:0:0:0:
475,192,401319,1,0,0:0:0:0:
36,192,401319,1,0,0:0:0:0:
182,192,401319,1,0,0:0:0:0:
329,192,401394,1,0,0:0:0:0:
36,192,401469,1,0,0:0:0:0:
109,192,401469,1,0,0:0:0:0:
256,192,401469,1,0,0:0:0:0:
402,192,401469,1,0,0:0:0:0:
475,192,401469,1,0,0:0:0:0:
182,192,401544,1,0,0:0:0:0:
109,192,401619,1,0,0:0:0:0:
329,192,401619,1,0,0:0:0:0:
256,192,401694,1,0,0:0:0:0:
475,192,401769,1,0,0:0:0:0:
402,192,401769,1,0,0:0:0:0:
182,192,401769,1,0,0:0:0:0:
109,192,401769,1,0,0:0:0:0:
36,192,401769,1,0,0:0:0:0:
329,192,401844,1,0,0:0:0:0:
36,192,401919,1,0,0:0:0:0:
182,192,401919,1,0,0:0:0:0:
256,192,401919,1,0,0:0:0:0:
329,192,401994,1,0,0:0:0:0:
256,192,402069,1,0,0:0:0:0:
475,192,402069,1,0,0:0:0:0:
36,192,402069,1,0,0:0:0:0:
402,192,402069,1,0,0:0:0:0:
109,192,402069,1,0,0:0:0:0:
182,192,402144,1,0,0:0:0:0:
475,192,402219,1,0,0:0:0:0:
256,192,402219,1,0,0:0:0:0:
329,192,402219,1,0,0:0:0:0:
109,192,402294,1,0,0:0:0:0:
475,192,402369,1,0,0:0:0:0:
36,192,402369,1,0,0:0:0:0:
402,192,402369,1,0,0:0:0:0:
182,192,402369,1,0,0:0:0:0:
329,192,402369,1,0,0:0:0:0:
256,192,402444,1,0,0:0:0:0:
402,192,402519,1,0,0:0:0:0:
36,192,402519,1,0,0:0:0:0:
109,192,402519,1,0,0:0:0:0:
329,192,402594,1,0,0:0:0:0:
475,192,402669,1,0,0:0:0:0:
402,192,402669,1,0,0:0:0:0:
256,192,402669,1,0,0:0:0:0:
182,192,402669,1,0,0:0:0:0:
109,192,402669,1,0,0:0:0:0:
36,192,402744,1,0,0:0:0:0:
329,192,402819,1,0,0:0:0:0:
182,192,402819,1,0,0:0:0:0:
256,192,402819,1,0,0:0:0:0:
109,192,402894,1,0,0:0:0:0:
36,192,402969,1,0,0:0:0:0:
329,192,402969,1,0,0:0:0:0:
182,192,402969,1,0,0:0:0:0:
402,192,402969,1,0,0:0:0:0:
475,192,402969,1,0,0:0:0:0:
256,192,403044,1,0,0:0:0:0:
402,192,403119,1,0,0:0:0:0:
36,192,403119,1,0,0:0:0:0:
109,192,403119,1,0,0:0:0:0:
329,192,403194,1,0,0:0:0:0:
256,192,403269,1,0,0:0:0:0:
475,192,403269,1,0,0:0:0:0:
36,192,403269,1,0,0:0:0:0:
182,192,403269,1,0,0:0:0:0:
109,192,403269,1,0,0:0:0:0:
402,192,403419,1,0,0:0:0:0:
475,192,403419,1,0,0:0:0:0:
329,192,403419,1,0,0:0:0:0:
182,192,403419,1,0,0:0:0:0:
109,192,403419,1,0,0:0:0:0:
36,192,403494,1,0,0:0:0:0:
402,192,403569,1,0,0:0:0:0:
182,192,403569,1,0,0:0:0:0:
256,192,403569,1,0,0:0:0:0:
109,192,403644,1,0,0:0:0:0:
475,192,403719,1,0,0:0:0:0:
36,192,403719,1,0,0:0:0:0:
329,192,403719,1,0,0:0:0:0:
256,192,403719,1,0,0:0:0:0:
182,192,403794,1,0,0:0:0:0:
329,192,403869,1,0,0:0:0:0:
36,192,403869,1,0,0:0:0:0:
109,192,403869,1,0,0:0:0:0:
402,192,403869,1,0,0:0:0:0:
256,192,403944,1,0,0:0:0:0:
475,192,403944,1,0,0:0:0:0:
329,192,404019,1,0,0:0:0:0:
182,192,404019,1,0,0:0:0:0:
402,192,404094,1,0,0:0:0:0:
36,192,404094,1,0,0:0:0:0:
109,192,404094,1,0,0:0:0:0:
475,192,404169,1,0,0:0:0:0:
182,192,404169,1,0,0:0:0:0:
256,192,404169,1,0,0:0:0:0:
36,192,404244,1,0,0:0:0:0:
329,192,404244,1,0,0:0:0:0:
402,192,404319,1,0,0:0:0:0:
475,192,404319,1,0,0:0:0:0:
109,192,404319,1,0,0:0:0:0:
182,192,404319,1,0,0:0:0:0:
256,192,404394,1,0,0:0:0:0:
475,192,404469,1,0,0:0:0:0:
402,192,404469,1,0,0:0:0:0:
36,192,404469,1,0,0:0:0:0:
182,192,404469,1,0,0:0:0:0:
329,192,404544,1,0,0:0:0:0:
36,192,404619,1,0,0:0:0:0:
402,192,404619,1,0,0:0:0:0:
109,192,404619,1,0,0:0:0:0:
256,192,404619,1,0,0:0:0:0:
182,192,404694,1,0,0:0:0:0:
475,192,404694,1,0,0:0:0:0:
109,192,404769,1,0,0:0:0:0:
329,192,404769,1,0,0:0:0:0:
475,192,404844,1,0,0:0:0:0:
36,192,404844,1,0,0:0:0:0:
256,192,404844,1,0,0:0:0:0:
109,192,404919,1,0,0:0:0:0:
329,192,404919,1,0,0:0:0:0:
402,192,404919,1,0,0:0:0:0:
182,192,404919,1,0,0:0:0:0:
256,192,404994,1,0,0:0:0:0:
402,192,405069,1,0,0:0:0:0:
182,192,405069,1,0,0:0:0:0:
36,192,405069,1,0,0:0:0:0:
475,192,405069,1,0,0:0:0:0:
109,192,405144,1,0,0:0:0:0:
329,192,405144,1,0,0:0:0:0:
36,192,405219,1,0,0:0:0:0:
256,192,405219,1,0,0:0:0:0:
402,192,405219,1,0,0:0:0:0:
475,192,405219,1,0,0:0:0:0:
329,192,405294,1,0,0:0:0:0:
109,192,405294,1,0,0:0:0:0:
256,192,405369,1,0,0:0:0:0:
475,192,405369,1,0,0:0:0:0:
182,192,405369,1,0,0:0:0:0:
402,192,405444,1,0,0:0:0:0:
36,192,405444,1,0,0:0:0:0:
329,192,405519,1,0,0:0:0:0:
475,192,405519,1,0,0:0:0:0:
109,192,405519,1,0,0:0:0:0:
182,192,405519,1,0,0:0:0:0:
256,192,405569,1,0,0:0:0:0:
402,192,405619,1,0,0:0:0:0:
36,192,405669,1,0,0:0:0:0:
182,192,405669,1,0,0:0:0:0:
329,192,405719,1,0,0:0:0:0:
109,192,405769,1,0,0:0:0:0:
36,192,405819,1,0,0:0:0:0:
182,192,405819,1,0,0:0:0:0:
475,192,405819,1,0,0:0:0:0:
256,192,405819,1,0,0:0:0:0:
402,192,405819,1,0,0:0:0:0:
329,192,405894,1,0,0:0:0:0:
475,192,405969,1,0,0:0:0:0:
402,192,405969,1,0,0:0:0:0:
256,192,405969,1,0,0:0:0:0:
109,192,405969,1,0,0:0:0:0:
182,192,406044,1,0,0:0:0:0:
256,192,406119,1,0,0:0:0:0:
475,192,406119,1,0,0:0:0:0:
36,192,406119,1,0,0:0:0:0:
329,192,406119,1,0,0:0:0:0:
109,192,406119,1,0,0:0:0:0:
402,192,406194,1,0,0:0:0:0:
182,192,406269,1,0,0:0:0:0:
36,192,406269,1,0,0:0:0:0:
256,192,406269,1,0,0:0:0:0:
329,192,406269,1,0,0:0:0:0:
109,192,406344,1,0,0:0:0:0:
475,192,406419,1,0,0:0:0:0:
36,192,406419,1,0,0:0:0:0:
402,192,406419,1,0,0:0:0:0:
329,192,406419,1,0,0:0:0:0:
182,192,406419,1,0,0:0:0:0:
256,192,406494,1,0,0:0:0:0:
475,192,406569,1,0,0:0:0:0:
182,192,406569,1,0,0:0:0:0:
329,192,406569,1,0,0:0:0:0:
109,192,406569,1,0,0:0:0:0:
256,192,406644,1,0,0:0:0:0:
402,192,406719,1,0,0:0:0:0:
36,192,406719,1,0,0:0:0:0:
329,192,406869,1,0,0:0:0:0:
182,192,406944,1,0,0:0:0:0:
402,192,407019,1,0,0:0:0:0:
475,192,407019,1,0,0:0:0:0:
256,192,407019,1,0,0:0:0:0:
109,192,407019,1,0,0:0:0:0:
36,192,407019,1,0,0:0:0:0:
329,192,407094,1,0,0:0:0:0:
402,192,407169,1,0,0:0:0:0:
256,192,407169,1,0,0:0:0:0:
182,192,407169,1,0,0:0:0:0:
36,192,407169,1,0,0:0:0:0:
109,192,407244,1,0,0:0:0:0:
182,192,407319,1,0,0:0:0:0:
36,192,407319,1,0,0:0:0:0:
475,192,407319,1,0,0:0:0:0:
256,192,407319,1,0,0:0:0:0:
329,192,407319,1,0,0:0:0:0:
402,192,407394,1,0,0:0:0:0:
475,192,407469,1,0,0:0:0:0:
182,192,407469,1,0,0:0:0:0:
329,192,407469,1,0,0:0:0:0:
109,192,407469,1,0,0:0:0:0:
256,192,407544,1,0,0:0:0:0:
475,192,407619,1,0,0:0:0:0:
329,192,407619,1,0,0:0:0:0:
402,192,407619,1,0,0:0:0:0:
36,192,407619,1,0,0:0:0:0:
109,192,407619,1,0,0:0:0:0:
182,192,407694,1,0,0:0:0:0:
36,192,407769,1,0,0:0:0:0:
109,192,407769,1,0,0:0:0:0:
256,192,407769,1,0,0:0:0:0:
402,192,407769,1,0,0:0:0:0:
329,192,407844,1,0,0:0:0:0:
182,192,407919,1,0,0:0:0:0:
475,192,407956,1,0,0:0:0:0:
109,192,407994,1,0,0:0:0:0:
402,192,408031,1,0,0:0:0:0:
256,192,408069,1,0,0:0:0:0:
36,192,408069,1,0,0:0:0:0:
182,192,408119,1,0,0:0:0:0:
329,192,408169,1,0,0:0:0:0:
36,192,408219,1,0,0:0:0:0:
402,192,408219,1,0,0:0:0:0:
475,192,408219,1,0,0:0:0:0:
256,192,408219,1,0,0:0:0:0:
329,192,408294,1,0,0:0:0:0:
182,192,408294,1,0,0:0:0:0:
109,192,408294,1,0,0:0:0:0:
475,192,408369,1,0,0:0:0:0:
36,192,408369,1,0,0:0:0:0:
256,192,408369,1,0,0:0:0:0:
329,192,408444,1,0,0:0:0:0:
109,192,408444,1,0,0:0:0:0:
402,192,408444,1,0,0:0:0:0:
475,192,408519,1,0,0:0:0:0:
256,192,408519,1,0,0:0:0:0:
182,192,408519,1,0,0:0:0:0:
402,192,408594,1,0,0:0:0:0:
36,192,408594,1,0,0:0:0:0:
109,192,408594,1,0,0:0:0:0:
256,192,408669,1,0,0:0:0:0:
329,192,408669,1,0,0:0:0:0:
182,192,408669,1,0,0:0:0:0:
36,192,408744,1,0,0:0:0:0:
475,192,408744,1,0,0:0:0:0:
402,192,408744,1,0,0:0:0:0:
329,192,408819,1,0,0:0:0:0:
182,192,408819,1,0,0:0:0:0:
109,192,408819,1,0,0:0:0:0:
475,192,408894,1,0,0:0:0:0:
402,192,408894,1,0,0:0:0:0:
256,192,408894,1,0,0:0:0:0:
182,192,408969,1,0,0:0:0:0:
36,192,408969,1,0,0:0:0:0:
109,192,408969,1,0,0:0:0:0:
475,192,409044,1,0,0:0:0:0:
256,192,409044,1,0,0:0:0:0:
329,192,409044,1,0,0:0:0:0:
36,192,409119,1,0,0:0:0:0:
109,192,409119,1,0,0:0:0:0:
402,192,409119,1,0,0:0:0:0:
475,192,409194,1,0,0:0:0:0:
256,192,409194,1,0,0:0:0:0:
182,192,409194,1,0,0:0:0:0:
402,192,409269,1,0,0:0:0:0:
36,192,409269,1,0,0:0:0:0:
109,192,409269,1,0,0:0:0:0:
182,192,409344,1,0,0:0:0:0:
256,192,409344,1,0,0:0:0:0:
329,192,409344,1,0,0:0:0:0:
109,192,409419,1,0,0:0:0:0:
36,192,409419,1,0,0:0:0:0:
402,192,409419,1,0,0:0:0:0:
475,192,409419,1,0,0:0:0:0:
256,192,409569,1,0,0:0:0:0:
256,192,409869,1,0,0:0:0:0:
256,192,410169,1,0,0:0:0:0:
256,192,410469,1,0,0:0:0:0:
36,192,410619,1,0,0:0:0:0:
475,192,410619,1,0,0:0:0:0:
402,192,410619,1,0,0:0:0:0:
256,192,410619,1,0,0:0:0:0:
109,192,410619,1,0,0:0:0:0:
329,192,410919,1,0,0:0:0:0:
475,192,411219,1,0,0:0:0:0:
256,192,412119,1,0,0:0:0:0:
402,192,412419,1,0,0:0:0:0:
182,192,413319,1,0,0:0:0:0:
402,192,413619,1,0,0:0:0:0:
402,192,414519,1,0,0:0:0:0:
475,192,414819,1,0,0:0:0:0:
182,192,415719,1,0,0:0:0:0:
329,192,416019,1,0,0:0:0:0:
109,192,416919,1,0,0:0:0:0:
256,192,417219,1,0,0:0:0:0:
36,192,418119,1,0,0:0:0:0:
256,192,418419,1,0,0:0:0:0:
256,192,419319,1,0,0:0:0:0:
475,192,419619,1,0,0:0:0:0:
329,192,419919,1,0,0:0:0:0:
475,192,419919,1,0,0:0:0:0:
36,192,419919,1,0,0:0:0:0:
182,192,419919,1,0,0:0:0:0:
36,192,420069,1,0,0:0:0:0:
182,192,420069,1,0,0:0:0:0:
475,192,420069,1,0,0:0:0:0:
329,192,420069,1,0,0:0:0:0:
402,192,420219,1,0,0:0:0:0:
475,192,420219,1,0,0:0:0:0:
256,192,420219,1,0,0:0:0:0:
109,192,420219,1,0,0:0:0:0:
36,192,420219,1,0,0:0:0:0:
182,192,420294,1,0,0:0:0:0:
109,192,420369,1,0,0:0:0:0:
475,192,420369,1,0,0:0:0:0:
329,192,420369,1,0,0:0:0:0:
256,192,420444,1,0,0:0:0:0:
36,192,420444,1,0,0:0:0:0:
475,192,420519,1,0,0:0:0:0:
402,192,420519,1,0,0:0:0:0:
182,192,420519,1,0,0:0:0:0:
36,192,420594,1,0,0:0:0:0:
256,192,420594,1,0,0:0:0:0:
402,192,420669,1,0,0:0:0:0:
329,192,420669,1,0,0:0:0:0:
109,192,420669,1,0,0:0:0:0:
182,192,420744,1,0,0:0:0:0:
475,192,420744,1,0,0:0:0:0:
329,192,420819,1,0,0:0:0:0:
256,192,420819,1,0,0:0:0:0:
36,192,420819,1,0,0:0:0:0:
402,192,420894,1,0,0:0:0:0:
109,192,420894,1,0,0:0:0:0:
475,192,420969,1,0,0:0:0:0:
256,192,420969,1,0,0:0:0:0:
182,192,420969,1,0,0:0:0:0:
402,192,421044,1,0,0:0:0:0:
36,192,421044,1,0,0:0:0:0:
109,192,421119,1,0,0:0:0:0:
475,192,421119,1,0,0:0:0:0:
329,192,421119,1,0,0:0:0:0:
182,192,421119,1,0,0:0:0:0:
36,192,421194,1,0,0:0:0:0:
256,192,421194,1,0,0:0:0:0:
402,192,421269,1,0,0:0:0:0:
182,192,421269,1,0,0:0:0:0:
475,192,421269,1,0,0:0:0:0:
109,192,421344,1,0,0:0:0:0:
329,192,421344,1,0,0:0:0:0:
182,192,421419,1,0,0:0:0:0:
475,192,421419,1,0,0:0:0:0:
36,192,421419,1,0,0:0:0:0:
256,192,421419,1,0,0:0:0:0:
109,192,421494,1,0,0:0:0:0:
402,192,421494,1,0,0:0:0:0:
256,192,421569,1,0,0:0:0:0:
329,192,421569,1,0,0:0:0:0:
402,192,421644,1,0,0:0:0:0:
36,192,421644,1,0,0:0:0:0:
182,192,421644,1,0,0:0:0:0:
109,192,421719,1,0,0:0:0:0:
256,192,421719,1,0,0:0:0:0:
475,192,421719,1,0,0:0:0:0:
402,192,421794,1,0,0:0:0:0:
329,192,421794,1,0,0:0:0:0:
36,192,421869,1,0,0:0:0:0:
182,192,421869,1,0,0:0:0:0:
475,192,421944,1,0,0:0:0:0:
329,192,421944,1,0,0:0:0:0:
256,192,421944,1,0,0:0:0:0:
402,192,422019,1,0,0:0:0:0:
36,192,422019,1,0,0:0:0:0:
109,192,422019,1,0,0:0:0:0:
329,192,422094,1,0,0:0:0:0:
182,192,422094,1,0,0:0:0:0:
36,192,422169,1,0,0:0:0:0:
475,192,422169,1,0,0:0:0:0:
256,192,422169,1,0,0:0:0:0:
182,192,422244,1,0,0:0:0:0:
109,192,422244,1,0,0:0:0:0:
475,192,422319,1,0,0:0:0:0:
402,192,422319,1,0,0:0:0:0:
329,192,422319,1,0,0:0:0:0:
182,192,422394,1,0,0:0:0:0:
256,192,422394,1,0,0:0:0:0:
402,192,422469,1,0,0:0:0:0:
475,192,422469,1,0,0:0:0:0:
109,192,422469,1,0,0:0:0:0:
36,192,422469,1,0,0:0:0:0:
329,192,422544,1,0,0:0:0:0:
402,192,422619,1,0,0:0:0:0:
256,192,422619,1,0,0:0:0:0:
109,192,422619,1,0,0:0:0:0:
36,192,422619,1,0,0:0:0:0:
182,192,422694,1,0,0:0:0:0:
109,192,422769,1,0,0:0:0:0:
475,192,422769,1,0,0:0:0:0:
329,192,422769,1,0,0:0:0:0:
36,192,422844,1,0,0:0:0:0:
256,192,422844,1,0,0:0:0:0:
475,192,422919,1,0,0:0:0:0:
402,192,422919,1,0,0:0:0:0:
182,192,422919,1,0,0:0:0:0:
109,192,422994,1,0,0:0:0:0:
329,192,422994,1,0,0:0:0:0:
402,192,423069,1,0,0:0:0:0:
182,192,423069,1,0,0:0:0:0:
475,192,423144,1,0,0:0:0:0:
36,192,423144,1,0,0:0:0:0:
256,192,423144,1,0,0:0:0:0:
182,192,423219,1,0,0:0:0:0:
329,192,423219,1,0,0:0:0:0:
109,192,423219,1,0,0:0:0:0:
475,192,423294,1,0,0:0:0:0:
402,192,423294,1,0,0:0:0:0:
329,192,423369,1,0,0:0:0:0:
36,192,423369,1,0,0:0:0:0:
256,192,423369,1,0,0:0:0:0:
475,192,423444,1,0,0:0:0:0:
182,192,423444,1,0,0:0:0:0:
36,192,423519,1,0,0:0:0:0:
329,192,423519,1,0,0:0:0:0:
402,192,423519,1,0,0:0:0:0:
109,192,423519,1,0,0:0:0:0:
182,192,423594,1,0,0:0:0:0:
256,192,423594,1,0,0:0:0:0:
109,192,423669,1,0,0:0:0:0:
475,192,423669,1,0,0:0:0:0:
402,192,423669,1,0,0:0:0:0:
256,192,423744,1,0,0:0:0:0:
36,192,423744,1,0,0:0:0:0:
329,192,423744,1,0,0:0:0:0:
109,192,423819,1,0,0:0:0:0:
182,192,423819,1,0,0:0:0:0:
402,192,423819,1,0,0:0:0:0:
475,192,423819,1,0,0:0:0:0:
36,192,423894,1,0,0:0:0:0:
329,192,423894,1,0,0:0:0:0:
182,192,423969,1,0,0:0:0:0:
475,192,423969,1,0,0:0:0:0:
256,192,423969,1,0,0:0:0:0:
402,192,424044,1,0,0:0:0:0:
109,192,424044,1,0,0:0:0:0:
329,192,424119,1,0,0:0:0:0:
182,192,424119,1,0,0:0:0:0:
36,192,424119,1,0,0:0:0:0:
256,192,424119,1,0,0:0:0:0:
402,192,424194,1,0,0:0:0:0:
109,192,424194,1,0,0:0:0:0:
475,192,424269,1,0,0:0:0:0:
329,192,424269,1,0,0:0:0:0:
182,192,424269,1,0,0:0:0:0:
36,192,424344,1,0,0:0:0:0:
256,192,424344,1,0,0:0:0:0:
475,192,424419,1,0,0:0:0:0:
329,192,424419,1,0,0:0:0:0:
109,192,424419,1,0,0:0:0:0:
402,192,424419,1,0,0:0:0:0:
182,192,424494,1,0,0:0:0:0:
402,192,424569,1,0,0:0:0:0:
475,192,424569,1,0,0:0:0:0:
36,192,424569,1,0,0:0:0:0:
256,192,424569,1,0,0:0:0:0:
109,192,424644,1,0,0:0:0:0:
402,192,424719,1,0,0:0:0:0:
475,192,424719,1,0,0:0:0:0:
182,192,424719,1,0,0:0:0:0:
329,192,424719,1,0,0:0:0:0:
109,192,424794,1,0,0:0:0:0:
256,192,424869,1,0,0:0:0:0:
329,192,424869,1,0,0:0:0:0:
36,192,424869,1,0,0:0:0:0:
475,192,425019,1,0,0:0:0:0:
256,192,425019,1,0,0:0:0:0:
402,192,425019,1,0,0:0:0:0:
109,192,425019,1,0,0:0:0:0:
36,192,425019,1,0,0:0:0:0:
182,192,425094,1,0,0:0:0:0:
475,192,425169,1,0,0:0:0:0:
329,192,425169,1,0,0:0:0:0:
109,192,425244,1,0,0:0:0:0:
475,192,425319,1,0,0:0:0:0:
402,192,425319,1,0,0:0:0:0:
36,192,425319,1,0,0:0:0:0:
256,192,425319,1,0,0:0:0:0:
182,192,425319,1,0,0:0:0:0:
329,192,425394,1,0,0:0:0:0:
109,192,425469,1,0,0:0:0:0:
182,192,425469,1,0,0:0:0:0:
256,192,425544,1,0,0:0:0:0:
36,192,425619,1,0,0:0:0:0:
109,192,425619,1,0,0:0:0:0:
329,192,425619,1,0,0:0:0:0:
402,192,425619,1,0,0:0:0:0:
475,192,425619,1,0,0:0:0:0:
256,192,425694,1,0,0:0:0:0:
475,192,425769,1,0,0:0:0:0:
182,192,425769,1,0,0:0:0:0:
329,192,425844,1,0,0:0:0:0:
402,192,425919,1,0,0:0:0:0:
475,192,425919,1,0,0:0:0:0:
256,192,425919,1,0,0:0:0:0:
109,192,425919,1,0,0:0:0:0:
36,192,425919,1,0,0:0:0:0:
182,192,425994,1,0,0:0:0:0:
402,192,426069,1,0,0:0:0:0:
36,192,426069,1,0,0:0:0:0:
329,192,426144,1,0,0:0:0:0:
109,192,426144,1,0,0:0:0:0:
36,192,426219,1,0,0:0:0:0:
402,192,426219,1,0,0:0:0:0:
475,192,426219,1,0,0:0:0:0:
256,192,426219,1,0,0:0:0:0:
182,192,426219,1,0,0:0:0:0:
329,192,426294,1,0,0:0:0:0:
256,192,426369,1,0,0:0:0:0:
109,192,426369,1,0,0:0:0:0:
402,192,426444,1,0,0:0:0:0:
475,192,426519,1,0,0:0:0:0:
109,192,426519,1,0,0:0:0:0:
329,192,426519,1,0,0:0:0:0:
182,192,426519,1,0,0:0:0:0:
36,192,426519,1,0,0:0:0:0:
256,192,426594,1,0,0:0:0:0:
182,192,426669,1,0,0:0:0:0:
402,192,426669,1,0,0:0:0:0:
329,192,426744,1,0,0:0:0:0:
109,192,426744,1,0,0:0:0:0:
402,192,426819,1,0,0:0:0:0:
475,192,426819,1,0,0:0:0:0:
182,192,426819,1,0,0:0:0:0:
256,192,426819,1,0,0:0:0:0:
36,192,426819,1,0,0:0:0:0:
329,192,426969,1,0,0:0:0:0:
402,192,426969,1,0,0:0:0:0:
109,192,426969,1,0,0:0:0:0:
36,192,426969,1,0,0:0:0:0:
475,192,427044,1,0,0:0:0:0:
182,192,427044,1,0,0:0:0:0:
109,192,427119,1,0,0:0:0:0:
36,192,427119,1,0,0:0:0:0:
329,192,427119,1,0,0:0:0:0:
402,192,427119,1,0,0:0:0:0:
402,192,427269,1,0,0:0:0:0:
475,192,427269,1,0,0:0:0:0:
182,192,427269,1,0,0:0:0:0:
109,192,427269,1,0,0:0:0:0:
36,192,427344,1,0,0:0:0:0:
329,192,427344,1,0,0:0:0:0:
475,192,427419,1,0,0:0:0:0:
402,192,427419,1,0,0:0:0:0:
109,192,427419,1,0,0:0:0:0:
182,192,427494,1,0,0:0:0:0:
256,192,427494,1,0,0:0:0:0:
329,192,427569,1,0,0:0:0:0:
36,192,427569,1,0,0:0:0:0:
109,192,427569,1,0,0:0:0:0:
475,192,427644,1,0,0:0:0:0:
402,192,427644,1,0,0:0:0:0:
182,192,427644,1,0,0:0:0:0:
329,192,427719,1,0,0:0:0:0:
36,192,427719,1,0,0:0:0:0:
256,192,427719,1,0,0:0:0:0:
475,192,427794,1,0,0:0:0:0:
182,192,427794,1,0,0:0:0:0:
109,192,427794,1,0,0:0:0:0:
256,192,427869,1,0,0:0:0:0:
329,192,427869,1,0,0:0:0:0:
402,192,427869,1,0,0:0:0:0:
475,192,427944,1,0,0:0:0:0:
109,192,427944,1,0,0:0:0:0:
36,192,427944,1,0,0:0:0:0:
329,192,428019,1,0,0:0:0:0:
256,192,428019,1,0,0:0:0:0:
182,192,428019,1,0,0:0:0:0:
475,192,428094,1,0,0:0:0:0:
36,192,428094,1,0,0:0:0:0:
402,192,428094,1,0,0:0:0:0:
329,192,428169,1,0,0:0:0:0:
182,192,428169,1,0,0:0:0:0:
109,192,428169,1,0,0:0:0:0:
475,192,428244,1,0,0:0:0:0:
36,192,428244,1,0,0:0:0:0:
256,192,428244,1,0,0:0:0:0:
182,192,428319,1,0,0:0:0:0:
329,192,428319,1,0,0:0:0:0:
402,192,428319,1,0,0:0:0:0:
256,192,428394,1,0,0:0:0:0:
36,192,428394,1,0,0:0:0:0:
109,192,428394,1,0,0:0:0:0:
329,192,428469,1,0,0:0:0:0:
475,192,428469,1,0,0:0:0:0:
402,192,428469,1,0,0:0:0:0:
109,192,428544,1,0,0:0:0:0:
256,192,428544,1,0,0:0:0:0:
182,192,428619,1,0,0:0:0:0:
36,192,428619,1,0,0:0:0:0:
182,192,428769,5,0,0:0:0:0:
475,192,428919,1,0,0:0:0:0:
329,192,428919,1,0,0:0:0:0:
182,192,429069,1,0,0:0:0:0:
402,192,429144,1,0,0:0:0:0:
329,192,429144,1,0,0:0:0:0:
256,192,429219,1,0,0:0:0:0:
36,192,429219,1,0,0:0:0:0:
109,192,429219,1,0,0:0:0:0:
475,192,429294,1,0,0:0:0:0:
402,192,429294,1,0,0:0:0:0:
182,192,429294,1,0,0:0:0:0:
36,192,429369,1,0,0:0:0:0:
109,192,429369,1,0,0:0:0:0:
329,192,429369,1,0,0:0:0:0:
402,192,429444,1,0,0:0:0:0:
182,192,429444,1,0,0:0:0:0:
329,192,429519,1,0,0:0:0:0:
475,192,429519,1,0,0:0:0:0:
36,192,429519,1,0,0:0:0:0:
256,192,429519,1,0,0:0:0:0:
109,192,429519,1,0,0:0:0:0:
36,192,429819,5,0,0:0:0:0:
402,192,429819,1,0,0:0:0:0:
475,192,429819,1,0,0:0:0:0:
256,192,429819,1,0,0:0:0:0:
182,192,429819,1,0,0:0:0:0:
329,192,429969,1,0,0:0:0:0:
475,192,429969,1,0,0:0:0:0:
109,192,429969,1,0,0:0:0:0:
182,192,429969,1,0,0:0:0:0:
36,192,430119,1,0,0:0:0:0:
109,192,430119,1,0,0:0:0:0:
475,192,430119,1,0,0:0:0:0:
256,192,430119,1,0,0:0:0:0:
402,192,430119,1,0,0:0:0:0:
329,192,430194,1,0,0:0:0:0:
182,192,430194,1,0,0:0:0:0:
256,192,430269,1,0,0:0:0:0:
36,192,430269,1,0,0:0:0:0:
109,192,430269,1,0,0:0:0:0:
329,192,430344,1,0,0:0:0:0:
475,192,430344,1,0,0:0:0:0:
402,192,430419,1,0,0:0:0:0:
36,192,430419,1,0,0:0:0:0:
182,192,430419,1,0,0:0:0:0:
256,192,430419,1,0,0:0:0:0:
329,192,430494,1,0,0:0:0:0:
109,192,430494,1,0,0:0:0:0:
256,192,430569,1,0,0:0:0:0:
475,192,430569,1,0,0:0:0:0:
182,192,430569,1,0,0:0:0:0:
402,192,430719,1,0,0:0:0:0:
475,192,430719,1,0,0:0:0:0:
256,192,430719,1,0,0:0:0:0:
109,192,430719,1,0,0:0:0:0:
36,192,430719,1,0,0:0:0:0:
329,192,430869,1,0,0:0:0:0:
475,192,430869,1,0,0:0:0:0:
182,192,430869,1,0,0:0:0:0:
109,192,430869,1,0,0:0:0:0:
402,192,431019,1,0,0:0:0:0:
475,192,431019,1,0,0:0:0:0:
256,192,431019,1,0,0:0:0:0:
36,192,431019,1,0,0:0:0:0:
182,192,431019,1,0,0:0:0:0:
475,192,431169,1,0,0:0:0:0:
402,192,431169,1,0,0:0:0:0:
109,192,431169,1,0,0:0:0:0:
182,192,431169,1,0,0:0:0:0:
475,192,431319,1,0,0:0:0:0:
329,192,431319,1,0,0:0:0:0:
256,192,431319,1,0,0:0:0:0:
36,192,431319,1,0,0:0:0:0:
109,192,431319,1,0,0:0:0:0:
182,192,431394,1,0,0:0:0:0:
402,192,431394,1,0,0:0:0:0:
109,192,431469,1,0,0:0:0:0:
329,192,431469,1,0,0:0:0:0:
256,192,431469,1,0,0:0:0:0:
182,192,431544,1,0,0:0:0:0:
36,192,431544,1,0,0:0:0:0:
329,192,431619,1,0,0:0:0:0:
475,192,431619,1,0,0:0:0:0:
402,192,431619,1,0,0:0:0:0:
109,192,431619,1,0,0:0:0:0:
182,192,431694,1,0,0:0:0:0:
256,192,431694,1,0,0:0:0:0:
36,192,431769,1,0,0:0:0:0:
329,192,431769,1,0,0:0:0:0:
109,192,431769,1,0,0:0:0:0:
402,192,431919,1,0,0:0:0:0:
475,192,431919,1,0,0:0:0:0:
256,192,431919,1,0,0:0:0:0:
182,192,431919,1,0,0:0:0:0:
36,192,431919,1,0,0:0:0:0:
329,192,432069,1,0,0:0:0:0:
475,192,432069,1,0,0:0:0:0:
182,192,432069,1,0,0:0:0:0:
109,192,432069,1,0,0:0:0:0:
36,192,432219,1,0,0:0:0:0:
256,192,432219,1,0,0:0:0:0:
109,192,432219,1,0,0:0:0:0:
329,192,432219,1,0,0:0:0:0:
475,192,432219,1,0,0:0:0:0:
182,192,432369,1,0,0:0:0:0:
256,192,432369,1,0,0:0:0:0:
402,192,432369,1,0,0:0:0:0:
475,192,432369,1,0,0:0:0:0:
329,192,432519,1,0,0:0:0:0:
182,192,432519,1,0,0:0:0:0:
36,192,432519,1,0,0:0:0:0:
109,192,432519,1,0,0:0:0:0:
475,192,432519,1,0,0:0:0:0:
256,192,432594,1,0,0:0:0:0:
402,192,432594,1,0,0:0:0:0:
182,192,432669,1,0,0:0:0:0:
36,192,432669,1,0,0:0:0:0:
329,192,432669,1,0,0:0:0:0:
256,192,432744,1,0,0:0:0:0:
402,192,432744,1,0,0:0:0:0:
182,192,432819,1,0,0:0:0:0:
329,192,432819,1,0,0:0:0:0:
475,192,432819,1,0,0:0:0:0:
36,192,432819,1,0,0:0:0:0:
256,192,432894,1,0,0:0:0:0:
109,192,432894,1,0,0:0:0:0:
182,192,432969,1,0,0:0:0:0:
329,192,432969,1,0,0:0:0:0:
475,192,432969,1,0,0:0:0:0:
36,192,433119,1,0,0:0:0:0:
109,192,433119,1,0,0:0:0:0:
475,192,433119,1,0,0:0:0:0:
402,192,433119,1,0,0:0:0:0:
256,192,433119,1,0,0:0:0:0:
182,192,433269,1,0,0:0:0:0:
109,192,433269,1,0,0:0:0:0:
329,192,433269,1,0,0:0:0:0:
402,192,433269,1,0,0:0:0:0:
402,192,433419,1,0,0:0:0:0:
475,192,433419,1,0,0:0:0:0:
256,192,433419,1,0,0:0:0:0:
36,192,433419,1,0,0:0:0:0:
109,192,433419,1,0,0:0:0:0:
329,192,433569,1,0,0:0:0:0:
475,192,433569,1,0,0:0:0:0:
36,192,433569,1,0,0:0:0:0:
182,192,433569,1,0,0:0:0:0:
36,192,433719,1,0,0:0:0:0:
475,192,433719,1,0,0:0:0:0:
402,192,433719,1,0,0:0:0:0:
109,192,433719,1,0,0:0:0:0:
256,192,433719,1,0,0:0:0:0:
329,192,433794,1,0,0:0:0:0:
182,192,433794,1,0,0:0:0:0:
256,192,433869,1,0,0:0:0:0:
402,192,433869,1,0,0:0:0:0:
109,192,433869,1,0,0:0:0:0:
182,192,433944,1,0,0:0:0:0:
475,192,433944,1,0,0:0:0:0:
402,192,434019,1,0,0:0:0:0:
36,192,434019,1,0,0:0:0:0:
109,192,434019,1,0,0:0:0:0:
329,192,434019,1,0,0:0:0:0:
475,192,434094,1,0,0:0:0:0:
256,192,434094,1,0,0:0:0:0:
402,192,434169,1,0,0:0:0:0:
329,192,434169,1,0,0:0:0:0:
182,192,434169,1,0,0:0:0:0:
36,192,434244,1,0,0:0:0:0:
109,192,434244,1,0,0:0:0:0:
475,192,434319,1,0,0:0:0:0:
329,192,434319,1,0,0:0:0:0:
256,192,434319,1,0,0:0:0:0:
402,192,434319,1,0,0:0:0:0:
109,192,434394,1,0,0:0:0:0:
182,192,434394,1,0,0:0:0:0:
402,192,434469,1,0,0:0:0:0:
475,192,434469,1,0,0:0:0:0:
36,192,434469,1,0,0:0:0:0:
256,192,434469,1,0,0:0:0:0:
475,192,434619,5,0,0:0:0:0:
36,192,434619,1,0,0:0:0:0:
109,192,434619,1,0,0:0:0:0:
256,192,434619,1,0,0:0:0:0:
329,192,434619,1,0,0:0:0:0:
182,192,434769,1,0,0:0:0:0:
36,192,434769,1,0,0:0:0:0:
402,192,434769,1,0,0:0:0:0:
329,192,434769,1,0,0:0:0:0:
475,192,434919,1,0,0:0:0:0:
402,192,434919,1,0,0:0:0:0:
36,192,434919,1,0,0:0:0:0:
256,192,434919,1,0,0:0:0:0:
109,192,434919,1,0,0:0:0:0:
182,192,434994,1,0,0:0:0:0:
329,192,434994,1,0,0:0:0:0:
256,192,435069,1,0,0:0:0:0:
475,192,435069,1,0,0:0:0:0:
402,192,435069,1,0,0:0:0:0:
182,192,435144,1,0,0:0:0:0:
36,192,435144,1,0,0:0:0:0:
109,192,435219,1,0,0:0:0:0:
475,192,435219,1,0,0:0:0:0:
329,192,435219,1,0,0:0:0:0:
256,192,435219,1,0,0:0:0:0:
182,192,435294,1,0,0:0:0:0:
402,192,435294,1,0,0:0:0:0:
256,192,435369,1,0,0:0:0:0:
36,192,435369,1,0,0:0:0:0:
329,192,435369,1,0,0:0:0:0:
109,192,435519,1,0,0:0:0:0:
36,192,435519,1,0,0:0:0:0:
256,192,435519,1,0,0:0:0:0:
402,192,435519,1,0,0:0:0:0:
475,192,435519,1,0,0:0:0:0:
182,192,435669,1,0,0:0:0:0:
36,192,435669,1,0,0:0:0:0:
329,192,435669,1,0,0:0:0:0:
402,192,435669,1,0,0:0:0:0:
109,192,435819,1,0,0:0:0:0:
36,192,435819,1,0,0:0:0:0:
256,192,435819,1,0,0:0:0:0:
475,192,435819,1,0,0:0:0:0:
329,192,435819,1,0,0:0:0:0:
36,192,435969,1,0,0:0:0:0:
109,192,435969,1,0,0:0:0:0:
402,192,435969,1,0,0:0:0:0:
329,192,435969,1,0,0:0:0:0:
36,192,436119,1,0,0:0:0:0:
182,192,436119,1,0,0:0:0:0:
256,192,436119,1,0,0:0:0:0:
475,192,436119,1,0,0:0:0:0:
402,192,436119,1,0,0:0:0:0:
329,192,436194,1,0,0:0:0:0:
109,192,436194,1,0,0:0:0:0:
402,192,436269,1,0,0:0:0:0:
182,192,436269,1,0,0:0:0:0:
256,192,436269,1,0,0:0:0:0:
329,192,436344,1,0,0:0:0:0:
475,192,436344,1,0,0:0:0:0:
182,192,436419,1,0,0:0:0:0:
36,192,436419,1,0,0:0:0:0:
109,192,436419,1,0,0:0:0:0:
402,192,436419,1,0,0:0:0:0:
329,192,436494,1,0,0:0:0:0:
256,192,436494,1,0,0:0:0:0:
475,192,436569,1,0,0:0:0:0:
182,192,436569,1,0,0:0:0:0:
402,192,436569,1,0,0:0:0:0:
109,192,436719,1,0,0:0:0:0:
36,192,436719,1,0,0:0:0:0:
256,192,436719,1,0,0:0:0:0:
329,192,436719,1,0,0:0:0:0:
475,192,436719,1,0,0:0:0:0:
182,192,436869,1,0,0:0:0:0:
36,192,436869,1,0,0:0:0:0:
329,192,436869,1,0,0:0:0:0:
402,192,436869,1,0,0:0:0:0:
475,192,437019,1,0,0:0:0:0:
256,192,437019,1,0,0:0:0:0:
402,192,437019,1,0,0:0:0:0:
182,192,437019,1,0,0:0:0:0:
36,192,437019,1,0,0:0:0:0:
329,192,437169,1,0,0:0:0:0:
256,192,437169,1,0,0:0:0:0:
109,192,437169,1,0,0:0:0:0:
36,192,437169,1,0,0:0:0:0:
182,192,437319,1,0,0:0:0:0:
329,192,437319,1,0,0:0:0:0:
475,192,437319,1,0,0:0:0:0:
402,192,437319,1,0,0:0:0:0:
36,192,437319,1,0,0:0:0:0:
256,192,437394,1,0,0:0:0:0:
109,192,437394,1,0,0:0:0:0:
329,192,437469,1,0,0:0:0:0:
475,192,437469,1,0,0:0:0:0:
182,192,437469,1,0,0:0:0:0:
256,192,437544,1,0,0:0:0:0:
109,192,437544,1,0,0:0:0:0:
329,192,437619,1,0,0:0:0:0:
182,192,437619,1,0,0:0:0:0:
36,192,437619,1,0,0:0:0:0:
475,192,437619,1,0,0:0:0:0:
256,192,437694,1,0,0:0:0:0:
402,192,437694,1,0,0:0:0:0:
329,192,437769,1,0,0:0:0:0:
182,192,437769,1,0,0:0:0:0:
36,192,437769,1,0,0:0:0:0:
475,192,437919,1,0,0:0:0:0:
402,192,437919,1,0,0:0:0:0:
36,192,437919,1,0,0:0:0:0:
109,192,437919,1,0,0:0:0:0:
256,192,437919,1,0,0:0:0:0:
329,192,438069,1,0,0:0:0:0:
402,192,438069,1,0,0:0:0:0:
182,192,438069,1,0,0:0:0:0:
109,192,438069,1,0,0:0:0:0:
109,192,438219,1,0,0:0:0:0:
256,192,438219,1,0,0:0:0:0:
402,192,438219,1,0,0:0:0:0:
475,192,438219,1,0,0:0:0:0:
329,192,438219,1,0,0:0:0:0:
36,192,438219,1,0,0:0:0:0:
329,192,438369,1,0,0:0:0:0:
402,192,438369,1,0,0:0:0:0:
475,192,438369,1,0,0:0:0:0:
182,192,438369,1,0,0:0:0:0:
109,192,438369,1,0,0:0:0:0:
36,192,438369,1,0,0:0:0:0:
36,192,438519,1,0,0:0:0:0:
109,192,438519,1,0,0:0:0:0:
475,192,438519,1,0,0:0:0:0:
402,192,438519,1,0,0:0:0:0:
256,192,438519,1,0,0:0:0:0:
182,192,438519,1,0,0:0:0:0:
329,192,438669,1,0,0:0:0:0:
402,192,438669,1,0,0:0:0:0:
475,192,438669,1,0,0:0:0:0:
36,192,438669,1,0,0:0:0:0:
109,192,438669,1,0,0:0:0:0:
182,192,438669,1,0,0:0:0:0:
475,192,438819,1,0,0:0:0:0:
256,192,438819,1,0,0:0:0:0:
402,192,438819,1,0,0:0:0:0:
36,192,438819,1,0,0:0:0:0:
109,192,438819,1,0,0:0:0:0:
182,192,438894,1,0,0:0:0:0:
329,192,438969,1,0,0:0:0:0:
182,192,439044,1,0,0:0:0:0:
36,192,439119,1,0,0:0:0:0:
109,192,439119,1,0,0:0:0:0:
329,192,439119,1,0,0:0:0:0:
475,192,439119,1,0,0:0:0:0:
256,192,439194,1,0,0:0:0:0:
475,192,439269,1,0,0:0:0:0:
402,192,439269,1,0,0:0:0:0:
182,192,439269,1,0,0:0:0:0:
36,192,439269,1,0,0:0:0:0:
256,192,439344,1,0,0:0:0:0:
36,192,439419,5,0,0:0:0:0:
475,192,439419,1,0,0:0:0:0:
402,192,439419,1,0,0:0:0:0:
329,192,439419,1,0,0:0:0:0:
182,192,439419,1,0,0:0:0:0:
256,192,439569,1,0,0:0:0:0:
329,192,439569,1,0,0:0:0:0:
109,192,439569,1,0,0:0:0:0:
182,192,439569,1,0,0:0:0:0:
36,192,439719,1,0,0:0:0:0:
109,192,439719,1,0,0:0:0:0:
475,192,439719,1,0,0:0:0:0:
256,192,439719,1,0,0:0:0:0:
402,192,439719,1,0,0:0:0:0:
329,192,439794,1,0,0:0:0:0:
182,192,439794,1,0,0:0:0:0:
256,192,439869,1,0,0:0:0:0:
36,192,439869,1,0,0:0:0:0:
475,192,439869,1,0,0:0:0:0:
329,192,439944,1,0,0:0:0:0:
109,192,439944,1,0,0:0:0:0:
402,192,440019,1,0,0:0:0:0:
475,192,440019,1,0,0:0:0:0:
182,192,440019,1,0,0:0:0:0:
256,192,440019,1,0,0:0:0:0:
36,192,440094,1,0,0:0:0:0:
109,192,440094,1,0,0:0:0:0:
329,192,440169,1,0,0:0:0:0:
402,192,440169,1,0,0:0:0:0:
182,192,440169,1,0,0:0:0:0:
475,192,440169,1,0,0:0:0:0:
402,192,440319,1,0,0:0:0:0:
329,192,440319,1,0,0:0:0:0:
256,192,440319,1,0,0:0:0:0:
109,192,440319,1,0,0:0:0:0:
36,192,440319,1,0,0:0:0:0:
256,192,440469,1,0,0:0:0:0:
475,192,440469,1,0,0:0:0:0:
182,192,440469,1,0,0:0:0:0:
109,192,440469,1,0,0:0:0:0:
402,192,440619,1,0,0:0:0:0:
329,192,440619,1,0,0:0:0:0:
256,192,440619,1,0,0:0:0:0:
36,192,440619,1,0,0:0:0:0:
182,192,440619,1,0,0:0:0:0:
475,192,440769,1,0,0:0:0:0:
329,192,440769,1,0,0:0:0:0:
109,192,440769,1,0,0:0:0:0:
182,192,440769,1,0,0:0:0:0:
402,192,440919,1,0,0:0:0:0:
475,192,440919,1,0,0:0:0:0:
256,192,440919,1,0,0:0:0:0:
36,192,440919,1,0,0:0:0:0:
109,192,440919,1,0,0:0:0:0:
182,192,440994,1,0,0:0:0:0:
329,192,440994,1,0,0:0:0:0:
109,192,441069,1,0,0:0:0:0:
475,192,441069,1,0,0:0:0:0:
256,192,441069,1,0,0:0:0:0:
182,192,441144,1,0,0:0:0:0:
329,192,441144,1,0,0:0:0:0:
256,192,441219,1,0,0:0:0:0:
475,192,441219,1,0,0:0:0:0:
402,192,441219,1,0,0:0:0:0:
36,192,441219,1,0,0:0:0:0:
182,192,441294,1,0,0:0:0:0:
109,192,441294,1,0,0:0:0:0:
256,192,441369,1,0,0:0:0:0:
402,192,441369,1,0,0:0:0:0:
36,192,441369,1,0,0:0:0:0:
329,192,441369,1,0,0:0:0:0:
402,192,441519,1,0,0:0:0:0:
475,192,441519,1,0,0:0:0:0:
256,192,441519,1,0,0:0:0:0:
182,192,441519,1,0,0:0:0:0:
109,192,441519,1,0,0:0:0:0:
329,192,441669,1,0,0:0:0:0:
475,192,441669,1,0,0:0:0:0:
182,192,441669,1,0,0:0:0:0:
36,192,441669,1,0,0:0:0:0:
36,192,441819,1,0,0:0:0:0:
256,192,441819,1,0,0:0:0:0:
109,192,441819,1,0,0:0:0:0:
329,192,441819,1,0,0:0:0:0:
475,192,441819,1,0,0:0:0:0:
182,192,441969,1,0,0:0:0:0:
256,192,441969,1,0,0:0:0:0:
402,192,441969,1,0,0:0:0:0:
109,192,441969,1,0,0:0:0:0:
329,192,442119,1,0,0:0:0:0:
182,192,442119,1,0,0:0:0:0:
36,192,442119,1,0,0:0:0:0:
256,192,442119,1,0,0:0:0:0:
475,192,442119,1,0,0:0:0:0:
109,192,442194,1,0,0:0:0:0:
402,192,442194,1,0,0:0:0:0:
182,192,442269,1,0,0:0:0:0:
475,192,442269,1,0,0:0:0:0:
329,192,442269,1,0,0:0:0:0:
256,192,442344,1,0,0:0:0:0:
36,192,442344,1,0,0:0:0:0:
182,192,442419,1,0,0:0:0:0:
329,192,442419,1,0,0:0:0:0:
475,192,442419,1,0,0:0:0:0:
109,192,442419,1,0,0:0:0:0:
256,192,442494,1,0,0:0:0:0:
36,192,442494,1,0,0:0:0:0:
182,192,442569,1,0,0:0:0:0:
402,192,442569,1,0,0:0:0:0:
475,192,442569,1,0,0:0:0:0:
329,192,442569,1,0,0:0:0:0:
36,192,442719,1,0,0:0:0:0:
109,192,442719,1,0,0:0:0:0:
402,192,442719,1,0,0:0:0:0:
182,192,442719,1,0,0:0:0:0:
256,192,442719,1,0,0:0:0:0:
182,192,442869,1,0,0:0:0:0:
109,192,442869,1,0,0:0:0:0:
329,192,442869,1,0,0:0:0:0:
475,192,442869,1,0,0:0:0:0:
402,192,443019,1,0,0:0:0:0:
475,192,443019,1,0,0:0:0:0:
256,192,443019,1,0,0:0:0:0:
36,192,443019,1,0,0:0:0:0:
109,192,443019,1,0,0:0:0:0:
329,192,443169,1,0,0:0:0:0:
402,192,443169,1,0,0:0:0:0:
36,192,443169,1,0,0:0:0:0:
182,192,443169,1,0,0:0:0:0:
329,192,443319,1,0,0:0:0:0:
475,192,443319,1,0,0:0:0:0:
402,192,443319,1,0,0:0:0:0:
109,192,443319,1,0,0:0:0:0:
256,192,443319,1,0,0:0:0:0:
36,192,443394,1,0,0:0:0:0:
182,192,443394,1,0,0:0:0:0:
256,192,443469,1,0,0:0:0:0:
402,192,443469,1,0,0:0:0:0:
109,192,443469,1,0,0:0:0:0:
182,192,443544,1,0,0:0:0:0:
329,192,443544,1,0,0:0:0:0:
402,192,443619,1,0,0:0:0:0:
36,192,443619,1,0,0:0:0:0:
109,192,443619,1,0,0:0:0:0:
256,192,443619,1,0,0:0:0:0:
182,192,443694,1,0,0:0:0:0:
475,192,443694,1,0,0:0:0:0:
329,192,443694,1,0,0:0:0:0:
36,192,443769,1,0,0:0:0:0:
256,192,443769,1,0,0:0:0:0:
402,192,443769,1,0,0:0:0:0:
329,192,443844,1,0,0:0:0:0:
182,192,443844,1,0,0:0:0:0:
36,192,443919,1,0,0:0:0:0:
109,192,443919,1,0,0:0:0:0:
256,192,443919,1,0,0:0:0:0:
402,192,443919,1,0,0:0:0:0:
329,192,444069,1,0,0:0:0:0:
109,192,444069,1,0,0:0:0:0:
475,192,444069,1,0,0:0:0:0:
182,192,444069,1,0,0:0:0:0:
475,192,444219,5,0,0:0:0:0:
109,192,444219,1,0,0:0:0:0:
36,192,444219,1,0,0:0:0:0:
182,192,444219,1,0,0:0:0:0:
329,192,444219,1,0,0:0:0:0:
256,192,444369,1,0,0:0:0:0:
182,192,444369,1,0,0:0:0:0:
402,192,444369,1,0,0:0:0:0:
329,192,444369,1,0,0:0:0:0:
475,192,444519,1,0,0:0:0:0:
402,192,444519,1,0,0:0:0:0:
36,192,444519,1,0,0:0:0:0:
256,192,444519,1,0,0:0:0:0:
109,192,444519,1,0,0:0:0:0:
182,192,444594,1,0,0:0:0:0:
329,192,444594,1,0,0:0:0:0:
256,192,444669,1,0,0:0:0:0:
475,192,444669,1,0,0:0:0:0:
36,192,444669,1,0,0:0:0:0:
182,192,444744,1,0,0:0:0:0:
402,192,444744,1,0,0:0:0:0:
109,192,444819,1,0,0:0:0:0:
36,192,444819,1,0,0:0:0:0:
329,192,444819,1,0,0:0:0:0:
256,192,444819,1,0,0:0:0:0:
475,192,444894,1,0,0:0:0:0:
402,192,444894,1,0,0:0:0:0:
182,192,444969,1,0,0:0:0:0:
109,192,444969,1,0,0:0:0:0:
329,192,444969,1,0,0:0:0:0:
36,192,444969,1,0,0:0:0:0:
109,192,445119,1,0,0:0:0:0:
182,192,445119,1,0,0:0:0:0:
256,192,445119,1,0,0:0:0:0:
402,192,445119,1,0,0:0:0:0:
475,192,445119,1,0,0:0:0:0:
256,192,445269,1,0,0:0:0:0:
36,192,445269,1,0,0:0:0:0:
329,192,445269,1,0,0:0:0:0:
402,192,445269,1,0,0:0:0:0:
109,192,445419,1,0,0:0:0:0:
182,192,445419,1,0,0:0:0:0:
256,192,445419,1,0,0:0:0:0:
475,192,445419,1,0,0:0:0:0:
329,192,445419,1,0,0:0:0:0:
36,192,445569,1,0,0:0:0:0:
182,192,445569,1,0,0:0:0:0:
402,192,445569,1,0,0:0:0:0:
329,192,445569,1,0,0:0:0:0:
109,192,445719,1,0,0:0:0:0:
36,192,445719,1,0,0:0:0:0:
256,192,445719,1,0,0:0:0:0:
475,192,445719,1,0,0:0:0:0:
402,192,445719,1,0,0:0:0:0:
329,192,445794,1,0,0:0:0:0:
182,192,445794,1,0,0:0:0:0:
402,192,445869,1,0,0:0:0:0:
36,192,445869,1,0,0:0:0:0:
256,192,445869,1,0,0:0:0:0:
329,192,445944,1,0,0:0:0:0:
182,192,445944,1,0,0:0:0:0:
256,192,446019,1,0,0:0:0:0:
36,192,446019,1,0,0:0:0:0:
109,192,446019,1,0,0:0:0:0:
475,192,446019,1,0,0:0:0:0:
329,192,446094,1,0,0:0:0:0:
402,192,446094,1,0,0:0:0:0:
256,192,446169,1,0,0:0:0:0:
109,192,446169,1,0,0:0:0:0:
475,192,446169,1,0,0:0:0:0:
182,192,446169,1,0,0:0:0:0:
109,192,446319,1,0,0:0:0:0:
36,192,446319,1,0,0:0:0:0:
256,192,446319,1,0,0:0:0:0:
329,192,446319,1,0,0:0:0:0:
402,192,446319,1,0,0:0:0:0:
329,192,446469,1,0,0:0:0:0:
402,192,446469,1,0,0:0:0:0:
109,192,446469,1,0,0:0:0:0:
182,192,446469,1,0,0:0:0:0:
402,192,446619,1,0,0:0:0:0:
475,192,446619,1,0,0:0:0:0:
256,192,446619,1,0,0:0:0:0:
36,192,446619,1,0,0:0:0:0:
182,192,446619,1,0,0:0:0:0:
329,192,446694,1,0,0:0:0:0:
109,192,446694,1,0,0:0:0:0:
475,192,446769,1,0,0:0:0:0:
182,192,446769,1,0,0:0:0:0:
256,192,446769,1,0,0:0:0:0:
109,192,446844,1,0,0:0:0:0:
36,192,446844,1,0,0:0:0:0:
402,192,446844,1,0,0:0:0:0:
475,192,446919,1,0,0:0:0:0:
329,192,446919,1,0,0:0:0:0:
256,192,446919,1,0,0:0:0:0:
109,192,446994,1,0,0:0:0:0:
36,192,446994,1,0,0:0:0:0:
182,192,446994,1,0,0:0:0:0:
475,192,447069,1,0,0:0:0:0:
402,192,447069,1,0,0:0:0:0:
256,192,447069,1,0,0:0:0:0:
109,192,447144,1,0,0:0:0:0:
182,192,447144,1,0,0:0:0:0:
329,192,447144,1,0,0:0:0:0:
475,192,447219,1,0,0:0:0:0:
256,192,447219,1,0,0:0:0:0:
36,192,447219,1,0,0:0:0:0:
182,192,447294,1,0,0:0:0:0:
329,192,447294,1,0,0:0:0:0:
402,192,447294,1,0,0:0:0:0:
256,192,447369,1,0,0:0:0:0:
36,192,447369,1,0,0:0:0:0:
109,192,447369,1,0,0:0:0:0:
475,192,447444,1,0,0:0:0:0:
402,192,447444,1,0,0:0:0:0:
329,192,447444,1,0,0:0:0:0:
36,192,447519,1,0,0:0:0:0:
109,192,447519,1,0,0:0:0:0:
182,192,447519,1,0,0:0:0:0:
402,192,447594,1,0,0:0:0:0:
329,192,447594,1,0,0:0:0:0:
256,192,447594,1,0,0:0:0:0:
475,192,447669,1,0,0:0:0:0:
36,192,447669,1,0,0:0:0:0:
109,192,447669,1,0,0:0:0:0:
329,192,447744,1,0,0:0:0:0:
256,192,447744,1,0,0:0:0:0:
182,192,447744,1,0,0:0:0:0:
475,192,447819,1,0,0:0:0:0:
36,192,447819,1,0,0:0:0:0:
109,192,447819,1,0,0:0:0:0:
402,192,447819,1,0,0:0:0:0:
256,192,447969,5,0,0:0:0:0:
256,192,448119,1,0,0:0:0:0:
256,192,448269,1,0,0:0:0:0:
182,192,448344,1,0,0:0:0:0:
475,192,448419,1,0,0:0:0:0:
329,192,448419,1,0,0:0:0:0:
182,192,448494,1,0,0:0:0:0:
256,192,448569,1,0,0:0:0:0:
329,192,448719,1,0,0:0:0:0:
475,192,448719,1,0,0:0:0:0:
36,192,448719,1,0,0:0:0:0:
182,192,448719,1,0,0:0:0:0:
329,192,448869,1,0,0:0:0:0:
182,192,448869,1,0,0:0:0:0:
36,192,449019,5,0,0:0:0:0:
402,192,449019,1,0,0:0:0:0:
475,192,449019,1,0,0:0:0:0:
256,192,449019,1,0,0:0:0:0:
109,192,449019,1,0,0:0:0:0:
329,192,449094,1,0,0:0:0:0:
182,192,449094,1,0,0:0:0:0:
475,192,449169,1,0,0:0:0:0:
256,192,449169,1,0,0:0:0:0:
109,192,449169,1,0,0:0:0:0:
329,192,449244,1,0,0:0:0:0:
402,192,449244,1,0,0:0:0:0:
256,192,449319,1,0,0:0:0:0:
36,192,449319,1,0,0:0:0:0:
182,192,449319,1,0,0:0:0:0:
109,192,449394,1,0,0:0:0:0:
475,192,449394,1,0,0:0:0:0:
402,192,449394,1,0,0:0:0:0:
182,192,449469,1,0,0:0:0:0:
329,192,449469,1,0,0:0:0:0:
256,192,449469,1,0,0:0:0:0:
109,192,449544,1,0,0:0:0:0:
36,192,449544,1,0,0:0:0:0:
475,192,449619,1,0,0:0:0:0:
182,192,449619,1,0,0:0:0:0:
329,192,449619,1,0,0:0:0:0:
402,192,449619,1,0,0:0:0:0:
109,192,449694,1,0,0:0:0:0:
256,192,449694,1,0,0:0:0:0:
182,192,449769,1,0,0:0:0:0:
402,192,449769,1,0,0:0:0:0:
36,192,449769,1,0,0:0:0:0:
475,192,449844,1,0,0:0:0:0:
329,192,449844,1,0,0:0:0:0:
36,192,449919,1,0,0:0:0:0:
402,192,449919,1,0,0:0:0:0:
256,192,449919,1,0,0:0:0:0:
109,192,449919,1,0,0:0:0:0:
329,192,449994,1,0,0:0:0:0:
182,192,449994,1,0,0:0:0:0:
256,192,450069,1,0,0:0:0:0:
109,192,450069,1,0,0:0:0:0:
475,192,450069,1,0,0:0:0:0:
36,192,450144,1,0,0:0:0:0:
402,192,450144,1,0,0:0:0:0:
475,192,450219,1,0,0:0:0:0:
109,192,450219,1,0,0:0:0:0:
182,192,450219,1,0,0:0:0:0:
329,192,450219,1,0,0:0:0:0:
36,192,450294,1,0,0:0:0:0:
256,192,450294,1,0,0:0:0:0:
329,192,450369,1,0,0:0:0:0:
182,192,450369,1,0,0:0:0:0:
402,192,450369,1,0,0:0:0:0:
256,192,450444,1,0,0:0:0:0:
109,192,450444,1,0,0:0:0:0:
182,192,450519,1,0,0:0:0:0:
36,192,450519,1,0,0:0:0:0:
475,192,450519,1,0,0:0:0:0:
402,192,450519,1,0,0:0:0:0:
256,192,450594,1,0,0:0:0:0:
329,192,450594,1,0,0:0:0:0:
182,192,450669,1,0,0:0:0:0:
36,192,450669,1,0,0:0:0:0:
109,192,450669,1,0,0:0:0:0:
402,192,450744,1,0,0:0:0:0:
329,192,450744,1,0,0:0:0:0:
36,192,450819,1,0,0:0:0:0:
109,192,450819,1,0,0:0:0:0:
475,192,450819,1,0,0:0:0:0:
256,192,450819,1,0,0:0:0:0:
402,192,450894,1,0,0:0:0:0:
182,192,450894,1,0,0:0:0:0:
256,192,450969,1,0,0:0:0:0:
475,192,450969,1,0,0:0:0:0:
329,192,450969,1,0,0:0:0:0:
36,192,450969,1,0,0:0:0:0:
182,192,451044,1,0,0:0:0:0:
109,192,451044,1,0,0:0:0:0:
475,192,451119,1,0,0:0:0:0:
256,192,451119,1,0,0:0:0:0:
329,192,451119,1,0,0:0:0:0:
402,192,451119,1,0,0:0:0:0:
182,192,451194,1,0,0:0:0:0:
36,192,451194,1,0,0:0:0:0:
109,192,451194,1,0,0:0:0:0:
475,192,451269,1,0,0:0:0:0:
329,192,451269,1,0,0:0:0:0:
402,192,451269,1,0,0:0:0:0:
36,192,451344,1,0,0:0:0:0:
182,192,451344,1,0,0:0:0:0:
109,192,451344,1,0,0:0:0:0:
475,192,451419,1,0,0:0:0:0:
402,192,451419,1,0,0:0:0:0:
329,192,451419,1,0,0:0:0:0:
182,192,451494,1,0,0:0:0:0:
256,192,451494,1,0,0:0:0:0:
109,192,451569,1,0,0:0:0:0:
402,192,451569,1,0,0:0:0:0:
475,192,451569,1,0,0:0:0:0:
36,192,451644,1,0,0:0:0:0:
329,192,451644,1,0,0:0:0:0:
475,192,451719,1,0,0:0:0:0:
256,192,451719,1,0,0:0:0:0:
109,192,451719,1,0,0:0:0:0:
182,192,451794,1,0,0:0:0:0:
402,192,451794,1,0,0:0:0:0:
109,192,451869,1,0,0:0:0:0:
36,192,451869,1,0,0:0:0:0:
329,192,451869,1,0,0:0:0:0:
475,192,451944,1,0,0:0:0:0:
402,192,451944,1,0,0:0:0:0:
256,192,451944,1,0,0:0:0:0:
36,192,452019,1,0,0:0:0:0:
329,192,452019,1,0,0:0:0:0:
182,192,452019,1,0,0:0:0:0:
109,192,452019,1,0,0:0:0:0:
402,192,452094,1,0,0:0:0:0:
256,192,452094,1,0,0:0:0:0:
109,192,452169,1,0,0:0:0:0:
36,192,452169,1,0,0:0:0:0:
475,192,452169,1,0,0:0:0:0:
402,192,452244,1,0,0:0:0:0:
182,192,452244,1,0,0:0:0:0:
109,192,452319,1,0,0:0:0:0:
329,192,452319,1,0,0:0:0:0:
256,192,452319,1,0,0:0:0:0:
475,192,452394,1,0,0:0:0:0:
36,192,452394,1,0,0:0:0:0:
329,192,452469,1,0,0:0:0:0:
182,192,452469,1,0,0:0:0:0:
402,192,452469,1,0,0:0:0:0:
256,192,452544,1,0,0:0:0:0:
109,192,452544,1,0,0:0:0:0:
36,192,452619,1,0,0:0:0:0:
475,192,452619,1,0,0:0:0:0:
402,192,452619,1,0,0:0:0:0:
182,192,452619,1,0,0:0:0:0:
256,192,452694,1,0,0:0:0:0:
36,192,452769,1,0,0:0:0:0:
109,192,452769,1,0,0:0:0:0:
402,192,452769,1,0,0:0:0:0:
475,192,452769,1,0,0:0:0:0:
182,192,452844,1,0,0:0:0:0:
256,192,452844,1,0,0:0:0:0:
329,192,452844,1,0,0:0:0:0:
402,192,452919,1,0,0:0:0:0:
109,192,452919,1,0,0:0:0:0:
475,192,452919,1,0,0:0:0:0:
36,192,452919,1,0,0:0:0:0:
329,192,452994,1,0,0:0:0:0:
182,192,452994,1,0,0:0:0:0:
475,192,453069,1,0,0:0:0:0:
402,192,453069,1,0,0:0:0:0:
256,192,453069,1,0,0:0:0:0:
329,192,453144,1,0,0:0:0:0:
109,192,453144,1,0,0:0:0:0:
475,192,453219,1,0,0:0:0:0:
36,192,453219,1,0,0:0:0:0:
256,192,453219,1,0,0:0:0:0:
182,192,453219,1,0,0:0:0:0:
329,192,453294,1,0,0:0:0:0:
402,192,453294,1,0,0:0:0:0:
36,192,453369,1,0,0:0:0:0:
109,192,453369,1,0,0:0:0:0:
182,192,453369,1,0,0:0:0:0:
475,192,453444,1,0,0:0:0:0:
402,192,453444,1,0,0:0:0:0:
329,192,453444,1,0,0:0:0:0:
182,192,453519,1,0,0:0:0:0:
109,192,453519,1,0,0:0:0:0:
36,192,453519,1,0,0:0:0:0:
256,192,453594,1,0,0:0:0:0:
329,192,453669,1,0,0:0:0:0:
182,192,453669,1,0,0:0:0:0:
475,192,453669,1,0,0:0:0:0:
256,192,453744,1,0,0:0:0:0:
109,192,453744,1,0,0:0:0:0:
182,192,453819,1,0,0:0:0:0:
36,192,453819,1,0,0:0:0:0:
402,192,453819,1,0,0:0:0:0:
329,192,453819,1,0,0:0:0:0:
475,192,453819,1,0,0:0:0:0:
109,192,453894,1,0,0:0:0:0:
256,192,453894,1,0,0:0:0:0:
402,192,453969,1,0,0:0:0:0:
329,192,453969,1,0,0:0:0:0:
182,192,453969,1,0,0:0:0:0:
36,192,454044,1,0,0:0:0:0:
109,192,454044,1,0,0:0:0:0:
256,192,454119,1,0,0:0:0:0:
182,192,454119,1,0,0:0:0:0:
402,192,454119,1,0,0:0:0:0:
475,192,454119,1,0,0:0:0:0:
329,192,454194,1,0,0:0:0:0:
36,192,454194,1,0,0:0:0:0:
402,192,454269,1,0,0:0:0:0:
475,192,454269,1,0,0:0:0:0:
109,192,454269,1,0,0:0:0:0:
256,192,454344,1,0,0:0:0:0:
182,192,454344,1,0,0:0:0:0:
36,192,454419,1,0,0:0:0:0:
109,192,454419,1,0,0:0:0:0:
329,192,454419,1,0,0:0:0:0:
475,192,454419,1,0,0:0:0:0:
182,192,454494,1,0,0:0:0:0:
402,192,454494,1,0,0:0:0:0:
329,192,454569,1,0,0:0:0:0:
475,192,454569,1,0,0:0:0:0:
256,192,454569,1,0,0:0:0:0:
36,192,454644,1,0,0:0:0:0:
109,192,454644,1,0,0:0:0:0:
402,192,454719,1,0,0:0:0:0:
475,192,454719,1,0,0:0:0:0:
182,192,454719,1,0,0:0:0:0:
329,192,454719,1,0,0:0:0:0:
109,192,454794,1,0,0:0:0:0:
36,192,454794,1,0,0:0:0:0:
256,192,454794,1,0,0:0:0:0:
329,192,454869,1,0,0:0:0:0:
182,192,454869,1,0,0:0:0:0:
402,192,454869,1,0,0:0:0:0:
109,192,454944,1,0,0:0:0:0:
256,192,454944,1,0,0:0:0:0:
402,192,455019,1,0,0:0:0:0:
475,192,455019,1,0,0:0:0:0:
36,192,455019,1,0,0:0:0:0:
182,192,455019,1,0,0:0:0:0:
256,192,455094,1,0,0:0:0:0:
329,192,455094,1,0,0:0:0:0:
475,192,455169,1,0,0:0:0:0:
182,192,455169,1,0,0:0:0:0:
109,192,455169,1,0,0:0:0:0:
36,192,455244,1,0,0:0:0:0:
329,192,455244,1,0,0:0:0:0:
402,192,455244,1,0,0:0:0:0:
256,192,455319,1,0,0:0:0:0:
475,192,455319,1,0,0:0:0:0:
182,192,455319,1,0,0:0:0:0:
109,192,455319,1,0,0:0:0:0:
36,192,455394,1,0,0:0:0:0:
402,192,455394,1,0,0:0:0:0:
329,192,455469,1,0,0:0:0:0:
256,192,455469,1,0,0:0:0:0:
109,192,455469,1,0,0:0:0:0:
182,192,455544,1,0,0:0:0:0:
402,192,455544,1,0,0:0:0:0:
475,192,455544,1,0,0:0:0:0:
256,192,455619,1,0,0:0:0:0:
329,192,455619,1,0,0:0:0:0:
36,192,455619,1,0,0:0:0:0:
109,192,455619,1,0,0:0:0:0:
182,192,455694,1,0,0:0:0:0:
36,192,455769,1,0,0:0:0:0:
402,192,455769,1,0,0:0:0:0:
329,192,455769,1,0,0:0:0:0:
109,192,455769,1,0,0:0:0:0:
182,192,455844,1,0,0:0:0:0:
256,192,455844,1,0,0:0:0:0:
109,192,455919,1,0,0:0:0:0:
402,192,455919,1,0,0:0:0:0:
36,192,455919,1,0,0:0:0:0:
475,192,455919,1,0,0:0:0:0:
329,192,455994,1,0,0:0:0:0:
256,192,455994,1,0,0:0:0:0:
475,192,456069,1,0,0:0:0:0:
402,192,456069,1,0,0:0:0:0:
182,192,456069,1,0,0:0:0:0:
329,192,456144,1,0,0:0:0:0:
109,192,456144,1,0,0:0:0:0:
36,192,456144,1,0,0:0:0:0:
182,192,456219,1,0,0:0:0:0:
402,192,456219,1,0,0:0:0:0:
256,192,456219,1,0,0:0:0:0:
475,192,456219,1,0,0:0:0:0:
36,192,456294,1,0,0:0:0:0:
256,192,456369,1,0,0:0:0:0:
329,192,456369,1,0,0:0:0:0:
109,192,456369,1,0,0:0:0:0:
402,192,456444,1,0,0:0:0:0:
182,192,456444,1,0,0:0:0:0:
36,192,456519,1,0,0:0:0:0:
109,192,456519,1,0,0:0:0:0:
475,192,456519,1,0,0:0:0:0:
329,192,456519,1,0,0:0:0:0:
402,192,456594,1,0,0:0:0:0:
256,192,456594,1,0,0:0:0:0:
329,192,456669,1,0,0:0:0:0:
475,192,456669,1,0,0:0:0:0:
182,192,456669,1,0,0:0:0:0:
36,192,456669,1,0,0:0:0:0:
256,192,456744,1,0,0:0:0:0:
109,192,456744,1,0,0:0:0:0:
402,192,456819,1,0,0:0:0:0:
475,192,456819,1,0,0:0:0:0:
182,192,456819,1,0,0:0:0:0:
36,192,456819,1,0,0:0:0:0:
256,192,456894,1,0,0:0:0:0:
329,192,456894,1,0,0:0:0:0:
36,192,456969,1,0,0:0:0:0:
402,192,456969,1,0,0:0:0:0:
109,192,456969,1,0,0:0:0:0:
475,192,456969,1,0,0:0:0:0:
182,192,457044,1,0,0:0:0:0:
329,192,457044,1,0,0:0:0:0:
256,192,457044,1,0,0:0:0:0:
36,192,457119,1,0,0:0:0:0:
402,192,457119,1,0,0:0:0:0:
109,192,457119,1,0,0:0:0:0:
475,192,457119,1,0,0:0:0:0:
256,192,457194,1,0,0:0:0:0:
182,192,457194,1,0,0:0:0:0:
329,192,457269,1,0,0:0:0:0:
475,192,457269,1,0,0:0:0:0:
402,192,457269,1,0,0:0:0:0:
256,192,457419,1,0,0:0:0:0:
475,192,457569,1,0,0:0:0:0:
402,192,457569,1,0,0:0:0:0:
329,192,457569,1,0,0:0:0:0:
36,192,457644,1,0,0:0:0:0:
109,192,457644,1,0,0:0:0:0:
182,192,457644,1,0,0:0:0:0:
475,192,457719,1,0,0:0:0:0:
402,192,457719,1,0,0:0:0:0:
329,192,457719,1,0,0:0:0:0:
36,192,457794,1,0,0:0:0:0:
109,192,457794,1,0,0:0:0:0:
182,192,457794,1,0,0:0:0:0:
475,192,457869,1,0,0:0:0:0:
402,192,457869,1,0,0:0:0:0:
329,192,457869,1,0,0:0:0:0:
36,192,457944,1,0,0:0:0:0:
109,192,457944,1,0,0:0:0:0:
182,192,457944,1,0,0:0:0:0:
475,192,458019,1,0,0:0:0:0:
402,192,458019,1,0,0:0:0:0:
329,192,458019,1,0,0:0:0:0:
36,192,458094,1,0,0:0:0:0:
109,192,458094,1,0,0:0:0:0:
182,192,458094,1,0,0:0:0:0:
475,192,458169,1,0,0:0:0:0:
402,192,458169,1,0,0:0:0:0:
256,192,458169,1,0,0:0:0:0:
109,192,458244,1,0,0:0:0:0:
182,192,458244,1,0,0:0:0:0:
36,192,458319,1,0,0:0:0:0:
256,192,458319,1,0,0:0:0:0:
475,192,458319,1,0,0:0:0:0:
329,192,458319,1,0,0:0:0:0:
402,192,458319,1,0,0:0:0:0:
475,192,458619,1,0,0:0:0:0:
256,192,458619,1,0,0:0:0:0:
329,192,458619,1,0,0:0:0:0:
36,192,458619,1,0,0:0:0:0:
109,192,458619,1,0,0:0:0:0:
402,192,458694,1,0,0:0:0:0:
182,192,458694,1,0,0:0:0:0:
109,192,458769,1,0,0:0:0:0:
36,192,458769,1,0,0:0:0:0:
256,192,458769,1,0,0:0:0:0:
475,192,458844,1,0,0:0:0:0:
329,192,458844,1,0,0:0:0:0:
36,192,458919,1,0,0:0:0:0:
402,192,458919,1,0,0:0:0:0:
256,192,458919,1,0,0:0:0:0:
109,192,458919,1,0,0:0:0:0:
182,192,458994,1,0,0:0:0:0:
329,192,458994,1,0,0:0:0:0:
256,192,459069,1,0,0:0:0:0:
402,192,459069,1,0,0:0:0:0:
475,192,459069,1,0,0:0:0:0:
109,192,459144,1,0,0:0:0:0:
36,192,459144,1,0,0:0:0:0:
329,192,459144,1,0,0:0:0:0:
402,192,459219,1,0,0:0:0:0:
475,192,459219,1,0,0:0:0:0:
256,192,459219,1,0,0:0:0:0:
182,192,459219,1,0,0:0:0:0:
109,192,459294,1,0,0:0:0:0:
36,192,459294,1,0,0:0:0:0:
256,192,459369,1,0,0:0:0:0:
475,192,459369,1,0,0:0:0:0:
329,192,459369,1,0,0:0:0:0:
182,192,459369,1,0,0:0:0:0:
109,192,459444,1,0,0:0:0:0:
402,192,459444,1,0,0:0:0:0:
329,192,459519,1,0,0:0:0:0:
256,192,459519,1,0,0:0:0:0:
182,192,459519,1,0,0:0:0:0:
36,192,459519,1,0,0:0:0:0:
475,192,459594,1,0,0:0:0:0:
402,192,459594,1,0,0:0:0:0:
36,192,459669,1,0,0:0:0:0:
109,192,459669,1,0,0:0:0:0:
329,192,459669,1,0,0:0:0:0:
256,192,459744,1,0,0:0:0:0:
182,192,459744,1,0,0:0:0:0:
36,192,459819,1,0,0:0:0:0:
402,192,459819,1,0,0:0:0:0:
329,192,459819,1,0,0:0:0:0:
109,192,459819,1,0,0:0:0:0:
256,192,459894,1,0,0:0:0:0:
475,192,459894,1,0,0:0:0:0:
329,192,459969,1,0,0:0:0:0:
182,192,459969,1,0,0:0:0:0:
109,192,459969,1,0,0:0:0:0:
256,192,460044,1,0,0:0:0:0:
402,192,460044,1,0,0:0:0:0:
329,192,460119,1,0,0:0:0:0:
475,192,460119,1,0,0:0:0:0:
36,192,460119,1,0,0:0:0:0:
109,192,460119,1,0,0:0:0:0:
256,192,460194,1,0,0:0:0:0:
182,192,460194,1,0,0:0:0:0:
36,192,460269,1,0,0:0:0:0:
329,192,460269,1,0,0:0:0:0:
402,192,460269,1,0,0:0:0:0:
256,192,460344,1,0,0:0:0:0:
182,192,460344,1,0,0:0:0:0:
109,192,460344,1,0,0:0:0:0:
329,192,460419,1,0,0:0:0:0:
36,192,460419,1,0,0:0:0:0:
402,192,460419,1,0,0:0:0:0:
475,192,460419,1,0,0:0:0:0:
109,192,460494,1,0,0:0:0:0:
182,192,460494,1,0,0:0:0:0:
475,192,460569,1,0,0:0:0:0:
402,192,460569,1,0,0:0:0:0:
256,192,460569,1,0,0:0:0:0:
329,192,460644,1,0,0:0:0:0:
109,192,460644,1,0,0:0:0:0:
36,192,460644,1,0,0:0:0:0:
402,192,460719,1,0,0:0:0:0:
475,192,460719,1,0,0:0:0:0:
182,192,460719,1,0,0:0:0:0:
256,192,460719,1,0,0:0:0:0:
329,192,460794,1,0,0:0:0:0:
109,192,460869,1,0,0:0:0:0:
256,192,460869,1,0,0:0:0:0:
36,192,460869,1,0,0:0:0:0:
182,192,460944,1,0,0:0:0:0:
402,192,460944,1,0,0:0:0:0:
329,192,460944,1,0,0:0:0:0:
256,192,461019,1,0,0:0:0:0:
109,192,461019,1,0,0:0:0:0:
36,192,461019,1,0,0:0:0:0:
475,192,461019,1,0,0:0:0:0:
329,192,461094,1,0,0:0:0:0:
402,192,461094,1,0,0:0:0:0:
36,192,461169,1,0,0:0:0:0:
182,192,461169,1,0,0:0:0:0:
256,192,461244,1,0,0:0:0:0:
329,192,461244,1,0,0:0:0:0:
109,192,461244,1,0,0:0:0:0:
475,192,461319,1,0,0:0:0:0:
36,192,461319,1,0,0:0:0:0:
182,192,461319,1,0,0:0:0:0:
402,192,461319,1,0,0:0:0:0:
256,192,461394,1,0,0:0:0:0:
109,192,461394,1,0,0:0:0:0:
475,192,461469,1,0,0:0:0:0:
329,192,461469,1,0,0:0:0:0:
182,192,461469,1,0,0:0:0:0:
402,192,461544,1,0,0:0:0:0:
36,192,461544,1,0,0:0:0:0:
109,192,461544,1,0,0:0:0:0:
329,192,461619,1,0,0:0:0:0:
475,192,461619,1,0,0:0:0:0:
256,192,461619,1,0,0:0:0:0:
182,192,461619,1,0,0:0:0:0:
402,192,461694,1,0,0:0:0:0:
109,192,461694,1,0,0:0:0:0:
329,192,461769,1,0,0:0:0:0:
256,192,461769,1,0,0:0:0:0:
36,192,461769,1,0,0:0:0:0:
475,192,461844,1,0,0:0:0:0:
182,192,461844,1,0,0:0:0:0:
36,192,461919,1,0,0:0:0:0:
109,192,461919,1,0,0:0:0:0:
402,192,461919,1,0,0:0:0:0:
329,192,461919,1,0,0:0:0:0:
475,192,461994,1,0,0:0:0:0:
256,192,461994,1,0,0:0:0:0:
109,192,462069,1,0,0:0:0:0:
36,192,462069,1,0,0:0:0:0:
329,192,462069,1,0,0:0:0:0:
475,192,462144,1,0,0:0:0:0:
182,192,462144,1,0,0:0:0:0:
402,192,462144,1,0,0:0:0:0:
109,192,462219,1,0,0:0:0:0:
36,192,462219,1,0,0:0:0:0:
256,192,462219,1,0,0:0:0:0:
329,192,462219,1,0,0:0:0:0:
182,192,462294,1,0,0:0:0:0:
402,192,462294,1,0,0:0:0:0:
256,192,462369,1,0,0:0:0:0:
475,192,462369,1,0,0:0:0:0:
36,192,462369,1,0,0:0:0:0:
402,192,462444,1,0,0:0:0:0:
109,192,462444,1,0,0:0:0:0:
329,192,462444,1,0,0:0:0:0:
256,192,462519,1,0,0:0:0:0:
475,192,462519,1,0,0:0:0:0:
182,192,462519,1,0,0:0:0:0:
36,192,462519,1,0,0:0:0:0:
402,192,462594,1,0,0:0:0:0:
329,192,462594,1,0,0:0:0:0:
182,192,462669,1,0,0:0:0:0:
475,192,462669,1,0,0:0:0:0:
109,192,462669,1,0,0:0:0:0:
36,192,462669,1,0,0:0:0:0:
329,192,462744,1,0,0:0:0:0:
256,192,462744,1,0,0:0:0:0:
402,192,462819,1,0,0:0:0:0:
475,192,462819,1,0,0:0:0:0:
182,192,462819,1,0,0:0:0:0:
109,192,462819,1,0,0:0:0:0:
36,192,462819,1,0,0:0:0:0:
256,192,462894,1,0,0:0:0:0:
402,192,462969,1,0,0:0:0:0:
475,192,462969,1,0,0:0:0:0:
36,192,462969,1,0,0:0:0:0:
109,192,462969,1,0,0:0:0:0:
329,192,463044,1,0,0:0:0:0:
256,192,463044,1,0,0:0:0:0:
182,192,463044,1,0,0:0:0:0:
402,192,463119,1,0,0:0:0:0:
475,192,463119,1,0,0:0:0:0:
109,192,463119,1,0,0:0:0:0:
36,192,463119,1,0,0:0:0:0:
182,192,463269,1,0,0:0:0:0:
329,192,463269,1,0,0:0:0:0:
109,192,463269,1,0,0:0:0:0:
256,192,463269,1,0,0:0:0:0:
402,192,463269,1,0,0:0:0:0:
182,192,463419,1,0,0:0:0:0:
109,192,463419,1,0,0:0:0:0:
402,192,463419,1,0,0:0:0:0:
36,192,463419,1,0,0:0:0:0:
256,192,463419,1,0,0:0:0:0:
329,192,463419,1,0,0:0:0:0:
475,192,463419,1,0,0:0:0:0:
475,192,463719,1,0,0:0:0:0:
329,192,463719,1,0,0:0:0:0:
402,192,463719,1,0,0:0:0:0:
36,192,463719,1,0,0:0:0:0:
182,192,463719,1,0,0:0:0:0:
109,192,463794,1,0,0:0:0:0:
256,192,463794,1,0,0:0:0:0:
402,192,463869,1,0,0:0:0:0:
329,192,463869,1,0,0:0:0:0:
182,192,463869,1,0,0:0:0:0:
256,192,463944,1,0,0:0:0:0:
109,192,463944,1,0,0:0:0:0:
36,192,463944,1,0,0:0:0:0:
475,192,464019,1,0,0:0:0:0:
182,192,464019,1,0,0:0:0:0:
329,192,464019,1,0,0:0:0:0:
402,192,464019,1,0,0:0:0:0:
256,192,464094,1,0,0:0:0:0:
109,192,464094,1,0,0:0:0:0:
402,192,464169,1,0,0:0:0:0:
182,192,464169,1,0,0:0:0:0:
36,192,464169,1,0,0:0:0:0:
475,192,464244,1,0,0:0:0:0:
256,192,464244,1,0,0:0:0:0:
329,192,464244,1,0,0:0:0:0:
182,192,464319,1,0,0:0:0:0:
402,192,464319,1,0,0:0:0:0:
109,192,464319,1,0,0:0:0:0:
36,192,464319,1,0,0:0:0:0:
475,192,464394,1,0,0:0:0:0:
329,192,464394,1,0,0:0:0:0:
109,192,464469,1,0,0:0:0:0:
402,192,464469,1,0,0:0:0:0:
256,192,464469,1,0,0:0:0:0:
36,192,464469,1,0,0:0:0:0:
329,192,464544,1,0,0:0:0:0:
182,192,464544,1,0,0:0:0:0:
36,192,464619,1,0,0:0:0:0:
402,192,464619,1,0,0:0:0:0:
109,192,464619,1,0,0:0:0:0:
475,192,464619,1,0,0:0:0:0:
256,192,464619,1,0,0:0:0:0:
329,192,464919,1,0,0:0:0:0:
475,192,464919,1,0,0:0:0:0:
256,192,464919,1,0,0:0:0:0:
36,192,464919,1,0,0:0:0:0:
109,192,464919,1,0,0:0:0:0:
182,192,464994,1,0,0:0:0:0:
402,192,464994,1,0,0:0:0:0:
109,192,465069,1,0,0:0:0:0:
329,192,465069,1,0,0:0:0:0:
256,192,465069,1,0,0:0:0:0:
182,192,465144,1,0,0:0:0:0:
475,192,465144,1,0,0:0:0:0:
36,192,465144,1,0,0:0:0:0:
329,192,465219,1,0,0:0:0:0:
256,192,465219,1,0,0:0:0:0:
402,192,465219,1,0,0:0:0:0:
182,192,465294,1,0,0:0:0:0:
36,192,465294,1,0,0:0:0:0:
109,192,465294,1,0,0:0:0:0:
402,192,465369,1,0,0:0:0:0:
475,192,465369,1,0,0:0:0:0:
329,192,465369,1,0,0:0:0:0:
182,192,465444,1,0,0:0:0:0:
36,192,465444,1,0,0:0:0:0:
256,192,465444,1,0,0:0:0:0:
475,192,465519,1,0,0:0:0:0:
329,192,465519,1,0,0:0:0:0:
402,192,465519,1,0,0:0:0:0:
182,192,465594,1,0,0:0:0:0:
109,192,465594,1,0,0:0:0:0:
36,192,465594,1,0,0:0:0:0:
329,192,465669,1,0,0:0:0:0:
475,192,465669,1,0,0:0:0:0:
402,192,465669,1,0,0:0:0:0:
256,192,465744,1,0,0:0:0:0:
329,192,465819,1,0,0:0:0:0:
475,192,465819,1,0,0:0:0:0:
402,192,465819,1,0,0:0:0:0:
182,192,465819,1,0,0:0:0:0:
36,192,465819,1,0,0:0:0:0:
109,192,465819,1,0,0:0:0:0:
256,192,465894,1,0,0:0:0:0:
109,192,465969,1,0,0:0:0:0:
402,192,465969,1,0,0:0:0:0:
182,192,465969,1,0,0:0:0:0:
329,192,466044,1,0,0:0:0:0:
36,192,466044,1,0,0:0:0:0:
256,192,466044,1,0,0:0:0:0:
182,192,466119,1,0,0:0:0:0:
109,192,466119,1,0,0:0:0:0:
402,192,466119,1,0,0:0:0:0:
475,192,466119,1,0,0:0:0:0:
256,192,466194,1,0,0:0:0:0:
36,192,466269,1,0,0:0:0:0:
402,192,466269,1,0,0:0:0:0:
109,192,466269,1,0,0:0:0:0:
329,192,466269,1,0,0:0:0:0:
256,192,466344,1,0,0:0:0:0:
182,192,466344,1,0,0:0:0:0:
475,192,466419,1,0,0:0:0:0:
329,192,466419,1,0,0:0:0:0:
109,192,466419,1,0,0:0:0:0:
36,192,466419,1,0,0:0:0:0:
182,192,466494,1,0,0:0:0:0:
402,192,466494,1,0,0:0:0:0:
36,192,466569,1,0,0:0:0:0:
256,192,466569,1,0,0:0:0:0:
109,192,466569,1,0,0:0:0:0:
402,192,466644,1,0,0:0:0:0:
475,192,466644,1,0,0:0:0:0:
329,192,466644,1,0,0:0:0:0:
182,192,466644,1,0,0:0:0:0:
36,192,466719,1,0,0:0:0:0:
256,192,466719,1,0,0:0:0:0:
109,192,466719,1,0,0:0:0:0:
182,192,466794,1,0,0:0:0:0:
329,192,466794,1,0,0:0:0:0:
256,192,466869,1,0,0:0:0:0:
109,192,466869,1,0,0:0:0:0:
402,192,466869,1,0,0:0:0:0:
475,192,466869,1,0,0:0:0:0:
182,192,466944,1,0,0:0:0:0:
329,192,466944,1,0,0:0:0:0:
36,192,467019,1,0,0:0:0:0:
256,192,467019,1,0,0:0:0:0:
109,192,467019,1,0,0:0:0:0:
475,192,467019,1,0,0:0:0:0:
402,192,467069,1,0,0:0:0:0:
329,192,467119,1,0,0:0:0:0:
256,192,467169,1,0,0:0:0:0:
36,192,467169,1,0,0:0:0:0:
109,192,467219,1,0,0:0:0:0:
182,192,467269,1,0,0:0:0:0:
329,192,467319,1,0,0:0:0:0:
475,192,467319,1,0,0:0:0:0:
36,192,467369,1,0,0:0:0:0:
109,192,467419,1,0,0:0:0:0:
475,192,467469,1,0,0:0:0:0:
182,192,467469,1,0,0:0:0:0:
402,192,467519,1,0,0:0:0:0:
329,192,467569,1,0,0:0:0:0:
36,192,467619,1,0,0:0:0:0:
182,192,467619,1,0,0:0:0:0:
256,192,467669,1,0,0:0:0:0:
329,192,467719,1,0,0:0:0:0:
109,192,467769,1,0,0:0:0:0:
402,192,467769,1,0,0:0:0:0:
182,192,467819,1,0,0:0:0:0:
256,192,467869,1,0,0:0:0:0:
329,192,467919,1,0,0:0:0:0:
475,192,467919,1,0,0:0:0:0:
36,192,467919,1,0,0:0:0:0:
329,192,468069,1,0,0:0:0:0:
182,192,468069,1,0,0:0:0:0:
36,192,468069,1,0,0:0:0:0:
475,192,468069,1,0,0:0:0:0:
