osu file format v14

[General]
AudioFilename: Dan_8.mp3
AudioLeadIn: 0
PreviewTime: 30
Countdown: 0
SampleSet: Soft
StackLeniency: 0.7
Mode: 3
LetterboxInBreaks: 0
SpecialStyle: 0
WidescreenStoryboard: 1

[Editor]
DistanceSpacing: 1
BeatDivisor: 4
GridSize: 8
TimelineZoom: 1.6

[Metadata]
Title:Regular Dan Phase II
TitleUnicode:Regular Dan Phase II
Artist:osu!mania 7K Dan Course
ArtistUnicode:osu!mania 7K Dan Course
Creator:Jinjin
Version:8th Dan (Marathon)
Source:
Tags:thaehan overworld camellia bangin burst sai oto komiya mao yozakura choma tiny tales continue
BeatmapID:1673133
BeatmapSetID:451788

[Difficulty]
HPDrainRate:8
CircleSize:7
OverallDifficulty:8.5
ApproachRate:5
SliderMultiplier:1.4
SliderTickRate:1

[Events]
//Background and Video events
0,0,"Dan_8.png",0,0
//Break Periods
2,129484,141353
2,259163,273002
2,404180,418868
//Storyboard Layer 0 (Background)
//Storyboard Layer 1 (Fail)
//Storyboard Layer 2 (Pass)
//Storyboard Layer 3 (Foreground)
//Storyboard Sound Samples

[TimingPoints]
30,310.334126409434,5,2,0,0,1,0
30,-142.857142857143,5,2,0,0,0,0
142553,256.410256410256,4,2,0,0,1,0
142553,-172.413793103448,4,2,0,0,0,0
272425,444.444444444444,4,2,0,0,1,0
418791,319.454797146204,4,2,0,0,1,0
418791,-138.888888888889,4,2,0,0,0,0

[HitObjects]
475,192,30,5,0,0:0:0:0:
36,192,30,1,0,0:0:0:0:
109,192,30,1,0,0:0:0:0:
256,192,30,1,0,0:0:0:0:
329,192,30,1,0,0:0:0:0:
402,192,236,5,0,0:0:0:0:
402,192,340,1,0,0:0:0:0:
402,192,547,1,0,0:0:0:0:
402,192,650,1,0,0:0:0:0:
329,192,650,1,0,0:0:0:0:
402,192,961,1,0,0:0:0:0:
36,192,1167,1,0,0:0:0:0:
109,192,1167,1,0,0:0:0:0:
256,192,1167,1,0,0:0:0:0:
329,192,1271,1,0,0:0:0:0:
475,192,1271,1,0,0:0:0:0:
182,192,1271,1,0,0:0:0:0:
36,192,1271,1,0,0:0:0:0:
109,192,1271,1,0,0:0:0:0:
402,192,1478,1,0,0:0:0:0:
402,192,1581,1,0,0:0:0:0:
329,192,1892,1,0,0:0:0:0:
402,192,1892,1,0,0:0:0:0:
402,192,2202,1,0,0:0:0:0:
402,192,2409,1,0,0:0:0:0:
182,192,2409,1,0,0:0:0:0:
36,192,2409,1,0,0:0:0:0:
109,192,2409,1,0,0:0:0:0:
475,192,2512,1,0,0:0:0:0:
329,192,2512,1,0,0:0:0:0:
109,192,2512,1,0,0:0:0:0:
182,192,2512,1,0,0:0:0:0:
256,192,2512,1,0,0:0:0:0:
402,192,2719,1,0,0:0:0:0:
402,192,2823,1,0,0:0:0:0:
256,192,2823,1,0,0:0:0:0:
182,192,2823,1,0,0:0:0:0:
36,192,2823,1,0,0:0:0:0:
402,192,3029,1,0,0:0:0:0:
329,192,3133,1,0,0:0:0:0:
402,192,3133,1,0,0:0:0:0:
36,192,3133,1,0,0:0:0:0:
109,192,3133,1,0,0:0:0:0:
182,192,3133,1,0,0:0:0:0:
402,192,3443,1,0,0:0:0:0:
36,192,3443,1,0,0:0:0:0:
182,192,3443,1,0,0:0:0:0:
256,192,3443,1,0,0:0:0:0:
475,192,3754,1,0,0:0:0:0:
329,192,3754,1,0,0:0:0:0:
182,192,3754,1,0,0:0:0:0:
36,192,3754,1,0,0:0:0:0:
109,192,3754,1,0,0:0:0:0:
402,192,3857,1,0,0:0:0:0:
402,192,3960,1,0,0:0:0:0:
402,192,4064,1,0,0:0:0:0:
402,192,4374,1,0,0:0:0:0:
329,192,4374,1,0,0:0:0:0:
475,192,4685,1,0,0:0:0:0:
109,192,4685,1,0,0:0:0:0:
182,192,4685,1,0,0:0:0:0:
182,192,4788,1,0,0:0:0:0:
36,192,4788,1,0,0:0:0:0:
109,192,4891,1,0,0:0:0:0:
256,192,4891,1,0,0:0:0:0:
109,192,4995,1,0,0:0:0:0:
256,192,4995,1,0,0:0:0:0:
475,192,4995,1,0,0:0:0:0:
36,192,4995,1,0,0:0:0:0:
329,192,4995,1,0,0:0:0:0:
402,192,5202,1,0,0:0:0:0:
402,192,5305,1,0,0:0:0:0:
402,192,5512,1,0,0:0:0:0:
329,192,5616,1,0,0:0:0:0:
402,192,5616,1,0,0:0:0:0:
402,192,5926,1,0,0:0:0:0:
256,192,6133,1,0,0:0:0:0:
109,192,6133,1,0,0:0:0:0:
36,192,6133,1,0,0:0:0:0:
36,192,6236,1,0,0:0:0:0:
109,192,6236,1,0,0:0:0:0:
182,192,6236,1,0,0:0:0:0:
329,192,6236,1,0,0:0:0:0:
475,192,6236,1,0,0:0:0:0:
402,192,6443,1,0,0:0:0:0:
402,192,6547,1,0,0:0:0:0:
402,192,6857,1,0,0:0:0:0:
329,192,6857,1,0,0:0:0:0:
402,192,7167,1,0,0:0:0:0:
36,192,7374,1,0,0:0:0:0:
109,192,7374,1,0,0:0:0:0:
402,192,7374,1,0,0:0:0:0:
182,192,7374,1,0,0:0:0:0:
182,192,7478,1,0,0:0:0:0:
256,192,7478,1,0,0:0:0:0:
109,192,7478,1,0,0:0:0:0:
475,192,7478,1,0,0:0:0:0:
329,192,7478,1,0,0:0:0:0:
402,192,7684,1,0,0:0:0:0:
182,192,7788,1,0,0:0:0:0:
36,192,7788,1,0,0:0:0:0:
402,192,7788,1,0,0:0:0:0:
256,192,7788,1,0,0:0:0:0:
402,192,7995,1,0,0:0:0:0:
109,192,8098,1,0,0:0:0:0:
182,192,8098,1,0,0:0:0:0:
329,192,8098,1,0,0:0:0:0:
402,192,8098,1,0,0:0:0:0:
256,192,8098,1,0,0:0:0:0:
256,192,8409,1,0,0:0:0:0:
402,192,8409,1,0,0:0:0:0:
36,192,8409,1,0,0:0:0:0:
109,192,8409,1,0,0:0:0:0:
36,192,8719,1,0,0:0:0:0:
109,192,8719,1,0,0:0:0:0:
182,192,8719,1,0,0:0:0:0:
475,192,8719,1,0,0:0:0:0:
329,192,8719,1,0,0:0:0:0:
402,192,8822,1,0,0:0:0:0:
402,192,8926,1,0,0:0:0:0:
402,192,9029,1,0,0:0:0:0:
182,192,9029,1,0,0:0:0:0:
109,192,9029,1,0,0:0:0:0:
109,192,9133,1,0,0:0:0:0:
182,192,9133,1,0,0:0:0:0:
182,192,9236,1,0,0:0:0:0:
109,192,9236,1,0,0:0:0:0:
329,192,9340,1,0,0:0:0:0:
36,192,9340,1,0,0:0:0:0:
256,192,9340,1,0,0:0:0:0:
475,192,9340,1,0,0:0:0:0:
475,192,9650,1,0,0:0:0:0:
36,192,9650,1,0,0:0:0:0:
182,192,9650,1,0,0:0:0:0:
36,192,9753,1,0,0:0:0:0:
182,192,9753,1,0,0:0:0:0:
36,192,9857,1,0,0:0:0:0:
182,192,9857,1,0,0:0:0:0:
109,192,9960,1,0,0:0:0:0:
256,192,9960,1,0,0:0:0:0:
475,192,9960,1,0,0:0:0:0:
329,192,9960,1,0,0:0:0:0:
402,192,10167,1,0,0:0:0:0:
402,192,10271,1,0,0:0:0:0:
402,192,10477,1,0,0:0:0:0:
182,192,10477,1,0,0:0:0:0:
329,192,10581,1,0,0:0:0:0:
402,192,10581,1,0,0:0:0:0:
109,192,10581,1,0,0:0:0:0:
256,192,10788,1,0,0:0:0:0:
402,192,10891,1,0,0:0:0:0:
182,192,10891,1,0,0:0:0:0:
256,192,11098,1,0,0:0:0:0:
109,192,11098,1,0,0:0:0:0:
36,192,11098,1,0,0:0:0:0:
402,192,11098,1,0,0:0:0:0:
36,192,11202,1,0,0:0:0:0:
109,192,11202,1,0,0:0:0:0:
182,192,11202,1,0,0:0:0:0:
329,192,11202,1,0,0:0:0:0:
475,192,11202,1,0,0:0:0:0:
402,192,11408,1,0,0:0:0:0:
402,192,11512,1,0,0:0:0:0:
109,192,11719,1,0,0:0:0:0:
402,192,11822,1,0,0:0:0:0:
329,192,11822,1,0,0:0:0:0:
182,192,11822,1,0,0:0:0:0:
109,192,12029,1,0,0:0:0:0:
402,192,12133,1,0,0:0:0:0:
36,192,12133,1,0,0:0:0:0:
36,192,12339,1,0,0:0:0:0:
109,192,12339,1,0,0:0:0:0:
402,192,12339,1,0,0:0:0:0:
182,192,12339,1,0,0:0:0:0:
109,192,12443,1,0,0:0:0:0:
475,192,12443,1,0,0:0:0:0:
329,192,12443,1,0,0:0:0:0:
256,192,12443,1,0,0:0:0:0:
402,192,12650,1,0,0:0:0:0:
256,192,12650,1,0,0:0:0:0:
182,192,12753,1,0,0:0:0:0:
36,192,12753,1,0,0:0:0:0:
402,192,12753,1,0,0:0:0:0:
109,192,12753,1,0,0:0:0:0:
402,192,12960,1,0,0:0:0:0:
109,192,12960,1,0,0:0:0:0:
36,192,13064,1,0,0:0:0:0:
329,192,13064,1,0,0:0:0:0:
402,192,13064,1,0,0:0:0:0:
182,192,13064,1,0,0:0:0:0:
182,192,13270,1,0,0:0:0:0:
256,192,13374,1,0,0:0:0:0:
402,192,13374,1,0,0:0:0:0:
36,192,13374,1,0,0:0:0:0:
109,192,13374,1,0,0:0:0:0:
475,192,13374,1,0,0:0:0:0:
402,192,13581,1,0,0:0:0:0:
36,192,13684,1,0,0:0:0:0:
109,192,13684,1,0,0:0:0:0:
475,192,13684,1,0,0:0:0:0:
329,192,13684,1,0,0:0:0:0:
256,192,13684,1,0,0:0:0:0:
402,192,13788,1,0,0:0:0:0:
402,192,13891,1,0,0:0:0:0:
402,192,13995,1,0,0:0:0:0:
329,192,14305,1,0,0:0:0:0:
402,192,14305,1,0,0:0:0:0:
182,192,14615,1,0,0:0:0:0:
109,192,14615,1,0,0:0:0:0:
475,192,14615,1,0,0:0:0:0:
36,192,14719,1,0,0:0:0:0:
182,192,14719,1,0,0:0:0:0:
256,192,14822,1,0,0:0:0:0:
109,192,14822,1,0,0:0:0:0:
36,192,14926,1,0,0:0:0:0:
329,192,14926,1,0,0:0:0:0:
475,192,14926,1,0,0:0:0:0:
109,192,14926,1,0,0:0:0:0:
256,192,14926,1,0,0:0:0:0:
402,192,15132,1,0,0:0:0:0:
402,192,15236,1,0,0:0:0:0:
402,192,15443,1,0,0:0:0:0:
109,192,15443,1,0,0:0:0:0:
402,192,15546,1,0,0:0:0:0:
329,192,15546,1,0,0:0:0:0:
182,192,15546,1,0,0:0:0:0:
329,192,15753,1,0,0:0:0:0:
402,192,15857,1,0,0:0:0:0:
182,192,15857,1,0,0:0:0:0:
36,192,16063,1,0,0:0:0:0:
109,192,16063,1,0,0:0:0:0:
256,192,16063,1,0,0:0:0:0:
329,192,16063,1,0,0:0:0:0:
475,192,16167,1,0,0:0:0:0:
182,192,16167,1,0,0:0:0:0:
36,192,16167,1,0,0:0:0:0:
402,192,16167,1,0,0:0:0:0:
109,192,16167,1,0,0:0:0:0:
402,192,16374,1,0,0:0:0:0:
402,192,16477,1,0,0:0:0:0:
109,192,16684,1,0,0:0:0:0:
329,192,16788,1,0,0:0:0:0:
402,192,16788,1,0,0:0:0:0:
182,192,16788,1,0,0:0:0:0:
256,192,16994,1,0,0:0:0:0:
402,192,17098,1,0,0:0:0:0:
329,192,17098,1,0,0:0:0:0:
256,192,17201,1,0,0:0:0:0:
402,192,17305,1,0,0:0:0:0:
36,192,17305,1,0,0:0:0:0:
109,192,17305,1,0,0:0:0:0:
182,192,17305,1,0,0:0:0:0:
475,192,17408,1,0,0:0:0:0:
109,192,17408,1,0,0:0:0:0:
256,192,17408,1,0,0:0:0:0:
329,192,17408,1,0,0:0:0:0:
402,192,17615,1,0,0:0:0:0:
402,192,17719,1,0,0:0:0:0:
182,192,17719,1,0,0:0:0:0:
109,192,17719,1,0,0:0:0:0:
256,192,17719,1,0,0:0:0:0:
402,192,17925,1,0,0:0:0:0:
256,192,17925,1,0,0:0:0:0:
402,192,18029,1,0,0:0:0:0:
329,192,18029,1,0,0:0:0:0:
36,192,18029,1,0,0:0:0:0:
182,192,18029,1,0,0:0:0:0:
109,192,18132,1,0,0:0:0:0:
36,192,18236,1,0,0:0:0:0:
109,192,18339,1,0,0:0:0:0:
256,192,18339,1,0,0:0:0:0:
402,192,18339,1,0,0:0:0:0:
475,192,18339,1,0,0:0:0:0:
329,192,18339,1,0,0:0:0:0:
182,192,18443,1,0,0:0:0:0:
256,192,18546,1,0,0:0:0:0:
475,192,18650,1,0,0:0:0:0:
182,192,18650,1,0,0:0:0:0:
36,192,18650,1,0,0:0:0:0:
109,192,18650,1,0,0:0:0:0:
329,192,18650,1,0,0:0:0:0:
402,192,18753,1,0,0:0:0:0:
402,192,18856,1,0,0:0:0:0:
109,192,18960,1,0,0:0:0:0:
182,192,18960,1,0,0:0:0:0:
402,192,18960,1,0,0:0:0:0:
256,192,18960,1,0,0:0:0:0:
182,192,19063,1,0,0:0:0:0:
109,192,19063,1,0,0:0:0:0:
329,192,19063,1,0,0:0:0:0:
109,192,19167,1,0,0:0:0:0:
182,192,19167,1,0,0:0:0:0:
475,192,19167,1,0,0:0:0:0:
256,192,19270,1,0,0:0:0:0:
36,192,19270,1,0,0:0:0:0:
329,192,19270,1,0,0:0:0:0:
402,192,19270,1,0,0:0:0:0:
182,192,19581,1,0,0:0:0:0:
36,192,19581,1,0,0:0:0:0:
475,192,19581,1,0,0:0:0:0:
182,192,19684,1,0,0:0:0:0:
36,192,19684,1,0,0:0:0:0:
329,192,19684,1,0,0:0:0:0:
182,192,19787,1,0,0:0:0:0:
36,192,19787,1,0,0:0:0:0:
256,192,19787,1,0,0:0:0:0:
402,192,19891,1,0,0:0:0:0:
109,192,19891,1,0,0:0:0:0:
475,192,19891,1,0,0:0:0:0:
329,192,19891,1,0,0:0:0:0:
402,192,20098,1,0,0:0:0:0:
402,192,20201,1,0,0:0:0:0:
109,192,20201,1,0,0:0:0:0:
256,192,20201,1,0,0:0:0:0:
256,192,20305,1,0,0:0:0:0:
109,192,20305,1,0,0:0:0:0:
402,192,20408,1,0,0:0:0:0:
182,192,20408,1,0,0:0:0:0:
36,192,20408,1,0,0:0:0:0:
329,192,20512,1,0,0:0:0:0:
402,192,20512,1,0,0:0:0:0:
256,192,20512,1,0,0:0:0:0:
475,192,20512,1,0,0:0:0:0:
182,192,20718,1,0,0:0:0:0:
329,192,20718,1,0,0:0:0:0:
402,192,20822,1,0,0:0:0:0:
109,192,20822,1,0,0:0:0:0:
36,192,20822,1,0,0:0:0:0:
109,192,21029,1,0,0:0:0:0:
36,192,21029,1,0,0:0:0:0:
256,192,21029,1,0,0:0:0:0:
402,192,21029,1,0,0:0:0:0:
36,192,21132,1,0,0:0:0:0:
109,192,21132,1,0,0:0:0:0:
182,192,21132,1,0,0:0:0:0:
329,192,21132,1,0,0:0:0:0:
475,192,21132,1,0,0:0:0:0:
402,192,21339,1,0,0:0:0:0:
402,192,21443,1,0,0:0:0:0:
182,192,21443,1,0,0:0:0:0:
36,192,21443,1,0,0:0:0:0:
182,192,21546,1,0,0:0:0:0:
36,192,21546,1,0,0:0:0:0:
256,192,21649,1,0,0:0:0:0:
475,192,21649,1,0,0:0:0:0:
402,192,21753,1,0,0:0:0:0:
329,192,21753,1,0,0:0:0:0:
182,192,21753,1,0,0:0:0:0:
109,192,21753,1,0,0:0:0:0:
329,192,21960,1,0,0:0:0:0:
256,192,21960,1,0,0:0:0:0:
402,192,22063,1,0,0:0:0:0:
109,192,22063,1,0,0:0:0:0:
36,192,22063,1,0,0:0:0:0:
36,192,22270,1,0,0:0:0:0:
109,192,22270,1,0,0:0:0:0:
182,192,22270,1,0,0:0:0:0:
329,192,22270,1,0,0:0:0:0:
402,192,22270,1,0,0:0:0:0:
109,192,22374,1,0,0:0:0:0:
475,192,22374,1,0,0:0:0:0:
256,192,22374,1,0,0:0:0:0:
182,192,22374,1,0,0:0:0:0:
402,192,22580,1,0,0:0:0:0:
182,192,22580,1,0,0:0:0:0:
256,192,22580,1,0,0:0:0:0:
402,192,22684,1,0,0:0:0:0:
329,192,22684,1,0,0:0:0:0:
475,192,22684,1,0,0:0:0:0:
109,192,22684,1,0,0:0:0:0:
36,192,22684,1,0,0:0:0:0:
402,192,22891,1,0,0:0:0:0:
109,192,22891,1,0,0:0:0:0:
36,192,22891,1,0,0:0:0:0:
402,192,22994,1,0,0:0:0:0:
182,192,22994,1,0,0:0:0:0:
256,192,22994,1,0,0:0:0:0:
329,192,22994,1,0,0:0:0:0:
256,192,23201,1,0,0:0:0:0:
329,192,23201,1,0,0:0:0:0:
402,192,23305,1,0,0:0:0:0:
36,192,23305,1,0,0:0:0:0:
182,192,23305,1,0,0:0:0:0:
475,192,23305,1,0,0:0:0:0:
402,192,23511,1,0,0:0:0:0:
109,192,23511,1,0,0:0:0:0:
182,192,23615,1,0,0:0:0:0:
475,192,23615,1,0,0:0:0:0:
256,192,23615,1,0,0:0:0:0:
36,192,23615,1,0,0:0:0:0:
329,192,23615,1,0,0:0:0:0:
402,192,23718,1,0,0:0:0:0:
402,192,23822,1,0,0:0:0:0:
402,192,23925,1,0,0:0:0:0:
182,192,23925,1,0,0:0:0:0:
109,192,23925,1,0,0:0:0:0:
109,192,24029,1,0,0:0:0:0:
182,192,24029,1,0,0:0:0:0:
182,192,24132,1,0,0:0:0:0:
109,192,24132,1,0,0:0:0:0:
329,192,24236,1,0,0:0:0:0:
402,192,24236,1,0,0:0:0:0:
256,192,24236,1,0,0:0:0:0:
182,192,24339,1,0,0:0:0:0:
329,192,24339,1,0,0:0:0:0:
256,192,24442,1,0,0:0:0:0:
109,192,24442,1,0,0:0:0:0:
182,192,24546,1,0,0:0:0:0:
475,192,24546,1,0,0:0:0:0:
36,192,24546,1,0,0:0:0:0:
402,192,24546,1,0,0:0:0:0:
329,192,24546,1,0,0:0:0:0:
256,192,24649,1,0,0:0:0:0:
402,192,24649,1,0,0:0:0:0:
109,192,24753,1,0,0:0:0:0:
182,192,24753,1,0,0:0:0:0:
36,192,24856,1,0,0:0:0:0:
329,192,24856,1,0,0:0:0:0:
475,192,24856,1,0,0:0:0:0:
109,192,24856,1,0,0:0:0:0:
256,192,24856,1,0,0:0:0:0:
402,192,25063,1,0,0:0:0:0:
402,192,25167,1,0,0:0:0:0:
109,192,25167,1,0,0:0:0:0:
256,192,25167,1,0,0:0:0:0:
256,192,25270,1,0,0:0:0:0:
109,192,25270,1,0,0:0:0:0:
402,192,25373,1,0,0:0:0:0:
36,192,25373,1,0,0:0:0:0:
182,192,25373,1,0,0:0:0:0:
402,192,25477,1,0,0:0:0:0:
329,192,25477,1,0,0:0:0:0:
475,192,25477,1,0,0:0:0:0:
256,192,25477,1,0,0:0:0:0:
182,192,25684,1,0,0:0:0:0:
329,192,25684,1,0,0:0:0:0:
402,192,25787,1,0,0:0:0:0:
256,192,25787,1,0,0:0:0:0:
475,192,25787,1,0,0:0:0:0:
36,192,25994,1,0,0:0:0:0:
109,192,25994,1,0,0:0:0:0:
256,192,25994,1,0,0:0:0:0:
402,192,25994,1,0,0:0:0:0:
475,192,26098,1,0,0:0:0:0:
36,192,26098,1,0,0:0:0:0:
182,192,26098,1,0,0:0:0:0:
329,192,26098,1,0,0:0:0:0:
109,192,26098,1,0,0:0:0:0:
402,192,26304,1,0,0:0:0:0:
402,192,26408,1,0,0:0:0:0:
182,192,26408,1,0,0:0:0:0:
36,192,26408,1,0,0:0:0:0:
36,192,26511,1,0,0:0:0:0:
182,192,26511,1,0,0:0:0:0:
256,192,26615,1,0,0:0:0:0:
475,192,26615,1,0,0:0:0:0:
329,192,26718,1,0,0:0:0:0:
402,192,26718,1,0,0:0:0:0:
109,192,26718,1,0,0:0:0:0:
182,192,26718,1,0,0:0:0:0:
256,192,26925,1,0,0:0:0:0:
329,192,26925,1,0,0:0:0:0:
402,192,27029,1,0,0:0:0:0:
182,192,27029,1,0,0:0:0:0:
475,192,27029,1,0,0:0:0:0:
256,192,27132,1,0,0:0:0:0:
329,192,27132,1,0,0:0:0:0:
182,192,27235,1,0,0:0:0:0:
109,192,27235,1,0,0:0:0:0:
402,192,27235,1,0,0:0:0:0:
36,192,27235,1,0,0:0:0:0:
475,192,27339,1,0,0:0:0:0:
109,192,27339,1,0,0:0:0:0:
329,192,27339,1,0,0:0:0:0:
182,192,27339,1,0,0:0:0:0:
256,192,27339,1,0,0:0:0:0:
402,192,27546,1,0,0:0:0:0:
402,192,27649,1,0,0:0:0:0:
256,192,27649,1,0,0:0:0:0:
182,192,27649,1,0,0:0:0:0:
36,192,27649,1,0,0:0:0:0:
402,192,27856,1,0,0:0:0:0:
109,192,27856,1,0,0:0:0:0:
36,192,27856,1,0,0:0:0:0:
402,192,27960,1,0,0:0:0:0:
256,192,27960,1,0,0:0:0:0:
329,192,27960,1,0,0:0:0:0:
182,192,27960,1,0,0:0:0:0:
475,192,27960,1,0,0:0:0:0:
36,192,28063,1,0,0:0:0:0:
182,192,28166,1,0,0:0:0:0:
329,192,28166,1,0,0:0:0:0:
36,192,28270,1,0,0:0:0:0:
109,192,28270,1,0,0:0:0:0:
402,192,28270,1,0,0:0:0:0:
256,192,28270,1,0,0:0:0:0:
475,192,28270,1,0,0:0:0:0:
329,192,28373,1,0,0:0:0:0:
182,192,28477,1,0,0:0:0:0:
109,192,28477,1,0,0:0:0:0:
475,192,28580,1,0,0:0:0:0:
329,192,28580,1,0,0:0:0:0:
256,192,28580,1,0,0:0:0:0:
36,192,28580,1,0,0:0:0:0:
402,192,28684,1,0,0:0:0:0:
402,192,28787,1,0,0:0:0:0:
109,192,28891,1,0,0:0:0:0:
182,192,28891,1,0,0:0:0:0:
402,192,28891,1,0,0:0:0:0:
329,192,28891,1,0,0:0:0:0:
182,192,28994,1,0,0:0:0:0:
109,192,28994,1,0,0:0:0:0:
475,192,28994,1,0,0:0:0:0:
109,192,29097,1,0,0:0:0:0:
182,192,29097,1,0,0:0:0:0:
329,192,29097,1,0,0:0:0:0:
36,192,29201,1,0,0:0:0:0:
402,192,29201,1,0,0:0:0:0:
256,192,29201,1,0,0:0:0:0:
475,192,29201,1,0,0:0:0:0:
109,192,29511,1,0,0:0:0:0:
256,192,29615,1,0,0:0:0:0:
402,192,29615,1,0,0:0:0:0:
329,192,29718,1,0,0:0:0:0:
182,192,29718,1,0,0:0:0:0:
109,192,29822,1,0,0:0:0:0:
475,192,29822,1,0,0:0:0:0:
36,192,29822,1,0,0:0:0:0:
256,192,29822,1,0,0:0:0:0:
109,192,30028,1,0,0:0:0:0:
475,192,30028,1,0,0:0:0:0:
109,192,30132,1,0,0:0:0:0:
402,192,30132,1,0,0:0:0:0:
256,192,30132,1,0,0:0:0:0:
36,192,30132,1,0,0:0:0:0:
182,192,30235,1,0,0:0:0:0:
475,192,30235,1,0,0:0:0:0:
109,192,30339,1,0,0:0:0:0:
402,192,30339,1,0,0:0:0:0:
329,192,30339,1,0,0:0:0:0:
182,192,30442,1,0,0:0:0:0:
36,192,30442,1,0,0:0:0:0:
256,192,30442,1,0,0:0:0:0:
109,192,30442,1,0,0:0:0:0:
109,192,30753,1,0,0:0:0:0:
256,192,30753,1,0,0:0:0:0:
182,192,30753,1,0,0:0:0:0:
402,192,30753,1,0,0:0:0:0:
329,192,30856,1,0,0:0:0:0:
475,192,30959,1,0,0:0:0:0:
36,192,30959,1,0,0:0:0:0:
182,192,30959,1,0,0:0:0:0:
182,192,31063,1,0,0:0:0:0:
36,192,31063,1,0,0:0:0:0:
402,192,31063,1,0,0:0:0:0:
109,192,31270,1,0,0:0:0:0:
329,192,31270,1,0,0:0:0:0:
109,192,31373,1,0,0:0:0:0:
256,192,31373,1,0,0:0:0:0:
402,192,31373,1,0,0:0:0:0:
475,192,31373,1,0,0:0:0:0:
329,192,31477,1,0,0:0:0:0:
182,192,31477,1,0,0:0:0:0:
256,192,31580,1,0,0:0:0:0:
402,192,31580,1,0,0:0:0:0:
109,192,31684,1,0,0:0:0:0:
475,192,31684,1,0,0:0:0:0:
182,192,31684,1,0,0:0:0:0:
36,192,31684,1,0,0:0:0:0:
402,192,31890,1,0,0:0:0:0:
109,192,31994,1,0,0:0:0:0:
329,192,31994,1,0,0:0:0:0:
182,192,31994,1,0,0:0:0:0:
475,192,31994,1,0,0:0:0:0:
256,192,32097,1,0,0:0:0:0:
109,192,32201,1,0,0:0:0:0:
402,192,32201,1,0,0:0:0:0:
36,192,32304,1,0,0:0:0:0:
182,192,32304,1,0,0:0:0:0:
256,192,32304,1,0,0:0:0:0:
475,192,32304,1,0,0:0:0:0:
256,192,32408,1,0,0:0:0:0:
475,192,32408,1,0,0:0:0:0:
182,192,32511,1,0,0:0:0:0:
402,192,32511,1,0,0:0:0:0:
109,192,32615,1,0,0:0:0:0:
329,192,32615,1,0,0:0:0:0:
256,192,32615,1,0,0:0:0:0:
109,192,32718,1,0,0:0:0:0:
329,192,32718,1,0,0:0:0:0:
182,192,32821,1,0,0:0:0:0:
402,192,32821,1,0,0:0:0:0:
36,192,32925,1,0,0:0:0:0:
182,192,32925,1,0,0:0:0:0:
329,192,32925,1,0,0:0:0:0:
329,192,33028,1,0,0:0:0:0:
109,192,33132,1,0,0:0:0:0:
256,192,33132,1,0,0:0:0:0:
256,192,33235,1,0,0:0:0:0:
402,192,33235,1,0,0:0:0:0:
475,192,33235,1,0,0:0:0:0:
109,192,33339,1,0,0:0:0:0:
329,192,33339,1,0,0:0:0:0:
182,192,33442,1,0,0:0:0:0:
402,192,33442,1,0,0:0:0:0:
402,192,33546,1,0,0:0:0:0:
182,192,33546,1,0,0:0:0:0:
36,192,33546,1,0,0:0:0:0:
329,192,33649,1,0,0:0:0:0:
109,192,33649,1,0,0:0:0:0:
329,192,33752,1,0,0:0:0:0:
182,192,33752,1,0,0:0:0:0:
256,192,33856,1,0,0:0:0:0:
36,192,33959,1,0,0:0:0:0:
182,192,33959,1,0,0:0:0:0:
402,192,33959,1,0,0:0:0:0:
109,192,34063,1,0,0:0:0:0:
256,192,34063,1,0,0:0:0:0:
402,192,34063,1,0,0:0:0:0:
182,192,34166,1,0,0:0:0:0:
329,192,34166,1,0,0:0:0:0:
475,192,34166,1,0,0:0:0:0:
256,192,34270,1,0,0:0:0:0:
109,192,34270,1,0,0:0:0:0:
182,192,34373,1,0,0:0:0:0:
329,192,34373,1,0,0:0:0:0:
182,192,34477,1,0,0:0:0:0:
329,192,34477,1,0,0:0:0:0:
475,192,34477,1,0,0:0:0:0:
109,192,34580,1,0,0:0:0:0:
256,192,34580,1,0,0:0:0:0:
182,192,34683,1,0,0:0:0:0:
329,192,34683,1,0,0:0:0:0:
36,192,34787,1,0,0:0:0:0:
402,192,34787,1,0,0:0:0:0:
109,192,34787,1,0,0:0:0:0:
475,192,34787,1,0,0:0:0:0:
256,192,34787,1,0,0:0:0:0:
109,192,34994,1,0,0:0:0:0:
329,192,34994,1,0,0:0:0:0:
402,192,34994,1,0,0:0:0:0:
109,192,35097,1,0,0:0:0:0:
182,192,35097,1,0,0:0:0:0:
256,192,35097,1,0,0:0:0:0:
109,192,35304,1,0,0:0:0:0:
329,192,35304,1,0,0:0:0:0:
475,192,35304,1,0,0:0:0:0:
182,192,35408,1,0,0:0:0:0:
109,192,35408,1,0,0:0:0:0:
402,192,35408,1,0,0:0:0:0:
256,192,35408,1,0,0:0:0:0:
109,192,35718,1,0,0:0:0:0:
329,192,35718,1,0,0:0:0:0:
182,192,35718,1,0,0:0:0:0:
256,192,35718,1,0,0:0:0:0:
475,192,35821,1,0,0:0:0:0:
402,192,35925,1,0,0:0:0:0:
182,192,35925,1,0,0:0:0:0:
36,192,35925,1,0,0:0:0:0:
182,192,36028,1,0,0:0:0:0:
36,192,36028,1,0,0:0:0:0:
329,192,36028,1,0,0:0:0:0:
256,192,36028,1,0,0:0:0:0:
475,192,36028,1,0,0:0:0:0:
329,192,36132,1,0,0:0:0:0:
402,192,36132,1,0,0:0:0:0:
109,192,36235,1,0,0:0:0:0:
256,192,36235,1,0,0:0:0:0:
182,192,36235,1,0,0:0:0:0:
109,192,36339,1,0,0:0:0:0:
475,192,36339,1,0,0:0:0:0:
329,192,36339,1,0,0:0:0:0:
36,192,36339,1,0,0:0:0:0:
109,192,36649,1,0,0:0:0:0:
182,192,36649,1,0,0:0:0:0:
402,192,36649,1,0,0:0:0:0:
329,192,36856,1,0,0:0:0:0:
109,192,36959,1,0,0:0:0:0:
475,192,36959,1,0,0:0:0:0:
256,192,36959,1,0,0:0:0:0:
402,192,36959,1,0,0:0:0:0:
329,192,37063,1,0,0:0:0:0:
109,192,37166,1,0,0:0:0:0:
182,192,37166,1,0,0:0:0:0:
475,192,37270,1,0,0:0:0:0:
329,192,37270,1,0,0:0:0:0:
256,192,37270,1,0,0:0:0:0:
36,192,37270,1,0,0:0:0:0:
256,192,37373,1,0,0:0:0:0:
109,192,37373,1,0,0:0:0:0:
182,192,37476,1,0,0:0:0:0:
182,192,37580,1,0,0:0:0:0:
329,192,37580,1,0,0:0:0:0:
475,192,37580,1,0,0:0:0:0:
329,192,37683,1,0,0:0:0:0:
109,192,37787,1,0,0:0:0:0:
256,192,37787,1,0,0:0:0:0:
256,192,37890,1,0,0:0:0:0:
402,192,37890,1,0,0:0:0:0:
475,192,37890,1,0,0:0:0:0:
182,192,37994,1,0,0:0:0:0:
329,192,37994,1,0,0:0:0:0:
329,192,38097,1,0,0:0:0:0:
109,192,38097,1,0,0:0:0:0:
182,192,38201,1,0,0:0:0:0:
36,192,38201,1,0,0:0:0:0:
329,192,38201,1,0,0:0:0:0:
256,192,38304,1,0,0:0:0:0:
329,192,38407,1,0,0:0:0:0:
182,192,38407,1,0,0:0:0:0:
109,192,38407,1,0,0:0:0:0:
182,192,38511,1,0,0:0:0:0:
329,192,38511,1,0,0:0:0:0:
475,192,38511,1,0,0:0:0:0:
475,192,38614,1,0,0:0:0:0:
109,192,38614,1,0,0:0:0:0:
256,192,38718,1,0,0:0:0:0:
109,192,38718,1,0,0:0:0:0:
182,192,38821,1,0,0:0:0:0:
329,192,38821,1,0,0:0:0:0:
475,192,38821,1,0,0:0:0:0:
329,192,38925,1,0,0:0:0:0:
475,192,39028,1,0,0:0:0:0:
36,192,39028,1,0,0:0:0:0:
182,192,39028,1,0,0:0:0:0:
182,192,39132,1,0,0:0:0:0:
36,192,39132,1,0,0:0:0:0:
475,192,39132,1,0,0:0:0:0:
256,192,39235,1,0,0:0:0:0:
402,192,39235,1,0,0:0:0:0:
256,192,39338,1,0,0:0:0:0:
109,192,39338,1,0,0:0:0:0:
329,192,39442,1,0,0:0:0:0:
475,192,39442,1,0,0:0:0:0:
182,192,39442,1,0,0:0:0:0:
329,192,39545,1,0,0:0:0:0:
475,192,39545,1,0,0:0:0:0:
182,192,39649,1,0,0:0:0:0:
36,192,39649,1,0,0:0:0:0:
475,192,39752,1,0,0:0:0:0:
329,192,39752,1,0,0:0:0:0:
36,192,39752,1,0,0:0:0:0:
182,192,39752,1,0,0:0:0:0:
256,192,39752,1,0,0:0:0:0:
109,192,39959,1,0,0:0:0:0:
475,192,39959,1,0,0:0:0:0:
329,192,39959,1,0,0:0:0:0:
109,192,40063,1,0,0:0:0:0:
402,192,40063,1,0,0:0:0:0:
256,192,40063,1,0,0:0:0:0:
36,192,40063,1,0,0:0:0:0:
182,192,40166,1,0,0:0:0:0:
475,192,40166,1,0,0:0:0:0:
109,192,40269,1,0,0:0:0:0:
329,192,40269,1,0,0:0:0:0:
402,192,40269,1,0,0:0:0:0:
182,192,40373,1,0,0:0:0:0:
36,192,40373,1,0,0:0:0:0:
475,192,40373,1,0,0:0:0:0:
256,192,40373,1,0,0:0:0:0:
109,192,40373,1,0,0:0:0:0:
109,192,40683,1,0,0:0:0:0:
36,192,40683,1,0,0:0:0:0:
329,192,40683,1,0,0:0:0:0:
182,192,40683,1,0,0:0:0:0:
402,192,40683,1,0,0:0:0:0:
256,192,40787,1,0,0:0:0:0:
475,192,40787,1,0,0:0:0:0:
36,192,40890,1,0,0:0:0:0:
182,192,40890,1,0,0:0:0:0:
329,192,40890,1,0,0:0:0:0:
402,192,40890,1,0,0:0:0:0:
182,192,40994,1,0,0:0:0:0:
36,192,40994,1,0,0:0:0:0:
402,192,40994,1,0,0:0:0:0:
256,192,40994,1,0,0:0:0:0:
109,192,41200,1,0,0:0:0:0:
329,192,41200,1,0,0:0:0:0:
475,192,41200,1,0,0:0:0:0:
109,192,41304,1,0,0:0:0:0:
256,192,41304,1,0,0:0:0:0:
36,192,41304,1,0,0:0:0:0:
402,192,41304,1,0,0:0:0:0:
475,192,41304,1,0,0:0:0:0:
329,192,41407,1,0,0:0:0:0:
182,192,41407,1,0,0:0:0:0:
256,192,41511,1,0,0:0:0:0:
402,192,41511,1,0,0:0:0:0:
109,192,41614,1,0,0:0:0:0:
475,192,41614,1,0,0:0:0:0:
329,192,41614,1,0,0:0:0:0:
182,192,41614,1,0,0:0:0:0:
36,192,41614,1,0,0:0:0:0:
402,192,41821,1,0,0:0:0:0:
256,192,41821,1,0,0:0:0:0:
109,192,41925,1,0,0:0:0:0:
329,192,41925,1,0,0:0:0:0:
36,192,41925,1,0,0:0:0:0:
182,192,41925,1,0,0:0:0:0:
475,192,41925,1,0,0:0:0:0:
256,192,42028,1,0,0:0:0:0:
402,192,42028,1,0,0:0:0:0:
109,192,42131,1,0,0:0:0:0:
182,192,42131,1,0,0:0:0:0:
329,192,42131,1,0,0:0:0:0:
36,192,42235,1,0,0:0:0:0:
256,192,42235,1,0,0:0:0:0:
475,192,42235,1,0,0:0:0:0:
329,192,42338,1,0,0:0:0:0:
475,192,42338,1,0,0:0:0:0:
256,192,42442,1,0,0:0:0:0:
109,192,42442,1,0,0:0:0:0:
36,192,42545,1,0,0:0:0:0:
256,192,42545,1,0,0:0:0:0:
182,192,42545,1,0,0:0:0:0:
109,192,42649,1,0,0:0:0:0:
329,192,42649,1,0,0:0:0:0:
182,192,42752,1,0,0:0:0:0:
329,192,42752,1,0,0:0:0:0:
256,192,42856,1,0,0:0:0:0:
402,192,42856,1,0,0:0:0:0:
475,192,42856,1,0,0:0:0:0:
329,192,42959,1,0,0:0:0:0:
182,192,43062,1,0,0:0:0:0:
109,192,43062,1,0,0:0:0:0:
182,192,43166,1,0,0:0:0:0:
329,192,43166,1,0,0:0:0:0:
329,192,43269,1,0,0:0:0:0:
475,192,43269,1,0,0:0:0:0:
36,192,43269,1,0,0:0:0:0:
109,192,43373,1,0,0:0:0:0:
182,192,43373,1,0,0:0:0:0:
402,192,43373,1,0,0:0:0:0:
475,192,43476,1,0,0:0:0:0:
329,192,43476,1,0,0:0:0:0:
182,192,43476,1,0,0:0:0:0:
329,192,43580,1,0,0:0:0:0:
182,192,43683,1,0,0:0:0:0:
109,192,43683,1,0,0:0:0:0:
329,192,43787,1,0,0:0:0:0:
109,192,43787,1,0,0:0:0:0:
475,192,43787,1,0,0:0:0:0:
182,192,43890,1,0,0:0:0:0:
402,192,43890,1,0,0:0:0:0:
256,192,43994,1,0,0:0:0:0:
109,192,43994,1,0,0:0:0:0:
402,192,43994,1,0,0:0:0:0:
109,192,44097,1,0,0:0:0:0:
182,192,44097,1,0,0:0:0:0:
329,192,44097,1,0,0:0:0:0:
475,192,44097,1,0,0:0:0:0:
256,192,44200,1,0,0:0:0:0:
36,192,44304,1,0,0:0:0:0:
182,192,44304,1,0,0:0:0:0:
329,192,44304,1,0,0:0:0:0:
182,192,44407,1,0,0:0:0:0:
329,192,44407,1,0,0:0:0:0:
475,192,44407,1,0,0:0:0:0:
256,192,44511,1,0,0:0:0:0:
182,192,44614,1,0,0:0:0:0:
36,192,44614,1,0,0:0:0:0:
329,192,44614,1,0,0:0:0:0:
36,192,44718,1,0,0:0:0:0:
182,192,44718,1,0,0:0:0:0:
329,192,44718,1,0,0:0:0:0:
475,192,44718,1,0,0:0:0:0:
109,192,44925,1,0,0:0:0:0:
36,192,44925,1,0,0:0:0:0:
329,192,44925,1,0,0:0:0:0:
402,192,44925,1,0,0:0:0:0:
109,192,45028,1,0,0:0:0:0:
475,192,45028,1,0,0:0:0:0:
256,192,45028,1,0,0:0:0:0:
182,192,45028,1,0,0:0:0:0:
109,192,45235,1,0,0:0:0:0:
329,192,45235,1,0,0:0:0:0:
475,192,45235,1,0,0:0:0:0:
182,192,45338,1,0,0:0:0:0:
109,192,45338,1,0,0:0:0:0:
36,192,45338,1,0,0:0:0:0:
402,192,45338,1,0,0:0:0:0:
256,192,45338,1,0,0:0:0:0:
109,192,45649,1,0,0:0:0:0:
329,192,45649,1,0,0:0:0:0:
36,192,45649,1,0,0:0:0:0:
182,192,45649,1,0,0:0:0:0:
256,192,45649,1,0,0:0:0:0:
475,192,45752,1,0,0:0:0:0:
402,192,45752,1,0,0:0:0:0:
402,192,45856,1,0,0:0:0:0:
182,192,45856,1,0,0:0:0:0:
36,192,45856,1,0,0:0:0:0:
329,192,45856,1,0,0:0:0:0:
182,192,45959,1,0,0:0:0:0:
36,192,45959,1,0,0:0:0:0:
256,192,45959,1,0,0:0:0:0:
475,192,45959,1,0,0:0:0:0:
329,192,46062,1,0,0:0:0:0:
402,192,46062,1,0,0:0:0:0:
109,192,46166,1,0,0:0:0:0:
256,192,46166,1,0,0:0:0:0:
182,192,46166,1,0,0:0:0:0:
109,192,46269,1,0,0:0:0:0:
475,192,46269,1,0,0:0:0:0:
402,192,46269,1,0,0:0:0:0:
329,192,46269,1,0,0:0:0:0:
36,192,46269,1,0,0:0:0:0:
109,192,46580,1,0,0:0:0:0:
182,192,46580,1,0,0:0:0:0:
402,192,46580,1,0,0:0:0:0:
256,192,46580,1,0,0:0:0:0:
329,192,46787,1,0,0:0:0:0:
182,192,46787,1,0,0:0:0:0:
109,192,46890,1,0,0:0:0:0:
475,192,46890,1,0,0:0:0:0:
36,192,46890,1,0,0:0:0:0:
402,192,46890,1,0,0:0:0:0:
256,192,46890,1,0,0:0:0:0:
329,192,46993,1,0,0:0:0:0:
182,192,46993,1,0,0:0:0:0:
109,192,47097,1,0,0:0:0:0:
402,192,47097,1,0,0:0:0:0:
182,192,47097,1,0,0:0:0:0:
475,192,47200,1,0,0:0:0:0:
36,192,47200,1,0,0:0:0:0:
256,192,47200,1,0,0:0:0:0:
329,192,47200,1,0,0:0:0:0:
182,192,47304,1,0,0:0:0:0:
109,192,47304,1,0,0:0:0:0:
109,192,47407,1,0,0:0:0:0:
182,192,47407,1,0,0:0:0:0:
256,192,47511,1,0,0:0:0:0:
402,192,47511,1,0,0:0:0:0:
475,192,47511,1,0,0:0:0:0:
36,192,47511,1,0,0:0:0:0:
182,192,47614,1,0,0:0:0:0:
329,192,47614,1,0,0:0:0:0:
182,192,47718,1,0,0:0:0:0:
329,192,47718,1,0,0:0:0:0:
109,192,47718,1,0,0:0:0:0:
109,192,47821,1,0,0:0:0:0:
256,192,47821,1,0,0:0:0:0:
402,192,47821,1,0,0:0:0:0:
475,192,47821,1,0,0:0:0:0:
329,192,47924,1,0,0:0:0:0:
182,192,48028,1,0,0:0:0:0:
36,192,48028,1,0,0:0:0:0:
256,192,48131,1,0,0:0:0:0:
402,192,48131,1,0,0:0:0:0:
475,192,48131,1,0,0:0:0:0:
256,192,48235,1,0,0:0:0:0:
109,192,48338,1,0,0:0:0:0:
329,192,48338,1,0,0:0:0:0:
402,192,48338,1,0,0:0:0:0:
182,192,48442,1,0,0:0:0:0:
329,192,48442,1,0,0:0:0:0:
475,192,48442,1,0,0:0:0:0:
36,192,48442,1,0,0:0:0:0:
182,192,48545,1,0,0:0:0:0:
329,192,48649,1,0,0:0:0:0:
402,192,48649,1,0,0:0:0:0:
402,192,48752,1,0,0:0:0:0:
109,192,48752,1,0,0:0:0:0:
182,192,48804,1,0,0:0:0:0:
256,192,48855,1,0,0:0:0:0:
329,192,48907,1,0,0:0:0:0:
36,192,48959,1,0,0:0:0:0:
109,192,49011,1,0,0:0:0:0:
475,192,49062,1,0,0:0:0:0:
402,192,49114,1,0,0:0:0:0:
329,192,49166,1,0,0:0:0:0:
182,192,49217,1,0,0:0:0:0:
109,192,49269,1,0,0:0:0:0:
256,192,49321,1,0,0:0:0:0:
402,192,49373,1,0,0:0:0:0:
182,192,49424,1,0,0:0:0:0:
109,192,49476,1,0,0:0:0:0:
256,192,49528,1,0,0:0:0:0:
402,192,49580,1,0,0:0:0:0:
475,192,49683,1,0,0:0:0:0:
36,192,49683,1,0,0:0:0:0:
109,192,49683,1,0,0:0:0:0:
329,192,49683,1,0,0:0:0:0:
182,192,49683,1,0,0:0:0:0:
402,192,49890,1,0,0:0:0:0:
402,192,49993,1,0,0:0:0:0:
402,192,50200,1,0,0:0:0:0:
182,192,50200,1,0,0:0:0:0:
329,192,50304,1,0,0:0:0:0:
402,192,50304,1,0,0:0:0:0:
109,192,50304,1,0,0:0:0:0:
256,192,50511,1,0,0:0:0:0:
402,192,50614,1,0,0:0:0:0:
182,192,50614,1,0,0:0:0:0:
256,192,50821,1,0,0:0:0:0:
109,192,50821,1,0,0:0:0:0:
36,192,50821,1,0,0:0:0:0:
402,192,50821,1,0,0:0:0:0:
36,192,50924,1,0,0:0:0:0:
109,192,50924,1,0,0:0:0:0:
182,192,50924,1,0,0:0:0:0:
329,192,50924,1,0,0:0:0:0:
475,192,50924,1,0,0:0:0:0:
402,192,51131,1,0,0:0:0:0:
402,192,51235,1,0,0:0:0:0:
109,192,51442,1,0,0:0:0:0:
402,192,51545,1,0,0:0:0:0:
329,192,51545,1,0,0:0:0:0:
182,192,51545,1,0,0:0:0:0:
109,192,51752,1,0,0:0:0:0:
402,192,51855,1,0,0:0:0:0:
36,192,51855,1,0,0:0:0:0:
36,192,52062,1,0,0:0:0:0:
109,192,52062,1,0,0:0:0:0:
402,192,52062,1,0,0:0:0:0:
182,192,52062,1,0,0:0:0:0:
109,192,52166,1,0,0:0:0:0:
475,192,52166,1,0,0:0:0:0:
329,192,52166,1,0,0:0:0:0:
256,192,52166,1,0,0:0:0:0:
402,192,52373,1,0,0:0:0:0:
256,192,52373,1,0,0:0:0:0:
182,192,52476,1,0,0:0:0:0:
36,192,52476,1,0,0:0:0:0:
402,192,52476,1,0,0:0:0:0:
109,192,52476,1,0,0:0:0:0:
402,192,52683,1,0,0:0:0:0:
109,192,52683,1,0,0:0:0:0:
36,192,52786,1,0,0:0:0:0:
329,192,52786,1,0,0:0:0:0:
402,192,52786,1,0,0:0:0:0:
182,192,52786,1,0,0:0:0:0:
182,192,52993,1,0,0:0:0:0:
256,192,53097,1,0,0:0:0:0:
402,192,53097,1,0,0:0:0:0:
36,192,53097,1,0,0:0:0:0:
109,192,53097,1,0,0:0:0:0:
475,192,53097,1,0,0:0:0:0:
402,192,53304,1,0,0:0:0:0:
36,192,53407,1,0,0:0:0:0:
109,192,53407,1,0,0:0:0:0:
475,192,53407,1,0,0:0:0:0:
329,192,53407,1,0,0:0:0:0:
256,192,53407,1,0,0:0:0:0:
402,192,53510,1,0,0:0:0:0:
402,192,53614,1,0,0:0:0:0:
402,192,53717,1,0,0:0:0:0:
329,192,54028,1,0,0:0:0:0:
402,192,54028,1,0,0:0:0:0:
182,192,54338,1,0,0:0:0:0:
109,192,54338,1,0,0:0:0:0:
475,192,54338,1,0,0:0:0:0:
36,192,54441,1,0,0:0:0:0:
182,192,54441,1,0,0:0:0:0:
256,192,54545,1,0,0:0:0:0:
109,192,54545,1,0,0:0:0:0:
36,192,54648,1,0,0:0:0:0:
329,192,54648,1,0,0:0:0:0:
475,192,54648,1,0,0:0:0:0:
109,192,54648,1,0,0:0:0:0:
256,192,54648,1,0,0:0:0:0:
402,192,54855,1,0,0:0:0:0:
402,192,54959,1,0,0:0:0:0:
402,192,55166,1,0,0:0:0:0:
109,192,55166,1,0,0:0:0:0:
402,192,55269,1,0,0:0:0:0:
329,192,55269,1,0,0:0:0:0:
182,192,55269,1,0,0:0:0:0:
329,192,55476,1,0,0:0:0:0:
402,192,55579,1,0,0:0:0:0:
182,192,55579,1,0,0:0:0:0:
36,192,55786,1,0,0:0:0:0:
109,192,55786,1,0,0:0:0:0:
256,192,55786,1,0,0:0:0:0:
329,192,55786,1,0,0:0:0:0:
475,192,55890,1,0,0:0:0:0:
182,192,55890,1,0,0:0:0:0:
36,192,55890,1,0,0:0:0:0:
402,192,55890,1,0,0:0:0:0:
109,192,55890,1,0,0:0:0:0:
402,192,56097,1,0,0:0:0:0:
402,192,56200,1,0,0:0:0:0:
109,192,56407,1,0,0:0:0:0:
329,192,56510,1,0,0:0:0:0:
402,192,56510,1,0,0:0:0:0:
182,192,56510,1,0,0:0:0:0:
256,192,56717,1,0,0:0:0:0:
402,192,56821,1,0,0:0:0:0:
329,192,56821,1,0,0:0:0:0:
256,192,56924,1,0,0:0:0:0:
402,192,57028,1,0,0:0:0:0:
36,192,57028,1,0,0:0:0:0:
109,192,57028,1,0,0:0:0:0:
182,192,57028,1,0,0:0:0:0:
475,192,57131,1,0,0:0:0:0:
109,192,57131,1,0,0:0:0:0:
256,192,57131,1,0,0:0:0:0:
329,192,57131,1,0,0:0:0:0:
402,192,57338,1,0,0:0:0:0:
402,192,57441,1,0,0:0:0:0:
182,192,57441,1,0,0:0:0:0:
109,192,57441,1,0,0:0:0:0:
256,192,57441,1,0,0:0:0:0:
402,192,57648,1,0,0:0:0:0:
256,192,57648,1,0,0:0:0:0:
402,192,57752,1,0,0:0:0:0:
329,192,57752,1,0,0:0:0:0:
36,192,57752,1,0,0:0:0:0:
182,192,57752,1,0,0:0:0:0:
109,192,57855,1,0,0:0:0:0:
36,192,57959,1,0,0:0:0:0:
109,192,58062,1,0,0:0:0:0:
256,192,58062,1,0,0:0:0:0:
402,192,58062,1,0,0:0:0:0:
475,192,58062,1,0,0:0:0:0:
329,192,58062,1,0,0:0:0:0:
182,192,58165,1,0,0:0:0:0:
256,192,58269,1,0,0:0:0:0:
475,192,58372,1,0,0:0:0:0:
182,192,58372,1,0,0:0:0:0:
36,192,58372,1,0,0:0:0:0:
109,192,58372,1,0,0:0:0:0:
329,192,58372,1,0,0:0:0:0:
402,192,58476,1,0,0:0:0:0:
402,192,58579,1,0,0:0:0:0:
109,192,58683,1,0,0:0:0:0:
182,192,58683,1,0,0:0:0:0:
402,192,58683,1,0,0:0:0:0:
256,192,58683,1,0,0:0:0:0:
182,192,58786,1,0,0:0:0:0:
109,192,58786,1,0,0:0:0:0:
329,192,58786,1,0,0:0:0:0:
109,192,58890,1,0,0:0:0:0:
182,192,58890,1,0,0:0:0:0:
475,192,58890,1,0,0:0:0:0:
256,192,58993,1,0,0:0:0:0:
36,192,58993,1,0,0:0:0:0:
329,192,58993,1,0,0:0:0:0:
402,192,58993,1,0,0:0:0:0:
182,192,59303,1,0,0:0:0:0:
36,192,59303,1,0,0:0:0:0:
475,192,59303,1,0,0:0:0:0:
182,192,59407,1,0,0:0:0:0:
36,192,59407,1,0,0:0:0:0:
329,192,59407,1,0,0:0:0:0:
182,192,59510,1,0,0:0:0:0:
36,192,59510,1,0,0:0:0:0:
256,192,59510,1,0,0:0:0:0:
402,192,59614,1,0,0:0:0:0:
109,192,59614,1,0,0:0:0:0:
475,192,59614,1,0,0:0:0:0:
329,192,59614,1,0,0:0:0:0:
402,192,59821,1,0,0:0:0:0:
402,192,59924,1,0,0:0:0:0:
109,192,59924,1,0,0:0:0:0:
256,192,59924,1,0,0:0:0:0:
256,192,60027,1,0,0:0:0:0:
109,192,60027,1,0,0:0:0:0:
402,192,60131,1,0,0:0:0:0:
182,192,60131,1,0,0:0:0:0:
36,192,60131,1,0,0:0:0:0:
329,192,60234,1,0,0:0:0:0:
402,192,60234,1,0,0:0:0:0:
256,192,60234,1,0,0:0:0:0:
475,192,60234,1,0,0:0:0:0:
329,192,60441,1,0,0:0:0:0:
182,192,60441,1,0,0:0:0:0:
402,192,60545,1,0,0:0:0:0:
109,192,60545,1,0,0:0:0:0:
36,192,60545,1,0,0:0:0:0:
109,192,60752,1,0,0:0:0:0:
36,192,60752,1,0,0:0:0:0:
256,192,60752,1,0,0:0:0:0:
402,192,60752,1,0,0:0:0:0:
36,192,60855,1,0,0:0:0:0:
109,192,60855,1,0,0:0:0:0:
182,192,60855,1,0,0:0:0:0:
329,192,60855,1,0,0:0:0:0:
475,192,60855,1,0,0:0:0:0:
402,192,61062,1,0,0:0:0:0:
402,192,61165,1,0,0:0:0:0:
182,192,61165,1,0,0:0:0:0:
36,192,61165,1,0,0:0:0:0:
182,192,61269,1,0,0:0:0:0:
36,192,61269,1,0,0:0:0:0:
256,192,61372,1,0,0:0:0:0:
475,192,61372,1,0,0:0:0:0:
402,192,61476,1,0,0:0:0:0:
329,192,61476,1,0,0:0:0:0:
182,192,61476,1,0,0:0:0:0:
109,192,61476,1,0,0:0:0:0:
256,192,61683,1,0,0:0:0:0:
329,192,61683,1,0,0:0:0:0:
402,192,61786,1,0,0:0:0:0:
109,192,61786,1,0,0:0:0:0:
36,192,61786,1,0,0:0:0:0:
36,192,61993,1,0,0:0:0:0:
109,192,61993,1,0,0:0:0:0:
182,192,61993,1,0,0:0:0:0:
329,192,61993,1,0,0:0:0:0:
402,192,61993,1,0,0:0:0:0:
109,192,62096,1,0,0:0:0:0:
475,192,62096,1,0,0:0:0:0:
182,192,62096,1,0,0:0:0:0:
256,192,62096,1,0,0:0:0:0:
402,192,62303,1,0,0:0:0:0:
256,192,62303,1,0,0:0:0:0:
182,192,62303,1,0,0:0:0:0:
402,192,62407,1,0,0:0:0:0:
329,192,62407,1,0,0:0:0:0:
475,192,62407,1,0,0:0:0:0:
109,192,62407,1,0,0:0:0:0:
36,192,62407,1,0,0:0:0:0:
402,192,62614,1,0,0:0:0:0:
36,192,62614,1,0,0:0:0:0:
109,192,62614,1,0,0:0:0:0:
402,192,62717,1,0,0:0:0:0:
182,192,62717,1,0,0:0:0:0:
256,192,62717,1,0,0:0:0:0:
329,192,62717,1,0,0:0:0:0:
329,192,62924,1,0,0:0:0:0:
256,192,63027,1,0,0:0:0:0:
402,192,63027,1,0,0:0:0:0:
36,192,63027,1,0,0:0:0:0:
182,192,63027,1,0,0:0:0:0:
475,192,63027,1,0,0:0:0:0:
109,192,63234,1,0,0:0:0:0:
402,192,63234,1,0,0:0:0:0:
182,192,63338,1,0,0:0:0:0:
475,192,63338,1,0,0:0:0:0:
256,192,63338,1,0,0:0:0:0:
36,192,63338,1,0,0:0:0:0:
329,192,63338,1,0,0:0:0:0:
402,192,63441,1,0,0:0:0:0:
402,192,63545,1,0,0:0:0:0:
402,192,63648,1,0,0:0:0:0:
182,192,63648,1,0,0:0:0:0:
109,192,63648,1,0,0:0:0:0:
109,192,63751,1,0,0:0:0:0:
182,192,63751,1,0,0:0:0:0:
182,192,63855,1,0,0:0:0:0:
109,192,63855,1,0,0:0:0:0:
329,192,63958,1,0,0:0:0:0:
402,192,63958,1,0,0:0:0:0:
256,192,63958,1,0,0:0:0:0:
182,192,64062,1,0,0:0:0:0:
329,192,64062,1,0,0:0:0:0:
256,192,64165,1,0,0:0:0:0:
109,192,64165,1,0,0:0:0:0:
182,192,64269,1,0,0:0:0:0:
475,192,64269,1,0,0:0:0:0:
36,192,64269,1,0,0:0:0:0:
402,192,64269,1,0,0:0:0:0:
329,192,64269,1,0,0:0:0:0:
256,192,64372,1,0,0:0:0:0:
402,192,64372,1,0,0:0:0:0:
109,192,64476,1,0,0:0:0:0:
182,192,64476,1,0,0:0:0:0:
36,192,64579,1,0,0:0:0:0:
329,192,64579,1,0,0:0:0:0:
475,192,64579,1,0,0:0:0:0:
109,192,64579,1,0,0:0:0:0:
256,192,64579,1,0,0:0:0:0:
402,192,64786,1,0,0:0:0:0:
402,192,64889,1,0,0:0:0:0:
109,192,64889,1,0,0:0:0:0:
256,192,64889,1,0,0:0:0:0:
256,192,64993,1,0,0:0:0:0:
109,192,64993,1,0,0:0:0:0:
402,192,65096,1,0,0:0:0:0:
182,192,65096,1,0,0:0:0:0:
36,192,65096,1,0,0:0:0:0:
402,192,65200,1,0,0:0:0:0:
329,192,65200,1,0,0:0:0:0:
256,192,65200,1,0,0:0:0:0:
475,192,65200,1,0,0:0:0:0:
329,192,65407,1,0,0:0:0:0:
182,192,65407,1,0,0:0:0:0:
402,192,65510,1,0,0:0:0:0:
256,192,65510,1,0,0:0:0:0:
475,192,65510,1,0,0:0:0:0:
36,192,65717,1,0,0:0:0:0:
109,192,65717,1,0,0:0:0:0:
256,192,65717,1,0,0:0:0:0:
402,192,65717,1,0,0:0:0:0:
475,192,65820,1,0,0:0:0:0:
36,192,65820,1,0,0:0:0:0:
182,192,65820,1,0,0:0:0:0:
329,192,65820,1,0,0:0:0:0:
109,192,65820,1,0,0:0:0:0:
402,192,66027,1,0,0:0:0:0:
402,192,66131,1,0,0:0:0:0:
182,192,66131,1,0,0:0:0:0:
36,192,66131,1,0,0:0:0:0:
36,192,66234,1,0,0:0:0:0:
182,192,66234,1,0,0:0:0:0:
256,192,66338,1,0,0:0:0:0:
475,192,66338,1,0,0:0:0:0:
329,192,66441,1,0,0:0:0:0:
402,192,66441,1,0,0:0:0:0:
182,192,66441,1,0,0:0:0:0:
109,192,66441,1,0,0:0:0:0:
256,192,66648,1,0,0:0:0:0:
329,192,66648,1,0,0:0:0:0:
402,192,66751,1,0,0:0:0:0:
182,192,66751,1,0,0:0:0:0:
475,192,66751,1,0,0:0:0:0:
256,192,66855,1,0,0:0:0:0:
329,192,66855,1,0,0:0:0:0:
182,192,66958,1,0,0:0:0:0:
109,192,66958,1,0,0:0:0:0:
402,192,66958,1,0,0:0:0:0:
36,192,66958,1,0,0:0:0:0:
475,192,67062,1,0,0:0:0:0:
109,192,67062,1,0,0:0:0:0:
329,192,67062,1,0,0:0:0:0:
182,192,67062,1,0,0:0:0:0:
256,192,67062,1,0,0:0:0:0:
402,192,67269,1,0,0:0:0:0:
402,192,67372,1,0,0:0:0:0:
256,192,67372,1,0,0:0:0:0:
182,192,67372,1,0,0:0:0:0:
36,192,67372,1,0,0:0:0:0:
402,192,67579,1,0,0:0:0:0:
36,192,67579,1,0,0:0:0:0:
109,192,67579,1,0,0:0:0:0:
402,192,67682,1,0,0:0:0:0:
256,192,67682,1,0,0:0:0:0:
329,192,67682,1,0,0:0:0:0:
182,192,67682,1,0,0:0:0:0:
475,192,67682,1,0,0:0:0:0:
36,192,67786,1,0,0:0:0:0:
182,192,67889,1,0,0:0:0:0:
329,192,67889,1,0,0:0:0:0:
36,192,67993,1,0,0:0:0:0:
109,192,67993,1,0,0:0:0:0:
402,192,67993,1,0,0:0:0:0:
256,192,67993,1,0,0:0:0:0:
475,192,67993,1,0,0:0:0:0:
329,192,68096,1,0,0:0:0:0:
182,192,68200,1,0,0:0:0:0:
109,192,68200,1,0,0:0:0:0:
475,192,68303,1,0,0:0:0:0:
329,192,68303,1,0,0:0:0:0:
36,192,68303,1,0,0:0:0:0:
256,192,68303,1,0,0:0:0:0:
402,192,68406,1,0,0:0:0:0:
402,192,68510,1,0,0:0:0:0:
109,192,68613,1,0,0:0:0:0:
182,192,68613,1,0,0:0:0:0:
402,192,68613,1,0,0:0:0:0:
329,192,68613,1,0,0:0:0:0:
182,192,68717,1,0,0:0:0:0:
109,192,68717,1,0,0:0:0:0:
475,192,68717,1,0,0:0:0:0:
109,192,68820,1,0,0:0:0:0:
182,192,68820,1,0,0:0:0:0:
329,192,68820,1,0,0:0:0:0:
36,192,68924,1,0,0:0:0:0:
402,192,68924,1,0,0:0:0:0:
256,192,68924,1,0,0:0:0:0:
475,192,68924,1,0,0:0:0:0:
256,192,69337,1,0,0:0:0:0:
402,192,69337,1,0,0:0:0:0:
475,192,69337,1,0,0:0:0:0:
329,192,69441,1,0,0:0:0:0:
182,192,69441,1,0,0:0:0:0:
402,192,69441,1,0,0:0:0:0:
109,192,69544,1,0,0:0:0:0:
256,192,69544,1,0,0:0:0:0:
36,192,69544,128,0,89406:0:0:0:0:
475,192,69544,128,0,89406:0:0:0:0:
329,192,69544,1,0,0:0:0:0:
402,192,69751,1,0,0:0:0:0:
402,192,69855,1,0,0:0:0:0:
329,192,69958,1,0,0:0:0:0:
256,192,70062,1,0,0:0:0:0:
109,192,70165,1,0,0:0:0:0:
109,192,70475,1,0,0:0:0:0:
182,192,70579,1,0,0:0:0:0:
256,192,70682,1,0,0:0:0:0:
182,192,70786,1,0,0:0:0:0:
402,192,70993,1,0,0:0:0:0:
329,192,71096,1,0,0:0:0:0:
256,192,71199,1,0,0:0:0:0:
182,192,71303,1,0,0:0:0:0:
109,192,71406,1,0,0:0:0:0:
329,192,71613,1,0,0:0:0:0:
256,192,71717,1,0,0:0:0:0:
182,192,71820,1,0,0:0:0:0:
256,192,71924,1,0,0:0:0:0:
329,192,72027,1,0,0:0:0:0:
109,192,72027,1,0,0:0:0:0:
329,192,72130,1,0,0:0:0:0:
329,192,72234,1,0,0:0:0:0:
182,192,72337,1,0,0:0:0:0:
182,192,72441,1,0,0:0:0:0:
182,192,72544,1,0,0:0:0:0:
402,192,72648,1,0,0:0:0:0:
402,192,72751,1,0,0:0:0:0:
402,192,72855,1,0,0:0:0:0:
109,192,72958,1,0,0:0:0:0:
109,192,73061,1,0,0:0:0:0:
109,192,73165,1,0,0:0:0:0:
256,192,73268,1,0,0:0:0:0:
256,192,73372,1,0,0:0:0:0:
256,192,73475,1,0,0:0:0:0:
182,192,73579,1,0,0:0:0:0:
182,192,73682,1,0,0:0:0:0:
182,192,73786,1,0,0:0:0:0:
329,192,73889,1,0,0:0:0:0:
329,192,73992,1,0,0:0:0:0:
329,192,74096,1,0,0:0:0:0:
402,192,74199,1,0,0:0:0:0:
402,192,74303,1,0,0:0:0:0:
402,192,74406,1,0,0:0:0:0:
109,192,74510,1,0,0:0:0:0:
256,192,74510,1,0,0:0:0:0:
402,192,74717,1,0,0:0:0:0:
182,192,74820,1,0,0:0:0:0:
329,192,75027,1,0,0:0:0:0:
109,192,75130,1,0,0:0:0:0:
109,192,75441,1,0,0:0:0:0:
329,192,75544,1,0,0:0:0:0:
256,192,75648,1,0,0:0:0:0:
182,192,75751,1,0,0:0:0:0:
402,192,75854,1,0,0:0:0:0:
329,192,75958,1,0,0:0:0:0:
256,192,76061,1,0,0:0:0:0:
402,192,76372,1,0,0:0:0:0:
329,192,76579,1,0,0:0:0:0:
182,192,76682,1,0,0:0:0:0:
109,192,76785,1,0,0:0:0:0:
182,192,76889,1,0,0:0:0:0:
256,192,76992,1,0,0:0:0:0:
256,192,77096,1,0,0:0:0:0:
256,192,77199,1,0,0:0:0:0:
402,192,77303,1,0,0:0:0:0:
402,192,77406,1,0,0:0:0:0:
402,192,77510,1,0,0:0:0:0:
109,192,77613,1,0,0:0:0:0:
109,192,77716,1,0,0:0:0:0:
109,192,77820,1,0,0:0:0:0:
329,192,77923,1,0,0:0:0:0:
329,192,78027,1,0,0:0:0:0:
329,192,78130,1,0,0:0:0:0:
182,192,78234,1,0,0:0:0:0:
182,192,78337,1,0,0:0:0:0:
182,192,78441,1,0,0:0:0:0:
402,192,78544,1,0,0:0:0:0:
402,192,78647,1,0,0:0:0:0:
402,192,78751,1,0,0:0:0:0:
109,192,78854,1,0,0:0:0:0:
109,192,78958,1,0,0:0:0:0:
109,192,79061,1,0,0:0:0:0:
329,192,79165,1,0,0:0:0:0:
329,192,79268,1,0,0:0:0:0:
329,192,79372,1,0,0:0:0:0:
256,192,79475,1,0,0:0:0:0:
109,192,79475,1,0,0:0:0:0:
402,192,79475,1,0,0:0:0:0:
256,192,80613,1,0,0:0:0:0:
256,192,80716,1,0,0:0:0:0:
256,192,81958,1,0,0:0:0:0:
256,192,82578,1,0,0:0:0:0:
256,192,83199,1,0,0:0:0:0:
256,192,84337,1,0,0:0:0:0:
256,192,84440,1,0,0:0:0:0:
256,192,85578,1,0,0:0:0:0:
256,192,85682,1,0,0:0:0:0:
329,192,86302,1,0,0:0:0:0:
256,192,86923,1,0,0:0:0:0:
256,192,87233,1,0,0:0:0:0:
256,192,87544,1,0,0:0:0:0:
256,192,87854,1,0,0:0:0:0:
256,192,88164,1,0,0:0:0:0:
256,192,88268,1,0,0:0:0:0:
256,192,88371,1,0,0:0:0:0:
256,192,88475,1,0,0:0:0:0:
256,192,88578,1,0,0:0:0:0:
256,192,88682,1,0,0:0:0:0:
256,192,88785,1,0,0:0:0:0:
256,192,88889,1,0,0:0:0:0:
256,192,88992,1,0,0:0:0:0:
256,192,89095,1,0,0:0:0:0:
256,192,89199,1,0,0:0:0:0:
256,192,89302,1,0,0:0:0:0:
256,192,89406,1,0,0:0:0:0:
109,192,89406,1,0,0:0:0:0:
402,192,89406,1,0,0:0:0:0:
109,192,89613,1,0,0:0:0:0:
109,192,89716,1,0,0:0:0:0:
182,192,89716,1,0,0:0:0:0:
402,192,89820,1,0,0:0:0:0:
475,192,89820,1,0,0:0:0:0:
109,192,89923,1,0,0:0:0:0:
402,192,89923,1,0,0:0:0:0:
329,192,89923,1,0,0:0:0:0:
329,192,90026,1,0,0:0:0:0:
256,192,90026,1,0,0:0:0:0:
329,192,90130,1,0,0:0:0:0:
402,192,90130,1,0,0:0:0:0:
402,192,90233,1,0,0:0:0:0:
475,192,90233,1,0,0:0:0:0:
109,192,90337,1,0,0:0:0:0:
182,192,90337,1,0,0:0:0:0:
36,192,90544,1,0,0:0:0:0:
182,192,90544,1,0,0:0:0:0:
36,192,90647,1,0,0:0:0:0:
182,192,90647,1,0,0:0:0:0:
329,192,90647,1,0,0:0:0:0:
402,192,90647,1,0,0:0:0:0:
109,192,90854,1,0,0:0:0:0:
109,192,90957,1,0,0:0:0:0:
182,192,90957,1,0,0:0:0:0:
256,192,90957,1,0,0:0:0:0:
329,192,90957,1,0,0:0:0:0:
36,192,91268,1,0,0:0:0:0:
182,192,91268,1,0,0:0:0:0:
402,192,91268,1,0,0:0:0:0:
329,192,91268,1,0,0:0:0:0:
329,192,91371,1,0,0:0:0:0:
402,192,91371,1,0,0:0:0:0:
402,192,91475,1,0,0:0:0:0:
329,192,91475,1,0,0:0:0:0:
109,192,91578,1,0,0:0:0:0:
182,192,91578,1,0,0:0:0:0:
182,192,91785,1,0,0:0:0:0:
182,192,91888,1,0,0:0:0:0:
36,192,91888,1,0,0:0:0:0:
329,192,91888,1,0,0:0:0:0:
402,192,91888,1,0,0:0:0:0:
36,192,92095,1,0,0:0:0:0:
182,192,92095,1,0,0:0:0:0:
109,192,92199,1,0,0:0:0:0:
182,192,92199,1,0,0:0:0:0:
402,192,92302,1,0,0:0:0:0:
475,192,92302,1,0,0:0:0:0:
109,192,92406,1,0,0:0:0:0:
329,192,92406,1,0,0:0:0:0:
402,192,92406,1,0,0:0:0:0:
329,192,92509,1,0,0:0:0:0:
256,192,92509,1,0,0:0:0:0:
256,192,92613,1,0,0:0:0:0:
182,192,92613,1,0,0:0:0:0:
256,192,92716,1,0,0:0:0:0:
329,192,92716,1,0,0:0:0:0:
109,192,92819,1,0,0:0:0:0:
182,192,92819,1,0,0:0:0:0:
36,192,93026,1,0,0:0:0:0:
182,192,93026,1,0,0:0:0:0:
182,192,93130,1,0,0:0:0:0:
36,192,93130,1,0,0:0:0:0:
329,192,93130,1,0,0:0:0:0:
402,192,93130,1,0,0:0:0:0:
109,192,93233,1,0,0:0:0:0:
109,192,93337,1,0,0:0:0:0:
109,192,93440,1,0,0:0:0:0:
182,192,93440,1,0,0:0:0:0:
329,192,93440,1,0,0:0:0:0:
256,192,93440,1,0,0:0:0:0:
36,192,93750,1,0,0:0:0:0:
182,192,93750,1,0,0:0:0:0:
329,192,93750,1,0,0:0:0:0:
402,192,93750,1,0,0:0:0:0:
182,192,93854,1,0,0:0:0:0:
36,192,93854,1,0,0:0:0:0:
475,192,93854,1,0,0:0:0:0:
402,192,93854,1,0,0:0:0:0:
36,192,93957,1,0,0:0:0:0:
182,192,93957,1,0,0:0:0:0:
329,192,93957,1,0,0:0:0:0:
402,192,93957,1,0,0:0:0:0:
256,192,94061,1,0,0:0:0:0:
109,192,94061,1,0,0:0:0:0:
36,192,94268,1,0,0:0:0:0:
182,192,94268,1,0,0:0:0:0:
182,192,94371,1,0,0:0:0:0:
36,192,94371,1,0,0:0:0:0:
402,192,94371,1,0,0:0:0:0:
475,192,94371,1,0,0:0:0:0:
109,192,94578,1,0,0:0:0:0:
109,192,94681,1,0,0:0:0:0:
182,192,94681,1,0,0:0:0:0:
402,192,94785,1,0,0:0:0:0:
475,192,94785,1,0,0:0:0:0:
109,192,94888,1,0,0:0:0:0:
402,192,94888,1,0,0:0:0:0:
329,192,94888,1,0,0:0:0:0:
402,192,94992,1,0,0:0:0:0:
475,192,94992,1,0,0:0:0:0:
182,192,95095,1,0,0:0:0:0:
256,192,95095,1,0,0:0:0:0:
256,192,95199,1,0,0:0:0:0:
329,192,95199,1,0,0:0:0:0:
109,192,95302,1,0,0:0:0:0:
36,192,95302,1,0,0:0:0:0:
329,192,95302,1,0,0:0:0:0:
402,192,95302,1,0,0:0:0:0:
36,192,95509,1,0,0:0:0:0:
182,192,95509,1,0,0:0:0:0:
36,192,95612,1,0,0:0:0:0:
182,192,95612,1,0,0:0:0:0:
329,192,95612,1,0,0:0:0:0:
402,192,95612,1,0,0:0:0:0:
109,192,95819,1,0,0:0:0:0:
109,192,95923,1,0,0:0:0:0:
182,192,95923,1,0,0:0:0:0:
329,192,95923,1,0,0:0:0:0:
402,192,95923,1,0,0:0:0:0:
329,192,96026,1,0,0:0:0:0:
256,192,96026,1,0,0:0:0:0:
36,192,96130,1,0,0:0:0:0:
182,192,96130,1,0,0:0:0:0:
402,192,96130,1,0,0:0:0:0:
475,192,96130,1,0,0:0:0:0:
36,192,96233,1,0,0:0:0:0:
182,192,96233,1,0,0:0:0:0:
329,192,96233,1,0,0:0:0:0:
402,192,96233,1,0,0:0:0:0:
109,192,96543,1,0,0:0:0:0:
182,192,96543,1,0,0:0:0:0:
182,192,96750,1,0,0:0:0:0:
182,192,96854,1,0,0:0:0:0:
36,192,96854,1,0,0:0:0:0:
329,192,96854,1,0,0:0:0:0:
256,192,96854,1,0,0:0:0:0:
36,192,97061,1,0,0:0:0:0:
182,192,97061,1,0,0:0:0:0:
109,192,97164,1,0,0:0:0:0:
182,192,97164,1,0,0:0:0:0:
256,192,97268,1,0,0:0:0:0:
329,192,97268,1,0,0:0:0:0:
109,192,97371,1,0,0:0:0:0:
329,192,97371,1,0,0:0:0:0:
402,192,97371,1,0,0:0:0:0:
402,192,97474,1,0,0:0:0:0:
475,192,97474,1,0,0:0:0:0:
182,192,97578,1,0,0:0:0:0:
256,192,97578,1,0,0:0:0:0:
256,192,97681,1,0,0:0:0:0:
329,192,97681,1,0,0:0:0:0:
109,192,97785,1,0,0:0:0:0:
182,192,97785,1,0,0:0:0:0:
402,192,97785,1,0,0:0:0:0:
475,192,97785,1,0,0:0:0:0:
402,192,97888,1,0,0:0:0:0:
475,192,97888,1,0,0:0:0:0:
36,192,97992,1,0,0:0:0:0:
182,192,97992,1,0,0:0:0:0:
329,192,97992,1,0,0:0:0:0:
256,192,97992,1,0,0:0:0:0:
182,192,98095,1,0,0:0:0:0:
36,192,98095,1,0,0:0:0:0:
256,192,98095,1,0,0:0:0:0:
329,192,98095,1,0,0:0:0:0:
109,192,98199,1,0,0:0:0:0:
109,192,98302,1,0,0:0:0:0:
109,192,98405,1,0,0:0:0:0:
182,192,98405,1,0,0:0:0:0:
329,192,98405,1,0,0:0:0:0:
402,192,98405,1,0,0:0:0:0:
109,192,98716,1,0,0:0:0:0:
329,192,98716,1,0,0:0:0:0:
402,192,98716,1,0,0:0:0:0:
402,192,98819,1,0,0:0:0:0:
475,192,98819,1,0,0:0:0:0:
402,192,98923,1,0,0:0:0:0:
329,192,98923,1,0,0:0:0:0:
182,192,99026,1,0,0:0:0:0:
109,192,99026,1,0,0:0:0:0:
182,192,99130,1,0,0:0:0:0:
109,192,99130,1,0,0:0:0:0:
182,192,99233,1,0,0:0:0:0:
109,192,99233,1,0,0:0:0:0:
36,192,99336,1,0,0:0:0:0:
475,192,99336,1,0,0:0:0:0:
329,192,99336,1,0,0:0:0:0:
402,192,99336,1,0,0:0:0:0:
256,192,99336,1,0,0:0:0:0:
109,192,99440,1,0,0:0:0:0:
402,192,99543,1,0,0:0:0:0:
256,192,99543,1,0,0:0:0:0:
109,192,99543,1,0,0:0:0:0:
402,192,99647,1,0,0:0:0:0:
329,192,99647,1,0,0:0:0:0:
256,192,99647,1,0,0:0:0:0:
109,192,99750,1,0,0:0:0:0:
36,192,99750,1,0,0:0:0:0:
402,192,99854,1,0,0:0:0:0:
109,192,99854,1,0,0:0:0:0:
182,192,99854,1,0,0:0:0:0:
182,192,99957,1,0,0:0:0:0:
256,192,99957,1,0,0:0:0:0:
182,192,100061,1,0,0:0:0:0:
109,192,100061,1,0,0:0:0:0:
402,192,100164,1,0,0:0:0:0:
109,192,100164,1,0,0:0:0:0:
36,192,100164,1,0,0:0:0:0:
402,192,100267,1,0,0:0:0:0:
329,192,100267,1,0,0:0:0:0:
256,192,100267,1,0,0:0:0:0:
36,192,100371,1,0,0:0:0:0:
475,192,100474,1,0,0:0:0:0:
329,192,100474,1,0,0:0:0:0:
256,192,100474,1,0,0:0:0:0:
36,192,100474,1,0,0:0:0:0:
475,192,100578,1,0,0:0:0:0:
329,192,100578,1,0,0:0:0:0:
256,192,100578,1,0,0:0:0:0:
182,192,100578,1,0,0:0:0:0:
109,192,100578,1,0,0:0:0:0:
402,192,100785,1,0,0:0:0:0:
256,192,100785,1,0,0:0:0:0:
402,192,100888,1,0,0:0:0:0:
329,192,100888,1,0,0:0:0:0:
256,192,100888,1,0,0:0:0:0:
182,192,100888,1,0,0:0:0:0:
36,192,100888,1,0,0:0:0:0:
36,192,100992,1,0,0:0:0:0:
475,192,101198,1,0,0:0:0:0:
329,192,101198,1,0,0:0:0:0:
109,192,101198,1,0,0:0:0:0:
182,192,101198,1,0,0:0:0:0:
256,192,101198,1,0,0:0:0:0:
182,192,101302,1,0,0:0:0:0:
109,192,101302,1,0,0:0:0:0:
109,192,101405,1,0,0:0:0:0:
182,192,101405,1,0,0:0:0:0:
402,192,101509,1,0,0:0:0:0:
329,192,101509,1,0,0:0:0:0:
256,192,101509,1,0,0:0:0:0:
256,192,101612,1,0,0:0:0:0:
329,192,101716,1,0,0:0:0:0:
475,192,101716,1,0,0:0:0:0:
475,192,101819,1,0,0:0:0:0:
329,192,101819,1,0,0:0:0:0:
256,192,101819,1,0,0:0:0:0:
182,192,101819,1,0,0:0:0:0:
109,192,101819,1,0,0:0:0:0:
475,192,102026,1,0,0:0:0:0:
329,192,102026,1,0,0:0:0:0:
256,192,102026,1,0,0:0:0:0:
402,192,102129,1,0,0:0:0:0:
329,192,102129,1,0,0:0:0:0:
256,192,102129,1,0,0:0:0:0:
109,192,102233,1,0,0:0:0:0:
36,192,102233,1,0,0:0:0:0:
402,192,102336,1,0,0:0:0:0:
182,192,102336,1,0,0:0:0:0:
109,192,102336,1,0,0:0:0:0:
182,192,102440,1,0,0:0:0:0:
256,192,102440,1,0,0:0:0:0:
256,192,102543,1,0,0:0:0:0:
329,192,102543,1,0,0:0:0:0:
182,192,102647,1,0,0:0:0:0:
109,192,102647,1,0,0:0:0:0:
402,192,102750,1,0,0:0:0:0:
329,192,102750,1,0,0:0:0:0:
36,192,102750,1,0,0:0:0:0:
36,192,102854,1,0,0:0:0:0:
475,192,102957,1,0,0:0:0:0:
329,192,102957,1,0,0:0:0:0:
256,192,102957,1,0,0:0:0:0:
329,192,103060,1,0,0:0:0:0:
475,192,103060,1,0,0:0:0:0:
256,192,103060,1,0,0:0:0:0:
182,192,103060,1,0,0:0:0:0:
109,192,103060,1,0,0:0:0:0:
402,192,103164,1,0,0:0:0:0:
182,192,103267,1,0,0:0:0:0:
256,192,103267,1,0,0:0:0:0:
402,192,103371,1,0,0:0:0:0:
329,192,103371,1,0,0:0:0:0:
256,192,103371,1,0,0:0:0:0:
182,192,103371,1,0,0:0:0:0:
36,192,103371,1,0,0:0:0:0:
36,192,103474,1,0,0:0:0:0:
256,192,103578,1,0,0:0:0:0:
475,192,103681,1,0,0:0:0:0:
329,192,103681,1,0,0:0:0:0:
182,192,103681,1,0,0:0:0:0:
109,192,103681,1,0,0:0:0:0:
256,192,103681,1,0,0:0:0:0:
329,192,103785,1,0,0:0:0:0:
475,192,103785,1,0,0:0:0:0:
36,192,103785,1,0,0:0:0:0:
109,192,103785,1,0,0:0:0:0:
475,192,103888,1,0,0:0:0:0:
329,192,103888,1,0,0:0:0:0:
182,192,103888,1,0,0:0:0:0:
109,192,103888,1,0,0:0:0:0:
402,192,103991,1,0,0:0:0:0:
256,192,103991,1,0,0:0:0:0:
256,192,104095,1,0,0:0:0:0:
475,192,104198,1,0,0:0:0:0:
329,192,104198,1,0,0:0:0:0:
329,192,104302,1,0,0:0:0:0:
475,192,104302,1,0,0:0:0:0:
109,192,104302,1,0,0:0:0:0:
36,192,104302,1,0,0:0:0:0:
402,192,104509,1,0,0:0:0:0:
182,192,104509,1,0,0:0:0:0:
402,192,104612,1,0,0:0:0:0:
329,192,104612,1,0,0:0:0:0:
182,192,104612,1,0,0:0:0:0:
109,192,104716,1,0,0:0:0:0:
36,192,104716,1,0,0:0:0:0:
256,192,104716,1,0,0:0:0:0:
402,192,104819,1,0,0:0:0:0:
475,192,104819,1,0,0:0:0:0:
256,192,104819,1,0,0:0:0:0:
109,192,104922,1,0,0:0:0:0:
36,192,104922,1,0,0:0:0:0:
256,192,105026,1,0,0:0:0:0:
182,192,105026,1,0,0:0:0:0:
182,192,105129,1,0,0:0:0:0:
109,192,105129,1,0,0:0:0:0:
402,192,105233,1,0,0:0:0:0:
329,192,105233,1,0,0:0:0:0:
109,192,105233,1,0,0:0:0:0:
36,192,105233,1,0,0:0:0:0:
256,192,105336,1,0,0:0:0:0:
475,192,105440,1,0,0:0:0:0:
329,192,105440,1,0,0:0:0:0:
182,192,105440,1,0,0:0:0:0:
475,192,105543,1,0,0:0:0:0:
329,192,105543,1,0,0:0:0:0:
36,192,105543,1,0,0:0:0:0:
182,192,105543,1,0,0:0:0:0:
109,192,105543,1,0,0:0:0:0:
402,192,105750,1,0,0:0:0:0:
36,192,105750,1,0,0:0:0:0:
402,192,105853,1,0,0:0:0:0:
329,192,105853,1,0,0:0:0:0:
182,192,105853,1,0,0:0:0:0:
109,192,105853,1,0,0:0:0:0:
182,192,105957,1,0,0:0:0:0:
256,192,105957,1,0,0:0:0:0:
475,192,106060,1,0,0:0:0:0:
329,192,106060,1,0,0:0:0:0:
109,192,106060,1,0,0:0:0:0:
36,192,106060,1,0,0:0:0:0:
475,192,106164,1,0,0:0:0:0:
329,192,106164,1,0,0:0:0:0:
182,192,106164,1,0,0:0:0:0:
109,192,106164,1,0,0:0:0:0:
329,192,106267,1,0,0:0:0:0:
182,192,106371,1,0,0:0:0:0:
402,192,106474,1,0,0:0:0:0:
329,192,106474,1,0,0:0:0:0:
182,192,106578,1,0,0:0:0:0:
329,192,106681,1,0,0:0:0:0:
182,192,106681,1,0,0:0:0:0:
329,192,106784,1,0,0:0:0:0:
475,192,106784,1,0,0:0:0:0:
182,192,106784,1,0,0:0:0:0:
256,192,106784,1,0,0:0:0:0:
36,192,106888,1,0,0:0:0:0:
475,192,106991,1,0,0:0:0:0:
329,192,106991,1,0,0:0:0:0:
256,192,106991,1,0,0:0:0:0:
36,192,106991,1,0,0:0:0:0:
402,192,107095,1,0,0:0:0:0:
329,192,107095,1,0,0:0:0:0:
256,192,107198,1,0,0:0:0:0:
182,192,107198,1,0,0:0:0:0:
402,192,107302,1,0,0:0:0:0:
182,192,107302,1,0,0:0:0:0:
109,192,107302,1,0,0:0:0:0:
109,192,107405,1,0,0:0:0:0:
36,192,107405,1,0,0:0:0:0:
329,192,107509,1,0,0:0:0:0:
402,192,107509,1,0,0:0:0:0:
256,192,107612,1,0,0:0:0:0:
182,192,107612,1,0,0:0:0:0:
402,192,107715,1,0,0:0:0:0:
329,192,107715,1,0,0:0:0:0:
182,192,107715,1,0,0:0:0:0:
256,192,107715,1,0,0:0:0:0:
109,192,107819,1,0,0:0:0:0:
36,192,107819,1,0,0:0:0:0:
475,192,107922,1,0,0:0:0:0:
329,192,107922,1,0,0:0:0:0:
182,192,107922,1,0,0:0:0:0:
109,192,107922,1,0,0:0:0:0:
329,192,108026,1,0,0:0:0:0:
475,192,108026,1,0,0:0:0:0:
256,192,108026,1,0,0:0:0:0:
182,192,108026,1,0,0:0:0:0:
182,192,108336,1,0,0:0:0:0:
109,192,108336,1,0,0:0:0:0:
256,192,108646,1,0,0:0:0:0:
182,192,108646,1,0,0:0:0:0:
256,192,108750,1,0,0:0:0:0:
329,192,108750,1,0,0:0:0:0:
182,192,108853,1,0,0:0:0:0:
256,192,108853,1,0,0:0:0:0:
36,192,109267,1,0,0:0:0:0:
475,192,109267,1,0,0:0:0:0:
256,192,109267,1,0,0:0:0:0:
182,192,109267,1,0,0:0:0:0:
329,192,109267,1,0,0:0:0:0:
475,192,109577,1,0,0:0:0:0:
36,192,109577,1,0,0:0:0:0:
402,192,109681,1,0,0:0:0:0:
256,192,109681,1,0,0:0:0:0:
182,192,109681,1,0,0:0:0:0:
182,192,109784,1,0,0:0:0:0:
329,192,109784,1,0,0:0:0:0:
109,192,109784,1,0,0:0:0:0:
36,192,109888,1,0,0:0:0:0:
475,192,109888,1,0,0:0:0:0:
256,192,109888,1,0,0:0:0:0:
402,192,109888,1,0,0:0:0:0:
329,192,109991,1,0,0:0:0:0:
256,192,109991,1,0,0:0:0:0:
109,192,109991,1,0,0:0:0:0:
402,192,110095,1,0,0:0:0:0:
329,192,110095,1,0,0:0:0:0:
182,192,110095,1,0,0:0:0:0:
36,192,110198,1,0,0:0:0:0:
475,192,110198,1,0,0:0:0:0:
36,192,110302,1,0,0:0:0:0:
475,192,110302,1,0,0:0:0:0:
475,192,110508,1,0,0:0:0:0:
36,192,110508,1,0,0:0:0:0:
329,192,110508,1,0,0:0:0:0:
256,192,110508,1,0,0:0:0:0:
182,192,110508,1,0,0:0:0:0:
36,192,110819,1,0,0:0:0:0:
475,192,110819,1,0,0:0:0:0:
109,192,110819,1,0,0:0:0:0:
182,192,110819,1,0,0:0:0:0:
256,192,110819,1,0,0:0:0:0:
475,192,111129,1,0,0:0:0:0:
36,192,111129,1,0,0:0:0:0:
109,192,111129,1,0,0:0:0:0:
182,192,111129,1,0,0:0:0:0:
475,192,111233,1,0,0:0:0:0:
109,192,111233,1,0,0:0:0:0:
182,192,111233,1,0,0:0:0:0:
329,192,111336,1,0,0:0:0:0:
256,192,111336,1,0,0:0:0:0:
36,192,111439,1,0,0:0:0:0:
475,192,111439,1,0,0:0:0:0:
402,192,111439,1,0,0:0:0:0:
329,192,111491,1,0,0:0:0:0:
256,192,111543,1,0,0:0:0:0:
182,192,111595,1,0,0:0:0:0:
109,192,111646,1,0,0:0:0:0:
36,192,111698,1,0,0:0:0:0:
475,192,111750,1,0,0:0:0:0:
329,192,111750,1,0,0:0:0:0:
256,192,111750,1,0,0:0:0:0:
402,192,111750,1,0,0:0:0:0:
36,192,112060,1,0,0:0:0:0:
475,192,112060,1,0,0:0:0:0:
256,192,112164,1,0,0:0:0:0:
329,192,112164,1,0,0:0:0:0:
402,192,112164,1,0,0:0:0:0:
329,192,112267,1,0,0:0:0:0:
182,192,112267,1,0,0:0:0:0:
109,192,112267,1,0,0:0:0:0:
475,192,112370,1,0,0:0:0:0:
36,192,112370,1,0,0:0:0:0:
256,192,112370,1,0,0:0:0:0:
402,192,112370,1,0,0:0:0:0:
109,192,112474,1,0,0:0:0:0:
256,192,112474,1,0,0:0:0:0:
402,192,112474,1,0,0:0:0:0:
329,192,112577,1,0,0:0:0:0:
182,192,112577,1,0,0:0:0:0:
109,192,112577,1,0,0:0:0:0:
475,192,112681,1,0,0:0:0:0:
36,192,112681,1,0,0:0:0:0:
36,192,112784,1,0,0:0:0:0:
475,192,112784,1,0,0:0:0:0:
475,192,112991,1,0,0:0:0:0:
36,192,112991,1,0,0:0:0:0:
182,192,112991,1,0,0:0:0:0:
329,192,112991,1,0,0:0:0:0:
256,192,112991,1,0,0:0:0:0:
36,192,113301,1,0,0:0:0:0:
475,192,113301,1,0,0:0:0:0:
256,192,113301,1,0,0:0:0:0:
329,192,113301,1,0,0:0:0:0:
402,192,113301,1,0,0:0:0:0:
475,192,113612,1,0,0:0:0:0:
36,192,113612,1,0,0:0:0:0:
329,192,113612,1,0,0:0:0:0:
402,192,113612,1,0,0:0:0:0:
182,192,113612,1,0,0:0:0:0:
402,192,113715,1,0,0:0:0:0:
329,192,113715,1,0,0:0:0:0:
329,192,113819,1,0,0:0:0:0:
402,192,113819,1,0,0:0:0:0:
182,192,113819,1,0,0:0:0:0:
36,192,113922,1,0,0:0:0:0:
475,192,113922,1,0,0:0:0:0:
256,192,113922,1,0,0:0:0:0:
182,192,113974,1,0,0:0:0:0:
109,192,114026,1,0,0:0:0:0:
182,192,114077,1,0,0:0:0:0:
256,192,114129,1,0,0:0:0:0:
329,192,114181,1,0,0:0:0:0:
475,192,114232,1,0,0:0:0:0:
36,192,114232,1,0,0:0:0:0:
402,192,114232,1,0,0:0:0:0:
182,192,114232,1,0,0:0:0:0:
109,192,114232,1,0,0:0:0:0:
36,192,114543,1,0,0:0:0:0:
475,192,114543,1,0,0:0:0:0:
182,192,114646,1,0,0:0:0:0:
256,192,114646,1,0,0:0:0:0:
329,192,114646,1,0,0:0:0:0:
402,192,114750,1,0,0:0:0:0:
109,192,114750,1,0,0:0:0:0:
329,192,114750,1,0,0:0:0:0:
475,192,114853,1,0,0:0:0:0:
36,192,114853,1,0,0:0:0:0:
256,192,114853,1,0,0:0:0:0:
182,192,114853,1,0,0:0:0:0:
109,192,114957,1,0,0:0:0:0:
182,192,114957,1,0,0:0:0:0:
256,192,114957,1,0,0:0:0:0:
109,192,115060,1,0,0:0:0:0:
329,192,115060,1,0,0:0:0:0:
402,192,115060,1,0,0:0:0:0:
36,192,115163,1,0,0:0:0:0:
475,192,115163,1,0,0:0:0:0:
182,192,115163,1,0,0:0:0:0:
256,192,115163,1,0,0:0:0:0:
329,192,115163,1,0,0:0:0:0:
182,192,115267,1,0,0:0:0:0:
329,192,115267,1,0,0:0:0:0:
475,192,115474,1,0,0:0:0:0:
36,192,115474,1,0,0:0:0:0:
402,192,115474,1,0,0:0:0:0:
329,192,115474,1,0,0:0:0:0:
256,192,115474,1,0,0:0:0:0:
36,192,115784,1,0,0:0:0:0:
475,192,115784,1,0,0:0:0:0:
256,192,115784,1,0,0:0:0:0:
329,192,115784,1,0,0:0:0:0:
402,192,115784,1,0,0:0:0:0:
182,192,115888,1,0,0:0:0:0:
329,192,115888,1,0,0:0:0:0:
109,192,115888,1,0,0:0:0:0:
256,192,115991,1,0,0:0:0:0:
402,192,115991,1,0,0:0:0:0:
109,192,115991,1,0,0:0:0:0:
475,192,116094,1,0,0:0:0:0:
36,192,116094,1,0,0:0:0:0:
329,192,116094,1,0,0:0:0:0:
402,192,116094,1,0,0:0:0:0:
182,192,116198,1,0,0:0:0:0:
329,192,116198,1,0,0:0:0:0:
182,192,116301,1,0,0:0:0:0:
36,192,116405,1,0,0:0:0:0:
475,192,116405,1,0,0:0:0:0:
109,192,116405,1,0,0:0:0:0:
402,192,116457,1,0,0:0:0:0:
329,192,116508,1,0,0:0:0:0:
256,192,116560,1,0,0:0:0:0:
182,192,116612,1,0,0:0:0:0:
109,192,116663,1,0,0:0:0:0:
475,192,116715,1,0,0:0:0:0:
36,192,116715,1,0,0:0:0:0:
329,192,116715,1,0,0:0:0:0:
256,192,116715,1,0,0:0:0:0:
402,192,116715,1,0,0:0:0:0:
36,192,117025,1,0,0:0:0:0:
475,192,117025,1,0,0:0:0:0:
109,192,117129,1,0,0:0:0:0:
329,192,117129,1,0,0:0:0:0:
182,192,117129,1,0,0:0:0:0:
256,192,117232,1,0,0:0:0:0:
182,192,117232,1,0,0:0:0:0:
402,192,117232,1,0,0:0:0:0:
475,192,117336,1,0,0:0:0:0:
36,192,117336,1,0,0:0:0:0:
256,192,117336,1,0,0:0:0:0:
109,192,117336,1,0,0:0:0:0:
182,192,117439,1,0,0:0:0:0:
329,192,117439,1,0,0:0:0:0:
402,192,117439,1,0,0:0:0:0:
256,192,117543,1,0,0:0:0:0:
109,192,117543,1,0,0:0:0:0:
36,192,117646,1,0,0:0:0:0:
475,192,117646,1,0,0:0:0:0:
329,192,117646,1,0,0:0:0:0:
402,192,117646,1,0,0:0:0:0:
182,192,117750,1,0,0:0:0:0:
109,192,117750,1,0,0:0:0:0:
402,192,117750,1,0,0:0:0:0:
256,192,117853,1,0,0:0:0:0:
329,192,117853,1,0,0:0:0:0:
109,192,117853,1,0,0:0:0:0:
475,192,117956,1,0,0:0:0:0:
36,192,117956,1,0,0:0:0:0:
182,192,117956,1,0,0:0:0:0:
256,192,117956,1,0,0:0:0:0:
402,192,117956,1,0,0:0:0:0:
36,192,118267,1,0,0:0:0:0:
475,192,118267,1,0,0:0:0:0:
329,192,118267,1,0,0:0:0:0:
256,192,118267,1,0,0:0:0:0:
109,192,118267,1,0,0:0:0:0:
475,192,118577,1,0,0:0:0:0:
36,192,118577,1,0,0:0:0:0:
182,192,118577,1,0,0:0:0:0:
256,192,118577,1,0,0:0:0:0:
329,192,118577,1,0,0:0:0:0:
109,192,118681,1,0,0:0:0:0:
256,192,118681,1,0,0:0:0:0:
402,192,118681,1,0,0:0:0:0:
256,192,118784,1,0,0:0:0:0:
329,192,118784,1,0,0:0:0:0:
182,192,118784,1,0,0:0:0:0:
36,192,119198,1,0,0:0:0:0:
475,192,119198,1,0,0:0:0:0:
256,192,119198,1,0,0:0:0:0:
329,192,119198,1,0,0:0:0:0:
182,192,119198,1,0,0:0:0:0:
475,192,119508,1,0,0:0:0:0:
36,192,119508,1,0,0:0:0:0:
109,192,119508,1,0,0:0:0:0:
256,192,119612,1,0,0:0:0:0:
182,192,119612,1,0,0:0:0:0:
402,192,119612,1,0,0:0:0:0:
109,192,119715,1,0,0:0:0:0:
329,192,119715,1,0,0:0:0:0:
182,192,119715,1,0,0:0:0:0:
36,192,119818,1,0,0:0:0:0:
475,192,119818,1,0,0:0:0:0:
402,192,119818,1,0,0:0:0:0:
256,192,119818,1,0,0:0:0:0:
256,192,119922,1,0,0:0:0:0:
329,192,119922,1,0,0:0:0:0:
109,192,119922,1,0,0:0:0:0:
402,192,120025,1,0,0:0:0:0:
329,192,120025,1,0,0:0:0:0:
182,192,120025,1,0,0:0:0:0:
36,192,120129,1,0,0:0:0:0:
475,192,120129,1,0,0:0:0:0:
109,192,120129,1,0,0:0:0:0:
109,192,120232,1,0,0:0:0:0:
36,192,120232,1,0,0:0:0:0:
475,192,120232,1,0,0:0:0:0:
475,192,120439,1,0,0:0:0:0:
36,192,120439,1,0,0:0:0:0:
329,192,120439,1,0,0:0:0:0:
256,192,120439,1,0,0:0:0:0:
182,192,120439,1,0,0:0:0:0:
36,192,120749,1,0,0:0:0:0:
475,192,120749,1,0,0:0:0:0:
109,192,120749,1,0,0:0:0:0:
182,192,120749,1,0,0:0:0:0:
256,192,120749,1,0,0:0:0:0:
402,192,120749,1,0,0:0:0:0:
475,192,121060,1,0,0:0:0:0:
36,192,121060,1,0,0:0:0:0:
109,192,121060,1,0,0:0:0:0:
402,192,121060,1,0,0:0:0:0:
182,192,121060,1,0,0:0:0:0:
329,192,121163,1,0,0:0:0:0:
182,192,121163,1,0,0:0:0:0:
402,192,121163,1,0,0:0:0:0:
109,192,121267,1,0,0:0:0:0:
256,192,121267,1,0,0:0:0:0:
329,192,121267,1,0,0:0:0:0:
36,192,121370,1,0,0:0:0:0:
475,192,121370,1,0,0:0:0:0:
402,192,121370,1,0,0:0:0:0:
182,192,121370,1,0,0:0:0:0:
256,192,121422,1,0,0:0:0:0:
329,192,121474,1,0,0:0:0:0:
109,192,121525,1,0,0:0:0:0:
182,192,121577,1,0,0:0:0:0:
256,192,121629,1,0,0:0:0:0:
475,192,121680,1,0,0:0:0:0:
36,192,121680,1,0,0:0:0:0:
329,192,121680,1,0,0:0:0:0:
109,192,121680,1,0,0:0:0:0:
402,192,121680,1,0,0:0:0:0:
36,192,121991,1,0,0:0:0:0:
475,192,121991,1,0,0:0:0:0:
109,192,121991,1,0,0:0:0:0:
256,192,122094,1,0,0:0:0:0:
329,192,122094,1,0,0:0:0:0:
402,192,122094,1,0,0:0:0:0:
329,192,122198,1,0,0:0:0:0:
182,192,122198,1,0,0:0:0:0:
109,192,122198,1,0,0:0:0:0:
475,192,122301,1,0,0:0:0:0:
182,192,122301,1,0,0:0:0:0:
256,192,122301,1,0,0:0:0:0:
402,192,122301,1,0,0:0:0:0:
109,192,122405,1,0,0:0:0:0:
256,192,122405,1,0,0:0:0:0:
402,192,122405,1,0,0:0:0:0:
329,192,122508,1,0,0:0:0:0:
182,192,122508,1,0,0:0:0:0:
109,192,122508,1,0,0:0:0:0:
475,192,122611,1,0,0:0:0:0:
36,192,122611,1,0,0:0:0:0:
402,192,122611,1,0,0:0:0:0:
36,192,122715,1,0,0:0:0:0:
402,192,122715,1,0,0:0:0:0:
475,192,122715,1,0,0:0:0:0:
475,192,122922,1,0,0:0:0:0:
36,192,122922,1,0,0:0:0:0:
182,192,122922,1,0,0:0:0:0:
329,192,122922,1,0,0:0:0:0:
256,192,122922,1,0,0:0:0:0:
36,192,123232,1,0,0:0:0:0:
475,192,123232,1,0,0:0:0:0:
256,192,123232,1,0,0:0:0:0:
329,192,123232,1,0,0:0:0:0:
402,192,123232,1,0,0:0:0:0:
109,192,123232,1,0,0:0:0:0:
475,192,123542,1,0,0:0:0:0:
36,192,123542,1,0,0:0:0:0:
329,192,123542,1,0,0:0:0:0:
402,192,123542,1,0,0:0:0:0:
109,192,123542,1,0,0:0:0:0:
402,192,123646,1,0,0:0:0:0:
329,192,123646,1,0,0:0:0:0:
182,192,123646,1,0,0:0:0:0:
329,192,123749,1,0,0:0:0:0:
402,192,123749,1,0,0:0:0:0:
182,192,123749,1,0,0:0:0:0:
36,192,123853,1,0,0:0:0:0:
475,192,123853,1,0,0:0:0:0:
256,192,123853,1,0,0:0:0:0:
109,192,123905,1,0,0:0:0:0:
182,192,123956,1,0,0:0:0:0:
402,192,124008,1,0,0:0:0:0:
329,192,124060,1,0,0:0:0:0:
36,192,124060,1,0,0:0:0:0:
109,192,124060,1,0,0:0:0:0:
256,192,124111,1,0,0:0:0:0:
475,192,124163,1,0,0:0:0:0:
36,192,124163,1,0,0:0:0:0:
182,192,124163,1,0,0:0:0:0:
402,192,124163,1,0,0:0:0:0:
109,192,124163,1,0,0:0:0:0:
36,192,124473,1,0,0:0:0:0:
402,192,124473,1,0,0:0:0:0:
109,192,124473,1,0,0:0:0:0:
182,192,124577,1,0,0:0:0:0:
402,192,124577,1,0,0:0:0:0:
256,192,124577,1,0,0:0:0:0:
182,192,124680,1,0,0:0:0:0:
109,192,124680,1,0,0:0:0:0:
329,192,124680,1,0,0:0:0:0:
475,192,124784,1,0,0:0:0:0:
36,192,124784,1,0,0:0:0:0:
256,192,124784,1,0,0:0:0:0:
329,192,124784,1,0,0:0:0:0:
109,192,124887,1,0,0:0:0:0:
402,192,124887,1,0,0:0:0:0:
256,192,124887,1,0,0:0:0:0:
36,192,124991,1,0,0:0:0:0:
329,192,124991,1,0,0:0:0:0:
182,192,124991,1,0,0:0:0:0:
36,192,125094,1,0,0:0:0:0:
475,192,125094,1,0,0:0:0:0:
182,192,125094,1,0,0:0:0:0:
329,192,125094,1,0,0:0:0:0:
402,192,125094,1,0,0:0:0:0:
182,192,125198,1,0,0:0:0:0:
402,192,125198,1,0,0:0:0:0:
475,192,125198,1,0,0:0:0:0:
475,192,125404,1,0,0:0:0:0:
36,192,125404,1,0,0:0:0:0:
402,192,125404,1,0,0:0:0:0:
329,192,125404,1,0,0:0:0:0:
256,192,125404,1,0,0:0:0:0:
36,192,125715,1,0,0:0:0:0:
475,192,125715,1,0,0:0:0:0:
329,192,125715,1,0,0:0:0:0:
402,192,125715,1,0,0:0:0:0:
182,192,125715,1,0,0:0:0:0:
182,192,125818,1,0,0:0:0:0:
329,192,125818,1,0,0:0:0:0:
109,192,125818,1,0,0:0:0:0:
256,192,125922,1,0,0:0:0:0:
402,192,125922,1,0,0:0:0:0:
109,192,125922,1,0,0:0:0:0:
475,192,126025,1,0,0:0:0:0:
36,192,126025,1,0,0:0:0:0:
329,192,126025,1,0,0:0:0:0:
182,192,126025,1,0,0:0:0:0:
256,192,126129,1,0,0:0:0:0:
402,192,126129,1,0,0:0:0:0:
182,192,126232,1,0,0:0:0:0:
329,192,126232,1,0,0:0:0:0:
36,192,126335,1,0,0:0:0:0:
475,192,126335,1,0,0:0:0:0:
256,192,126335,1,0,0:0:0:0:
109,192,126335,1,0,0:0:0:0:
402,192,126387,1,0,0:0:0:0:
329,192,126439,1,0,0:0:0:0:
256,192,126491,1,0,0:0:0:0:
182,192,126542,1,0,0:0:0:0:
109,192,126594,1,0,0:0:0:0:
475,192,126646,1,0,0:0:0:0:
36,192,126646,1,0,0:0:0:0:
329,192,126646,1,0,0:0:0:0:
256,192,126646,1,0,0:0:0:0:
402,192,126646,1,0,0:0:0:0:
36,192,126956,1,0,0:0:0:0:
475,192,126956,1,0,0:0:0:0:
402,192,126956,1,0,0:0:0:0:
256,192,126956,1,0,0:0:0:0:
109,192,127060,1,0,0:0:0:0:
329,192,127060,1,0,0:0:0:0:
182,192,127060,1,0,0:0:0:0:
256,192,127163,1,0,0:0:0:0:
182,192,127163,1,0,0:0:0:0:
402,192,127163,1,0,0:0:0:0:
475,192,127266,1,0,0:0:0:0:
36,192,127266,1,0,0:0:0:0:
109,192,127266,1,0,0:0:0:0:
256,192,127266,1,0,0:0:0:0:
182,192,127370,1,0,0:0:0:0:
329,192,127370,1,0,0:0:0:0:
402,192,127370,1,0,0:0:0:0:
256,192,127473,1,0,0:0:0:0:
109,192,127473,1,0,0:0:0:0:
182,192,127473,1,0,0:0:0:0:
36,192,127577,1,0,0:0:0:0:
475,192,127577,1,0,0:0:0:0:
402,192,127577,1,0,0:0:0:0:
256,192,127577,1,0,0:0:0:0:
329,192,127680,1,0,0:0:0:0:
182,192,127680,1,0,0:0:0:0:
109,192,127680,1,0,0:0:0:0:
475,192,127680,1,0,0:0:0:0:
256,192,127784,1,0,0:0:0:0:
329,192,127784,1,0,0:0:0:0:
109,192,127784,1,0,0:0:0:0:
402,192,127784,1,0,0:0:0:0:
475,192,127887,1,0,0:0:0:0:
36,192,127887,1,0,0:0:0:0:
182,192,127887,1,0,0:0:0:0:
256,192,127887,1,0,0:0:0:0:
402,192,127887,1,0,0:0:0:0:
36,192,128197,1,0,0:0:0:0:
475,192,128197,1,0,0:0:0:0:
329,192,128197,1,0,0:0:0:0:
256,192,128197,1,0,0:0:0:0:
109,192,128197,1,0,0:0:0:0:
182,192,128508,1,0,0:0:0:0:
329,192,128508,1,0,0:0:0:0:
109,192,128611,1,0,0:0:0:0:
402,192,128611,1,0,0:0:0:0:
329,192,128715,1,0,0:0:0:0:
182,192,128715,1,0,0:0:0:0:
109,192,129128,1,0,0:0:0:0:
256,192,129128,1,0,0:0:0:0:
475,192,129128,1,0,0:0:0:0:
36,192,129128,1,0,0:0:0:0:
329,192,129128,1,0,0:0:0:0:
475,192,142553,5,0,0:0:0:0:
36,192,142553,1,0,0:0:0:0:
402,192,142553,1,0,0:0:0:0:
109,192,142553,1,0,0:0:0:0:
256,192,142553,1,0,0:0:0:80:wosh.wav
182,192,142681,1,0,0:0:0:0:
329,192,142745,1,0,0:0:0:0:
182,192,142809,1,0,0:0:0:0:
36,192,142809,1,0,0:0:0:0:
256,192,142873,1,0,0:0:0:0:
475,192,142937,1,0,0:0:0:0:
329,192,142937,1,0,0:0:0:0:
182,192,143065,1,0,0:0:0:0:
329,192,143129,1,0,0:0:0:0:
402,192,143194,1,0,0:0:0:0:
109,192,143194,1,0,0:0:0:0:
109,192,143322,1,0,0:0:0:0:
402,192,143322,1,0,0:0:0:0:
182,192,143450,1,0,0:0:0:0:
475,192,143578,1,0,0:0:0:0:
329,192,143578,1,0,0:0:0:0:
182,192,143642,1,0,0:0:0:0:
109,192,143706,1,0,0:0:0:0:
182,192,143770,1,0,0:0:0:0:
329,192,143835,1,0,0:0:0:0:
475,192,143835,1,0,0:0:0:0:
329,192,143963,1,0,0:0:0:0:
475,192,143963,1,0,0:0:0:0:
182,192,144091,1,0,0:0:0:0:
256,192,144219,1,0,0:0:0:0:
109,192,144219,1,0,0:0:0:0:
475,192,144347,1,0,0:0:0:0:
402,192,144347,1,0,0:0:0:0:
256,192,144347,1,0,0:0:0:0:
182,192,144476,1,0,0:0:0:0:
329,192,144476,1,0,0:0:0:0:
36,192,144476,1,0,0:0:0:0:
402,192,144604,1,0,0:0:0:0:
256,192,144604,1,0,0:0:0:80:wosh.wav
109,192,144604,1,0,0:0:0:0:
256,192,144732,1,0,0:0:0:0:
402,192,144732,1,0,0:0:0:0:
109,192,144732,1,0,0:0:0:0:
475,192,144860,1,0,0:0:0:0:
182,192,144860,1,0,0:0:0:0:
329,192,144860,1,0,0:0:0:0:
256,192,144988,1,0,0:0:0:0:
109,192,144988,1,0,0:0:0:0:
36,192,145117,1,0,0:0:0:0:
329,192,145245,1,0,0:0:0:0:
182,192,145245,1,0,0:0:0:0:
182,192,145373,1,0,0:0:0:0:
402,192,145373,1,0,0:0:0:0:
256,192,145373,1,0,0:0:0:0:
182,192,145501,1,0,0:0:0:0:
329,192,145629,1,0,0:0:0:0:
475,192,145629,1,0,0:0:0:0:
256,192,145758,1,0,0:0:0:0:
402,192,145886,1,0,0:0:0:0:
182,192,146014,1,0,0:0:0:0:
329,192,146142,1,0,0:0:0:0:
109,192,146206,1,0,0:0:0:0:
329,192,146270,1,0,0:0:0:0:
109,192,146335,1,0,0:0:0:0:
329,192,146399,1,0,0:0:0:0:
109,192,146463,1,0,0:0:0:0:
329,192,146527,1,0,0:0:0:0:
109,192,146591,1,0,0:0:0:0:
475,192,146655,1,0,0:0:0:80:drum.wav
402,192,146655,1,0,0:0:0:90:cym-02.wav
256,192,146655,1,0,0:0:0:80:drum-hitclap.wav
182,192,146783,1,0,0:0:0:70:Rim.wav
402,192,146847,1,0,0:0:0:0:
329,192,146847,1,0,0:0:0:70:Rim.wav
182,192,146911,1,0,0:0:0:70:Rim.wav
109,192,146911,1,0,0:0:0:0:
402,192,146976,1,0,0:0:0:0:
256,192,146976,1,0,0:0:0:70:Rim.wav
36,192,147040,1,0,0:0:0:50:Rim.wav
109,192,147040,1,0,0:0:0:0:
329,192,147168,1,0,0:0:0:0:
182,192,147168,1,0,0:0:0:50:Rim.wav
475,192,147296,1,0,0:0:0:0:
402,192,147296,1,0,0:0:0:50:Rim.wav
329,192,147424,1,0,0:0:0:0:
256,192,147424,1,0,0:0:0:50:Rim.wav
182,192,147553,1,0,0:0:0:0:
109,192,147553,1,0,0:0:0:50:Rim.wav
36,192,147681,1,0,0:0:0:0:
182,192,147681,1,0,0:0:0:0:
256,192,147681,1,0,0:0:0:80:drum-hitclap.wav
402,192,147681,1,0,0:0:0:90:cym-02.wav
475,192,147681,1,0,0:0:0:80:drum.wav
109,192,147809,1,0,0:0:0:50:Rim.wav
182,192,147937,1,0,0:0:0:0:
329,192,147937,1,0,0:0:0:50:Rim.wav
402,192,148065,1,0,0:0:0:80:Rim.wav
182,192,148065,1,0,0:0:0:0:
329,192,148194,1,0,0:0:0:80:Rim.wav
109,192,148194,1,0,0:0:0:0:
475,192,148322,1,0,0:0:0:90:cym-02.wav
36,192,148322,1,0,0:0:0:80:drum-hitclap.wav
256,192,148322,1,0,0:0:0:80:drum.wav
329,192,148386,1,0,0:0:0:80:drum-hitclap.wav
182,192,148386,1,0,0:0:0:0:
36,192,148450,1,0,0:0:0:80:drum.wav
256,192,148450,1,0,0:0:0:90:cym-02.wav
475,192,148450,1,0,0:0:0:80:drum-hitclap.wav
402,192,148578,1,0,0:0:0:80:drum.wav
109,192,148578,1,0,0:0:0:80:drum-hitclap.wav
256,192,148578,1,0,0:0:0:90:cym-02.wav
182,192,148706,1,0,0:0:0:0:
329,192,148706,1,0,0:0:0:0:
36,192,148706,1,0,0:0:0:80:drum.wav
475,192,148706,1,0,0:0:0:80:drum-hitclap.wav
402,192,148835,1,0,0:0:0:90:Rim.wav
475,192,148963,1,0,0:0:0:0:
329,192,148963,1,0,0:0:0:90:Rim.wav
109,192,148963,1,0,0:0:0:70:bd03-4.wav
256,192,149091,1,0,0:0:0:90:Rim.wav
109,192,149091,1,0,0:0:0:70:bd03-4.wav
182,192,149219,1,0,0:0:0:0:
329,192,149219,1,0,0:0:0:0:
475,192,149219,1,0,0:0:0:80:drum.wav
36,192,149219,1,0,0:0:0:80:drum-hitclap.wav
256,192,149219,1,0,0:0:0:90:cym-02.wav
402,192,149347,1,0,0:0:0:90:Rim.wav
109,192,149476,1,0,0:0:0:70:bd03-4.wav
329,192,149476,1,0,0:0:0:90:Rim.wav
402,192,149540,1,0,0:0:0:0:
109,192,149604,1,0,0:0:0:70:bd03-4.wav
256,192,149604,1,0,0:0:0:90:Rim.wav
329,192,149668,1,0,0:0:0:0:
402,192,149732,1,0,0:0:0:0:
475,192,149732,1,0,0:0:0:0:
36,192,149732,1,0,0:0:0:80:drum-hitclap.wav
182,192,149732,1,0,0:0:0:0:
256,192,149860,1,0,0:0:0:0:
329,192,149988,1,0,0:0:0:0:
36,192,150245,1,0,0:0:0:0:
182,192,150245,1,0,0:0:0:0:
475,192,150501,1,0,0:0:0:0:
402,192,150501,1,0,0:0:0:0:
329,192,150501,1,0,0:0:0:80:cym-01.wav
329,192,150758,1,0,0:0:0:100:drum-hitclap44.wav
256,192,150758,1,0,0:0:0:90:cym-02.wav
36,192,150758,1,0,0:0:0:65:drum-hitclap.wav
475,192,150758,1,0,0:0:0:60:drum.wav
402,192,150886,1,0,0:0:0:100:drum-hitclap44.wav
182,192,150886,1,0,0:0:0:60:drum.wav
109,192,150886,1,0,0:0:0:65:drum-hitclap.wav
329,192,151014,1,0,0:0:0:100:drum-hitclap44.wav
475,192,151014,1,0,0:0:0:60:drum.wav
36,192,151014,1,0,0:0:0:65:drum-hitclap.wav
256,192,151142,1,0,0:0:0:100:drum-hitclap44.wav
182,192,151142,1,0,0:0:0:60:drum.wav
475,192,151142,1,0,0:0:0:65:drum-hitclap.wav
402,192,151270,1,0,0:0:0:100:drum-hitclap44.wav
109,192,151270,1,0,0:0:0:65:drum-hitclap.wav
329,192,151270,1,0,0:0:0:60:drum.wav
182,192,151399,1,0,0:0:0:100:drum-hitclap44.wav
475,192,151399,1,0,0:0:0:65:drum-hitclap.wav
36,192,151399,1,0,0:0:0:60:drum.wav
329,192,151527,1,0,0:0:0:60:drum.wav
36,192,151527,1,0,0:0:0:65:drum-hitclap.wav
256,192,151527,1,0,0:0:0:100:drum-hitclap44.wav
402,192,151655,1,0,0:0:0:60:drum-hitclap.wav
109,192,151655,1,0,0:0:0:60:drum-hitclap.wav
329,192,151719,1,0,0:0:0:60:drum-hitclap.wav
182,192,151719,1,0,0:0:0:60:drum-hitclap.wav
36,192,151783,1,0,0:0:0:65:Snare.wav
475,192,151783,1,0,0:0:0:65:Snare.wav
109,192,151783,1,0,0:0:0:65:Snare.wav
36,192,151911,1,0,0:0:0:65:Snare.wav
109,192,151911,1,0,0:0:0:65:Snare.wav
475,192,151911,1,0,0:0:0:65:Snare.wav
36,192,152040,1,0,0:0:0:65:Snare.wav
475,192,152040,1,0,0:0:0:65:Snare.wav
109,192,152040,1,0,0:0:0:65:Snare.wav
475,192,152168,1,0,0:0:0:65:Snare.wav
402,192,152168,1,0,0:0:0:65:Snare.wav
36,192,152168,1,0,0:0:0:65:Snare.wav
475,192,152296,1,0,0:0:0:65:Snare.wav
402,192,152296,1,0,0:0:0:65:Snare.wav
36,192,152296,1,0,0:0:0:65:Snare.wav
475,192,152424,1,0,0:0:0:65:Snare.wav
402,192,152424,1,0,0:0:0:65:Snare.wav
36,192,152424,1,0,0:0:0:65:Snare.wav
182,192,152552,1,0,0:0:0:70:drum-hitclap.wav
475,192,152552,1,0,0:0:0:70:drum-hitclap.wav
329,192,152617,1,0,0:0:0:70:drum-hitclap.wav
36,192,152617,1,0,0:0:0:70:drum-hitclap.wav
182,192,152681,1,0,0:0:0:70:drum-hitclap.wav
475,192,152681,1,0,0:0:0:70:drum-hitclap.wav
329,192,152745,1,0,0:0:0:70:drum-hitclap.wav
36,192,152745,1,0,0:0:0:70:drum-hitclap.wav
182,192,152809,1,0,0:0:0:70:drum-hitclap.wav
402,192,152809,1,0,0:0:0:60:drum.wav
475,192,152809,1,0,0:0:0:100:drum-hitclap44.wav
329,192,152937,1,0,0:0:0:60:drum.wav
256,192,152937,1,0,0:0:0:100:drum-hitclap44.wav
109,192,152937,1,0,0:0:0:65:drum-hitclap.wav
402,192,153065,1,0,0:0:0:60:drum.wav
475,192,153065,1,0,0:0:0:100:drum-hitclap44.wav
36,192,153065,1,0,0:0:0:65:drum-hitclap.wav
109,192,153194,1,0,0:0:0:60:drum.wav
329,192,153194,1,0,0:0:0:65:drum-hitclap.wav
36,192,153194,1,0,0:0:0:100:drum-hitclap44.wav
182,192,153322,1,0,0:0:0:60:drum.wav
402,192,153322,1,0,0:0:0:65:drum-hitclap.wav
256,192,153322,1,0,0:0:0:100:drum-hitclap44.wav
475,192,153450,1,0,0:0:0:65:drum-hitclap.wav
109,192,153450,1,0,0:0:0:60:drum.wav
36,192,153450,1,0,0:0:0:100:drum-hitclap44.wav
36,192,153578,1,0,0:0:0:65:drum-hitclap.wav
475,192,153578,1,0,0:0:0:100:drum-hitclap44.wav
256,192,153578,1,0,0:0:0:60:drum.wav
182,192,153706,1,0,0:0:0:60:drum.wav
402,192,153706,1,0,0:0:0:100:drum-hitclap44.wav
109,192,153706,1,0,0:0:0:65:drum-hitclap.wav
475,192,153835,1,0,0:0:0:70:kick12.wav
402,192,153851,1,0,0:0:0:0:
329,192,153867,1,0,0:0:0:0:
256,192,153883,1,0,0:0:0:70:kick12.wav
182,192,153899,1,0,0:0:0:0:
109,192,153915,1,0,0:0:0:0:
36,192,153931,1,0,0:0:0:70:kick12.wav
475,192,153947,1,0,0:0:0:70:kick12.wav
329,192,153963,1,0,0:0:0:60:drum.wav
402,192,153963,1,0,0:0:0:90:drum-hitclap.wav
182,192,154027,1,0,0:0:0:90:drum-hitclap.wav
109,192,154027,1,0,0:0:0:60:drum.wav
329,192,154091,1,0,0:0:0:60:drum.wav
402,192,154091,1,0,0:0:0:90:drum-hitclap.wav
36,192,154219,1,0,0:0:0:70:kick12.wav
109,192,154235,1,0,0:0:0:0:
182,192,154251,1,0,0:0:0:0:
256,192,154267,1,0,0:0:0:70:kick12.wav
329,192,154283,1,0,0:0:0:0:
402,192,154299,1,0,0:0:0:0:
475,192,154315,1,0,0:0:0:70:kick12.wav
36,192,154331,1,0,0:0:0:70:kick12.wav
109,192,154347,1,0,0:0:0:90:drum-hitclap.wav
182,192,154347,1,0,0:0:0:60:drum.wav
402,192,154411,1,0,0:0:0:90:drum-hitclap.wav
329,192,154411,1,0,0:0:0:60:drum.wav
182,192,154476,1,0,0:0:0:60:drum.wav
109,192,154476,1,0,0:0:0:90:drum-hitclap.wav
36,192,154604,1,0,0:0:0:60:drum.wav
475,192,154604,1,0,0:0:0:100:drum-hitclap44.wav
256,192,154604,1,0,0:0:0:65:drum-hitclap.wav
36,192,154732,1,0,0:0:0:60:drum.wav
475,192,154732,1,0,0:0:0:100:drum-hitclap44.wav
256,192,154732,1,0,0:0:0:65:drum-hitclap.wav
329,192,154860,1,0,0:0:0:100:drum-hitclap44.wav
182,192,154860,1,0,0:0:0:65:drum-hitclap.wav
109,192,154860,1,0,0:0:0:60:drum.wav
402,192,154988,1,0,0:0:0:65:drum-hitclap.wav
256,192,154988,1,0,0:0:0:100:drum-hitclap44.wav
36,192,154988,1,0,0:0:0:60:drum.wav
109,192,155117,1,0,0:0:0:60:drum.wav
329,192,155117,1,0,0:0:0:100:drum-hitclap44.wav
475,192,155117,1,0,0:0:0:65:drum-hitclap.wav
182,192,155245,1,0,0:0:0:65:drum-hitclap.wav
36,192,155245,1,0,0:0:0:60:drum.wav
475,192,155245,1,0,0:0:0:100:drum-hitclap44.wav
402,192,155373,1,0,0:0:0:100:drum-hitclap44.wav
329,192,155373,1,0,0:0:0:65:drum-hitclap.wav
109,192,155373,1,0,0:0:0:60:drum.wav
182,192,155501,1,0,0:0:0:65:drum-hitclap.wav
475,192,155501,1,0,0:0:0:100:drum-hitclap44.wav
36,192,155501,1,0,0:0:0:60:drum.wav
256,192,155629,1,0,0:0:0:65:drum-hitclap.wav
475,192,155629,1,0,0:0:0:100:drum-hitclap44.wav
36,192,155629,1,0,0:0:0:60:drum.wav
329,192,155758,1,0,0:0:0:80:drum.wav
182,192,155758,1,0,0:0:0:80:drum-hitclap.wav
402,192,155822,1,0,0:0:0:80:drum.wav
109,192,155822,1,0,0:0:0:80:drum-hitclap.wav
256,192,155886,1,0,0:0:0:0:
475,192,155886,1,0,0:0:0:65:Snare.wav
36,192,155886,1,0,0:0:0:65:Snare.wav
329,192,156014,1,0,0:0:0:65:Snare.wav
182,192,156014,1,0,0:0:0:65:Snare.wav
256,192,156142,1,0,0:0:0:0:
475,192,156142,1,0,0:0:0:65:Snare.wav
36,192,156142,1,0,0:0:0:65:Snare.wav
256,192,156270,1,0,0:0:0:0:
475,192,156270,1,0,0:0:0:65:Snare.wav
36,192,156270,1,0,0:0:0:65:Snare.wav
402,192,156335,1,0,0:0:0:65:Snare.wav
109,192,156335,1,0,0:0:0:65:Snare.wav
182,192,156399,1,0,0:0:0:65:Snare.wav
329,192,156399,1,0,0:0:0:65:Snare.wav
329,192,156527,1,0,0:0:0:65:Snare.wav
182,192,156527,1,0,0:0:0:65:Snare.wav
256,192,156655,1,0,0:0:0:80:drum-hitclap.wav
36,192,156655,1,0,0:0:0:80:drum-hitclap.wav
109,192,156719,1,0,0:0:0:80:drum-hitclap.wav
182,192,156719,1,0,0:0:0:80:drum-hitclap.wav
475,192,156783,1,0,0:0:0:80:drum-hitclap.wav
256,192,156783,1,0,0:0:0:80:drum-hitclap.wav
402,192,156847,1,0,0:0:0:80:drum-hitclap.wav
329,192,156847,1,0,0:0:0:80:drum-hitclap.wav
182,192,156911,1,0,0:0:0:0:
109,192,156911,1,0,0:0:0:0:
256,192,156911,1,0,0:0:0:80:cym-02.wav
36,192,156911,1,0,0:0:0:70:drum.wav
475,192,156911,1,0,0:0:0:80:drum-hitclap.wav
402,192,157168,1,0,0:0:0:100:drum-hitclap44.wav
329,192,157168,1,0,0:0:0:80:drum.wav
402,192,157296,1,0,0:0:0:100:drum-hitclap44.wav
329,192,157296,1,0,0:0:0:80:drum.wav
402,192,157424,1,0,0:0:0:0:
182,192,157424,1,0,0:0:0:0:
329,192,157424,1,0,0:0:0:0:
36,192,157424,1,0,0:0:0:90:drum-hitclap.wav
475,192,157424,1,0,0:0:0:0:
109,192,157681,1,0,0:0:0:100:drum-hitclap44.wav
36,192,157681,1,0,0:0:0:70:drum.wav
402,192,157745,1,0,0:0:0:70:drum.wav
475,192,157745,1,0,0:0:0:100:drum-hitclap44.wav
109,192,157809,1,0,0:0:0:100:drum-hitclap44.wav
182,192,157809,1,0,0:0:0:70:drum.wav
402,192,157873,1,0,0:0:0:100:drum-hitclap44.wav
329,192,157873,1,0,0:0:0:70:drum.wav
182,192,157937,1,0,0:0:0:80:drum-hitclap.wav
36,192,157937,1,0,0:0:0:0:
256,192,157937,1,0,0:0:0:70:drum.wav
109,192,157937,1,0,0:0:0:100:drum-hitclap44.wav
475,192,158065,1,0,0:0:0:0:
329,192,158065,1,0,0:0:0:0:
182,192,158194,1,0,0:0:0:80:bd03-4.wav
109,192,158194,1,0,0:0:0:80:bd03-4.wav
402,192,158258,1,0,0:0:0:80:bd03-4.wav
329,192,158258,1,0,0:0:0:80:bd03-4.wav
109,192,158322,1,0,0:0:0:80:bd03-4.wav
36,192,158322,1,0,0:0:0:80:bd03-4.wav
475,192,158386,1,0,0:0:0:80:bd03-4.wav
402,192,158386,1,0,0:0:0:80:bd03-4.wav
329,192,158450,1,0,0:0:0:80:Snare.wav
182,192,158514,1,0,0:0:0:80:Snare.wav
329,192,158578,1,0,0:0:0:80:Snare.wav
182,192,158642,1,0,0:0:0:80:Snare.wav
256,192,158706,1,0,0:0:0:80:Snare.wav
256,192,158835,1,0,0:0:0:80:Snare.wav
402,192,158963,1,0,0:0:0:0:
475,192,158963,1,0,0:0:0:0:
109,192,158963,1,0,0:0:0:0:
256,192,158963,1,0,0:0:0:0:
182,192,158963,1,0,0:0:0:70:cym-01.wav
36,192,159219,1,0,0:0:0:65:drum-hitclap.wav
475,192,159219,1,0,0:0:0:100:drum-hitclap44.wav
402,192,159219,1,0,0:0:0:60:drum.wav
182,192,159347,1,0,0:0:0:65:drum-hitclap.wav
256,192,159347,1,0,0:0:0:100:drum-hitclap44.wav
329,192,159347,1,0,0:0:0:60:drum.wav
36,192,159476,1,0,0:0:0:65:drum-hitclap.wav
475,192,159476,1,0,0:0:0:100:drum-hitclap44.wav
109,192,159476,1,0,0:0:0:60:drum.wav
402,192,159604,1,0,0:0:0:65:drum-hitclap.wav
182,192,159604,1,0,0:0:0:60:drum.wav
329,192,159604,1,0,0:0:0:100:drum-hitclap44.wav
475,192,159732,1,0,0:0:0:65:drum-hitclap.wav
256,192,159732,1,0,0:0:0:60:drum.wav
36,192,159732,1,0,0:0:0:100:drum-hitclap44.wav
329,192,159860,1,0,0:0:0:65:drum-hitclap.wav
182,192,159860,1,0,0:0:0:100:drum-hitclap44.wav
109,192,159860,1,0,0:0:0:65:drum-hitclap.wav
36,192,159924,1,0,0:0:0:65:drum-hitclap.wav
402,192,159924,1,0,0:0:0:65:drum-hitclap.wav
109,192,159988,1,0,0:0:0:0:
475,192,159988,1,0,0:0:0:100:Rim.wav
256,192,159988,1,0,0:0:0:100:Rim.wav
475,192,160117,1,0,0:0:0:100:Rim.wav
256,192,160117,1,0,0:0:0:100:Rim.wav
36,192,160245,1,0,0:0:0:0:
402,192,160245,1,0,0:0:0:80:Rim.wav
182,192,160245,1,0,0:0:0:80:Rim.wav
402,192,160373,1,0,0:0:0:80:Rim.wav
182,192,160373,1,0,0:0:0:80:Rim.wav
475,192,160501,1,0,0:0:0:0:
329,192,160501,1,0,0:0:0:70:Rim.wav
109,192,160501,1,0,0:0:0:70:Rim.wav
109,192,160629,1,0,0:0:0:70:Rim.wav
329,192,160629,1,0,0:0:0:70:Rim.wav
256,192,160758,1,0,0:0:0:0:
475,192,160758,1,0,0:0:0:70:drum-hitclap.wav
36,192,160758,1,0,0:0:0:70:drum-hitclap.wav
402,192,160822,1,0,0:0:0:70:drum-hitclap.wav
109,192,160822,1,0,0:0:0:70:drum-hitclap.wav
329,192,160886,1,0,0:0:0:70:drum-hitclap.wav
182,192,160886,1,0,0:0:0:70:drum-hitclap.wav
402,192,160950,1,0,0:0:0:70:drum-hitclap.wav
109,192,160950,1,0,0:0:0:70:drum-hitclap.wav
256,192,161014,1,0,0:0:0:10:bd-03.wav
475,192,161014,1,0,0:0:0:10:bd-03.wav
36,192,161014,1,0,0:0:0:10:bd-03.wav
402,192,161185,1,0,0:0:0:10:bd-03.wav
256,192,161185,1,0,0:0:0:10:bd-03.wav
109,192,161185,1,0,0:0:0:10:bd-03.wav
182,192,161356,1,0,0:0:0:10:bd-03.wav
256,192,161356,1,0,0:0:0:10:bd-03.wav
329,192,161356,1,0,0:0:0:10:bd-03.wav
36,192,161527,1,0,0:0:0:60:Snare.wav
256,192,161527,1,0,0:0:0:60:Snare.wav
475,192,161527,1,0,0:0:0:60:Snare.wav
256,192,161698,1,0,0:0:0:60:Snare.wav
475,192,161698,1,0,0:0:0:60:Snare.wav
36,192,161698,1,0,0:0:0:60:Snare.wav
475,192,161869,1,0,0:0:0:60:Snare.wav
256,192,161869,1,0,0:0:0:60:Snare.wav
36,192,161869,1,0,0:0:0:60:Snare.wav
109,192,162040,1,0,0:0:0:0:
256,192,162040,1,0,0:0:0:60:drum-hitclap.wav
36,192,162040,1,0,0:0:0:60:drum-hitclap.wav
402,192,162232,1,0,0:0:0:0:
475,192,162232,1,0,0:0:0:60:drum-hitclap.wav
256,192,162232,1,0,0:0:0:60:drum-hitclap.wav
256,192,162424,1,0,0:0:0:0:
329,192,162424,1,0,0:0:0:60:drum-hitclap.wav
182,192,162424,1,0,0:0:0:60:drum-hitclap.wav
256,192,162617,1,0,0:0:0:0:
36,192,162617,1,0,0:0:0:0:
109,192,162617,1,0,0:0:0:60:drum-hitclap.wav
402,192,162617,1,0,0:0:0:60:drum-hitclap.wav
182,192,162809,1,0,0:0:0:60:drum-hitclap44.wav
475,192,162809,1,0,0:0:0:60:drum.wav
256,192,162809,1,0,0:0:0:40:cym-02.wav
256,192,162937,1,0,0:0:0:40:cym-02.wav
109,192,162937,1,0,0:0:0:60:drum-hitclap44.wav
402,192,162937,1,0,0:0:0:60:drum.wav
256,192,163065,1,0,0:0:0:80:cym-02.wav
475,192,163065,1,0,0:0:0:80:drum.wav
36,192,163065,1,0,0:0:0:100:drum-hitclap44.wav
329,192,163065,1,0,0:0:0:70:drum-hitclap.wav
475,192,163194,1,0,0:0:0:80:drum.wav
36,192,163194,1,0,0:0:0:70:drum-hitclap.wav
109,192,163194,1,0,0:0:0:100:drum-hitclap44.wav
402,192,163322,1,0,0:0:0:70:drum-hitclap.wav
182,192,163322,1,0,0:0:0:70:drum-hitclap.wav
329,192,163386,1,0,0:0:0:70:drum-hitclap44.wav
256,192,163386,1,0,0:0:0:70:drum-hitclap44.wav
256,192,163514,1,0,0:0:0:70:drum-hitclap44.wav
182,192,163514,1,0,0:0:0:70:drum-hitclap44.wav
329,192,163578,1,0,0:0:0:70:drum-hitclap.wav
109,192,163578,1,0,0:0:0:70:drum-hitclap.wav
402,192,163706,1,0,0:0:0:100:drum-hitclap44.wav
329,192,163706,1,0,0:0:0:100:drum-hitclap44.wav
475,192,163706,1,0,0:0:0:100:drum-hitclap44.wav
36,192,163835,1,0,0:0:0:40:drum-hitclap.wav
109,192,163835,1,0,0:0:0:40:drum-hitclap.wav
182,192,163835,1,0,0:0:0:40:drum-hitclap.wav
402,192,163963,1,0,0:0:0:70:drum.wav
109,192,163963,1,0,0:0:0:100:drum-hitclap44.wav
329,192,164027,1,0,0:0:0:70:drum.wav
182,192,164027,1,0,0:0:0:100:drum-hitclap44.wav
109,192,164091,1,0,0:0:0:90:drum-hitclap44.wav
402,192,164091,1,0,0:0:0:60:drum.wav
256,192,164091,1,0,0:0:0:100:drum-hitclap.wav
109,192,164219,1,0,0:0:0:100:drum-hitclap44.wav
182,192,164219,1,0,0:0:0:100:drum-hitclap44.wav
36,192,164219,1,0,0:0:0:100:drum-hitclap44.wav
329,192,164347,1,0,0:0:0:40:drum-hitclap.wav
475,192,164347,1,0,0:0:0:40:drum-hitclap.wav
402,192,164347,1,0,0:0:0:40:drum-hitclap.wav
109,192,164476,1,0,0:0:0:100:drum-hitclap44.wav
402,192,164476,1,0,0:0:0:70:drum.wav
329,192,164540,1,0,0:0:0:70:drum.wav
182,192,164540,1,0,0:0:0:100:drum-hitclap44.wav
402,192,164604,1,0,0:0:0:60:drum.wav
256,192,164604,1,0,0:0:0:100:drum-hitclap.wav
109,192,164604,1,0,0:0:0:90:drum-hitclap44.wav
36,192,164732,1,0,0:0:0:0:
475,192,164732,1,0,0:0:0:0:
182,192,164732,1,0,0:0:0:100:drum-hitclap44.wav
329,192,164732,1,0,0:0:0:100:drum-hitclap44.wav
402,192,164860,1,0,0:0:0:0:
109,192,164860,1,0,0:0:0:0:
256,192,164860,1,0,0:0:0:100:drum-hitclap.wav
329,192,164924,1,0,0:0:0:100:drum-hitclap44.wav
182,192,164924,1,0,0:0:0:70:drum.wav
475,192,164988,1,0,0:0:0:100:drum-hitclap44.wav
36,192,164988,1,0,0:0:0:70:drum.wav
329,192,165052,1,0,0:0:0:100:drum-hitclap44.wav
182,192,165052,1,0,0:0:0:70:drum.wav
475,192,165117,1,0,0:0:0:0:
36,192,165117,1,0,0:0:0:0:
256,192,165117,1,0,0:0:0:70:Snare.wav
402,192,165245,1,0,0:0:0:0:
109,192,165245,1,0,0:0:0:0:
256,192,165373,1,0,0:0:0:0:
182,192,165373,1,0,0:0:0:70:Snare.wav
329,192,165373,1,0,0:0:0:70:Snare.wav
402,192,165629,1,0,0:0:0:0:
109,192,165629,1,0,0:0:0:0:
182,192,165645,1,0,0:0:0:0:
402,192,165758,1,0,0:0:0:0:
109,192,165758,1,0,0:0:0:0:
329,192,165774,1,0,0:0:0:0:
256,192,165886,1,0,0:0:0:0:
475,192,165886,1,0,0:0:0:0:
36,192,165886,1,0,0:0:0:0:
182,192,166014,1,0,0:0:0:0:
329,192,166014,1,0,0:0:0:0:
402,192,166014,1,0,0:0:0:0:
109,192,166014,1,0,0:0:0:0:
256,192,166142,1,0,0:0:0:0:
109,192,166142,1,0,0:0:0:80:drum-hitclap.wav
402,192,166206,1,0,0:0:0:80:drum-hitclap.wav
182,192,166270,1,0,0:0:0:80:drum-hitclap.wav
329,192,166335,1,0,0:0:0:80:drum-hitclap.wav
109,192,166399,1,0,0:0:0:0:
256,192,166399,1,0,0:0:0:80:drum-hitclap.wav
475,192,166431,1,0,0:0:0:0:
402,192,166463,1,0,0:0:0:0:
329,192,166495,1,0,0:0:0:0:
256,192,166527,1,0,0:0:0:80:drum-hitclap.wav
182,192,166559,1,0,0:0:0:0:
109,192,166591,1,0,0:0:0:0:
36,192,166623,1,0,0:0:0:0:
402,192,166655,1,0,0:0:0:0:
329,192,166687,1,0,0:0:0:0:
256,192,166719,1,0,0:0:0:0:
182,192,166751,1,0,0:0:0:0:
109,192,166783,1,0,0:0:0:0:
36,192,166847,1,0,0:0:0:0:
109,192,166911,1,0,0:0:0:0:
329,192,166976,1,0,0:0:0:0:
182,192,166976,1,0,0:0:0:0:
36,192,167040,1,0,0:0:0:0:
329,192,167104,1,0,0:0:0:0:
182,192,167104,1,0,0:0:0:0:
475,192,167168,1,0,0:0:0:80:cym-01.wav
402,192,167168,1,0,0:0:0:70:drum-hitclap.wav
36,192,167168,1,0,0:0:0:100:drum-hitclap44.wav
109,192,167168,1,0,0:0:0:65:drum.wav
329,192,167296,1,0,0:0:0:70:drum-hitclap.wav
256,192,167296,1,0,0:0:0:100:drum-hitclap44.wav
182,192,167296,1,0,0:0:0:65:drum.wav
109,192,167424,1,0,0:0:0:65:drum.wav
36,192,167424,1,0,0:0:0:100:drum-hitclap44.wav
475,192,167424,1,0,0:0:0:70:drum-hitclap.wav
256,192,167552,1,0,0:0:0:100:drum-hitclap44.wav
329,192,167552,1,0,0:0:0:65:drum.wav
182,192,167552,1,0,0:0:0:70:drum-hitclap.wav
475,192,167681,1,0,0:0:0:100:drum-hitclap44.wav
402,192,167681,1,0,0:0:0:65:drum.wav
36,192,167681,1,0,0:0:0:70:drum-hitclap.wav
329,192,167809,1,0,0:0:0:65:drum.wav
182,192,167809,1,0,0:0:0:70:drum-hitclap.wav
256,192,167809,1,0,0:0:0:100:drum-hitclap44.wav
109,192,167937,1,0,0:0:0:65:drum.wav
36,192,167937,1,0,0:0:0:100:drum-hitclap44.wav
475,192,167937,1,0,0:0:0:70:drum-hitclap.wav
402,192,168065,1,0,0:0:0:0:
182,192,168065,1,0,0:0:0:0:
329,192,168129,1,0,0:0:0:0:
109,192,168129,1,0,0:0:0:0:
475,192,168194,1,0,0:0:0:0:
256,192,168194,1,0,0:0:0:70:Snare.wav
36,192,168194,1,0,0:0:0:70:Snare.wav
256,192,168322,1,0,0:0:0:70:Snare.wav
36,192,168322,1,0,0:0:0:70:Snare.wav
475,192,168450,1,0,0:0:0:0:
329,192,168450,1,0,0:0:0:70:Snare.wav
109,192,168450,1,0,0:0:0:70:Snare.wav
329,192,168578,1,0,0:0:0:70:Snare.wav
109,192,168578,1,0,0:0:0:70:Snare.wav
475,192,168706,1,0,0:0:0:0:
402,192,168706,1,0,0:0:0:70:Snare.wav
182,192,168706,1,0,0:0:0:70:Snare.wav
402,192,168835,1,0,0:0:0:70:Snare.wav
182,192,168835,1,0,0:0:0:70:Snare.wav
36,192,168963,1,0,0:0:0:0:
475,192,168963,1,0,0:0:0:0:
329,192,168963,1,0,0:0:0:0:
36,192,169091,1,0,0:0:0:0:
475,192,169219,1,0,0:0:0:100:drum-hitclap44.wav
256,192,169219,1,0,0:0:0:0:
182,192,169219,1,0,0:0:0:65:drum.wav
402,192,169219,1,0,0:0:0:70:drum-hitclap.wav
329,192,169347,1,0,0:0:0:70:drum-hitclap.wav
36,192,169347,1,0,0:0:0:65:drum.wav
109,192,169347,1,0,0:0:0:100:drum-hitclap44.wav
402,192,169476,1,0,0:0:0:70:drum-hitclap.wav
475,192,169476,1,0,0:0:0:100:drum-hitclap44.wav
182,192,169476,1,0,0:0:0:65:drum.wav
329,192,169604,1,0,0:0:0:70:drum-hitclap.wav
109,192,169604,1,0,0:0:0:100:drum-hitclap44.wav
36,192,169604,1,0,0:0:0:65:drum.wav
402,192,169732,1,0,0:0:0:70:drum-hitclap.wav
475,192,169732,1,0,0:0:0:100:drum-hitclap44.wav
182,192,169732,1,0,0:0:0:65:drum.wav
329,192,169860,1,0,0:0:0:70:drum-hitclap.wav
109,192,169860,1,0,0:0:0:100:drum-hitclap44.wav
36,192,169860,1,0,0:0:0:65:drum.wav
182,192,169988,1,0,0:0:0:65:drum.wav
475,192,169988,1,0,0:0:0:70:drum-hitclap.wav
402,192,169988,1,0,0:0:0:100:drum-hitclap44.wav
329,192,170117,1,0,0:0:0:0:
109,192,170117,1,0,0:0:0:0:
256,192,170181,1,0,0:0:0:0:
475,192,170181,1,0,0:0:0:0:
182,192,170245,1,0,0:0:0:40:normal-hitfinish.wav
402,192,170245,1,0,0:0:0:0:
109,192,170245,1,0,0:0:0:40:normal-hitfinish.wav
182,192,170330,1,0,0:0:0:40:normal-hitfinish.wav
109,192,170330,1,0,0:0:0:40:normal-hitfinish.wav
182,192,170416,1,0,0:0:0:40:normal-hitfinish.wav
109,192,170416,1,0,0:0:0:40:normal-hitfinish.wav
329,192,170501,1,0,0:0:0:40:normal-hitfinish.wav
402,192,170501,1,0,0:0:0:40:normal-hitfinish.wav
329,192,170587,1,0,0:0:0:40:normal-hitfinish.wav
402,192,170587,1,0,0:0:0:40:normal-hitfinish.wav
329,192,170672,1,0,0:0:0:40:normal-hitfinish.wav
402,192,170672,1,0,0:0:0:40:normal-hitfinish.wav
182,192,170758,1,0,0:0:0:0:
475,192,170800,1,0,0:0:0:0:
109,192,170822,1,0,0:0:0:0:
402,192,170843,1,0,0:0:0:0:
36,192,170886,1,0,0:0:0:0:
329,192,170886,1,0,0:0:0:0:
256,192,170929,1,0,0:0:0:0:
109,192,170950,1,0,0:0:0:0:
329,192,170971,1,0,0:0:0:0:
182,192,171014,1,0,0:0:0:0:
402,192,171014,1,0,0:0:0:0:
475,192,171057,1,0,0:0:0:0:
256,192,171078,1,0,0:0:0:0:
36,192,171100,1,0,0:0:0:0:
329,192,171142,1,0,0:0:0:0:
109,192,171142,1,0,0:0:0:0:
182,192,171185,1,0,0:0:0:0:
402,192,171206,1,0,0:0:0:0:
256,192,171228,1,0,0:0:0:0:
36,192,171270,1,0,0:0:0:80:cym-01.wav
329,192,171270,1,0,0:0:0:0:
109,192,171270,1,0,0:0:0:70:drum-hitclap.wav
475,192,171270,1,0,0:0:0:65:drum.wav
329,192,171399,1,0,0:0:0:100:drum-hitclap44.wav
182,192,171399,1,0,0:0:0:70:drum-hitclap.wav
256,192,171399,1,0,0:0:0:65:drum.wav
36,192,171527,1,0,0:0:0:70:drum-hitclap.wav
475,192,171527,1,0,0:0:0:65:drum.wav
402,192,171527,1,0,0:0:0:100:drum-hitclap44.wav
182,192,171655,1,0,0:0:0:100:drum-hitclap44.wav
256,192,171655,1,0,0:0:0:65:drum.wav
329,192,171655,1,0,0:0:0:70:drum-hitclap.wav
256,192,171783,1,0,0:0:0:70:bd03-3.wav
475,192,171783,1,0,0:0:0:50:bd03-5.wav
36,192,171783,1,0,0:0:0:30:bd03-5.wav
402,192,171869,1,0,0:0:0:0:
329,192,171869,1,0,0:0:0:0:
109,192,171869,1,0,0:0:0:0:
256,192,171954,1,0,0:0:0:0:
36,192,171954,1,0,0:0:0:0:
182,192,171954,1,0,0:0:0:0:
402,192,172040,1,0,0:0:0:0:
109,192,172040,1,0,0:0:0:0:
475,192,172040,1,0,0:0:0:30:bd03-5.wav
36,192,172125,1,0,0:0:0:0:
329,192,172125,1,0,0:0:0:0:
256,192,172125,1,0,0:0:0:0:
109,192,172211,1,0,0:0:0:0:
402,192,172211,1,0,0:0:0:0:
182,192,172211,1,0,0:0:0:0:
36,192,172296,1,0,0:0:0:0:
329,192,172296,1,0,0:0:0:0:
256,192,172296,1,0,0:0:0:20:drum.wav
475,192,172296,1,0,0:0:0:0:
36,192,172467,1,0,0:0:0:0:
109,192,172467,1,0,0:0:0:0:
329,192,172467,1,0,0:0:0:40:drum.wav
182,192,172467,1,0,0:0:0:40:drum.wav
109,192,172638,1,0,0:0:0:0:
182,192,172638,1,0,0:0:0:0:
329,192,172638,1,0,0:0:0:40:drum.wav
475,192,172638,1,0,0:0:0:40:drum.wav
36,192,172809,1,0,0:0:0:0:
402,192,172809,1,0,0:0:0:0:
182,192,172809,1,0,0:0:0:0:
329,192,172809,1,0,0:0:0:0:
329,192,173065,1,0,0:0:0:0:
109,192,173322,1,0,0:0:0:0:
256,192,173322,1,0,0:0:0:0:
475,192,173386,1,0,0:0:0:0:
329,192,173450,1,0,0:0:0:0:
182,192,173514,1,0,0:0:0:0:
402,192,173578,1,0,0:0:0:0:
329,192,173578,1,0,0:0:0:0:
256,192,173706,1,0,0:0:0:0:
402,192,173835,1,0,0:0:0:0:
256,192,173835,1,0,0:0:0:0:
36,192,173963,1,0,0:0:0:50:drum-hitclap.wav
182,192,173963,1,0,0:0:0:50:drum-hitclap.wav
475,192,174027,1,0,0:0:0:50:drum-hitclap.wav
329,192,174027,1,0,0:0:0:50:drum-hitclap.wav
36,192,174091,1,0,0:0:0:50:drum-hitclap.wav
182,192,174091,1,0,0:0:0:50:drum-hitclap.wav
475,192,174219,1,0,0:0:0:50:drum-hitclap.wav
329,192,174219,1,0,0:0:0:50:drum-hitclap.wav
36,192,174283,1,0,0:0:0:50:drum-hitclap.wav
182,192,174283,1,0,0:0:0:50:drum-hitclap.wav
475,192,174347,1,0,0:0:0:0:
329,192,174347,1,0,0:0:0:80:cym-02.wav
329,192,174476,1,0,0:0:0:0:
36,192,174604,1,0,0:0:0:0:
329,192,174604,1,0,0:0:0:0:
109,192,174860,1,0,0:0:0:0:
182,192,174860,1,0,0:0:0:30:Snare.wav
475,192,174924,1,0,0:0:0:0:
256,192,174924,1,0,0:0:0:30:Snare.wav
36,192,174988,1,0,0:0:0:0:
402,192,174988,1,0,0:0:0:30:Snare.wav
109,192,175031,1,0,0:0:0:0:
329,192,175052,1,0,0:0:0:30:Snare.wav
182,192,175117,1,0,0:0:0:30:Snare.wav
475,192,175181,1,0,0:0:0:0:
256,192,175181,1,0,0:0:0:30:Snare.wav
36,192,175245,1,0,0:0:0:0:
402,192,175245,1,0,0:0:0:30:Snare.wav
109,192,175288,1,0,0:0:0:0:
329,192,175309,1,0,0:0:0:30:Snare.wav
475,192,175373,1,0,0:0:0:0:
36,192,175373,1,0,0:0:0:0:
182,192,175373,1,0,0:0:0:0:
402,192,175373,1,0,0:0:0:0:
256,192,175373,1,0,0:0:0:80:wosh.wav
329,192,175501,1,0,0:0:0:0:
256,192,175629,1,0,0:0:0:0:
402,192,175758,1,0,0:0:0:0:
329,192,175886,1,0,0:0:0:0:
256,192,176014,1,0,0:0:0:0:
475,192,176142,1,0,0:0:0:0:
256,192,176270,1,0,0:0:0:0:
36,192,176399,1,0,0:0:0:0:
109,192,176527,1,0,0:0:0:0:
182,192,176655,1,0,0:0:0:0:
36,192,176783,1,0,0:0:0:0:
109,192,176847,1,0,0:0:0:0:
182,192,176911,1,0,0:0:0:0:
329,192,177040,1,0,0:0:0:0:
475,192,177168,1,0,0:0:0:0:
329,192,177296,1,0,0:0:0:0:
182,192,177424,1,0,0:0:0:0:
36,192,177552,1,0,0:0:0:0:
329,192,177681,1,0,0:0:0:0:
256,192,177809,1,0,0:0:0:0:
182,192,177937,1,0,0:0:0:0:
109,192,178065,1,0,0:0:0:0:
475,192,178194,1,0,0:0:0:0:
36,192,178322,1,0,0:0:0:0:
329,192,178450,1,0,0:0:0:0:
256,192,178578,1,0,0:0:0:0:
36,192,178706,1,0,0:0:0:0:
109,192,178770,1,0,0:0:0:0:
182,192,178835,1,0,0:0:0:0:
256,192,178899,1,0,0:0:0:0:
36,192,178963,1,0,0:0:0:80:drum-hitclap.wav
329,192,178963,1,0,0:0:0:90:cym-02.wav
402,192,178963,1,0,0:0:0:80:wosh.wav
475,192,178963,1,0,0:0:0:80:drum.wav
182,192,179091,1,0,0:0:0:0:
475,192,179219,1,0,0:0:0:80:drum.wav
329,192,179219,1,0,0:0:0:90:cym-02.wav
36,192,179219,1,0,0:0:0:80:drum-hitclap.wav
256,192,179347,1,0,0:0:0:0:
475,192,179476,1,0,0:0:0:80:drum.wav
109,192,179476,1,0,0:0:0:0:
36,192,179476,1,0,0:0:0:80:drum-hitclap.wav
329,192,179476,1,0,0:0:0:90:cym-02.wav
256,192,179604,1,0,0:0:0:0:
182,192,179732,1,0,0:0:0:0:
475,192,179860,1,0,0:0:0:0:
402,192,179988,1,0,0:0:0:0:
329,192,180117,1,0,0:0:0:0:
475,192,180245,1,0,0:0:0:0:
36,192,180373,1,0,0:0:0:0:
182,192,180501,1,0,0:0:0:0:
256,192,180629,1,0,0:0:0:0:
329,192,180758,1,0,0:0:0:0:
182,192,180886,1,0,0:0:0:0:
256,192,181014,1,0,0:0:0:0:
36,192,181142,1,0,0:0:0:0:
475,192,181270,1,0,0:0:0:0:
329,192,181399,1,0,0:0:0:0:
256,192,181527,1,0,0:0:0:80:drum-hitclap.wav
475,192,181527,1,0,0:0:0:0:
182,192,181527,1,0,0:0:0:80:drum.wav
36,192,181527,1,0,0:0:0:90:cym-02.wav
329,192,181655,1,0,0:0:0:0:
402,192,181783,1,0,0:0:0:0:
182,192,181911,1,0,0:0:0:80:drum.wav
256,192,181911,1,0,0:0:0:80:drum-hitclap.wav
36,192,181911,1,0,0:0:0:90:cym-02.wav
329,192,182040,1,0,0:0:0:0:
402,192,182168,1,0,0:0:0:0:
256,192,182296,1,0,0:0:0:80:drum-hitclap.wav
182,192,182296,1,0,0:0:0:80:drum.wav
36,192,182296,1,0,0:0:0:90:cym-02.wav
475,192,182424,1,0,0:0:0:0:
402,192,182552,1,0,0:0:0:0:
256,192,182681,1,0,0:0:0:80:drum-hitclap.wav
182,192,182681,1,0,0:0:0:80:drum.wav
36,192,182681,1,0,0:0:0:90:cym-02.wav
402,192,182809,1,0,0:0:0:0:
329,192,182937,1,0,0:0:0:0:
36,192,183065,1,0,0:0:0:90:cym-02.wav
182,192,183065,1,0,0:0:0:80:drum.wav
256,192,183065,1,0,0:0:0:80:drum-hitclap.wav
329,192,183129,1,0,0:0:0:0:
182,192,183194,1,0,0:0:0:0:
402,192,183194,1,0,0:0:0:0:
109,192,183258,1,0,0:0:0:0:
475,192,183258,1,0,0:0:0:0:
256,192,183322,1,0,0:0:0:0:
182,192,183386,1,0,0:0:0:0:
329,192,183450,1,0,0:0:0:0:
109,192,183450,1,0,0:0:0:0:
402,192,183514,1,0,0:0:0:0:
36,192,183514,1,0,0:0:0:0:
182,192,183578,1,0,0:0:0:0:
475,192,183578,1,0,0:0:0:90:cym-02.wav
256,192,183578,1,0,0:0:0:80:drum-hitclap.wav
256,192,183706,1,0,0:0:0:0:
36,192,183706,1,0,0:0:0:0:
182,192,183835,1,0,0:0:0:0:
109,192,183963,1,0,0:0:0:0:
475,192,184091,1,0,0:0:0:90:cym-02.wav
256,192,184091,1,0,0:0:0:80:drum.wav
182,192,184091,1,0,0:0:0:80:drum-hitclap.wav
256,192,184219,1,0,0:0:0:0:
329,192,184219,1,0,0:0:0:0:
109,192,184347,1,0,0:0:0:0:
329,192,184476,1,0,0:0:0:0:
475,192,184604,1,0,0:0:0:90:cym-02.wav
256,192,184604,1,0,0:0:0:0:
109,192,184604,1,0,0:0:0:80:drum-hitclap.wav
182,192,184604,1,0,0:0:0:80:drum.wav
36,192,184732,1,0,0:0:0:0:
475,192,184860,1,0,0:0:0:90:cym-02.wav
256,192,184860,1,0,0:0:0:0:
109,192,184860,1,0,0:0:0:80:drum-hitclap.wav
182,192,184860,1,0,0:0:0:80:drum.wav
329,192,184988,1,0,0:0:0:0:
36,192,185117,1,0,0:0:0:0:
182,192,185245,1,0,0:0:0:0:
475,192,185373,1,0,0:0:0:0:
402,192,185501,1,0,0:0:0:0:
36,192,185629,1,0,0:0:0:90:cym-02.wav
182,192,185629,1,0,0:0:0:80:drum-hitclap.wav
256,192,185629,1,0,0:0:0:80:drum.wav
475,192,185758,1,0,0:0:0:0:
256,192,185886,1,0,0:0:0:0:
475,192,186014,1,0,0:0:0:0:
36,192,186142,1,0,0:0:0:90:cym-02.wav
402,192,186142,1,0,0:0:0:0:
329,192,186142,1,0,0:0:0:80:drum.wav
256,192,186142,1,0,0:0:0:80:drum-hitclap.wav
182,192,186270,1,0,0:0:0:0:
109,192,186399,1,0,0:0:0:0:
329,192,186527,1,0,0:0:0:80:drum-hitclap.wav
182,192,186527,1,0,0:0:0:0:
36,192,186527,1,0,0:0:0:90:cym-02.wav
402,192,186527,1,0,0:0:0:80:drum.wav
256,192,186655,1,0,0:0:0:0:
402,192,186783,1,0,0:0:0:80:drum.wav
182,192,186783,1,0,0:0:0:0:
36,192,186783,1,0,0:0:0:90:cym-02.wav
329,192,186783,1,0,0:0:0:80:drum-hitclap.wav
256,192,186911,1,0,0:0:0:0:
182,192,187040,1,0,0:0:0:0:
402,192,187168,1,0,0:0:0:0:
475,192,187168,1,0,0:0:0:0:
256,192,187296,1,0,0:0:0:0:
329,192,187296,1,0,0:0:0:0:
109,192,187424,1,0,0:0:0:0:
36,192,187424,1,0,0:0:0:0:
256,192,187552,1,0,0:0:0:0:
182,192,187552,1,0,0:0:0:0:
329,192,187681,1,0,0:0:0:0:
36,192,187681,1,0,0:0:0:0:
109,192,187681,1,0,0:0:0:80:drum-hitclap.wav
475,192,187681,1,0,0:0:0:90:cym-02.wav
402,192,187681,1,0,0:0:0:80:drum-hitclap44.wav
36,192,187809,1,0,0:0:0:0:
182,192,187937,1,0,0:0:0:0:
36,192,188065,1,0,0:0:0:0:
109,192,188194,1,0,0:0:0:80:drum-hitclap.wav
182,192,188194,1,0,0:0:0:0:
475,192,188194,1,0,0:0:0:90:cym-02.wav
256,192,188194,1,0,0:0:0:80:drum-hitclap44.wav
109,192,188322,1,0,0:0:0:0:
256,192,188450,1,0,0:0:0:0:
109,192,188578,1,0,0:0:0:0:
402,192,188578,1,0,0:0:0:0:
182,192,188706,1,0,0:0:0:0:
36,192,188706,1,0,0:0:0:0:
475,192,188706,1,0,0:0:0:90:cym-02.wav
256,192,188706,1,0,0:0:0:80:drum-hitclap44.wav
182,192,188835,1,0,0:0:0:0:
329,192,188835,1,0,0:0:0:0:
109,192,188963,1,0,0:0:0:0:
36,192,188963,1,0,0:0:0:0:
475,192,188963,1,0,0:0:0:80:drum-hitclap.wav
402,192,188963,1,0,0:0:0:80:drum-hitclap44.wav
329,192,189091,1,0,0:0:0:0:
475,192,189219,1,0,0:0:0:0:
36,192,189251,1,0,0:0:0:0:
182,192,189347,1,0,0:0:0:0:
329,192,189379,1,0,0:0:0:0:
475,192,189476,1,0,0:0:0:0:
36,192,189508,1,0,0:0:0:0:
182,192,189604,1,0,0:0:0:0:
329,192,189636,1,0,0:0:0:0:
475,192,189732,1,0,0:0:0:0:
402,192,189732,1,0,0:0:0:0:
109,192,189732,1,0,0:0:0:80:drum-hitclap.wav
256,192,189732,1,0,0:0:0:80:drum.wav
36,192,189732,1,0,0:0:0:90:cym-02.wav
329,192,189860,1,0,0:0:0:0:
182,192,189988,1,0,0:0:0:0:
109,192,190117,1,0,0:0:0:0:
329,192,190245,1,0,0:0:0:80:drum-hitclap.wav
256,192,190245,1,0,0:0:0:70:cym-02.wav
36,192,190245,1,0,0:0:0:80:drum.wav
182,192,190373,1,0,0:0:0:0:
329,192,190501,1,0,0:0:0:0:
182,192,190629,1,0,0:0:0:0:
256,192,190694,1,0,0:0:0:0:
402,192,190758,1,0,0:0:0:0:
329,192,190758,1,0,0:0:0:0:
329,192,191014,1,0,0:0:0:0:
182,192,191142,1,0,0:0:0:0:
329,192,191399,1,0,0:0:0:0:
182,192,191463,1,0,0:0:0:0:
329,192,191527,1,0,0:0:0:0:
182,192,191591,1,0,0:0:0:0:
329,192,191655,1,0,0:0:0:0:
182,192,191719,1,0,0:0:0:0:
329,192,191783,1,0,0:0:0:100:drum-hitclap44.wav
256,192,191783,1,0,0:0:0:0:
475,192,191783,1,0,0:0:0:65:drum.wav
36,192,191783,1,0,0:0:0:0:
109,192,191911,1,0,0:0:0:100:Rim.wav
109,192,191976,1,0,0:0:0:100:Rim.wav
329,192,192040,1,0,0:0:0:80:drum-hitclap.wav
475,192,192040,1,0,0:0:0:0:
36,192,192040,1,0,0:0:0:80:drum-hitclap44.wav
256,192,192040,1,0,0:0:0:80:drum-hitclap.wav
182,192,192168,1,0,0:0:0:0:
402,192,192168,1,0,0:0:0:0:
36,192,192296,1,0,0:0:0:100:drum-hitclap44.wav
329,192,192296,1,0,0:0:0:0:
475,192,192296,1,0,0:0:0:0:
109,192,192296,1,0,0:0:0:65:drum.wav
182,192,192360,1,0,0:0:0:100:Rim.wav
182,192,192424,1,0,0:0:0:100:Rim.wav
475,192,192552,1,0,0:0:0:80:drum-hitclap.wav
256,192,192552,1,0,0:0:0:0:
109,192,192552,1,0,0:0:0:100:drum-hitclap44.wav
402,192,192552,1,0,0:0:0:80:drum-hitclap.wav
182,192,192681,1,0,0:0:0:0:
329,192,192681,1,0,0:0:0:0:
36,192,192809,1,0,0:0:0:85:Snare.wav
109,192,192809,1,0,0:0:0:0:
256,192,192809,1,0,0:0:0:68:drum.wav
475,192,192809,1,0,0:0:0:85:Snare.wav
36,192,192937,1,0,0:0:0:85:Snare.wav
109,192,192937,1,0,0:0:0:0:
256,192,192937,1,0,0:0:0:68:drum.wav
475,192,192937,1,0,0:0:0:85:Snare.wav
109,192,193065,1,0,0:0:0:0:
182,192,193065,1,0,0:0:0:0:
402,192,193065,1,0,0:0:0:100:drum-hitclap44.wav
36,192,193065,1,0,0:0:0:0:
329,192,193194,1,0,0:0:0:0:
475,192,193322,1,0,0:0:0:85:Snare.wav
182,192,193322,1,0,0:0:0:0:
36,192,193322,1,0,0:0:0:85:Snare.wav
256,192,193322,1,0,0:0:0:68:drum.wav
475,192,193450,1,0,0:0:0:85:Snare.wav
182,192,193450,1,0,0:0:0:0:
36,192,193450,1,0,0:0:0:85:Snare.wav
256,192,193450,1,0,0:0:0:68:drum.wav
402,192,193578,1,0,0:0:0:100:drum-hitclap44.wav
256,192,193578,1,0,0:0:0:0:
109,192,193578,1,0,0:0:0:80:drum-hitclap.wav
329,192,193578,1,0,0:0:0:80:drum-hitclap.wav
182,192,193706,1,0,0:0:0:0:
402,192,193835,1,0,0:0:0:65:drum.wav
36,192,193835,1,0,0:0:0:0:
256,192,193835,1,0,0:0:0:0:
475,192,193835,1,0,0:0:0:100:drum-hitclap44.wav
329,192,193963,1,0,0:0:0:100:Rim.wav
329,192,194027,1,0,0:0:0:100:Rim.wav
256,192,194091,1,0,0:0:0:80:drum-hitclap.wav
475,192,194091,1,0,0:0:0:0:
109,192,194091,1,0,0:0:0:80:drum-hitclap.wav
402,192,194091,1,0,0:0:0:100:drum-hitclap44.wav
329,192,194219,1,0,0:0:0:0:
182,192,194219,1,0,0:0:0:0:
109,192,194347,1,0,0:0:0:65:drum.wav
402,192,194347,1,0,0:0:0:0:
36,192,194347,1,0,0:0:0:100:drum-hitclap44.wav
256,192,194347,1,0,0:0:0:0:
182,192,194411,1,0,0:0:0:100:Rim.wav
182,192,194476,1,0,0:0:0:100:Rim.wav
256,192,194604,1,0,0:0:0:80:drum-hitclap.wav
36,192,194604,1,0,0:0:0:0:
329,192,194604,1,0,0:0:0:100:drum-hitclap44.wav
475,192,194604,1,0,0:0:0:80:drum-hitclap.wav
402,192,194732,1,0,0:0:0:0:
182,192,194732,1,0,0:0:0:0:
475,192,194860,1,0,0:0:0:0:
329,192,194860,1,0,0:0:0:60:bd03-3.wav
256,192,194860,1,0,0:0:0:60:bd03-3.wav
182,192,194924,1,0,0:0:0:60:bd03-3.wav
109,192,194924,1,0,0:0:0:60:bd03-3.wav
402,192,194988,1,0,0:0:0:60:bd03-4.wav
329,192,194988,1,0,0:0:0:60:bd03-4.wav
256,192,195052,1,0,0:0:0:60:bd03-4.wav
182,192,195052,1,0,0:0:0:60:bd03-4.wav
402,192,195117,1,0,0:0:0:60:bd03-5.wav
109,192,195117,1,0,0:0:0:0:
36,192,195117,1,0,0:0:0:0:
475,192,195117,1,0,0:0:0:60:bd03-5.wav
329,192,195245,1,0,0:0:0:0:
182,192,195245,1,0,0:0:0:0:
475,192,195373,1,0,0:0:0:0:
402,192,195373,1,0,0:0:0:80:normal-hitfinish.wav
109,192,195373,1,0,0:0:0:0:
329,192,195458,1,0,0:0:0:0:
182,192,195458,1,0,0:0:0:0:
109,192,195544,1,0,0:0:0:0:
36,192,195544,1,0,0:0:0:0:
402,192,195544,1,0,0:0:0:0:
329,192,195629,1,0,0:0:0:0:
182,192,195629,1,0,0:0:0:0:
109,192,195715,1,0,0:0:0:0:
475,192,195715,1,0,0:0:0:0:
402,192,195715,1,0,0:0:0:0:
329,192,195800,1,0,0:0:0:0:
182,192,195800,1,0,0:0:0:0:
36,192,195886,1,0,0:0:0:0:
109,192,195886,1,0,0:0:0:0:
256,192,195886,1,0,0:0:0:100:drum-hitclap44.wav
475,192,195886,1,0,0:0:0:65:drum.wav
402,192,196014,1,0,0:0:0:100:Rim.wav
402,192,196078,1,0,0:0:0:100:Rim.wav
36,192,196142,1,0,0:0:0:80:drum-hitclap.wav
256,192,196142,1,0,0:0:0:0:
109,192,196142,1,0,0:0:0:80:drum-hitclap.wav
475,192,196142,1,0,0:0:0:100:drum-hitclap44.wav
329,192,196270,1,0,0:0:0:0:
182,192,196270,1,0,0:0:0:0:
475,192,196399,1,0,0:0:0:100:drum-hitclap44.wav
256,192,196399,1,0,0:0:0:0:
36,192,196399,1,0,0:0:0:0:
402,192,196399,1,0,0:0:0:65:drum.wav
109,192,196463,1,0,0:0:0:100:Rim.wav
109,192,196527,1,0,0:0:0:100:Rim.wav
329,192,196655,1,0,0:0:0:80:drum-hitclap.wav
475,192,196655,1,0,0:0:0:0:
182,192,196655,1,0,0:0:0:100:drum-hitclap44.wav
256,192,196655,1,0,0:0:0:80:drum-hitclap.wav
402,192,196783,1,0,0:0:0:0:
109,192,196783,1,0,0:0:0:0:
475,192,196911,1,0,0:0:0:85:Snare.wav
182,192,196911,1,0,0:0:0:0:
36,192,196911,1,0,0:0:0:85:Snare.wav
256,192,196911,1,0,0:0:0:68:drum.wav
475,192,197040,1,0,0:0:0:85:Snare.wav
182,192,197040,1,0,0:0:0:0:
36,192,197040,1,0,0:0:0:85:Snare.wav
256,192,197040,1,0,0:0:0:68:drum.wav
36,192,197168,1,0,0:0:0:100:drum-hitclap44.wav
182,192,197168,1,0,0:0:0:0:
109,192,197168,1,0,0:0:0:80:drum-hitclap.wav
402,192,197168,1,0,0:0:0:80:drum-hitclap.wav
329,192,197296,1,0,0:0:0:0:
36,192,197424,1,0,0:0:0:85:Snare.wav
182,192,197424,1,0,0:0:0:0:
475,192,197424,1,0,0:0:0:85:Snare.wav
256,192,197424,1,0,0:0:0:68:drum.wav
36,192,197552,1,0,0:0:0:85:Snare.wav
182,192,197552,1,0,0:0:0:0:
256,192,197552,1,0,0:0:0:68:drum.wav
475,192,197552,1,0,0:0:0:85:Snare.wav
402,192,197681,1,0,0:0:0:80:drum-hitclap.wav
329,192,197681,1,0,0:0:0:0:
475,192,197681,1,0,0:0:0:100:drum-hitclap44.wav
109,192,197681,1,0,0:0:0:80:drum-hitclap.wav
182,192,197809,1,0,0:0:0:0:
36,192,197937,1,0,0:0:0:65:drum.wav
109,192,197937,1,0,0:0:0:0:
329,192,197937,1,0,0:0:0:100:drum-hitclap44.wav
475,192,197937,1,0,0:0:0:0:
256,192,198065,1,0,0:0:0:100:Rim.wav
256,192,198129,1,0,0:0:0:100:Rim.wav
36,192,198194,1,0,0:0:0:80:drum-hitclap.wav
329,192,198194,1,0,0:0:0:0:
182,192,198194,1,0,0:0:0:80:drum-hitclap.wav
475,192,198194,1,0,0:0:0:100:drum-hitclap44.wav
402,192,198322,1,0,0:0:0:0:
109,192,198322,1,0,0:0:0:0:
329,192,198450,1,0,0:0:0:100:drum-hitclap44.wav
182,192,198450,1,0,0:0:0:0:
36,192,198450,1,0,0:0:0:65:drum.wav
475,192,198450,1,0,0:0:0:0:
256,192,198514,1,0,0:0:0:100:Rim.wav
256,192,198578,1,0,0:0:0:100:Rim.wav
36,192,198706,1,0,0:0:0:80:drum-hitclap.wav
329,192,198706,1,0,0:0:0:0:
475,192,198706,1,0,0:0:0:100:drum-hitclap44.wav
182,192,198706,1,0,0:0:0:80:drum-hitclap.wav
402,192,198835,1,0,0:0:0:0:
256,192,198835,1,0,0:0:0:0:
329,192,198963,1,0,0:0:0:0:
475,192,198963,1,0,0:0:0:0:
109,192,198963,1,0,0:0:0:85:Snare.wav
182,192,198963,1,0,0:0:0:85:Snare.wav
182,192,199091,1,0,0:0:0:85:Snare.wav
109,192,199091,1,0,0:0:0:85:Snare.wav
329,192,199219,1,0,0:0:0:85:drum-hitclap.wav
475,192,199219,1,0,0:0:0:0:
256,192,199219,1,0,0:0:0:85:drum-hitclap.wav
182,192,199283,1,0,0:0:0:85:bd03-4.wav
109,192,199347,1,0,0:0:0:0:
402,192,199347,1,0,0:0:0:85:bd03-4.wav
182,192,199411,1,0,0:0:0:0:
36,192,199476,1,0,0:0:0:0:
109,192,199476,1,0,0:0:0:0:
329,192,199476,1,0,0:0:0:85:bd03-4.wav
182,192,199540,1,0,0:0:0:0:
256,192,199604,1,0,0:0:0:0:
329,192,199668,1,0,0:0:0:0:
402,192,199732,1,0,0:0:0:0:
182,192,199732,1,0,0:0:0:0:
475,192,199732,1,0,0:0:0:0:
329,192,199796,1,0,0:0:0:0:
402,192,199860,1,0,0:0:0:0:
329,192,199924,1,0,0:0:0:0:
256,192,199988,1,0,0:0:0:0:
36,192,199988,1,0,0:0:0:0:
109,192,199988,1,0,0:0:0:0:
475,192,199988,1,0,0:0:0:65:drum.wav
182,192,200117,1,0,0:0:0:100:Rim.wav
182,192,200181,1,0,0:0:0:100:Rim.wav
36,192,200245,1,0,0:0:0:80:drum-hitclap.wav
402,192,200245,1,0,0:0:0:0:
109,192,200245,1,0,0:0:0:80:drum-hitclap.wav
475,192,200245,1,0,0:0:0:100:drum-hitclap44.wav
329,192,200373,1,0,0:0:0:0:
182,192,200373,1,0,0:0:0:0:
402,192,200501,1,0,0:0:0:100:drum-hitclap44.wav
256,192,200501,1,0,0:0:0:0:
36,192,200501,1,0,0:0:0:0:
475,192,200501,1,0,0:0:0:65:drum.wav
329,192,200565,1,0,0:0:0:100:Rim.wav
329,192,200629,1,0,0:0:0:100:Rim.wav
475,192,200758,1,0,0:0:0:100:drum-hitclap44.wav
402,192,200758,1,0,0:0:0:0:
36,192,200758,1,0,0:0:0:80:drum-hitclap.wav
109,192,200758,1,0,0:0:0:80:drum-hitclap.wav
256,192,200886,1,0,0:0:0:0:
182,192,200886,1,0,0:0:0:0:
402,192,201014,1,0,0:0:0:0:
182,192,201014,1,0,0:0:0:0:
109,192,201014,1,0,0:0:0:0:
329,192,201014,1,0,0:0:0:0:
36,192,201014,1,0,0:0:0:0:
182,192,201142,1,0,0:0:0:0:
475,192,201270,1,0,0:0:0:0:
329,192,201270,1,0,0:0:0:0:
36,192,201270,1,0,0:0:0:0:
36,192,201399,1,0,0:0:0:0:
109,192,201527,1,0,0:0:0:0:
329,192,201527,1,0,0:0:0:0:
182,192,201527,1,0,0:0:0:0:
329,192,201655,1,0,0:0:0:0:
36,192,201783,1,0,0:0:0:0:
475,192,201783,1,0,0:0:0:0:
182,192,201783,1,0,0:0:0:0:
475,192,201911,1,0,0:0:0:0:
36,192,202040,1,0,0:0:0:0:
402,192,202040,1,0,0:0:0:0:
256,192,202040,1,0,0:0:0:100:drum-hitclap44.wav
182,192,202040,1,0,0:0:0:0:
329,192,202040,1,0,0:0:0:65:drum.wav
109,192,202168,1,0,0:0:0:100:Rim.wav
109,192,202232,1,0,0:0:0:100:Rim.wav
475,192,202296,1,0,0:0:0:80:drum-hitclap.wav
182,192,202296,1,0,0:0:0:0:
36,192,202296,1,0,0:0:0:100:drum-hitclap44.wav
329,192,202296,1,0,0:0:0:80:drum-hitclap.wav
402,192,202424,1,0,0:0:0:0:
109,192,202424,1,0,0:0:0:0:
475,192,202552,1,0,0:0:0:100:drum-hitclap44.wav
256,192,202552,1,0,0:0:0:0:
182,192,202552,1,0,0:0:0:65:drum.wav
36,192,202552,1,0,0:0:0:0:
402,192,202617,1,0,0:0:0:100:Rim.wav
402,192,202681,1,0,0:0:0:100:Rim.wav
329,192,202809,1,0,0:0:0:80:drum-hitclap.wav
475,192,202809,1,0,0:0:0:0:
36,192,202809,1,0,0:0:0:100:drum-hitclap44.wav
182,192,202809,1,0,0:0:0:80:drum-hitclap.wav
256,192,202937,1,0,0:0:0:0:
402,192,202937,1,0,0:0:0:0:
475,192,203065,1,0,0:0:0:0:
329,192,203065,1,0,0:0:0:0:
36,192,203065,1,0,0:0:0:100:drum-hitclap44.wav
182,192,203065,1,0,0:0:0:65:drum.wav
256,192,203129,1,0,0:0:0:100:Rim.wav
256,192,203194,1,0,0:0:0:100:Rim.wav
402,192,203322,1,0,0:0:0:0:
329,192,203322,1,0,0:0:0:0:
475,192,203322,1,0,0:0:0:0:
109,192,203322,1,0,0:0:0:0:
256,192,203450,1,0,0:0:0:0:
36,192,203578,1,0,0:0:0:0:
329,192,203578,1,0,0:0:0:0:
109,192,203706,1,0,0:0:0:0:
475,192,203835,1,0,0:0:0:0:
402,192,203835,1,0,0:0:0:0:
182,192,203835,1,0,0:0:0:0:
329,192,203835,1,0,0:0:0:0:
256,192,203963,1,0,0:0:0:0:
475,192,204091,1,0,0:0:0:100:drum-hitclap44.wav
36,192,204091,1,0,0:0:0:0:
182,192,204091,1,0,0:0:0:50:cym-01.wav
402,192,204091,1,0,0:0:0:65:drum.wav
329,192,204219,1,0,0:0:0:100:Rim.wav
329,192,204283,1,0,0:0:0:100:Rim.wav
109,192,204347,1,0,0:0:0:0:
256,192,204347,1,0,0:0:0:0:
402,192,204347,1,0,0:0:0:100:drum-hitclap44.wav
36,192,204347,1,0,0:0:0:80:drum-hitclap.wav
475,192,204476,1,0,0:0:0:0:
182,192,204604,1,0,0:0:0:65:drum.wav
475,192,204604,1,0,0:0:0:0:
36,192,204604,1,0,0:0:0:0:
402,192,204604,1,0,0:0:0:100:drum-hitclap44.wav
329,192,204668,1,0,0:0:0:100:Rim.wav
329,192,204732,1,0,0:0:0:100:Rim.wav
36,192,204860,1,0,0:0:0:80:drum-hitclap.wav
329,192,204860,1,0,0:0:0:0:
182,192,204860,1,0,0:0:0:80:drum-hitclap.wav
475,192,204860,1,0,0:0:0:100:drum-hitclap44.wav
256,192,204988,1,0,0:0:0:0:
329,192,205117,1,0,0:0:0:65:drum.wav
109,192,205117,1,0,0:0:0:0:
475,192,205117,1,0,0:0:0:100:drum-hitclap44.wav
36,192,205117,1,0,0:0:0:0:
36,192,205245,1,0,0:0:0:0:
182,192,205373,1,0,0:0:0:80:drum-hitclap.wav
329,192,205373,1,0,0:0:0:0:
109,192,205373,1,0,0:0:0:80:drum-hitclap.wav
475,192,205373,1,0,0:0:0:100:drum-hitclap44.wav
109,192,205501,1,0,0:0:0:0:
475,192,205629,1,0,0:0:0:100:drum-hitclap44.wav
36,192,205629,1,0,0:0:0:0:
182,192,205629,1,0,0:0:0:0:
329,192,205629,1,0,0:0:0:65:drum.wav
329,192,205758,1,0,0:0:0:0:
256,192,205822,1,0,0:0:0:0:
182,192,205822,1,0,0:0:0:0:
36,192,205886,1,0,0:0:0:80:drum-hitclap.wav
329,192,205886,1,0,0:0:0:0:
109,192,205886,1,0,0:0:0:80:drum-hitclap.wav
475,192,205886,1,0,0:0:0:100:drum-hitclap44.wav
329,192,206014,1,0,0:0:0:0:
182,192,206014,1,0,0:0:0:0:
402,192,206142,1,0,0:0:0:0:
256,192,206142,1,0,0:0:0:0:
109,192,206142,1,0,0:0:0:0:
182,192,206270,1,0,0:0:0:80:cym-02.wav
329,192,206270,1,0,0:0:0:0:
475,192,206270,1,0,0:0:0:100:drum-hitclap44.wav
36,192,206270,1,0,0:0:0:70:drum-hitclap.wav
109,192,206399,1,0,0:0:0:0:
256,192,206399,1,0,0:0:0:0:
36,192,206527,1,0,0:0:0:100:drum-hitclap44.wav
182,192,206527,1,0,0:0:0:0:
329,192,206527,1,0,0:0:0:80:cym-02.wav
475,192,206527,1,0,0:0:0:70:drum-hitclap.wav
402,192,206655,1,0,0:0:0:0:
256,192,206655,1,0,0:0:0:0:
182,192,206783,1,0,0:0:0:80:cym-02.wav
329,192,206783,1,0,0:0:0:0:
36,192,206783,1,0,0:0:0:70:drum-hitclap.wav
475,192,206783,1,0,0:0:0:100:drum-hitclap44.wav
256,192,206911,1,0,0:0:0:0:
402,192,206911,1,0,0:0:0:0:
475,192,207040,1,0,0:0:0:70:drum-hitclap.wav
182,192,207040,1,0,0:0:0:0:
36,192,207040,1,0,0:0:0:100:drum-hitclap44.wav
329,192,207040,1,0,0:0:0:80:cym-02.wav
329,192,207168,1,0,0:0:0:0:
182,192,207168,1,0,0:0:0:90:bd03-4.wav
36,192,207232,1,0,0:0:0:90:bd03-4.wav
402,192,207296,1,0,0:0:0:0:
256,192,207296,1,0,0:0:0:80:bd03-4.wav
109,192,207360,1,0,0:0:0:80:bd03-4.wav
475,192,207424,1,0,0:0:0:0:
329,192,207424,1,0,0:0:0:70:bd03-4.wav
36,192,207488,1,0,0:0:0:0:
182,192,207488,1,0,0:0:0:70:bd03-4.wav
402,192,207552,1,0,0:0:0:60:bd03-4.wav
109,192,207617,1,0,0:0:0:0:
256,192,207617,1,0,0:0:0:60:bd03-4.wav
475,192,207681,1,0,0:0:0:0:
402,192,207713,1,0,0:0:0:0:
329,192,207745,1,0,0:0:0:0:
256,192,207777,1,0,0:0:0:0:
182,192,207809,1,0,0:0:0:0:
109,192,207841,1,0,0:0:0:0:
36,192,207873,1,0,0:0:0:0:
475,192,207905,1,0,0:0:0:0:
182,192,207937,1,0,0:0:0:0:
329,192,207937,1,0,0:0:0:0:
329,192,208065,1,0,0:0:0:0:
182,192,208065,1,0,0:0:0:0:
256,192,208194,1,0,0:0:0:0:
109,192,208194,1,0,0:0:0:0:
36,192,208194,1,0,0:0:0:0:
329,192,208194,1,0,0:0:0:100:drum-hitclap44.wav
475,192,208194,1,0,0:0:0:65:drum.wav
402,192,208322,1,0,0:0:0:0:
36,192,208322,1,0,0:0:0:100:Rim.wav
109,192,208386,1,0,0:0:0:100:Rim.wav
475,192,208450,1,0,0:0:0:50:drum-hitclap.wav
329,192,208450,1,0,0:0:0:50:drum-hitclap.wav
182,192,208450,1,0,0:0:0:100:Rim.wav
402,192,208578,1,0,0:0:0:0:
256,192,208578,1,0,0:0:0:0:
329,192,208706,1,0,0:0:0:65:drum.wav
475,192,208706,1,0,0:0:0:100:drum-hitclap44.wav
109,192,208706,1,0,0:0:0:100:Rim.wav
182,192,208770,1,0,0:0:0:100:Rim.wav
36,192,208835,1,0,0:0:0:0:
256,192,208835,1,0,0:0:0:100:Rim.wav
475,192,208963,1,0,0:0:0:50:drum-hitclap.wav
109,192,208963,1,0,0:0:0:50:drum-hitclap.wav
329,192,208963,1,0,0:0:0:100:drum-hitclap44.wav
402,192,209091,1,0,0:0:0:0:
256,192,209091,1,0,0:0:0:0:
329,192,209219,1,0,0:0:0:65:drum.wav
475,192,209219,1,0,0:0:0:0:
182,192,209219,1,0,0:0:0:0:
36,192,209219,1,0,0:0:0:100:drum-hitclap44.wav
402,192,209347,1,0,0:0:0:0:
256,192,209476,1,0,0:0:0:50:drum-hitclap.wav
36,192,209476,1,0,0:0:0:50:drum-hitclap.wav
109,192,209476,1,0,0:0:0:100:drum-hitclap44.wav
256,192,209604,1,0,0:0:0:60:Rim.wav
475,192,209604,1,0,0:0:0:60:Rim.wav
36,192,209732,1,0,0:0:0:65:drum.wav
109,192,209732,1,0,0:0:0:100:drum-hitclap44.wav
402,192,209732,1,0,0:0:0:0:
182,192,209860,1,0,0:0:0:60:Rim.wav
329,192,209860,1,0,0:0:0:60:Rim.wav
182,192,209988,1,0,0:0:0:100:drum-hitclap44.wav
475,192,209988,1,0,0:0:0:50:drum-hitclap.wav
402,192,209988,1,0,0:0:0:50:drum-hitclap.wav
109,192,210117,1,0,0:0:0:0:
256,192,210117,1,0,0:0:0:0:
36,192,210245,1,0,0:0:0:80:Snare.wav
329,192,210245,1,0,0:0:0:0:
475,192,210245,1,0,0:0:0:80:Snare.wav
182,192,210245,1,0,0:0:0:65:drum.wav
109,192,210373,1,0,0:0:0:80:Snare.wav
256,192,210373,1,0,0:0:0:65:drum.wav
475,192,210373,1,0,0:0:0:80:Snare.wav
182,192,210501,1,0,0:0:0:80:Snare.wav
329,192,210501,1,0,0:0:0:65:drum.wav
475,192,210501,1,0,0:0:0:80:Snare.wav
402,192,210629,1,0,0:0:0:0:
475,192,210758,1,0,0:0:0:70:drum.wav
109,192,210758,1,0,0:0:0:65:normal-hitfinish.wav
36,192,210758,1,0,0:0:0:65:normal-hitfinish.wav
329,192,210758,1,0,0:0:0:65:drum-hitclap.wav
402,192,210886,1,0,0:0:0:70:drum.wav
109,192,210886,1,0,0:0:0:65:normal-hitfinish.wav
36,192,210886,1,0,0:0:0:65:normal-hitfinish.wav
256,192,210886,1,0,0:0:0:65:drum-hitclap.wav
329,192,211014,1,0,0:0:0:70:drum.wav
109,192,211014,1,0,0:0:0:65:normal-hitfinish.wav
36,192,211014,1,0,0:0:0:65:normal-hitfinish.wav
182,192,211014,1,0,0:0:0:65:drum-hitclap.wav
402,192,211142,1,0,0:0:0:0:
182,192,211270,1,0,0:0:0:50:Snare.wav
475,192,211270,1,0,0:0:0:0:
256,192,211270,1,0,0:0:0:50:Snare.wav
329,192,211270,1,0,0:0:0:50:Snare.wav
329,192,211399,1,0,0:0:0:0:
402,192,211527,1,0,0:0:0:0:
329,192,211527,1,0,0:0:0:0:
182,192,211527,1,0,0:0:0:50:Snare.wav
109,192,211527,1,0,0:0:0:50:Snare.wav
329,192,211655,1,0,0:0:0:0:
329,192,211783,1,0,0:0:0:0:
36,192,211783,1,0,0:0:0:50:Snare.wav
475,192,212040,1,0,0:0:0:80:drum-hitclap.wav
329,192,212040,1,0,0:0:0:0:
36,192,212040,1,0,0:0:0:100:drum-hitclap44.wav
402,192,212040,1,0,0:0:0:80:drum-hitclap.wav
329,192,212168,1,0,0:0:0:0:
109,192,212168,1,0,0:0:0:0:
36,192,212296,1,0,0:0:0:100:drum-hitclap44.wav
329,192,212296,1,0,0:0:0:0:
475,192,212296,1,0,0:0:0:0:
182,192,212296,1,0,0:0:0:65:drum.wav
256,192,212424,1,0,0:0:0:0:
475,192,212424,1,0,0:0:0:100:Rim.wav
402,192,212488,1,0,0:0:0:100:Rim.wav
182,192,212552,1,0,0:0:0:50:drum-hitclap.wav
36,192,212552,1,0,0:0:0:50:drum-hitclap.wav
329,192,212552,1,0,0:0:0:100:Rim.wav
256,192,212681,1,0,0:0:0:0:
109,192,212681,1,0,0:0:0:0:
402,192,212809,1,0,0:0:0:65:drum.wav
329,192,212809,1,0,0:0:0:100:Rim.wav
36,192,212809,1,0,0:0:0:100:drum-hitclap44.wav
256,192,212873,1,0,0:0:0:100:Rim.wav
475,192,212937,1,0,0:0:0:0:
182,192,212937,1,0,0:0:0:100:Rim.wav
36,192,213065,1,0,0:0:0:50:drum-hitclap.wav
109,192,213065,1,0,0:0:0:50:drum-hitclap.wav
256,192,213065,1,0,0:0:0:100:drum-hitclap44.wav
329,192,213194,1,0,0:0:0:0:
182,192,213194,1,0,0:0:0:0:
475,192,213322,1,0,0:0:0:100:drum-hitclap44.wav
256,192,213322,1,0,0:0:0:0:
402,192,213322,1,0,0:0:0:65:drum.wav
329,192,213450,1,0,0:0:0:0:
36,192,213450,1,0,0:0:0:100:Rim.wav
109,192,213514,1,0,0:0:0:100:Rim.wav
182,192,213578,1,0,0:0:0:100:Rim.wav
475,192,213578,1,0,0:0:0:50:drum-hitclap.wav
402,192,213578,1,0,0:0:0:50:drum-hitclap.wav
329,192,213706,1,0,0:0:0:0:
256,192,213706,1,0,0:0:0:0:
475,192,213835,1,0,0:0:0:100:drum-hitclap44.wav
402,192,213835,1,0,0:0:0:65:drum.wav
36,192,213835,1,0,0:0:0:0:
109,192,213963,1,0,0:0:0:60:Rim.wav
182,192,213963,1,0,0:0:0:60:Rim.wav
402,192,214091,1,0,0:0:0:50:drum-hitclap.wav
475,192,214091,1,0,0:0:0:50:drum-hitclap.wav
109,192,214091,1,0,0:0:0:100:drum-hitclap44.wav
182,192,214219,1,0,0:0:0:60:Rim.wav
329,192,214219,1,0,0:0:0:60:Rim.wav
109,192,214347,1,0,0:0:0:0:
182,192,214347,1,0,0:0:0:0:
475,192,214347,1,0,0:0:0:100:drum-hitclap44.wav
329,192,214347,1,0,0:0:0:65:drum.wav
36,192,214347,1,0,0:0:0:0:
402,192,214476,1,0,0:0:0:100:Rim.wav
329,192,214540,1,0,0:0:0:100:Rim.wav
36,192,214604,1,0,0:0:0:50:drum-hitclap.wav
109,192,214604,1,0,0:0:0:0:
256,192,214604,1,0,0:0:0:100:Rim.wav
475,192,214604,1,0,0:0:0:50:drum-hitclap.wav
182,192,214732,1,0,0:0:0:0:
329,192,214732,1,0,0:0:0:0:
182,192,214860,1,0,0:0:0:90:Snare.wav
36,192,214860,1,0,0:0:0:90:drum-hitclap44.wav
475,192,214924,1,0,0:0:0:90:drum-hitclap44.wav
329,192,214924,1,0,0:0:0:90:Snare.wav
182,192,214988,1,0,0:0:0:90:Snare.wav
109,192,214988,1,0,0:0:0:90:drum-hitclap44.wav
475,192,215052,1,0,0:0:0:90:drum-hitclap44.wav
329,192,215052,1,0,0:0:0:90:Snare.wav
256,192,215117,1,0,0:0:0:50:drum-hitclap.wav
182,192,215117,1,0,0:0:0:90:Snare.wav
36,192,215117,1,0,0:0:0:90:drum-hitclap44.wav
109,192,215245,1,0,0:0:0:90:drum-hitclap.wav
36,192,215245,1,0,0:0:0:90:drum-hitclap44.wav
475,192,215309,1,0,0:0:0:90:drum-hitclap44.wav
402,192,215309,1,0,0:0:0:90:drum-hitclap.wav
329,192,215373,1,0,0:0:0:0:
256,192,215373,1,0,0:0:0:0:
36,192,215373,1,0,0:0:0:90:drum-hitclap44.wav
109,192,215373,1,0,0:0:0:90:drum-hitclap.wav
182,192,215501,1,0,0:0:0:0:
329,192,215501,1,0,0:0:0:0:
36,192,215501,1,0,0:0:0:0:
329,192,215629,1,0,0:0:0:0:
256,192,215629,1,0,0:0:0:0:
36,192,215629,1,0,0:0:0:0:
182,192,215758,1,0,0:0:0:0:
109,192,215758,1,0,0:0:0:0:
402,192,215758,1,0,0:0:0:0:
475,192,215758,1,0,0:0:0:0:
329,192,215886,1,0,0:0:0:0:
182,192,215886,1,0,0:0:0:0:
475,192,215886,1,0,0:0:0:0:
182,192,216014,1,0,0:0:0:0:
475,192,216014,1,0,0:0:0:0:
256,192,216014,1,0,0:0:0:0:
182,192,216142,1,0,0:0:0:0:
329,192,216142,1,0,0:0:0:0:
475,192,216142,1,0,0:0:0:90:drum-hitclap.wav
36,192,216142,1,0,0:0:0:0:
256,192,216206,1,0,0:0:0:90:drum-hitclap.wav
402,192,216270,1,0,0:0:0:90:drum-hitclap.wav
256,192,216335,1,0,0:0:0:90:drum-hitclap.wav
182,192,216399,1,0,0:0:0:0:
329,192,216399,1,0,0:0:0:0:
36,192,216399,1,0,0:0:0:100:drum-hitclap44.wav
475,192,216399,1,0,0:0:0:90:drum-hitclap.wav
256,192,216527,1,0,0:0:0:0:
36,192,216655,1,0,0:0:0:0:
402,192,216655,1,0,0:0:0:0:
109,192,216655,1,0,0:0:0:100:drum-hitclap44.wav
475,192,216655,1,0,0:0:0:65:drum.wav
329,192,216783,1,0,0:0:0:0:
182,192,216783,1,0,0:0:0:0:
256,192,216911,1,0,0:0:0:65:drum.wav
109,192,216911,1,0,0:0:0:100:drum-hitclap44.wav
36,192,217040,1,0,0:0:0:0:
329,192,217040,1,0,0:0:0:0:
182,192,217168,1,0,0:0:0:0:
475,192,217168,1,0,0:0:0:65:drum.wav
109,192,217168,1,0,0:0:0:100:drum-hitclap44.wav
329,192,217296,1,0,0:0:0:0:
256,192,217296,1,0,0:0:0:0:
475,192,217424,1,0,0:0:0:0:
109,192,217424,1,0,0:0:0:0:
182,192,217424,1,0,0:0:0:100:drum-hitclap44.wav
36,192,217424,1,0,0:0:0:65:drum.wav
329,192,217552,1,0,0:0:0:0:
402,192,217552,1,0,0:0:0:0:
109,192,217681,1,0,0:0:0:0:
256,192,217681,1,0,0:0:0:65:drum.wav
182,192,217681,1,0,0:0:0:100:drum-hitclap44.wav
329,192,217809,1,0,0:0:0:0:
475,192,217809,1,0,0:0:0:0:
36,192,217937,1,0,0:0:0:0:
256,192,217937,1,0,0:0:0:65:drum.wav
182,192,217937,1,0,0:0:0:100:drum-hitclap44.wav
329,192,218065,1,0,0:0:0:0:
402,192,218065,1,0,0:0:0:0:
36,192,218194,1,0,0:0:0:0:
182,192,218194,1,0,0:0:0:100:drum-hitclap44.wav
475,192,218194,1,0,0:0:0:65:drum.wav
256,192,218322,1,0,0:0:0:0:
402,192,218322,1,0,0:0:0:0:
329,192,218450,1,0,0:0:0:0:
475,192,218450,1,0,0:0:0:0:
182,192,218450,1,0,0:0:0:65:drum.wav
109,192,218450,1,0,0:0:0:100:drum-hitclap44.wav
256,192,218578,1,0,0:0:0:0:
402,192,218578,1,0,0:0:0:0:
182,192,218706,1,0,0:0:0:0:
109,192,218706,1,0,0:0:0:0:
36,192,218706,1,0,0:0:0:65:drum.wav
329,192,218706,1,0,0:0:0:100:drum-hitclap44.wav
475,192,218835,1,0,0:0:0:0:
402,192,218835,1,0,0:0:0:0:
256,192,218963,1,0,0:0:0:65:drum.wav
329,192,218963,1,0,0:0:0:100:drum-hitclap44.wav
36,192,219027,1,0,0:0:0:0:
109,192,219027,1,0,0:0:0:0:
182,192,219091,1,0,0:0:0:0:
402,192,219091,1,0,0:0:0:0:
256,192,219219,1,0,0:0:0:0:
109,192,219219,1,0,0:0:0:0:
36,192,219219,1,0,0:0:0:65:drum.wav
475,192,219219,1,0,0:0:0:100:drum-hitclap44.wav
329,192,219347,1,0,0:0:0:0:
182,192,219347,1,0,0:0:0:0:
402,192,219476,1,0,0:0:0:0:
36,192,219476,1,0,0:0:0:0:
256,192,219476,1,0,0:0:0:100:drum-hitclap44.wav
475,192,219476,1,0,0:0:0:65:drum.wav
329,192,219604,1,0,0:0:0:0:
182,192,219604,1,0,0:0:0:0:
402,192,219732,1,0,0:0:0:0:
36,192,219732,1,0,0:0:0:65:drum.wav
256,192,219732,1,0,0:0:0:100:drum-hitclap44.wav
329,192,219860,1,0,0:0:0:0:
109,192,219860,1,0,0:0:0:0:
182,192,219988,1,0,0:0:0:0:
475,192,219988,1,0,0:0:0:65:drum.wav
256,192,219988,1,0,0:0:0:100:drum-hitclap44.wav
329,192,220117,1,0,0:0:0:0:
109,192,220117,1,0,0:0:0:0:
36,192,220245,1,0,0:0:0:0:
475,192,220245,1,0,0:0:0:0:
182,192,220245,1,0,0:0:0:100:drum-hitclap44.wav
329,192,220245,1,0,0:0:0:65:drum.wav
109,192,220373,1,0,0:0:0:0:
256,192,220373,1,0,0:0:0:0:
402,192,220501,1,0,0:0:0:0:
475,192,220501,1,0,0:0:0:0:
329,192,220501,1,0,0:0:0:0:
182,192,220501,1,0,0:0:0:100:drum-hitclap44.wav
36,192,220501,1,0,0:0:0:0:
109,192,220629,1,0,0:0:0:0:
256,192,220629,1,0,0:0:0:0:
402,192,220758,1,0,0:0:0:0:
329,192,220758,1,0,0:0:0:0:
36,192,220758,1,0,0:0:0:0:
109,192,220758,1,0,0:0:0:100:drum-hitclap44.wav
475,192,220758,1,0,0:0:0:65:drum.wav
256,192,220886,1,0,0:0:0:0:
329,192,220950,1,0,0:0:0:0:
182,192,221014,1,0,0:0:0:65:drum.wav
109,192,221014,1,0,0:0:0:100:drum-hitclap44.wav
256,192,221078,1,0,0:0:0:0:
36,192,221142,1,0,0:0:0:0:
329,192,221142,1,0,0:0:0:0:
256,192,221206,1,0,0:0:0:0:
182,192,221270,1,0,0:0:0:0:
402,192,221270,1,0,0:0:0:0:
475,192,221270,1,0,0:0:0:65:drum.wav
109,192,221270,1,0,0:0:0:100:drum-hitclap44.wav
256,192,221399,1,0,0:0:0:0:
329,192,221399,1,0,0:0:0:0:
109,192,221527,1,0,0:0:0:0:
36,192,221527,1,0,0:0:0:0:
182,192,221527,1,0,0:0:0:65:drum.wav
475,192,221527,1,0,0:0:0:100:drum-hitclap44.wav
256,192,221612,1,0,0:0:0:0:
402,192,221655,1,0,0:0:0:0:
109,192,221698,1,0,0:0:0:0:
36,192,221783,1,0,0:0:0:0:
182,192,221783,1,0,0:0:0:0:
329,192,221783,1,0,0:0:0:100:drum-hitclap44.wav
109,192,221869,1,0,0:0:0:0:
402,192,221911,1,0,0:0:0:0:
256,192,221954,1,0,0:0:0:0:
329,192,222040,1,0,0:0:0:0:
475,192,222040,1,0,0:0:0:100:drum-hitclap44.wav
182,192,222040,1,0,0:0:0:65:drum.wav
402,192,222125,1,0,0:0:0:0:
256,192,222168,1,0,0:0:0:0:
109,192,222211,1,0,0:0:0:0:
182,192,222296,1,0,0:0:0:0:
475,192,222296,1,0,0:0:0:0:
329,192,222296,1,0,0:0:0:100:drum-hitclap44.wav
36,192,222382,1,0,0:0:0:0:
256,192,222424,1,0,0:0:0:0:
109,192,222467,1,0,0:0:0:0:
475,192,222552,1,0,0:0:0:65:drum.wav
36,192,222552,1,0,0:0:0:100:drum-hitclap44.wav
182,192,222617,1,0,0:0:0:30:drum-hitclap.wav
329,192,222681,1,0,0:0:0:30:drum-hitclap.wav
182,192,222745,1,0,0:0:0:30:drum-hitclap.wav
402,192,222809,1,0,0:0:0:65:drum.wav
109,192,222809,1,0,0:0:0:100:drum-hitclap44.wav
36,192,222873,1,0,0:0:0:30:drum-hitclap.wav
256,192,222937,1,0,0:0:0:30:drum-hitclap.wav
475,192,223001,1,0,0:0:0:30:drum-hitclap.wav
109,192,223065,1,0,0:0:0:0:
402,192,223065,1,0,0:0:0:100:drum-hitclap44.wav
329,192,223065,1,0,0:0:0:65:drum.wav
182,192,223129,1,0,0:0:0:0:
475,192,223129,1,0,0:0:0:30:drum-hitclap.wav
256,192,223194,1,0,0:0:0:30:drum-hitclap.wav
329,192,223258,1,0,0:0:0:0:
36,192,223258,1,0,0:0:0:30:drum-hitclap.wav
402,192,223322,1,0,0:0:0:0:
109,192,223322,1,0,0:0:0:100:drum-hitclap44.wav
182,192,223322,1,0,0:0:0:65:drum.wav
329,192,223386,1,0,0:0:0:0:
36,192,223386,1,0,0:0:0:30:drum-hitclap.wav
256,192,223450,1,0,0:0:0:30:drum-hitclap.wav
182,192,223514,1,0,0:0:0:30:drum-hitclap.wav
329,192,223578,1,0,0:0:0:0:
109,192,223578,1,0,0:0:0:0:
36,192,223578,1,0,0:0:0:0:
402,192,223578,1,0,0:0:0:0:
475,192,223578,1,0,0:0:0:0:
256,192,223706,1,0,0:0:0:0:
182,192,223706,1,0,0:0:0:0:
402,192,223835,1,0,0:0:0:0:
329,192,223835,1,0,0:0:0:0:
109,192,223835,1,0,0:0:0:0:
182,192,223899,1,0,0:0:0:0:
402,192,223963,1,0,0:0:0:0:
256,192,223963,1,0,0:0:0:0:
329,192,224027,1,0,0:0:0:0:
182,192,224027,1,0,0:0:0:0:
475,192,224091,1,0,0:0:0:0:
402,192,224091,1,0,0:0:0:0:
36,192,224091,1,0,0:0:0:0:
109,192,224091,1,0,0:0:0:0:
182,192,224155,1,0,0:0:0:0:
256,192,224219,1,0,0:0:0:0:
182,192,224283,1,0,0:0:0:0:
475,192,224347,1,0,0:0:0:0:
109,192,224347,1,0,0:0:0:0:
182,192,224411,1,0,0:0:0:0:
402,192,224433,1,0,0:0:0:0:
256,192,224476,1,0,0:0:0:0:
329,192,224518,1,0,0:0:0:0:
475,192,224604,1,0,0:0:0:0:
36,192,224604,1,0,0:0:0:0:
402,192,224604,1,0,0:0:0:0:
109,192,224604,1,0,0:0:0:0:
256,192,224604,1,0,0:0:0:0:
329,192,224732,1,0,0:0:0:0:
109,192,224732,1,0,0:0:0:100:Rim.wav
182,192,224796,1,0,0:0:0:0:
329,192,224860,1,0,0:0:0:0:
109,192,224860,1,0,0:0:0:100:Rim.wav
256,192,224988,1,0,0:0:0:0:
182,192,225117,1,0,0:0:0:0:
402,192,225117,1,0,0:0:0:100:Rim.wav
329,192,225181,1,0,0:0:0:0:
182,192,225245,1,0,0:0:0:0:
402,192,225245,1,0,0:0:0:100:Rim.wav
256,192,225373,1,0,0:0:0:0:
109,192,225501,1,0,0:0:0:0:
182,192,225501,1,0,0:0:0:0:
329,192,225629,1,0,0:0:0:100:drum-hitclap44.wav
36,192,225629,1,0,0:0:0:65:drum.wav
329,192,225758,1,0,0:0:0:100:drum-hitclap44.wav
36,192,225758,1,0,0:0:0:65:drum.wav
329,192,225886,1,0,0:0:0:100:drum-hitclap44.wav
36,192,225886,1,0,0:0:0:65:drum.wav
109,192,226014,1,0,0:0:0:65:drum.wav
402,192,226014,1,0,0:0:0:100:drum-hitclap44.wav
475,192,226142,1,0,0:0:0:65:drum.wav
182,192,226142,1,0,0:0:0:100:drum-hitclap44.wav
475,192,226270,1,0,0:0:0:65:drum.wav
182,192,226270,1,0,0:0:0:100:drum-hitclap44.wav
475,192,226399,1,0,0:0:0:65:drum.wav
182,192,226399,1,0,0:0:0:100:drum-hitclap44.wav
109,192,226527,1,0,0:0:0:0:
402,192,226527,1,0,0:0:0:65:drum.wav
256,192,226527,1,0,0:0:0:100:drum-hitclap44.wav
182,192,226591,1,0,0:0:0:0:
475,192,226655,1,0,0:0:0:65:drum-hitclap.wav
109,192,226655,1,0,0:0:0:0:
36,192,226655,1,0,0:0:0:0:
329,192,226655,1,0,0:0:0:65:bd-03.wav
182,192,226783,1,0,0:0:0:0:
402,192,226783,1,0,0:0:0:100:Rim.wav
329,192,226847,1,0,0:0:0:0:
36,192,226911,1,0,0:0:0:0:
402,192,226911,1,0,0:0:0:100:Rim.wav
182,192,226911,1,0,0:0:0:0:
402,192,227040,1,0,0:0:0:0:
256,192,227040,1,0,0:0:0:0:
475,192,227168,1,0,0:0:0:0:
109,192,227168,1,0,0:0:0:100:Rim.wav
329,192,227168,1,0,0:0:0:0:
182,192,227232,1,0,0:0:0:0:
329,192,227296,1,0,0:0:0:0:
109,192,227296,1,0,0:0:0:100:Rim.wav
256,192,227424,1,0,0:0:0:65:bd03-4.wav
402,192,227488,1,0,0:0:0:65:bd03-4.wav
256,192,227552,1,0,0:0:0:65:bd03-4.wav
475,192,227617,1,0,0:0:0:65:bd03-4.wav
256,192,227681,1,0,0:0:0:65:drum.wav
36,192,227681,1,0,0:0:0:100:drum-hitclap44.wav
256,192,227809,1,0,0:0:0:65:drum.wav
36,192,227809,1,0,0:0:0:100:drum-hitclap44.wav
329,192,227937,1,0,0:0:0:65:drum.wav
36,192,227937,1,0,0:0:0:100:drum-hitclap44.wav
329,192,228065,1,0,0:0:0:100:drum-hitclap44.wav
109,192,228065,1,0,0:0:0:65:drum.wav
182,192,228129,1,0,0:0:0:65:drum.wav
256,192,228129,1,0,0:0:0:100:drum-hitclap44.wav
329,192,228194,1,0,0:0:0:100:drum-hitclap44.wav
109,192,228194,1,0,0:0:0:65:drum.wav
182,192,228322,1,0,0:0:0:100:drum-hitclap44.wav
475,192,228322,1,0,0:0:0:65:drum.wav
402,192,228450,1,0,0:0:0:65:drum.wav
182,192,228450,1,0,0:0:0:100:drum-hitclap44.wav
329,192,228514,1,0,0:0:0:65:drum.wav
256,192,228514,1,0,0:0:0:100:drum-hitclap44.wav
402,192,228578,1,0,0:0:0:65:drum.wav
182,192,228578,1,0,0:0:0:100:drum-hitclap44.wav
329,192,228642,1,0,0:0:0:65:drum.wav
256,192,228642,1,0,0:0:0:100:drum-hitclap44.wav
402,192,228706,1,0,0:0:0:0:
109,192,228706,1,0,0:0:0:0:
36,192,228706,1,0,0:0:0:65:drum-hitclap.wav
475,192,228706,1,0,0:0:0:0:
182,192,228706,1,0,0:0:0:65:bd03-3.wav
329,192,228835,1,0,0:0:0:0:
36,192,228835,1,0,0:0:0:65:drum.wav
109,192,228899,1,0,0:0:0:65:drum.wav
402,192,228963,1,0,0:0:0:0:
256,192,228963,1,0,0:0:0:0:
182,192,228963,1,0,0:0:0:65:drum.wav
182,192,229219,1,0,0:0:0:100:drum-hitclap44.wav
329,192,229219,1,0,0:0:0:65:drum.wav
329,192,229347,1,0,0:0:0:65:drum.wav
182,192,229347,1,0,0:0:0:100:drum-hitclap44.wav
329,192,229476,1,0,0:0:0:65:drum.wav
182,192,229476,1,0,0:0:0:100:drum-hitclap44.wav
329,192,229604,1,0,0:0:0:65:drum.wav
182,192,229604,1,0,0:0:0:100:drum-hitclap44.wav
109,192,229732,1,0,0:0:0:0:
256,192,229732,1,0,0:0:0:0:
329,192,229732,1,0,0:0:0:65:bd03-3.wav
36,192,229732,1,0,0:0:0:100:drum-hitclap44.wav
475,192,229732,1,0,0:0:0:65:drum-hitclap.wav
475,192,229860,1,0,0:0:0:65:drum.wav
402,192,229924,1,0,0:0:0:65:drum.wav
182,192,229988,1,0,0:0:0:0:
256,192,229988,1,0,0:0:0:0:
329,192,229988,1,0,0:0:0:65:drum.wav
475,192,230245,1,0,0:0:0:0:
402,192,230245,1,0,0:0:0:70:kick12.wav
256,192,230309,1,0,0:0:0:70:kick12.wav
402,192,230373,1,0,0:0:0:70:kick12.wav
256,192,230501,1,0,0:0:0:0:
182,192,230501,1,0,0:0:0:70:kick12.wav
36,192,230565,1,0,0:0:0:70:kick12.wav
182,192,230629,1,0,0:0:0:70:kick12.wav
36,192,230694,1,0,0:0:0:70:kick12.wav
402,192,230758,1,0,0:0:0:30:wosh.wav
475,192,230758,1,0,0:0:0:0:
182,192,230758,1,0,0:0:0:100:drum-hitclap44.wav
329,192,230758,1,0,0:0:0:65:drum.wav
109,192,230758,1,0,0:0:0:80:normal-hitfinish.wav
36,192,230886,1,0,0:0:0:100:Rim.wav
475,192,230886,1,0,0:0:0:100:drum-hitclap44.wav
109,192,230950,1,0,0:0:0:100:Rim.wav
402,192,230950,1,0,0:0:0:100:drum-hitclap44.wav
182,192,231014,1,0,0:0:0:65:Snare.wav
329,192,231014,1,0,0:0:0:100:Snare.wav
182,192,231142,1,0,0:0:0:65:Snare.wav
329,192,231142,1,0,0:0:0:100:Snare.wav
182,192,231270,1,0,0:0:0:65:Snare.wav
329,192,231270,1,0,0:0:0:100:Snare.wav
182,192,231399,1,0,0:0:0:65:Snare.wav
329,192,231399,1,0,0:0:0:100:Snare.wav
182,192,231527,1,0,0:0:0:65:drum-hitclap.wav
329,192,231527,1,0,0:0:0:100:Snare.wav
36,192,231591,1,0,0:0:0:65:drum-hitclap.wav
329,192,231655,1,0,0:0:0:100:Snare.wav
182,192,231655,1,0,0:0:0:65:drum-hitclap.wav
36,192,231719,1,0,0:0:0:65:drum-hitclap.wav
402,192,231783,1,0,0:0:0:0:
256,192,231783,1,0,0:0:0:0:
256,192,231911,1,0,0:0:0:0:
256,192,232040,1,0,0:0:0:0:
256,192,232168,1,0,0:0:0:0:
109,192,232296,1,0,0:0:0:0:
182,192,232296,1,0,0:0:0:25:drum-hitclap.wav
329,192,232360,1,0,0:0:0:25:drum-hitclap.wav
109,192,232424,1,0,0:0:0:0:
182,192,232424,1,0,0:0:0:25:drum-hitclap.wav
329,192,232488,1,0,0:0:0:25:drum-hitclap.wav
475,192,232552,1,0,0:0:0:0:
36,192,232552,1,0,0:0:0:25:drum-hitclap.wav
256,192,232552,1,0,0:0:0:40:normal-hitfinish.wav
256,192,232681,1,0,0:0:0:0:
475,192,232809,1,0,0:0:0:65:drum.wav
329,192,232809,1,0,0:0:0:100:drum-hitclap44.wav
36,192,232809,1,0,0:0:0:75:drum-hitclap.wav
402,192,232937,1,0,0:0:0:0:
109,192,232937,1,0,0:0:0:100:Rim.wav
256,192,232937,1,0,0:0:0:100:drum-hitclap44.wav
182,192,233001,1,0,0:0:0:100:Rim.wav
256,192,233065,1,0,0:0:0:100:drum-hitclap44.wav
475,192,233065,1,0,0:0:0:65:drum.wav
109,192,233065,1,0,0:0:0:100:Rim.wav
329,192,233194,1,0,0:0:0:100:drum-hitclap44.wav
36,192,233194,1,0,0:0:0:75:drum-hitclap.wav
402,192,233194,1,0,0:0:0:65:drum.wav
475,192,233322,1,0,0:0:0:0:
256,192,233322,1,0,0:0:0:100:drum-hitclap44.wav
109,192,233322,1,0,0:0:0:100:Rim.wav
182,192,233386,1,0,0:0:0:100:Rim.wav
256,192,233450,1,0,0:0:0:100:drum-hitclap44.wav
109,192,233450,1,0,0:0:0:100:Rim.wav
402,192,233450,1,0,0:0:0:65:drum.wav
36,192,233578,1,0,0:0:0:75:drum-hitclap.wav
475,192,233578,1,0,0:0:0:65:drum.wav
182,192,233578,1,0,0:0:0:100:drum-hitclap44.wav
109,192,233706,1,0,0:0:0:0:
402,192,233706,1,0,0:0:0:0:
329,192,233706,1,0,0:0:0:100:drum-hitclap44.wav
256,192,233770,1,0,0:0:0:100:drum-hitclap44.wav
329,192,233835,1,0,0:0:0:0:
36,192,233835,1,0,0:0:0:0:
475,192,233835,1,0,0:0:0:65:drum.wav
402,192,233963,1,0,0:0:0:100:drum-hitclap44.wav
182,192,233963,1,0,0:0:0:30:drum.wav
109,192,234091,1,0,0:0:0:30:drum.wav
475,192,234091,1,0,0:0:0:100:drum-hitclap44.wav
329,192,234219,1,0,0:0:0:55:drum.wav
182,192,234219,1,0,0:0:0:100:drum-hitclap44.wav
475,192,234283,1,0,0:0:0:55:drum.wav
36,192,234283,1,0,0:0:0:100:drum-hitclap44.wav
402,192,234347,1,0,0:0:0:65:drum.wav
109,192,234347,1,0,0:0:0:100:Snare.wav
402,192,234476,1,0,0:0:0:65:drum.wav
109,192,234476,1,0,0:0:0:100:Snare.wav
36,192,234604,1,0,0:0:0:40:drum-hitclap.wav
182,192,234604,1,0,0:0:0:40:drum-hitclap.wav
475,192,234668,1,0,0:0:0:40:drum-hitclap.wav
329,192,234668,1,0,0:0:0:40:drum-hitclap.wav
182,192,234732,1,0,0:0:0:40:drum-hitclap.wav
109,192,234732,1,0,0:0:0:40:drum-hitclap.wav
329,192,234796,1,0,0:0:0:40:drum-hitclap.wav
402,192,234796,1,0,0:0:0:40:drum-hitclap.wav
36,192,234860,1,0,0:0:0:65:drum.wav
182,192,234860,1,0,0:0:0:100:drum-hitclap44.wav
256,192,234860,1,0,0:0:0:75:drum-hitclap.wav
256,192,234988,1,0,0:0:0:0:
109,192,234988,1,0,0:0:0:100:drum-hitclap44.wav
475,192,234988,1,0,0:0:0:100:Rim.wav
329,192,235052,1,0,0:0:0:100:Rim.wav
182,192,235117,1,0,0:0:0:0:
475,192,235117,1,0,0:0:0:100:Rim.wav
36,192,235117,1,0,0:0:0:65:drum.wav
109,192,235245,1,0,0:0:0:0:
256,192,235245,1,0,0:0:0:100:drum-hitclap44.wav
402,192,235245,1,0,0:0:0:75:drum-hitclap.wav
36,192,235373,1,0,0:0:0:0:
475,192,235373,1,0,0:0:0:100:Rim.wav
182,192,235373,1,0,0:0:0:65:drum.wav
329,192,235437,1,0,0:0:0:100:Rim.wav
256,192,235501,1,0,0:0:0:0:
109,192,235501,1,0,0:0:0:0:
475,192,235501,1,0,0:0:0:100:Rim.wav
182,192,235629,1,0,0:0:0:0:
36,192,235629,1,0,0:0:0:65:drum.wav
402,192,235629,1,0,0:0:0:75:drum-hitclap.wav
475,192,235758,1,0,0:0:0:0:
36,192,235758,1,0,0:0:0:65:drum.wav
182,192,235758,1,0,0:0:0:100:drum-hitclap44.wav
329,192,235822,1,0,0:0:0:55:drum.wav
256,192,235822,1,0,0:0:0:100:drum-hitclap44.wav
402,192,235886,1,0,0:0:0:0:
109,192,235886,1,0,0:0:0:0:
475,192,235886,1,0,0:0:0:55:drum.wav
256,192,235971,1,0,0:0:0:0:
182,192,235971,1,0,0:0:0:0:
329,192,236014,1,0,0:0:0:0:
36,192,236057,1,0,0:0:0:0:
329,192,236142,1,0,0:0:0:0:
475,192,236142,1,0,0:0:0:0:
109,192,236142,1,0,0:0:0:0:
182,192,236142,1,0,0:0:0:0:
36,192,236228,1,0,0:0:0:0:
402,192,236270,1,0,0:0:0:0:
182,192,236313,1,0,0:0:0:0:
329,192,236335,1,0,0:0:0:0:
475,192,236399,1,0,0:0:0:0:
402,192,236399,1,0,0:0:0:0:
109,192,236399,1,0,0:0:0:0:
329,192,236463,1,0,0:0:0:0:
182,192,236484,1,0,0:0:0:0:
36,192,236527,1,0,0:0:0:0:
402,192,236527,1,0,0:0:0:0:
109,192,236591,1,0,0:0:0:0:
475,192,236655,1,0,0:0:0:0:
329,192,236655,1,0,0:0:0:0:
182,192,236655,1,0,0:0:0:100:drum-hitclap44.wav
182,192,236783,1,0,0:0:0:0:
329,192,236783,1,0,0:0:0:0:
475,192,236911,1,0,0:0:0:0:
36,192,236911,1,0,0:0:0:100:drum-hitclap44.wav
256,192,236911,1,0,0:0:0:65:drum.wav
109,192,237040,1,0,0:0:0:0:
182,192,237040,1,0,0:0:0:65:drum.wav
329,192,237040,1,0,0:0:0:100:Rim.wav
402,192,237104,1,0,0:0:0:0:
109,192,237168,1,0,0:0:0:0:
329,192,237168,1,0,0:0:0:100:Rim.wav
182,192,237168,1,0,0:0:0:65:drum.wav
36,192,237296,1,0,0:0:0:0:
256,192,237296,1,0,0:0:0:65:drum.wav
475,192,237296,1,0,0:0:0:100:drum-hitclap44.wav
402,192,237424,1,0,0:0:0:0:
329,192,237424,1,0,0:0:0:65:drum.wav
182,192,237424,1,0,0:0:0:100:Rim.wav
109,192,237488,1,0,0:0:0:0:
402,192,237552,1,0,0:0:0:0:
329,192,237552,1,0,0:0:0:65:drum.wav
182,192,237552,1,0,0:0:0:100:Rim.wav
256,192,237681,1,0,0:0:0:75:drum-hitclap.wav
109,192,237681,1,0,0:0:0:100:drum-hitclap44.wav
402,192,237681,1,0,0:0:0:65:drum.wav
475,192,237809,1,0,0:0:0:65:drum.wav
329,192,237809,1,0,0:0:0:75:drum-hitclap.wav
36,192,237809,1,0,0:0:0:100:drum-hitclap44.wav
256,192,237873,1,0,0:0:0:65:drum.wav
182,192,237937,1,0,0:0:0:0:
402,192,237937,1,0,0:0:0:40:bd03-4.wav
329,192,238001,1,0,0:0:0:40:bd03-4.wav
109,192,238001,1,0,0:0:0:40:bd03-4.wav
182,192,238065,1,0,0:0:0:0:
402,192,238065,1,0,0:0:0:40:bd03-4.wav
329,192,238129,1,0,0:0:0:40:bd03-4.wav
109,192,238129,1,0,0:0:0:40:bd03-4.wav
475,192,238194,1,0,0:0:0:100:drum-hitclap44.wav
256,192,238194,1,0,0:0:0:55:drum.wav
36,192,238194,1,0,0:0:0:75:drum-hitclap.wav
329,192,238322,1,0,0:0:0:0:
182,192,238322,1,0,0:0:0:0:
402,192,238386,1,0,0:0:0:0:
109,192,238386,1,0,0:0:0:40:drum-hitclap.wav
475,192,238450,1,0,0:0:0:0:
256,192,238450,1,0,0:0:0:0:
36,192,238450,1,0,0:0:0:0:
109,192,238578,1,0,0:0:0:0:
402,192,238578,1,0,0:0:0:0:
182,192,238578,1,0,0:0:0:80:Snare.wav
329,192,238578,1,0,0:0:0:80:Snare.wav
256,192,238706,1,0,0:0:0:0:
475,192,238706,1,0,0:0:0:40:drum-hitclap.wav
36,192,238706,1,0,0:0:0:40:drum-hitclap.wav
402,192,238770,1,0,0:0:0:40:drum-hitclap.wav
109,192,238770,1,0,0:0:0:40:drum-hitclap.wav
329,192,238835,1,0,0:0:0:0:
182,192,238835,1,0,0:0:0:0:
402,192,238899,1,0,0:0:0:0:
109,192,238899,1,0,0:0:0:0:
256,192,238963,1,0,0:0:0:65:drum.wav
475,192,238963,1,0,0:0:0:75:drum-hitclap.wav
36,192,238963,1,0,0:0:0:100:drum-hitclap44.wav
109,192,239091,1,0,0:0:0:0:
402,192,239091,1,0,0:0:0:0:
182,192,239091,1,0,0:0:0:65:drum.wav
329,192,239155,1,0,0:0:0:100:Rim.wav
402,192,239219,1,0,0:0:0:100:Rim.wav
36,192,239219,1,0,0:0:0:100:drum-hitclap44.wav
182,192,239219,1,0,0:0:0:65:drum.wav
256,192,239347,1,0,0:0:0:65:drum.wav
109,192,239347,1,0,0:0:0:75:drum-hitclap.wav
475,192,239347,1,0,0:0:0:100:drum-hitclap44.wav
402,192,239476,1,0,0:0:0:0:
182,192,239476,1,0,0:0:0:0:
329,192,239476,1,0,0:0:0:65:drum.wav
109,192,239540,1,0,0:0:0:0:
182,192,239604,1,0,0:0:0:0:
329,192,239604,1,0,0:0:0:65:drum.wav
475,192,239604,1,0,0:0:0:100:drum-hitclap44.wav
402,192,239732,1,0,0:0:0:100:drum-hitclap44.wav
182,192,239732,1,0,0:0:0:65:drum.wav
36,192,239732,1,0,0:0:0:75:drum-hitclap.wav
475,192,239860,1,0,0:0:0:65:drum.wav
109,192,239860,1,0,0:0:0:75:drum-hitclap.wav
256,192,239860,1,0,0:0:0:100:drum-hitclap44.wav
329,192,239924,1,0,0:0:0:75:drum-hitclap.wav
475,192,239988,1,0,0:0:0:0:
36,192,239988,1,0,0:0:0:0:
109,192,240020,1,0,0:0:0:0:
402,192,240031,1,0,0:0:0:0:
182,192,240052,1,0,0:0:0:0:
329,192,240074,1,0,0:0:0:0:
36,192,240117,1,0,0:0:0:0:
256,192,240117,1,0,0:0:0:0:
109,192,240149,1,0,0:0:0:0:
182,192,240181,1,0,0:0:0:0:
329,192,240213,1,0,0:0:0:0:
256,192,240245,1,0,0:0:0:0:
475,192,240245,1,0,0:0:0:0:
402,192,240245,1,0,0:0:0:65:drum.wav
475,192,240373,1,0,0:0:0:0:
402,192,240373,1,0,0:0:0:0:
36,192,240373,1,0,0:0:0:75:drum-hitclap.wav
182,192,240437,1,0,0:0:0:40:drum-hitclap.wav
329,192,240437,1,0,0:0:0:40:drum-hitclap.wav
109,192,240501,1,0,0:0:0:0:
475,192,240501,1,0,0:0:0:0:
36,192,240501,1,0,0:0:0:0:
256,192,240629,1,0,0:0:0:0:
402,192,240758,1,0,0:0:0:0:
109,192,240758,1,0,0:0:0:0:
256,192,240758,1,0,0:0:0:0:
182,192,240758,1,0,0:0:0:0:
329,192,240758,1,0,0:0:0:0:
256,192,240886,1,0,0:0:0:0:
329,192,241014,1,0,0:0:0:60:drum-hitclap.wav
475,192,241014,1,0,0:0:0:0:
36,192,241014,1,0,0:0:0:100:drum-hitclap44.wav
109,192,241014,1,0,0:0:0:60:drum.wav
182,192,241014,1,0,0:0:0:60:cym-02.wav
256,192,241142,1,0,0:0:0:60:cym-02.wav
402,192,241142,1,0,0:0:0:60:drum-hitclap.wav
36,192,241142,1,0,0:0:0:100:drum-hitclap44.wav
109,192,241142,1,0,0:0:0:60:drum.wav
329,192,241270,1,0,0:0:0:60:cym-02.wav
475,192,241270,1,0,0:0:0:60:drum-hitclap.wav
109,192,241270,1,0,0:0:0:60:drum.wav
36,192,241270,1,0,0:0:0:100:drum-hitclap44.wav
182,192,241399,1,0,0:0:0:60:drum-hitclap.wav
329,192,241399,1,0,0:0:0:60:cym-02.wav
475,192,241399,1,0,0:0:0:100:drum-hitclap44.wav
402,192,241399,1,0,0:0:0:60:drum.wav
109,192,241527,1,0,0:0:0:60:drum-hitclap.wav
256,192,241527,1,0,0:0:0:60:cym-02.wav
402,192,241527,1,0,0:0:0:60:drum.wav
475,192,241527,1,0,0:0:0:100:drum-hitclap44.wav
36,192,241655,1,0,0:0:0:60:drum-hitclap.wav
182,192,241655,1,0,0:0:0:60:cym-02.wav
402,192,241655,1,0,0:0:0:60:drum.wav
475,192,241655,1,0,0:0:0:100:drum-hitclap44.wav
329,192,241783,1,0,0:0:0:60:cym-02.wav
256,192,241783,1,0,0:0:0:60:drum-hitclap.wav
36,192,241783,1,0,0:0:0:100:drum-hitclap44.wav
109,192,241783,1,0,0:0:0:60:drum.wav
182,192,241911,1,0,0:0:0:0:
402,192,241911,1,0,0:0:0:60:drum.wav
475,192,241911,1,0,0:0:0:100:drum-hitclap44.wav
329,192,241976,1,0,0:0:0:0:
256,192,241976,1,0,0:0:0:60:drum-hitclap.wav
109,192,242040,1,0,0:0:0:0:
36,192,242040,1,0,0:0:0:0:
402,192,242040,1,0,0:0:0:60:drum.wav
475,192,242040,1,0,0:0:0:100:drum-hitclap44.wav
329,192,242168,1,0,0:0:0:0:
256,192,242168,1,0,0:0:0:60:drum-hitclap.wav
182,192,242168,1,0,0:0:0:60:cym-02.wav
475,192,242296,1,0,0:0:0:60:cym-02.wav
402,192,242296,1,0,0:0:0:0:
256,192,242296,1,0,0:0:0:60:drum-hitclap.wav
109,192,242296,1,0,0:0:0:60:drum.wav
36,192,242296,1,0,0:0:0:100:drum-hitclap44.wav
329,192,242424,1,0,0:0:0:60:drum-hitclap.wav
182,192,242424,1,0,0:0:0:0:
36,192,242424,1,0,0:0:0:100:drum-hitclap44.wav
109,192,242424,1,0,0:0:0:60:drum.wav
402,192,242488,1,0,0:0:0:0:
256,192,242488,1,0,0:0:0:0:
36,192,242552,1,0,0:0:0:0:
475,192,242552,1,0,0:0:0:0:
329,192,242552,1,0,0:0:0:0:
109,192,242595,1,0,0:0:0:0:
182,192,242638,1,0,0:0:0:0:
256,192,242681,1,0,0:0:0:0:
329,192,242713,1,0,0:0:0:0:
402,192,242745,1,0,0:0:0:0:
475,192,242777,1,0,0:0:0:0:
36,192,242809,1,0,0:0:0:0:
109,192,242841,1,0,0:0:0:0:
182,192,242873,1,0,0:0:0:0:
256,192,242894,1,0,0:0:0:0:
329,192,242916,1,0,0:0:0:0:
402,192,242937,1,0,0:0:0:0:
36,192,243065,1,0,0:0:0:60:drum-hitclap.wav
475,192,243065,1,0,0:0:0:60:drum.wav
182,192,243065,1,0,0:0:0:100:drum-hitclap44.wav
329,192,243065,1,0,0:0:0:60:cym-02.wav
109,192,243194,1,0,0:0:0:60:drum-hitclap.wav
402,192,243194,1,0,0:0:0:60:drum.wav
182,192,243194,1,0,0:0:0:100:drum-hitclap44.wav
329,192,243194,1,0,0:0:0:60:cym-02.wav
182,192,243322,1,0,0:0:0:100:drum-hitclap44.wav
329,192,243322,1,0,0:0:0:60:cym-02.wav
36,192,243322,1,0,0:0:0:60:drum-hitclap.wav
475,192,243322,1,0,0:0:0:60:drum.wav
402,192,243450,1,0,0:0:0:60:cym-02.wav
475,192,243450,1,0,0:0:0:60:drum.wav
36,192,243450,1,0,0:0:0:60:drum-hitclap.wav
109,192,243450,1,0,0:0:0:100:drum-hitclap44.wav
36,192,243578,1,0,0:0:0:60:drum-hitclap.wav
475,192,243578,1,0,0:0:0:60:drum.wav
182,192,243578,1,0,0:0:0:100:drum-hitclap44.wav
329,192,243578,1,0,0:0:0:60:cym-02.wav
329,192,243706,1,0,0:0:0:60:cym-02.wav
402,192,243706,1,0,0:0:0:60:drum.wav
109,192,243706,1,0,0:0:0:60:drum-hitclap.wav
182,192,243706,1,0,0:0:0:100:drum-hitclap44.wav
182,192,243835,1,0,0:0:0:100:drum-hitclap44.wav
329,192,243835,1,0,0:0:0:60:cym-02.wav
36,192,243835,1,0,0:0:0:60:drum-hitclap.wav
475,192,243835,1,0,0:0:0:60:drum.wav
402,192,243963,1,0,0:0:0:60:cym-02.wav
475,192,243963,1,0,0:0:0:60:drum.wav
36,192,243963,1,0,0:0:0:60:drum-hitclap.wav
109,192,243963,1,0,0:0:0:100:drum-hitclap44.wav
256,192,244027,1,0,0:0:0:60:drum-hitclap.wav
182,192,244091,1,0,0:0:0:60:drum-hitclap.wav
329,192,244091,1,0,0:0:0:60:drum-hitclap.wav
182,192,244219,1,0,0:0:0:60:drum-hitclap.wav
329,192,244219,1,0,0:0:0:60:drum-hitclap.wav
109,192,244347,1,0,0:0:0:0:
402,192,244347,1,0,0:0:0:0:
256,192,244347,1,0,0:0:0:60:bd03-4.wav
36,192,244347,1,0,0:0:0:60:bd03-4.wav
475,192,244347,1,0,0:0:0:60:bd03-4.wav
329,192,244476,1,0,0:0:0:20:bd03-3.wav
182,192,244476,1,0,0:0:0:20:bd03-3.wav
109,192,244540,1,0,0:0:0:20:bd03-3.wav
402,192,244540,1,0,0:0:0:20:bd03-3.wav
36,192,244604,1,0,0:0:0:40:normal-hitfinish.wav
256,192,244604,1,0,0:0:0:40:normal-hitfinish.wav
475,192,244668,1,0,0:0:0:40:normal-hitfinish.wav
109,192,244668,1,0,0:0:0:40:normal-hitfinish.wav
402,192,244732,1,0,0:0:0:40:normal-hitfinish.wav
256,192,244732,1,0,0:0:0:40:normal-hitfinish.wav
329,192,244796,1,0,0:0:0:40:normal-hitfinish.wav
182,192,244796,1,0,0:0:0:40:normal-hitfinish.wav
109,192,244860,1,0,0:0:0:0:
475,192,244860,1,0,0:0:0:40:drum-hitclap.wav
36,192,244860,1,0,0:0:0:40:drum-hitclap.wav
256,192,244988,1,0,0:0:0:0:
36,192,244988,1,0,0:0:0:40:drum-hitclap.wav
329,192,245052,1,0,0:0:0:40:drum-hitclap.wav
109,192,245052,1,0,0:0:0:40:drum-hitclap.wav
402,192,245117,1,0,0:0:0:60:drum.wav
256,192,245117,1,0,0:0:0:60:cym-02.wav
182,192,245117,1,0,0:0:0:100:drum-hitclap44.wav
475,192,245117,1,0,0:0:0:60:drum-hitclap.wav
475,192,245245,1,0,0:0:0:60:drum-hitclap.wav
109,192,245245,1,0,0:0:0:60:cym-02.wav
36,192,245245,1,0,0:0:0:100:drum-hitclap44.wav
402,192,245245,1,0,0:0:0:60:drum.wav
182,192,245309,1,0,0:0:0:100:Rim.wav
36,192,245373,1,0,0:0:0:100:drum-hitclap44.wav
109,192,245373,1,0,0:0:0:60:cym-02.wav
402,192,245373,1,0,0:0:0:60:drum.wav
475,192,245373,1,0,0:0:0:60:drum-hitclap.wav
182,192,245501,1,0,0:0:0:100:drum-hitclap44.wav
329,192,245501,1,0,0:0:0:60:drum.wav
256,192,245501,1,0,0:0:0:60:cym-02.wav
475,192,245629,1,0,0:0:0:60:drum.wav
402,192,245629,1,0,0:0:0:60:cym-02.wav
109,192,245629,1,0,0:0:0:60:drum-hitclap.wav
36,192,245629,1,0,0:0:0:100:drum-hitclap44.wav
329,192,245694,1,0,0:0:0:100:Rim.wav
402,192,245758,1,0,0:0:0:60:cym-02.wav
475,192,245758,1,0,0:0:0:60:drum.wav
36,192,245758,1,0,0:0:0:100:drum-hitclap44.wav
109,192,245758,1,0,0:0:0:60:drum-hitclap.wav
329,192,245886,1,0,0:0:0:100:drum-hitclap44.wav
256,192,245886,1,0,0:0:0:60:cym-02.wav
182,192,245886,1,0,0:0:0:60:drum.wav
36,192,246014,1,0,0:0:0:0:
475,192,246014,1,0,0:0:0:60:drum-hitclap.wav
109,192,246078,1,0,0:0:0:70:drum.wav
256,192,246078,1,0,0:0:0:60:drum-hitclap.wav
475,192,246142,1,0,0:0:0:60:drum-hitclap.wav
36,192,246142,1,0,0:0:0:70:drum.wav
402,192,246142,1,0,0:0:0:0:
329,192,246206,1,0,0:0:0:60:drum-hitclap.wav
182,192,246206,1,0,0:0:0:70:drum.wav
109,192,246270,1,0,0:0:0:0:
475,192,246270,1,0,0:0:0:60:drum-hitclap.wav
402,192,246335,1,0,0:0:0:70:drum.wav
256,192,246335,1,0,0:0:0:60:drum-hitclap.wav
182,192,246399,1,0,0:0:0:0:
36,192,246399,1,0,0:0:0:70:drum.wav
475,192,246463,1,0,0:0:0:0:
329,192,246463,1,0,0:0:0:60:drum-hitclap.wav
256,192,246527,1,0,0:0:0:0:
109,192,246527,1,0,0:0:0:0:
182,192,246591,1,0,0:0:0:70:drum.wav
329,192,246591,1,0,0:0:0:60:drum-hitclap.wav
402,192,246655,1,0,0:0:0:0:
256,192,246655,1,0,0:0:0:0:
109,192,246655,1,0,0:0:0:0:
36,192,246655,1,0,0:0:0:70:drum.wav
475,192,246655,1,0,0:0:0:60:drum.wav
36,192,247168,1,0,0:0:0:0:
475,192,247168,1,0,0:0:0:0:
256,192,247168,1,0,0:0:0:100:drum-hitclap44.wav
182,192,247168,1,0,0:0:0:0:
329,192,247168,1,0,0:0:0:0:
475,192,247296,1,0,0:0:0:40:drum-hitclap.wav
109,192,247296,1,0,0:0:0:40:drum-hitclap.wav
402,192,247360,1,0,0:0:0:40:drum-hitclap.wav
182,192,247360,1,0,0:0:0:40:drum-hitclap.wav
256,192,247424,1,0,0:0:0:40:drum-hitclap.wav
36,192,247424,1,0,0:0:0:100:drum-hitclap44.wav
329,192,247424,1,0,0:0:0:40:drum-hitclap.wav
475,192,247552,1,0,0:0:0:70:drum-hitclap.wav
329,192,247552,1,0,0:0:0:0:
109,192,247552,1,0,0:0:0:70:drum.wav
182,192,247552,1,0,0:0:0:0:
402,192,247681,1,0,0:0:0:40:drum-hitclap.wav
36,192,247681,1,0,0:0:0:40:drum-hitclap.wav
109,192,247745,1,0,0:0:0:40:drum-hitclap.wav
329,192,247745,1,0,0:0:0:40:drum-hitclap.wav
475,192,247809,1,0,0:0:0:100:drum-hitclap44.wav
182,192,247809,1,0,0:0:0:40:drum-hitclap.wav
256,192,247809,1,0,0:0:0:40:drum-hitclap.wav
402,192,247937,1,0,0:0:0:70:drum-hitclap.wav
182,192,247937,1,0,0:0:0:0:
36,192,247937,1,0,0:0:0:70:drum.wav
329,192,247937,1,0,0:0:0:0:
475,192,248065,1,0,0:0:0:0:
256,192,248065,1,0,0:0:0:0:
109,192,248065,1,0,0:0:0:70:drum.wav
256,192,248194,1,0,0:0:0:0:
182,192,248194,1,0,0:0:0:40:drum-hitclap.wav
36,192,248194,1,0,0:0:0:40:drum-hitclap.wav
329,192,248258,1,0,0:0:0:40:drum-hitclap.wav
475,192,248258,1,0,0:0:0:40:drum-hitclap.wav
182,192,248322,1,0,0:0:0:40:drum-hitclap.wav
36,192,248322,1,0,0:0:0:40:drum-hitclap.wav
402,192,248386,1,0,0:0:0:40:drum-hitclap.wav
109,192,248450,1,0,0:0:0:40:drum-hitclap.wav
402,192,248514,1,0,0:0:0:0:
109,192,248578,1,0,0:0:0:0:
402,192,248642,1,0,0:0:0:0:
36,192,248706,1,0,0:0:0:40:drum-hitclap.wav
182,192,248706,1,0,0:0:0:40:drum-hitclap.wav
329,192,248770,1,0,0:0:0:40:drum-hitclap.wav
475,192,248770,1,0,0:0:0:40:drum-hitclap.wav
182,192,248835,1,0,0:0:0:40:drum-hitclap.wav
36,192,248835,1,0,0:0:0:40:drum-hitclap.wav
402,192,248899,1,0,0:0:0:0:
109,192,248963,1,0,0:0:0:0:
256,192,248963,1,0,0:0:0:0:
329,192,248963,1,0,0:0:0:0:
475,192,248963,1,0,0:0:0:0:
36,192,249219,1,0,0:0:0:0:
475,192,249219,1,0,0:0:0:0:
109,192,249219,1,0,0:0:0:0:
402,192,249219,1,0,0:0:0:0:
256,192,249219,1,0,0:0:0:70:wosh.wav
182,192,249476,1,0,0:0:0:0:
36,192,249476,1,0,0:0:0:0:
475,192,249604,1,0,0:0:0:0:
329,192,249604,1,0,0:0:0:0:
256,192,249732,1,0,0:0:0:0:
109,192,249860,1,0,0:0:0:0:
402,192,249860,1,0,0:0:0:0:
109,192,249988,1,0,0:0:0:0:
402,192,249988,1,0,0:0:0:0:
36,192,250245,1,0,0:0:0:0:
475,192,250245,1,0,0:0:0:0:
329,192,250245,1,0,0:0:0:0:
256,192,250373,1,0,0:0:0:0:
182,192,250373,1,0,0:0:0:0:
329,192,250501,1,0,0:0:0:0:
475,192,250501,1,0,0:0:0:0:
329,192,250629,1,0,0:0:0:0:
475,192,250629,1,0,0:0:0:0:
182,192,250758,1,0,0:0:0:0:
256,192,250886,1,0,0:0:0:0:
109,192,250886,1,0,0:0:0:0:
402,192,251014,1,0,0:0:0:0:
256,192,251014,1,0,0:0:0:0:
402,192,251142,1,0,0:0:0:0:
109,192,251270,1,0,0:0:0:70:wosh.wav
182,192,251270,1,0,0:0:0:0:
329,192,251270,1,0,0:0:0:0:
182,192,251399,1,0,0:0:0:0:
256,192,251399,1,0,0:0:0:0:
475,192,251399,1,0,0:0:0:0:
329,192,251527,1,0,0:0:0:0:
36,192,251527,1,0,0:0:0:0:
182,192,251527,1,0,0:0:0:0:
256,192,251655,1,0,0:0:0:0:
402,192,251655,1,0,0:0:0:0:
109,192,251783,1,0,0:0:0:0:
329,192,251911,1,0,0:0:0:0:
182,192,251911,1,0,0:0:0:0:
402,192,252040,1,0,0:0:0:0:
256,192,252040,1,0,0:0:0:0:
329,192,252296,1,0,0:0:0:0:
475,192,252296,1,0,0:0:0:0:
256,192,252424,1,0,0:0:0:0:
402,192,252552,1,0,0:0:0:0:
182,192,252681,1,0,0:0:0:0:
109,192,252809,1,0,0:0:0:60:Snare.wav
329,192,252809,1,0,0:0:0:60:Snare.wav
36,192,252937,1,0,0:0:0:60:Snare.wav
329,192,252937,1,0,0:0:0:60:Snare.wav
109,192,253065,1,0,0:0:0:60:Snare.wav
329,192,253065,1,0,0:0:0:60:Snare.wav
36,192,253194,1,0,0:0:0:60:Snare.wav
329,192,253194,1,0,0:0:0:60:Snare.wav
256,192,253322,1,0,0:0:0:80:drum-hitclap.wav
402,192,253322,1,0,0:0:0:90:cym-02.wav
475,192,253322,1,0,0:0:0:80:drum.wav
182,192,253450,1,0,0:0:0:70:Rim.wav
329,192,253514,1,0,0:0:0:70:Rim.wav
402,192,253514,1,0,0:0:0:0:
109,192,253578,1,0,0:0:0:0:
182,192,253578,1,0,0:0:0:70:Rim.wav
256,192,253642,1,0,0:0:0:70:Rim.wav
36,192,253706,1,0,0:0:0:50:Rim.wav
109,192,253706,1,0,0:0:0:0:
182,192,253835,1,0,0:0:0:50:Rim.wav
402,192,253963,1,0,0:0:0:50:Rim.wav
475,192,253963,1,0,0:0:0:0:
329,192,254091,1,0,0:0:0:0:
256,192,254091,1,0,0:0:0:50:Rim.wav
109,192,254219,1,0,0:0:0:50:Rim.wav
182,192,254219,1,0,0:0:0:0:
256,192,254347,1,0,0:0:0:80:drum-hitclap.wav
402,192,254347,1,0,0:0:0:90:cym-02.wav
475,192,254347,1,0,0:0:0:80:drum.wav
109,192,254476,1,0,0:0:0:0:
475,192,254604,1,0,0:0:0:80:drum.wav
402,192,254604,1,0,0:0:0:90:cym-02.wav
256,192,254604,1,0,0:0:0:80:drum-hitclap.wav
182,192,254732,1,0,0:0:0:0:
109,192,254860,1,0,0:0:0:0:
475,192,254988,1,0,0:0:0:90:cym-02.wav
36,192,254988,1,0,0:0:0:80:drum-hitclap.wav
256,192,254988,1,0,0:0:0:80:drum.wav
329,192,255052,1,0,0:0:0:80:drum-hitclap.wav
182,192,255052,1,0,0:0:0:0:
256,192,255117,1,0,0:0:0:90:cym-02.wav
475,192,255117,1,0,0:0:0:80:drum-hitclap.wav
36,192,255117,1,0,0:0:0:80:drum.wav
109,192,255245,1,0,0:0:0:80:drum-hitclap.wav
256,192,255245,1,0,0:0:0:90:cym-02.wav
402,192,255245,1,0,0:0:0:80:drum.wav
182,192,255373,1,0,0:0:0:0:
36,192,255373,1,0,0:0:0:80:drum.wav
475,192,255373,1,0,0:0:0:80:drum-hitclap.wav
256,192,255458,1,0,0:0:0:0:
475,192,255501,1,0,0:0:0:0:
329,192,255544,1,0,0:0:0:0:
402,192,255629,1,0,0:0:0:0:
182,192,255629,1,0,0:0:0:0:
109,192,255629,1,0,0:0:0:70:bd03-4.wav
256,192,255715,1,0,0:0:0:0:
329,192,255758,1,0,0:0:0:0:
109,192,255758,1,0,0:0:0:70:bd03-4.wav
475,192,255886,1,0,0:0:0:0:
402,192,255886,1,0,0:0:0:0:
182,192,255886,1,0,0:0:0:90:cym-02.wav
36,192,255886,1,0,0:0:0:80:drum.wav
329,192,255971,1,0,0:0:0:0:
475,192,256014,1,0,0:0:0:0:
256,192,256057,1,0,0:0:0:0:
402,192,256142,1,0,0:0:0:0:
182,192,256142,1,0,0:0:0:0:
109,192,256142,1,0,0:0:0:70:bd03-4.wav
256,192,256228,1,0,0:0:0:0:
109,192,256270,1,0,0:0:0:70:bd03-4.wav
402,192,256270,1,0,0:0:0:90:Rim.wav
329,192,256313,1,0,0:0:0:0:
182,192,256399,1,0,0:0:0:30:normal-hitfinish.wav
36,192,256399,1,0,0:0:0:0:
402,192,256463,1,0,0:0:0:30:normal-hitfinish.wav
182,192,256527,1,0,0:0:0:30:normal-hitfinish.wav
402,192,256591,1,0,0:0:0:30:normal-hitfinish.wav
182,192,256655,1,0,0:0:0:30:normal-hitfinish.wav
402,192,256783,1,0,0:0:0:30:normal-hitfinish.wav
475,192,256783,1,0,0:0:0:30:normal-hitfinish.wav
329,192,256847,1,0,0:0:0:30:normal-hitfinish.wav
256,192,256911,1,0,0:0:0:0:
109,192,256911,1,0,0:0:0:80:Rim.wav
36,192,256911,1,0,0:0:0:80:Rim.wav
36,192,257040,1,0,0:0:0:80:Rim.wav
109,192,257040,1,0,0:0:0:80:Rim.wav
402,192,257168,1,0,0:0:0:0:
475,192,257168,1,0,0:0:0:80:Rim.wav
256,192,257168,1,0,0:0:0:80:Rim.wav
475,192,257296,1,0,0:0:0:0:
402,192,257296,1,0,0:0:0:80:Rim.wav
36,192,257424,1,0,0:0:0:30:normal-hitfinish.wav
182,192,257424,1,0,0:0:0:30:normal-hitfinish.wav
256,192,257488,1,0,0:0:0:30:normal-hitfinish.wav
402,192,257488,1,0,0:0:0:30:normal-hitfinish.wav
182,192,257552,1,0,0:0:0:30:normal-hitfinish.wav
36,192,257552,1,0,0:0:0:30:normal-hitfinish.wav
475,192,257617,1,0,0:0:0:30:normal-hitfinish.wav
329,192,257617,1,0,0:0:0:30:normal-hitfinish.wav
109,192,257681,1,0,0:0:0:30:normal-hitfinish.wav
256,192,257681,1,0,0:0:0:30:normal-hitfinish.wav
329,192,257745,1,0,0:0:0:30:normal-hitfinish.wav
475,192,257745,1,0,0:0:0:30:normal-hitfinish.wav
182,192,257809,1,0,0:0:0:30:normal-hitfinish.wav
36,192,257809,1,0,0:0:0:30:normal-hitfinish.wav
402,192,257873,1,0,0:0:0:30:normal-hitfinish.wav
256,192,257873,1,0,0:0:0:30:normal-hitfinish.wav
182,192,257937,1,0,0:0:0:30:normal-hitfinish.wav
109,192,257937,1,0,0:0:0:30:normal-hitfinish.wav
402,192,258001,1,0,0:0:0:30:normal-hitfinish.wav
329,192,258001,1,0,0:0:0:30:normal-hitfinish.wav
109,192,258065,1,0,0:0:0:30:normal-hitfinish.wav
182,192,258065,1,0,0:0:0:30:normal-hitfinish.wav
402,192,258129,1,0,0:0:0:30:normal-hitfinish.wav
329,192,258129,1,0,0:0:0:30:normal-hitfinish.wav
256,192,258194,1,0,0:0:0:30:normal-hitfinish.wav
36,192,258194,1,0,0:0:0:30:normal-hitfinish.wav
329,192,258258,1,0,0:0:0:30:normal-hitfinish.wav
475,192,258258,1,0,0:0:0:30:normal-hitfinish.wav
109,192,258322,1,0,0:0:0:30:normal-hitfinish.wav
182,192,258322,1,0,0:0:0:30:normal-hitfinish.wav
256,192,258386,1,0,0:0:0:30:normal-hitfinish.wav
402,192,258386,1,0,0:0:0:30:normal-hitfinish.wav
36,192,258450,1,0,0:0:0:10:normal-hitfinish.wav
109,192,258450,1,0,0:0:0:10:normal-hitfinish.wav
182,192,258514,1,0,0:0:0:10:normal-hitfinish.wav
329,192,258514,1,0,0:0:0:10:normal-hitfinish.wav
402,192,258578,1,0,0:0:0:0:
475,192,258578,1,0,0:0:0:10:normal-hitfinish.wav
109,192,258642,1,0,0:0:0:10:normal-hitfinish.wav
36,192,258642,1,0,0:0:0:10:normal-hitfinish.wav
329,192,258706,1,0,0:0:0:10:normal-hitfinish.wav
182,192,258706,1,0,0:0:0:10:normal-hitfinish.wav
256,192,258706,1,0,0:0:0:0:
402,192,258770,1,0,0:0:0:10:normal-hitfinish.wav
475,192,258770,1,0,0:0:0:10:normal-hitfinish.wav
36,192,258835,1,0,0:0:0:10:normal-hitfinish.wav
109,192,258835,1,0,0:0:0:10:normal-hitfinish.wav
182,192,258899,1,0,0:0:0:10:normal-hitfinish.wav
329,192,258899,1,0,0:0:0:10:normal-hitfinish.wav
109,192,258963,1,0,0:0:0:10:normal-hitfinish.wav
256,192,258963,1,0,0:0:0:0:
475,192,258963,1,0,0:0:0:10:normal-hitfinish.wav
36,192,258963,1,0,0:0:0:10:normal-hitfinish.wav
402,192,258963,1,0,0:0:0:70:wosh.wav
329,192,274202,5,0,0:0:0:0:
182,192,274202,1,0,0:0:0:0:
36,192,274202,1,0,0:0:0:0:
475,192,274202,1,0,0:0:0:0:
256,192,274425,1,0,0:0:0:0:
256,192,274869,1,0,0:0:0:0:
329,192,275091,1,0,0:0:0:0:
109,192,275091,1,0,0:0:0:0:
182,192,275313,1,0,0:0:0:0:
182,192,275758,1,0,0:0:0:0:
475,192,275980,1,0,0:0:0:0:
329,192,275980,1,0,0:0:0:0:
109,192,276202,1,0,0:0:0:0:
109,192,276647,1,0,0:0:0:0:
36,192,276869,1,0,0:0:0:0:
256,192,276869,1,0,0:0:0:0:
329,192,277091,1,0,0:0:0:0:
329,192,277536,1,0,0:0:0:0:
182,192,277758,1,0,0:0:0:0:
36,192,277758,1,0,0:0:0:0:
475,192,277980,1,0,0:0:0:0:
475,192,278425,1,0,0:0:0:0:
329,192,278647,1,0,0:0:0:0:
109,192,278647,1,0,0:0:0:0:
36,192,278869,1,0,0:0:0:0:
36,192,279313,1,0,0:0:0:0:
475,192,279536,1,0,0:0:0:0:
329,192,279536,1,0,0:0:0:0:
109,192,279758,1,0,0:0:0:0:
182,192,279869,1,0,0:0:0:0:
256,192,279980,1,0,0:0:0:0:
402,192,279980,1,0,0:0:0:0:
182,192,280202,1,0,0:0:0:0:
109,192,280425,1,0,0:0:0:0:
329,192,280425,1,0,0:0:0:0:
36,192,280647,1,0,0:0:0:0:
475,192,280869,1,0,0:0:0:0:
256,192,280869,1,0,0:0:0:0:
402,192,281091,1,0,0:0:0:0:
329,192,281313,1,0,0:0:0:0:
182,192,281313,1,0,0:0:0:0:
36,192,281313,1,0,0:0:0:0:
475,192,281536,1,0,0:0:0:0:
475,192,281980,1,0,0:0:0:0:
329,192,282202,1,0,0:0:0:0:
182,192,282202,1,0,0:0:0:0:
36,192,282425,1,0,0:0:0:0:
36,192,282869,1,0,0:0:0:0:
256,192,283091,1,0,0:0:0:0:
475,192,283091,1,0,0:0:0:0:
109,192,283313,1,0,0:0:0:0:
109,192,283758,1,0,0:0:0:0:
36,192,283980,1,0,0:0:0:0:
475,192,283980,1,0,0:0:0:0:
256,192,284202,1,0,0:0:0:0:
256,192,284647,1,0,0:0:0:0:
329,192,284869,1,0,0:0:0:0:
109,192,284869,1,0,0:0:0:0:
182,192,285091,1,0,0:0:0:0:
182,192,285536,1,0,0:0:0:0:
475,192,285758,1,0,0:0:0:0:
329,192,285758,1,0,0:0:0:0:
109,192,285980,1,0,0:0:0:0:
109,192,286425,1,0,0:0:0:0:
36,192,286647,1,0,0:0:0:0:
402,192,286647,1,0,0:0:0:0:
256,192,286869,1,0,0:0:0:0:
256,192,287313,1,0,0:0:0:0:
182,192,287536,1,0,0:0:0:0:
36,192,287536,1,0,0:0:0:0:
329,192,287758,1,0,0:0:0:0:
329,192,288202,1,0,0:0:0:0:
475,192,288425,1,0,0:0:0:0:
402,192,288425,1,0,0:0:0:0:
36,192,288647,1,0,0:0:0:0:
182,192,288647,1,0,0:0:0:0:
182,192,288869,1,0,0:0:0:0:
36,192,288869,1,0,0:0:0:0:
402,192,289091,1,0,0:0:0:0:
475,192,289091,1,0,0:0:0:0:
182,192,289202,1,0,0:0:0:0:
36,192,289202,1,0,0:0:0:0:
36,192,289425,1,0,0:0:0:0:
182,192,289425,1,0,0:0:0:0:
402,192,289536,1,0,0:0:0:0:
475,192,289536,1,0,0:0:0:0:
182,192,289647,1,0,0:0:0:0:
36,192,289647,1,0,0:0:0:0:
475,192,289758,1,0,0:0:0:0:
402,192,289758,1,0,0:0:0:0:
256,192,289758,1,0,0:0:0:0:
182,192,289869,1,0,0:0:0:0:
36,192,289869,1,0,0:0:0:0:
402,192,289980,1,0,0:0:0:0:
475,192,289980,1,0,0:0:0:0:
182,192,290091,1,0,0:0:0:0:
36,192,290091,1,0,0:0:0:0:
475,192,290202,1,0,0:0:0:0:
329,192,290202,1,0,0:0:0:0:
402,192,290202,1,0,0:0:0:0:
109,192,290202,1,0,0:0:0:0:
256,192,290258,1,0,0:0:0:0:
182,192,290313,1,0,0:0:0:0:
109,192,290369,1,0,0:0:0:0:
36,192,290425,1,0,0:0:0:0:
475,192,290425,1,0,0:0:0:0:
402,192,290425,1,0,0:0:0:0:
329,192,290480,1,0,0:0:0:0:
256,192,290536,1,0,0:0:0:0:
182,192,290591,1,0,0:0:0:0:
109,192,290647,1,0,0:0:0:0:
36,192,290647,1,0,0:0:0:0:
329,192,290647,1,0,0:0:0:0:
402,192,290702,1,0,0:0:0:0:
475,192,290758,1,0,0:0:0:0:
256,192,290758,1,0,0:0:0:0:
182,192,290813,1,0,0:0:0:0:
109,192,290869,1,0,0:0:0:0:
36,192,290869,1,0,0:0:0:0:
256,192,290925,1,0,0:0:0:0:
329,192,290980,1,0,0:0:0:0:
402,192,291036,1,0,0:0:0:0:
109,192,291091,1,0,0:0:0:0:
36,192,291091,1,0,0:0:0:0:
475,192,291091,1,0,0:0:0:0:
182,192,291091,1,0,0:0:0:0:
256,192,291202,1,0,0:0:0:0:
329,192,291258,1,0,0:0:0:0:
402,192,291313,1,0,0:0:0:0:
109,192,291313,1,0,0:0:0:0:
36,192,291313,1,0,0:0:0:0:
182,192,291369,1,0,0:0:0:0:
256,192,291425,1,0,0:0:0:0:
329,192,291480,1,0,0:0:0:0:
109,192,291536,1,0,0:0:0:0:
36,192,291536,1,0,0:0:0:0:
402,192,291591,1,0,0:0:0:0:
475,192,291647,1,0,0:0:0:0:
182,192,291647,1,0,0:0:0:0:
109,192,291702,1,0,0:0:0:0:
36,192,291758,1,0,0:0:0:0:
329,192,291758,1,0,0:0:0:0:
402,192,291758,1,0,0:0:0:0:
256,192,291813,1,0,0:0:0:0:
182,192,291869,1,0,0:0:0:0:
109,192,291869,1,0,0:0:0:0:
329,192,291925,1,0,0:0:0:0:
475,192,291980,1,0,0:0:0:0:
402,192,291980,1,0,0:0:0:0:
256,192,291980,1,0,0:0:0:0:
36,192,291980,1,0,0:0:0:0:
109,192,292036,1,0,0:0:0:0:
182,192,292091,1,0,0:0:0:0:
256,192,292147,1,0,0:0:0:0:
329,192,292202,1,0,0:0:0:0:
402,192,292202,1,0,0:0:0:0:
475,192,292202,1,0,0:0:0:0:
182,192,292258,1,0,0:0:0:0:
109,192,292313,1,0,0:0:0:0:
36,192,292369,1,0,0:0:0:0:
475,192,292425,1,0,0:0:0:0:
256,192,292425,1,0,0:0:0:0:
402,192,292425,1,0,0:0:0:0:
182,192,292425,1,0,0:0:0:0:
109,192,292480,1,0,0:0:0:0:
36,192,292536,1,0,0:0:0:0:
329,192,292536,1,0,0:0:0:0:
256,192,292591,1,0,0:0:0:0:
182,192,292647,1,0,0:0:0:0:
109,192,292647,1,0,0:0:0:0:
329,192,292702,1,0,0:0:0:0:
402,192,292758,1,0,0:0:0:0:
475,192,292813,1,0,0:0:0:0:
256,192,292869,1,0,0:0:0:0:
182,192,292869,1,0,0:0:0:0:
109,192,292869,1,0,0:0:0:0:
36,192,292869,1,0,0:0:0:0:
475,192,292980,1,0,0:0:0:0:
329,192,292980,1,0,0:0:0:0:
256,192,293036,1,0,0:0:0:0:
182,192,293091,1,0,0:0:0:0:
109,192,293091,1,0,0:0:0:0:
36,192,293091,1,0,0:0:0:0:
329,192,293147,1,0,0:0:0:0:
402,192,293202,1,0,0:0:0:0:
475,192,293202,1,0,0:0:0:0:
256,192,293258,1,0,0:0:0:0:
329,192,293313,1,0,0:0:0:0:
182,192,293313,1,0,0:0:0:0:
109,192,293313,1,0,0:0:0:0:
36,192,293313,1,0,0:0:0:0:
402,192,293369,1,0,0:0:0:0:
475,192,293425,1,0,0:0:0:0:
256,192,293425,1,0,0:0:0:0:
182,192,293480,1,0,0:0:0:0:
109,192,293536,1,0,0:0:0:0:
36,192,293536,1,0,0:0:0:0:
329,192,293536,1,0,0:0:0:0:
402,192,293591,1,0,0:0:0:0:
475,192,293647,1,0,0:0:0:0:
256,192,293647,1,0,0:0:0:0:
329,192,293702,1,0,0:0:0:0:
402,192,293758,1,0,0:0:0:0:
109,192,293758,1,0,0:0:0:0:
182,192,293758,1,0,0:0:0:0:
36,192,293758,1,0,0:0:0:0:
475,192,293813,1,0,0:0:0:0:
329,192,293869,1,0,0:0:0:0:
256,192,293925,1,0,0:0:0:0:
182,192,293980,1,0,0:0:0:0:
109,192,293980,1,0,0:0:0:0:
402,192,293980,1,0,0:0:0:0:
475,192,294036,1,0,0:0:0:0:
329,192,294091,1,0,0:0:0:0:
402,192,294147,1,0,0:0:0:0:
475,192,294202,1,0,0:0:0:0:
256,192,294202,1,0,0:0:0:0:
109,192,294202,1,0,0:0:0:0:
36,192,294202,1,0,0:0:0:0:
329,192,294258,1,0,0:0:0:0:
402,192,294313,1,0,0:0:0:0:
182,192,294313,1,0,0:0:0:0:
109,192,294369,1,0,0:0:0:0:
36,192,294425,1,0,0:0:0:0:
256,192,294425,1,0,0:0:0:0:
329,192,294480,1,0,0:0:0:0:
402,192,294536,1,0,0:0:0:0:
182,192,294591,1,0,0:0:0:0:
109,192,294647,1,0,0:0:0:0:
36,192,294647,1,0,0:0:0:0:
256,192,294647,1,0,0:0:0:0:
475,192,294647,1,0,0:0:0:0:
402,192,294758,1,0,0:0:0:0:
182,192,294758,1,0,0:0:0:0:
109,192,294813,1,0,0:0:0:0:
36,192,294869,1,0,0:0:0:0:
256,192,294869,1,0,0:0:0:0:
475,192,294869,1,0,0:0:0:0:
329,192,294925,1,0,0:0:0:0:
402,192,294980,1,0,0:0:0:0:
182,192,294980,1,0,0:0:0:0:
109,192,295036,1,0,0:0:0:0:
256,192,295091,1,0,0:0:0:0:
475,192,295091,1,0,0:0:0:0:
329,192,295091,1,0,0:0:0:0:
36,192,295091,1,0,0:0:0:0:
182,192,295147,1,0,0:0:0:0:
109,192,295202,1,0,0:0:0:0:
402,192,295202,1,0,0:0:0:0:
329,192,295258,1,0,0:0:0:0:
256,192,295313,1,0,0:0:0:0:
36,192,295313,1,0,0:0:0:0:
475,192,295313,1,0,0:0:0:0:
109,192,295369,1,0,0:0:0:0:
182,192,295425,1,0,0:0:0:0:
329,192,295425,1,0,0:0:0:0:
402,192,295480,1,0,0:0:0:0:
475,192,295536,1,0,0:0:0:0:
256,192,295536,1,0,0:0:0:0:
109,192,295536,1,0,0:0:0:0:
36,192,295536,1,0,0:0:0:0:
329,192,295647,1,0,0:0:0:0:
402,192,295647,1,0,0:0:0:0:
109,192,295758,1,0,0:0:0:0:
256,192,295758,1,0,0:0:0:0:
182,192,295869,1,0,0:0:0:0:
329,192,295869,1,0,0:0:0:0:
36,192,295980,1,0,0:0:0:0:
256,192,295980,1,0,0:0:0:0:
475,192,295980,1,0,0:0:0:0:
402,192,295980,1,0,0:0:0:0:
182,192,296036,1,0,0:0:0:0:
109,192,296091,1,0,0:0:0:0:
329,192,296091,1,0,0:0:0:0:
402,192,296147,1,0,0:0:0:0:
475,192,296202,1,0,0:0:0:0:
182,192,296202,1,0,0:0:0:0:
36,192,296202,1,0,0:0:0:0:
256,192,296258,1,0,0:0:0:0:
329,192,296313,1,0,0:0:0:0:
402,192,296313,1,0,0:0:0:0:
182,192,296369,1,0,0:0:0:0:
109,192,296425,1,0,0:0:0:0:
36,192,296425,1,0,0:0:0:0:
475,192,296425,1,0,0:0:0:0:
256,192,296425,1,0,0:0:0:0:
402,192,296480,1,0,0:0:0:0:
329,192,296536,1,0,0:0:0:0:
182,192,296536,1,0,0:0:0:0:
109,192,296591,1,0,0:0:0:0:
36,192,296647,1,0,0:0:0:0:
256,192,296647,1,0,0:0:0:0:
475,192,296647,1,0,0:0:0:0:
329,192,296702,1,0,0:0:0:0:
402,192,296758,1,0,0:0:0:0:
182,192,296758,1,0,0:0:0:0:
256,192,296813,1,0,0:0:0:0:
329,192,296869,1,0,0:0:0:0:
475,192,296869,1,0,0:0:0:0:
109,192,296869,1,0,0:0:0:0:
36,192,296869,1,0,0:0:0:0:
182,192,296925,1,0,0:0:0:0:
256,192,296980,1,0,0:0:0:0:
402,192,296980,1,0,0:0:0:0:
109,192,297091,1,0,0:0:0:0:
256,192,297091,1,0,0:0:0:0:
402,192,297091,1,0,0:0:0:0:
36,192,297313,1,0,0:0:0:0:
475,192,297313,1,0,0:0:0:0:
402,192,297313,1,0,0:0:0:0:
109,192,297313,1,0,0:0:0:0:
329,192,297369,1,0,0:0:0:0:
256,192,297425,1,0,0:0:0:0:
182,192,297480,1,0,0:0:0:0:
109,192,297536,1,0,0:0:0:0:
36,192,297536,1,0,0:0:0:0:
329,192,297536,1,0,0:0:0:0:
402,192,297591,1,0,0:0:0:0:
475,192,297647,1,0,0:0:0:0:
256,192,297702,1,0,0:0:0:0:
329,192,297758,1,0,0:0:0:0:
402,192,297758,1,0,0:0:0:0:
109,192,297758,1,0,0:0:0:0:
36,192,297758,1,0,0:0:0:0:
182,192,297813,1,0,0:0:0:0:
256,192,297869,1,0,0:0:0:0:
475,192,297869,1,0,0:0:0:0:
402,192,297925,1,0,0:0:0:0:
329,192,297980,1,0,0:0:0:0:
182,192,297980,1,0,0:0:0:0:
109,192,298036,1,0,0:0:0:0:
36,192,298091,1,0,0:0:0:0:
256,192,298091,1,0,0:0:0:0:
329,192,298147,1,0,0:0:0:0:
475,192,298202,1,0,0:0:0:0:
402,192,298202,1,0,0:0:0:0:
182,192,298202,1,0,0:0:0:0:
109,192,298202,1,0,0:0:0:0:
182,192,298313,1,0,0:0:0:0:
109,192,298313,1,0,0:0:0:0:
256,192,298369,1,0,0:0:0:0:
329,192,298425,1,0,0:0:0:0:
475,192,298425,1,0,0:0:0:0:
36,192,298425,1,0,0:0:0:0:
109,192,298480,1,0,0:0:0:0:
182,192,298536,1,0,0:0:0:0:
256,192,298536,1,0,0:0:0:0:
329,192,298591,1,0,0:0:0:0:
402,192,298647,1,0,0:0:0:0:
475,192,298647,1,0,0:0:0:0:
36,192,298647,1,0,0:0:0:0:
109,192,298647,1,0,0:0:0:0:
182,192,298702,1,0,0:0:0:0:
256,192,298758,1,0,0:0:0:0:
329,192,298758,1,0,0:0:0:0:
402,192,298813,1,0,0:0:0:0:
475,192,298869,1,0,0:0:0:0:
109,192,298869,1,0,0:0:0:0:
36,192,298869,1,0,0:0:0:0:
182,192,298925,1,0,0:0:0:0:
256,192,298980,1,0,0:0:0:0:
329,192,298980,1,0,0:0:0:0:
402,192,299036,1,0,0:0:0:0:
475,192,299091,1,0,0:0:0:0:
182,192,299091,1,0,0:0:0:0:
109,192,299091,1,0,0:0:0:0:
36,192,299091,1,0,0:0:0:0:
256,192,299147,1,0,0:0:0:0:
329,192,299202,1,0,0:0:0:0:
402,192,299258,1,0,0:0:0:0:
475,192,299313,1,0,0:0:0:0:
256,192,299313,1,0,0:0:0:0:
36,192,299313,1,0,0:0:0:0:
182,192,299369,1,0,0:0:0:0:
109,192,299425,1,0,0:0:0:0:
329,192,299480,1,0,0:0:0:0:
402,192,299536,1,0,0:0:0:0:
475,192,299536,1,0,0:0:0:0:
182,192,299536,1,0,0:0:0:0:
36,192,299536,1,0,0:0:0:0:
256,192,299591,1,0,0:0:0:0:
329,192,299647,1,0,0:0:0:0:
109,192,299647,1,0,0:0:0:0:
402,192,299702,1,0,0:0:0:0:
475,192,299758,1,0,0:0:0:0:
182,192,299758,1,0,0:0:0:0:
256,192,299813,1,0,0:0:0:0:
329,192,299869,1,0,0:0:0:0:
402,192,299925,1,0,0:0:0:0:
36,192,299980,1,0,0:0:0:0:
475,192,299980,1,0,0:0:0:0:
109,192,299980,1,0,0:0:0:0:
182,192,299980,1,0,0:0:0:0:
329,192,300091,1,0,0:0:0:0:
402,192,300091,1,0,0:0:0:0:
256,192,300147,1,0,0:0:0:0:
36,192,300202,1,0,0:0:0:0:
475,192,300202,1,0,0:0:0:0:
182,192,300202,1,0,0:0:0:0:
402,192,300258,1,0,0:0:0:0:
256,192,300313,1,0,0:0:0:0:
329,192,300313,1,0,0:0:0:0:
182,192,300369,1,0,0:0:0:0:
36,192,300425,1,0,0:0:0:0:
402,192,300425,1,0,0:0:0:0:
109,192,300425,1,0,0:0:0:0:
475,192,300425,1,0,0:0:0:0:
329,192,300480,1,0,0:0:0:0:
182,192,300536,1,0,0:0:0:0:
256,192,300536,1,0,0:0:0:0:
109,192,300591,1,0,0:0:0:0:
475,192,300647,1,0,0:0:0:0:
402,192,300647,1,0,0:0:0:0:
36,192,300647,1,0,0:0:0:0:
329,192,300702,1,0,0:0:0:0:
256,192,300758,1,0,0:0:0:0:
182,192,300758,1,0,0:0:0:0:
109,192,300813,1,0,0:0:0:0:
402,192,300869,1,0,0:0:0:0:
36,192,300869,1,0,0:0:0:0:
475,192,300869,1,0,0:0:0:0:
329,192,300869,1,0,0:0:0:0:
256,192,300925,1,0,0:0:0:0:
182,192,300980,1,0,0:0:0:0:
109,192,301036,1,0,0:0:0:0:
36,192,301091,1,0,0:0:0:0:
402,192,301091,1,0,0:0:0:0:
475,192,301091,1,0,0:0:0:0:
329,192,301147,1,0,0:0:0:0:
256,192,301202,1,0,0:0:0:0:
182,192,301258,1,0,0:0:0:0:
36,192,301313,1,0,0:0:0:0:
109,192,301313,1,0,0:0:0:0:
402,192,301313,1,0,0:0:0:0:
475,192,301313,1,0,0:0:0:0:
329,192,301369,1,0,0:0:0:0:
256,192,301425,1,0,0:0:0:0:
182,192,301425,1,0,0:0:0:0:
109,192,301480,1,0,0:0:0:0:
36,192,301536,1,0,0:0:0:0:
329,192,301536,1,0,0:0:0:0:
402,192,301591,1,0,0:0:0:0:
475,192,301647,1,0,0:0:0:0:
182,192,301702,1,0,0:0:0:0:
36,192,301758,1,0,0:0:0:0:
402,192,301758,1,0,0:0:0:0:
329,192,301758,1,0,0:0:0:0:
109,192,301758,1,0,0:0:0:0:
402,192,301869,1,0,0:0:0:0:
329,192,301869,1,0,0:0:0:0:
256,192,301925,1,0,0:0:0:0:
182,192,301980,1,0,0:0:0:0:
36,192,301980,1,0,0:0:0:0:
475,192,301980,1,0,0:0:0:0:
402,192,302036,1,0,0:0:0:0:
329,192,302091,1,0,0:0:0:0:
256,192,302091,1,0,0:0:0:0:
182,192,302147,1,0,0:0:0:0:
109,192,302202,1,0,0:0:0:0:
36,192,302202,1,0,0:0:0:0:
475,192,302202,1,0,0:0:0:0:
402,192,302202,1,0,0:0:0:0:
329,192,302258,1,0,0:0:0:0:
256,192,302313,1,0,0:0:0:0:
182,192,302313,1,0,0:0:0:0:
109,192,302369,1,0,0:0:0:0:
36,192,302425,1,0,0:0:0:0:
329,192,302425,1,0,0:0:0:0:
475,192,302425,1,0,0:0:0:0:
256,192,302480,1,0,0:0:0:0:
182,192,302536,1,0,0:0:0:0:
402,192,302536,1,0,0:0:0:0:
109,192,302591,1,0,0:0:0:0:
36,192,302647,1,0,0:0:0:0:
329,192,302647,1,0,0:0:0:0:
475,192,302647,1,0,0:0:0:0:
256,192,302647,1,0,0:0:0:0:
182,192,302758,1,0,0:0:0:0:
402,192,302758,1,0,0:0:0:0:
329,192,302869,1,0,0:0:0:0:
109,192,302869,1,0,0:0:0:0:
182,192,302980,1,0,0:0:0:0:
402,192,302980,1,0,0:0:0:0:
475,192,303091,1,0,0:0:0:0:
256,192,303091,1,0,0:0:0:0:
109,192,303091,1,0,0:0:0:0:
36,192,303091,1,0,0:0:0:0:
329,192,303147,1,0,0:0:0:0:
402,192,303202,1,0,0:0:0:0:
182,192,303202,1,0,0:0:0:0:
109,192,303258,1,0,0:0:0:0:
36,192,303313,1,0,0:0:0:0:
256,192,303313,1,0,0:0:0:0:
475,192,303313,1,0,0:0:0:0:
402,192,303369,1,0,0:0:0:0:
329,192,303425,1,0,0:0:0:0:
182,192,303425,1,0,0:0:0:0:
109,192,303480,1,0,0:0:0:0:
36,192,303536,1,0,0:0:0:0:
256,192,303536,1,0,0:0:0:0:
402,192,303536,1,0,0:0:0:0:
475,192,303536,1,0,0:0:0:0:
182,192,303591,1,0,0:0:0:0:
109,192,303647,1,0,0:0:0:0:
329,192,303647,1,0,0:0:0:0:
402,192,303702,1,0,0:0:0:0:
475,192,303758,1,0,0:0:0:0:
256,192,303758,1,0,0:0:0:0:
36,192,303758,1,0,0:0:0:0:
109,192,303813,1,0,0:0:0:0:
182,192,303869,1,0,0:0:0:0:
329,192,303869,1,0,0:0:0:0:
402,192,303924,1,0,0:0:0:0:
475,192,303980,1,0,0:0:0:0:
256,192,303980,1,0,0:0:0:0:
36,192,303980,1,0,0:0:0:0:
109,192,303980,1,0,0:0:0:0:
329,192,304036,1,0,0:0:0:0:
402,192,304091,1,0,0:0:0:0:
182,192,304091,1,0,0:0:0:0:
109,192,304147,1,0,0:0:0:0:
475,192,304202,1,0,0:0:0:0:
256,192,304202,1,0,0:0:0:0:
36,192,304202,1,0,0:0:0:0:
329,192,304202,1,0,0:0:0:0:
182,192,304313,1,0,0:0:0:0:
109,192,304313,1,0,0:0:0:0:
182,192,304424,1,0,0:0:0:0:
475,192,304424,1,0,0:0:0:0:
109,192,304424,1,0,0:0:0:0:
329,192,304424,1,0,0:0:0:0:
36,192,304647,1,0,0:0:0:0:
109,192,304647,1,0,0:0:0:0:
329,192,304647,1,0,0:0:0:0:
475,192,304869,1,0,0:0:0:0:
402,192,304869,1,0,0:0:0:0:
256,192,304869,1,0,0:0:0:0:
36,192,304869,1,0,0:0:0:0:
182,192,304980,1,0,0:0:0:0:
109,192,304980,1,0,0:0:0:0:
329,192,305091,1,0,0:0:0:0:
402,192,305091,1,0,0:0:0:0:
256,192,305202,1,0,0:0:0:0:
182,192,305202,1,0,0:0:0:0:
109,192,305313,1,0,0:0:0:0:
36,192,305313,1,0,0:0:0:0:
475,192,305313,1,0,0:0:0:0:
402,192,305536,1,0,0:0:0:0:
109,192,305536,1,0,0:0:0:0:
36,192,305536,1,0,0:0:0:0:
329,192,305758,1,0,0:0:0:0:
109,192,305758,1,0,0:0:0:0:
36,192,305758,1,0,0:0:0:0:
475,192,305758,1,0,0:0:0:0:
402,192,305869,1,0,0:0:0:0:
256,192,305869,1,0,0:0:0:0:
182,192,305980,1,0,0:0:0:0:
36,192,305980,1,0,0:0:0:0:
329,192,306091,1,0,0:0:0:0:
475,192,306091,1,0,0:0:0:0:
256,192,306202,1,0,0:0:0:0:
109,192,306202,1,0,0:0:0:0:
36,192,306202,1,0,0:0:0:0:
329,192,306424,1,0,0:0:0:0:
475,192,306424,1,0,0:0:0:0:
182,192,306424,1,0,0:0:0:0:
402,192,306647,1,0,0:0:0:0:
256,192,306647,1,0,0:0:0:0:
109,192,306647,1,0,0:0:0:0:
36,192,306647,1,0,0:0:0:0:
329,192,306758,1,0,0:0:0:0:
475,192,306758,1,0,0:0:0:0:
182,192,306869,1,0,0:0:0:0:
36,192,306869,1,0,0:0:0:0:
256,192,306980,1,0,0:0:0:0:
402,192,306980,1,0,0:0:0:0:
109,192,307091,1,0,0:0:0:0:
36,192,307091,1,0,0:0:0:0:
475,192,307091,1,0,0:0:0:0:
402,192,307313,1,0,0:0:0:0:
109,192,307313,1,0,0:0:0:0:
36,192,307313,1,0,0:0:0:0:
329,192,307536,1,0,0:0:0:0:
109,192,307536,1,0,0:0:0:0:
36,192,307536,1,0,0:0:0:0:
256,192,307536,1,0,0:0:0:0:
402,192,307647,1,0,0:0:0:0:
475,192,307647,1,0,0:0:0:0:
256,192,307758,1,0,0:0:0:0:
182,192,307758,1,0,0:0:0:0:
329,192,307869,1,0,0:0:0:0:
402,192,307869,1,0,0:0:0:0:
475,192,307980,1,0,0:0:0:0:
182,192,307980,1,0,0:0:0:0:
109,192,307980,1,0,0:0:0:0:
36,192,307980,1,0,0:0:0:0:
402,192,308202,1,0,0:0:0:0:
109,192,308202,1,0,0:0:0:0:
36,192,308202,1,0,0:0:0:0:
36,192,308424,1,0,0:0:0:0:
256,192,308424,1,0,0:0:0:0:
329,192,308424,1,0,0:0:0:0:
475,192,308424,1,0,0:0:0:0:
182,192,308536,1,0,0:0:0:0:
109,192,308536,1,0,0:0:0:0:
329,192,308647,1,0,0:0:0:0:
402,192,308647,1,0,0:0:0:0:
256,192,308758,1,0,0:0:0:0:
182,192,308758,1,0,0:0:0:0:
109,192,308869,1,0,0:0:0:0:
36,192,308869,1,0,0:0:0:0:
475,192,308869,1,0,0:0:0:0:
402,192,308869,1,0,0:0:0:0:
329,192,309091,1,0,0:0:0:0:
109,192,309091,1,0,0:0:0:0:
36,192,309091,1,0,0:0:0:0:
256,192,309313,1,0,0:0:0:0:
109,192,309313,1,0,0:0:0:0:
36,192,309313,1,0,0:0:0:0:
475,192,309313,1,0,0:0:0:0:
402,192,309424,1,0,0:0:0:0:
182,192,309424,1,0,0:0:0:0:
329,192,309536,1,0,0:0:0:0:
109,192,309536,1,0,0:0:0:0:
256,192,309647,1,0,0:0:0:0:
475,192,309647,1,0,0:0:0:0:
182,192,309758,1,0,0:0:0:0:
402,192,309758,1,0,0:0:0:0:
109,192,309758,1,0,0:0:0:0:
36,192,309758,1,0,0:0:0:0:
109,192,309980,1,0,0:0:0:0:
36,192,309980,1,0,0:0:0:0:
329,192,309980,1,0,0:0:0:0:
256,192,310202,1,0,0:0:0:0:
109,192,310202,1,0,0:0:0:0:
36,192,310202,1,0,0:0:0:0:
475,192,310202,1,0,0:0:0:0:
402,192,310313,1,0,0:0:0:0:
182,192,310313,1,0,0:0:0:0:
329,192,310424,1,0,0:0:0:0:
109,192,310424,1,0,0:0:0:0:
256,192,310536,1,0,0:0:0:0:
475,192,310536,1,0,0:0:0:0:
402,192,310647,1,0,0:0:0:0:
182,192,310647,1,0,0:0:0:0:
36,192,310647,1,0,0:0:0:0:
329,192,310647,1,0,0:0:0:0:
36,192,310869,1,0,0:0:0:0:
182,192,310869,1,0,0:0:0:0:
475,192,310869,1,0,0:0:0:0:
475,192,311091,1,0,0:0:0:0:
402,192,311091,1,0,0:0:0:0:
36,192,311091,1,0,0:0:0:0:
256,192,311091,1,0,0:0:0:0:
182,192,311202,1,0,0:0:0:0:
109,192,311202,1,0,0:0:0:0:
329,192,311313,1,0,0:0:0:0:
402,192,311313,1,0,0:0:0:0:
256,192,311424,1,0,0:0:0:0:
182,192,311424,1,0,0:0:0:0:
109,192,311536,1,0,0:0:0:0:
36,192,311536,1,0,0:0:0:0:
475,192,311536,1,0,0:0:0:0:
402,192,311536,1,0,0:0:0:0:
329,192,311758,1,0,0:0:0:0:
109,192,311758,1,0,0:0:0:0:
36,192,311758,1,0,0:0:0:0:
256,192,311980,1,0,0:0:0:0:
475,192,311980,1,0,0:0:0:0:
109,192,311980,1,0,0:0:0:0:
36,192,311980,1,0,0:0:0:0:
402,192,312091,1,0,0:0:0:0:
329,192,312091,1,0,0:0:0:0:
182,192,312202,1,0,0:0:0:0:
109,192,312202,1,0,0:0:0:0:
256,192,312313,1,0,0:0:0:0:
329,192,312313,1,0,0:0:0:0:
402,192,312424,1,0,0:0:0:0:
475,192,312424,1,0,0:0:0:0:
109,192,312424,1,0,0:0:0:0:
36,192,312424,1,0,0:0:0:0:
402,192,312647,1,0,0:0:0:0:
475,192,312647,1,0,0:0:0:0:
182,192,312647,1,0,0:0:0:0:
256,192,312869,1,0,0:0:0:0:
402,192,312869,1,0,0:0:0:0:
475,192,312869,1,0,0:0:0:0:
36,192,312869,1,0,0:0:0:0:
109,192,312980,1,0,0:0:0:0:
329,192,312980,1,0,0:0:0:0:
182,192,313091,1,0,0:0:0:0:
402,192,313091,1,0,0:0:0:0:
256,192,313202,1,0,0:0:0:0:
36,192,313202,1,0,0:0:0:0:
109,192,313313,1,0,0:0:0:0:
329,192,313313,1,0,0:0:0:0:
475,192,313313,1,0,0:0:0:0:
402,192,313313,1,0,0:0:0:0:
182,192,313536,1,0,0:0:0:0:
402,192,313536,1,0,0:0:0:0:
475,192,313536,1,0,0:0:0:0:
256,192,313758,1,0,0:0:0:0:
402,192,313758,1,0,0:0:0:0:
475,192,313758,1,0,0:0:0:0:
109,192,313758,1,0,0:0:0:0:
182,192,313869,1,0,0:0:0:0:
36,192,313869,1,0,0:0:0:0:
329,192,313980,1,0,0:0:0:0:
475,192,313980,1,0,0:0:0:0:
109,192,314091,1,0,0:0:0:0:
256,192,314091,1,0,0:0:0:0:
329,192,314202,1,0,0:0:0:0:
402,192,314202,1,0,0:0:0:0:
475,192,314202,1,0,0:0:0:0:
36,192,314202,1,0,0:0:0:0:
256,192,314424,1,0,0:0:0:0:
36,192,314424,1,0,0:0:0:0:
109,192,314424,1,0,0:0:0:0:
182,192,314647,1,0,0:0:0:0:
329,192,314647,1,0,0:0:0:0:
402,192,314647,1,0,0:0:0:0:
475,192,314647,1,0,0:0:0:0:
109,192,314758,1,0,0:0:0:0:
36,192,314758,1,0,0:0:0:0:
402,192,314869,1,0,0:0:0:0:
475,192,314869,1,0,0:0:0:0:
256,192,314980,1,0,0:0:0:0:
109,192,314980,1,0,0:0:0:0:
329,192,315091,1,0,0:0:0:0:
402,192,315091,1,0,0:0:0:0:
36,192,315091,1,0,0:0:0:0:
475,192,315091,1,0,0:0:0:0:
109,192,315313,1,0,0:0:0:0:
256,192,315313,1,0,0:0:0:0:
36,192,315313,1,0,0:0:0:0:
182,192,315536,1,0,0:0:0:0:
329,192,315536,1,0,0:0:0:0:
475,192,315536,1,0,0:0:0:0:
402,192,315536,1,0,0:0:0:0:
109,192,315647,1,0,0:0:0:0:
36,192,315647,1,0,0:0:0:0:
475,192,315758,1,0,0:0:0:0:
329,192,315758,1,0,0:0:0:0:
256,192,315869,1,0,0:0:0:0:
109,192,315869,1,0,0:0:0:0:
36,192,315980,1,0,0:0:0:0:
329,192,315980,1,0,0:0:0:0:
475,192,315980,1,0,0:0:0:0:
182,192,315980,1,0,0:0:0:0:
36,192,316202,1,0,0:0:0:0:
182,192,316202,1,0,0:0:0:0:
329,192,316202,1,0,0:0:0:0:
256,192,316424,1,0,0:0:0:0:
402,192,316424,1,0,0:0:0:0:
475,192,316424,1,0,0:0:0:0:
109,192,316424,1,0,0:0:0:0:
182,192,316536,1,0,0:0:0:0:
36,192,316536,1,0,0:0:0:0:
329,192,316536,1,0,0:0:0:0:
256,192,316647,1,0,0:0:0:0:
402,192,316647,1,0,0:0:0:0:
109,192,316647,1,0,0:0:0:0:
182,192,316758,1,0,0:0:0:0:
329,192,316758,1,0,0:0:0:0:
475,192,316758,1,0,0:0:0:0:
402,192,316869,1,0,0:0:0:0:
256,192,316869,1,0,0:0:0:0:
109,192,316869,1,0,0:0:0:0:
36,192,316869,1,0,0:0:0:0:
182,192,317091,1,0,0:0:0:0:
329,192,317091,1,0,0:0:0:0:
475,192,317091,1,0,0:0:0:0:
256,192,317313,1,0,0:0:0:0:
109,192,317313,1,0,0:0:0:0:
36,192,317313,1,0,0:0:0:0:
402,192,317313,1,0,0:0:0:0:
182,192,317424,1,0,0:0:0:0:
329,192,317424,1,0,0:0:0:0:
475,192,317424,1,0,0:0:0:0:
256,192,317536,1,0,0:0:0:0:
109,192,317536,1,0,0:0:0:0:
402,192,317536,1,0,0:0:0:0:
182,192,317647,1,0,0:0:0:0:
36,192,317647,1,0,0:0:0:0:
329,192,317647,1,0,0:0:0:0:
256,192,317758,1,0,0:0:0:0:
109,192,317758,1,0,0:0:0:0:
402,192,317758,1,0,0:0:0:0:
475,192,317758,1,0,0:0:0:0:
182,192,317980,1,0,0:0:0:0:
36,192,317980,1,0,0:0:0:0:
329,192,317980,1,0,0:0:0:0:
475,192,318202,1,0,0:0:0:0:
402,192,318202,1,0,0:0:0:0:
256,192,318202,1,0,0:0:0:0:
36,192,318202,1,0,0:0:0:0:
109,192,318313,1,0,0:0:0:0:
182,192,318313,1,0,0:0:0:0:
329,192,318313,1,0,0:0:0:0:
256,192,318424,1,0,0:0:0:0:
402,192,318424,1,0,0:0:0:0:
475,192,318424,1,0,0:0:0:0:
182,192,318536,1,0,0:0:0:0:
329,192,318536,1,0,0:0:0:0:
36,192,318536,1,0,0:0:0:0:
256,192,318647,1,0,0:0:0:0:
402,192,318647,1,0,0:0:0:0:
475,192,318647,1,0,0:0:0:0:
109,192,318702,1,0,0:0:0:0:
182,192,318758,1,0,0:0:0:0:
329,192,318813,1,0,0:0:0:0:
475,192,318869,1,0,0:0:0:0:
36,192,318869,1,0,0:0:0:0:
256,192,318924,1,0,0:0:0:0:
109,192,318980,1,0,0:0:0:0:
182,192,319036,1,0,0:0:0:0:
329,192,319091,1,0,0:0:0:0:
475,192,319091,1,0,0:0:0:0:
402,192,319091,1,0,0:0:0:0:
256,192,319147,1,0,0:0:0:0:
109,192,319202,1,0,0:0:0:0:
36,192,319258,1,0,0:0:0:0:
182,192,319313,1,0,0:0:0:0:
475,192,319369,1,0,0:0:0:0:
256,192,319424,1,0,0:0:0:0:
109,192,319480,1,0,0:0:0:0:
36,192,319536,1,0,0:0:0:0:
402,192,319536,1,0,0:0:0:0:
329,192,319536,1,0,0:0:0:0:
182,192,319591,1,0,0:0:0:0:
475,192,319647,1,0,0:0:0:0:
256,192,319702,1,0,0:0:0:0:
329,192,319758,1,0,0:0:0:0:
109,192,319813,1,0,0:0:0:0:
182,192,319869,1,0,0:0:0:0:
256,192,319924,1,0,0:0:0:0:
402,192,319980,1,0,0:0:0:0:
475,192,319980,1,0,0:0:0:0:
36,192,319980,1,0,0:0:0:0:
329,192,320036,1,0,0:0:0:0:
109,192,320091,1,0,0:0:0:0:
182,192,320147,1,0,0:0:0:0:
475,192,320202,1,0,0:0:0:0:
402,192,320202,1,0,0:0:0:0:
36,192,320313,1,0,0:0:0:0:
256,192,320313,1,0,0:0:0:0:
329,192,320313,1,0,0:0:0:0:
109,192,320369,1,0,0:0:0:0:
182,192,320424,1,0,0:0:0:0:
475,192,320424,1,0,0:0:0:0:
402,192,320424,1,0,0:0:0:0:
256,192,320480,1,0,0:0:0:0:
36,192,320536,1,0,0:0:0:0:
109,192,320591,1,0,0:0:0:0:
402,192,320647,1,0,0:0:0:0:
329,192,320702,1,0,0:0:0:0:
182,192,320758,1,0,0:0:0:0:
256,192,320813,1,0,0:0:0:0:
402,192,320869,1,0,0:0:0:0:
475,192,320869,1,0,0:0:0:0:
36,192,320869,1,0,0:0:0:0:
109,192,320924,1,0,0:0:0:0:
329,192,320980,1,0,0:0:0:0:
182,192,321036,1,0,0:0:0:0:
475,192,321091,1,0,0:0:0:0:
256,192,321147,1,0,0:0:0:0:
402,192,321202,1,0,0:0:0:0:
182,192,321258,1,0,0:0:0:0:
36,192,321313,1,0,0:0:0:0:
109,192,321313,1,0,0:0:0:0:
329,192,321313,1,0,0:0:0:0:
475,192,321369,1,0,0:0:0:0:
256,192,321424,1,0,0:0:0:0:
182,192,321480,1,0,0:0:0:0:
402,192,321536,1,0,0:0:0:0:
329,192,321591,1,0,0:0:0:0:
36,192,321647,1,0,0:0:0:0:
109,192,321702,1,0,0:0:0:0:
182,192,321758,1,0,0:0:0:0:
256,192,321758,1,0,0:0:0:0:
475,192,321758,1,0,0:0:0:0:
402,192,321813,1,0,0:0:0:0:
329,192,321869,1,0,0:0:0:0:
109,192,321924,1,0,0:0:0:0:
36,192,321980,1,0,0:0:0:0:
182,192,322036,1,0,0:0:0:0:
256,192,322091,1,0,0:0:0:0:
329,192,322147,1,0,0:0:0:0:
402,192,322202,1,0,0:0:0:0:
475,192,322202,1,0,0:0:0:0:
109,192,322202,1,0,0:0:0:0:
182,192,322258,1,0,0:0:0:0:
256,192,322313,1,0,0:0:0:0:
36,192,322369,1,0,0:0:0:0:
402,192,322424,1,0,0:0:0:0:
329,192,322480,1,0,0:0:0:0:
182,192,322536,1,0,0:0:0:0:
109,192,322591,1,0,0:0:0:0:
36,192,322647,1,0,0:0:0:0:
256,192,322647,1,0,0:0:0:0:
475,192,322647,1,0,0:0:0:0:
402,192,322702,1,0,0:0:0:0:
182,192,322758,1,0,0:0:0:0:
109,192,322813,1,0,0:0:0:0:
329,192,322869,1,0,0:0:0:0:
256,192,322924,1,0,0:0:0:0:
402,192,322980,1,0,0:0:0:0:
475,192,323036,1,0,0:0:0:0:
182,192,323091,1,0,0:0:0:0:
36,192,323091,1,0,0:0:0:0:
109,192,323091,1,0,0:0:0:0:
329,192,323147,1,0,0:0:0:0:
402,192,323202,1,0,0:0:0:0:
256,192,323258,1,0,0:0:0:0:
109,192,323313,1,0,0:0:0:0:
182,192,323369,1,0,0:0:0:0:
329,192,323424,1,0,0:0:0:0:
475,192,323480,1,0,0:0:0:0:
256,192,323536,1,0,0:0:0:0:
36,192,323536,1,0,0:0:0:0:
109,192,323536,1,0,0:0:0:0:
402,192,323591,1,0,0:0:0:0:
182,192,323647,1,0,0:0:0:0:
329,192,323702,1,0,0:0:0:0:
475,192,323758,1,0,0:0:0:0:
36,192,323758,1,0,0:0:0:0:
109,192,323758,1,0,0:0:0:0:
256,192,323813,1,0,0:0:0:0:
182,192,323869,1,0,0:0:0:0:
329,192,323980,1,0,0:0:0:0:
402,192,323980,1,0,0:0:0:0:
109,192,323980,1,0,0:0:0:0:
36,192,323980,1,0,0:0:0:0:
475,192,324036,1,0,0:0:0:0:
256,192,324091,1,0,0:0:0:0:
109,192,324147,1,0,0:0:0:0:
329,192,324202,1,0,0:0:0:0:
402,192,324258,1,0,0:0:0:0:
182,192,324313,1,0,0:0:0:0:
256,192,324369,1,0,0:0:0:0:
329,192,324424,1,0,0:0:0:0:
475,192,324424,1,0,0:0:0:0:
36,192,324424,1,0,0:0:0:0:
109,192,324480,1,0,0:0:0:0:
182,192,324536,1,0,0:0:0:0:
402,192,324591,1,0,0:0:0:0:
256,192,324647,1,0,0:0:0:0:
109,192,324702,1,0,0:0:0:0:
36,192,324758,1,0,0:0:0:0:
182,192,324813,1,0,0:0:0:0:
329,192,324869,1,0,0:0:0:0:
475,192,324869,1,0,0:0:0:0:
402,192,324869,1,0,0:0:0:0:
256,192,324924,1,0,0:0:0:0:
109,192,324980,1,0,0:0:0:0:
36,192,325036,1,0,0:0:0:0:
182,192,325091,1,0,0:0:0:0:
329,192,325147,1,0,0:0:0:0:
475,192,325202,1,0,0:0:0:0:
256,192,325258,1,0,0:0:0:0:
402,192,325313,1,0,0:0:0:0:
109,192,325313,1,0,0:0:0:0:
36,192,325313,1,0,0:0:0:0:
329,192,325369,1,0,0:0:0:0:
182,192,325424,1,0,0:0:0:0:
475,192,325480,1,0,0:0:0:0:
256,192,325536,1,0,0:0:0:0:
109,192,325591,1,0,0:0:0:0:
36,192,325647,1,0,0:0:0:0:
182,192,325702,1,0,0:0:0:0:
329,192,325758,1,0,0:0:0:0:
402,192,325758,1,0,0:0:0:0:
475,192,325758,1,0,0:0:0:0:
109,192,325813,1,0,0:0:0:0:
256,192,325869,1,0,0:0:0:0:
182,192,325924,1,0,0:0:0:0:
402,192,325980,1,0,0:0:0:0:
329,192,326036,1,0,0:0:0:0:
109,192,326091,1,0,0:0:0:0:
36,192,326147,1,0,0:0:0:0:
182,192,326202,1,0,0:0:0:0:
256,192,326202,1,0,0:0:0:0:
475,192,326202,1,0,0:0:0:0:
402,192,326258,1,0,0:0:0:0:
329,192,326313,1,0,0:0:0:0:
109,192,326369,1,0,0:0:0:0:
182,192,326424,1,0,0:0:0:0:
402,192,326480,1,0,0:0:0:0:
475,192,326536,1,0,0:0:0:0:
256,192,326591,1,0,0:0:0:0:
182,192,326647,1,0,0:0:0:0:
109,192,326647,1,0,0:0:0:0:
36,192,326647,1,0,0:0:0:0:
329,192,326702,1,0,0:0:0:0:
475,192,326758,1,0,0:0:0:0:
256,192,326813,1,0,0:0:0:0:
182,192,326869,1,0,0:0:0:0:
36,192,326924,1,0,0:0:0:0:
109,192,326980,1,0,0:0:0:0:
329,192,327036,1,0,0:0:0:0:
182,192,327091,1,0,0:0:0:0:
402,192,327091,1,0,0:0:0:0:
475,192,327091,1,0,0:0:0:0:
36,192,327147,1,0,0:0:0:0:
256,192,327202,1,0,0:0:0:0:
109,192,327258,1,0,0:0:0:0:
329,192,327313,1,0,0:0:0:0:
402,192,327313,1,0,0:0:0:0:
182,192,327369,1,0,0:0:0:0:
475,192,327424,1,0,0:0:0:0:
36,192,327480,1,0,0:0:0:0:
109,192,327536,1,0,0:0:0:0:
402,192,327536,1,0,0:0:0:0:
329,192,327536,1,0,0:0:0:0:
256,192,327591,1,0,0:0:0:0:
182,192,327647,1,0,0:0:0:0:
475,192,327702,1,0,0:0:0:0:
36,192,327758,1,0,0:0:0:0:
256,192,327813,1,0,0:0:0:0:
109,192,327869,1,0,0:0:0:0:
329,192,327924,1,0,0:0:0:0:
475,192,327980,1,0,0:0:0:0:
402,192,327980,1,0,0:0:0:0:
182,192,327980,1,0,0:0:0:0:
36,192,328036,1,0,0:0:0:0:
256,192,328091,1,0,0:0:0:0:
109,192,328147,1,0,0:0:0:0:
329,192,328202,1,0,0:0:0:0:
475,192,328258,1,0,0:0:0:0:
182,192,328313,1,0,0:0:0:0:
256,192,328369,1,0,0:0:0:0:
402,192,328424,1,0,0:0:0:0:
36,192,328424,1,0,0:0:0:0:
109,192,328424,1,0,0:0:0:0:
475,192,328480,1,0,0:0:0:0:
329,192,328536,1,0,0:0:0:0:
182,192,328591,1,0,0:0:0:0:
36,192,328647,1,0,0:0:0:0:
256,192,328702,1,0,0:0:0:0:
109,192,328758,1,0,0:0:0:0:
402,192,328813,1,0,0:0:0:0:
475,192,328869,1,0,0:0:0:0:
329,192,328869,1,0,0:0:0:0:
182,192,328869,1,0,0:0:0:0:
36,192,328924,1,0,0:0:0:0:
256,192,328980,1,0,0:0:0:0:
402,192,329036,1,0,0:0:0:0:
109,192,329091,1,0,0:0:0:0:
182,192,329147,1,0,0:0:0:0:
329,192,329202,1,0,0:0:0:0:
475,192,329258,1,0,0:0:0:0:
256,192,329313,1,0,0:0:0:0:
109,192,329313,1,0,0:0:0:0:
36,192,329313,1,0,0:0:0:0:
402,192,329369,1,0,0:0:0:0:
329,192,329424,1,0,0:0:0:0:
182,192,329480,1,0,0:0:0:0:
475,192,329536,1,0,0:0:0:0:
256,192,329591,1,0,0:0:0:0:
109,192,329647,1,0,0:0:0:0:
36,192,329702,1,0,0:0:0:0:
182,192,329758,1,0,0:0:0:0:
329,192,329758,1,0,0:0:0:0:
475,192,329758,1,0,0:0:0:0:
402,192,329813,1,0,0:0:0:0:
256,192,329869,1,0,0:0:0:0:
109,192,329924,1,0,0:0:0:0:
36,192,329980,1,0,0:0:0:0:
182,192,330036,1,0,0:0:0:0:
329,192,330091,1,0,0:0:0:0:
402,192,330147,1,0,0:0:0:0:
475,192,330202,1,0,0:0:0:0:
109,192,330202,1,0,0:0:0:0:
256,192,330202,1,0,0:0:0:0:
36,192,330258,1,0,0:0:0:0:
182,192,330313,1,0,0:0:0:0:
329,192,330369,1,0,0:0:0:0:
402,192,330424,1,0,0:0:0:0:
109,192,330480,1,0,0:0:0:0:
182,192,330536,1,0,0:0:0:0:
256,192,330591,1,0,0:0:0:0:
329,192,330647,1,0,0:0:0:0:
475,192,330647,1,0,0:0:0:0:
36,192,330647,1,0,0:0:0:0:
109,192,330702,1,0,0:0:0:0:
182,192,330758,1,0,0:0:0:0:
402,192,330813,1,0,0:0:0:0:
329,192,330869,1,0,0:0:0:0:
36,192,330869,1,0,0:0:0:0:
109,192,330869,1,0,0:0:0:0:
256,192,330924,1,0,0:0:0:0:
182,192,330980,1,0,0:0:0:0:
402,192,331091,1,0,0:0:0:0:
475,192,331091,1,0,0:0:0:0:
109,192,331091,1,0,0:0:0:0:
36,192,331091,1,0,0:0:0:0:
329,192,331147,1,0,0:0:0:0:
256,192,331202,1,0,0:0:0:0:
182,192,331258,1,0,0:0:0:0:
109,192,331313,1,0,0:0:0:0:
402,192,331369,1,0,0:0:0:0:
475,192,331424,1,0,0:0:0:0:
256,192,331480,1,0,0:0:0:0:
182,192,331536,1,0,0:0:0:0:
109,192,331536,1,0,0:0:0:0:
36,192,331536,1,0,0:0:0:0:
329,192,331591,1,0,0:0:0:0:
475,192,331647,1,0,0:0:0:0:
256,192,331702,5,0,0:0:0:0:
109,192,331758,1,0,0:0:0:0:
402,192,331813,1,0,0:0:0:0:
329,192,331869,1,0,0:0:0:0:
182,192,331924,1,0,0:0:0:0:
36,192,331980,1,0,0:0:0:0:
475,192,331980,1,0,0:0:0:0:
256,192,331980,1,0,0:0:0:0:
402,192,332036,1,0,0:0:0:0:
109,192,332091,1,0,0:0:0:0:
182,192,332147,1,0,0:0:0:0:
329,192,332202,1,0,0:0:0:0:
475,192,332258,1,0,0:0:0:0:
256,192,332313,1,0,0:0:0:0:
109,192,332369,1,0,0:0:0:0:
36,192,332424,1,0,0:0:0:0:
402,192,332424,1,0,0:0:0:0:
329,192,332424,1,0,0:0:0:0:
182,192,332480,1,0,0:0:0:0:
256,192,332536,1,0,0:0:0:0:
475,192,332591,1,0,0:0:0:0:
109,192,332647,1,0,0:0:0:0:
182,192,332702,1,0,0:0:0:0:
256,192,332758,1,0,0:0:0:0:
329,192,332813,1,0,0:0:0:0:
109,192,332869,5,0,0:0:0:0:
36,192,332869,1,0,0:0:0:0:
402,192,332869,1,0,0:0:0:0:
475,192,332869,1,0,0:0:0:0:
256,192,332924,1,0,0:0:0:0:
182,192,332980,1,0,0:0:0:0:
329,192,332980,1,0,0:0:0:0:
402,192,333036,1,0,0:0:0:0:
475,192,333091,1,0,0:0:0:0:
256,192,333091,1,0,0:0:0:0:
36,192,333091,1,0,0:0:0:0:
109,192,333147,1,0,0:0:0:0:
329,192,333202,1,0,0:0:0:0:
182,192,333258,1,0,0:0:0:0:
256,192,333313,1,0,0:0:0:0:
402,192,333313,1,0,0:0:0:0:
36,192,333313,1,0,0:0:0:0:
109,192,333369,1,0,0:0:0:0:
475,192,333424,1,0,0:0:0:0:
329,192,333424,1,0,0:0:0:0:
182,192,333480,1,0,0:0:0:0:
109,192,333536,1,0,0:0:0:0:
256,192,333536,1,0,0:0:0:0:
36,192,333536,1,0,0:0:0:0:
402,192,333591,1,0,0:0:0:0:
329,192,333647,1,0,0:0:0:0:
475,192,333647,1,0,0:0:0:0:
182,192,333702,1,0,0:0:0:0:
109,192,333758,1,0,0:0:0:0:
36,192,333758,1,0,0:0:0:0:
256,192,333758,1,0,0:0:0:0:
329,192,333869,1,0,0:0:0:0:
475,192,333869,1,0,0:0:0:0:
402,192,333980,1,0,0:0:0:0:
256,192,333980,1,0,0:0:0:0:
329,192,334091,1,0,0:0:0:0:
182,192,334091,1,0,0:0:0:0:
256,192,334202,1,0,0:0:0:0:
36,192,334202,1,0,0:0:0:0:
109,192,334202,1,0,0:0:0:0:
475,192,334313,1,0,0:0:0:0:
329,192,334313,1,0,0:0:0:0:
109,192,334424,1,0,0:0:0:0:
36,192,334424,1,0,0:0:0:0:
182,192,334424,1,0,0:0:0:0:
256,192,334536,1,0,0:0:0:0:
402,192,334536,1,0,0:0:0:0:
475,192,334536,1,0,0:0:0:0:
109,192,334647,1,0,0:0:0:0:
36,192,334647,1,0,0:0:0:0:
329,192,334647,1,0,0:0:0:0:
182,192,334647,1,0,0:0:0:0:
402,192,334702,1,0,0:0:0:0:
475,192,334758,1,0,0:0:0:0:
256,192,334758,1,0,0:0:0:0:
109,192,334813,1,0,0:0:0:0:
182,192,334869,1,0,0:0:0:0:
329,192,334869,1,0,0:0:0:0:
36,192,334869,1,0,0:0:0:0:
402,192,334924,1,0,0:0:0:0:
109,192,334980,1,0,0:0:0:0:
256,192,334980,1,0,0:0:0:0:
329,192,335036,1,0,0:0:0:0:
402,192,335091,1,0,0:0:0:0:
475,192,335091,1,0,0:0:0:0:
36,192,335091,1,0,0:0:0:0:
182,192,335091,1,0,0:0:0:0:
109,192,335147,1,0,0:0:0:0:
256,192,335202,1,0,0:0:0:0:
329,192,335202,1,0,0:0:0:0:
182,192,335258,1,0,0:0:0:0:
475,192,335313,1,0,0:0:0:0:
36,192,335313,1,0,0:0:0:0:
402,192,335313,1,0,0:0:0:0:
109,192,335369,1,0,0:0:0:0:
329,192,335424,1,0,0:0:0:0:
182,192,335424,1,0,0:0:0:0:
36,192,335480,1,0,0:0:0:0:
475,192,335536,1,0,0:0:0:0:
109,192,335536,1,0,0:0:0:0:
256,192,335536,1,0,0:0:0:0:
329,192,335647,1,0,0:0:0:0:
402,192,335647,1,0,0:0:0:0:
182,192,335758,1,0,0:0:0:0:
256,192,335758,1,0,0:0:0:0:
109,192,335869,1,0,0:0:0:0:
36,192,335869,1,0,0:0:0:0:
256,192,335980,1,0,0:0:0:0:
475,192,335980,1,0,0:0:0:0:
402,192,335980,1,0,0:0:0:0:
109,192,336091,1,0,0:0:0:0:
36,192,336091,1,0,0:0:0:0:
329,192,336202,1,0,0:0:0:0:
182,192,336202,1,0,0:0:0:0:
475,192,336313,1,0,0:0:0:0:
402,192,336313,1,0,0:0:0:0:
36,192,336424,1,0,0:0:0:0:
109,192,336424,1,0,0:0:0:0:
329,192,336424,1,0,0:0:0:0:
256,192,336424,1,0,0:0:0:0:
402,192,336480,1,0,0:0:0:0:
475,192,336536,1,0,0:0:0:0:
182,192,336536,1,0,0:0:0:0:
109,192,336591,1,0,0:0:0:0:
36,192,336647,1,0,0:0:0:0:
256,192,336647,1,0,0:0:0:0:
329,192,336647,1,0,0:0:0:0:
402,192,336702,1,0,0:0:0:0:
475,192,336758,1,0,0:0:0:0:
109,192,336758,1,0,0:0:0:0:
256,192,336813,1,0,0:0:0:0:
182,192,336869,1,0,0:0:0:0:
36,192,336869,1,0,0:0:0:0:
402,192,336869,1,0,0:0:0:0:
329,192,336924,1,0,0:0:0:0:
109,192,336980,1,0,0:0:0:0:
475,192,337036,1,0,0:0:0:0:
402,192,337091,1,0,0:0:0:0:
256,192,337091,1,0,0:0:0:0:
36,192,337091,1,0,0:0:0:0:
182,192,337147,1,0,0:0:0:0:
109,192,337202,1,0,0:0:0:0:
329,192,337202,1,0,0:0:0:0:
256,192,337258,1,0,0:0:0:0:
475,192,337313,1,0,0:0:0:0:
402,192,337313,1,0,0:0:0:0:
36,192,337313,1,0,0:0:0:0:
109,192,337424,1,0,0:0:0:0:
329,192,337424,1,0,0:0:0:0:
402,192,337536,1,0,0:0:0:0:
475,192,337536,1,0,0:0:0:0:
182,192,337536,1,0,0:0:0:0:
109,192,337647,1,0,0:0:0:0:
329,192,337647,1,0,0:0:0:0:
402,192,337758,1,0,0:0:0:0:
475,192,337758,1,0,0:0:0:0:
182,192,337758,1,0,0:0:0:0:
36,192,337869,1,0,0:0:0:0:
329,192,337869,1,0,0:0:0:0:
109,192,337869,1,0,0:0:0:0:
256,192,337980,1,0,0:0:0:0:
475,192,337980,1,0,0:0:0:0:
182,192,337980,1,0,0:0:0:0:
402,192,338091,1,0,0:0:0:0:
329,192,338091,1,0,0:0:0:0:
109,192,338091,1,0,0:0:0:0:
475,192,338202,1,0,0:0:0:0:
256,192,338202,1,0,0:0:0:0:
36,192,338202,1,0,0:0:0:0:
182,192,338202,1,0,0:0:0:0:
329,192,338258,1,0,0:0:0:0:
402,192,338313,1,0,0:0:0:0:
109,192,338313,1,0,0:0:0:0:
182,192,338369,1,0,0:0:0:0:
256,192,338424,1,0,0:0:0:0:
475,192,338424,1,0,0:0:0:0:
36,192,338424,1,0,0:0:0:0:
329,192,338480,1,0,0:0:0:0:
402,192,338536,1,0,0:0:0:0:
182,192,338536,1,0,0:0:0:0:
109,192,338591,1,0,0:0:0:0:
36,192,338647,1,0,0:0:0:0:
256,192,338647,1,0,0:0:0:0:
475,192,338647,1,0,0:0:0:0:
329,192,338647,1,0,0:0:0:0:
182,192,338702,1,0,0:0:0:0:
109,192,338758,1,0,0:0:0:0:
402,192,338758,1,0,0:0:0:0:
329,192,338813,1,0,0:0:0:0:
256,192,338869,1,0,0:0:0:0:
36,192,338869,1,0,0:0:0:0:
475,192,338869,1,0,0:0:0:0:
109,192,338924,1,0,0:0:0:0:
182,192,338980,1,0,0:0:0:0:
329,192,338980,1,0,0:0:0:0:
402,192,339036,1,0,0:0:0:0:
475,192,339091,1,0,0:0:0:0:
256,192,339091,1,0,0:0:0:0:
109,192,339091,1,0,0:0:0:0:
36,192,339091,1,0,0:0:0:0:
182,192,339202,1,0,0:0:0:0:
329,192,339202,1,0,0:0:0:0:
109,192,339313,1,0,0:0:0:0:
402,192,339313,1,0,0:0:0:0:
329,192,339424,1,0,0:0:0:0:
182,192,339424,1,0,0:0:0:0:
256,192,339536,1,0,0:0:0:0:
475,192,339536,1,0,0:0:0:0:
36,192,339536,1,0,0:0:0:0:
329,192,339647,1,0,0:0:0:0:
109,192,339647,1,0,0:0:0:0:
182,192,339758,1,0,0:0:0:0:
402,192,339758,1,0,0:0:0:0:
475,192,339758,1,0,0:0:0:0:
329,192,339869,1,0,0:0:0:0:
109,192,339869,1,0,0:0:0:0:
475,192,339980,1,0,0:0:0:0:
36,192,339980,1,0,0:0:0:0:
402,192,339980,1,0,0:0:0:0:
182,192,339980,1,0,0:0:0:0:
256,192,340036,1,0,0:0:0:0:
329,192,340091,1,0,0:0:0:0:
109,192,340091,1,0,0:0:0:0:
182,192,340147,1,0,0:0:0:0:
256,192,340202,1,0,0:0:0:0:
475,192,340202,1,0,0:0:0:0:
36,192,340202,1,0,0:0:0:0:
402,192,340258,1,0,0:0:0:0:
329,192,340313,1,0,0:0:0:0:
182,192,340313,1,0,0:0:0:0:
109,192,340369,1,0,0:0:0:0:
36,192,340424,1,0,0:0:0:0:
256,192,340424,1,0,0:0:0:0:
475,192,340424,1,0,0:0:0:0:
402,192,340424,1,0,0:0:0:0:
182,192,340480,1,0,0:0:0:0:
329,192,340536,1,0,0:0:0:0:
109,192,340536,1,0,0:0:0:0:
402,192,340591,1,0,0:0:0:0:
256,192,340647,1,0,0:0:0:0:
475,192,340647,1,0,0:0:0:0:
36,192,340647,1,0,0:0:0:0:
182,192,340702,1,0,0:0:0:0:
329,192,340758,1,0,0:0:0:0:
109,192,340758,1,0,0:0:0:0:
402,192,340813,1,0,0:0:0:0:
475,192,340869,1,0,0:0:0:0:
36,192,340869,1,0,0:0:0:0:
182,192,340869,1,0,0:0:0:0:
329,192,340980,1,0,0:0:0:0:
256,192,340980,1,0,0:0:0:0:
475,192,341091,1,0,0:0:0:0:
36,192,341091,1,0,0:0:0:0:
109,192,341091,1,0,0:0:0:0:
182,192,341202,1,0,0:0:0:0:
256,192,341202,1,0,0:0:0:0:
475,192,341313,1,0,0:0:0:0:
402,192,341313,1,0,0:0:0:0:
36,192,341313,1,0,0:0:0:0:
329,192,341424,1,0,0:0:0:0:
109,192,341424,1,0,0:0:0:0:
182,192,341536,1,0,0:0:0:0:
402,192,341536,1,0,0:0:0:0:
109,192,341647,1,0,0:0:0:0:
475,192,341647,1,0,0:0:0:0:
329,192,341758,1,0,0:0:0:0:
256,192,341758,1,0,0:0:0:0:
182,192,341758,1,0,0:0:0:0:
36,192,341758,1,0,0:0:0:0:
402,192,341813,1,0,0:0:0:0:
475,192,341869,1,0,0:0:0:0:
109,192,341869,1,0,0:0:0:0:
182,192,341924,1,0,0:0:0:0:
256,192,341980,1,0,0:0:0:0:
36,192,341980,1,0,0:0:0:0:
402,192,342036,1,0,0:0:0:0:
329,192,342091,1,0,0:0:0:0:
182,192,342091,1,0,0:0:0:0:
109,192,342147,1,0,0:0:0:0:
36,192,342202,1,0,0:0:0:0:
256,192,342202,1,0,0:0:0:0:
475,192,342202,1,0,0:0:0:0:
402,192,342202,1,0,0:0:0:0:
182,192,342258,1,0,0:0:0:0:
109,192,342313,1,0,0:0:0:0:
329,192,342313,1,0,0:0:0:0:
402,192,342369,1,0,0:0:0:0:
475,192,342424,1,0,0:0:0:0:
182,192,342424,1,0,0:0:0:0:
36,192,342424,1,0,0:0:0:0:
256,192,342480,1,0,0:0:0:0:
329,192,342536,1,0,0:0:0:0:
109,192,342536,1,0,0:0:0:0:
182,192,342591,1,0,0:0:0:0:
256,192,342647,1,0,0:0:0:0:
475,192,342647,1,0,0:0:0:0:
402,192,342647,1,0,0:0:0:0:
36,192,342647,1,0,0:0:0:0:
109,192,342758,1,0,0:0:0:0:
182,192,342758,1,0,0:0:0:0:
402,192,342869,1,0,0:0:0:0:
329,192,342869,1,0,0:0:0:0:
182,192,342980,1,0,0:0:0:0:
109,192,342980,1,0,0:0:0:0:
256,192,343091,1,0,0:0:0:0:
475,192,343091,1,0,0:0:0:0:
36,192,343091,1,0,0:0:0:0:
402,192,343202,1,0,0:0:0:0:
329,192,343202,1,0,0:0:0:0:
109,192,343313,1,0,0:0:0:0:
182,192,343313,1,0,0:0:0:0:
329,192,343424,1,0,0:0:0:0:
402,192,343424,1,0,0:0:0:0:
256,192,343536,1,0,0:0:0:0:
475,192,343536,1,0,0:0:0:0:
109,192,343536,1,0,0:0:0:0:
36,192,343536,1,0,0:0:0:0:
329,192,343591,1,0,0:0:0:0:
402,192,343647,1,0,0:0:0:0:
182,192,343647,1,0,0:0:0:0:
109,192,343702,1,0,0:0:0:0:
36,192,343758,1,0,0:0:0:0:
256,192,343758,1,0,0:0:0:0:
475,192,343758,1,0,0:0:0:0:
402,192,343813,1,0,0:0:0:0:
329,192,343869,1,0,0:0:0:0:
182,192,343869,1,0,0:0:0:0:
109,192,343924,1,0,0:0:0:0:
36,192,343980,1,0,0:0:0:0:
256,192,343980,1,0,0:0:0:0:
475,192,343980,1,0,0:0:0:0:
402,192,343980,1,0,0:0:0:0:
182,192,344036,1,0,0:0:0:0:
109,192,344091,1,0,0:0:0:0:
329,192,344091,1,0,0:0:0:0:
402,192,344147,1,0,0:0:0:0:
475,192,344202,1,0,0:0:0:0:
256,192,344202,1,0,0:0:0:0:
36,192,344202,1,0,0:0:0:0:
109,192,344258,1,0,0:0:0:0:
182,192,344313,1,0,0:0:0:0:
402,192,344313,1,0,0:0:0:0:
329,192,344369,1,0,0:0:0:0:
256,192,344424,1,0,0:0:0:0:
475,192,344424,1,0,0:0:0:0:
109,192,344424,1,0,0:0:0:0:
36,192,344424,1,0,0:0:0:0:
182,192,344536,1,0,0:0:0:0:
402,192,344536,1,0,0:0:0:0:
329,192,344647,1,0,0:0:0:0:
109,192,344647,1,0,0:0:0:0:
182,192,344758,1,0,0:0:0:0:
402,192,344758,1,0,0:0:0:0:
256,192,344869,1,0,0:0:0:0:
36,192,344869,1,0,0:0:0:0:
475,192,344869,1,0,0:0:0:0:
329,192,344980,1,0,0:0:0:0:
109,192,344980,1,0,0:0:0:0:
36,192,345091,1,0,0:0:0:0:
402,192,345091,1,0,0:0:0:0:
329,192,345202,1,0,0:0:0:0:
182,192,345202,1,0,0:0:0:0:
475,192,345313,5,0,0:0:0:0:
109,192,345313,1,0,0:0:0:0:
36,192,345313,1,0,0:0:0:0:
256,192,345313,1,0,0:0:0:0:
402,192,345369,1,0,0:0:0:0:
329,192,345424,1,0,0:0:0:0:
182,192,345424,1,0,0:0:0:0:
109,192,345480,1,0,0:0:0:0:
36,192,345536,1,0,0:0:0:0:
256,192,345536,1,0,0:0:0:0:
475,192,345536,1,0,0:0:0:0:
402,192,345591,1,0,0:0:0:0:
329,192,345647,1,0,0:0:0:0:
182,192,345647,1,0,0:0:0:0:
109,192,345702,1,0,0:0:0:0:
36,192,345758,1,0,0:0:0:0:
475,192,345758,1,0,0:0:0:0:
256,192,345758,1,0,0:0:0:0:
402,192,345813,1,0,0:0:0:0:
329,192,345869,1,0,0:0:0:0:
182,192,345869,1,0,0:0:0:0:
109,192,345924,1,0,0:0:0:0:
36,192,345980,1,0,0:0:0:0:
475,192,345980,1,0,0:0:0:0:
256,192,345980,1,0,0:0:0:0:
402,192,346036,1,0,0:0:0:0:
329,192,346091,1,0,0:0:0:0:
182,192,346091,1,0,0:0:0:0:
109,192,346147,1,0,0:0:0:0:
256,192,346202,1,0,0:0:0:0:
475,192,346202,1,0,0:0:0:0:
402,192,346202,1,0,0:0:0:0:
36,192,346202,1,0,0:0:0:0:
329,192,346424,5,0,0:0:0:0:
182,192,346424,1,0,0:0:0:0:
475,192,346536,1,0,0:0:0:0:
36,192,346536,1,0,0:0:0:0:
256,192,346647,1,0,0:0:0:0:
109,192,346647,1,0,0:0:0:0:
329,192,346758,1,0,0:0:0:0:
182,192,346758,1,0,0:0:0:0:
475,192,346869,1,0,0:0:0:0:
36,192,346869,1,0,0:0:0:0:
402,192,346980,1,0,0:0:0:0:
256,192,346980,1,0,0:0:0:0:
36,192,347091,1,0,0:0:0:0:
109,192,347091,1,0,0:0:0:0:
182,192,347091,1,0,0:0:0:0:
329,192,347091,1,0,0:0:0:0:
475,192,347536,1,0,0:0:0:0:
182,192,347980,1,0,0:0:0:0:
402,192,348424,1,0,0:0:0:0:
256,192,348869,1,0,0:0:0:0:
329,192,349091,1,0,0:0:0:0:
182,192,349313,1,0,0:0:0:0:
256,192,349536,1,0,0:0:0:0:
109,192,349758,1,0,0:0:0:0:
109,192,350202,1,0,0:0:0:0:
182,192,350424,1,0,0:0:0:0:
256,192,350647,1,0,0:0:0:0:
475,192,351091,1,0,0:0:0:0:
329,192,351536,1,0,0:0:0:0:
475,192,351980,1,0,0:0:0:0:
256,192,352424,1,0,0:0:0:0:
36,192,353758,1,0,0:0:0:0:
109,192,353980,1,0,0:0:0:0:
182,192,354202,1,0,0:0:0:0:
329,192,354647,1,0,0:0:0:0:
256,192,355091,1,0,0:0:0:0:
402,192,355536,1,0,0:0:0:0:
182,192,355980,1,0,0:0:0:0:
329,192,356202,1,0,0:0:0:0:
182,192,356424,1,0,0:0:0:0:
256,192,356647,1,0,0:0:0:0:
109,192,356869,1,0,0:0:0:0:
109,192,357313,1,0,0:0:0:0:
182,192,357536,1,0,0:0:0:0:
256,192,357758,1,0,0:0:0:0:
475,192,358202,1,0,0:0:0:0:
402,192,358647,1,0,0:0:0:0:
256,192,359091,1,0,0:0:0:0:
182,192,359536,1,0,0:0:0:0:
36,192,359758,1,0,0:0:0:0:
182,192,359813,1,0,0:0:0:0:
402,192,359869,1,0,0:0:0:0:
256,192,359924,1,0,0:0:0:0:
109,192,359980,1,0,0:0:0:0:
329,192,360036,1,0,0:0:0:0:
475,192,360091,1,0,0:0:0:0:
256,192,360147,1,0,0:0:0:0:
36,192,360202,1,0,0:0:0:0:
182,192,360258,1,0,0:0:0:0:
402,192,360313,1,0,0:0:0:0:
256,192,360369,1,0,0:0:0:0:
182,192,360424,1,0,0:0:0:0:
36,192,360424,1,0,0:0:0:0:
329,192,360647,1,0,0:0:0:0:
475,192,360647,1,0,0:0:0:0:
402,192,360647,1,0,0:0:0:0:
182,192,360647,1,0,0:0:0:0:
109,192,360647,1,0,0:0:0:0:
36,192,360647,1,0,0:0:0:0:
475,192,360869,1,0,0:0:0:0:
402,192,360869,1,0,0:0:0:0:
329,192,360869,1,0,0:0:0:0:
182,192,360869,1,0,0:0:0:0:
109,192,360869,1,0,0:0:0:0:
36,192,360869,1,0,0:0:0:0:
256,192,361091,1,0,0:0:0:0:
109,192,361091,1,0,0:0:0:0:
36,192,361091,1,0,0:0:0:0:
402,192,361091,1,0,0:0:0:0:
475,192,361091,1,0,0:0:0:0:
329,192,361313,1,0,0:0:0:0:
182,192,361313,1,0,0:0:0:0:
475,192,361313,1,0,0:0:0:0:
402,192,361313,1,0,0:0:0:0:
256,192,361424,1,0,0:0:0:0:
109,192,361424,1,0,0:0:0:0:
36,192,361424,1,0,0:0:0:0:
182,192,361536,1,0,0:0:0:0:
402,192,361536,1,0,0:0:0:0:
475,192,361536,1,0,0:0:0:0:
329,192,361647,1,0,0:0:0:0:
109,192,361647,1,0,0:0:0:0:
36,192,361647,1,0,0:0:0:0:
256,192,361758,1,0,0:0:0:0:
475,192,361758,1,0,0:0:0:0:
329,192,361813,1,0,0:0:0:0:
182,192,361869,1,0,0:0:0:0:
36,192,361924,1,0,0:0:0:0:
109,192,361980,1,0,0:0:0:0:
475,192,361980,1,0,0:0:0:0:
256,192,362036,1,0,0:0:0:0:
329,192,362091,1,0,0:0:0:0:
182,192,362091,1,0,0:0:0:0:
402,192,362147,1,0,0:0:0:0:
36,192,362202,1,0,0:0:0:0:
109,192,362258,1,0,0:0:0:0:
182,192,362313,1,0,0:0:0:0:
475,192,362313,1,0,0:0:0:0:
329,192,362313,1,0,0:0:0:0:
402,192,362424,1,0,0:0:0:0:
256,192,362424,1,0,0:0:0:0:
109,192,362480,1,0,0:0:0:0:
36,192,362536,1,0,0:0:0:0:
329,192,362536,1,0,0:0:0:0:
182,192,362591,1,0,0:0:0:0:
256,192,362647,1,0,0:0:0:0:
402,192,362647,1,0,0:0:0:0:
475,192,362647,1,0,0:0:0:0:
329,192,362758,1,0,0:0:0:0:
36,192,362758,1,0,0:0:0:0:
109,192,362813,1,0,0:0:0:0:
182,192,362869,1,0,0:0:0:0:
402,192,362869,1,0,0:0:0:0:
475,192,362869,1,0,0:0:0:0:
256,192,362980,1,0,0:0:0:0:
36,192,362980,1,0,0:0:0:0:
109,192,363036,1,0,0:0:0:0:
182,192,363091,1,0,0:0:0:0:
475,192,363091,1,0,0:0:0:0:
329,192,363147,1,0,0:0:0:0:
256,192,363202,1,0,0:0:0:0:
36,192,363202,1,0,0:0:0:0:
109,192,363258,1,0,0:0:0:0:
182,192,363313,1,0,0:0:0:0:
329,192,363369,1,0,0:0:0:0:
402,192,363424,1,0,0:0:0:0:
475,192,363424,1,0,0:0:0:0:
256,192,363480,1,0,0:0:0:0:
36,192,363536,1,0,0:0:0:0:
109,192,363536,1,0,0:0:0:0:
182,192,363591,1,0,0:0:0:0:
402,192,363647,1,0,0:0:0:0:
475,192,363647,1,0,0:0:0:0:
256,192,363702,1,0,0:0:0:0:
109,192,363758,1,0,0:0:0:0:
36,192,363813,1,0,0:0:0:0:
329,192,363869,1,0,0:0:0:0:
475,192,363869,1,0,0:0:0:0:
182,192,363924,1,0,0:0:0:0:
402,192,363980,1,0,0:0:0:0:
256,192,364036,1,0,0:0:0:0:
109,192,364091,1,0,0:0:0:0:
329,192,364147,1,0,0:0:0:0:
475,192,364202,1,0,0:0:0:0:
402,192,364258,1,0,0:0:0:0:
182,192,364313,1,0,0:0:0:0:
329,192,364313,1,0,0:0:0:0:
109,192,364369,1,0,0:0:0:0:
256,192,364424,1,0,0:0:0:0:
36,192,364424,1,0,0:0:0:0:
475,192,364424,1,0,0:0:0:0:
402,192,364480,1,0,0:0:0:0:
329,192,364536,1,0,0:0:0:0:
109,192,364536,1,0,0:0:0:0:
182,192,364647,1,0,0:0:0:0:
475,192,364647,1,0,0:0:0:0:
256,192,364702,1,0,0:0:0:0:
36,192,364758,1,0,0:0:0:0:
329,192,364758,1,0,0:0:0:0:
109,192,364813,1,0,0:0:0:0:
402,192,364869,1,0,0:0:0:0:
475,192,364869,1,0,0:0:0:0:
182,192,364869,1,0,0:0:0:0:
256,192,364980,1,0,0:0:0:0:
36,192,364980,1,0,0:0:0:0:
109,192,365036,1,0,0:0:0:0:
182,192,365091,1,0,0:0:0:0:
475,192,365091,1,0,0:0:0:0:
402,192,365147,1,0,0:0:0:0:
329,192,365202,1,0,0:0:0:0:
256,192,365258,1,0,0:0:0:0:
36,192,365313,1,0,0:0:0:0:
182,192,365313,1,0,0:0:0:0:
475,192,365313,1,0,0:0:0:0:
256,192,365424,1,0,0:0:0:0:
109,192,365424,1,0,0:0:0:0:
329,192,365480,1,0,0:0:0:0:
402,192,365536,1,0,0:0:0:0:
475,192,365536,1,0,0:0:0:0:
182,192,365536,1,0,0:0:0:0:
36,192,365647,1,0,0:0:0:0:
256,192,365647,1,0,0:0:0:0:
109,192,365702,1,0,0:0:0:0:
182,192,365758,1,0,0:0:0:0:
329,192,365758,1,0,0:0:0:0:
475,192,365758,1,0,0:0:0:0:
402,192,365869,1,0,0:0:0:0:
256,192,365869,1,0,0:0:0:0:
36,192,365869,1,0,0:0:0:0:
109,192,365980,1,0,0:0:0:0:
329,192,365980,1,0,0:0:0:0:
182,192,366036,1,0,0:0:0:0:
256,192,366091,1,0,0:0:0:0:
402,192,366091,1,0,0:0:0:0:
475,192,366091,1,0,0:0:0:0:
329,192,366202,1,0,0:0:0:0:
36,192,366202,1,0,0:0:0:0:
109,192,366258,1,0,0:0:0:0:
182,192,366313,1,0,0:0:0:0:
475,192,366313,1,0,0:0:0:0:
402,192,366369,1,0,0:0:0:0:
329,192,366424,1,0,0:0:0:0:
36,192,366424,1,0,0:0:0:0:
256,192,366480,1,0,0:0:0:0:
109,192,366536,1,0,0:0:0:0:
182,192,366536,1,0,0:0:0:0:
402,192,366536,1,0,0:0:0:0:
36,192,366647,1,0,0:0:0:0:
475,192,366647,1,0,0:0:0:0:
256,192,366647,1,0,0:0:0:0:
402,192,366702,1,0,0:0:0:0:
329,192,366758,1,0,0:0:0:0:
182,192,366758,1,0,0:0:0:0:
109,192,366813,1,0,0:0:0:0:
256,192,366869,1,0,0:0:0:0:
36,192,366869,1,0,0:0:0:0:
182,192,366980,1,0,0:0:0:0:
475,192,366980,1,0,0:0:0:0:
402,192,367036,1,0,0:0:0:0:
329,192,367091,1,0,0:0:0:0:
36,192,367091,1,0,0:0:0:0:
109,192,367091,1,0,0:0:0:0:
256,192,367147,1,0,0:0:0:0:
182,192,367202,1,0,0:0:0:0:
329,192,367313,1,0,0:0:0:0:
36,192,367313,1,0,0:0:0:0:
475,192,367313,1,0,0:0:0:0:
402,192,367313,1,0,0:0:0:0:
109,192,367387,1,0,0:0:0:0:
182,192,367462,1,0,0:0:0:0:
256,192,367536,1,0,0:0:0:0:
329,192,367536,1,0,0:0:0:0:
475,192,367536,1,0,0:0:0:0:
402,192,367536,1,0,0:0:0:0:
36,192,367536,1,0,0:0:0:0:
109,192,367610,1,0,0:0:0:0:
182,192,367684,1,0,0:0:0:0:
256,192,367758,1,0,0:0:0:0:
329,192,367758,1,0,0:0:0:0:
402,192,367758,1,0,0:0:0:0:
475,192,367758,1,0,0:0:0:0:
109,192,367832,1,0,0:0:0:0:
36,192,367906,1,0,0:0:0:0:
256,192,367980,1,0,0:0:0:0:
329,192,367980,1,0,0:0:0:0:
402,192,367980,1,0,0:0:0:0:
475,192,367980,1,0,0:0:0:0:
182,192,368054,1,0,0:0:0:0:
109,192,368128,1,0,0:0:0:0:
36,192,368202,1,0,0:0:0:0:
402,192,368202,1,0,0:0:0:0:
475,192,368202,1,0,0:0:0:0:
329,192,368276,1,0,0:0:0:0:
256,192,368350,1,0,0:0:0:0:
182,192,368424,1,0,0:0:0:0:
36,192,368424,1,0,0:0:0:0:
109,192,368424,1,0,0:0:0:0:
402,192,368424,1,0,0:0:0:0:
475,192,368424,1,0,0:0:0:0:
329,192,368480,1,0,0:0:0:0:
256,192,368591,1,0,0:0:0:0:
36,192,368647,1,0,0:0:0:0:
182,192,368647,1,0,0:0:0:0:
475,192,368647,1,0,0:0:0:0:
402,192,368702,1,0,0:0:0:0:
329,192,368758,1,0,0:0:0:0:
109,192,368813,1,0,0:0:0:0:
256,192,368869,1,0,0:0:0:0:
36,192,368869,1,0,0:0:0:0:
475,192,368869,1,0,0:0:0:0:
109,192,368980,1,0,0:0:0:0:
402,192,368980,1,0,0:0:0:0:
182,192,369036,1,0,0:0:0:0:
329,192,369091,1,0,0:0:0:0:
36,192,369091,1,0,0:0:0:0:
256,192,369091,1,0,0:0:0:0:
475,192,369202,1,0,0:0:0:0:
109,192,369202,1,0,0:0:0:0:
402,192,369258,1,0,0:0:0:0:
182,192,369313,1,0,0:0:0:0:
256,192,369313,1,0,0:0:0:0:
36,192,369313,1,0,0:0:0:0:
329,192,369369,1,0,0:0:0:0:
402,192,369424,1,0,0:0:0:0:
109,192,369424,1,0,0:0:0:0:
475,192,369536,1,0,0:0:0:0:
256,192,369536,1,0,0:0:0:0:
36,192,369536,1,0,0:0:0:0:
182,192,369647,1,0,0:0:0:0:
402,192,369647,1,0,0:0:0:0:
109,192,369702,1,0,0:0:0:0:
256,192,369758,1,0,0:0:0:0:
36,192,369758,1,0,0:0:0:0:
329,192,369813,1,0,0:0:0:0:
402,192,369869,1,0,0:0:0:0:
475,192,369869,1,0,0:0:0:0:
109,192,369869,1,0,0:0:0:0:
182,192,369924,1,0,0:0:0:0:
256,192,369980,1,0,0:0:0:0:
36,192,369980,1,0,0:0:0:0:
329,192,370036,1,0,0:0:0:0:
402,192,370091,1,0,0:0:0:0:
109,192,370091,1,0,0:0:0:0:
475,192,370202,1,0,0:0:0:0:
182,192,370202,1,0,0:0:0:0:
36,192,370202,1,0,0:0:0:0:
256,192,370313,1,0,0:0:0:0:
402,192,370313,1,0,0:0:0:0:
182,192,370369,1,0,0:0:0:0:
329,192,370424,1,0,0:0:0:0:
109,192,370424,1,0,0:0:0:0:
402,192,370480,1,0,0:0:0:0:
256,192,370536,1,0,0:0:0:0:
475,192,370536,1,0,0:0:0:0:
36,192,370591,1,0,0:0:0:0:
109,192,370647,1,0,0:0:0:0:
329,192,370647,1,0,0:0:0:0:
402,192,370702,1,0,0:0:0:0:
182,192,370758,1,0,0:0:0:0:
475,192,370758,1,0,0:0:0:0:
329,192,370869,1,0,0:0:0:0:
36,192,370869,1,0,0:0:0:0:
256,192,370924,1,0,0:0:0:0:
182,192,370980,1,0,0:0:0:0:
475,192,370980,1,0,0:0:0:0:
109,192,371036,1,0,0:0:0:0:
402,192,371091,1,0,0:0:0:0:
36,192,371091,1,0,0:0:0:0:
329,192,371147,1,0,0:0:0:0:
256,192,371202,1,0,0:0:0:0:
109,192,371202,1,0,0:0:0:0:
475,192,371202,1,0,0:0:0:0:
402,192,371313,1,0,0:0:0:0:
182,192,371313,1,0,0:0:0:0:
36,192,371313,1,0,0:0:0:0:
256,192,371369,1,0,0:0:0:0:
109,192,371424,1,0,0:0:0:0:
329,192,371424,1,0,0:0:0:0:
182,192,371536,1,0,0:0:0:0:
36,192,371536,1,0,0:0:0:0:
475,192,371536,1,0,0:0:0:0:
256,192,371591,1,0,0:0:0:0:
402,192,371647,1,0,0:0:0:0:
109,192,371647,1,0,0:0:0:0:
182,192,371702,1,0,0:0:0:0:
329,192,371758,1,0,0:0:0:0:
475,192,371758,1,0,0:0:0:0:
256,192,371813,1,0,0:0:0:0:
109,192,371869,1,0,0:0:0:0:
36,192,371924,1,0,0:0:0:0:
182,192,371980,1,0,0:0:0:0:
402,192,371980,1,0,0:0:0:0:
329,192,372036,1,0,0:0:0:0:
256,192,372091,1,0,0:0:0:0:
475,192,372091,1,0,0:0:0:0:
109,192,372091,1,0,0:0:0:0:
182,192,372202,1,0,0:0:0:0:
36,192,372202,1,0,0:0:0:0:
329,192,372258,1,0,0:0:0:0:
109,192,372313,1,0,0:0:0:0:
475,192,372313,1,0,0:0:0:0:
402,192,372369,1,0,0:0:0:0:
36,192,372424,1,0,0:0:0:0:
182,192,372424,1,0,0:0:0:0:
329,192,372480,1,0,0:0:0:0:
256,192,372536,1,0,0:0:0:0:
109,192,372536,1,0,0:0:0:0:
475,192,372536,1,0,0:0:0:0:
402,192,372591,1,0,0:0:0:0:
329,192,372647,1,0,0:0:0:0:
182,192,372702,1,0,0:0:0:0:
256,192,372758,1,0,0:0:0:0:
109,192,372758,1,0,0:0:0:0:
36,192,372758,1,0,0:0:0:0:
329,192,372813,1,0,0:0:0:0:
182,192,372869,1,0,0:0:0:0:
475,192,372869,1,0,0:0:0:0:
256,192,372980,1,0,0:0:0:0:
36,192,372980,1,0,0:0:0:0:
329,192,373036,1,0,0:0:0:0:
402,192,373091,1,0,0:0:0:0:
109,192,373147,1,0,0:0:0:0:
182,192,373202,1,0,0:0:0:0:
475,192,373202,1,0,0:0:0:0:
256,192,373258,1,0,0:0:0:0:
329,192,373313,1,0,0:0:0:0:
36,192,373313,1,0,0:0:0:0:
182,192,373424,1,0,0:0:0:0:
402,192,373424,1,0,0:0:0:0:
475,192,373424,1,0,0:0:0:0:
256,192,373536,1,0,0:0:0:0:
36,192,373536,1,0,0:0:0:0:
109,192,373536,1,0,0:0:0:0:
329,192,373591,1,0,0:0:0:0:
402,192,373647,1,0,0:0:0:0:
36,192,373758,1,0,0:0:0:0:
109,192,373758,1,0,0:0:0:0:
182,192,373758,1,0,0:0:0:0:
475,192,373758,1,0,0:0:0:0:
182,192,373980,1,0,0:0:0:0:
109,192,373980,1,0,0:0:0:0:
36,192,373980,1,0,0:0:0:0:
329,192,374091,1,0,0:0:0:0:
402,192,374091,1,0,0:0:0:0:
475,192,374091,1,0,0:0:0:0:
182,192,374202,1,0,0:0:0:0:
109,192,374202,1,0,0:0:0:0:
36,192,374202,1,0,0:0:0:0:
329,192,374313,1,0,0:0:0:0:
402,192,374313,1,0,0:0:0:0:
475,192,374313,1,0,0:0:0:0:
182,192,374424,5,0,0:0:0:0:
109,192,374424,1,0,0:0:0:0:
36,192,374424,1,0,0:0:0:0:
475,192,374536,5,0,0:0:0:0:
402,192,374536,1,0,0:0:0:0:
329,192,374536,1,0,0:0:0:0:
329,192,374647,1,0,0:0:0:0:
402,192,374647,1,0,0:0:0:0:
475,192,374647,1,0,0:0:0:0:
36,192,374647,1,0,0:0:0:0:
109,192,374647,1,0,0:0:0:0:
182,192,374647,1,0,0:0:0:0:
256,192,374980,1,0,0:0:0:0:
329,192,375036,1,0,0:0:0:0:
475,192,375091,1,0,0:0:0:0:
36,192,375091,1,0,0:0:0:0:
182,192,375091,1,0,0:0:0:0:
109,192,375091,1,0,0:0:0:0:
402,192,375091,1,0,0:0:0:0:
36,192,375536,5,0,0:0:0:0:
182,192,375536,1,0,0:0:0:0:
109,192,375536,1,0,0:0:0:0:
402,192,375536,1,0,0:0:0:0:
475,192,375536,1,0,0:0:0:0:
256,192,375591,1,0,0:0:0:0:
329,192,375647,1,0,0:0:0:0:
402,192,375702,1,0,0:0:0:0:
475,192,375758,1,0,0:0:0:0:
36,192,375758,1,0,0:0:0:0:
109,192,375758,1,0,0:0:0:0:
182,192,375813,1,0,0:0:0:0:
256,192,375869,1,0,0:0:0:0:
329,192,375924,1,0,0:0:0:0:
402,192,375980,1,0,0:0:0:0:
475,192,375980,1,0,0:0:0:0:
182,192,375980,1,0,0:0:0:0:
109,192,376036,1,0,0:0:0:0:
36,192,376091,1,0,0:0:0:0:
256,192,376091,1,0,0:0:0:0:
329,192,376147,1,0,0:0:0:0:
402,192,376202,1,0,0:0:0:0:
475,192,376202,1,0,0:0:0:0:
256,192,376258,1,0,0:0:0:0:
182,192,376313,1,0,0:0:0:0:
109,192,376369,1,0,0:0:0:0:
402,192,376424,1,0,0:0:0:0:
475,192,376424,1,0,0:0:0:0:
36,192,376424,1,0,0:0:0:0:
329,192,376424,1,0,0:0:0:0:
109,192,376536,1,0,0:0:0:0:
182,192,376591,1,0,0:0:0:0:
256,192,376647,1,0,0:0:0:0:
402,192,376647,1,0,0:0:0:0:
475,192,376647,1,0,0:0:0:0:
329,192,376702,1,0,0:0:0:0:
36,192,376758,1,0,0:0:0:0:
109,192,376758,1,0,0:0:0:0:
402,192,376869,1,0,0:0:0:0:
475,192,376869,1,0,0:0:0:0:
256,192,376869,1,0,0:0:0:0:
182,192,376869,1,0,0:0:0:0:
109,192,376924,1,0,0:0:0:0:
36,192,376980,1,0,0:0:0:0:
329,192,376980,1,0,0:0:0:0:
402,192,377036,1,0,0:0:0:0:
475,192,377091,1,0,0:0:0:0:
182,192,377091,1,0,0:0:0:0:
109,192,377091,1,0,0:0:0:0:
256,192,377147,1,0,0:0:0:0:
329,192,377202,1,0,0:0:0:0:
402,192,377202,1,0,0:0:0:0:
182,192,377258,1,0,0:0:0:0:
36,192,377313,1,0,0:0:0:0:
109,192,377313,1,0,0:0:0:0:
475,192,377313,1,0,0:0:0:0:
402,192,377369,1,0,0:0:0:0:
329,192,377424,1,0,0:0:0:0:
256,192,377480,1,0,0:0:0:0:
182,192,377536,1,0,0:0:0:0:
109,192,377536,1,0,0:0:0:0:
36,192,377536,1,0,0:0:0:0:
329,192,377591,1,0,0:0:0:0:
402,192,377647,1,0,0:0:0:0:
475,192,377702,1,0,0:0:0:0:
36,192,377758,1,0,0:0:0:0:
256,192,377758,1,0,0:0:0:0:
109,192,377758,1,0,0:0:0:0:
329,192,377758,1,0,0:0:0:0:
402,192,377813,1,0,0:0:0:0:
475,192,377869,1,0,0:0:0:0:
182,192,377869,1,0,0:0:0:0:
256,192,377924,1,0,0:0:0:0:
329,192,377980,1,0,0:0:0:0:
402,192,377980,1,0,0:0:0:0:
182,192,378036,1,0,0:0:0:0:
109,192,378091,1,0,0:0:0:0:
36,192,378147,1,0,0:0:0:0:
256,192,378202,1,0,0:0:0:0:
329,192,378202,1,0,0:0:0:0:
402,192,378202,1,0,0:0:0:0:
475,192,378202,1,0,0:0:0:0:
36,192,378313,1,0,0:0:0:0:
182,192,378313,1,0,0:0:0:0:
256,192,378369,1,0,0:0:0:0:
329,192,378424,1,0,0:0:0:0:
402,192,378424,1,0,0:0:0:0:
475,192,378424,1,0,0:0:0:0:
182,192,378480,1,0,0:0:0:0:
109,192,378536,1,0,0:0:0:0:
36,192,378536,1,0,0:0:0:0:
256,192,378591,1,0,0:0:0:0:
182,192,378647,1,0,0:0:0:0:
329,192,378647,1,0,0:0:0:0:
402,192,378647,1,0,0:0:0:0:
475,192,378647,1,0,0:0:0:0:
109,192,378702,1,0,0:0:0:0:
36,192,378758,1,0,0:0:0:0:
256,192,378758,1,0,0:0:0:0:
329,192,378813,1,0,0:0:0:0:
402,192,378869,1,0,0:0:0:0:
475,192,378869,1,0,0:0:0:0:
182,192,378869,1,0,0:0:0:0:
109,192,378924,1,0,0:0:0:0:
36,192,378980,1,0,0:0:0:0:
256,192,378980,1,0,0:0:0:0:
182,192,379036,1,0,0:0:0:0:
109,192,379091,1,0,0:0:0:0:
402,192,379091,1,0,0:0:0:0:
329,192,379091,1,0,0:0:0:0:
475,192,379091,1,0,0:0:0:0:
36,192,379147,1,0,0:0:0:0:
182,192,379202,1,0,0:0:0:0:
256,192,379258,1,0,0:0:0:0:
329,192,379313,1,0,0:0:0:0:
402,192,379313,1,0,0:0:0:0:
109,192,379313,1,0,0:0:0:0:
36,192,379369,1,0,0:0:0:0:
182,192,379424,1,0,0:0:0:0:
109,192,379480,1,0,0:0:0:0:
36,192,379536,1,0,0:0:0:0:
256,192,379536,1,0,0:0:0:0:
402,192,379536,1,0,0:0:0:0:
475,192,379536,1,0,0:0:0:0:
182,192,379591,1,0,0:0:0:0:
109,192,379647,1,0,0:0:0:0:
329,192,379647,1,0,0:0:0:0:
402,192,379702,1,0,0:0:0:0:
475,192,379758,1,0,0:0:0:0:
256,192,379758,1,0,0:0:0:0:
182,192,379813,1,0,0:0:0:0:
109,192,379869,1,0,0:0:0:0:
329,192,379924,1,0,0:0:0:0:
402,192,379980,1,0,0:0:0:0:
475,192,379980,1,0,0:0:0:0:
256,192,379980,1,0,0:0:0:0:
36,192,379980,1,0,0:0:0:0:
109,192,380091,1,0,0:0:0:0:
329,192,380091,1,0,0:0:0:0:
402,192,380147,1,0,0:0:0:0:
475,192,380202,1,0,0:0:0:0:
256,192,380202,1,0,0:0:0:0:
36,192,380202,1,0,0:0:0:0:
182,192,380258,1,0,0:0:0:0:
109,192,380313,1,0,0:0:0:0:
329,192,380313,1,0,0:0:0:0:
402,192,380369,1,0,0:0:0:0:
256,192,380424,1,0,0:0:0:0:
36,192,380424,1,0,0:0:0:0:
182,192,380424,1,0,0:0:0:0:
475,192,380424,1,0,0:0:0:0:
329,192,380480,1,0,0:0:0:0:
402,192,380536,1,0,0:0:0:0:
109,192,380536,1,0,0:0:0:0:
182,192,380591,1,0,0:0:0:0:
256,192,380647,1,0,0:0:0:0:
475,192,380647,1,0,0:0:0:0:
36,192,380647,1,0,0:0:0:0:
402,192,380702,1,0,0:0:0:0:
329,192,380758,1,0,0:0:0:0:
182,192,380758,1,0,0:0:0:0:
109,192,380813,1,0,0:0:0:0:
36,192,380869,1,0,0:0:0:0:
256,192,380869,1,0,0:0:0:0:
402,192,380869,1,0,0:0:0:0:
475,192,380869,1,0,0:0:0:0:
182,192,380980,1,0,0:0:0:0:
109,192,380980,1,0,0:0:0:0:
256,192,381091,1,0,0:0:0:0:
329,192,381091,1,0,0:0:0:0:
182,192,381202,1,0,0:0:0:0:
402,192,381202,1,0,0:0:0:0:
475,192,381313,1,0,0:0:0:0:
256,192,381313,1,0,0:0:0:0:
36,192,381313,1,0,0:0:0:0:
109,192,381313,1,0,0:0:0:0:
329,192,381369,1,0,0:0:0:0:
402,192,381424,1,0,0:0:0:0:
182,192,381424,1,0,0:0:0:0:
109,192,381480,1,0,0:0:0:0:
36,192,381536,1,0,0:0:0:0:
329,192,381536,1,0,0:0:0:0:
475,192,381536,1,0,0:0:0:0:
256,192,381591,1,0,0:0:0:0:
182,192,381647,1,0,0:0:0:0:
109,192,381647,1,0,0:0:0:0:
329,192,381702,1,0,0:0:0:0:
402,192,381758,1,0,0:0:0:0:
475,192,381758,1,0,0:0:0:0:
36,192,381758,1,0,0:0:0:0:
256,192,381758,1,0,0:0:0:0:
109,192,381813,1,0,0:0:0:0:
182,192,381869,1,0,0:0:0:0:
329,192,381869,1,0,0:0:0:0:
402,192,381924,1,0,0:0:0:0:
475,192,381980,1,0,0:0:0:0:
256,192,381980,1,0,0:0:0:0:
36,192,381980,1,0,0:0:0:0:
182,192,382036,1,0,0:0:0:0:
109,192,382091,1,0,0:0:0:0:
329,192,382091,1,0,0:0:0:0:
256,192,382147,1,0,0:0:0:0:
182,192,382202,1,0,0:0:0:0:
36,192,382202,1,0,0:0:0:0:
402,192,382202,1,0,0:0:0:0:
475,192,382202,1,0,0:0:0:0:
329,192,382258,1,0,0:0:0:0:
256,192,382313,1,0,0:0:0:0:
109,192,382313,1,0,0:0:0:0:
36,192,382424,1,0,0:0:0:0:
182,192,382424,1,0,0:0:0:0:
329,192,382424,1,0,0:0:0:0:
402,192,382536,1,0,0:0:0:0:
256,192,382536,1,0,0:0:0:0:
329,192,382647,1,0,0:0:0:0:
475,192,382647,1,0,0:0:0:0:
36,192,382647,1,0,0:0:0:0:
109,192,382647,1,0,0:0:0:0:
182,192,382702,1,0,0:0:0:0:
256,192,382758,1,0,0:0:0:0:
329,192,382813,1,0,0:0:0:0:
402,192,382869,1,0,0:0:0:0:
475,192,382869,1,0,0:0:0:0:
182,192,382869,1,0,0:0:0:0:
109,192,382924,1,0,0:0:0:0:
36,192,382980,1,0,0:0:0:0:
256,192,383036,1,0,0:0:0:0:
182,192,383091,1,0,0:0:0:0:
109,192,383091,1,0,0:0:0:0:
402,192,383091,1,0,0:0:0:0:
475,192,383091,1,0,0:0:0:0:
329,192,383147,1,0,0:0:0:0:
256,192,383202,1,0,0:0:0:0:
36,192,383202,1,0,0:0:0:0:
109,192,383258,1,0,0:0:0:0:
182,192,383313,1,0,0:0:0:0:
329,192,383313,1,0,0:0:0:0:
402,192,383369,1,0,0:0:0:0:
475,192,383424,1,0,0:0:0:0:
256,192,383424,1,0,0:0:0:0:
182,192,383480,1,0,0:0:0:0:
36,192,383536,1,0,0:0:0:0:
109,192,383536,1,0,0:0:0:0:
329,192,383536,1,0,0:0:0:0:
402,192,383536,1,0,0:0:0:0:
329,192,383647,1,0,0:0:0:0:
402,192,383647,1,0,0:0:0:0:
256,192,383702,1,0,0:0:0:0:
182,192,383758,1,0,0:0:0:0:
36,192,383758,1,0,0:0:0:0:
475,192,383758,1,0,0:0:0:0:
402,192,383813,1,0,0:0:0:0:
329,192,383869,1,0,0:0:0:0:
256,192,383869,1,0,0:0:0:0:
182,192,383924,1,0,0:0:0:0:
109,192,383980,1,0,0:0:0:0:
36,192,383980,1,0,0:0:0:0:
475,192,383980,1,0,0:0:0:0:
402,192,383980,1,0,0:0:0:0:
329,192,384036,1,0,0:0:0:0:
256,192,384091,1,0,0:0:0:0:
182,192,384091,1,0,0:0:0:0:
109,192,384147,1,0,0:0:0:0:
36,192,384202,1,0,0:0:0:0:
402,192,384202,1,0,0:0:0:0:
475,192,384202,1,0,0:0:0:0:
329,192,384258,1,0,0:0:0:0:
256,192,384313,1,0,0:0:0:0:
182,192,384313,1,0,0:0:0:0:
109,192,384369,1,0,0:0:0:0:
36,192,384424,1,0,0:0:0:0:
329,192,384424,1,0,0:0:0:0:
402,192,384424,1,0,0:0:0:0:
475,192,384424,1,0,0:0:0:0:
256,192,384480,1,0,0:0:0:0:
182,192,384536,1,0,0:0:0:0:
109,192,384591,1,0,0:0:0:0:
36,192,384647,1,0,0:0:0:0:
256,192,384647,1,0,0:0:0:0:
475,192,384647,1,0,0:0:0:0:
329,192,384702,1,0,0:0:0:0:
402,192,384758,1,0,0:0:0:0:
182,192,384813,1,0,0:0:0:0:
109,192,384869,1,0,0:0:0:0:
36,192,384869,1,0,0:0:0:0:
329,192,384869,1,0,0:0:0:0:
475,192,384869,1,0,0:0:0:0:
256,192,384924,1,0,0:0:0:0:
182,192,384980,1,0,0:0:0:0:
402,192,384980,1,0,0:0:0:0:
109,192,385036,1,0,0:0:0:0:
36,192,385091,1,0,0:0:0:0:
329,192,385091,1,0,0:0:0:0:
256,192,385147,1,0,0:0:0:0:
182,192,385202,1,0,0:0:0:0:
109,192,385258,1,0,0:0:0:0:
475,192,385313,1,0,0:0:0:0:
36,192,385313,1,0,0:0:0:0:
402,192,385313,1,0,0:0:0:0:
329,192,385313,1,0,0:0:0:0:
182,192,385424,1,0,0:0:0:0:
109,192,385424,1,0,0:0:0:0:
256,192,385480,1,0,0:0:0:0:
475,192,385536,1,0,0:0:0:0:
36,192,385536,1,0,0:0:0:0:
329,192,385536,1,0,0:0:0:0:
109,192,385591,1,0,0:0:0:0:
256,192,385647,1,0,0:0:0:0:
182,192,385647,1,0,0:0:0:0:
329,192,385702,1,0,0:0:0:0:
475,192,385758,1,0,0:0:0:0:
109,192,385758,1,0,0:0:0:0:
402,192,385758,1,0,0:0:0:0:
36,192,385758,1,0,0:0:0:0:
182,192,385813,1,0,0:0:0:0:
329,192,385869,1,0,0:0:0:0:
256,192,385869,1,0,0:0:0:0:
402,192,385924,1,0,0:0:0:0:
36,192,385980,1,0,0:0:0:0:
109,192,385980,1,0,0:0:0:0:
475,192,385980,1,0,0:0:0:0:
182,192,386036,1,0,0:0:0:0:
256,192,386091,1,0,0:0:0:0:
329,192,386091,1,0,0:0:0:0:
402,192,386147,1,0,0:0:0:0:
109,192,386202,1,0,0:0:0:0:
475,192,386202,1,0,0:0:0:0:
36,192,386202,1,0,0:0:0:0:
182,192,386202,1,0,0:0:0:0:
256,192,386258,1,0,0:0:0:0:
329,192,386313,1,0,0:0:0:0:
402,192,386369,1,0,0:0:0:0:
475,192,386424,1,0,0:0:0:0:
109,192,386424,1,0,0:0:0:0:
36,192,386424,1,0,0:0:0:0:
182,192,386480,1,0,0:0:0:0:
256,192,386536,1,0,0:0:0:0:
329,192,386591,1,0,0:0:0:0:
475,192,386647,1,0,0:0:0:0:
402,192,386647,1,0,0:0:0:0:
109,192,386647,1,0,0:0:0:0:
36,192,386647,1,0,0:0:0:0:
182,192,386702,1,0,0:0:0:0:
256,192,386758,1,0,0:0:0:0:
329,192,386758,1,0,0:0:0:0:
402,192,386813,1,0,0:0:0:0:
475,192,386869,1,0,0:0:0:0:
182,192,386869,1,0,0:0:0:0:
109,192,386924,1,0,0:0:0:0:
36,192,386980,1,0,0:0:0:0:
256,192,387036,1,0,0:0:0:0:
475,192,387091,1,0,0:0:0:0:
109,192,387091,1,0,0:0:0:0:
182,192,387091,1,0,0:0:0:0:
402,192,387091,1,0,0:0:0:0:
109,192,387202,1,0,0:0:0:0:
182,192,387202,1,0,0:0:0:0:
256,192,387258,1,0,0:0:0:0:
329,192,387313,1,0,0:0:0:0:
475,192,387313,1,0,0:0:0:0:
36,192,387313,1,0,0:0:0:0:
109,192,387369,1,0,0:0:0:0:
182,192,387424,1,0,0:0:0:0:
256,192,387424,1,0,0:0:0:0:
329,192,387480,1,0,0:0:0:0:
402,192,387536,1,0,0:0:0:0:
475,192,387536,1,0,0:0:0:0:
36,192,387536,1,0,0:0:0:0:
109,192,387536,1,0,0:0:0:0:
182,192,387591,1,0,0:0:0:0:
256,192,387647,1,0,0:0:0:0:
329,192,387647,1,0,0:0:0:0:
402,192,387702,1,0,0:0:0:0:
475,192,387758,1,0,0:0:0:0:
182,192,387758,1,0,0:0:0:0:
36,192,387758,1,0,0:0:0:0:
256,192,387813,1,0,0:0:0:0:
329,192,387869,1,0,0:0:0:0:
109,192,387869,1,0,0:0:0:0:
402,192,387924,1,0,0:0:0:0:
475,192,387980,1,0,0:0:0:0:
182,192,387980,1,0,0:0:0:0:
36,192,387980,1,0,0:0:0:0:
256,192,387980,1,0,0:0:0:0:
329,192,388091,1,0,0:0:0:0:
402,192,388091,1,0,0:0:0:0:
109,192,388202,1,0,0:0:0:0:
36,192,388202,1,0,0:0:0:0:
182,192,388313,1,0,0:0:0:0:
329,192,388313,1,0,0:0:0:0:
36,192,388424,1,0,0:0:0:0:
256,192,388424,1,0,0:0:0:0:
402,192,388424,1,0,0:0:0:0:
475,192,388424,1,0,0:0:0:0:
182,192,388480,1,0,0:0:0:0:
109,192,388536,1,0,0:0:0:0:
329,192,388536,1,0,0:0:0:0:
402,192,388591,1,0,0:0:0:0:
475,192,388647,1,0,0:0:0:0:
256,192,388647,1,0,0:0:0:0:
36,192,388647,1,0,0:0:0:0:
109,192,388702,1,0,0:0:0:0:
182,192,388758,1,0,0:0:0:0:
329,192,388758,1,0,0:0:0:0:
402,192,388813,1,0,0:0:0:0:
475,192,388869,1,0,0:0:0:0:
256,192,388869,1,0,0:0:0:0:
109,192,388869,1,0,0:0:0:0:
36,192,388869,1,0,0:0:0:0:
329,192,388924,1,0,0:0:0:0:
402,192,388980,1,0,0:0:0:0:
182,192,388980,1,0,0:0:0:0:
109,192,389036,1,0,0:0:0:0:
36,192,389091,1,0,0:0:0:0:
256,192,389091,1,0,0:0:0:0:
475,192,389091,1,0,0:0:0:0:
402,192,389147,1,0,0:0:0:0:
329,192,389202,1,0,0:0:0:0:
182,192,389202,1,0,0:0:0:0:
109,192,389258,1,0,0:0:0:0:
36,192,389313,1,0,0:0:0:0:
256,192,389313,1,0,0:0:0:0:
475,192,389313,1,0,0:0:0:0:
402,192,389313,1,0,0:0:0:0:
182,192,389369,1,0,0:0:0:0:
109,192,389424,1,0,0:0:0:0:
329,192,389424,1,0,0:0:0:0:
402,192,389480,1,0,0:0:0:0:
36,192,389536,1,0,0:0:0:0:
475,192,389536,1,0,0:0:0:0:
182,192,389536,1,0,0:0:0:0:
182,192,389647,1,0,0:0:0:0:
36,192,389647,1,0,0:0:0:0:
402,192,389758,1,0,0:0:0:0:
475,192,389758,1,0,0:0:0:0:
256,192,389758,1,0,0:0:0:0:
109,192,389813,1,0,0:0:0:0:
329,192,389869,1,0,0:0:0:0:
182,192,389924,1,0,0:0:0:0:
256,192,389980,1,0,0:0:0:0:
475,192,389980,1,0,0:0:0:0:
36,192,389980,1,0,0:0:0:0:
402,192,390036,1,0,0:0:0:0:
109,192,390091,1,0,0:0:0:0:
182,192,390147,1,0,0:0:0:0:
402,192,390202,1,0,0:0:0:0:
475,192,390202,1,0,0:0:0:0:
329,192,390202,1,0,0:0:0:0:
36,192,390202,1,0,0:0:0:0:
256,192,390258,1,0,0:0:0:0:
109,192,390313,1,0,0:0:0:0:
329,192,390369,1,0,0:0:0:0:
36,192,390424,1,0,0:0:0:0:
182,192,390424,1,0,0:0:0:0:
402,192,390480,1,0,0:0:0:0:
256,192,390536,1,0,0:0:0:0:
475,192,390591,1,0,0:0:0:0:
329,192,390647,1,0,0:0:0:0:
182,192,390647,1,0,0:0:0:0:
109,192,390647,1,0,0:0:0:0:
36,192,390647,1,0,0:0:0:0:
402,192,390758,1,0,0:0:0:0:
256,192,390813,1,0,0:0:0:0:
36,192,390869,1,0,0:0:0:0:
109,192,390869,1,0,0:0:0:0:
475,192,390869,1,0,0:0:0:0:
329,192,390924,1,0,0:0:0:0:
182,192,390980,1,0,0:0:0:0:
402,192,390980,1,0,0:0:0:0:
256,192,391091,1,0,0:0:0:0:
475,192,391091,1,0,0:0:0:0:
36,192,391091,1,0,0:0:0:0:
109,192,391147,1,0,0:0:0:0:
182,192,391202,1,0,0:0:0:0:
402,192,391202,1,0,0:0:0:0:
329,192,391258,1,0,0:0:0:0:
475,192,391313,1,0,0:0:0:0:
256,192,391313,1,0,0:0:0:0:
36,192,391313,1,0,0:0:0:0:
182,192,391369,1,0,0:0:0:0:
402,192,391424,1,0,0:0:0:0:
109,192,391424,1,0,0:0:0:0:
329,192,391480,1,0,0:0:0:0:
36,192,391536,1,0,0:0:0:0:
475,192,391536,1,0,0:0:0:0:
256,192,391536,1,0,0:0:0:0:
182,192,391591,1,0,0:0:0:0:
402,192,391647,1,0,0:0:0:0:
109,192,391702,1,0,0:0:0:0:
36,192,391758,1,0,0:0:0:0:
329,192,391758,1,0,0:0:0:0:
256,192,391758,1,0,0:0:0:0:
475,192,391813,1,0,0:0:0:0:
182,192,391869,1,0,0:0:0:0:
329,192,391924,1,0,0:0:0:0:
256,192,391980,1,0,0:0:0:0:
109,192,391980,1,0,0:0:0:0:
402,192,391980,1,0,0:0:0:0:
36,192,391980,1,0,0:0:0:0:
475,192,392036,1,0,0:0:0:0:
182,192,392091,1,0,0:0:0:0:
329,192,392091,1,0,0:0:0:0:
36,192,392147,1,0,0:0:0:0:
109,192,392202,1,0,0:0:0:0:
256,192,392202,1,0,0:0:0:0:
402,192,392258,1,0,0:0:0:0:
182,192,392313,1,0,0:0:0:0:
329,192,392369,1,0,0:0:0:0:
109,192,392424,1,0,0:0:0:0:
36,192,392424,1,0,0:0:0:0:
256,192,392424,1,0,0:0:0:0:
475,192,392424,1,0,0:0:0:0:
329,192,392536,1,0,0:0:0:0:
182,192,392536,1,0,0:0:0:0:
402,192,392591,1,0,0:0:0:0:
36,192,392647,1,0,0:0:0:0:
109,192,392647,1,0,0:0:0:0:
256,192,392647,1,0,0:0:0:0:
475,192,392702,1,0,0:0:0:0:
182,192,392758,1,0,0:0:0:0:
329,192,392758,1,0,0:0:0:0:
109,192,392813,1,0,0:0:0:0:
475,192,392869,1,0,0:0:0:0:
36,192,392869,1,0,0:0:0:0:
402,192,392869,1,0,0:0:0:0:
256,192,392869,1,0,0:0:0:0:
182,192,392924,1,0,0:0:0:0:
109,192,392980,1,0,0:0:0:0:
329,192,392980,1,0,0:0:0:0:
402,192,393036,1,0,0:0:0:0:
256,192,393091,1,0,0:0:0:0:
36,192,393091,1,0,0:0:0:0:
475,192,393091,1,0,0:0:0:0:
109,192,393147,1,0,0:0:0:0:
182,192,393202,1,0,0:0:0:0:
329,192,393202,1,0,0:0:0:0:
402,192,393258,1,0,0:0:0:0:
256,192,393313,1,0,0:0:0:0:
36,192,393313,1,0,0:0:0:0:
475,192,393313,1,0,0:0:0:0:
109,192,393313,1,0,0:0:0:0:
329,192,393369,1,0,0:0:0:0:
182,192,393424,1,0,0:0:0:0:
402,192,393480,1,0,0:0:0:0:
256,192,393536,1,0,0:0:0:0:
475,192,393536,1,0,0:0:0:0:
36,192,393536,1,0,0:0:0:0:
109,192,393591,1,0,0:0:0:0:
329,192,393647,1,0,0:0:0:0:
182,192,393702,1,0,0:0:0:0:
109,192,393758,1,0,0:0:0:0:
36,192,393758,1,0,0:0:0:0:
475,192,393758,1,0,0:0:0:0:
256,192,393758,1,0,0:0:0:0:
402,192,393813,1,0,0:0:0:0:
182,192,393869,1,0,0:0:0:0:
329,192,393869,1,0,0:0:0:0:
109,192,393924,1,0,0:0:0:0:
475,192,393980,1,0,0:0:0:0:
36,192,393980,1,0,0:0:0:0:
256,192,394036,1,0,0:0:0:0:
109,192,394091,1,0,0:0:0:0:
329,192,394147,1,0,0:0:0:0:
402,192,394202,1,0,0:0:0:0:
475,192,394202,1,0,0:0:0:0:
182,192,394202,1,0,0:0:0:0:
36,192,394202,1,0,0:0:0:0:
109,192,394313,1,0,0:0:0:0:
256,192,394313,1,0,0:0:0:0:
402,192,394369,1,0,0:0:0:0:
329,192,394424,1,0,0:0:0:0:
182,192,394424,1,0,0:0:0:0:
36,192,394424,1,0,0:0:0:0:
475,192,394480,1,0,0:0:0:0:
256,192,394536,1,0,0:0:0:0:
402,192,394536,1,0,0:0:0:0:
109,192,394591,1,0,0:0:0:0:
329,192,394647,1,0,0:0:0:0:
36,192,394647,1,0,0:0:0:0:
182,192,394647,1,0,0:0:0:0:
475,192,394647,1,0,0:0:0:0:
256,192,394702,1,0,0:0:0:0:
402,192,394758,1,0,0:0:0:0:
109,192,394758,1,0,0:0:0:0:
182,192,394813,1,0,0:0:0:0:
475,192,394869,1,0,0:0:0:0:
36,192,394869,1,0,0:0:0:0:
329,192,394869,1,0,0:0:0:0:
256,192,394924,1,0,0:0:0:0:
182,192,394980,1,0,0:0:0:0:
109,192,394980,1,0,0:0:0:0:
402,192,395036,1,0,0:0:0:0:
256,192,395091,1,0,0:0:0:0:
36,192,395091,1,0,0:0:0:0:
475,192,395091,1,0,0:0:0:0:
329,192,395091,1,0,0:0:0:0:
182,192,395202,1,0,0:0:0:0:
109,192,395202,1,0,0:0:0:0:
256,192,395313,1,0,0:0:0:0:
402,192,395313,1,0,0:0:0:0:
182,192,395424,1,0,0:0:0:0:
329,192,395424,1,0,0:0:0:0:
475,192,395536,1,0,0:0:0:0:
402,192,395536,1,0,0:0:0:0:
36,192,395536,1,0,0:0:0:0:
256,192,395536,1,0,0:0:0:0:
182,192,395591,1,0,0:0:0:0:
329,192,395647,1,0,0:0:0:0:
109,192,395647,1,0,0:0:0:0:
402,192,395702,1,0,0:0:0:0:
36,192,395758,1,0,0:0:0:0:
182,192,395758,1,0,0:0:0:0:
475,192,395758,1,0,0:0:0:0:
256,192,395813,1,0,0:0:0:0:
402,192,395869,1,0,0:0:0:0:
329,192,395869,1,0,0:0:0:0:
182,192,395924,1,0,0:0:0:0:
475,192,395980,1,0,0:0:0:0:
256,192,395980,1,0,0:0:0:0:
109,192,395980,1,0,0:0:0:0:
36,192,395980,1,0,0:0:0:0:
402,192,396036,1,0,0:0:0:0:
182,192,396091,1,0,0:0:0:0:
329,192,396091,1,0,0:0:0:0:
109,192,396147,1,0,0:0:0:0:
475,192,396202,1,0,0:0:0:0:
256,192,396202,1,0,0:0:0:0:
36,192,396202,1,0,0:0:0:0:
329,192,396258,1,0,0:0:0:0:
182,192,396313,1,0,0:0:0:0:
402,192,396313,1,0,0:0:0:0:
256,192,396369,1,0,0:0:0:0:
109,192,396424,1,0,0:0:0:0:
36,192,396424,1,0,0:0:0:0:
329,192,396424,1,0,0:0:0:0:
475,192,396424,1,0,0:0:0:0:
182,192,396480,1,0,0:0:0:0:
402,192,396536,1,0,0:0:0:0:
256,192,396536,1,0,0:0:0:0:
329,192,396647,1,0,0:0:0:0:
475,192,396647,1,0,0:0:0:0:
182,192,396647,1,0,0:0:0:0:
36,192,396647,1,0,0:0:0:0:
256,192,396758,1,0,0:0:0:0:
109,192,396758,1,0,0:0:0:0:
475,192,396869,1,0,0:0:0:0:
402,192,396869,1,0,0:0:0:0:
182,192,396869,1,0,0:0:0:0:
36,192,396869,1,0,0:0:0:0:
329,192,396924,1,0,0:0:0:0:
109,192,396980,1,0,0:0:0:0:
256,192,397036,1,0,0:0:0:0:
475,192,397091,1,0,0:0:0:0:
36,192,397091,1,0,0:0:0:0:
182,192,397091,1,0,0:0:0:0:
329,192,397147,1,0,0:0:0:0:
109,192,397202,1,0,0:0:0:0:
402,192,397258,1,0,0:0:0:0:
182,192,397313,1,0,0:0:0:0:
36,192,397313,1,0,0:0:0:0:
256,192,397313,1,0,0:0:0:0:
475,192,397313,1,0,0:0:0:0:
329,192,397369,1,0,0:0:0:0:
402,192,397424,1,0,0:0:0:0:
109,192,397424,1,0,0:0:0:0:
256,192,397480,1,0,0:0:0:0:
36,192,397536,1,0,0:0:0:0:
475,192,397536,1,0,0:0:0:0:
182,192,397591,1,0,0:0:0:0:
329,192,397647,1,0,0:0:0:0:
109,192,397647,1,0,0:0:0:0:
475,192,397702,1,0,0:0:0:0:
182,192,397758,1,0,0:0:0:0:
36,192,397758,1,0,0:0:0:0:
256,192,397758,1,0,0:0:0:0:
402,192,397758,1,0,0:0:0:0:
109,192,397869,1,0,0:0:0:0:
329,192,397869,1,0,0:0:0:0:
182,192,397924,1,0,0:0:0:0:
36,192,397980,1,0,0:0:0:0:
402,192,397980,1,0,0:0:0:0:
256,192,397980,1,0,0:0:0:0:
475,192,398036,1,0,0:0:0:0:
329,192,398091,1,0,0:0:0:0:
182,192,398091,1,0,0:0:0:0:
109,192,398147,1,0,0:0:0:0:
36,192,398202,1,0,0:0:0:0:
256,192,398202,1,0,0:0:0:0:
402,192,398202,1,0,0:0:0:0:
475,192,398202,1,0,0:0:0:0:
182,192,398258,1,0,0:0:0:0:
329,192,398313,1,0,0:0:0:0:
109,192,398313,1,0,0:0:0:0:
475,192,398369,1,0,0:0:0:0:
36,192,398424,1,0,0:0:0:0:
256,192,398424,1,0,0:0:0:0:
402,192,398424,1,0,0:0:0:0:
109,192,398480,1,0,0:0:0:0:
329,192,398536,1,0,0:0:0:0:
182,192,398536,1,0,0:0:0:0:
256,192,398591,1,0,0:0:0:0:
109,192,398647,1,0,0:0:0:0:
36,192,398647,1,0,0:0:0:0:
475,192,398647,1,0,0:0:0:0:
402,192,398647,1,0,0:0:0:0:
182,192,398702,1,0,0:0:0:0:
329,192,398758,1,0,0:0:0:0:
109,192,398813,1,0,0:0:0:0:
36,192,398869,1,0,0:0:0:0:
256,192,398869,1,0,0:0:0:0:
402,192,398869,1,0,0:0:0:0:
475,192,398924,1,0,0:0:0:0:
182,192,398980,1,0,0:0:0:0:
329,192,399036,1,0,0:0:0:0:
109,192,399091,1,0,0:0:0:0:
36,192,399091,1,0,0:0:0:0:
256,192,399091,1,0,0:0:0:0:
475,192,399091,1,0,0:0:0:0:
402,192,399147,1,0,0:0:0:0:
329,192,399202,1,0,0:0:0:0:
182,192,399202,1,0,0:0:0:0:
36,192,399258,1,0,0:0:0:0:
109,192,399313,1,0,0:0:0:0:
256,192,399313,1,0,0:0:0:0:
402,192,399369,1,0,0:0:0:0:
182,192,399424,1,0,0:0:0:0:
329,192,399480,1,0,0:0:0:0:
256,192,399536,1,0,0:0:0:0:
109,192,399536,1,0,0:0:0:0:
36,192,399536,1,0,0:0:0:0:
475,192,399536,1,0,0:0:0:0:
402,192,399647,1,0,0:0:0:0:
182,192,399647,1,0,0:0:0:0:
329,192,399702,1,0,0:0:0:0:
109,192,399758,1,0,0:0:0:0:
256,192,399758,1,0,0:0:0:0:
36,192,399758,1,0,0:0:0:0:
475,192,399813,1,0,0:0:0:0:
329,192,399869,1,0,0:0:0:0:
182,192,399869,1,0,0:0:0:0:
36,192,399924,1,0,0:0:0:0:
109,192,399980,1,0,0:0:0:0:
475,192,399980,1,0,0:0:0:0:
256,192,399980,1,0,0:0:0:0:
402,192,399980,1,0,0:0:0:0:
182,192,400036,1,0,0:0:0:0:
329,192,400091,1,0,0:0:0:0:
36,192,400091,1,0,0:0:0:0:
256,192,400147,1,0,0:0:0:0:
109,192,400202,1,0,0:0:0:0:
402,192,400202,1,0,0:0:0:0:
475,192,400202,1,0,0:0:0:0:
182,192,400258,1,0,0:0:0:0:
256,192,400313,1,0,0:0:0:0:
36,192,400313,1,0,0:0:0:0:
109,192,400369,1,0,0:0:0:0:
475,192,400424,1,0,0:0:0:0:
329,192,400424,1,0,0:0:0:0:
402,192,400424,1,0,0:0:0:0:
182,192,400424,1,0,0:0:0:0:
256,192,400480,1,0,0:0:0:0:
109,192,400536,1,0,0:0:0:0:
329,192,400591,1,0,0:0:0:0:
475,192,400647,1,0,0:0:0:0:
182,192,400647,1,0,0:0:0:0:
36,192,400647,1,0,0:0:0:0:
402,192,400702,1,0,0:0:0:0:
109,192,400758,1,0,0:0:0:0:
256,192,400813,1,0,0:0:0:0:
402,192,400869,1,0,0:0:0:0:
475,192,400869,1,0,0:0:0:0:
36,192,400869,1,0,0:0:0:0:
182,192,400869,1,0,0:0:0:0:
329,192,400924,1,0,0:0:0:0:
109,192,400980,1,0,0:0:0:0:
256,192,400980,1,0,0:0:0:0:
402,192,401036,1,0,0:0:0:0:
329,192,401091,1,0,0:0:0:0:
182,192,401091,1,0,0:0:0:0:
36,192,401147,1,0,0:0:0:0:
256,192,401202,1,0,0:0:0:0:
475,192,401258,1,0,0:0:0:0:
182,192,401313,1,0,0:0:0:0:
109,192,401313,1,0,0:0:0:0:
36,192,401313,1,0,0:0:0:0:
402,192,401313,1,0,0:0:0:0:
329,192,401369,1,0,0:0:0:0:
256,192,401424,1,0,0:0:0:0:
109,192,401480,1,0,0:0:0:0:
329,192,401536,1,0,0:0:0:0:
36,192,401536,1,0,0:0:0:0:
182,192,401536,1,0,0:0:0:0:
475,192,401591,1,0,0:0:0:0:
256,192,401647,1,0,0:0:0:0:
402,192,401647,1,0,0:0:0:0:
109,192,401702,1,0,0:0:0:0:
475,192,401758,1,0,0:0:0:0:
329,192,401758,1,0,0:0:0:0:
182,192,401758,1,0,0:0:0:0:
36,192,401758,1,0,0:0:0:0:
402,192,401813,1,0,0:0:0:0:
109,192,401869,1,0,0:0:0:0:
256,192,401869,1,0,0:0:0:0:
182,192,401924,1,0,0:0:0:0:
475,192,401980,1,0,0:0:0:0:
329,192,401980,1,0,0:0:0:0:
36,192,401980,1,0,0:0:0:0:
256,192,402036,1,0,0:0:0:0:
402,192,402091,1,0,0:0:0:0:
109,192,402091,1,0,0:0:0:0:
182,192,402147,1,0,0:0:0:0:
475,192,402202,1,0,0:0:0:0:
256,192,402202,1,0,0:0:0:0:
36,192,402202,1,0,0:0:0:0:
329,192,402202,1,0,0:0:0:0:
109,192,402258,1,0,0:0:0:0:
182,192,402313,1,0,0:0:0:0:
402,192,402313,1,0,0:0:0:0:
329,192,402369,1,0,0:0:0:0:
256,192,402424,1,0,0:0:0:0:
36,192,402424,1,0,0:0:0:0:
475,192,402424,1,0,0:0:0:0:
182,192,402480,1,0,0:0:0:0:
402,192,402536,1,0,0:0:0:0:
109,192,402536,1,0,0:0:0:0:
256,192,402591,1,0,0:0:0:0:
36,192,402647,1,0,0:0:0:0:
475,192,402647,1,0,0:0:0:0:
182,192,402647,1,0,0:0:0:0:
329,192,402702,1,0,0:0:0:0:
402,192,402758,1,0,0:0:0:0:
109,192,402758,1,0,0:0:0:0:
182,192,402813,1,0,0:0:0:0:
475,192,402869,1,0,0:0:0:0:
256,192,402869,1,0,0:0:0:0:
36,192,402869,1,0,0:0:0:0:
402,192,402924,1,0,0:0:0:0:
182,192,402980,1,0,0:0:0:0:
329,192,402980,1,0,0:0:0:0:
109,192,403036,1,0,0:0:0:0:
402,192,403091,1,0,0:0:0:0:
475,192,403091,1,0,0:0:0:0:
36,192,403091,1,0,0:0:0:0:
256,192,403091,1,0,0:0:0:0:
182,192,403147,1,0,0:0:0:0:
329,192,403202,1,0,0:0:0:0:
109,192,403202,1,0,0:0:0:0:
402,192,403258,1,0,0:0:0:0:
36,192,403313,1,0,0:0:0:0:
256,192,403313,1,0,0:0:0:0:
475,192,403313,1,0,0:0:0:0:
109,192,403369,1,0,0:0:0:0:
329,192,403424,1,0,0:0:0:0:
182,192,403424,1,0,0:0:0:0:
402,192,403480,1,0,0:0:0:0:
36,192,403536,1,0,0:0:0:0:
109,192,403536,1,0,0:0:0:0:
475,192,403536,1,0,0:0:0:0:
256,192,403536,1,0,0:0:0:0:
329,192,403591,1,0,0:0:0:0:
182,192,403647,1,0,0:0:0:0:
402,192,403647,1,0,0:0:0:0:
109,192,403702,1,0,0:0:0:0:
36,192,403758,1,0,0:0:0:0:
329,192,403758,1,0,0:0:0:0:
475,192,403758,1,0,0:0:0:0:
256,192,403758,1,0,0:0:0:0:
109,192,403869,1,0,0:0:0:0:
182,192,403869,1,0,0:0:0:0:
329,192,403869,1,0,0:0:0:0:
402,192,403869,1,0,0:0:0:0:
109,192,403980,1,0,0:0:0:0:
329,192,403980,1,0,0:0:0:0:
182,192,403980,1,0,0:0:0:0:
475,192,403980,1,0,0:0:0:0:
36,192,403980,1,0,0:0:0:0:
402,192,403980,1,0,0:0:0:0:
402,192,420068,5,0,0:0:0:0:
36,192,420068,1,0,0:0:0:0:
475,192,420068,1,0,0:0:0:0:
329,192,420068,1,0,0:0:0:0:
109,192,420148,1,0,0:0:0:0:
182,192,420228,1,0,0:0:0:0:
329,192,420308,1,0,0:0:0:0:
109,192,420388,1,0,0:0:0:0:
182,192,420468,1,0,0:0:0:0:
256,192,420548,1,0,0:0:0:0:
329,192,420627,1,0,0:0:0:0:
36,192,420707,1,0,0:0:0:0:
109,192,420787,1,0,0:0:0:0:
182,192,420867,1,0,0:0:0:0:
329,192,420947,1,0,0:0:0:0:
109,192,421027,1,0,0:0:0:0:
182,192,421107,1,0,0:0:0:0:
256,192,421186,1,0,0:0:0:0:
329,192,421266,1,0,0:0:0:0:
36,192,421346,1,0,0:0:0:0:
109,192,421426,1,0,0:0:0:0:
182,192,421506,1,0,0:0:0:0:
329,192,421586,1,0,0:0:0:0:
109,192,421666,1,0,0:0:0:0:
182,192,421745,1,0,0:0:0:0:
256,192,421825,1,0,0:0:0:0:
329,192,421905,1,0,0:0:0:0:
36,192,421985,1,0,0:0:0:0:
109,192,422065,1,0,0:0:0:0:
182,192,422145,1,0,0:0:0:0:
329,192,422225,1,0,0:0:0:0:
109,192,422305,1,0,0:0:0:0:
182,192,422384,1,0,0:0:0:0:
256,192,422464,1,0,0:0:0:0:
36,192,422544,1,0,0:0:0:0:
402,192,422624,1,0,0:0:0:0:
329,192,422704,1,0,0:0:0:0:
256,192,422784,1,0,0:0:0:0:
36,192,422864,1,0,0:0:0:0:
329,192,422943,1,0,0:0:0:0:
256,192,423023,1,0,0:0:0:0:
182,192,423103,1,0,0:0:0:0:
36,192,423183,1,0,0:0:0:0:
402,192,423263,1,0,0:0:0:0:
329,192,423343,1,0,0:0:0:0:
256,192,423423,1,0,0:0:0:0:
36,192,423502,1,0,0:0:0:0:
329,192,423582,1,0,0:0:0:0:
256,192,423662,1,0,0:0:0:0:
182,192,423742,1,0,0:0:0:0:
36,192,423822,1,0,0:0:0:0:
402,192,423902,1,0,0:0:0:0:
329,192,423982,1,0,0:0:0:0:
256,192,424062,1,0,0:0:0:0:
36,192,424141,1,0,0:0:0:0:
329,192,424221,1,0,0:0:0:0:
256,192,424301,1,0,0:0:0:0:
182,192,424381,1,0,0:0:0:0:
36,192,424461,1,0,0:0:0:0:
402,192,424541,1,0,0:0:0:0:
329,192,424621,1,0,0:0:0:0:
256,192,424700,1,0,0:0:0:0:
36,192,424780,1,0,0:0:0:0:
329,192,424860,1,0,0:0:0:0:
256,192,424940,1,0,0:0:0:0:
182,192,425020,1,0,0:0:0:0:
36,192,425100,1,0,0:0:0:0:
402,192,425180,1,0,0:0:0:0:
109,192,425180,1,0,0:0:0:0:
182,192,425259,1,0,0:0:0:0:
256,192,425339,1,0,0:0:0:0:
329,192,425419,1,0,0:0:0:0:
36,192,425499,1,0,0:0:0:0:
109,192,425579,1,0,0:0:0:0:
182,192,425659,1,0,0:0:0:0:
329,192,425739,1,0,0:0:0:0:
109,192,425819,1,0,0:0:0:0:
182,192,425898,1,0,0:0:0:0:
256,192,425978,1,0,0:0:0:0:
329,192,426058,1,0,0:0:0:0:
36,192,426138,1,0,0:0:0:0:
109,192,426218,1,0,0:0:0:0:
182,192,426298,1,0,0:0:0:0:
329,192,426378,1,0,0:0:0:0:
109,192,426457,1,0,0:0:0:0:
182,192,426537,1,0,0:0:0:0:
256,192,426617,1,0,0:0:0:0:
329,192,426697,1,0,0:0:0:0:
475,192,426777,1,0,0:0:0:0:
36,192,426777,1,0,0:0:0:0:
109,192,426857,1,0,0:0:0:0:
182,192,426937,1,0,0:0:0:0:
329,192,427016,1,0,0:0:0:0:
36,192,427096,1,0,0:0:0:0:
109,192,427096,1,0,0:0:0:0:
182,192,427176,1,0,0:0:0:0:
256,192,427256,1,0,0:0:0:0:
329,192,427336,1,0,0:0:0:0:
475,192,427416,1,0,0:0:0:0:
36,192,427416,1,0,0:0:0:0:
109,192,427496,1,0,0:0:0:0:
182,192,427576,1,0,0:0:0:0:
329,192,427655,1,0,0:0:0:0:
36,192,427735,1,0,0:0:0:0:
109,192,427735,1,0,0:0:0:0:
182,192,427815,1,0,0:0:0:0:
256,192,427895,1,0,0:0:0:0:
329,192,427975,1,0,0:0:0:0:
36,192,428055,1,0,0:0:0:0:
109,192,428135,1,0,0:0:0:0:
182,192,428214,1,0,0:0:0:0:
329,192,428294,1,0,0:0:0:0:
475,192,428374,1,0,0:0:0:0:
109,192,428374,1,0,0:0:0:0:
182,192,428454,1,0,0:0:0:0:
256,192,428534,1,0,0:0:0:0:
329,192,428614,1,0,0:0:0:0:
36,192,428694,1,0,0:0:0:0:
109,192,428773,1,0,0:0:0:0:
182,192,428853,1,0,0:0:0:0:
329,192,428933,1,0,0:0:0:0:
36,192,429013,1,0,0:0:0:0:
109,192,429013,1,0,0:0:0:0:
182,192,429093,1,0,0:0:0:0:
256,192,429173,1,0,0:0:0:0:
329,192,429253,1,0,0:0:0:0:
109,192,429253,1,0,0:0:0:0:
182,192,429333,1,0,0:0:0:0:
256,192,429412,1,0,0:0:0:0:
109,192,429492,1,0,0:0:0:0:
182,192,429572,1,0,0:0:0:0:
475,192,429652,1,0,0:0:0:0:
256,192,429652,1,0,0:0:0:0:
329,192,429732,1,0,0:0:0:0:
36,192,429812,1,0,0:0:0:0:
109,192,429812,1,0,0:0:0:0:
182,192,429892,1,0,0:0:0:0:
329,192,429971,1,0,0:0:0:0:
256,192,429971,1,0,0:0:0:0:
109,192,430051,1,0,0:0:0:0:
36,192,430051,1,0,0:0:0:0:
182,192,430131,1,0,0:0:0:0:
329,192,430211,1,0,0:0:0:0:
256,192,430211,1,0,0:0:0:0:
36,192,430291,1,0,0:0:0:0:
109,192,430291,1,0,0:0:0:0:
475,192,430371,1,0,0:0:0:0:
256,192,430371,1,0,0:0:0:0:
402,192,430451,1,0,0:0:0:0:
182,192,430451,1,0,0:0:0:0:
109,192,430530,1,0,0:0:0:0:
36,192,430610,1,0,0:0:0:0:
329,192,430610,1,0,0:0:0:0:
402,192,430690,1,0,0:0:0:0:
109,192,430690,1,0,0:0:0:0:
329,192,430770,1,0,0:0:0:0:
182,192,430770,1,0,0:0:0:0:
256,192,430850,1,0,0:0:0:0:
475,192,430930,1,0,0:0:0:0:
329,192,430930,1,0,0:0:0:0:
109,192,431010,1,0,0:0:0:0:
182,192,431010,1,0,0:0:0:0:
329,192,431090,1,0,0:0:0:0:
475,192,431090,1,0,0:0:0:0:
256,192,431169,1,0,0:0:0:0:
36,192,431249,1,0,0:0:0:0:
182,192,431249,1,0,0:0:0:0:
329,192,431329,1,0,0:0:0:0:
109,192,431329,1,0,0:0:0:0:
475,192,431409,1,0,0:0:0:0:
182,192,431409,1,0,0:0:0:0:
256,192,431489,1,0,0:0:0:0:
402,192,431569,1,0,0:0:0:0:
329,192,431569,1,0,0:0:0:0:
109,192,431649,1,0,0:0:0:0:
256,192,431649,1,0,0:0:0:0:
36,192,431728,1,0,0:0:0:0:
182,192,431728,1,0,0:0:0:0:
402,192,431808,1,0,0:0:0:0:
109,192,431888,1,0,0:0:0:0:
329,192,431888,1,0,0:0:0:0:
402,192,431968,1,0,0:0:0:0:
182,192,431968,1,0,0:0:0:0:
475,192,432048,1,0,0:0:0:0:
256,192,432048,1,0,0:0:0:0:
109,192,432128,1,0,0:0:0:0:
36,192,432208,1,0,0:0:0:0:
182,192,432208,1,0,0:0:0:0:
402,192,432287,1,0,0:0:0:0:
329,192,432287,1,0,0:0:0:0:
109,192,432367,1,0,0:0:0:0:
256,192,432367,1,0,0:0:0:0:
182,192,432447,1,0,0:0:0:0:
402,192,432527,1,0,0:0:0:0:
109,192,432527,1,0,0:0:0:0:
475,192,432607,1,0,0:0:0:0:
329,192,432607,1,0,0:0:0:0:
36,192,432687,1,0,0:0:0:0:
256,192,432687,1,0,0:0:0:0:
109,192,432767,1,0,0:0:0:0:
402,192,432847,1,0,0:0:0:0:
182,192,432847,1,0,0:0:0:0:
475,192,432926,1,0,0:0:0:0:
256,192,432926,1,0,0:0:0:0:
36,192,433006,1,0,0:0:0:0:
109,192,433006,1,0,0:0:0:0:
402,192,433086,1,0,0:0:0:0:
109,192,433166,1,0,0:0:0:0:
329,192,433166,1,0,0:0:0:0:
475,192,433246,1,0,0:0:0:0:
256,192,433246,1,0,0:0:0:0:
36,192,433326,1,0,0:0:0:0:
402,192,433326,1,0,0:0:0:0:
109,192,433406,1,0,0:0:0:0:
329,192,433485,1,0,0:0:0:0:
182,192,433485,1,0,0:0:0:0:
475,192,433565,1,0,0:0:0:0:
256,192,433565,1,0,0:0:0:0:
36,192,433645,1,0,0:0:0:0:
402,192,433645,1,0,0:0:0:0:
109,192,433725,1,0,0:0:0:0:
475,192,433805,1,0,0:0:0:0:
182,192,433805,1,0,0:0:0:0:
109,192,433885,1,0,0:0:0:0:
402,192,433885,1,0,0:0:0:0:
256,192,433965,1,0,0:0:0:0:
329,192,433965,1,0,0:0:0:0:
182,192,434044,1,0,0:0:0:0:
402,192,434124,1,0,0:0:0:0:
36,192,434124,1,0,0:0:0:0:
109,192,434204,1,0,0:0:0:0:
329,192,434204,1,0,0:0:0:0:
475,192,434284,1,0,0:0:0:0:
256,192,434284,1,0,0:0:0:0:
182,192,434364,1,0,0:0:0:0:
402,192,434444,1,0,0:0:0:0:
329,192,434444,1,0,0:0:0:0:
475,192,434524,1,0,0:0:0:0:
36,192,434524,1,0,0:0:0:0:
256,192,434604,1,0,0:0:0:0:
109,192,434604,1,0,0:0:0:0:
329,192,434683,1,0,0:0:0:0:
475,192,434763,1,0,0:0:0:0:
402,192,434763,1,0,0:0:0:0:
36,192,434843,1,0,0:0:0:0:
182,192,434843,1,0,0:0:0:0:
109,192,434923,1,0,0:0:0:0:
329,192,434923,1,0,0:0:0:0:
256,192,435003,1,0,0:0:0:0:
475,192,435083,1,0,0:0:0:0:
182,192,435083,1,0,0:0:0:0:
329,192,435163,1,0,0:0:0:0:
402,192,435163,1,0,0:0:0:0:
182,192,435242,1,0,0:0:0:0:
256,192,435242,1,0,0:0:0:0:
36,192,435322,1,0,0:0:0:0:
109,192,435322,1,0,0:0:0:0:
182,192,435402,1,0,0:0:0:0:
402,192,435402,1,0,0:0:0:0:
475,192,435402,1,0,0:0:0:0:
329,192,435402,1,0,0:0:0:0:
109,192,435482,1,0,0:0:0:0:
256,192,435482,1,0,0:0:0:0:
182,192,435562,1,0,0:0:0:0:
36,192,435562,1,0,0:0:0:0:
402,192,435642,1,0,0:0:0:0:
109,192,435722,1,0,0:0:0:0:
475,192,435722,1,0,0:0:0:0:
329,192,435722,1,0,0:0:0:0:
256,192,435801,1,0,0:0:0:0:
182,192,435801,1,0,0:0:0:0:
402,192,435881,1,0,0:0:0:0:
329,192,435881,1,0,0:0:0:0:
36,192,435961,1,0,0:0:0:0:
256,192,436041,1,0,0:0:0:0:
475,192,436041,1,0,0:0:0:0:
109,192,436041,1,0,0:0:0:0:
182,192,436121,1,0,0:0:0:0:
402,192,436121,1,0,0:0:0:0:
36,192,436201,1,0,0:0:0:0:
256,192,436201,1,0,0:0:0:0:
329,192,436281,1,0,0:0:0:0:
475,192,436361,1,0,0:0:0:0:
36,192,436361,1,0,0:0:0:0:
109,192,436361,1,0,0:0:0:0:
256,192,436440,1,0,0:0:0:0:
402,192,436440,1,0,0:0:0:0:
109,192,436520,1,0,0:0:0:0:
329,192,436520,1,0,0:0:0:0:
182,192,436600,1,0,0:0:0:0:
402,192,436680,1,0,0:0:0:0:
36,192,436680,1,0,0:0:0:0:
256,192,436680,1,0,0:0:0:0:
329,192,436760,1,0,0:0:0:0:
109,192,436760,1,0,0:0:0:0:
475,192,436840,1,0,0:0:0:0:
182,192,436840,1,0,0:0:0:0:
329,192,436920,1,0,0:0:0:0:
36,192,436999,1,0,0:0:0:0:
182,192,436999,1,0,0:0:0:0:
256,192,436999,1,0,0:0:0:0:
329,192,437079,1,0,0:0:0:0:
402,192,437079,1,0,0:0:0:0:
109,192,437159,1,0,0:0:0:0:
256,192,437159,1,0,0:0:0:0:
475,192,437239,1,0,0:0:0:0:
36,192,437319,1,0,0:0:0:0:
182,192,437319,1,0,0:0:0:0:
402,192,437319,1,0,0:0:0:0:
329,192,437399,1,0,0:0:0:0:
109,192,437399,1,0,0:0:0:0:
475,192,437479,1,0,0:0:0:0:
182,192,437479,1,0,0:0:0:0:
402,192,437558,1,0,0:0:0:0:
36,192,437638,1,0,0:0:0:0:
256,192,437638,1,0,0:0:0:0:
329,192,437638,1,0,0:0:0:0:
109,192,437718,1,0,0:0:0:0:
182,192,437718,1,0,0:0:0:0:
256,192,437798,1,0,0:0:0:0:
475,192,437798,1,0,0:0:0:0:
36,192,437878,1,0,0:0:0:0:
329,192,437878,1,0,0:0:0:0:
109,192,437958,1,0,0:0:0:0:
402,192,437958,1,0,0:0:0:0:
256,192,437958,1,0,0:0:0:0:
182,192,438038,1,0,0:0:0:0:
36,192,438118,1,0,0:0:0:0:
475,192,438118,1,0,0:0:0:0:
256,192,438118,1,0,0:0:0:0:
402,192,438197,1,0,0:0:0:0:
475,192,438277,1,0,0:0:0:0:
109,192,438277,1,0,0:0:0:0:
329,192,438277,1,0,0:0:0:0:
256,192,438357,1,0,0:0:0:0:
402,192,438437,1,0,0:0:0:0:
36,192,438437,1,0,0:0:0:0:
182,192,438437,1,0,0:0:0:0:
329,192,438517,1,0,0:0:0:0:
475,192,438597,1,0,0:0:0:0:
109,192,438597,1,0,0:0:0:0:
256,192,438597,1,0,0:0:0:0:
182,192,438677,5,0,0:0:0:0:
402,192,438756,1,0,0:0:0:0:
36,192,438756,1,0,0:0:0:0:
256,192,438756,1,0,0:0:0:0:
109,192,438836,1,0,0:0:0:0:
475,192,438916,1,0,0:0:0:0:
329,192,438916,1,0,0:0:0:0:
182,192,438916,1,0,0:0:0:0:
256,192,438996,1,0,0:0:0:0:
36,192,439076,1,0,0:0:0:0:
402,192,439076,1,0,0:0:0:0:
329,192,439076,1,0,0:0:0:0:
182,192,439156,1,0,0:0:0:0:
475,192,439236,1,0,0:0:0:0:
402,192,439236,1,0,0:0:0:0:
109,192,439236,1,0,0:0:0:0:
329,192,439315,1,0,0:0:0:0:
475,192,439395,1,0,0:0:0:0:
36,192,439395,1,0,0:0:0:0:
182,192,439395,1,0,0:0:0:0:
256,192,439475,1,0,0:0:0:0:
402,192,439555,1,0,0:0:0:0:
109,192,439555,1,0,0:0:0:0:
329,192,439555,1,0,0:0:0:0:
182,192,439635,1,0,0:0:0:0:
329,192,439715,1,0,0:0:0:0:
36,192,439715,1,0,0:0:0:0:
256,192,439715,1,0,0:0:0:0:
402,192,439795,1,0,0:0:0:0:
256,192,439875,5,0,0:0:0:0:
36,192,439875,1,0,0:0:0:0:
109,192,439875,1,0,0:0:0:0:
475,192,439875,1,0,0:0:0:0:
475,192,440034,1,0,0:0:0:0:
402,192,440034,1,0,0:0:0:0:
109,192,440194,1,0,0:0:0:0:
402,192,440194,1,0,0:0:0:0:
329,192,440194,1,0,0:0:0:0:
182,192,440194,1,0,0:0:0:0:
475,192,440354,1,0,0:0:0:0:
402,192,440354,1,0,0:0:0:0:
329,192,440354,1,0,0:0:0:0:
109,192,440434,1,0,0:0:0:0:
256,192,440434,1,0,0:0:0:0:
475,192,440513,1,0,0:0:0:0:
402,192,440513,1,0,0:0:0:0:
182,192,440513,1,0,0:0:0:0:
36,192,440513,1,0,0:0:0:0:
329,192,440593,1,0,0:0:0:0:
36,192,440673,1,0,0:0:0:0:
256,192,440673,1,0,0:0:0:0:
329,192,440753,1,0,0:0:0:0:
109,192,440753,1,0,0:0:0:0:
475,192,440833,1,0,0:0:0:0:
36,192,440833,1,0,0:0:0:0:
182,192,440833,1,0,0:0:0:0:
402,192,440833,1,0,0:0:0:0:
256,192,440913,1,0,0:0:0:0:
109,192,440993,1,0,0:0:0:0:
329,192,440993,1,0,0:0:0:0:
329,192,441072,1,0,0:0:0:0:
182,192,441152,1,0,0:0:0:0:
36,192,441152,1,0,0:0:0:0:
402,192,441152,1,0,0:0:0:0:
475,192,441152,1,0,0:0:0:0:
256,192,441232,1,0,0:0:0:0:
475,192,441312,1,0,0:0:0:0:
109,192,441312,1,0,0:0:0:0:
329,192,441312,1,0,0:0:0:0:
256,192,441392,1,0,0:0:0:0:
329,192,441472,1,0,0:0:0:0:
475,192,441472,1,0,0:0:0:0:
182,192,441472,1,0,0:0:0:0:
36,192,441472,1,0,0:0:0:0:
109,192,441552,1,0,0:0:0:0:
402,192,441632,1,0,0:0:0:0:
256,192,441632,1,0,0:0:0:0:
36,192,441632,1,0,0:0:0:0:
329,192,441711,1,0,0:0:0:0:
109,192,441791,1,0,0:0:0:0:
256,192,441791,1,0,0:0:0:0:
402,192,441791,1,0,0:0:0:0:
475,192,441791,1,0,0:0:0:0:
182,192,441871,1,0,0:0:0:0:
402,192,441951,1,0,0:0:0:0:
256,192,441951,1,0,0:0:0:0:
182,192,442031,1,0,0:0:0:0:
36,192,442031,1,0,0:0:0:0:
402,192,442111,1,0,0:0:0:0:
256,192,442111,1,0,0:0:0:0:
109,192,442111,1,0,0:0:0:0:
475,192,442111,1,0,0:0:0:0:
329,192,442191,1,0,0:0:0:0:
475,192,442270,1,0,0:0:0:0:
182,192,442270,1,0,0:0:0:0:
182,192,442350,1,0,0:0:0:0:
36,192,442430,1,0,0:0:0:0:
475,192,442430,1,0,0:0:0:0:
329,192,442430,1,0,0:0:0:0:
256,192,442430,1,0,0:0:0:0:
109,192,442510,1,0,0:0:0:0:
36,192,442590,1,0,0:0:0:0:
329,192,442590,1,0,0:0:0:0:
182,192,442590,1,0,0:0:0:0:
256,192,442670,1,0,0:0:0:0:
402,192,442750,1,0,0:0:0:0:
475,192,442750,1,0,0:0:0:0:
329,192,442750,1,0,0:0:0:0:
36,192,442750,1,0,0:0:0:0:
182,192,442829,1,0,0:0:0:0:
402,192,442909,1,0,0:0:0:0:
475,192,442909,1,0,0:0:0:0:
109,192,442909,1,0,0:0:0:0:
329,192,442989,1,0,0:0:0:0:
475,192,443069,1,0,0:0:0:0:
36,192,443069,1,0,0:0:0:0:
256,192,443069,1,0,0:0:0:0:
109,192,443069,1,0,0:0:0:0:
402,192,443149,1,0,0:0:0:0:
256,192,443229,1,0,0:0:0:0:
36,192,443229,1,0,0:0:0:0:
329,192,443309,1,0,0:0:0:0:
109,192,443309,1,0,0:0:0:0:
475,192,443389,1,0,0:0:0:0:
36,192,443389,1,0,0:0:0:0:
182,192,443389,1,0,0:0:0:0:
402,192,443389,1,0,0:0:0:0:
256,192,443468,1,0,0:0:0:0:
475,192,443548,1,0,0:0:0:0:
109,192,443548,1,0,0:0:0:0:
329,192,443548,1,0,0:0:0:0:
182,192,443628,1,0,0:0:0:0:
475,192,443708,1,0,0:0:0:0:
329,192,443708,1,0,0:0:0:0:
256,192,443708,1,0,0:0:0:0:
36,192,443708,1,0,0:0:0:0:
182,192,443788,1,0,0:0:0:0:
402,192,443788,1,0,0:0:0:0:
109,192,443868,1,0,0:0:0:0:
329,192,443868,1,0,0:0:0:0:
256,192,443948,1,0,0:0:0:0:
36,192,444027,1,0,0:0:0:0:
402,192,444027,1,0,0:0:0:0:
182,192,444027,1,0,0:0:0:0:
109,192,444027,1,0,0:0:0:0:
329,192,444107,1,0,0:0:0:0:
36,192,444187,1,0,0:0:0:0:
402,192,444187,1,0,0:0:0:0:
256,192,444267,1,0,0:0:0:0:
109,192,444267,1,0,0:0:0:0:
402,192,444347,1,0,0:0:0:0:
475,192,444347,1,0,0:0:0:0:
182,192,444347,1,0,0:0:0:0:
329,192,444347,1,0,0:0:0:0:
256,192,444427,1,0,0:0:0:0:
109,192,444507,1,0,0:0:0:0:
329,192,444507,1,0,0:0:0:0:
256,192,444586,1,0,0:0:0:0:
182,192,444666,1,0,0:0:0:0:
36,192,444666,1,0,0:0:0:0:
402,192,444666,1,0,0:0:0:0:
475,192,444666,1,0,0:0:0:0:
329,192,444746,1,0,0:0:0:0:
109,192,444826,1,0,0:0:0:0:
256,192,444826,1,0,0:0:0:0:
182,192,444906,1,0,0:0:0:0:
475,192,444986,1,0,0:0:0:0:
329,192,444986,1,0,0:0:0:0:
256,192,444986,1,0,0:0:0:0:
36,192,444986,1,0,0:0:0:0:
109,192,445066,1,0,0:0:0:0:
475,192,445146,1,0,0:0:0:0:
182,192,445146,1,0,0:0:0:0:
402,192,445225,1,0,0:0:0:0:
36,192,445305,1,0,0:0:0:0:
182,192,445305,1,0,0:0:0:0:
329,192,445305,1,0,0:0:0:0:
475,192,445305,1,0,0:0:0:0:
256,192,445385,1,0,0:0:0:0:
402,192,445465,1,0,0:0:0:0:
36,192,445465,1,0,0:0:0:0:
109,192,445465,1,0,0:0:0:0:
475,192,445545,1,0,0:0:0:0:
329,192,445545,1,0,0:0:0:0:
256,192,445625,1,0,0:0:0:0:
402,192,445625,1,0,0:0:0:0:
182,192,445625,1,0,0:0:0:0:
36,192,445625,1,0,0:0:0:0:
109,192,445705,1,0,0:0:0:0:
402,192,445784,1,0,0:0:0:0:
182,192,445784,1,0,0:0:0:0:
256,192,445864,1,0,0:0:0:0:
109,192,445944,1,0,0:0:0:0:
36,192,445944,1,0,0:0:0:0:
329,192,445944,1,0,0:0:0:0:
475,192,445944,1,0,0:0:0:0:
256,192,446024,1,0,0:0:0:0:
475,192,446104,1,0,0:0:0:0:
36,192,446104,1,0,0:0:0:0:
182,192,446104,1,0,0:0:0:0:
402,192,446184,1,0,0:0:0:0:
329,192,446184,1,0,0:0:0:0:
36,192,446264,1,0,0:0:0:0:
475,192,446264,1,0,0:0:0:0:
256,192,446264,1,0,0:0:0:0:
109,192,446264,1,0,0:0:0:0:
182,192,446343,1,0,0:0:0:0:
329,192,446423,1,0,0:0:0:0:
402,192,446423,1,0,0:0:0:0:
256,192,446423,1,0,0:0:0:0:
36,192,446503,1,0,0:0:0:0:
475,192,446583,1,0,0:0:0:0:
329,192,446583,1,0,0:0:0:0:
109,192,446583,1,0,0:0:0:0:
402,192,446583,1,0,0:0:0:0:
256,192,446663,1,0,0:0:0:0:
402,192,446743,1,0,0:0:0:0:
36,192,446743,1,0,0:0:0:0:
182,192,446743,1,0,0:0:0:0:
329,192,446823,1,0,0:0:0:0:
109,192,446903,1,0,0:0:0:0:
36,192,446903,1,0,0:0:0:0:
256,192,446903,1,0,0:0:0:0:
475,192,446903,1,0,0:0:0:0:
182,192,446982,1,0,0:0:0:0:
402,192,447062,1,0,0:0:0:0:
36,192,447062,1,0,0:0:0:0:
109,192,447142,1,0,0:0:0:0:
475,192,447222,1,0,0:0:0:0:
36,192,447222,1,0,0:0:0:0:
182,192,447222,1,0,0:0:0:0:
329,192,447222,1,0,0:0:0:0:
256,192,447302,1,0,0:0:0:0:
109,192,447382,1,0,0:0:0:0:
182,192,447382,1,0,0:0:0:0:
402,192,447382,1,0,0:0:0:0:
256,192,447462,1,0,0:0:0:0:
329,192,447462,1,0,0:0:0:0:
36,192,447541,1,0,0:0:0:0:
109,192,447541,1,0,0:0:0:0:
402,192,447541,1,0,0:0:0:0:
475,192,447541,1,0,0:0:0:0:
182,192,447621,1,0,0:0:0:0:
475,192,447701,1,0,0:0:0:0:
109,192,447701,1,0,0:0:0:0:
256,192,447781,1,0,0:0:0:0:
329,192,447781,1,0,0:0:0:0:
475,192,447861,1,0,0:0:0:0:
402,192,447861,1,0,0:0:0:0:
182,192,447861,1,0,0:0:0:0:
36,192,447861,1,0,0:0:0:0:
109,192,447941,1,0,0:0:0:0:
475,192,448021,1,0,0:0:0:0:
402,192,448021,1,0,0:0:0:0:
182,192,448021,1,0,0:0:0:0:
36,192,448100,1,0,0:0:0:0:
256,192,448100,1,0,0:0:0:0:
475,192,448180,1,0,0:0:0:0:
402,192,448180,1,0,0:0:0:0:
329,192,448180,1,0,0:0:0:0:
109,192,448180,1,0,0:0:0:0:
256,192,448260,1,0,0:0:0:0:
36,192,448340,1,0,0:0:0:0:
182,192,448340,1,0,0:0:0:0:
402,192,448420,1,0,0:0:0:0:
475,192,448500,1,0,0:0:0:0:
256,192,448500,1,0,0:0:0:0:
329,192,448500,1,0,0:0:0:0:
36,192,448500,1,0,0:0:0:0:
109,192,448580,1,0,0:0:0:0:
402,192,448660,1,0,0:0:0:0:
475,192,448660,1,0,0:0:0:0:
182,192,448660,1,0,0:0:0:0:
109,192,448739,1,0,0:0:0:0:
256,192,448739,1,0,0:0:0:0:
36,192,448819,1,0,0:0:0:0:
475,192,448819,1,0,0:0:0:0:
329,192,448819,1,0,0:0:0:0:
402,192,448819,1,0,0:0:0:0:
182,192,448899,1,0,0:0:0:0:
475,192,448979,1,0,0:0:0:0:
109,192,448979,1,0,0:0:0:0:
402,192,449059,1,0,0:0:0:0:
36,192,449139,1,0,0:0:0:0:
475,192,449139,1,0,0:0:0:0:
329,192,449139,1,0,0:0:0:0:
182,192,449139,1,0,0:0:0:0:
256,192,449219,1,0,0:0:0:0:
182,192,449298,1,0,0:0:0:0:
329,192,449298,1,0,0:0:0:0:
402,192,449378,1,0,0:0:0:0:
109,192,449378,1,0,0:0:0:0:
475,192,449458,1,0,0:0:0:0:
256,192,449458,1,0,0:0:0:0:
182,192,449458,1,0,0:0:0:0:
36,192,449458,1,0,0:0:0:0:
329,192,449538,1,0,0:0:0:0:
109,192,449618,1,0,0:0:0:0:
402,192,449618,1,0,0:0:0:0:
182,192,449698,1,0,0:0:0:0:
402,192,449778,1,0,0:0:0:0:
475,192,449778,1,0,0:0:0:0:
329,192,449778,1,0,0:0:0:0:
36,192,449778,1,0,0:0:0:0:
256,192,449857,1,0,0:0:0:0:
109,192,449937,1,0,0:0:0:0:
182,192,449937,1,0,0:0:0:0:
36,192,450017,1,0,0:0:0:0:
256,192,450097,1,0,0:0:0:0:
475,192,450097,1,0,0:0:0:0:
402,192,450097,1,0,0:0:0:0:
36,192,450177,1,0,0:0:0:0:
109,192,450177,1,0,0:0:0:0:
475,192,450257,1,0,0:0:0:0:
402,192,450257,1,0,0:0:0:0:
329,192,450257,1,0,0:0:0:0:
36,192,450337,1,0,0:0:0:0:
109,192,450337,1,0,0:0:0:0:
182,192,450337,1,0,0:0:0:0:
475,192,450417,1,0,0:0:0:0:
402,192,450417,1,0,0:0:0:0:
36,192,450496,1,0,0:0:0:0:
109,192,450496,1,0,0:0:0:0:
402,192,450576,1,0,0:0:0:0:
329,192,450576,1,0,0:0:0:0:
182,192,450656,1,0,0:0:0:0:
109,192,450656,1,0,0:0:0:0:
402,192,450736,1,0,0:0:0:0:
256,192,450736,1,0,0:0:0:0:
329,192,450736,1,0,0:0:0:0:
475,192,450736,1,0,0:0:0:0:
36,192,450816,1,0,0:0:0:0:
109,192,450816,1,0,0:0:0:0:
475,192,450896,1,0,0:0:0:0:
402,192,450896,1,0,0:0:0:0:
329,192,450896,1,0,0:0:0:0:
36,192,450976,1,0,0:0:0:0:
109,192,450976,1,0,0:0:0:0:
182,192,450976,1,0,0:0:0:0:
402,192,451055,1,0,0:0:0:0:
329,192,451055,1,0,0:0:0:0:
36,192,451135,1,0,0:0:0:0:
109,192,451135,1,0,0:0:0:0:
182,192,451135,1,0,0:0:0:0:
256,192,451215,1,0,0:0:0:0:
329,192,451215,1,0,0:0:0:0:
402,192,451215,1,0,0:0:0:0:
36,192,451295,1,0,0:0:0:0:
109,192,451295,1,0,0:0:0:0:
256,192,451375,1,0,0:0:0:0:
402,192,451375,1,0,0:0:0:0:
329,192,451375,1,0,0:0:0:0:
36,192,451455,1,0,0:0:0:0:
109,192,451455,1,0,0:0:0:0:
182,192,451455,1,0,0:0:0:0:
475,192,451535,1,0,0:0:0:0:
329,192,451535,1,0,0:0:0:0:
36,192,451614,1,0,0:0:0:0:
109,192,451614,1,0,0:0:0:0:
182,192,451614,1,0,0:0:0:0:
256,192,451694,1,0,0:0:0:0:
475,192,451694,1,0,0:0:0:0:
329,192,451694,1,0,0:0:0:0:
109,192,451774,1,0,0:0:0:0:
182,192,451774,1,0,0:0:0:0:
36,192,451854,1,0,0:0:0:0:
475,192,451854,1,0,0:0:0:0:
402,192,451854,1,0,0:0:0:0:
256,192,451934,1,0,0:0:0:0:
329,192,451934,1,0,0:0:0:0:
36,192,452014,1,0,0:0:0:0:
109,192,452014,1,0,0:0:0:0:
182,192,452014,1,0,0:0:0:0:
402,192,452094,1,0,0:0:0:0:
329,192,452094,1,0,0:0:0:0:
36,192,452174,1,0,0:0:0:0:
109,192,452174,1,0,0:0:0:0:
182,192,452174,1,0,0:0:0:0:
475,192,452253,1,0,0:0:0:0:
402,192,452253,1,0,0:0:0:0:
329,192,452253,1,0,0:0:0:0:
36,192,452333,1,0,0:0:0:0:
182,192,452333,1,0,0:0:0:0:
475,192,452413,1,0,0:0:0:0:
402,192,452413,1,0,0:0:0:0:
329,192,452413,1,0,0:0:0:0:
36,192,452493,1,0,0:0:0:0:
109,192,452493,1,0,0:0:0:0:
182,192,452493,1,0,0:0:0:0:
329,192,452573,1,0,0:0:0:0:
256,192,452573,1,0,0:0:0:0:
36,192,452653,1,0,0:0:0:0:
475,192,452653,1,0,0:0:0:0:
402,192,452653,1,0,0:0:0:0:
256,192,452733,1,0,0:0:0:0:
182,192,452733,1,0,0:0:0:0:
109,192,452733,1,0,0:0:0:0:
402,192,452812,1,0,0:0:0:0:
329,192,452812,1,0,0:0:0:0:
109,192,452892,1,0,0:0:0:0:
182,192,452892,1,0,0:0:0:0:
256,192,452892,1,0,0:0:0:0:
329,192,452972,1,0,0:0:0:0:
402,192,452972,1,0,0:0:0:0:
475,192,452972,1,0,0:0:0:0:
36,192,453052,1,0,0:0:0:0:
182,192,453052,1,0,0:0:0:0:
475,192,453132,1,0,0:0:0:0:
109,192,453132,1,0,0:0:0:0:
256,192,453132,1,0,0:0:0:0:
329,192,453212,1,0,0:0:0:0:
402,192,453212,1,0,0:0:0:0:
475,192,453292,1,0,0:0:0:0:
36,192,453292,1,0,0:0:0:0:
182,192,453292,1,0,0:0:0:0:
256,192,453371,1,0,0:0:0:0:
109,192,453371,1,0,0:0:0:0:
475,192,453451,1,0,0:0:0:0:
402,192,453451,1,0,0:0:0:0:
329,192,453451,1,0,0:0:0:0:
36,192,453531,1,0,0:0:0:0:
109,192,453531,1,0,0:0:0:0:
256,192,453531,1,0,0:0:0:0:
475,192,453611,1,0,0:0:0:0:
402,192,453611,1,0,0:0:0:0:
329,192,453611,1,0,0:0:0:0:
182,192,453691,1,0,0:0:0:0:
36,192,453691,1,0,0:0:0:0:
475,192,453771,1,0,0:0:0:0:
402,192,453771,1,0,0:0:0:0:
329,192,453771,1,0,0:0:0:0:
256,192,453851,1,0,0:0:0:0:
109,192,453851,1,0,0:0:0:0:
182,192,453851,1,0,0:0:0:0:
475,192,453931,1,0,0:0:0:0:
402,192,453931,1,0,0:0:0:0:
329,192,453931,1,0,0:0:0:0:
109,192,454010,1,0,0:0:0:0:
36,192,454010,1,0,0:0:0:0:
182,192,454010,1,0,0:0:0:0:
402,192,454090,1,0,0:0:0:0:
329,192,454090,1,0,0:0:0:0:
256,192,454090,1,0,0:0:0:0:
475,192,454170,1,0,0:0:0:0:
36,192,454170,1,0,0:0:0:0:
109,192,454170,1,0,0:0:0:0:
256,192,454250,1,0,0:0:0:0:
329,192,454250,1,0,0:0:0:0:
402,192,454250,1,0,0:0:0:0:
36,192,454330,1,0,0:0:0:0:
109,192,454330,1,0,0:0:0:0:
182,192,454330,1,0,0:0:0:0:
329,192,454410,1,0,0:0:0:0:
475,192,454410,1,0,0:0:0:0:
402,192,454410,1,0,0:0:0:0:
182,192,454490,1,0,0:0:0:0:
109,192,454490,1,0,0:0:0:0:
256,192,454490,1,0,0:0:0:0:
402,192,454569,1,0,0:0:0:0:
475,192,454569,1,0,0:0:0:0:
36,192,454569,1,0,0:0:0:0:
256,192,454649,1,0,0:0:0:0:
329,192,454649,1,0,0:0:0:0:
36,192,454729,1,0,0:0:0:0:
109,192,454729,1,0,0:0:0:0:
182,192,454729,1,0,0:0:0:0:
475,192,454809,1,0,0:0:0:0:
402,192,454809,1,0,0:0:0:0:
329,192,454809,1,0,0:0:0:0:
182,192,454889,1,0,0:0:0:0:
256,192,454889,1,0,0:0:0:0:
475,192,454969,1,0,0:0:0:0:
402,192,454969,1,0,0:0:0:0:
329,192,454969,1,0,0:0:0:0:
36,192,455049,1,0,0:0:0:0:
109,192,455049,1,0,0:0:0:0:
182,192,455049,1,0,0:0:0:0:
329,192,455128,1,0,0:0:0:0:
256,192,455128,1,0,0:0:0:0:
36,192,455208,1,0,0:0:0:0:
109,192,455208,1,0,0:0:0:0:
182,192,455208,1,0,0:0:0:0:
475,192,455288,1,0,0:0:0:0:
402,192,455288,1,0,0:0:0:0:
329,192,455288,1,0,0:0:0:0:
182,192,455368,1,0,0:0:0:0:
109,192,455368,1,0,0:0:0:0:
402,192,455448,1,0,0:0:0:0:
329,192,455448,1,0,0:0:0:0:
256,192,455448,1,0,0:0:0:0:
36,192,455528,1,0,0:0:0:0:
109,192,455528,1,0,0:0:0:0:
182,192,455528,1,0,0:0:0:0:
402,192,455608,1,0,0:0:0:0:
475,192,455608,1,0,0:0:0:0:
256,192,455688,1,0,0:0:0:0:
36,192,455688,1,0,0:0:0:0:
182,192,455688,1,0,0:0:0:0:
402,192,455767,1,0,0:0:0:0:
329,192,455767,1,0,0:0:0:0:
109,192,455767,1,0,0:0:0:0:
182,192,455847,1,0,0:0:0:0:
475,192,455847,1,0,0:0:0:0:
256,192,455847,1,0,0:0:0:0:
36,192,455927,1,0,0:0:0:0:
109,192,455927,1,0,0:0:0:0:
475,192,456007,1,0,0:0:0:0:
402,192,456007,1,0,0:0:0:0:
256,192,456007,1,0,0:0:0:0:
36,192,456087,1,0,0:0:0:0:
109,192,456087,1,0,0:0:0:0:
182,192,456087,1,0,0:0:0:0:
475,192,456167,1,0,0:0:0:0:
402,192,456167,1,0,0:0:0:0:
36,192,456247,1,0,0:0:0:0:
109,192,456247,1,0,0:0:0:0:
256,192,456247,1,0,0:0:0:0:
475,192,456326,1,0,0:0:0:0:
402,192,456326,1,0,0:0:0:0:
329,192,456326,1,0,0:0:0:0:
109,192,456406,1,0,0:0:0:0:
182,192,456406,1,0,0:0:0:0:
475,192,456486,1,0,0:0:0:0:
402,192,456486,1,0,0:0:0:0:
329,192,456486,1,0,0:0:0:0:
109,192,456566,1,0,0:0:0:0:
182,192,456566,1,0,0:0:0:0:
402,192,456646,1,0,0:0:0:0:
329,192,456646,1,0,0:0:0:0:
256,192,456646,1,0,0:0:0:0:
109,192,456726,1,0,0:0:0:0:
182,192,456726,1,0,0:0:0:0:
475,192,456806,1,0,0:0:0:0:
402,192,456806,1,0,0:0:0:0:
256,192,456806,1,0,0:0:0:0:
109,192,456885,1,0,0:0:0:0:
182,192,456885,1,0,0:0:0:0:
256,192,456965,1,0,0:0:0:0:
329,192,456965,1,0,0:0:0:0:
475,192,456965,1,0,0:0:0:0:
109,192,457045,1,0,0:0:0:0:
182,192,457045,1,0,0:0:0:0:
475,192,457125,1,0,0:0:0:0:
402,192,457125,1,0,0:0:0:0:
36,192,457125,1,0,0:0:0:0:
329,192,457205,1,0,0:0:0:0:
256,192,457205,1,0,0:0:0:0:
36,192,457285,1,0,0:0:0:0:
109,192,457285,1,0,0:0:0:0:
182,192,457285,1,0,0:0:0:0:
475,192,457365,1,0,0:0:0:0:
402,192,457365,1,0,0:0:0:0:
256,192,457365,1,0,0:0:0:0:
109,192,457445,1,0,0:0:0:0:
182,192,457445,1,0,0:0:0:0:
475,192,457524,1,0,0:0:0:0:
402,192,457524,1,0,0:0:0:0:
256,192,457524,1,0,0:0:0:0:
36,192,457604,1,0,0:0:0:0:
109,192,457604,1,0,0:0:0:0:
182,192,457604,1,0,0:0:0:0:
402,192,457684,1,0,0:0:0:0:
329,192,457684,1,0,0:0:0:0:
36,192,457764,1,0,0:0:0:0:
109,192,457764,1,0,0:0:0:0:
182,192,457764,1,0,0:0:0:0:
402,192,457844,1,0,0:0:0:0:
329,192,457844,1,0,0:0:0:0:
256,192,457924,1,0,0:0:0:0:
109,192,457924,1,0,0:0:0:0:
182,192,457924,1,0,0:0:0:0:
475,192,458004,1,0,0:0:0:0:
402,192,458004,1,0,0:0:0:0:
329,192,458004,1,0,0:0:0:0:
109,192,458083,1,0,0:0:0:0:
182,192,458083,1,0,0:0:0:0:
475,192,458163,1,0,0:0:0:0:
402,192,458163,1,0,0:0:0:0:
329,192,458163,1,0,0:0:0:0:
109,192,458243,1,0,0:0:0:0:
256,192,458243,1,0,0:0:0:0:
36,192,458243,1,0,0:0:0:0:
475,192,458323,1,0,0:0:0:0:
329,192,458323,1,0,0:0:0:0:
36,192,458403,1,0,0:0:0:0:
109,192,458403,1,0,0:0:0:0:
256,192,458403,1,0,0:0:0:0:
402,192,458483,1,0,0:0:0:0:
329,192,458483,1,0,0:0:0:0:
182,192,458563,1,0,0:0:0:0:
36,192,458563,1,0,0:0:0:0:
256,192,458563,1,0,0:0:0:0:
475,192,458642,1,0,0:0:0:0:
402,192,458642,1,0,0:0:0:0:
329,192,458642,1,0,0:0:0:0:
36,192,458722,1,0,0:0:0:0:
109,192,458722,1,0,0:0:0:0:
256,192,458802,1,0,0:0:0:0:
402,192,458802,1,0,0:0:0:0:
329,192,458802,1,0,0:0:0:0:
36,192,458882,1,0,0:0:0:0:
109,192,458882,1,0,0:0:0:0:
182,192,458882,1,0,0:0:0:0:
475,192,458962,1,0,0:0:0:0:
402,192,458962,1,0,0:0:0:0:
329,192,458962,1,0,0:0:0:0:
109,192,459042,1,0,0:0:0:0:
182,192,459042,1,0,0:0:0:0:
256,192,459042,1,0,0:0:0:0:
402,192,459122,1,0,0:0:0:0:
329,192,459122,1,0,0:0:0:0:
36,192,459202,1,0,0:0:0:0:
109,192,459202,1,0,0:0:0:0:
182,192,459202,1,0,0:0:0:0:
475,192,459281,1,0,0:0:0:0:
329,192,459281,1,0,0:0:0:0:
402,192,459281,1,0,0:0:0:0:
109,192,459361,1,0,0:0:0:0:
256,192,459361,1,0,0:0:0:0:
475,192,459441,1,0,0:0:0:0:
402,192,459441,1,0,0:0:0:0:
329,192,459441,1,0,0:0:0:0:
36,192,459521,1,0,0:0:0:0:
109,192,459521,1,0,0:0:0:0:
182,192,459521,1,0,0:0:0:0:
329,192,459601,1,0,0:0:0:0:
256,192,459601,1,0,0:0:0:0:
36,192,459681,1,0,0:0:0:0:
109,192,459681,1,0,0:0:0:0:
182,192,459681,1,0,0:0:0:0:
475,192,459761,1,0,0:0:0:0:
329,192,459761,1,0,0:0:0:0:
36,192,459840,1,0,0:0:0:0:
109,192,459840,1,0,0:0:0:0:
182,192,459840,1,0,0:0:0:0:
475,192,459920,1,0,0:0:0:0:
402,192,459920,1,0,0:0:0:0:
329,192,459920,1,0,0:0:0:0:
109,192,460000,1,0,0:0:0:0:
182,192,460000,1,0,0:0:0:0:
402,192,460080,1,0,0:0:0:0:
329,192,460080,1,0,0:0:0:0:
256,192,460080,1,0,0:0:0:0:
36,192,460160,1,0,0:0:0:0:
109,192,460160,1,0,0:0:0:0:
182,192,460160,1,0,0:0:0:0:
475,192,460240,1,0,0:0:0:0:
402,192,460240,1,0,0:0:0:0:
36,192,460320,1,0,0:0:0:0:
109,192,460320,1,0,0:0:0:0:
256,192,460320,1,0,0:0:0:0:
329,192,460399,1,0,0:0:0:0:
182,192,460399,1,0,0:0:0:0:
36,192,460479,1,0,0:0:0:0:
402,192,460479,1,0,0:0:0:0:
256,192,460479,1,0,0:0:0:0:
182,192,460559,1,0,0:0:0:0:
109,192,460559,1,0,0:0:0:0:
475,192,460639,1,0,0:0:0:0:
36,192,460639,1,0,0:0:0:0:
402,192,460639,1,0,0:0:0:0:
256,192,460719,1,0,0:0:0:0:
329,192,460719,1,0,0:0:0:0:
475,192,460799,1,0,0:0:0:0:
109,192,460799,1,0,0:0:0:0:
182,192,460799,1,0,0:0:0:0:
256,192,460879,1,0,0:0:0:0:
402,192,460879,1,0,0:0:0:0:
36,192,460959,1,0,0:0:0:0:
475,192,460959,1,0,0:0:0:0:
329,192,460959,1,0,0:0:0:0:
182,192,460959,1,0,0:0:0:0:
109,192,460959,1,0,0:0:0:0:
109,192,461118,1,0,0:0:0:0:
256,192,461118,1,0,0:0:0:0:
402,192,461118,1,0,0:0:0:0:
475,192,461278,1,0,0:0:0:0:
36,192,461278,1,0,0:0:0:0:
182,192,461278,1,0,0:0:0:0:
329,192,461278,1,0,0:0:0:0:
402,192,461278,1,0,0:0:0:0:
36,192,461438,1,0,0:0:0:0:
329,192,461438,1,0,0:0:0:0:
402,192,461438,1,0,0:0:0:0:
182,192,461438,1,0,0:0:0:0:
256,192,461438,1,0,0:0:0:0:
36,192,461597,1,0,0:0:0:0:
475,192,461597,1,0,0:0:0:0:
109,192,461597,1,0,0:0:0:0:
329,192,461597,1,0,0:0:0:0:
182,192,461597,1,0,0:0:0:0:
402,192,461757,1,0,0:0:0:0:
475,192,461757,1,0,0:0:0:0:
256,192,461757,1,0,0:0:0:0:
109,192,461757,1,0,0:0:0:0:
182,192,461757,1,0,0:0:0:0:
402,192,461917,1,0,0:0:0:0:
329,192,461917,1,0,0:0:0:0:
36,192,461917,1,0,0:0:0:0:
182,192,461917,1,0,0:0:0:0:
256,192,461917,1,0,0:0:0:0:
109,192,462077,1,0,0:0:0:0:
475,192,462077,1,0,0:0:0:0:
182,192,462077,1,0,0:0:0:0:
256,192,462077,1,0,0:0:0:0:
329,192,462077,1,0,0:0:0:0:
256,192,462236,1,0,0:0:0:0:
36,192,462236,1,0,0:0:0:0:
329,192,462236,1,0,0:0:0:0:
402,192,462236,1,0,0:0:0:0:
475,192,462236,1,0,0:0:0:0:
329,192,462396,1,0,0:0:0:0:
475,192,462396,1,0,0:0:0:0:
109,192,462396,1,0,0:0:0:0:
36,192,462556,1,0,0:0:0:0:
182,192,462556,1,0,0:0:0:0:
256,192,462556,1,0,0:0:0:0:
109,192,462716,1,0,0:0:0:0:
36,192,462716,1,0,0:0:0:0:
475,192,462716,1,0,0:0:0:0:
182,192,462716,1,0,0:0:0:0:
329,192,462716,1,0,0:0:0:0:
256,192,462875,1,0,0:0:0:0:
109,192,462875,1,0,0:0:0:0:
402,192,462875,1,0,0:0:0:0:
475,192,462875,1,0,0:0:0:0:
329,192,462875,1,0,0:0:0:0:
402,192,463035,1,0,0:0:0:0:
475,192,463035,1,0,0:0:0:0:
109,192,463035,1,0,0:0:0:0:
182,192,463035,1,0,0:0:0:0:
256,192,463035,1,0,0:0:0:0:
329,192,463195,1,0,0:0:0:0:
475,192,463195,1,0,0:0:0:0:
256,192,463195,1,0,0:0:0:0:
109,192,463195,1,0,0:0:0:0:
36,192,463195,1,0,0:0:0:0:
329,192,463354,1,0,0:0:0:0:
402,192,463354,1,0,0:0:0:0:
36,192,463354,1,0,0:0:0:0:
182,192,463354,1,0,0:0:0:0:
109,192,463354,1,0,0:0:0:0:
36,192,463514,1,0,0:0:0:0:
329,192,463514,1,0,0:0:0:0:
402,192,463514,1,0,0:0:0:0:
256,192,463514,1,0,0:0:0:0:
182,192,463514,1,0,0:0:0:0:
475,192,463674,1,0,0:0:0:0:
329,192,463674,1,0,0:0:0:0:
109,192,463674,1,0,0:0:0:0:
36,192,463834,1,0,0:0:0:0:
182,192,463834,1,0,0:0:0:0:
256,192,463834,1,0,0:0:0:0:
402,192,463993,1,0,0:0:0:0:
36,192,463993,1,0,0:0:0:0:
329,192,463993,1,0,0:0:0:0:
109,192,463993,1,0,0:0:0:0:
182,192,463993,1,0,0:0:0:0:
402,192,464153,1,0,0:0:0:0:
475,192,464153,1,0,0:0:0:0:
329,192,464153,1,0,0:0:0:0:
109,192,464153,1,0,0:0:0:0:
182,192,464153,1,0,0:0:0:0:
182,192,464313,1,0,0:0:0:0:
36,192,464313,1,0,0:0:0:0:
256,192,464313,1,0,0:0:0:0:
402,192,464313,1,0,0:0:0:0:
329,192,464313,1,0,0:0:0:0:
329,192,464473,1,0,0:0:0:0:
475,192,464473,1,0,0:0:0:0:
402,192,464473,1,0,0:0:0:0:
109,192,464473,1,0,0:0:0:0:
182,192,464473,1,0,0:0:0:0:
36,192,464632,1,0,0:0:0:0:
475,192,464632,1,0,0:0:0:0:
256,192,464632,1,0,0:0:0:0:
402,192,464632,1,0,0:0:0:0:
329,192,464632,1,0,0:0:0:0:
329,192,464792,1,0,0:0:0:0:
256,192,464792,1,0,0:0:0:0:
109,192,464792,1,0,0:0:0:0:
402,192,464792,1,0,0:0:0:0:
182,192,464792,1,0,0:0:0:0:
109,192,464952,1,0,0:0:0:0:
475,192,464952,1,0,0:0:0:0:
402,192,464952,1,0,0:0:0:0:
256,192,465111,1,0,0:0:0:0:
329,192,465111,1,0,0:0:0:0:
36,192,465111,1,0,0:0:0:0:
109,192,465271,1,0,0:0:0:0:
36,192,465271,1,0,0:0:0:0:
475,192,465271,1,0,0:0:0:0:
329,192,465271,1,0,0:0:0:0:
182,192,465271,1,0,0:0:0:0:
36,192,465431,1,0,0:0:0:0:
475,192,465431,1,0,0:0:0:0:
256,192,465431,1,0,0:0:0:0:
402,192,465431,1,0,0:0:0:0:
329,192,465431,1,0,0:0:0:0:
256,192,465591,1,0,0:0:0:0:
475,192,465591,1,0,0:0:0:0:
329,192,465591,1,0,0:0:0:0:
109,192,465591,1,0,0:0:0:0:
182,192,465591,1,0,0:0:0:0:
109,192,465750,1,0,0:0:0:0:
36,192,465750,1,0,0:0:0:0:
256,192,465750,1,0,0:0:0:0:
402,192,465750,1,0,0:0:0:0:
329,192,465750,1,0,0:0:0:0:
256,192,465910,1,0,0:0:0:0:
475,192,465910,1,0,0:0:0:0:
402,192,465910,1,0,0:0:0:0:
182,192,465910,1,0,0:0:0:0:
109,192,465910,1,0,0:0:0:0:
182,192,466070,1,0,0:0:0:0:
256,192,466070,1,0,0:0:0:0:
402,192,466070,1,0,0:0:0:0:
329,192,466230,1,0,0:0:0:0:
36,192,466230,1,0,0:0:0:0:
109,192,466230,1,0,0:0:0:0:
402,192,466389,1,0,0:0:0:0:
36,192,466389,1,0,0:0:0:0:
475,192,466389,1,0,0:0:0:0:
256,192,466389,1,0,0:0:0:0:
182,192,466389,1,0,0:0:0:0:
256,192,466549,1,0,0:0:0:0:
402,192,466549,1,0,0:0:0:0:
182,192,466549,1,0,0:0:0:0:
109,192,466549,1,0,0:0:0:0:
36,192,466549,1,0,0:0:0:0:
475,192,466709,1,0,0:0:0:0:
109,192,466709,1,0,0:0:0:0:
402,192,466709,1,0,0:0:0:0:
329,192,466709,1,0,0:0:0:0:
402,192,466868,1,0,0:0:0:0:
329,192,466868,1,0,0:0:0:0:
256,192,466868,1,0,0:0:0:0:
36,192,466868,1,0,0:0:0:0:
182,192,466868,1,0,0:0:0:0:
475,192,467028,1,0,0:0:0:0:
402,192,467028,1,0,0:0:0:0:
109,192,467028,1,0,0:0:0:0:
329,192,467028,1,0,0:0:0:0:
182,192,467028,1,0,0:0:0:0:
36,192,467188,1,0,0:0:0:0:
256,192,467188,1,0,0:0:0:0:
182,192,467188,1,0,0:0:0:0:
402,192,467188,1,0,0:0:0:0:
329,192,467188,1,0,0:0:0:0:
475,192,467348,1,0,0:0:0:0:
36,192,467348,1,0,0:0:0:0:
256,192,467348,1,0,0:0:0:0:
329,192,467348,1,0,0:0:0:0:
109,192,467427,1,0,0:0:0:0:
182,192,467427,1,0,0:0:0:0:
329,192,467507,1,0,0:0:0:0:
256,192,467507,1,0,0:0:0:0:
36,192,467587,1,0,0:0:0:0:
109,192,467587,1,0,0:0:0:0:
475,192,467667,1,0,0:0:0:0:
402,192,467667,1,0,0:0:0:0:
256,192,467747,1,0,0:0:0:0:
329,192,467747,1,0,0:0:0:0:
36,192,467827,1,0,0:0:0:0:
475,192,467827,1,0,0:0:0:0:
182,192,467827,1,0,0:0:0:0:
109,192,467827,1,0,0:0:0:0:
329,192,467907,1,0,0:0:0:0:
402,192,467907,1,0,0:0:0:0:
109,192,467987,1,0,0:0:0:0:
36,192,467987,1,0,0:0:0:0:
256,192,467987,1,0,0:0:0:0:
182,192,467987,1,0,0:0:0:0:
402,192,468066,1,0,0:0:0:0:
329,192,468066,1,0,0:0:0:0:
475,192,468146,1,0,0:0:0:0:
256,192,468146,1,0,0:0:0:0:
109,192,468146,1,0,0:0:0:0:
182,192,468146,1,0,0:0:0:0:
402,192,468226,1,0,0:0:0:0:
329,192,468226,1,0,0:0:0:0:
109,192,468306,1,0,0:0:0:0:
36,192,468306,1,0,0:0:0:0:
256,192,468306,1,0,0:0:0:0:
182,192,468306,1,0,0:0:0:0:
475,192,468386,1,0,0:0:0:0:
402,192,468386,1,0,0:0:0:0:
329,192,468466,1,0,0:0:0:0:
36,192,468466,1,0,0:0:0:0:
182,192,468466,1,0,0:0:0:0:
256,192,468466,1,0,0:0:0:0:
475,192,468546,1,0,0:0:0:0:
109,192,468546,1,0,0:0:0:0:
256,192,468625,1,0,0:0:0:0:
182,192,468625,1,0,0:0:0:0:
402,192,468625,1,0,0:0:0:0:
329,192,468625,1,0,0:0:0:0:
36,192,468705,1,0,0:0:0:0:
109,192,468705,1,0,0:0:0:0:
475,192,468785,1,0,0:0:0:0:
402,192,468785,1,0,0:0:0:0:
256,192,468865,1,0,0:0:0:0:
329,192,468865,1,0,0:0:0:0:
109,192,468945,1,0,0:0:0:0:
36,192,468945,1,0,0:0:0:0:
329,192,469025,1,0,0:0:0:0:
182,192,469025,1,0,0:0:0:0:
109,192,469105,1,0,0:0:0:0:
36,192,469105,1,0,0:0:0:0:
256,192,469105,1,0,0:0:0:0:
402,192,469105,1,0,0:0:0:0:
475,192,469184,1,0,0:0:0:0:
329,192,469184,1,0,0:0:0:0:
36,192,469264,1,0,0:0:0:0:
402,192,469264,1,0,0:0:0:0:
182,192,469264,1,0,0:0:0:0:
109,192,469264,1,0,0:0:0:0:
256,192,469344,1,0,0:0:0:0:
329,192,469344,1,0,0:0:0:0:
402,192,469424,1,0,0:0:0:0:
475,192,469424,1,0,0:0:0:0:
182,192,469424,1,0,0:0:0:0:
109,192,469424,1,0,0:0:0:0:
256,192,469504,1,0,0:0:0:0:
329,192,469504,1,0,0:0:0:0:
402,192,469584,1,0,0:0:0:0:
475,192,469584,1,0,0:0:0:0:
109,192,469584,1,0,0:0:0:0:
36,192,469584,1,0,0:0:0:0:
256,192,469664,1,0,0:0:0:0:
182,192,469664,1,0,0:0:0:0:
36,192,469744,1,0,0:0:0:0:
475,192,469744,1,0,0:0:0:0:
329,192,469744,1,0,0:0:0:0:
402,192,469744,1,0,0:0:0:0:
256,192,469823,1,0,0:0:0:0:
109,192,469823,1,0,0:0:0:0:
329,192,469903,1,0,0:0:0:0:
475,192,469903,1,0,0:0:0:0:
182,192,469903,1,0,0:0:0:0:
36,192,469903,1,0,0:0:0:0:
256,192,469983,1,0,0:0:0:0:
402,192,469983,1,0,0:0:0:0:
109,192,470063,1,0,0:0:0:0:
329,192,470063,1,0,0:0:0:0:
182,192,470143,1,0,0:0:0:0:
256,192,470143,1,0,0:0:0:0:
36,192,470223,1,0,0:0:0:0:
109,192,470223,1,0,0:0:0:0:
402,192,470303,1,0,0:0:0:0:
329,192,470303,1,0,0:0:0:0:
256,192,470382,1,0,0:0:0:0:
475,192,470382,1,0,0:0:0:0:
109,192,470382,1,0,0:0:0:0:
182,192,470382,1,0,0:0:0:0:
402,192,470462,1,0,0:0:0:0:
329,192,470462,1,0,0:0:0:0:
182,192,470542,1,0,0:0:0:0:
256,192,470542,1,0,0:0:0:0:
109,192,470542,1,0,0:0:0:0:
475,192,470542,1,0,0:0:0:0:
36,192,470542,1,0,0:0:0:0:
256,192,470782,1,0,0:0:0:0:
109,192,470862,1,0,0:0:0:0:
402,192,470862,1,0,0:0:0:0:
329,192,470862,1,0,0:0:0:0:
182,192,470862,1,0,0:0:0:0:
329,192,471181,1,0,0:0:0:0:
256,192,471181,1,0,0:0:0:0:
109,192,471181,1,0,0:0:0:0:
36,192,471181,1,0,0:0:0:0:
475,192,471261,1,0,0:0:0:0:
182,192,471261,1,0,0:0:0:0:
402,192,471341,1,0,0:0:0:0:
36,192,471341,1,0,0:0:0:0:
109,192,471341,1,0,0:0:0:0:
329,192,471421,1,0,0:0:0:0:
182,192,471421,1,0,0:0:0:0:
475,192,471501,1,0,0:0:0:0:
36,192,471501,1,0,0:0:0:0:
109,192,471501,1,0,0:0:0:0:
256,192,471580,1,0,0:0:0:0:
182,192,471580,1,0,0:0:0:0:
475,192,471660,1,0,0:0:0:0:
402,192,471660,1,0,0:0:0:0:
329,192,471660,1,0,0:0:0:0:
182,192,471740,1,0,0:0:0:0:
256,192,471740,1,0,0:0:0:0:
475,192,471820,1,0,0:0:0:0:
329,192,471820,1,0,0:0:0:0:
109,192,471820,1,0,0:0:0:0:
36,192,471820,1,0,0:0:0:0:
402,192,471900,1,0,0:0:0:0:
36,192,471980,1,0,0:0:0:0:
329,192,471980,1,0,0:0:0:0:
109,192,472060,1,0,0:0:0:0:
475,192,472139,1,0,0:0:0:0:
256,192,472139,1,0,0:0:0:0:
182,192,472139,1,0,0:0:0:0:
402,192,472139,1,0,0:0:0:0:
329,192,472219,1,0,0:0:0:0:
36,192,472299,1,0,0:0:0:0:
109,192,472299,1,0,0:0:0:0:
256,192,472379,1,0,0:0:0:0:
182,192,472459,1,0,0:0:0:0:
36,192,472459,1,0,0:0:0:0:
402,192,472459,1,0,0:0:0:0:
475,192,472459,1,0,0:0:0:0:
109,192,472539,1,0,0:0:0:0:
329,192,472539,1,0,0:0:0:0:
182,192,472619,1,0,0:0:0:0:
475,192,472619,1,0,0:0:0:0:
402,192,472619,1,0,0:0:0:0:
109,192,472698,1,0,0:0:0:0:
329,192,472698,1,0,0:0:0:0:
36,192,472778,1,0,0:0:0:0:
475,192,472778,1,0,0:0:0:0:
402,192,472778,1,0,0:0:0:0:
182,192,472858,1,0,0:0:0:0:
329,192,472858,1,0,0:0:0:0:
36,192,472938,1,0,0:0:0:0:
109,192,472938,1,0,0:0:0:0:
329,192,473018,1,0,0:0:0:0:
256,192,473018,1,0,0:0:0:0:
36,192,473098,1,0,0:0:0:0:
475,192,473098,1,0,0:0:0:0:
182,192,473098,1,0,0:0:0:0:
109,192,473098,1,0,0:0:0:0:
402,192,473178,1,0,0:0:0:0:
109,192,473258,1,0,0:0:0:0:
329,192,473258,1,0,0:0:0:0:
182,192,473337,1,0,0:0:0:0:
475,192,473417,1,0,0:0:0:0:
402,192,473417,1,0,0:0:0:0:
256,192,473417,1,0,0:0:0:0:
36,192,473417,1,0,0:0:0:0:
109,192,473497,1,0,0:0:0:0:
402,192,473577,1,0,0:0:0:0:
182,192,473577,1,0,0:0:0:0:
256,192,473657,1,0,0:0:0:0:
109,192,473737,1,0,0:0:0:0:
36,192,473737,1,0,0:0:0:0:
475,192,473737,1,0,0:0:0:0:
329,192,473737,1,0,0:0:0:0:
402,192,473737,1,0,0:0:0:0:
256,192,473817,1,0,0:0:0:0:
182,192,473817,1,0,0:0:0:0:
402,192,473896,1,0,0:0:0:0:
329,192,473896,1,0,0:0:0:0:
109,192,473976,1,0,0:0:0:0:
182,192,473976,1,0,0:0:0:0:
475,192,474056,1,0,0:0:0:0:
36,192,474056,1,0,0:0:0:0:
329,192,474056,1,0,0:0:0:0:
402,192,474056,1,0,0:0:0:0:
182,192,474136,1,0,0:0:0:0:
256,192,474136,1,0,0:0:0:0:
36,192,474216,1,0,0:0:0:0:
109,192,474216,1,0,0:0:0:0:
329,192,474296,1,0,0:0:0:0:
402,192,474296,1,0,0:0:0:0:
36,192,474376,1,0,0:0:0:0:
109,192,474376,1,0,0:0:0:0:
256,192,474376,1,0,0:0:0:0:
182,192,474376,1,0,0:0:0:0:
475,192,474455,1,0,0:0:0:0:
402,192,474455,1,0,0:0:0:0:
109,192,474535,1,0,0:0:0:0:
182,192,474535,1,0,0:0:0:0:
329,192,474615,1,0,0:0:0:0:
256,192,474615,1,0,0:0:0:0:
36,192,474695,1,0,0:0:0:0:
109,192,474695,1,0,0:0:0:0:
402,192,474695,1,0,0:0:0:0:
475,192,474695,1,0,0:0:0:0:
182,192,474775,1,0,0:0:0:0:
256,192,474775,1,0,0:0:0:0:
36,192,474855,1,0,0:0:0:0:
109,192,474855,1,0,0:0:0:0:
256,192,474935,1,0,0:0:0:0:
329,192,474935,1,0,0:0:0:0:
36,192,475015,1,0,0:0:0:0:
109,192,475015,1,0,0:0:0:0:
475,192,475015,1,0,0:0:0:0:
402,192,475015,1,0,0:0:0:0:
256,192,475094,1,0,0:0:0:0:
182,192,475094,1,0,0:0:0:0:
402,192,475174,1,0,0:0:0:0:
329,192,475174,1,0,0:0:0:0:
109,192,475254,1,0,0:0:0:0:
182,192,475254,1,0,0:0:0:0:
36,192,475334,1,0,0:0:0:0:
475,192,475334,1,0,0:0:0:0:
256,192,475334,1,0,0:0:0:0:
329,192,475334,1,0,0:0:0:0:
109,192,475414,1,0,0:0:0:0:
182,192,475414,1,0,0:0:0:0:
329,192,475494,1,0,0:0:0:0:
402,192,475494,1,0,0:0:0:0:
256,192,475574,1,0,0:0:0:0:
182,192,475574,1,0,0:0:0:0:
475,192,475653,1,0,0:0:0:0:
36,192,475653,1,0,0:0:0:0:
329,192,475653,1,0,0:0:0:0:
402,192,475653,1,0,0:0:0:0:
109,192,475733,1,0,0:0:0:0:
182,192,475733,1,0,0:0:0:0:
402,192,475813,1,0,0:0:0:0:
329,192,475813,1,0,0:0:0:0:
182,192,475893,1,0,0:0:0:0:
256,192,475893,1,0,0:0:0:0:
109,192,475973,1,0,0:0:0:0:
36,192,475973,1,0,0:0:0:0:
402,192,475973,1,0,0:0:0:0:
475,192,475973,1,0,0:0:0:0:
109,192,476292,1,0,0:0:0:0:
475,192,476292,1,0,0:0:0:0:
402,192,476292,1,0,0:0:0:0:
182,192,476372,1,0,0:0:0:0:
256,192,476372,1,0,0:0:0:0:
329,192,476372,1,0,0:0:0:0:
36,192,476452,1,0,0:0:0:0:
475,192,476452,1,0,0:0:0:0:
402,192,476452,1,0,0:0:0:0:
109,192,476532,1,0,0:0:0:0:
256,192,476532,1,0,0:0:0:0:
329,192,476532,1,0,0:0:0:0:
182,192,476612,1,0,0:0:0:0:
475,192,476612,1,0,0:0:0:0:
402,192,476612,1,0,0:0:0:0:
109,192,476692,1,0,0:0:0:0:
256,192,476692,1,0,0:0:0:0:
329,192,476692,1,0,0:0:0:0:
475,192,476772,1,0,0:0:0:0:
36,192,476772,1,0,0:0:0:0:
182,192,476772,1,0,0:0:0:0:
256,192,476851,1,0,0:0:0:0:
402,192,476851,1,0,0:0:0:0:
109,192,476931,1,0,0:0:0:0:
36,192,476931,1,0,0:0:0:0:
329,192,476931,1,0,0:0:0:0:
475,192,476931,1,0,0:0:0:0:
182,192,477011,1,0,0:0:0:0:
36,192,477091,1,0,0:0:0:0:
329,192,477091,1,0,0:0:0:0:
256,192,477091,1,0,0:0:0:0:
109,192,477171,1,0,0:0:0:0:
36,192,477251,1,0,0:0:0:0:
402,192,477251,1,0,0:0:0:0:
182,192,477251,1,0,0:0:0:0:
475,192,477251,1,0,0:0:0:0:
329,192,477331,1,0,0:0:0:0:
475,192,477410,1,0,0:0:0:0:
109,192,477410,1,0,0:0:0:0:
256,192,477410,1,0,0:0:0:0:
402,192,477490,1,0,0:0:0:0:
36,192,477570,1,0,0:0:0:0:
475,192,477570,1,0,0:0:0:0:
329,192,477570,1,0,0:0:0:0:
109,192,477570,1,0,0:0:0:0:
402,192,477650,1,0,0:0:0:0:
256,192,477650,1,0,0:0:0:0:
182,192,477650,1,0,0:0:0:0:
329,192,477730,1,0,0:0:0:0:
36,192,477730,1,0,0:0:0:0:
109,192,477730,1,0,0:0:0:0:
475,192,477810,1,0,0:0:0:0:
256,192,477810,1,0,0:0:0:0:
182,192,477810,1,0,0:0:0:0:
329,192,477890,1,0,0:0:0:0:
36,192,477890,1,0,0:0:0:0:
109,192,477890,1,0,0:0:0:0:
402,192,477970,1,0,0:0:0:0:
256,192,477970,1,0,0:0:0:0:
182,192,477970,1,0,0:0:0:0:
36,192,478049,1,0,0:0:0:0:
329,192,478049,1,0,0:0:0:0:
475,192,478049,1,0,0:0:0:0:
182,192,478129,1,0,0:0:0:0:
109,192,478129,1,0,0:0:0:0:
475,192,478209,1,0,0:0:0:0:
36,192,478209,1,0,0:0:0:0:
256,192,478209,1,0,0:0:0:0:
402,192,478209,1,0,0:0:0:0:
329,192,478289,1,0,0:0:0:0:
475,192,478369,1,0,0:0:0:0:
109,192,478369,1,0,0:0:0:0:
256,192,478369,1,0,0:0:0:0:
402,192,478449,1,0,0:0:0:0:
109,192,478529,1,0,0:0:0:0:
36,192,478529,1,0,0:0:0:0:
329,192,478529,1,0,0:0:0:0:
182,192,478529,1,0,0:0:0:0:
256,192,478608,1,0,0:0:0:0:
475,192,478688,1,0,0:0:0:0:
329,192,478688,1,0,0:0:0:0:
109,192,478688,1,0,0:0:0:0:
182,192,478768,1,0,0:0:0:0:
329,192,478848,1,0,0:0:0:0:
475,192,478848,1,0,0:0:0:0:
402,192,478848,1,0,0:0:0:0:
256,192,478848,1,0,0:0:0:0:
36,192,478848,1,0,0:0:0:0:
182,192,478928,1,0,0:0:0:0:
329,192,479008,1,0,0:0:0:0:
402,192,479008,1,0,0:0:0:0:
109,192,479008,1,0,0:0:0:0:
36,192,479008,1,0,0:0:0:0:
256,192,479088,1,0,0:0:0:0:
475,192,479167,1,0,0:0:0:0:
402,192,479167,1,0,0:0:0:0:
109,192,479167,1,0,0:0:0:0:
182,192,479167,1,0,0:0:0:0:
36,192,479167,1,0,0:0:0:0:
329,192,479247,1,0,0:0:0:0:
402,192,479327,1,0,0:0:0:0:
475,192,479327,1,0,0:0:0:0:
256,192,479327,1,0,0:0:0:0:
36,192,479327,1,0,0:0:0:0:
109,192,479407,1,0,0:0:0:0:
402,192,479487,1,0,0:0:0:0:
475,192,479487,1,0,0:0:0:0:
329,192,479487,1,0,0:0:0:0:
182,192,479487,1,0,0:0:0:0:
36,192,479487,1,0,0:0:0:0:
256,192,479567,1,0,0:0:0:0:
475,192,479647,1,0,0:0:0:0:
182,192,479647,1,0,0:0:0:0:
329,192,479647,1,0,0:0:0:0:
109,192,479647,1,0,0:0:0:0:
402,192,479727,1,0,0:0:0:0:
475,192,479806,1,0,0:0:0:0:
329,192,479806,1,0,0:0:0:0:
36,192,479806,1,0,0:0:0:0:
256,192,479806,1,0,0:0:0:0:
109,192,479806,1,0,0:0:0:0:
182,192,479886,1,0,0:0:0:0:
329,192,479966,1,0,0:0:0:0:
475,192,479966,1,0,0:0:0:0:
109,192,479966,1,0,0:0:0:0:
402,192,479966,1,0,0:0:0:0:
182,192,480046,1,0,0:0:0:0:
256,192,480046,1,0,0:0:0:0:
475,192,480126,1,0,0:0:0:0:
402,192,480126,1,0,0:0:0:0:
36,192,480126,1,0,0:0:0:0:
329,192,480126,1,0,0:0:0:0:
109,192,480126,1,0,0:0:0:0:
182,192,480206,1,0,0:0:0:0:
402,192,480286,1,0,0:0:0:0:
475,192,480286,1,0,0:0:0:0:
256,192,480286,1,0,0:0:0:0:
182,192,480365,1,0,0:0:0:0:
329,192,480365,1,0,0:0:0:0:
36,192,480445,1,0,0:0:0:0:
475,192,480445,1,0,0:0:0:0:
256,192,480445,1,0,0:0:0:0:
109,192,480445,1,0,0:0:0:0:
402,192,480525,1,0,0:0:0:0:
36,192,480605,1,0,0:0:0:0:
109,192,480605,1,0,0:0:0:0:
329,192,480605,1,0,0:0:0:0:
402,192,480685,1,0,0:0:0:0:
182,192,480685,1,0,0:0:0:0:
36,192,480765,1,0,0:0:0:0:
475,192,480765,1,0,0:0:0:0:
329,192,480765,1,0,0:0:0:0:
109,192,480805,1,0,0:0:0:0:
182,192,480845,1,0,0:0:0:0:
256,192,480885,1,0,0:0:0:0:
475,192,480924,1,0,0:0:0:0:
402,192,480964,1,0,0:0:0:0:
329,192,481004,1,0,0:0:0:0:
256,192,481044,1,0,0:0:0:0:
36,192,481084,1,0,0:0:0:0:
109,192,481124,1,0,0:0:0:0:
182,192,481164,1,0,0:0:0:0:
256,192,481204,1,0,0:0:0:0:
475,192,481244,1,0,0:0:0:0:
402,192,481284,1,0,0:0:0:0:
329,192,481324,1,0,0:0:0:0:
256,192,481364,1,0,0:0:0:0:
182,192,481404,1,0,0:0:0:0:
36,192,481404,1,0,0:0:0:0:
109,192,481404,1,0,0:0:0:0:
256,192,481936,1,0,0:0:0:0:
402,192,481936,1,0,0:0:0:0:
475,192,481936,1,0,0:0:0:0:
109,192,482043,1,0,0:0:0:0:
36,192,482043,1,0,0:0:0:0:
475,192,482043,1,0,0:0:0:0:
329,192,482043,1,0,0:0:0:0:
402,192,482043,1,0,0:0:0:0:
109,192,482362,1,0,0:0:0:0:
182,192,482575,1,0,0:0:0:0:
329,192,482575,1,0,0:0:0:0:
475,192,482575,1,0,0:0:0:0:
109,192,482681,1,0,0:0:0:0:
402,192,482681,1,0,0:0:0:0:
256,192,482681,1,0,0:0:0:0:
402,192,482894,1,0,0:0:0:0:
475,192,482894,1,0,0:0:0:0:
36,192,483001,1,0,0:0:0:0:
182,192,483001,1,0,0:0:0:0:
329,192,483214,1,0,0:0:0:0:
402,192,483214,1,0,0:0:0:0:
182,192,483320,1,0,0:0:0:0:
402,192,483320,1,0,0:0:0:0:
109,192,483320,1,0,0:0:0:0:
329,192,483320,1,0,0:0:0:0:
36,192,483320,1,0,0:0:0:0:
475,192,483320,1,0,0:0:0:0:
182,192,483640,1,0,0:0:0:0:
329,192,483640,1,0,0:0:0:0:
256,192,483853,1,0,0:0:0:0:
109,192,483853,1,0,0:0:0:0:
475,192,483959,1,0,0:0:0:0:
182,192,483959,1,0,0:0:0:0:
256,192,483959,1,0,0:0:0:0:
329,192,484385,1,0,0:0:0:0:
182,192,484492,1,0,0:0:0:0:
475,192,484492,1,0,0:0:0:0:
402,192,484492,1,0,0:0:0:0:
475,192,484598,1,0,0:0:0:0:
36,192,484598,1,0,0:0:0:0:
256,192,484598,1,0,0:0:0:0:
109,192,484598,1,0,0:0:0:0:
182,192,484918,1,0,0:0:0:0:
329,192,485131,1,0,0:0:0:0:
402,192,485131,1,0,0:0:0:0:
256,192,485450,1,0,0:0:0:0:
109,192,485450,1,0,0:0:0:0:
182,192,485450,1,0,0:0:0:0:
402,192,485557,1,0,0:0:0:0:
329,192,485557,1,0,0:0:0:0:
109,192,485770,1,0,0:0:0:0:
182,192,485770,1,0,0:0:0:0:
475,192,485876,1,0,0:0:0:0:
329,192,485876,1,0,0:0:0:0:
256,192,485876,1,0,0:0:0:0:
402,192,485876,1,0,0:0:0:0:
182,192,486089,1,0,0:0:0:0:
402,192,486195,1,0,0:0:0:0:
256,192,486515,1,0,0:0:0:0:
402,192,486515,1,0,0:0:0:0:
182,192,486515,1,0,0:0:0:0:
36,192,486515,1,0,0:0:0:0:
36,192,487047,1,0,0:0:0:0:
182,192,487047,1,0,0:0:0:0:
475,192,487154,1,0,0:0:0:0:
402,192,487154,1,0,0:0:0:0:
329,192,487154,1,0,0:0:0:0:
36,192,487580,1,0,0:0:0:0:
402,192,487686,1,0,0:0:0:0:
256,192,487686,1,0,0:0:0:0:
182,192,487686,1,0,0:0:0:0:
256,192,487793,1,0,0:0:0:0:
36,192,487793,1,0,0:0:0:0:
109,192,487793,1,0,0:0:0:0:
475,192,488006,1,0,0:0:0:0:
402,192,488006,1,0,0:0:0:0:
329,192,488006,1,0,0:0:0:0:
182,192,488112,1,0,0:0:0:0:
256,192,488112,1,0,0:0:0:0:
182,192,488325,1,0,0:0:0:0:
256,192,488325,1,0,0:0:0:0:
36,192,488432,1,0,0:0:0:0:
475,192,488432,1,0,0:0:0:0:
329,192,488432,1,0,0:0:0:0:
402,192,488432,1,0,0:0:0:0:
36,192,488751,1,0,0:0:0:0:
329,192,489071,1,0,0:0:0:0:
182,192,489071,1,0,0:0:0:0:
256,192,489071,1,0,0:0:0:0:
109,192,489603,1,0,0:0:0:0:
182,192,489603,1,0,0:0:0:0:
256,192,489603,1,0,0:0:0:0:
36,192,489709,1,0,0:0:0:0:
475,192,489709,1,0,0:0:0:0:
402,192,489709,1,0,0:0:0:0:
402,192,490029,1,0,0:0:0:0:
256,192,490242,1,0,0:0:0:0:
329,192,490242,1,0,0:0:0:0:
109,192,490561,1,0,0:0:0:0:
36,192,490561,1,0,0:0:0:0:
182,192,490561,1,0,0:0:0:0:
402,192,490668,1,0,0:0:0:0:
329,192,490668,1,0,0:0:0:0:
402,192,490881,1,0,0:0:0:0:
329,192,490881,1,0,0:0:0:0:
36,192,490987,1,0,0:0:0:0:
109,192,490987,1,0,0:0:0:0:
182,192,490987,1,0,0:0:0:0:
182,192,491307,5,0,0:0:0:0:
36,192,491307,1,0,0:0:0:0:
36,192,491626,5,0,0:0:0:0:
256,192,491626,1,0,0:0:0:0:
109,192,491626,1,0,0:0:0:0:
475,192,491626,1,0,0:0:0:0:
182,192,491626,1,0,0:0:0:0:
36,192,491786,1,0,0:0:0:0:
36,192,491866,1,0,0:0:0:0:
182,192,491946,1,0,0:0:0:0:
475,192,492105,1,0,0:0:0:0:
36,192,492105,1,0,0:0:0:0:
329,192,492185,1,0,0:0:0:0:
36,192,492185,1,0,0:0:0:0:
475,192,492265,1,0,0:0:0:0:
182,192,492265,1,0,0:0:0:0:
402,192,492425,1,0,0:0:0:0:
36,192,492425,1,0,0:0:0:0:
36,192,492505,1,0,0:0:0:0:
256,192,492585,1,0,0:0:0:0:
182,192,492585,1,0,0:0:0:0:
329,192,492664,1,0,0:0:0:0:
182,192,492744,1,0,0:0:0:0:
329,192,492824,1,0,0:0:0:0:
109,192,492904,1,0,0:0:0:0:
256,192,492904,1,0,0:0:0:0:
36,192,492904,1,0,0:0:0:0:
475,192,492904,1,0,0:0:0:0:
402,192,492904,1,0,0:0:0:0:
36,192,493064,1,0,0:0:0:0:
109,192,493104,1,0,0:0:0:0:
182,192,493144,1,0,0:0:0:0:
256,192,493184,1,0,0:0:0:0:
329,192,493223,1,0,0:0:0:0:
475,192,493303,1,0,0:0:0:0:
36,192,493383,1,0,0:0:0:0:
329,192,493383,1,0,0:0:0:0:
182,192,493463,1,0,0:0:0:0:
475,192,493463,1,0,0:0:0:0:
329,192,493543,1,0,0:0:0:0:
36,192,493543,1,0,0:0:0:0:
109,192,493703,1,0,0:0:0:0:
475,192,493703,1,0,0:0:0:0:
475,192,493783,1,0,0:0:0:0:
182,192,493862,1,0,0:0:0:0:
329,192,493862,1,0,0:0:0:0:
475,192,494022,1,0,0:0:0:0:
256,192,494182,1,0,0:0:0:0:
475,192,494182,1,0,0:0:0:0:
36,192,494182,1,0,0:0:0:0:
329,192,494182,1,0,0:0:0:0:
182,192,494182,1,0,0:0:0:0:
182,192,494342,1,0,0:0:0:0:
182,192,494421,1,0,0:0:0:0:
36,192,494501,1,0,0:0:0:0:
475,192,494661,1,0,0:0:0:0:
182,192,494661,1,0,0:0:0:0:
329,192,494741,1,0,0:0:0:0:
182,192,494741,1,0,0:0:0:0:
475,192,494821,1,0,0:0:0:0:
36,192,494821,1,0,0:0:0:0:
402,192,494980,1,0,0:0:0:0:
182,192,494980,1,0,0:0:0:0:
182,192,495060,1,0,0:0:0:0:
36,192,495140,1,0,0:0:0:0:
329,192,495140,1,0,0:0:0:0:
182,192,495220,1,0,0:0:0:0:
329,192,495300,1,0,0:0:0:0:
182,192,495380,1,0,0:0:0:0:
36,192,495460,1,0,0:0:0:0:
402,192,495460,1,0,0:0:0:0:
109,192,495460,1,0,0:0:0:0:
329,192,495460,1,0,0:0:0:0:
475,192,495460,1,0,0:0:0:0:
36,192,495619,1,0,0:0:0:0:
109,192,495659,1,0,0:0:0:0:
182,192,495699,1,0,0:0:0:0:
256,192,495739,1,0,0:0:0:0:
329,192,495779,1,0,0:0:0:0:
329,192,495939,1,0,0:0:0:0:
329,192,496019,1,0,0:0:0:0:
402,192,496099,1,0,0:0:0:0:
475,192,496099,1,0,0:0:0:0:
182,192,496258,1,0,0:0:0:0:
329,192,496258,1,0,0:0:0:0:
402,192,496258,1,0,0:0:0:0:
329,192,496418,1,0,0:0:0:0:
475,192,496418,1,0,0:0:0:0:
256,192,496418,1,0,0:0:0:0:
36,192,496418,1,0,0:0:0:0:
109,192,496418,1,0,0:0:0:0:
182,192,496737,1,0,0:0:0:0:
109,192,496737,1,0,0:0:0:0:
256,192,496737,1,0,0:0:0:0:
402,192,496737,1,0,0:0:0:0:
329,192,496737,1,0,0:0:0:0:
475,192,497217,1,0,0:0:0:0:
402,192,497217,1,0,0:0:0:0:
329,192,497217,1,0,0:0:0:0:
36,192,497297,1,0,0:0:0:0:
109,192,497297,1,0,0:0:0:0:
182,192,497297,1,0,0:0:0:0:
475,192,497376,1,0,0:0:0:0:
402,192,497376,1,0,0:0:0:0:
256,192,497376,1,0,0:0:0:0:
329,192,497376,1,0,0:0:0:0:
256,192,497616,1,0,0:0:0:0:
182,192,497616,1,0,0:0:0:0:
402,192,497616,1,0,0:0:0:0:
329,192,497616,1,0,0:0:0:0:
182,192,497856,1,0,0:0:0:0:
109,192,497856,1,0,0:0:0:0:
329,192,497856,1,0,0:0:0:0:
256,192,497856,1,0,0:0:0:0:
475,192,498175,1,0,0:0:0:0:
329,192,498215,1,0,0:0:0:0:
182,192,498255,1,0,0:0:0:0:
36,192,498295,1,0,0:0:0:0:
256,192,498335,1,0,0:0:0:0:
109,192,498335,1,0,0:0:0:0:
475,192,498335,1,0,0:0:0:0:
329,192,498335,1,0,0:0:0:0:
402,192,498335,1,0,0:0:0:0:
329,192,498494,1,0,0:0:0:0:
402,192,498494,1,0,0:0:0:0:
36,192,498494,1,0,0:0:0:0:
182,192,498494,1,0,0:0:0:0:
109,192,498494,1,0,0:0:0:0:
36,192,498814,1,0,0:0:0:0:
402,192,498814,1,0,0:0:0:0:
256,192,498814,1,0,0:0:0:0:
329,192,498814,1,0,0:0:0:0:
182,192,498814,1,0,0:0:0:0:
256,192,498974,1,0,0:0:0:0:
109,192,498974,1,0,0:0:0:0:
402,192,498974,1,0,0:0:0:0:
475,192,498974,1,0,0:0:0:0:
182,192,499293,1,0,0:0:0:0:
256,192,499293,1,0,0:0:0:0:
36,192,499293,1,0,0:0:0:0:
475,192,499293,1,0,0:0:0:0:
109,192,499293,1,0,0:0:0:0:
402,192,499373,1,0,0:0:0:0:
329,192,499453,1,0,0:0:0:0:
475,192,499533,1,0,0:0:0:0:
36,192,499613,1,0,0:0:0:0:
109,192,499692,1,0,0:0:0:0:
182,192,499772,1,0,0:0:0:0:
36,192,499852,1,0,0:0:0:0:
475,192,499932,1,0,0:0:0:0:
402,192,500012,1,0,0:0:0:0:
329,192,500092,1,0,0:0:0:0:
475,192,500172,1,0,0:0:0:0:
36,192,500251,1,0,0:0:0:0:
109,192,500331,1,0,0:0:0:0:
182,192,500411,1,0,0:0:0:0:
36,192,500491,1,0,0:0:0:0:
256,192,500571,1,0,0:0:0:0:
475,192,500571,1,0,0:0:0:0:
182,192,500651,1,0,0:0:0:0:
402,192,500651,1,0,0:0:0:0:
109,192,500731,1,0,0:0:0:0:
329,192,500731,1,0,0:0:0:0:
182,192,500811,1,0,0:0:0:0:
475,192,500811,1,0,0:0:0:0:
256,192,500890,1,0,0:0:0:0:
36,192,500890,1,0,0:0:0:0:
329,192,500970,1,0,0:0:0:0:
109,192,500970,1,0,0:0:0:0:
402,192,501050,1,0,0:0:0:0:
182,192,501050,1,0,0:0:0:0:
329,192,501130,1,0,0:0:0:0:
36,192,501130,1,0,0:0:0:0:
256,192,501210,1,0,0:0:0:0:
475,192,501210,1,0,0:0:0:0:
182,192,501290,1,0,0:0:0:0:
402,192,501290,1,0,0:0:0:0:
109,192,501370,1,0,0:0:0:0:
329,192,501370,1,0,0:0:0:0:
182,192,501449,1,0,0:0:0:0:
475,192,501449,1,0,0:0:0:0:
256,192,501529,1,0,0:0:0:0:
36,192,501529,1,0,0:0:0:0:
109,192,501569,1,0,0:0:0:0:
182,192,501609,1,0,0:0:0:0:
329,192,501649,1,0,0:0:0:0:
402,192,501689,1,0,0:0:0:0:
475,192,501729,1,0,0:0:0:0:
256,192,501769,1,0,0:0:0:0:
182,192,501809,1,0,0:0:0:0:
402,192,501849,1,0,0:0:0:0:
36,192,501849,1,0,0:0:0:0:
109,192,501849,1,0,0:0:0:0:
256,192,501929,1,0,0:0:0:0:
329,192,501929,1,0,0:0:0:0:
109,192,502008,1,0,0:0:0:0:
182,192,502008,1,0,0:0:0:0:
402,192,502088,1,0,0:0:0:0:
329,192,502088,1,0,0:0:0:0:
475,192,502168,1,0,0:0:0:0:
36,192,502168,1,0,0:0:0:0:
109,192,502168,1,0,0:0:0:0:
256,192,502248,1,0,0:0:0:0:
182,192,502248,1,0,0:0:0:0:
402,192,502328,1,0,0:0:0:0:
329,192,502328,1,0,0:0:0:0:
109,192,502408,1,0,0:0:0:0:
182,192,502408,1,0,0:0:0:0:
36,192,502488,1,0,0:0:0:0:
475,192,502488,1,0,0:0:0:0:
402,192,502488,1,0,0:0:0:0:
256,192,502568,1,0,0:0:0:0:
329,192,502568,1,0,0:0:0:0:
109,192,502647,1,0,0:0:0:0:
182,192,502647,1,0,0:0:0:0:
402,192,502727,1,0,0:0:0:0:
329,192,502727,1,0,0:0:0:0:
475,192,502807,1,0,0:0:0:0:
36,192,502807,1,0,0:0:0:0:
109,192,502807,1,0,0:0:0:0:
256,192,502887,1,0,0:0:0:0:
182,192,502887,1,0,0:0:0:0:
329,192,502967,1,0,0:0:0:0:
402,192,502967,1,0,0:0:0:0:
109,192,503047,1,0,0:0:0:0:
182,192,503047,1,0,0:0:0:0:
475,192,503127,1,0,0:0:0:0:
36,192,503127,1,0,0:0:0:0:
402,192,503127,1,0,0:0:0:0:
329,192,503127,1,0,0:0:0:0:
256,192,503127,1,0,0:0:0:0:
402,192,503286,1,0,0:0:0:0:
475,192,503286,1,0,0:0:0:0:
329,192,503286,1,0,0:0:0:0:
109,192,503286,1,0,0:0:0:0:
256,192,503286,1,0,0:0:0:0:
402,192,503446,1,0,0:0:0:0:
475,192,503446,1,0,0:0:0:0:
329,192,503446,1,0,0:0:0:0:
182,192,503446,1,0,0:0:0:0:
256,192,503446,1,0,0:0:0:0:
256,192,503606,1,0,0:0:0:0:
475,192,503606,1,0,0:0:0:0:
36,192,503606,1,0,0:0:0:0:
182,192,503606,1,0,0:0:0:0:
109,192,503606,1,0,0:0:0:0:
109,192,503765,1,0,0:0:0:0:
36,192,503765,1,0,0:0:0:0:
182,192,503765,1,0,0:0:0:0:
402,192,503765,1,0,0:0:0:0:
256,192,503765,1,0,0:0:0:0:
36,192,504085,1,0,0:0:0:0:
182,192,504085,1,0,0:0:0:0:
329,192,504245,1,0,0:0:0:0:
475,192,504245,1,0,0:0:0:0:
329,192,504404,1,0,0:0:0:0:
475,192,504404,1,0,0:0:0:0:
182,192,504404,1,0,0:0:0:0:
36,192,504404,1,0,0:0:0:0:
256,192,504484,1,0,0:0:0:0:
109,192,504564,1,0,0:0:0:0:
182,192,504564,1,0,0:0:0:0:
329,192,504564,1,0,0:0:0:0:
402,192,504644,1,0,0:0:0:0:
182,192,504724,1,0,0:0:0:0:
36,192,504724,1,0,0:0:0:0:
475,192,504724,1,0,0:0:0:0:
256,192,504724,1,0,0:0:0:0:
329,192,504804,1,0,0:0:0:0:
36,192,504884,1,0,0:0:0:0:
475,192,504884,1,0,0:0:0:0:
256,192,504884,1,0,0:0:0:0:
109,192,504963,1,0,0:0:0:0:
182,192,504963,1,0,0:0:0:0:
402,192,504963,1,0,0:0:0:0:
256,192,505043,1,0,0:0:0:0:
36,192,505043,1,0,0:0:0:0:
329,192,505043,1,0,0:0:0:0:
475,192,505043,1,0,0:0:0:0:
182,192,505123,1,0,0:0:0:0:
329,192,505203,1,0,0:0:0:0:
475,192,505203,1,0,0:0:0:0:
109,192,505203,1,0,0:0:0:0:
402,192,505203,1,0,0:0:0:0:
256,192,505283,1,0,0:0:0:0:
402,192,505363,1,0,0:0:0:0:
475,192,505363,1,0,0:0:0:0:
109,192,505363,1,0,0:0:0:0:
182,192,505363,1,0,0:0:0:0:
36,192,505363,1,0,0:0:0:0:
329,192,505443,1,0,0:0:0:0:
36,192,505522,1,0,0:0:0:0:
182,192,505522,1,0,0:0:0:0:
475,192,505522,1,0,0:0:0:0:
109,192,505522,1,0,0:0:0:0:
256,192,505602,1,0,0:0:0:0:
329,192,505682,1,0,0:0:0:0:
182,192,505682,1,0,0:0:0:0:
36,192,505682,1,0,0:0:0:0:
402,192,505682,1,0,0:0:0:0:
475,192,505682,1,0,0:0:0:0:
109,192,505762,1,0,0:0:0:0:
475,192,505842,1,0,0:0:0:0:
329,192,505842,1,0,0:0:0:0:
36,192,505842,1,0,0:0:0:0:
256,192,505922,1,0,0:0:0:0:
329,192,506002,1,0,0:0:0:0:
475,192,506002,1,0,0:0:0:0:
402,192,506002,1,0,0:0:0:0:
182,192,506002,1,0,0:0:0:0:
36,192,506002,1,0,0:0:0:0:
109,192,506082,1,0,0:0:0:0:
329,192,506161,1,0,0:0:0:0:
475,192,506161,1,0,0:0:0:0:
182,192,506161,1,0,0:0:0:0:
256,192,506241,1,0,0:0:0:0:
329,192,506321,1,0,0:0:0:0:
475,192,506321,1,0,0:0:0:0:
402,192,506321,1,0,0:0:0:0:
182,192,506321,1,0,0:0:0:0:
109,192,506321,1,0,0:0:0:0:
36,192,506401,1,0,0:0:0:0:
182,192,506481,1,0,0:0:0:0:
256,192,506481,1,0,0:0:0:0:
475,192,506481,1,0,0:0:0:0:
109,192,506561,1,0,0:0:0:0:
329,192,506561,1,0,0:0:0:0:
36,192,506641,1,0,0:0:0:0:
182,192,506641,1,0,0:0:0:0:
256,192,506720,1,0,0:0:0:0:
475,192,506800,1,0,0:0:0:0:
109,192,506800,1,0,0:0:0:0:
329,192,506800,1,0,0:0:0:0:
402,192,506880,1,0,0:0:0:0:
256,192,506880,1,0,0:0:0:0:
182,192,506880,1,0,0:0:0:0:
36,192,506960,1,0,0:0:0:0:
109,192,506960,1,0,0:0:0:0:
329,192,506960,1,0,0:0:0:0:
475,192,506960,1,0,0:0:0:0:
182,192,507040,1,0,0:0:0:0:
402,192,507120,1,0,0:0:0:0:
36,192,507120,1,0,0:0:0:0:
109,192,507120,1,0,0:0:0:0:
256,192,507200,1,0,0:0:0:0:
329,192,507279,1,0,0:0:0:0:
475,192,507279,1,0,0:0:0:0:
109,192,507279,1,0,0:0:0:0:
36,192,507279,1,0,0:0:0:0:
182,192,507359,1,0,0:0:0:0:
475,192,507439,1,0,0:0:0:0:
402,192,507439,1,0,0:0:0:0:
256,192,507439,1,0,0:0:0:0:
329,192,507519,1,0,0:0:0:0:
109,192,507519,1,0,0:0:0:0:
182,192,507519,1,0,0:0:0:0:
402,192,507599,1,0,0:0:0:0:
475,192,507599,1,0,0:0:0:0:
256,192,507599,1,0,0:0:0:0:
36,192,507599,1,0,0:0:0:0:
329,192,507679,1,0,0:0:0:0:
475,192,507759,1,0,0:0:0:0:
109,192,507759,1,0,0:0:0:0:
182,192,507759,1,0,0:0:0:0:
402,192,507759,1,0,0:0:0:0:
256,192,507839,1,0,0:0:0:0:
402,192,507918,1,0,0:0:0:0:
475,192,507918,1,0,0:0:0:0:
36,192,507918,1,0,0:0:0:0:
329,192,507918,1,0,0:0:0:0:
109,192,507918,1,0,0:0:0:0:
182,192,507998,1,0,0:0:0:0:
402,192,508078,1,0,0:0:0:0:
475,192,508078,1,0,0:0:0:0:
256,192,508078,1,0,0:0:0:0:
36,192,508078,1,0,0:0:0:0:
182,192,508158,1,0,0:0:0:0:
256,192,508238,1,0,0:0:0:0:
109,192,508238,1,0,0:0:0:0:
329,192,508238,1,0,0:0:0:0:
402,192,508238,1,0,0:0:0:0:
475,192,508238,1,0,0:0:0:0:
182,192,508318,1,0,0:0:0:0:
36,192,508398,1,0,0:0:0:0:
402,192,508398,1,0,0:0:0:0:
256,192,508398,1,0,0:0:0:0:
182,192,508477,1,0,0:0:0:0:
329,192,508477,1,0,0:0:0:0:
402,192,508557,1,0,0:0:0:0:
475,192,508557,1,0,0:0:0:0:
36,192,508557,1,0,0:0:0:0:
256,192,508557,1,0,0:0:0:0:
109,192,508557,1,0,0:0:0:0:
329,192,508637,1,0,0:0:0:0:
109,192,508717,1,0,0:0:0:0:
182,192,508717,1,0,0:0:0:0:
329,192,508797,1,0,0:0:0:0:
256,192,508797,1,0,0:0:0:0:
109,192,508877,1,0,0:0:0:0:
36,192,508877,1,0,0:0:0:0:
182,192,508877,1,0,0:0:0:0:
402,192,508877,1,0,0:0:0:0:
475,192,508877,1,0,0:0:0:0:
329,192,508957,1,0,0:0:0:0:
182,192,509036,1,0,0:0:0:0:
256,192,509036,1,0,0:0:0:0:
402,192,509116,1,0,0:0:0:0:
475,192,509116,1,0,0:0:0:0:
182,192,509196,1,0,0:0:0:0:
109,192,509196,1,0,0:0:0:0:
36,192,509196,1,0,0:0:0:0:
329,192,509196,1,0,0:0:0:0:
256,192,509196,1,0,0:0:0:0:
402,192,509276,1,0,0:0:0:0:
475,192,509356,1,0,0:0:0:0:
256,192,509356,1,0,0:0:0:0:
329,192,509356,1,0,0:0:0:0:
109,192,509436,1,0,0:0:0:0:
36,192,509436,1,0,0:0:0:0:
182,192,509436,1,0,0:0:0:0:
402,192,509516,1,0,0:0:0:0:
475,192,509516,1,0,0:0:0:0:
256,192,509516,1,0,0:0:0:0:
329,192,509516,1,0,0:0:0:0:
109,192,509596,1,0,0:0:0:0:
402,192,509675,1,0,0:0:0:0:
329,192,509675,1,0,0:0:0:0:
36,192,509675,1,0,0:0:0:0:
182,192,509755,1,0,0:0:0:0:
36,192,509835,1,0,0:0:0:0:
329,192,509835,1,0,0:0:0:0:
475,192,509835,1,0,0:0:0:0:
256,192,509835,1,0,0:0:0:0:
402,192,509835,1,0,0:0:0:0:
109,192,509915,1,0,0:0:0:0:
402,192,509995,1,0,0:0:0:0:
475,192,509995,1,0,0:0:0:0:
182,192,509995,1,0,0:0:0:0:
329,192,509995,1,0,0:0:0:0:
256,192,510075,1,0,0:0:0:0:
109,192,510155,1,0,0:0:0:0:
329,192,510155,1,0,0:0:0:0:
402,192,510155,1,0,0:0:0:0:
182,192,510155,1,0,0:0:0:0:
36,192,510155,1,0,0:0:0:0:
475,192,510234,1,0,0:0:0:0:
36,192,510314,1,0,0:0:0:0:
109,192,510314,1,0,0:0:0:0:
256,192,510314,1,0,0:0:0:0:
329,192,510394,1,0,0:0:0:0:
109,192,510474,1,0,0:0:0:0:
256,192,510474,1,0,0:0:0:0:
182,192,510474,1,0,0:0:0:0:
402,192,510474,1,0,0:0:0:0:
475,192,510474,1,0,0:0:0:0:
36,192,510554,1,0,0:0:0:0:
182,192,510634,1,0,0:0:0:0:
402,192,510634,1,0,0:0:0:0:
329,192,510634,1,0,0:0:0:0:
256,192,510714,1,0,0:0:0:0:
36,192,510793,1,0,0:0:0:0:
109,192,510793,1,0,0:0:0:0:
475,192,510793,1,0,0:0:0:0:
182,192,510793,1,0,0:0:0:0:
402,192,510793,1,0,0:0:0:0:
329,192,510873,1,0,0:0:0:0:
475,192,510953,1,0,0:0:0:0:
36,192,510953,1,0,0:0:0:0:
182,192,510953,1,0,0:0:0:0:
256,192,511033,1,0,0:0:0:0:
36,192,511113,1,0,0:0:0:0:
475,192,511113,1,0,0:0:0:0:
109,192,511113,1,0,0:0:0:0:
329,192,511113,1,0,0:0:0:0:
402,192,511113,1,0,0:0:0:0:
182,192,511193,1,0,0:0:0:0:
36,192,511273,1,0,0:0:0:0:
256,192,511273,1,0,0:0:0:0:
402,192,511353,1,0,0:0:0:0:
109,192,511432,1,0,0:0:0:0:
36,192,511432,1,0,0:0:0:0:
475,192,511432,1,0,0:0:0:0:
329,192,511432,1,0,0:0:0:0:
182,192,511432,1,0,0:0:0:0:
256,192,511512,1,0,0:0:0:0:
475,192,511592,1,0,0:0:0:0:
36,192,511592,1,0,0:0:0:0:
182,192,511592,1,0,0:0:0:0:
329,192,511672,1,0,0:0:0:0:
109,192,511752,1,0,0:0:0:0:
475,192,511752,1,0,0:0:0:0:
182,192,511752,1,0,0:0:0:0:
402,192,511752,1,0,0:0:0:0:
256,192,511752,1,0,0:0:0:0:
329,192,511832,1,0,0:0:0:0:
36,192,511912,1,0,0:0:0:0:
256,192,511912,1,0,0:0:0:0:
402,192,511912,1,0,0:0:0:0:
182,192,511991,1,0,0:0:0:0:
256,192,512071,1,0,0:0:0:0:
329,192,512071,1,0,0:0:0:0:
475,192,512071,1,0,0:0:0:0:
109,192,512071,1,0,0:0:0:0:
402,192,512071,1,0,0:0:0:0:
36,192,512151,1,0,0:0:0:0:
329,192,512231,1,0,0:0:0:0:
402,192,512231,1,0,0:0:0:0:
182,192,512231,1,0,0:0:0:0:
256,192,512311,1,0,0:0:0:0:
182,192,512391,1,0,0:0:0:0:
402,192,512391,1,0,0:0:0:0:
36,192,512391,1,0,0:0:0:0:
329,192,512391,1,0,0:0:0:0:
475,192,512391,1,0,0:0:0:0:
109,192,512471,1,0,0:0:0:0:
36,192,512550,1,0,0:0:0:0:
402,192,512550,1,0,0:0:0:0:
182,192,512550,1,0,0:0:0:0:
329,192,512550,1,0,0:0:0:0:
256,192,512630,1,0,0:0:0:0:
36,192,512710,1,0,0:0:0:0:
109,192,512710,1,0,0:0:0:0:
182,192,512710,1,0,0:0:0:0:
402,192,512710,1,0,0:0:0:0:
475,192,512710,1,0,0:0:0:0:
329,192,512790,1,0,0:0:0:0:
36,192,512870,1,0,0:0:0:0:
475,192,512870,1,0,0:0:0:0:
256,192,512870,1,0,0:0:0:0:
402,192,512950,1,0,0:0:0:0:
36,192,513030,1,0,0:0:0:0:
329,192,513030,1,0,0:0:0:0:
109,192,513030,1,0,0:0:0:0:
182,192,513030,1,0,0:0:0:0:
256,192,513110,1,0,0:0:0:0:
402,192,513189,1,0,0:0:0:0:
36,192,513189,1,0,0:0:0:0:
329,192,513189,1,0,0:0:0:0:
109,192,513269,1,0,0:0:0:0:
475,192,513349,1,0,0:0:0:0:
36,192,513349,1,0,0:0:0:0:
402,192,513349,1,0,0:0:0:0:
182,192,513349,1,0,0:0:0:0:
256,192,513349,1,0,0:0:0:0:
329,192,513429,1,0,0:0:0:0:
475,192,513509,1,0,0:0:0:0:
109,192,513509,1,0,0:0:0:0:
256,192,513509,1,0,0:0:0:0:
402,192,513589,1,0,0:0:0:0:
109,192,513669,1,0,0:0:0:0:
36,192,513669,1,0,0:0:0:0:
329,192,513669,1,0,0:0:0:0:
182,192,513669,1,0,0:0:0:0:
256,192,513748,1,0,0:0:0:0:
402,192,513828,1,0,0:0:0:0:
475,192,513828,1,0,0:0:0:0:
109,192,513828,1,0,0:0:0:0:
182,192,513908,1,0,0:0:0:0:
36,192,513988,1,0,0:0:0:0:
402,192,513988,1,0,0:0:0:0:
329,192,513988,1,0,0:0:0:0:
109,192,513988,1,0,0:0:0:0:
256,192,514068,1,0,0:0:0:0:
36,192,514148,1,0,0:0:0:0:
109,192,514148,1,0,0:0:0:0:
182,192,514148,1,0,0:0:0:0:
475,192,514228,1,0,0:0:0:0:
402,192,514228,1,0,0:0:0:0:
329,192,514228,1,0,0:0:0:0:
36,192,514307,1,0,0:0:0:0:
256,192,514307,1,0,0:0:0:0:
182,192,514307,1,0,0:0:0:0:
109,192,514307,1,0,0:0:0:0:
402,192,514387,1,0,0:0:0:0:
36,192,514467,1,0,0:0:0:0:
109,192,514467,1,0,0:0:0:0:
182,192,514467,1,0,0:0:0:0:
475,192,514547,1,0,0:0:0:0:
402,192,514547,1,0,0:0:0:0:
329,192,514547,1,0,0:0:0:0:
36,192,514627,1,0,0:0:0:0:
256,192,514627,1,0,0:0:0:0:
182,192,514627,1,0,0:0:0:0:
109,192,514627,1,0,0:0:0:0:
402,192,514707,1,0,0:0:0:0:
329,192,514787,1,0,0:0:0:0:
402,192,514867,1,0,0:0:0:0:
329,192,514946,1,0,0:0:0:0:
402,192,515026,1,0,0:0:0:0:
329,192,515106,1,0,0:0:0:0:
109,192,515106,1,0,0:0:0:0:
182,192,515106,1,0,0:0:0:0:
109,192,515266,1,0,0:0:0:0:
36,192,515266,1,0,0:0:0:0:
182,192,515266,1,0,0:0:0:0:
402,192,515266,1,0,0:0:0:0:
475,192,515266,1,0,0:0:0:0:
329,192,515346,1,0,0:0:0:0:
475,192,515426,1,0,0:0:0:0:
402,192,515426,1,0,0:0:0:0:
329,192,515505,1,0,0:0:0:0:
182,192,515585,1,0,0:0:0:0:
109,192,515585,1,0,0:0:0:0:
402,192,515585,1,0,0:0:0:0:
475,192,515585,1,0,0:0:0:0:
329,192,515665,1,0,0:0:0:0:
182,192,515745,1,0,0:0:0:0:
109,192,515745,1,0,0:0:0:0:
402,192,515745,1,0,0:0:0:0:
475,192,515745,1,0,0:0:0:0:
329,192,515825,1,0,0:0:0:0:
109,192,515905,1,0,0:0:0:0:
36,192,515905,1,0,0:0:0:0:
182,192,515905,1,0,0:0:0:0:
402,192,515905,1,0,0:0:0:0:
475,192,515905,1,0,0:0:0:0:
329,192,515985,1,0,0:0:0:0:
256,192,515985,1,0,0:0:0:0:
109,192,516064,1,0,0:0:0:0:
182,192,516064,1,0,0:0:0:0:
475,192,516144,1,0,0:0:0:0:
402,192,516144,1,0,0:0:0:0:
182,192,516224,1,0,0:0:0:0:
256,192,516224,1,0,0:0:0:0:
329,192,516224,1,0,0:0:0:0:
109,192,516304,1,0,0:0:0:0:
36,192,516304,1,0,0:0:0:0:
475,192,516384,1,0,0:0:0:0:
182,192,516384,1,0,0:0:0:0:
329,192,516464,1,0,0:0:0:0:
256,192,516464,1,0,0:0:0:0:
475,192,516544,1,0,0:0:0:0:
402,192,516544,1,0,0:0:0:0:
109,192,516544,1,0,0:0:0:0:
36,192,516544,1,0,0:0:0:0:
182,192,516624,1,0,0:0:0:0:
36,192,516703,1,0,0:0:0:0:
109,192,516703,1,0,0:0:0:0:
182,192,516783,1,0,0:0:0:0:
109,192,516863,1,0,0:0:0:0:
36,192,516863,1,0,0:0:0:0:
182,192,516943,1,0,0:0:0:0:
402,192,517023,1,0,0:0:0:0:
475,192,517023,1,0,0:0:0:0:
109,192,517023,1,0,0:0:0:0:
36,192,517023,1,0,0:0:0:0:
182,192,517103,1,0,0:0:0:0:
475,192,517183,1,0,0:0:0:0:
329,192,517183,1,0,0:0:0:0:
402,192,517183,1,0,0:0:0:0:
109,192,517183,1,0,0:0:0:0:
36,192,517183,1,0,0:0:0:0:
256,192,517262,1,0,0:0:0:0:
182,192,517342,1,0,0:0:0:0:
256,192,517422,1,0,0:0:0:0:
109,192,517502,1,0,0:0:0:0:
329,192,517502,1,0,0:0:0:0:
182,192,517582,1,0,0:0:0:0:
329,192,517662,1,0,0:0:0:0:
402,192,517662,1,0,0:0:0:0:
182,192,517742,1,0,0:0:0:0:
256,192,517821,1,0,0:0:0:0:
36,192,517821,1,0,0:0:0:0:
402,192,517821,1,0,0:0:0:0:
329,192,517821,1,0,0:0:0:0:
109,192,517901,1,0,0:0:0:0:
182,192,517981,1,0,0:0:0:0:
109,192,518061,1,0,0:0:0:0:
475,192,518141,1,0,0:0:0:0:
36,192,518141,1,0,0:0:0:0:
402,192,518141,1,0,0:0:0:0:
256,192,518141,1,0,0:0:0:0:
402,192,518301,1,0,0:0:0:0:
256,192,518301,1,0,0:0:0:0:
182,192,518460,1,0,0:0:0:0:
109,192,518460,1,0,0:0:0:0:
402,192,518460,1,0,0:0:0:0:
329,192,518460,1,0,0:0:0:0:
256,192,518620,1,0,0:0:0:0:
182,192,518620,1,0,0:0:0:0:
329,192,518940,1,0,0:0:0:0:
182,192,518940,1,0,0:0:0:0:
256,192,518940,1,0,0:0:0:0:
329,192,519099,1,0,0:0:0:0:
182,192,519099,1,0,0:0:0:0:
36,192,519099,1,0,0:0:0:0:
402,192,519099,1,0,0:0:0:0:
475,192,519099,1,0,0:0:0:0:
475,192,519578,1,0,0:0:0:0:
36,192,519578,1,0,0:0:0:0:
109,192,519578,1,0,0:0:0:0:
402,192,519658,1,0,0:0:0:0:
256,192,519658,1,0,0:0:0:0:
182,192,519658,1,0,0:0:0:0:
109,192,519738,1,0,0:0:0:0:
36,192,519738,1,0,0:0:0:0:
475,192,519738,1,0,0:0:0:0:
329,192,519738,1,0,0:0:0:0:
109,192,519898,1,0,0:0:0:0:
475,192,519898,1,0,0:0:0:0:
182,192,519898,1,0,0:0:0:0:
329,192,519898,1,0,0:0:0:0:
256,192,519898,1,0,0:0:0:0:
402,192,520217,1,0,0:0:0:0:
329,192,520217,1,0,0:0:0:0:
109,192,520297,1,0,0:0:0:0:
182,192,520297,1,0,0:0:0:0:
329,192,520377,1,0,0:0:0:0:
402,192,520377,1,0,0:0:0:0:
182,192,520537,1,0,0:0:0:0:
109,192,520537,1,0,0:0:0:0:
329,192,520697,1,0,0:0:0:0:
182,192,520697,1,0,0:0:0:0:
256,192,520697,1,0,0:0:0:0:
402,192,520856,1,0,0:0:0:0:
475,192,520856,1,0,0:0:0:0:
256,192,520856,1,0,0:0:0:0:
329,192,520856,1,0,0:0:0:0:
475,192,521016,1,0,0:0:0:0:
182,192,521176,1,0,0:0:0:0:
36,192,521176,1,0,0:0:0:0:
402,192,521176,1,0,0:0:0:0:
256,192,521176,1,0,0:0:0:0:
256,192,521335,1,0,0:0:0:0:
36,192,521335,1,0,0:0:0:0:
182,192,521335,1,0,0:0:0:0:
475,192,521415,1,0,0:0:0:0:
329,192,521415,1,0,0:0:0:0:
109,192,521415,1,0,0:0:0:0:
36,192,521495,1,0,0:0:0:0:
256,192,521495,1,0,0:0:0:0:
109,192,521815,1,0,0:0:0:0:
475,192,521815,1,0,0:0:0:0:
402,192,521855,1,0,0:0:0:0:
329,192,521895,1,0,0:0:0:0:
256,192,521934,1,0,0:0:0:0:
36,192,521974,1,0,0:0:0:0:
109,192,521974,1,0,0:0:0:0:
182,192,521974,1,0,0:0:0:0:
402,192,522134,1,0,0:0:0:0:
329,192,522134,1,0,0:0:0:0:
109,192,522294,1,0,0:0:0:0:
329,192,522294,1,0,0:0:0:0:
36,192,522294,1,0,0:0:0:0:
475,192,522294,1,0,0:0:0:0:
182,192,522294,1,0,0:0:0:0:
329,192,522454,1,0,0:0:0:0:
475,192,522454,1,0,0:0:0:0:
36,192,522454,1,0,0:0:0:0:
182,192,522454,1,0,0:0:0:0:
109,192,522454,1,0,0:0:0:0:
256,192,522613,1,0,0:0:0:0:
475,192,522613,1,0,0:0:0:0:
402,192,522613,1,0,0:0:0:0:
182,192,522613,1,0,0:0:0:0:
109,192,522613,1,0,0:0:0:0:
36,192,522613,1,0,0:0:0:0:
329,192,522773,1,0,0:0:0:0:
475,192,522773,1,0,0:0:0:0:
36,192,522773,1,0,0:0:0:0:
182,192,522773,1,0,0:0:0:0:
109,192,522773,1,0,0:0:0:0:
329,192,522933,1,0,0:0:0:0:
475,192,522933,1,0,0:0:0:0:
182,192,522933,1,0,0:0:0:0:
36,192,522933,1,0,0:0:0:0:
109,192,522933,1,0,0:0:0:0:
109,192,523092,1,0,0:0:0:0:
36,192,523092,1,0,0:0:0:0:
182,192,523092,1,0,0:0:0:0:
329,192,523092,1,0,0:0:0:0:
475,192,523092,1,0,0:0:0:0:
109,192,523252,1,0,0:0:0:0:
182,192,523252,1,0,0:0:0:0:
256,192,523252,1,0,0:0:0:0:
402,192,523252,1,0,0:0:0:0:
475,192,523252,1,0,0:0:0:0:
36,192,523252,1,0,0:0:0:0:
36,192,523412,1,0,0:0:0:0:
475,192,523412,1,0,0:0:0:0:
109,192,523412,1,0,0:0:0:0:
329,192,523412,1,0,0:0:0:0:
182,192,523412,1,0,0:0:0:0:
329,192,523572,1,0,0:0:0:0:
475,192,523572,1,0,0:0:0:0:
36,192,523572,1,0,0:0:0:0:
182,192,523572,1,0,0:0:0:0:
109,192,523572,1,0,0:0:0:0:
329,192,523731,1,0,0:0:0:0:
475,192,523731,1,0,0:0:0:0:
182,192,523731,1,0,0:0:0:0:
36,192,523731,1,0,0:0:0:0:
109,192,523731,1,0,0:0:0:0:
256,192,523891,1,0,0:0:0:0:
402,192,523891,1,0,0:0:0:0:
475,192,523891,1,0,0:0:0:0:
182,192,523891,1,0,0:0:0:0:
109,192,523891,1,0,0:0:0:0:
36,192,523891,1,0,0:0:0:0:
329,192,524051,1,0,0:0:0:0:
475,192,524051,1,0,0:0:0:0:
182,192,524051,1,0,0:0:0:0:
36,192,524051,1,0,0:0:0:0:
109,192,524051,1,0,0:0:0:0:
329,192,524211,1,0,0:0:0:0:
475,192,524211,1,0,0:0:0:0:
36,192,524211,1,0,0:0:0:0:
182,192,524211,1,0,0:0:0:0:
109,192,524211,1,0,0:0:0:0:
329,192,524370,1,0,0:0:0:0:
475,192,524370,1,0,0:0:0:0:
182,192,524370,1,0,0:0:0:0:
109,192,524370,1,0,0:0:0:0:
36,192,524370,1,0,0:0:0:0:
256,192,524530,1,0,0:0:0:0:
402,192,524530,1,0,0:0:0:0:
475,192,524530,1,0,0:0:0:0:
182,192,524530,1,0,0:0:0:0:
109,192,524530,1,0,0:0:0:0:
36,192,524530,1,0,0:0:0:0:
329,192,524690,1,0,0:0:0:0:
475,192,524690,1,0,0:0:0:0:
182,192,524690,1,0,0:0:0:0:
36,192,524690,1,0,0:0:0:0:
109,192,524690,1,0,0:0:0:0:
256,192,524770,1,0,0:0:0:0:
182,192,524849,1,0,0:0:0:0:
36,192,524849,1,0,0:0:0:0:
475,192,524849,1,0,0:0:0:0:
329,192,524849,1,0,0:0:0:0:
402,192,524849,1,0,0:0:0:0:
182,192,525009,1,0,0:0:0:0:
36,192,525009,1,0,0:0:0:0:
475,192,525009,1,0,0:0:0:0:
329,192,525009,1,0,0:0:0:0:
402,192,525009,1,0,0:0:0:0:
256,192,525169,1,0,0:0:0:0:
109,192,525169,1,0,0:0:0:0:
36,192,525169,1,0,0:0:0:0:
329,192,525169,1,0,0:0:0:0:
402,192,525169,1,0,0:0:0:0:
475,192,525169,1,0,0:0:0:0:
182,192,525329,1,0,0:0:0:0:
36,192,525329,1,0,0:0:0:0:
475,192,525329,1,0,0:0:0:0:
329,192,525329,1,0,0:0:0:0:
402,192,525329,1,0,0:0:0:0:
36,192,525488,1,0,0:0:0:0:
182,192,525488,1,0,0:0:0:0:
475,192,525488,1,0,0:0:0:0:
329,192,525488,1,0,0:0:0:0:
402,192,525488,1,0,0:0:0:0:
36,192,525648,1,0,0:0:0:0:
182,192,525648,1,0,0:0:0:0:
329,192,525648,1,0,0:0:0:0:
475,192,525648,1,0,0:0:0:0:
402,192,525648,1,0,0:0:0:0:
256,192,525808,1,0,0:0:0:0:
109,192,525808,1,0,0:0:0:0:
36,192,525808,1,0,0:0:0:0:
329,192,525808,1,0,0:0:0:0:
475,192,525808,1,0,0:0:0:0:
402,192,525808,1,0,0:0:0:0:
182,192,525968,1,0,0:0:0:0:
36,192,525968,1,0,0:0:0:0:
402,192,525968,1,0,0:0:0:0:
329,192,525968,1,0,0:0:0:0:
475,192,525968,1,0,0:0:0:0:
36,192,526127,1,0,0:0:0:0:
182,192,526127,1,0,0:0:0:0:
329,192,526127,1,0,0:0:0:0:
475,192,526127,1,0,0:0:0:0:
402,192,526127,1,0,0:0:0:0:
182,192,526287,1,0,0:0:0:0:
36,192,526287,1,0,0:0:0:0:
402,192,526287,1,0,0:0:0:0:
329,192,526287,1,0,0:0:0:0:
475,192,526287,1,0,0:0:0:0:
256,192,526447,1,0,0:0:0:0:
109,192,526447,1,0,0:0:0:0:
36,192,526447,1,0,0:0:0:0:
329,192,526447,1,0,0:0:0:0:
402,192,526447,1,0,0:0:0:0:
475,192,526447,1,0,0:0:0:0:
36,192,526606,1,0,0:0:0:0:
182,192,526606,1,0,0:0:0:0:
329,192,526606,1,0,0:0:0:0:
402,192,526606,1,0,0:0:0:0:
475,192,526606,1,0,0:0:0:0:
182,192,526766,1,0,0:0:0:0:
36,192,526766,1,0,0:0:0:0:
109,192,526766,1,0,0:0:0:0:
402,192,526766,1,0,0:0:0:0:
475,192,526766,1,0,0:0:0:0:
329,192,526766,1,0,0:0:0:0:
402,192,527086,1,0,0:0:0:0:
329,192,527086,1,0,0:0:0:0:
256,192,527405,5,0,0:0:0:0:
475,192,527405,1,0,0:0:0:0:
182,192,527405,1,0,0:0:0:0:
36,192,527405,1,0,0:0:0:0:
109,192,527485,1,0,0:0:0:0:
402,192,527565,1,0,0:0:0:0:
329,192,527565,1,0,0:0:0:0:
182,192,527565,1,0,0:0:0:0:
256,192,527645,1,0,0:0:0:0:
36,192,527645,1,0,0:0:0:0:
109,192,527725,1,0,0:0:0:0:
475,192,527725,1,0,0:0:0:0:
182,192,527725,1,0,0:0:0:0:
329,192,527725,1,0,0:0:0:0:
402,192,527804,1,0,0:0:0:0:
36,192,527804,1,0,0:0:0:0:
256,192,527804,1,0,0:0:0:0:
329,192,527884,1,0,0:0:0:0:
109,192,527884,1,0,0:0:0:0:
182,192,527884,1,0,0:0:0:0:
402,192,527964,1,0,0:0:0:0:
256,192,527964,1,0,0:0:0:0:
475,192,527964,1,0,0:0:0:0:
36,192,528044,1,0,0:0:0:0:
329,192,528044,1,0,0:0:0:0:
182,192,528044,1,0,0:0:0:0:
109,192,528044,1,0,0:0:0:0:
402,192,528124,1,0,0:0:0:0:
36,192,528204,1,0,0:0:0:0:
182,192,528204,1,0,0:0:0:0:
329,192,528204,1,0,0:0:0:0:
109,192,528284,1,0,0:0:0:0:
402,192,528363,1,0,0:0:0:0:
329,192,528363,1,0,0:0:0:0:
182,192,528363,1,0,0:0:0:0:
475,192,528363,1,0,0:0:0:0:
256,192,528443,1,0,0:0:0:0:
36,192,528523,1,0,0:0:0:0:
402,192,528523,1,0,0:0:0:0:
329,192,528523,1,0,0:0:0:0:
109,192,528603,1,0,0:0:0:0:
475,192,528683,1,0,0:0:0:0:
36,192,528683,1,0,0:0:0:0:
182,192,528683,1,0,0:0:0:0:
256,192,528683,1,0,0:0:0:0:
402,192,528763,1,0,0:0:0:0:
36,192,528843,1,0,0:0:0:0:
109,192,528843,1,0,0:0:0:0:
329,192,528843,1,0,0:0:0:0:
182,192,528923,1,0,0:0:0:0:
256,192,528923,1,0,0:0:0:0:
402,192,529002,1,0,0:0:0:0:
475,192,529002,1,0,0:0:0:0:
329,192,529002,1,0,0:0:0:0:
36,192,529002,1,0,0:0:0:0:
109,192,529082,1,0,0:0:0:0:
182,192,529082,1,0,0:0:0:0:
256,192,529082,1,0,0:0:0:0:
475,192,529162,1,0,0:0:0:0:
402,192,529162,1,0,0:0:0:0:
329,192,529162,1,0,0:0:0:0:
109,192,529242,1,0,0:0:0:0:
36,192,529242,1,0,0:0:0:0:
182,192,529242,1,0,0:0:0:0:
475,192,529322,1,0,0:0:0:0:
402,192,529322,1,0,0:0:0:0:
256,192,529322,1,0,0:0:0:0:
329,192,529322,1,0,0:0:0:0:
182,192,529402,1,0,0:0:0:0:
402,192,529482,1,0,0:0:0:0:
36,192,529482,1,0,0:0:0:0:
109,192,529482,1,0,0:0:0:0:
182,192,529561,1,0,0:0:0:0:
256,192,529561,1,0,0:0:0:0:
402,192,529641,1,0,0:0:0:0:
475,192,529641,1,0,0:0:0:0:
329,192,529641,1,0,0:0:0:0:
36,192,529641,1,0,0:0:0:0:
256,192,529721,1,0,0:0:0:0:
109,192,529721,1,0,0:0:0:0:
329,192,529801,1,0,0:0:0:0:
475,192,529801,1,0,0:0:0:0:
182,192,529801,1,0,0:0:0:0:
109,192,529881,1,0,0:0:0:0:
256,192,529881,1,0,0:0:0:0:
475,192,529961,1,0,0:0:0:0:
182,192,529961,1,0,0:0:0:0:
329,192,529961,1,0,0:0:0:0:
36,192,529961,1,0,0:0:0:0:
256,192,530041,1,0,0:0:0:0:
109,192,530120,1,0,0:0:0:0:
402,192,530120,1,0,0:0:0:0:
36,192,530200,1,0,0:0:0:0:
256,192,530200,1,0,0:0:0:0:
329,192,530200,1,0,0:0:0:0:
109,192,530280,1,0,0:0:0:0:
402,192,530280,1,0,0:0:0:0:
182,192,530280,1,0,0:0:0:0:
475,192,530280,1,0,0:0:0:0:
256,192,530360,1,0,0:0:0:0:
182,192,530440,1,0,0:0:0:0:
36,192,530440,1,0,0:0:0:0:
329,192,530440,1,0,0:0:0:0:
475,192,530520,1,0,0:0:0:0:
402,192,530520,1,0,0:0:0:0:
256,192,530520,1,0,0:0:0:0:
329,192,530600,1,0,0:0:0:0:
182,192,530600,1,0,0:0:0:0:
109,192,530600,1,0,0:0:0:0:
36,192,530600,1,0,0:0:0:0:
256,192,530680,1,0,0:0:0:0:
402,192,530759,1,0,0:0:0:0:
109,192,530759,1,0,0:0:0:0:
182,192,530759,1,0,0:0:0:0:
475,192,530839,1,0,0:0:0:0:
256,192,530839,1,0,0:0:0:0:
329,192,530839,1,0,0:0:0:0:
402,192,530919,1,0,0:0:0:0:
182,192,530919,1,0,0:0:0:0:
36,192,530919,1,0,0:0:0:0:
109,192,530919,1,0,0:0:0:0:
329,192,530999,1,0,0:0:0:0:
256,192,530999,1,0,0:0:0:0:
402,192,531079,1,0,0:0:0:0:
182,192,531079,1,0,0:0:0:0:
36,192,531079,1,0,0:0:0:0:
475,192,531079,1,0,0:0:0:0:
109,192,531159,1,0,0:0:0:0:
256,192,531159,1,0,0:0:0:0:
475,192,531239,1,0,0:0:0:0:
36,192,531239,1,0,0:0:0:0:
329,192,531239,1,0,0:0:0:0:
402,192,531239,1,0,0:0:0:0:
182,192,531318,1,0,0:0:0:0:
402,192,531398,1,0,0:0:0:0:
36,192,531398,1,0,0:0:0:0:
256,192,531398,1,0,0:0:0:0:
182,192,531478,1,0,0:0:0:0:
329,192,531478,1,0,0:0:0:0:
36,192,531558,1,0,0:0:0:0:
475,192,531558,1,0,0:0:0:0:
402,192,531558,1,0,0:0:0:0:
109,192,531558,1,0,0:0:0:0:
329,192,531638,1,0,0:0:0:0:
182,192,531638,1,0,0:0:0:0:
256,192,531638,1,0,0:0:0:0:
36,192,531718,1,0,0:0:0:0:
475,192,531718,1,0,0:0:0:0:
402,192,531718,1,0,0:0:0:0:
256,192,531798,1,0,0:0:0:0:
182,192,531798,1,0,0:0:0:0:
109,192,531798,1,0,0:0:0:0:
475,192,531877,1,0,0:0:0:0:
36,192,531877,1,0,0:0:0:0:
329,192,531877,1,0,0:0:0:0:
402,192,531877,1,0,0:0:0:0:
182,192,531957,1,0,0:0:0:0:
256,192,531957,1,0,0:0:0:0:
109,192,532037,1,0,0:0:0:0:
36,192,532037,1,0,0:0:0:0:
402,192,532117,1,0,0:0:0:0:
329,192,532117,1,0,0:0:0:0:
36,192,532197,1,0,0:0:0:0:
475,192,532197,1,0,0:0:0:0:
256,192,532197,1,0,0:0:0:0:
109,192,532197,1,0,0:0:0:0:
329,192,532277,1,0,0:0:0:0:
182,192,532277,1,0,0:0:0:0:
402,192,532357,1,0,0:0:0:0:
475,192,532357,1,0,0:0:0:0:
256,192,532357,1,0,0:0:0:0:
329,192,532437,1,0,0:0:0:0:
182,192,532437,1,0,0:0:0:0:
36,192,532516,1,0,0:0:0:0:
109,192,532516,1,0,0:0:0:0:
475,192,532516,1,0,0:0:0:0:
256,192,532516,1,0,0:0:0:0:
402,192,532516,1,0,0:0:0:0:
182,192,532596,1,0,0:0:0:0:
329,192,532596,1,0,0:0:0:0:
36,192,532676,1,0,0:0:0:0:
109,192,532676,1,0,0:0:0:0:
256,192,532676,1,0,0:0:0:0:
182,192,532756,1,0,0:0:0:0:
475,192,532756,1,0,0:0:0:0:
329,192,532756,1,0,0:0:0:0:
36,192,532836,1,0,0:0:0:0:
402,192,532836,1,0,0:0:0:0:
109,192,532836,1,0,0:0:0:0:
475,192,532916,1,0,0:0:0:0:
329,192,532916,1,0,0:0:0:0:
256,192,532916,1,0,0:0:0:0:
402,192,532996,1,0,0:0:0:0:
36,192,532996,1,0,0:0:0:0:
182,192,532996,1,0,0:0:0:0:
329,192,533075,1,0,0:0:0:0:
109,192,533075,1,0,0:0:0:0:
475,192,533155,1,0,0:0:0:0:
256,192,533155,1,0,0:0:0:0:
36,192,533155,1,0,0:0:0:0:
109,192,533235,1,0,0:0:0:0:
329,192,533235,1,0,0:0:0:0:
402,192,533235,1,0,0:0:0:0:
36,192,533315,1,0,0:0:0:0:
475,192,533315,1,0,0:0:0:0:
182,192,533315,1,0,0:0:0:0:
256,192,533395,1,0,0:0:0:0:
329,192,533395,1,0,0:0:0:0:
109,192,533475,1,0,0:0:0:0:
36,192,533475,1,0,0:0:0:0:
402,192,533475,1,0,0:0:0:0:
475,192,533475,1,0,0:0:0:0:
329,192,533555,1,0,0:0:0:0:
182,192,533555,1,0,0:0:0:0:
475,192,533634,1,0,0:0:0:0:
402,192,533634,1,0,0:0:0:0:
256,192,533634,1,0,0:0:0:0:
36,192,533634,1,0,0:0:0:0:
109,192,533714,1,0,0:0:0:0:
329,192,533714,1,0,0:0:0:0:
36,192,533794,1,0,0:0:0:0:
475,192,533794,1,0,0:0:0:0:
256,192,533794,1,0,0:0:0:0:
182,192,533794,1,0,0:0:0:0:
402,192,533874,5,0,0:0:0:0:
329,192,533874,1,0,0:0:0:0:
109,192,533954,1,0,0:0:0:0:
36,192,533954,1,0,0:0:0:0:
256,192,533954,1,0,0:0:0:0:
182,192,533954,1,0,0:0:0:0:
475,192,534034,1,0,0:0:0:0:
329,192,534034,1,0,0:0:0:0:
402,192,534114,1,0,0:0:0:0:
36,192,534114,1,0,0:0:0:0:
256,192,534114,1,0,0:0:0:0:
182,192,534114,1,0,0:0:0:0:
329,192,534194,1,0,0:0:0:0:
109,192,534194,1,0,0:0:0:0:
475,192,534273,1,0,0:0:0:0:
36,192,534273,1,0,0:0:0:0:
402,192,534273,1,0,0:0:0:0:
182,192,534273,1,0,0:0:0:0:
256,192,534353,1,0,0:0:0:0:
329,192,534353,1,0,0:0:0:0:
36,192,534433,1,0,0:0:0:0:
475,192,534433,1,0,0:0:0:0:
182,192,534433,1,0,0:0:0:0:
109,192,534433,1,0,0:0:0:0:
329,192,534513,1,0,0:0:0:0:
402,192,534513,1,0,0:0:0:0:
475,192,534593,1,0,0:0:0:0:
36,192,534593,1,0,0:0:0:0:
256,192,534593,1,0,0:0:0:0:
182,192,534593,1,0,0:0:0:0:
329,192,534673,1,0,0:0:0:0:
402,192,534673,1,0,0:0:0:0:
109,192,534673,1,0,0:0:0:0:
256,192,534753,1,0,0:0:0:0:
182,192,534753,1,0,0:0:0:0:
475,192,534753,1,0,0:0:0:0:
402,192,534832,1,0,0:0:0:0:
36,192,534832,1,0,0:0:0:0:
329,192,534832,1,0,0:0:0:0:
475,192,534912,1,0,0:0:0:0:
182,192,534912,1,0,0:0:0:0:
256,192,534912,1,0,0:0:0:0:
36,192,534992,1,0,0:0:0:0:
109,192,534992,1,0,0:0:0:0:
402,192,534992,1,0,0:0:0:0:
329,192,535072,5,0,0:0:0:0:
182,192,535072,1,0,0:0:0:0:
329,192,535232,1,0,0:0:0:0:
182,192,535312,1,0,0:0:0:0:
329,192,535392,1,0,0:0:0:0:
256,192,535471,1,0,0:0:0:0:
182,192,535551,1,0,0:0:0:0:
109,192,535631,1,0,0:0:0:0:
402,192,535711,1,0,0:0:0:0:
329,192,535791,1,0,0:0:0:0:
109,192,535871,1,0,0:0:0:0:
182,192,535951,1,0,0:0:0:0:
256,192,536030,1,0,0:0:0:0:
109,192,536110,1,0,0:0:0:0:
256,192,536190,1,0,0:0:0:0:
402,192,536270,1,0,0:0:0:0:
475,192,536350,1,0,0:0:0:0:
36,192,536669,1,0,0:0:0:0:
109,192,536669,1,0,0:0:0:0:
475,192,536669,1,0,0:0:0:0:
402,192,536669,1,0,0:0:0:0:
329,192,536749,1,0,0:0:0:0:
182,192,536749,1,0,0:0:0:0:
256,192,536749,1,0,0:0:0:0:
475,192,536829,1,0,0:0:0:0:
402,192,536829,1,0,0:0:0:0:
36,192,536829,1,0,0:0:0:0:
109,192,536829,1,0,0:0:0:0:
329,192,536909,1,0,0:0:0:0:
182,192,536909,1,0,0:0:0:0:
256,192,536909,1,0,0:0:0:0:
475,192,536989,1,0,0:0:0:0:
36,192,536989,1,0,0:0:0:0:
109,192,536989,1,0,0:0:0:0:
402,192,536989,1,0,0:0:0:0:
