osu file format v14

[General]
AudioFilename: Dan_7.mp3
AudioLeadIn: 0
PreviewTime: 422
Countdown: 0
SampleSet: Soft
StackLeniency: 0.7
Mode: 3
LetterboxInBreaks: 0
SpecialStyle: 0
WidescreenStoryboard: 0

[Editor]
DistanceSpacing: 0.5
BeatDivisor: 2
GridSize: 4
TimelineZoom: 1.5

[Metadata]
Title:Regular Dan Phase II
TitleUnicode:Regular Dan Phase II
Artist:osu!mania 7K Dan Course
ArtistUnicode:osu!mania 7K Dan Course
Creator:Jinjin
Version:7th Dan (Marathon)
Source:
Tags:void sudden romance incinerate rengoku purgatorium katy b witches brew yak won out of the blue
BeatmapID:969190
BeatmapSetID:451788

[Difficulty]
HPDrainRate:8
CircleSize:7
OverallDifficulty:8.5
ApproachRate:5
SliderMultiplier:1.4
SliderTickRate:1

[Events]
//Background and Video events
0,0,"Dan_7.png",0,0
//Break Periods
2,126937,143097
2,287283,301401
2,396551,412933
//Storyboard Layer 0 (Background)
//Storyboard Layer 1 (Fail)
//Storyboard Layer 2 (Pass)
//Storyboard Layer 3 (Foreground)
//Storyboard Sound Samples

[TimingPoints]
422,394.736842105263,4,2,0,0,1,0
422,-78.7401574803149,4,2,0,0,0,0
144297,310.880829015544,4,2,0,0,1,0
216421,645.161290322581,4,2,0,0,1,0
216421,-48.3091787439614,4,2,0,0,0,0
219001,310.880829015544,4,2,0,0,1,0
302601,234.375,4,2,0,0,1,0
302601,-133.333333333333,4,2,0,0,0,0
414133,352.941176470588,4,2,0,0,1,0
414133,-87.719298245614,4,2,0,0,0,0

[HitObjects]
36,192,422,5,0,0:0:0:0:
475,192,422,1,0,0:0:0:0:
329,192,422,1,0,0:0:0:0:
182,192,422,1,0,0:0:0:0:
402,192,1211,1,0,0:0:0:0:
329,192,1606,1,0,0:0:0:0:
402,192,1737,1,0,0:0:0:0:
329,192,1869,1,0,0:0:0:0:
109,192,2000,1,0,0:0:0:0:
256,192,2000,1,0,0:0:0:0:
182,192,2132,1,0,0:0:0:0:
256,192,2264,1,0,0:0:0:0:
36,192,2395,1,0,0:0:0:0:
329,192,2395,1,0,0:0:0:0:
182,192,2790,1,0,0:0:0:0:
256,192,3185,1,0,0:0:0:0:
182,192,3316,1,0,0:0:0:0:
256,192,3448,1,0,0:0:0:0:
329,192,3579,1,0,0:0:0:0:
109,192,3711,1,0,0:0:0:0:
182,192,3843,1,0,0:0:0:0:
256,192,3974,1,0,0:0:0:0:
402,192,3974,1,0,0:0:0:0:
329,192,4369,1,0,0:0:0:0:
182,192,4764,1,0,0:0:0:0:
329,192,5027,1,0,0:0:0:0:
109,192,5158,1,0,0:0:0:0:
182,192,5290,1,0,0:0:0:0:
256,192,5421,1,0,0:0:0:0:
329,192,5553,1,0,0:0:0:0:
36,192,5553,1,0,0:0:0:0:
256,192,5948,1,0,0:0:0:0:
109,192,6343,1,0,0:0:0:0:
36,192,6737,1,0,0:0:0:0:
329,192,6737,1,0,0:0:0:0:
109,192,6869,1,0,0:0:0:0:
182,192,7000,1,0,0:0:0:0:
256,192,7132,1,0,0:0:0:0:
329,192,7527,1,0,0:0:0:0:
109,192,7921,1,0,0:0:0:0:
256,192,8053,1,0,0:0:0:0:
36,192,8185,1,0,0:0:0:0:
182,192,8316,1,0,0:0:0:0:
402,192,8316,1,0,0:0:0:0:
109,192,8448,1,0,0:0:0:0:
256,192,8579,1,0,0:0:0:0:
329,192,8711,1,0,0:0:0:0:
475,192,8711,1,0,0:0:0:0:
402,192,9106,1,0,0:0:0:0:
329,192,9500,1,0,0:0:0:0:
256,192,9632,1,0,0:0:0:0:
182,192,9764,1,0,0:0:0:0:
109,192,9895,1,0,0:0:0:0:
402,192,9895,1,0,0:0:0:0:
256,192,10027,1,0,0:0:0:0:
329,192,10158,1,0,0:0:0:0:
182,192,10290,1,0,0:0:0:0:
109,192,10685,1,0,0:0:0:0:
182,192,10948,1,0,0:0:0:0:
256,192,11211,1,0,0:0:0:0:
109,192,11343,1,0,0:0:0:0:
329,192,11474,1,0,0:0:0:0:
182,192,11606,1,0,0:0:0:0:
256,192,11737,1,0,0:0:0:0:
329,192,11869,1,0,0:0:0:0:
36,192,11869,1,0,0:0:0:0:
475,192,12264,1,0,0:0:0:0:
402,192,12395,1,0,0:0:0:0:
329,192,12527,1,0,0:0:0:0:
256,192,12658,1,0,0:0:0:0:
109,192,12658,1,0,0:0:0:0:
36,192,12790,1,0,0:0:0:0:
182,192,12790,1,0,0:0:0:0:
109,192,12921,1,0,0:0:0:0:
256,192,12921,1,0,0:0:0:0:
475,192,13053,1,0,0:0:0:0:
329,192,13053,1,0,0:0:0:0:
36,192,13053,1,0,0:0:0:0:
402,192,13053,1,0,0:0:0:0:
182,192,13185,1,0,0:0:0:0:
256,192,13316,1,0,0:0:0:0:
329,192,13448,1,0,0:0:0:0:
475,192,13448,1,0,0:0:0:0:
36,192,13448,1,0,0:0:0:0:
402,192,13448,1,0,0:0:0:0:
256,192,13579,1,0,0:0:0:0:
109,192,13711,1,0,0:0:0:0:
329,192,13843,1,0,0:0:0:0:
402,192,13843,1,0,0:0:0:0:
475,192,13843,1,0,0:0:0:0:
182,192,13843,1,0,0:0:0:0:
256,192,13974,1,0,0:0:0:0:
182,192,14106,1,0,0:0:0:0:
329,192,14237,1,0,0:0:0:0:
402,192,14237,1,0,0:0:0:0:
475,192,14237,1,0,0:0:0:0:
109,192,14237,1,0,0:0:0:0:
36,192,14369,1,0,0:0:0:0:
256,192,14369,1,0,0:0:0:0:
329,192,14500,1,0,0:0:0:0:
182,192,14500,1,0,0:0:0:0:
475,192,14632,1,0,0:0:0:0:
402,192,14632,1,0,0:0:0:0:
36,192,14632,1,0,0:0:0:0:
256,192,14632,1,0,0:0:0:0:
109,192,14764,1,0,0:0:0:0:
182,192,14895,1,0,0:0:0:0:
402,192,15027,1,0,0:0:0:0:
475,192,15027,1,0,0:0:0:0:
256,192,15027,1,0,0:0:0:0:
36,192,15027,1,0,0:0:0:0:
182,192,15158,1,0,0:0:0:0:
329,192,15290,1,0,0:0:0:0:
36,192,15421,1,0,0:0:0:0:
256,192,15421,1,0,0:0:0:0:
402,192,15421,1,0,0:0:0:0:
475,192,15421,1,0,0:0:0:0:
182,192,15553,1,0,0:0:0:0:
109,192,15685,1,0,0:0:0:0:
256,192,15816,1,0,0:0:0:0:
402,192,15816,1,0,0:0:0:0:
475,192,15816,1,0,0:0:0:0:
36,192,15816,1,0,0:0:0:0:
329,192,15948,1,0,0:0:0:0:
182,192,15948,1,0,0:0:0:0:
402,192,16079,1,0,0:0:0:0:
36,192,16079,1,0,0:0:0:0:
475,192,16211,1,0,0:0:0:0:
329,192,16211,1,0,0:0:0:0:
256,192,16211,1,0,0:0:0:0:
109,192,16211,1,0,0:0:0:0:
182,192,16343,1,0,0:0:0:0:
402,192,16474,1,0,0:0:0:0:
256,192,16606,1,0,0:0:0:0:
329,192,16606,1,0,0:0:0:0:
475,192,16606,1,0,0:0:0:0:
36,192,16606,1,0,0:0:0:0:
109,192,16737,1,0,0:0:0:0:
182,192,16869,1,0,0:0:0:0:
256,192,17000,1,0,0:0:0:0:
329,192,17000,1,0,0:0:0:0:
475,192,17000,1,0,0:0:0:0:
36,192,17000,1,0,0:0:0:0:
182,192,17132,1,0,0:0:0:0:
109,192,17264,1,0,0:0:0:0:
36,192,17395,1,0,0:0:0:0:
256,192,17395,1,0,0:0:0:0:
329,192,17395,1,0,0:0:0:0:
475,192,17395,1,0,0:0:0:0:
402,192,17527,1,0,0:0:0:0:
182,192,17658,1,0,0:0:0:0:
36,192,17658,1,0,0:0:0:0:
329,192,17790,1,0,0:0:0:0:
402,192,17790,1,0,0:0:0:0:
475,192,17790,1,0,0:0:0:0:
109,192,17790,1,0,0:0:0:0:
182,192,17921,1,0,0:0:0:0:
36,192,18053,1,0,0:0:0:0:
256,192,18053,1,0,0:0:0:0:
329,192,18185,1,0,0:0:0:0:
402,192,18185,1,0,0:0:0:0:
475,192,18185,1,0,0:0:0:0:
109,192,18185,1,0,0:0:0:0:
182,192,18316,1,0,0:0:0:0:
36,192,18448,1,0,0:0:0:0:
329,192,18579,1,0,0:0:0:0:
402,192,18579,1,0,0:0:0:0:
475,192,18579,1,0,0:0:0:0:
256,192,18579,1,0,0:0:0:0:
109,192,18711,1,0,0:0:0:0:
182,192,18843,1,0,0:0:0:0:
329,192,18974,1,0,0:0:0:0:
402,192,18974,1,0,0:0:0:0:
475,192,18974,1,0,0:0:0:0:
36,192,18974,1,0,0:0:0:0:
256,192,19106,1,0,0:0:0:0:
182,192,19237,1,0,0:0:0:0:
329,192,19369,1,0,0:0:0:0:
402,192,19369,1,0,0:0:0:0:
475,192,19369,1,0,0:0:0:0:
109,192,19369,1,0,0:0:0:0:
256,192,19500,1,0,0:0:0:0:
182,192,19632,1,0,0:0:0:0:
109,192,19632,1,0,0:0:0:0:
36,192,19632,1,0,0:0:0:0:
402,192,19632,1,0,0:0:0:0:
256,192,19764,1,0,0:0:0:0:
329,192,19895,1,0,0:0:0:0:
402,192,19895,1,0,0:0:0:0:
475,192,19895,1,0,0:0:0:0:
109,192,19895,1,0,0:0:0:0:
256,192,20027,1,0,0:0:0:0:
182,192,20158,1,0,0:0:0:0:
109,192,20158,1,0,0:0:0:0:
36,192,20158,1,0,0:0:0:0:
402,192,20158,1,0,0:0:0:0:
256,192,20290,1,0,0:0:0:0:
109,192,20421,1,0,0:0:0:0:
329,192,20421,1,0,0:0:0:0:
402,192,20421,1,0,0:0:0:0:
475,192,20421,1,0,0:0:0:0:
256,192,20553,1,0,0:0:0:0:
182,192,20685,1,0,0:0:0:0:
109,192,20685,1,0,0:0:0:0:
36,192,20685,1,0,0:0:0:0:
402,192,20685,1,0,0:0:0:0:
256,192,20816,1,0,0:0:0:0:
402,192,20948,1,0,0:0:0:0:
475,192,20948,1,0,0:0:0:0:
329,192,20948,1,0,0:0:0:0:
109,192,21079,1,0,0:0:0:0:
36,192,21079,1,0,0:0:0:0:
256,192,21079,1,0,0:0:0:0:
329,192,21211,1,0,0:0:0:0:
402,192,21211,1,0,0:0:0:0:
475,192,21211,1,0,0:0:0:0:
36,192,21343,1,0,0:0:0:0:
109,192,21343,1,0,0:0:0:0:
182,192,21343,1,0,0:0:0:0:
402,192,21474,1,0,0:0:0:0:
475,192,21474,1,0,0:0:0:0:
256,192,21474,1,0,0:0:0:0:
109,192,21606,1,0,0:0:0:0:
36,192,21606,1,0,0:0:0:0:
182,192,21606,1,0,0:0:0:0:
402,192,21737,1,0,0:0:0:0:
475,192,21737,1,0,0:0:0:0:
329,192,21737,1,0,0:0:0:0:
256,192,21869,1,0,0:0:0:0:
109,192,21869,1,0,0:0:0:0:
36,192,21869,1,0,0:0:0:0:
329,192,22000,1,0,0:0:0:0:
402,192,22000,1,0,0:0:0:0:
475,192,22000,1,0,0:0:0:0:
182,192,22132,1,0,0:0:0:0:
109,192,22132,1,0,0:0:0:0:
36,192,22132,1,0,0:0:0:0:
256,192,22264,1,0,0:0:0:0:
402,192,22264,1,0,0:0:0:0:
475,192,22264,1,0,0:0:0:0:
182,192,22395,1,0,0:0:0:0:
109,192,22395,1,0,0:0:0:0:
36,192,22395,1,0,0:0:0:0:
475,192,22527,1,0,0:0:0:0:
329,192,22527,1,0,0:0:0:0:
36,192,22527,1,0,0:0:0:0:
256,192,22593,1,0,0:0:0:0:
182,192,22658,1,0,0:0:0:0:
109,192,22724,1,0,0:0:0:0:
402,192,22724,1,0,0:0:0:0:
329,192,22790,1,0,0:0:0:0:
256,192,22856,1,0,0:0:0:0:
182,192,22921,1,0,0:0:0:0:
475,192,22921,1,0,0:0:0:0:
402,192,22987,1,0,0:0:0:0:
329,192,23053,1,0,0:0:0:0:
256,192,23119,1,0,0:0:0:0:
109,192,23119,1,0,0:0:0:0:
475,192,23185,1,0,0:0:0:0:
329,192,23250,1,0,0:0:0:0:
182,192,23316,1,0,0:0:0:0:
36,192,23316,1,0,0:0:0:0:
402,192,23316,1,0,0:0:0:0:
256,192,23382,1,0,0:0:0:0:
329,192,23448,1,0,0:0:0:0:
402,192,23514,1,0,0:0:0:0:
109,192,23514,1,0,0:0:0:0:
182,192,23579,1,0,0:0:0:0:
475,192,23579,1,0,0:0:0:0:
256,192,23645,1,0,0:0:0:0:
329,192,23711,1,0,0:0:0:0:
36,192,23711,1,0,0:0:0:0:
109,192,23777,1,0,0:0:0:0:
182,192,23843,1,0,0:0:0:0:
475,192,23843,1,0,0:0:0:0:
256,192,23908,1,0,0:0:0:0:
402,192,23908,1,0,0:0:0:0:
36,192,23974,1,0,0:0:0:0:
182,192,24040,1,0,0:0:0:0:
109,192,24106,1,0,0:0:0:0:
329,192,24106,1,0,0:0:0:0:
475,192,24106,1,0,0:0:0:0:
256,192,24237,1,0,0:0:0:0:
182,192,24369,1,0,0:0:0:0:
329,192,24500,1,0,0:0:0:0:
109,192,24500,1,0,0:0:0:0:
256,192,24632,1,0,0:0:0:0:
36,192,24632,1,0,0:0:0:0:
329,192,24764,1,0,0:0:0:0:
182,192,24764,1,0,0:0:0:0:
475,192,24764,1,0,0:0:0:0:
402,192,24895,1,0,0:0:0:0:
36,192,24895,1,0,0:0:0:0:
256,192,24895,1,0,0:0:0:0:
329,192,25027,1,0,0:0:0:0:
109,192,25027,1,0,0:0:0:0:
475,192,25158,1,0,0:0:0:0:
256,192,25158,1,0,0:0:0:0:
36,192,25158,1,0,0:0:0:0:
36,192,25290,1,0,0:0:0:0:
182,192,25290,1,0,0:0:0:0:
329,192,25290,1,0,0:0:0:0:
256,192,25421,1,0,0:0:0:0:
402,192,25421,1,0,0:0:0:0:
475,192,25421,1,0,0:0:0:0:
109,192,25553,1,0,0:0:0:0:
329,192,25553,1,0,0:0:0:0:
182,192,25619,1,0,0:0:0:0:
402,192,25619,1,0,0:0:0:0:
475,192,25685,1,0,0:0:0:0:
256,192,25685,1,0,0:0:0:0:
36,192,25685,1,0,0:0:0:0:
329,192,25685,1,0,0:0:0:0:
182,192,25816,1,0,0:0:0:0:
402,192,25816,1,0,0:0:0:0:
182,192,25948,1,0,0:0:0:0:
329,192,25948,1,0,0:0:0:0:
36,192,26079,1,0,0:0:0:0:
182,192,26079,1,0,0:0:0:0:
475,192,26079,1,0,0:0:0:0:
402,192,26211,1,0,0:0:0:0:
182,192,26211,1,0,0:0:0:0:
182,192,26343,1,0,0:0:0:0:
329,192,26343,1,0,0:0:0:0:
256,192,26474,1,0,0:0:0:0:
475,192,26474,1,0,0:0:0:0:
36,192,26474,1,0,0:0:0:0:
109,192,26606,1,0,0:0:0:0:
329,192,26606,1,0,0:0:0:0:
182,192,26737,1,0,0:0:0:0:
329,192,26737,1,0,0:0:0:0:
256,192,26869,1,0,0:0:0:0:
329,192,26869,1,0,0:0:0:0:
36,192,26869,1,0,0:0:0:0:
329,192,27000,1,0,0:0:0:0:
109,192,27000,1,0,0:0:0:0:
182,192,27000,1,0,0:0:0:0:
256,192,27132,1,0,0:0:0:0:
329,192,27132,1,0,0:0:0:0:
475,192,27132,1,0,0:0:0:0:
329,192,27264,1,0,0:0:0:0:
475,192,27264,1,0,0:0:0:0:
36,192,27264,1,0,0:0:0:0:
402,192,27395,1,0,0:0:0:0:
182,192,27395,1,0,0:0:0:0:
402,192,27527,1,0,0:0:0:0:
109,192,27527,1,0,0:0:0:0:
256,192,27658,1,0,0:0:0:0:
36,192,27658,1,0,0:0:0:0:
402,192,27658,1,0,0:0:0:0:
109,192,27790,1,0,0:0:0:0:
402,192,27790,1,0,0:0:0:0:
402,192,27921,1,0,0:0:0:0:
109,192,27921,1,0,0:0:0:0:
182,192,28053,1,0,0:0:0:0:
475,192,28053,1,0,0:0:0:0:
36,192,28053,1,0,0:0:0:0:
402,192,28185,1,0,0:0:0:0:
256,192,28185,1,0,0:0:0:0:
402,192,28316,1,0,0:0:0:0:
256,192,28316,1,0,0:0:0:0:
329,192,28448,1,0,0:0:0:0:
256,192,28448,1,0,0:0:0:0:
36,192,28448,1,0,0:0:0:0:
256,192,28579,1,0,0:0:0:0:
475,192,28579,1,0,0:0:0:0:
109,192,28579,1,0,0:0:0:0:
402,192,28711,1,0,0:0:0:0:
36,192,28711,1,0,0:0:0:0:
256,192,28711,1,0,0:0:0:0:
329,192,28843,1,0,0:0:0:0:
475,192,28843,1,0,0:0:0:0:
109,192,28843,1,0,0:0:0:0:
182,192,28974,1,0,0:0:0:0:
402,192,28974,1,0,0:0:0:0:
182,192,29106,1,0,0:0:0:0:
329,192,29106,1,0,0:0:0:0:
182,192,29237,1,0,0:0:0:0:
36,192,29237,1,0,0:0:0:0:
475,192,29237,1,0,0:0:0:0:
329,192,29369,1,0,0:0:0:0:
182,192,29369,1,0,0:0:0:0:
402,192,29500,1,0,0:0:0:0:
182,192,29500,1,0,0:0:0:0:
256,192,29632,1,0,0:0:0:0:
36,192,29632,1,0,0:0:0:0:
475,192,29632,1,0,0:0:0:0:
109,192,29764,1,0,0:0:0:0:
329,192,29764,1,0,0:0:0:0:
329,192,29895,1,0,0:0:0:0:
182,192,29895,1,0,0:0:0:0:
329,192,30027,1,0,0:0:0:0:
36,192,30027,1,0,0:0:0:0:
475,192,30027,1,0,0:0:0:0:
402,192,30158,1,0,0:0:0:0:
329,192,30158,1,0,0:0:0:0:
109,192,30158,1,0,0:0:0:0:
182,192,30290,1,0,0:0:0:0:
36,192,30290,1,0,0:0:0:0:
329,192,30290,1,0,0:0:0:0:
256,192,30421,1,0,0:0:0:0:
329,192,30421,1,0,0:0:0:0:
475,192,30421,1,0,0:0:0:0:
109,192,30553,1,0,0:0:0:0:
402,192,30553,1,0,0:0:0:0:
402,192,30685,1,0,0:0:0:0:
109,192,30685,1,0,0:0:0:0:
329,192,30816,1,0,0:0:0:0:
109,192,30816,1,0,0:0:0:0:
182,192,30816,1,0,0:0:0:0:
109,192,30948,1,0,0:0:0:0:
256,192,30948,1,0,0:0:0:0:
109,192,31079,1,0,0:0:0:0:
329,192,31079,1,0,0:0:0:0:
256,192,31211,1,0,0:0:0:0:
36,192,31211,1,0,0:0:0:0:
402,192,31211,1,0,0:0:0:0:
475,192,31343,1,0,0:0:0:0:
109,192,31343,1,0,0:0:0:0:
475,192,31474,1,0,0:0:0:0:
182,192,31474,1,0,0:0:0:0:
475,192,31606,1,0,0:0:0:0:
36,192,31606,1,0,0:0:0:0:
256,192,31606,1,0,0:0:0:0:
402,192,31737,1,0,0:0:0:0:
475,192,31737,1,0,0:0:0:0:
182,192,31737,1,0,0:0:0:0:
109,192,31869,1,0,0:0:0:0:
475,192,31869,1,0,0:0:0:0:
256,192,31869,1,0,0:0:0:0:
329,192,32000,1,0,0:0:0:0:
182,192,32000,1,0,0:0:0:0:
402,192,32000,1,0,0:0:0:0:
256,192,32132,1,0,0:0:0:0:
36,192,32132,1,0,0:0:0:0:
329,192,32264,1,0,0:0:0:0:
36,192,32264,1,0,0:0:0:0:
256,192,32395,1,0,0:0:0:0:
36,192,32395,1,0,0:0:0:0:
402,192,32395,1,0,0:0:0:0:
329,192,32527,1,0,0:0:0:0:
36,192,32527,1,0,0:0:0:0:
182,192,32658,1,0,0:0:0:0:
36,192,32658,1,0,0:0:0:0:
256,192,32790,1,0,0:0:0:0:
402,192,32790,1,0,0:0:0:0:
109,192,32790,1,0,0:0:0:0:
182,192,32921,1,0,0:0:0:0:
329,192,32921,1,0,0:0:0:0:
182,192,33053,1,0,0:0:0:0:
475,192,33053,1,0,0:0:0:0:
402,192,33185,1,0,0:0:0:0:
109,192,33185,1,0,0:0:0:0:
182,192,33185,1,0,0:0:0:0:
182,192,33316,1,0,0:0:0:0:
329,192,33316,1,0,0:0:0:0:
475,192,33316,1,0,0:0:0:0:
182,192,33448,1,0,0:0:0:0:
402,192,33448,1,0,0:0:0:0:
36,192,33448,1,0,0:0:0:0:
256,192,33579,1,0,0:0:0:0:
109,192,33579,1,0,0:0:0:0:
329,192,33579,1,0,0:0:0:0:
475,192,33711,1,0,0:0:0:0:
256,192,33711,1,0,0:0:0:0:
475,192,33843,1,0,0:0:0:0:
182,192,33843,1,0,0:0:0:0:
109,192,33974,1,0,0:0:0:0:
475,192,33974,1,0,0:0:0:0:
329,192,33974,1,0,0:0:0:0:
475,192,34106,1,0,0:0:0:0:
36,192,34106,1,0,0:0:0:0:
109,192,34237,1,0,0:0:0:0:
475,192,34237,1,0,0:0:0:0:
182,192,34369,1,0,0:0:0:0:
329,192,34369,1,0,0:0:0:0:
402,192,34369,1,0,0:0:0:0:
36,192,34500,1,0,0:0:0:0:
256,192,34500,1,0,0:0:0:0:
256,192,34632,1,0,0:0:0:0:
182,192,34632,1,0,0:0:0:0:
256,192,34764,1,0,0:0:0:0:
109,192,34764,1,0,0:0:0:0:
36,192,34764,1,0,0:0:0:0:
256,192,34895,1,0,0:0:0:0:
475,192,34895,1,0,0:0:0:0:
402,192,34895,1,0,0:0:0:0:
182,192,35027,1,0,0:0:0:0:
256,192,35027,1,0,0:0:0:0:
36,192,35027,1,0,0:0:0:0:
109,192,35158,1,0,0:0:0:0:
329,192,35158,1,0,0:0:0:0:
475,192,35158,1,0,0:0:0:0:
182,192,35290,1,0,0:0:0:0:
402,192,35290,1,0,0:0:0:0:
182,192,35421,1,0,0:0:0:0:
329,192,35421,1,0,0:0:0:0:
36,192,35553,1,0,0:0:0:0:
475,192,35553,1,0,0:0:0:0:
182,192,35553,1,0,0:0:0:0:
329,192,35685,1,0,0:0:0:0:
182,192,35685,1,0,0:0:0:0:
182,192,35816,1,0,0:0:0:0:
402,192,35816,1,0,0:0:0:0:
256,192,35948,1,0,0:0:0:0:
36,192,35948,1,0,0:0:0:0:
475,192,35948,1,0,0:0:0:0:
182,192,36079,1,0,0:0:0:0:
329,192,36079,1,0,0:0:0:0:
329,192,36211,1,0,0:0:0:0:
109,192,36211,1,0,0:0:0:0:
256,192,36343,1,0,0:0:0:0:
329,192,36343,1,0,0:0:0:0:
36,192,36343,1,0,0:0:0:0:
329,192,36474,1,0,0:0:0:0:
475,192,36474,1,0,0:0:0:0:
182,192,36474,1,0,0:0:0:0:
256,192,36606,1,0,0:0:0:0:
109,192,36606,1,0,0:0:0:0:
329,192,36606,1,0,0:0:0:0:
182,192,36737,1,0,0:0:0:0:
36,192,36737,1,0,0:0:0:0:
475,192,36737,1,0,0:0:0:0:
402,192,36869,1,0,0:0:0:0:
109,192,36869,1,0,0:0:0:0:
109,192,37000,1,0,0:0:0:0:
475,192,37000,1,0,0:0:0:0:
182,192,37132,1,0,0:0:0:0:
109,192,37132,1,0,0:0:0:0:
329,192,37132,1,0,0:0:0:0:
256,192,37264,1,0,0:0:0:0:
109,192,37264,1,0,0:0:0:0:
256,192,37395,1,0,0:0:0:0:
109,192,37395,1,0,0:0:0:0:
475,192,37527,1,0,0:0:0:0:
329,192,37527,1,0,0:0:0:0:
182,192,37527,1,0,0:0:0:0:
402,192,37658,1,0,0:0:0:0:
256,192,37658,1,0,0:0:0:0:
256,192,37790,1,0,0:0:0:0:
402,192,37790,1,0,0:0:0:0:
402,192,37921,1,0,0:0:0:0:
182,192,37921,1,0,0:0:0:0:
36,192,37921,1,0,0:0:0:0:
256,192,38053,1,0,0:0:0:0:
109,192,38053,1,0,0:0:0:0:
402,192,38053,1,0,0:0:0:0:
329,192,38185,1,0,0:0:0:0:
182,192,38185,1,0,0:0:0:0:
36,192,38185,1,0,0:0:0:0:
402,192,38185,1,0,0:0:0:0:
36,192,38316,1,0,0:0:0:0:
109,192,38316,1,0,0:0:0:0:
256,192,38316,1,0,0:0:0:0:
475,192,38316,1,0,0:0:0:0:
329,192,38448,1,0,0:0:0:0:
182,192,38448,1,0,0:0:0:0:
475,192,38579,1,0,0:0:0:0:
329,192,38579,1,0,0:0:0:0:
109,192,38579,1,0,0:0:0:0:
36,192,38711,1,0,0:0:0:0:
256,192,38711,1,0,0:0:0:0:
402,192,38711,1,0,0:0:0:0:
109,192,38843,1,0,0:0:0:0:
182,192,38843,1,0,0:0:0:0:
256,192,38974,1,0,0:0:0:0:
475,192,38974,1,0,0:0:0:0:
109,192,38974,1,0,0:0:0:0:
402,192,39106,1,0,0:0:0:0:
329,192,39106,1,0,0:0:0:0:
182,192,39106,1,0,0:0:0:0:
475,192,39106,1,0,0:0:0:0:
402,192,39237,1,0,0:0:0:0:
256,192,39237,1,0,0:0:0:0:
329,192,39369,1,0,0:0:0:0:
475,192,39369,1,0,0:0:0:0:
109,192,39369,1,0,0:0:0:0:
36,192,39500,1,0,0:0:0:0:
256,192,39500,1,0,0:0:0:0:
402,192,39500,1,0,0:0:0:0:
182,192,39632,1,0,0:0:0:0:
329,192,39632,1,0,0:0:0:0:
475,192,39632,1,0,0:0:0:0:
109,192,39764,1,0,0:0:0:0:
256,192,39764,1,0,0:0:0:0:
402,192,39764,1,0,0:0:0:0:
329,192,39895,1,0,0:0:0:0:
182,192,39895,1,0,0:0:0:0:
36,192,39895,1,0,0:0:0:0:
475,192,39895,1,0,0:0:0:0:
256,192,40027,1,0,0:0:0:0:
475,192,40027,1,0,0:0:0:0:
36,192,40158,1,0,0:0:0:0:
256,192,40158,1,0,0:0:0:0:
402,192,40158,1,0,0:0:0:0:
475,192,40290,1,0,0:0:0:0:
182,192,40290,1,0,0:0:0:0:
329,192,40290,1,0,0:0:0:0:
109,192,40421,1,0,0:0:0:0:
256,192,40421,1,0,0:0:0:0:
36,192,40553,1,0,0:0:0:0:
256,192,40553,1,0,0:0:0:0:
329,192,40553,1,0,0:0:0:0:
475,192,40685,1,0,0:0:0:0:
182,192,40685,1,0,0:0:0:0:
402,192,40685,1,0,0:0:0:0:
36,192,40685,1,0,0:0:0:0:
256,192,40816,1,0,0:0:0:0:
402,192,40816,1,0,0:0:0:0:
256,192,40948,1,0,0:0:0:0:
36,192,40948,1,0,0:0:0:0:
475,192,40948,1,0,0:0:0:0:
402,192,41079,1,0,0:0:0:0:
329,192,41079,1,0,0:0:0:0:
109,192,41079,1,0,0:0:0:0:
182,192,41211,1,0,0:0:0:0:
36,192,41211,1,0,0:0:0:0:
475,192,41211,1,0,0:0:0:0:
402,192,41343,1,0,0:0:0:0:
256,192,41343,1,0,0:0:0:0:
109,192,41343,1,0,0:0:0:0:
329,192,41474,1,0,0:0:0:0:
182,192,41474,1,0,0:0:0:0:
36,192,41474,1,0,0:0:0:0:
475,192,41474,1,0,0:0:0:0:
109,192,41606,1,0,0:0:0:0:
475,192,41606,1,0,0:0:0:0:
475,192,41737,1,0,0:0:0:0:
256,192,41737,1,0,0:0:0:0:
182,192,41737,1,0,0:0:0:0:
36,192,41869,1,0,0:0:0:0:
329,192,41869,1,0,0:0:0:0:
402,192,41869,1,0,0:0:0:0:
109,192,42000,1,0,0:0:0:0:
182,192,42000,1,0,0:0:0:0:
182,192,42132,1,0,0:0:0:0:
256,192,42132,1,0,0:0:0:0:
402,192,42132,1,0,0:0:0:0:
36,192,42264,1,0,0:0:0:0:
329,192,42264,1,0,0:0:0:0:
475,192,42264,1,0,0:0:0:0:
256,192,42264,1,0,0:0:0:0:
402,192,42395,1,0,0:0:0:0:
182,192,42395,1,0,0:0:0:0:
256,192,42527,1,0,0:0:0:0:
402,192,42527,1,0,0:0:0:0:
109,192,42527,1,0,0:0:0:0:
36,192,42658,1,0,0:0:0:0:
182,192,42658,1,0,0:0:0:0:
329,192,42658,1,0,0:0:0:0:
256,192,42790,1,0,0:0:0:0:
402,192,42790,1,0,0:0:0:0:
109,192,42790,1,0,0:0:0:0:
475,192,42921,1,0,0:0:0:0:
329,192,42921,1,0,0:0:0:0:
182,192,42921,1,0,0:0:0:0:
36,192,43053,1,0,0:0:0:0:
256,192,43053,1,0,0:0:0:0:
109,192,43053,1,0,0:0:0:0:
475,192,43053,1,0,0:0:0:0:
402,192,43185,1,0,0:0:0:0:
182,192,43185,1,0,0:0:0:0:
329,192,43316,1,0,0:0:0:0:
402,192,43316,1,0,0:0:0:0:
109,192,43316,1,0,0:0:0:0:
36,192,43448,1,0,0:0:0:0:
256,192,43448,1,0,0:0:0:0:
475,192,43448,1,0,0:0:0:0:
402,192,43579,1,0,0:0:0:0:
182,192,43579,1,0,0:0:0:0:
329,192,43711,1,0,0:0:0:0:
182,192,43711,1,0,0:0:0:0:
109,192,43711,1,0,0:0:0:0:
256,192,43843,1,0,0:0:0:0:
36,192,43843,1,0,0:0:0:0:
402,192,43843,1,0,0:0:0:0:
475,192,43843,1,0,0:0:0:0:
109,192,43974,1,0,0:0:0:0:
329,192,43974,1,0,0:0:0:0:
182,192,44106,1,0,0:0:0:0:
109,192,44106,1,0,0:0:0:0:
402,192,44106,1,0,0:0:0:0:
36,192,44237,1,0,0:0:0:0:
256,192,44237,1,0,0:0:0:0:
475,192,44237,1,0,0:0:0:0:
329,192,44369,1,0,0:0:0:0:
182,192,44369,1,0,0:0:0:0:
402,192,44369,1,0,0:0:0:0:
475,192,44500,1,0,0:0:0:0:
256,192,44500,1,0,0:0:0:0:
109,192,44500,1,0,0:0:0:0:
36,192,44632,1,0,0:0:0:0:
182,192,44632,1,0,0:0:0:0:
329,192,44632,1,0,0:0:0:0:
475,192,44632,1,0,0:0:0:0:
256,192,44764,1,0,0:0:0:0:
402,192,44764,1,0,0:0:0:0:
109,192,44895,1,0,0:0:0:0:
329,192,44895,1,0,0:0:0:0:
402,192,44895,1,0,0:0:0:0:
36,192,45027,1,0,0:0:0:0:
182,192,45027,1,0,0:0:0:0:
475,192,45027,1,0,0:0:0:0:
329,192,45158,1,0,0:0:0:0:
402,192,45158,1,0,0:0:0:0:
109,192,45290,1,0,0:0:0:0:
256,192,45290,1,0,0:0:0:0:
329,192,45290,1,0,0:0:0:0:
182,192,45421,1,0,0:0:0:0:
36,192,45421,1,0,0:0:0:0:
475,192,45421,1,0,0:0:0:0:
256,192,45421,1,0,0:0:0:0:
329,192,45553,1,0,0:0:0:0:
402,192,45553,1,0,0:0:0:0:
256,192,45685,1,0,0:0:0:0:
329,192,45685,1,0,0:0:0:0:
109,192,45685,1,0,0:0:0:0:
36,192,45816,1,0,0:0:0:0:
182,192,45816,1,0,0:0:0:0:
402,192,45816,1,0,0:0:0:0:
475,192,45948,1,0,0:0:0:0:
329,192,45948,1,0,0:0:0:0:
109,192,45948,1,0,0:0:0:0:
256,192,46079,1,0,0:0:0:0:
36,192,46079,1,0,0:0:0:0:
402,192,46079,1,0,0:0:0:0:
182,192,46211,1,0,0:0:0:0:
329,192,46211,1,0,0:0:0:0:
475,192,46211,1,0,0:0:0:0:
36,192,46211,1,0,0:0:0:0:
256,192,46343,1,0,0:0:0:0:
109,192,46343,1,0,0:0:0:0:
329,192,46474,1,0,0:0:0:0:
182,192,46474,1,0,0:0:0:0:
109,192,46474,1,0,0:0:0:0:
256,192,46606,1,0,0:0:0:0:
36,192,46606,1,0,0:0:0:0:
475,192,46606,1,0,0:0:0:0:
182,192,46737,1,0,0:0:0:0:
329,192,46737,1,0,0:0:0:0:
256,192,46869,1,0,0:0:0:0:
109,192,46869,1,0,0:0:0:0:
329,192,46869,1,0,0:0:0:0:
182,192,47000,1,0,0:0:0:0:
402,192,47000,1,0,0:0:0:0:
475,192,47000,1,0,0:0:0:0:
36,192,47000,1,0,0:0:0:0:
109,192,47132,1,0,0:0:0:0:
256,192,47132,1,0,0:0:0:0:
256,192,47264,1,0,0:0:0:0:
329,192,47264,1,0,0:0:0:0:
36,192,47264,1,0,0:0:0:0:
402,192,47395,1,0,0:0:0:0:
182,192,47395,1,0,0:0:0:0:
109,192,47395,1,0,0:0:0:0:
475,192,47527,1,0,0:0:0:0:
36,192,47527,1,0,0:0:0:0:
256,192,47527,1,0,0:0:0:0:
329,192,47658,1,0,0:0:0:0:
402,192,47658,1,0,0:0:0:0:
182,192,47658,1,0,0:0:0:0:
109,192,47790,1,0,0:0:0:0:
256,192,47790,1,0,0:0:0:0:
475,192,47790,1,0,0:0:0:0:
402,192,47790,1,0,0:0:0:0:
36,192,47921,1,0,0:0:0:0:
182,192,47921,1,0,0:0:0:0:
329,192,48053,1,0,0:0:0:0:
109,192,48053,1,0,0:0:0:0:
182,192,48053,1,0,0:0:0:0:
402,192,48185,1,0,0:0:0:0:
256,192,48185,1,0,0:0:0:0:
36,192,48185,1,0,0:0:0:0:
329,192,48316,1,0,0:0:0:0:
109,192,48316,1,0,0:0:0:0:
182,192,48448,1,0,0:0:0:0:
329,192,48448,1,0,0:0:0:0:
402,192,48448,1,0,0:0:0:0:
475,192,48579,1,0,0:0:0:0:
256,192,48579,1,0,0:0:0:0:
36,192,48579,1,0,0:0:0:0:
109,192,48579,1,0,0:0:0:0:
402,192,48711,1,0,0:0:0:0:
182,192,48711,1,0,0:0:0:0:
329,192,48843,1,0,0:0:0:0:
182,192,48843,1,0,0:0:0:0:
109,192,48843,1,0,0:0:0:0:
256,192,48974,1,0,0:0:0:0:
402,192,48974,1,0,0:0:0:0:
475,192,48974,1,0,0:0:0:0:
36,192,49106,1,0,0:0:0:0:
182,192,49106,1,0,0:0:0:0:
329,192,49106,1,0,0:0:0:0:
256,192,49237,1,0,0:0:0:0:
475,192,49237,1,0,0:0:0:0:
109,192,49237,1,0,0:0:0:0:
182,192,49369,1,0,0:0:0:0:
36,192,49369,1,0,0:0:0:0:
402,192,49369,1,0,0:0:0:0:
475,192,49369,1,0,0:0:0:0:
475,192,49632,1,0,0:0:0:0:
329,192,49764,1,0,0:0:0:0:
36,192,49895,1,0,0:0:0:0:
182,192,50027,1,0,0:0:0:0:
475,192,50158,1,0,0:0:0:0:
329,192,50290,1,0,0:0:0:0:
182,192,50421,1,0,0:0:0:0:
36,192,50421,1,0,0:0:0:0:
475,192,50553,1,0,0:0:0:0:
256,192,50553,1,0,0:0:0:0:
109,192,50553,1,0,0:0:0:0:
402,192,50619,1,0,0:0:0:0:
329,192,50685,1,0,0:0:0:0:
36,192,50750,1,0,0:0:0:0:
109,192,50816,1,0,0:0:0:0:
182,192,50882,1,0,0:0:0:0:
36,192,50948,1,0,0:0:0:0:
475,192,50948,1,0,0:0:0:0:
329,192,50948,1,0,0:0:0:0:
256,192,50948,1,0,0:0:0:0:
329,192,51079,1,0,0:0:0:0:
256,192,51079,1,0,0:0:0:0:
36,192,51211,1,0,0:0:0:0:
182,192,51211,1,0,0:0:0:0:
402,192,51211,1,0,0:0:0:0:
256,192,51343,1,0,0:0:0:0:
475,192,51343,1,0,0:0:0:0:
329,192,51343,1,0,0:0:0:0:
36,192,51343,1,0,0:0:0:0:
182,192,51343,1,0,0:0:0:0:
402,192,51343,1,0,0:0:0:0:
329,192,51474,1,0,0:0:0:0:
256,192,51474,1,0,0:0:0:0:
109,192,51606,1,0,0:0:0:0:
36,192,51606,1,0,0:0:0:0:
182,192,51606,1,0,0:0:0:0:
402,192,51737,1,0,0:0:0:0:
475,192,51737,1,0,0:0:0:0:
36,192,51737,1,0,0:0:0:0:
109,192,51737,1,0,0:0:0:0:
256,192,51737,1,0,0:0:0:0:
182,192,51737,1,0,0:0:0:0:
475,192,51869,1,0,0:0:0:0:
402,192,51869,1,0,0:0:0:0:
109,192,52000,1,0,0:0:0:0:
256,192,52000,1,0,0:0:0:0:
329,192,52000,1,0,0:0:0:0:
36,192,52132,1,0,0:0:0:0:
182,192,52132,1,0,0:0:0:0:
402,192,52132,1,0,0:0:0:0:
256,192,52132,1,0,0:0:0:0:
329,192,52132,1,0,0:0:0:0:
475,192,52132,1,0,0:0:0:0:
36,192,52264,1,0,0:0:0:0:
182,192,52264,1,0,0:0:0:0:
475,192,52395,1,0,0:0:0:0:
256,192,52395,1,0,0:0:0:0:
329,192,52395,1,0,0:0:0:0:
109,192,52527,1,0,0:0:0:0:
182,192,52527,1,0,0:0:0:0:
36,192,52527,1,0,0:0:0:0:
256,192,52527,1,0,0:0:0:0:
329,192,52527,1,0,0:0:0:0:
475,192,52527,1,0,0:0:0:0:
109,192,52658,1,0,0:0:0:0:
182,192,52658,1,0,0:0:0:0:
402,192,52658,1,0,0:0:0:0:
329,192,52790,1,0,0:0:0:0:
36,192,52790,1,0,0:0:0:0:
402,192,52921,1,0,0:0:0:0:
256,192,52921,1,0,0:0:0:0:
182,192,52921,1,0,0:0:0:0:
109,192,52921,1,0,0:0:0:0:
36,192,52921,1,0,0:0:0:0:
475,192,52921,1,0,0:0:0:0:
329,192,53053,1,0,0:0:0:0:
475,192,53053,1,0,0:0:0:0:
109,192,53185,1,0,0:0:0:0:
329,192,53185,1,0,0:0:0:0:
475,192,53185,1,0,0:0:0:0:
256,192,53316,1,0,0:0:0:0:
402,192,53316,1,0,0:0:0:0:
36,192,53316,1,0,0:0:0:0:
475,192,53316,1,0,0:0:0:0:
182,192,53316,1,0,0:0:0:0:
109,192,53316,1,0,0:0:0:0:
109,192,53448,1,0,0:0:0:0:
182,192,53448,1,0,0:0:0:0:
182,192,53579,1,0,0:0:0:0:
109,192,53579,1,0,0:0:0:0:
329,192,53579,1,0,0:0:0:0:
36,192,53711,1,0,0:0:0:0:
256,192,53711,1,0,0:0:0:0:
402,192,53711,1,0,0:0:0:0:
475,192,53711,1,0,0:0:0:0:
109,192,53711,1,0,0:0:0:0:
329,192,53711,1,0,0:0:0:0:
182,192,53843,1,0,0:0:0:0:
329,192,53843,1,0,0:0:0:0:
182,192,53974,1,0,0:0:0:0:
329,192,53974,1,0,0:0:0:0:
402,192,53974,1,0,0:0:0:0:
109,192,54106,1,0,0:0:0:0:
256,192,54106,1,0,0:0:0:0:
475,192,54106,1,0,0:0:0:0:
36,192,54106,1,0,0:0:0:0:
182,192,54106,1,0,0:0:0:0:
402,192,54106,1,0,0:0:0:0:
329,192,54237,1,0,0:0:0:0:
109,192,54237,1,0,0:0:0:0:
329,192,54369,1,0,0:0:0:0:
182,192,54369,1,0,0:0:0:0:
402,192,54369,1,0,0:0:0:0:
109,192,54500,1,0,0:0:0:0:
256,192,54500,1,0,0:0:0:0:
36,192,54500,1,0,0:0:0:0:
475,192,54500,1,0,0:0:0:0:
402,192,54500,1,0,0:0:0:0:
182,192,54500,1,0,0:0:0:0:
329,192,54632,1,0,0:0:0:0:
475,192,54632,1,0,0:0:0:0:
109,192,54764,1,0,0:0:0:0:
329,192,54764,1,0,0:0:0:0:
475,192,54764,1,0,0:0:0:0:
182,192,54895,1,0,0:0:0:0:
402,192,54895,1,0,0:0:0:0:
256,192,54895,1,0,0:0:0:0:
36,192,54895,1,0,0:0:0:0:
109,192,54895,1,0,0:0:0:0:
475,192,54895,1,0,0:0:0:0:
109,192,55027,1,0,0:0:0:0:
329,192,55027,1,0,0:0:0:0:
109,192,55158,1,0,0:0:0:0:
329,192,55158,1,0,0:0:0:0:
475,192,55158,1,0,0:0:0:0:
182,192,55290,1,0,0:0:0:0:
402,192,55290,1,0,0:0:0:0:
256,192,55290,1,0,0:0:0:0:
36,192,55290,1,0,0:0:0:0:
475,192,55290,1,0,0:0:0:0:
329,192,55290,1,0,0:0:0:0:
402,192,55421,1,0,0:0:0:0:
109,192,55421,1,0,0:0:0:0:
109,192,55553,1,0,0:0:0:0:
402,192,55553,1,0,0:0:0:0:
256,192,55553,1,0,0:0:0:0:
329,192,55685,1,0,0:0:0:0:
182,192,55685,1,0,0:0:0:0:
402,192,55685,1,0,0:0:0:0:
475,192,55685,1,0,0:0:0:0:
36,192,55685,1,0,0:0:0:0:
256,192,55685,1,0,0:0:0:0:
329,192,55816,1,0,0:0:0:0:
109,192,55816,1,0,0:0:0:0:
109,192,55948,1,0,0:0:0:0:
329,192,55948,1,0,0:0:0:0:
475,192,55948,1,0,0:0:0:0:
329,192,56079,1,0,0:0:0:0:
182,192,56079,1,0,0:0:0:0:
402,192,56079,1,0,0:0:0:0:
36,192,56079,1,0,0:0:0:0:
109,192,56079,1,0,0:0:0:0:
475,192,56079,1,0,0:0:0:0:
182,192,56211,1,0,0:0:0:0:
256,192,56211,1,0,0:0:0:0:
256,192,56343,1,0,0:0:0:0:
475,192,56343,1,0,0:0:0:0:
402,192,56343,1,0,0:0:0:0:
329,192,56474,1,0,0:0:0:0:
182,192,56474,1,0,0:0:0:0:
36,192,56474,1,0,0:0:0:0:
402,192,56474,1,0,0:0:0:0:
475,192,56474,1,0,0:0:0:0:
109,192,56474,1,0,0:0:0:0:
109,192,56606,1,0,0:0:0:0:
256,192,56606,1,0,0:0:0:0:
256,192,56737,1,0,0:0:0:0:
109,192,56737,1,0,0:0:0:0:
402,192,56737,1,0,0:0:0:0:
329,192,56869,1,0,0:0:0:0:
475,192,56869,1,0,0:0:0:0:
182,192,56869,1,0,0:0:0:0:
36,192,56869,1,0,0:0:0:0:
256,192,56869,1,0,0:0:0:0:
402,192,56869,1,0,0:0:0:0:
109,192,57000,1,0,0:0:0:0:
402,192,57000,1,0,0:0:0:0:
402,192,57132,1,0,0:0:0:0:
109,192,57132,1,0,0:0:0:0:
256,192,57132,1,0,0:0:0:0:
475,192,57264,1,0,0:0:0:0:
256,192,57264,1,0,0:0:0:0:
36,192,57264,1,0,0:0:0:0:
329,192,57264,1,0,0:0:0:0:
182,192,57264,1,0,0:0:0:0:
109,192,57264,1,0,0:0:0:0:
256,192,57395,1,0,0:0:0:0:
109,192,57395,1,0,0:0:0:0:
402,192,57395,1,0,0:0:0:0:
475,192,57527,1,0,0:0:0:0:
109,192,57527,1,0,0:0:0:0:
329,192,57527,1,0,0:0:0:0:
256,192,57658,1,0,0:0:0:0:
402,192,57658,1,0,0:0:0:0:
475,192,57658,1,0,0:0:0:0:
36,192,57658,1,0,0:0:0:0:
182,192,57658,1,0,0:0:0:0:
329,192,57658,1,0,0:0:0:0:
36,192,57790,1,0,0:0:0:0:
182,192,57790,1,0,0:0:0:0:
402,192,57790,1,0,0:0:0:0:
109,192,57921,1,0,0:0:0:0:
182,192,57921,1,0,0:0:0:0:
329,192,57921,1,0,0:0:0:0:
402,192,58053,1,0,0:0:0:0:
36,192,58053,1,0,0:0:0:0:
256,192,58053,1,0,0:0:0:0:
109,192,58053,1,0,0:0:0:0:
329,192,58053,1,0,0:0:0:0:
475,192,58053,1,0,0:0:0:0:
329,192,58185,1,0,0:0:0:0:
475,192,58185,1,0,0:0:0:0:
182,192,58185,1,0,0:0:0:0:
109,192,58316,1,0,0:0:0:0:
329,192,58316,1,0,0:0:0:0:
475,192,58316,1,0,0:0:0:0:
402,192,58448,1,0,0:0:0:0:
256,192,58448,1,0,0:0:0:0:
36,192,58448,1,0,0:0:0:0:
182,192,58448,1,0,0:0:0:0:
475,192,58448,1,0,0:0:0:0:
109,192,58448,1,0,0:0:0:0:
36,192,58579,1,0,0:0:0:0:
182,192,58579,1,0,0:0:0:0:
329,192,58579,1,0,0:0:0:0:
182,192,58711,1,0,0:0:0:0:
36,192,58711,1,0,0:0:0:0:
402,192,58711,1,0,0:0:0:0:
256,192,58843,1,0,0:0:0:0:
475,192,58843,1,0,0:0:0:0:
36,192,58843,1,0,0:0:0:0:
329,192,58843,1,0,0:0:0:0:
402,192,58843,1,0,0:0:0:0:
182,192,58843,1,0,0:0:0:0:
109,192,58974,1,0,0:0:0:0:
402,192,58974,1,0,0:0:0:0:
329,192,58974,1,0,0:0:0:0:
329,192,59106,1,0,0:0:0:0:
402,192,59106,1,0,0:0:0:0:
182,192,59106,1,0,0:0:0:0:
36,192,59237,1,0,0:0:0:0:
256,192,59237,1,0,0:0:0:0:
475,192,59237,1,0,0:0:0:0:
109,192,59237,1,0,0:0:0:0:
329,192,59237,1,0,0:0:0:0:
182,192,59237,1,0,0:0:0:0:
475,192,59369,1,0,0:0:0:0:
256,192,59369,1,0,0:0:0:0:
109,192,59369,1,0,0:0:0:0:
182,192,59500,1,0,0:0:0:0:
329,192,59500,1,0,0:0:0:0:
402,192,59500,1,0,0:0:0:0:
36,192,59632,1,0,0:0:0:0:
256,192,59632,1,0,0:0:0:0:
475,192,59632,1,0,0:0:0:0:
402,192,59632,1,0,0:0:0:0:
182,192,59632,1,0,0:0:0:0:
109,192,59632,1,0,0:0:0:0:
36,192,59764,1,0,0:0:0:0:
329,192,59764,1,0,0:0:0:0:
182,192,59764,1,0,0:0:0:0:
475,192,59895,1,0,0:0:0:0:
109,192,59895,1,0,0:0:0:0:
329,192,59895,1,0,0:0:0:0:
256,192,60027,1,0,0:0:0:0:
402,192,60027,1,0,0:0:0:0:
182,192,60027,1,0,0:0:0:0:
36,192,60027,1,0,0:0:0:0:
475,192,60027,1,0,0:0:0:0:
109,192,60027,1,0,0:0:0:0:
182,192,60158,1,0,0:0:0:0:
36,192,60158,1,0,0:0:0:0:
329,192,60158,1,0,0:0:0:0:
109,192,60290,1,0,0:0:0:0:
329,192,60290,1,0,0:0:0:0:
475,192,60290,1,0,0:0:0:0:
36,192,60421,1,0,0:0:0:0:
182,192,60421,1,0,0:0:0:0:
402,192,60421,1,0,0:0:0:0:
256,192,60421,1,0,0:0:0:0:
329,192,60421,1,0,0:0:0:0:
475,192,60421,1,0,0:0:0:0:
329,192,60553,1,0,0:0:0:0:
182,192,60553,1,0,0:0:0:0:
475,192,60553,1,0,0:0:0:0:
256,192,60685,1,0,0:0:0:0:
329,192,60685,1,0,0:0:0:0:
109,192,60685,1,0,0:0:0:0:
475,192,60816,1,0,0:0:0:0:
182,192,60816,1,0,0:0:0:0:
36,192,60816,1,0,0:0:0:0:
109,192,60816,1,0,0:0:0:0:
402,192,60816,1,0,0:0:0:0:
256,192,60816,1,0,0:0:0:0:
402,192,60948,1,0,0:0:0:0:
182,192,60948,1,0,0:0:0:0:
329,192,60948,1,0,0:0:0:0:
256,192,61079,1,0,0:0:0:0:
109,192,61079,1,0,0:0:0:0:
36,192,61079,1,0,0:0:0:0:
475,192,61211,1,0,0:0:0:0:
402,192,61211,1,0,0:0:0:0:
182,192,61211,1,0,0:0:0:0:
36,192,61211,1,0,0:0:0:0:
109,192,61211,1,0,0:0:0:0:
329,192,61211,1,0,0:0:0:0:
36,192,61343,1,0,0:0:0:0:
182,192,61343,1,0,0:0:0:0:
329,192,61343,1,0,0:0:0:0:
475,192,61474,1,0,0:0:0:0:
256,192,61474,1,0,0:0:0:0:
109,192,61474,1,0,0:0:0:0:
182,192,61606,1,0,0:0:0:0:
329,192,61606,1,0,0:0:0:0:
402,192,61606,1,0,0:0:0:0:
36,192,61606,1,0,0:0:0:0:
109,192,61606,1,0,0:0:0:0:
475,192,61606,1,0,0:0:0:0:
256,192,61737,1,0,0:0:0:0:
36,192,61737,1,0,0:0:0:0:
109,192,61737,1,0,0:0:0:0:
402,192,61869,1,0,0:0:0:0:
256,192,61869,1,0,0:0:0:0:
475,192,61869,1,0,0:0:0:0:
182,192,62000,1,0,0:0:0:0:
329,192,62000,1,0,0:0:0:0:
36,192,62000,1,0,0:0:0:0:
402,192,62000,1,0,0:0:0:0:
475,192,62000,1,0,0:0:0:0:
109,192,62000,1,0,0:0:0:0:
256,192,62132,1,0,0:0:0:0:
109,192,62132,1,0,0:0:0:0:
475,192,62264,1,0,0:0:0:0:
256,192,62264,1,0,0:0:0:0:
402,192,62264,1,0,0:0:0:0:
36,192,62395,1,0,0:0:0:0:
182,192,62395,1,0,0:0:0:0:
329,192,62395,1,0,0:0:0:0:
109,192,62395,1,0,0:0:0:0:
402,192,62395,1,0,0:0:0:0:
475,192,62395,1,0,0:0:0:0:
329,192,62527,1,0,0:0:0:0:
475,192,62527,1,0,0:0:0:0:
182,192,62527,1,0,0:0:0:0:
402,192,62658,1,0,0:0:0:0:
256,192,62658,1,0,0:0:0:0:
109,192,62658,1,0,0:0:0:0:
329,192,62790,1,0,0:0:0:0:
182,192,62790,1,0,0:0:0:0:
36,192,62790,1,0,0:0:0:0:
256,192,62921,1,0,0:0:0:0:
475,192,62921,1,0,0:0:0:0:
109,192,62921,1,0,0:0:0:0:
402,192,62921,1,0,0:0:0:0:
182,192,63053,1,0,0:0:0:0:
402,192,63053,1,0,0:0:0:0:
329,192,63053,1,0,0:0:0:0:
36,192,63185,1,0,0:0:0:0:
475,192,63185,1,0,0:0:0:0:
402,192,63250,1,0,0:0:0:0:
329,192,63316,1,0,0:0:0:0:
256,192,63382,1,0,0:0:0:0:
182,192,63448,1,0,0:0:0:0:
109,192,63514,1,0,0:0:0:0:
475,192,63579,1,0,0:0:0:0:
36,192,63579,1,0,0:0:0:0:
256,192,63579,1,0,0:0:0:0:
109,192,63711,1,0,0:0:0:0:
182,192,63711,1,0,0:0:0:0:
329,192,63711,1,0,0:0:0:0:
402,192,63843,1,0,0:0:0:0:
36,192,63843,1,0,0:0:0:0:
256,192,63843,1,0,0:0:0:0:
182,192,63974,1,0,0:0:0:0:
329,192,63974,1,0,0:0:0:0:
402,192,63974,1,0,0:0:0:0:
36,192,63974,1,0,0:0:0:0:
256,192,64106,1,0,0:0:0:0:
475,192,64106,1,0,0:0:0:0:
109,192,64106,1,0,0:0:0:0:
182,192,64237,1,0,0:0:0:0:
36,192,64237,1,0,0:0:0:0:
402,192,64237,1,0,0:0:0:0:
36,192,64369,1,0,0:0:0:0:
329,192,64369,1,0,0:0:0:0:
475,192,64369,1,0,0:0:0:0:
109,192,64369,1,0,0:0:0:0:
256,192,64500,1,0,0:0:0:0:
402,192,64500,1,0,0:0:0:0:
182,192,64500,1,0,0:0:0:0:
475,192,64632,1,0,0:0:0:0:
329,192,64632,1,0,0:0:0:0:
109,192,64632,1,0,0:0:0:0:
36,192,64764,1,0,0:0:0:0:
256,192,64764,1,0,0:0:0:0:
475,192,64764,1,0,0:0:0:0:
402,192,64764,1,0,0:0:0:0:
109,192,64895,1,0,0:0:0:0:
182,192,64895,1,0,0:0:0:0:
329,192,64895,1,0,0:0:0:0:
256,192,65027,1,0,0:0:0:0:
402,192,65027,1,0,0:0:0:0:
36,192,65027,1,0,0:0:0:0:
109,192,65158,1,0,0:0:0:0:
256,192,65158,1,0,0:0:0:0:
475,192,65158,1,0,0:0:0:0:
329,192,65158,1,0,0:0:0:0:
182,192,65290,1,0,0:0:0:0:
36,192,65290,1,0,0:0:0:0:
402,192,65290,1,0,0:0:0:0:
109,192,65421,1,0,0:0:0:0:
475,192,65421,1,0,0:0:0:0:
329,192,65421,1,0,0:0:0:0:
329,192,65553,1,0,0:0:0:0:
402,192,65553,1,0,0:0:0:0:
256,192,65553,1,0,0:0:0:0:
36,192,65553,1,0,0:0:0:0:
182,192,65685,1,0,0:0:0:0:
475,192,65685,1,0,0:0:0:0:
109,192,65685,1,0,0:0:0:0:
402,192,65816,1,0,0:0:0:0:
256,192,65816,1,0,0:0:0:0:
36,192,65816,1,0,0:0:0:0:
329,192,65948,1,0,0:0:0:0:
402,192,65948,1,0,0:0:0:0:
182,192,65948,1,0,0:0:0:0:
109,192,65948,1,0,0:0:0:0:
36,192,66079,1,0,0:0:0:0:
256,192,66079,1,0,0:0:0:0:
475,192,66079,1,0,0:0:0:0:
109,192,66211,1,0,0:0:0:0:
329,192,66211,1,0,0:0:0:0:
402,192,66211,1,0,0:0:0:0:
475,192,66343,1,0,0:0:0:0:
36,192,66343,1,0,0:0:0:0:
109,192,66343,1,0,0:0:0:0:
256,192,66343,1,0,0:0:0:0:
182,192,66474,1,0,0:0:0:0:
402,192,66474,1,0,0:0:0:0:
329,192,66474,1,0,0:0:0:0:
475,192,66606,1,0,0:0:0:0:
256,192,66606,1,0,0:0:0:0:
109,192,66606,1,0,0:0:0:0:
182,192,66737,1,0,0:0:0:0:
329,192,66737,1,0,0:0:0:0:
475,192,66737,1,0,0:0:0:0:
36,192,66737,1,0,0:0:0:0:
256,192,66869,1,0,0:0:0:0:
109,192,66869,1,0,0:0:0:0:
402,192,66869,1,0,0:0:0:0:
182,192,67000,1,0,0:0:0:0:
36,192,67000,1,0,0:0:0:0:
329,192,67000,1,0,0:0:0:0:
109,192,67132,1,0,0:0:0:0:
256,192,67132,1,0,0:0:0:0:
36,192,67132,1,0,0:0:0:0:
402,192,67132,1,0,0:0:0:0:
182,192,67264,1,0,0:0:0:0:
329,192,67264,1,0,0:0:0:0:
475,192,67264,1,0,0:0:0:0:
36,192,67395,1,0,0:0:0:0:
402,192,67395,1,0,0:0:0:0:
256,192,67395,1,0,0:0:0:0:
109,192,67527,1,0,0:0:0:0:
182,192,67527,1,0,0:0:0:0:
402,192,67527,1,0,0:0:0:0:
475,192,67527,1,0,0:0:0:0:
256,192,67658,1,0,0:0:0:0:
36,192,67658,1,0,0:0:0:0:
329,192,67658,1,0,0:0:0:0:
475,192,67790,1,0,0:0:0:0:
182,192,67790,1,0,0:0:0:0:
402,192,67790,1,0,0:0:0:0:
182,192,67921,1,0,0:0:0:0:
329,192,67921,1,0,0:0:0:0:
109,192,67921,1,0,0:0:0:0:
36,192,67921,1,0,0:0:0:0:
475,192,68053,1,0,0:0:0:0:
402,192,68053,1,0,0:0:0:0:
256,192,68053,1,0,0:0:0:0:
182,192,68185,1,0,0:0:0:0:
36,192,68185,1,0,0:0:0:0:
329,192,68185,1,0,0:0:0:0:
475,192,68316,1,0,0:0:0:0:
256,192,68316,1,0,0:0:0:0:
109,192,68316,1,0,0:0:0:0:
36,192,68316,1,0,0:0:0:0:
182,192,68448,1,0,0:0:0:0:
329,192,68448,1,0,0:0:0:0:
402,192,68448,1,0,0:0:0:0:
256,192,68579,1,0,0:0:0:0:
109,192,68579,1,0,0:0:0:0:
475,192,68579,1,0,0:0:0:0:
256,192,68711,1,0,0:0:0:0:
402,192,68711,1,0,0:0:0:0:
182,192,68711,1,0,0:0:0:0:
36,192,68711,1,0,0:0:0:0:
109,192,68843,1,0,0:0:0:0:
329,192,68843,1,0,0:0:0:0:
475,192,68843,1,0,0:0:0:0:
256,192,68974,1,0,0:0:0:0:
402,192,68974,1,0,0:0:0:0:
182,192,68974,1,0,0:0:0:0:
402,192,69106,1,0,0:0:0:0:
475,192,69106,1,0,0:0:0:0:
109,192,69106,1,0,0:0:0:0:
36,192,69106,1,0,0:0:0:0:
182,192,69237,1,0,0:0:0:0:
329,192,69237,1,0,0:0:0:0:
256,192,69237,1,0,0:0:0:0:
475,192,69369,1,0,0:0:0:0:
402,192,69369,1,0,0:0:0:0:
36,192,69369,1,0,0:0:0:0:
109,192,69500,1,0,0:0:0:0:
256,192,69500,1,0,0:0:0:0:
329,192,69500,1,0,0:0:0:0:
36,192,69500,1,0,0:0:0:0:
182,192,69632,1,0,0:0:0:0:
402,192,69632,1,0,0:0:0:0:
475,192,69632,1,0,0:0:0:0:
36,192,69764,1,0,0:0:0:0:
109,192,69764,1,0,0:0:0:0:
329,192,69764,1,0,0:0:0:0:
402,192,69895,1,0,0:0:0:0:
475,192,69895,1,0,0:0:0:0:
256,192,69895,1,0,0:0:0:0:
109,192,69895,1,0,0:0:0:0:
182,192,70027,1,0,0:0:0:0:
36,192,70027,1,0,0:0:0:0:
329,192,70027,1,0,0:0:0:0:
475,192,70158,1,0,0:0:0:0:
109,192,70158,1,0,0:0:0:0:
256,192,70158,1,0,0:0:0:0:
402,192,70290,1,0,0:0:0:0:
256,192,70290,1,0,0:0:0:0:
182,192,70290,1,0,0:0:0:0:
36,192,70290,1,0,0:0:0:0:
475,192,70421,1,0,0:0:0:0:
109,192,70421,1,0,0:0:0:0:
329,192,70421,1,0,0:0:0:0:
182,192,70553,1,0,0:0:0:0:
402,192,70553,1,0,0:0:0:0:
36,192,70553,1,0,0:0:0:0:
475,192,70685,1,0,0:0:0:0:
402,192,70685,1,0,0:0:0:0:
109,192,70685,1,0,0:0:0:0:
256,192,70685,1,0,0:0:0:0:
182,192,70816,1,0,0:0:0:0:
329,192,70816,1,0,0:0:0:0:
475,192,70816,1,0,0:0:0:0:
475,192,70948,1,0,0:0:0:0:
182,192,70948,1,0,0:0:0:0:
329,192,70948,1,0,0:0:0:0:
256,192,71079,1,0,0:0:0:0:
402,192,71079,1,0,0:0:0:0:
109,192,71079,1,0,0:0:0:0:
36,192,71079,1,0,0:0:0:0:
182,192,71211,1,0,0:0:0:0:
329,192,71211,1,0,0:0:0:0:
36,192,71211,1,0,0:0:0:0:
329,192,71343,1,0,0:0:0:0:
36,192,71343,1,0,0:0:0:0:
182,192,71343,1,0,0:0:0:0:
109,192,71474,1,0,0:0:0:0:
402,192,71474,1,0,0:0:0:0:
256,192,71474,1,0,0:0:0:0:
475,192,71474,1,0,0:0:0:0:
182,192,71606,1,0,0:0:0:0:
329,192,71606,1,0,0:0:0:0:
36,192,71606,1,0,0:0:0:0:
402,192,71737,1,0,0:0:0:0:
256,192,71737,1,0,0:0:0:0:
109,192,71737,1,0,0:0:0:0:
329,192,71869,1,0,0:0:0:0:
475,192,71869,1,0,0:0:0:0:
402,192,71869,1,0,0:0:0:0:
36,192,71869,1,0,0:0:0:0:
109,192,72000,1,0,0:0:0:0:
182,192,72000,1,0,0:0:0:0:
256,192,72000,1,0,0:0:0:0:
475,192,72132,1,0,0:0:0:0:
36,192,72132,1,0,0:0:0:0:
402,192,72132,1,0,0:0:0:0:
329,192,72264,1,0,0:0:0:0:
109,192,72264,1,0,0:0:0:0:
402,192,72264,1,0,0:0:0:0:
256,192,72264,1,0,0:0:0:0:
475,192,72395,1,0,0:0:0:0:
182,192,72395,1,0,0:0:0:0:
36,192,72395,1,0,0:0:0:0:
329,192,72527,1,0,0:0:0:0:
402,192,72527,1,0,0:0:0:0:
109,192,72527,1,0,0:0:0:0:
182,192,72658,1,0,0:0:0:0:
475,192,72658,1,0,0:0:0:0:
36,192,72658,1,0,0:0:0:0:
109,192,72658,1,0,0:0:0:0:
402,192,72790,1,0,0:0:0:0:
256,192,72790,1,0,0:0:0:0:
329,192,72790,1,0,0:0:0:0:
475,192,72921,1,0,0:0:0:0:
109,192,72921,1,0,0:0:0:0:
36,192,72921,1,0,0:0:0:0:
329,192,73053,1,0,0:0:0:0:
182,192,73053,1,0,0:0:0:0:
36,192,73053,1,0,0:0:0:0:
256,192,73053,1,0,0:0:0:0:
402,192,73185,1,0,0:0:0:0:
475,192,73185,1,0,0:0:0:0:
109,192,73185,1,0,0:0:0:0:
329,192,73316,1,0,0:0:0:0:
256,192,73316,1,0,0:0:0:0:
36,192,73316,1,0,0:0:0:0:
109,192,73448,1,0,0:0:0:0:
182,192,73448,1,0,0:0:0:0:
329,192,73448,1,0,0:0:0:0:
475,192,73448,1,0,0:0:0:0:
402,192,73579,1,0,0:0:0:0:
256,192,73579,1,0,0:0:0:0:
36,192,73579,1,0,0:0:0:0:
329,192,73711,1,0,0:0:0:0:
475,192,73711,1,0,0:0:0:0:
182,192,73711,1,0,0:0:0:0:
402,192,73843,1,0,0:0:0:0:
475,192,73843,1,0,0:0:0:0:
109,192,73843,1,0,0:0:0:0:
36,192,73843,1,0,0:0:0:0:
256,192,73974,1,0,0:0:0:0:
329,192,73974,1,0,0:0:0:0:
182,192,73974,1,0,0:0:0:0:
402,192,74106,1,0,0:0:0:0:
475,192,74106,1,0,0:0:0:0:
109,192,74106,1,0,0:0:0:0:
329,192,74237,1,0,0:0:0:0:
256,192,74237,1,0,0:0:0:0:
109,192,74237,1,0,0:0:0:0:
36,192,74237,1,0,0:0:0:0:
475,192,74369,1,0,0:0:0:0:
182,192,74369,1,0,0:0:0:0:
402,192,74369,1,0,0:0:0:0:
36,192,74500,1,0,0:0:0:0:
109,192,74500,1,0,0:0:0:0:
329,192,74500,1,0,0:0:0:0:
256,192,74632,1,0,0:0:0:0:
475,192,74632,1,0,0:0:0:0:
402,192,74632,1,0,0:0:0:0:
36,192,74632,1,0,0:0:0:0:
109,192,74632,1,0,0:0:0:0:
256,192,75027,1,0,0:0:0:0:
256,192,75421,1,0,0:0:0:0:
182,192,75816,1,0,0:0:0:0:
329,192,75948,1,0,0:0:0:0:
182,192,76079,1,0,0:0:0:0:
36,192,76211,1,0,0:0:0:0:
109,192,76211,1,0,0:0:0:0:
475,192,76211,1,0,0:0:0:0:
329,192,76211,1,0,0:0:0:0:
256,192,76211,1,0,0:0:0:0:
182,192,76474,1,0,0:0:0:0:
329,192,76474,1,0,0:0:0:0:
402,192,76474,1,0,0:0:0:0:
475,192,76474,1,0,0:0:0:0:
109,192,76606,1,0,0:0:0:0:
256,192,76606,1,0,0:0:0:0:
402,192,76606,1,0,0:0:0:0:
475,192,76606,1,0,0:0:0:0:
256,192,76737,1,0,0:0:0:0:
182,192,76737,1,0,0:0:0:0:
36,192,76737,1,0,0:0:0:0:
402,192,76737,1,0,0:0:0:0:
329,192,76869,1,0,0:0:0:0:
109,192,76869,1,0,0:0:0:0:
182,192,76869,1,0,0:0:0:0:
36,192,76869,1,0,0:0:0:0:
109,192,77000,1,0,0:0:0:0:
256,192,77000,1,0,0:0:0:0:
329,192,77000,1,0,0:0:0:0:
475,192,77000,1,0,0:0:0:0:
402,192,77000,1,0,0:0:0:0:
182,192,77264,1,0,0:0:0:0:
329,192,77264,1,0,0:0:0:0:
402,192,77264,1,0,0:0:0:0:
475,192,77264,1,0,0:0:0:0:
256,192,77395,1,0,0:0:0:0:
109,192,77395,1,0,0:0:0:0:
402,192,77395,1,0,0:0:0:0:
36,192,77395,1,0,0:0:0:0:
109,192,77527,1,0,0:0:0:0:
182,192,77527,1,0,0:0:0:0:
329,192,77527,1,0,0:0:0:0:
402,192,77527,1,0,0:0:0:0:
36,192,77658,1,0,0:0:0:0:
182,192,77658,1,0,0:0:0:0:
256,192,77658,1,0,0:0:0:0:
329,192,77658,1,0,0:0:0:0:
109,192,77790,1,0,0:0:0:0:
256,192,77790,1,0,0:0:0:0:
402,192,77790,1,0,0:0:0:0:
475,192,77790,1,0,0:0:0:0:
36,192,78053,1,0,0:0:0:0:
256,192,78053,1,0,0:0:0:0:
329,192,78053,1,0,0:0:0:0:
182,192,78053,1,0,0:0:0:0:
109,192,78185,1,0,0:0:0:0:
256,192,78185,1,0,0:0:0:0:
329,192,78185,1,0,0:0:0:0:
475,192,78185,1,0,0:0:0:0:
182,192,78448,1,0,0:0:0:0:
329,192,78448,1,0,0:0:0:0:
402,192,78448,1,0,0:0:0:0:
475,192,78448,1,0,0:0:0:0:
402,192,78579,1,0,0:0:0:0:
256,192,78579,1,0,0:0:0:0:
182,192,78579,1,0,0:0:0:0:
36,192,78579,1,0,0:0:0:0:
109,192,78711,1,0,0:0:0:0:
256,192,78711,1,0,0:0:0:0:
329,192,78711,1,0,0:0:0:0:
475,192,78711,1,0,0:0:0:0:
329,192,78843,1,0,0:0:0:0:
109,192,78843,1,0,0:0:0:0:
36,192,78843,1,0,0:0:0:0:
182,192,78843,1,0,0:0:0:0:
182,192,78974,1,0,0:0:0:0:
36,192,78974,1,0,0:0:0:0:
256,192,78974,1,0,0:0:0:0:
402,192,78974,1,0,0:0:0:0:
109,192,79237,1,0,0:0:0:0:
182,192,79237,1,0,0:0:0:0:
329,192,79237,1,0,0:0:0:0:
402,192,79237,1,0,0:0:0:0:
182,192,79369,1,0,0:0:0:0:
256,192,79369,1,0,0:0:0:0:
402,192,79369,1,0,0:0:0:0:
475,192,79369,1,0,0:0:0:0:
329,192,79500,1,0,0:0:0:0:
109,192,79500,1,0,0:0:0:0:
256,192,79500,1,0,0:0:0:0:
182,192,79632,1,0,0:0:0:0:
329,192,79632,1,0,0:0:0:0:
402,192,79632,1,0,0:0:0:0:
402,192,79764,1,0,0:0:0:0:
475,192,79764,1,0,0:0:0:0:
36,192,79764,1,0,0:0:0:0:
256,192,79764,1,0,0:0:0:0:
36,192,79895,1,0,0:0:0:0:
182,192,79895,1,0,0:0:0:0:
329,192,79895,1,0,0:0:0:0:
256,192,80027,1,0,0:0:0:0:
402,192,80027,1,0,0:0:0:0:
475,192,80027,1,0,0:0:0:0:
402,192,80158,1,0,0:0:0:0:
109,192,80158,1,0,0:0:0:0:
36,192,80158,1,0,0:0:0:0:
256,192,80158,1,0,0:0:0:0:
182,192,80290,1,0,0:0:0:0:
329,192,80290,1,0,0:0:0:0:
36,192,80290,1,0,0:0:0:0:
402,192,80421,1,0,0:0:0:0:
256,192,80421,1,0,0:0:0:0:
109,192,80421,1,0,0:0:0:0:
475,192,80553,1,0,0:0:0:0:
402,192,80553,1,0,0:0:0:0:
256,192,80553,1,0,0:0:0:0:
109,192,80553,1,0,0:0:0:0:
182,192,80685,1,0,0:0:0:0:
329,192,80685,1,0,0:0:0:0:
36,192,80685,1,0,0:0:0:0:
182,192,80816,1,0,0:0:0:0:
329,192,80816,1,0,0:0:0:0:
109,192,80816,1,0,0:0:0:0:
109,192,80948,1,0,0:0:0:0:
256,192,80948,1,0,0:0:0:0:
36,192,80948,1,0,0:0:0:0:
402,192,80948,1,0,0:0:0:0:
182,192,81079,1,0,0:0:0:0:
256,192,81079,1,0,0:0:0:0:
402,192,81079,1,0,0:0:0:0:
329,192,81211,1,0,0:0:0:0:
182,192,81211,1,0,0:0:0:0:
109,192,81211,1,0,0:0:0:0:
36,192,81343,1,0,0:0:0:0:
109,192,81343,1,0,0:0:0:0:
256,192,81343,1,0,0:0:0:0:
329,192,81343,1,0,0:0:0:0:
182,192,81474,1,0,0:0:0:0:
256,192,81474,1,0,0:0:0:0:
402,192,81474,1,0,0:0:0:0:
329,192,81606,1,0,0:0:0:0:
182,192,81606,1,0,0:0:0:0:
109,192,81606,1,0,0:0:0:0:
36,192,81737,1,0,0:0:0:0:
109,192,81737,1,0,0:0:0:0:
256,192,81737,1,0,0:0:0:0:
402,192,81737,1,0,0:0:0:0:
402,192,81869,1,0,0:0:0:0:
256,192,81869,1,0,0:0:0:0:
36,192,81869,1,0,0:0:0:0:
109,192,82000,1,0,0:0:0:0:
475,192,82000,1,0,0:0:0:0:
256,192,82000,1,0,0:0:0:0:
109,192,82132,1,0,0:0:0:0:
182,192,82132,1,0,0:0:0:0:
329,192,82132,1,0,0:0:0:0:
475,192,82132,1,0,0:0:0:0:
36,192,82264,1,0,0:0:0:0:
182,192,82264,1,0,0:0:0:0:
329,192,82264,1,0,0:0:0:0:
329,192,82395,1,0,0:0:0:0:
256,192,82395,1,0,0:0:0:0:
109,192,82395,1,0,0:0:0:0:
109,192,82527,1,0,0:0:0:0:
256,192,82527,1,0,0:0:0:0:
402,192,82527,1,0,0:0:0:0:
475,192,82527,1,0,0:0:0:0:
36,192,82658,1,0,0:0:0:0:
109,192,82658,1,0,0:0:0:0:
256,192,82658,1,0,0:0:0:0:
402,192,82658,1,0,0:0:0:0:
36,192,82790,1,0,0:0:0:0:
182,192,82790,1,0,0:0:0:0:
329,192,82790,1,0,0:0:0:0:
475,192,82790,1,0,0:0:0:0:
109,192,82921,1,0,0:0:0:0:
182,192,82921,1,0,0:0:0:0:
329,192,82921,1,0,0:0:0:0:
475,192,82921,1,0,0:0:0:0:
182,192,83185,1,0,0:0:0:0:
256,192,83185,1,0,0:0:0:0:
402,192,83185,1,0,0:0:0:0:
475,192,83185,1,0,0:0:0:0:
36,192,83316,1,0,0:0:0:0:
109,192,83316,1,0,0:0:0:0:
182,192,83316,1,0,0:0:0:0:
329,192,83316,1,0,0:0:0:0:
109,192,83448,1,0,0:0:0:0:
182,192,83448,1,0,0:0:0:0:
256,192,83448,1,0,0:0:0:0:
402,192,83448,1,0,0:0:0:0:
109,192,83579,1,0,0:0:0:0:
256,192,83579,1,0,0:0:0:0:
329,192,83579,1,0,0:0:0:0:
475,192,83579,1,0,0:0:0:0:
475,192,83711,1,0,0:0:0:0:
402,192,83711,1,0,0:0:0:0:
329,192,83711,1,0,0:0:0:0:
182,192,83711,1,0,0:0:0:0:
109,192,83974,1,0,0:0:0:0:
182,192,83974,1,0,0:0:0:0:
329,192,83974,1,0,0:0:0:0:
402,192,83974,1,0,0:0:0:0:
36,192,84106,1,0,0:0:0:0:
109,192,84106,1,0,0:0:0:0:
256,192,84106,1,0,0:0:0:0:
329,192,84106,1,0,0:0:0:0:
256,192,84237,1,0,0:0:0:0:
182,192,84237,1,0,0:0:0:0:
402,192,84237,1,0,0:0:0:0:
36,192,84369,1,0,0:0:0:0:
182,192,84369,1,0,0:0:0:0:
329,192,84369,1,0,0:0:0:0:
329,192,84500,1,0,0:0:0:0:
256,192,84500,1,0,0:0:0:0:
109,192,84500,1,0,0:0:0:0:
475,192,84500,1,0,0:0:0:0:
182,192,84632,1,0,0:0:0:0:
256,192,84632,1,0,0:0:0:0:
402,192,84632,1,0,0:0:0:0:
182,192,84764,1,0,0:0:0:0:
36,192,84764,1,0,0:0:0:0:
402,192,84764,1,0,0:0:0:0:
329,192,84895,1,0,0:0:0:0:
256,192,84895,1,0,0:0:0:0:
36,192,84895,1,0,0:0:0:0:
475,192,84895,1,0,0:0:0:0:
256,192,85027,1,0,0:0:0:0:
109,192,85027,1,0,0:0:0:0:
402,192,85027,1,0,0:0:0:0:
182,192,85158,1,0,0:0:0:0:
329,192,85158,1,0,0:0:0:0:
475,192,85158,1,0,0:0:0:0:
36,192,85290,1,0,0:0:0:0:
182,192,85290,1,0,0:0:0:0:
256,192,85290,1,0,0:0:0:0:
402,192,85290,1,0,0:0:0:0:
109,192,85421,1,0,0:0:0:0:
256,192,85421,1,0,0:0:0:0:
402,192,85421,1,0,0:0:0:0:
402,192,85553,1,0,0:0:0:0:
182,192,85553,1,0,0:0:0:0:
36,192,85553,1,0,0:0:0:0:
182,192,85685,1,0,0:0:0:0:
36,192,85685,1,0,0:0:0:0:
329,192,85685,1,0,0:0:0:0:
475,192,85685,1,0,0:0:0:0:
109,192,85816,1,0,0:0:0:0:
36,192,85816,1,0,0:0:0:0:
256,192,85816,1,0,0:0:0:0:
402,192,85816,1,0,0:0:0:0:
182,192,85948,1,0,0:0:0:0:
329,192,85948,1,0,0:0:0:0:
402,192,85948,1,0,0:0:0:0:
475,192,85948,1,0,0:0:0:0:
475,192,86079,1,0,0:0:0:0:
329,192,86079,1,0,0:0:0:0:
256,192,86079,1,0,0:0:0:0:
109,192,86079,1,0,0:0:0:0:
256,192,86211,1,0,0:0:0:0:
36,192,86211,1,0,0:0:0:0:
109,192,86211,1,0,0:0:0:0:
402,192,86211,1,0,0:0:0:0:
182,192,86343,1,0,0:0:0:0:
329,192,86343,1,0,0:0:0:0:
402,192,86343,1,0,0:0:0:0:
475,192,86343,1,0,0:0:0:0:
36,192,86474,1,0,0:0:0:0:
109,192,86474,1,0,0:0:0:0:
182,192,86474,1,0,0:0:0:0:
329,192,86474,1,0,0:0:0:0:
182,192,86869,5,0,0:0:0:0:
329,192,86869,1,0,0:0:0:0:
402,192,86869,1,0,0:0:0:0:
475,192,86869,1,0,0:0:0:0:
402,192,87000,1,0,0:0:0:0:
329,192,87000,1,0,0:0:0:0:
109,192,87000,1,0,0:0:0:0:
182,192,87000,1,0,0:0:0:0:
329,192,87132,1,0,0:0:0:0:
182,192,87132,1,0,0:0:0:0:
109,192,87132,1,0,0:0:0:0:
36,192,87132,1,0,0:0:0:0:
36,192,87264,1,0,0:0:0:0:
109,192,87264,1,0,0:0:0:0:
256,192,87264,1,0,0:0:0:0:
402,192,87264,1,0,0:0:0:0:
109,192,87395,1,0,0:0:0:0:
182,192,87395,1,0,0:0:0:0:
329,192,87395,1,0,0:0:0:0:
475,192,87395,1,0,0:0:0:0:
256,192,87527,1,0,0:0:0:0:
182,192,87527,1,0,0:0:0:0:
402,192,87527,1,0,0:0:0:0:
36,192,87527,1,0,0:0:0:0:
256,192,87658,1,0,0:0:0:0:
329,192,87658,1,0,0:0:0:0:
475,192,87658,1,0,0:0:0:0:
36,192,87658,1,0,0:0:0:0:
109,192,87790,1,0,0:0:0:0:
182,192,87856,1,0,0:0:0:0:
256,192,87921,1,0,0:0:0:0:
329,192,87987,1,0,0:0:0:0:
109,192,88053,1,0,0:0:0:0:
475,192,88053,1,0,0:0:0:0:
36,192,88053,1,0,0:0:0:0:
402,192,88119,1,0,0:0:0:0:
329,192,88185,1,0,0:0:0:0:
256,192,88250,1,0,0:0:0:0:
182,192,88316,1,0,0:0:0:0:
109,192,88382,1,0,0:0:0:0:
256,192,88448,1,0,0:0:0:0:
402,192,88448,1,0,0:0:0:0:
36,192,88448,1,0,0:0:0:0:
475,192,88448,1,0,0:0:0:0:
475,192,88579,1,0,0:0:0:0:
329,192,88579,1,0,0:0:0:0:
36,192,88579,1,0,0:0:0:0:
182,192,88579,1,0,0:0:0:0:
402,192,88711,1,0,0:0:0:0:
329,192,88711,1,0,0:0:0:0:
182,192,88711,1,0,0:0:0:0:
109,192,88711,1,0,0:0:0:0:
36,192,88843,5,0,0:0:0:0:
109,192,88843,1,0,0:0:0:0:
475,192,88843,1,0,0:0:0:0:
402,192,88843,1,0,0:0:0:0:
256,192,88843,1,0,0:0:0:0:
182,192,89106,1,0,0:0:0:0:
329,192,89106,1,0,0:0:0:0:
475,192,89106,1,0,0:0:0:0:
109,192,89237,1,0,0:0:0:0:
402,192,89237,1,0,0:0:0:0:
475,192,89237,1,0,0:0:0:0:
256,192,89237,1,0,0:0:0:0:
36,192,89237,1,0,0:0:0:0:
36,192,89369,1,0,0:0:0:0:
182,192,89369,1,0,0:0:0:0:
329,192,89369,1,0,0:0:0:0:
109,192,89500,1,0,0:0:0:0:
256,192,89500,1,0,0:0:0:0:
402,192,89500,1,0,0:0:0:0:
329,192,89632,1,0,0:0:0:0:
182,192,89632,1,0,0:0:0:0:
475,192,89632,1,0,0:0:0:0:
36,192,89632,1,0,0:0:0:0:
329,192,89764,1,0,0:0:0:0:
475,192,89764,1,0,0:0:0:0:
109,192,89895,1,0,0:0:0:0:
256,192,89895,1,0,0:0:0:0:
402,192,89895,1,0,0:0:0:0:
36,192,90027,1,0,0:0:0:0:
329,192,90027,1,0,0:0:0:0:
182,192,90027,1,0,0:0:0:0:
475,192,90027,1,0,0:0:0:0:
109,192,90027,1,0,0:0:0:0:
256,192,90158,1,0,0:0:0:0:
475,192,90158,1,0,0:0:0:0:
402,192,90158,1,0,0:0:0:0:
182,192,90290,1,0,0:0:0:0:
329,192,90290,1,0,0:0:0:0:
402,192,90290,1,0,0:0:0:0:
475,192,90421,1,0,0:0:0:0:
109,192,90421,1,0,0:0:0:0:
256,192,90421,1,0,0:0:0:0:
36,192,90421,1,0,0:0:0:0:
109,192,90553,1,0,0:0:0:0:
36,192,90553,1,0,0:0:0:0:
402,192,90553,1,0,0:0:0:0:
475,192,90685,1,0,0:0:0:0:
182,192,90685,1,0,0:0:0:0:
329,192,90685,1,0,0:0:0:0:
36,192,90816,1,0,0:0:0:0:
109,192,90816,1,0,0:0:0:0:
329,192,90816,1,0,0:0:0:0:
475,192,90816,1,0,0:0:0:0:
256,192,90816,1,0,0:0:0:0:
36,192,90948,1,0,0:0:0:0:
402,192,90948,1,0,0:0:0:0:
109,192,90948,1,0,0:0:0:0:
329,192,91079,1,0,0:0:0:0:
475,192,91079,1,0,0:0:0:0:
182,192,91079,1,0,0:0:0:0:
36,192,91211,1,0,0:0:0:0:
402,192,91211,1,0,0:0:0:0:
109,192,91211,1,0,0:0:0:0:
256,192,91211,1,0,0:0:0:0:
329,192,91343,1,0,0:0:0:0:
182,192,91343,1,0,0:0:0:0:
475,192,91343,1,0,0:0:0:0:
109,192,91474,1,0,0:0:0:0:
256,192,91474,1,0,0:0:0:0:
402,192,91474,1,0,0:0:0:0:
36,192,91606,1,0,0:0:0:0:
329,192,91606,1,0,0:0:0:0:
475,192,91606,1,0,0:0:0:0:
182,192,91606,1,0,0:0:0:0:
402,192,91606,1,0,0:0:0:0:
182,192,91737,1,0,0:0:0:0:
329,192,91737,1,0,0:0:0:0:
36,192,91869,1,0,0:0:0:0:
475,192,91869,1,0,0:0:0:0:
256,192,91869,1,0,0:0:0:0:
109,192,91869,1,0,0:0:0:0:
36,192,92000,1,0,0:0:0:0:
475,192,92000,1,0,0:0:0:0:
256,192,92000,1,0,0:0:0:0:
109,192,92000,1,0,0:0:0:0:
182,192,92132,1,0,0:0:0:0:
36,192,92132,1,0,0:0:0:0:
329,192,92132,1,0,0:0:0:0:
109,192,92264,1,0,0:0:0:0:
256,192,92264,1,0,0:0:0:0:
402,192,92264,1,0,0:0:0:0:
36,192,92395,1,0,0:0:0:0:
109,192,92395,1,0,0:0:0:0:
182,192,92395,1,0,0:0:0:0:
475,192,92395,1,0,0:0:0:0:
329,192,92395,1,0,0:0:0:0:
256,192,92527,1,0,0:0:0:0:
402,192,92527,1,0,0:0:0:0:
109,192,92527,1,0,0:0:0:0:
475,192,92658,1,0,0:0:0:0:
329,192,92658,1,0,0:0:0:0:
182,192,92658,1,0,0:0:0:0:
402,192,92790,1,0,0:0:0:0:
256,192,92790,1,0,0:0:0:0:
109,192,92790,1,0,0:0:0:0:
36,192,92790,1,0,0:0:0:0:
36,192,92921,1,0,0:0:0:0:
182,192,92921,1,0,0:0:0:0:
329,192,92921,1,0,0:0:0:0:
109,192,93053,1,0,0:0:0:0:
256,192,93053,1,0,0:0:0:0:
402,192,93053,1,0,0:0:0:0:
475,192,93185,1,0,0:0:0:0:
329,192,93185,1,0,0:0:0:0:
182,192,93185,1,0,0:0:0:0:
402,192,93185,1,0,0:0:0:0:
36,192,93185,1,0,0:0:0:0:
109,192,93316,1,0,0:0:0:0:
256,192,93316,1,0,0:0:0:0:
475,192,93316,1,0,0:0:0:0:
36,192,93448,1,0,0:0:0:0:
182,192,93448,1,0,0:0:0:0:
402,192,93448,1,0,0:0:0:0:
36,192,93579,1,0,0:0:0:0:
256,192,93579,1,0,0:0:0:0:
109,192,93579,1,0,0:0:0:0:
475,192,93579,1,0,0:0:0:0:
182,192,93711,1,0,0:0:0:0:
329,192,93711,1,0,0:0:0:0:
402,192,93711,1,0,0:0:0:0:
402,192,93843,1,0,0:0:0:0:
182,192,93843,1,0,0:0:0:0:
329,192,93843,1,0,0:0:0:0:
36,192,93974,1,0,0:0:0:0:
109,192,93974,1,0,0:0:0:0:
402,192,93974,1,0,0:0:0:0:
475,192,93974,1,0,0:0:0:0:
256,192,93974,1,0,0:0:0:0:
329,192,94106,1,0,0:0:0:0:
182,192,94106,1,0,0:0:0:0:
109,192,94106,1,0,0:0:0:0:
182,192,94237,1,0,0:0:0:0:
109,192,94237,1,0,0:0:0:0:
329,192,94237,1,0,0:0:0:0:
36,192,94369,1,0,0:0:0:0:
402,192,94369,1,0,0:0:0:0:
256,192,94369,1,0,0:0:0:0:
475,192,94369,1,0,0:0:0:0:
36,192,94500,1,0,0:0:0:0:
475,192,94500,1,0,0:0:0:0:
329,192,94500,1,0,0:0:0:0:
182,192,94500,1,0,0:0:0:0:
402,192,94632,1,0,0:0:0:0:
109,192,94632,1,0,0:0:0:0:
256,192,94632,1,0,0:0:0:0:
36,192,94764,1,0,0:0:0:0:
182,192,94764,1,0,0:0:0:0:
329,192,94764,1,0,0:0:0:0:
475,192,94764,1,0,0:0:0:0:
256,192,94764,1,0,0:0:0:0:
109,192,94895,1,0,0:0:0:0:
256,192,94895,1,0,0:0:0:0:
36,192,94895,1,0,0:0:0:0:
402,192,94895,1,0,0:0:0:0:
475,192,95027,1,0,0:0:0:0:
329,192,95027,1,0,0:0:0:0:
109,192,95027,1,0,0:0:0:0:
182,192,95027,1,0,0:0:0:0:
36,192,95158,1,0,0:0:0:0:
109,192,95158,1,0,0:0:0:0:
402,192,95158,1,0,0:0:0:0:
256,192,95158,1,0,0:0:0:0:
182,192,95290,1,0,0:0:0:0:
329,192,95290,1,0,0:0:0:0:
182,192,95421,1,0,0:0:0:0:
329,192,95421,1,0,0:0:0:0:
256,192,95553,1,0,0:0:0:0:
402,192,95553,1,0,0:0:0:0:
475,192,95553,1,0,0:0:0:0:
36,192,95553,1,0,0:0:0:0:
109,192,95553,1,0,0:0:0:0:
182,192,95685,1,0,0:0:0:0:
329,192,95685,1,0,0:0:0:0:
182,192,95816,1,0,0:0:0:0:
329,192,95816,1,0,0:0:0:0:
256,192,95948,1,0,0:0:0:0:
402,192,95948,1,0,0:0:0:0:
475,192,95948,1,0,0:0:0:0:
109,192,95948,1,0,0:0:0:0:
182,192,96079,1,0,0:0:0:0:
329,192,96079,1,0,0:0:0:0:
402,192,96079,1,0,0:0:0:0:
109,192,96211,1,0,0:0:0:0:
329,192,96211,1,0,0:0:0:0:
256,192,96211,1,0,0:0:0:0:
475,192,96343,1,0,0:0:0:0:
402,192,96343,1,0,0:0:0:0:
182,192,96343,1,0,0:0:0:0:
256,192,96343,1,0,0:0:0:0:
36,192,96343,1,0,0:0:0:0:
329,192,96474,1,0,0:0:0:0:
475,192,96474,1,0,0:0:0:0:
329,192,96606,1,0,0:0:0:0:
475,192,96606,1,0,0:0:0:0:
475,192,96737,1,0,0:0:0:0:
329,192,96737,1,0,0:0:0:0:
256,192,96737,1,0,0:0:0:0:
109,192,96737,1,0,0:0:0:0:
182,192,96869,1,0,0:0:0:0:
36,192,96869,1,0,0:0:0:0:
402,192,96869,1,0,0:0:0:0:
182,192,97000,1,0,0:0:0:0:
36,192,97000,1,0,0:0:0:0:
402,192,97000,1,0,0:0:0:0:
475,192,97132,1,0,0:0:0:0:
182,192,97132,1,0,0:0:0:0:
109,192,97132,1,0,0:0:0:0:
329,192,97132,1,0,0:0:0:0:
36,192,97132,1,0,0:0:0:0:
402,192,97264,1,0,0:0:0:0:
109,192,97264,1,0,0:0:0:0:
256,192,97264,1,0,0:0:0:0:
182,192,97395,1,0,0:0:0:0:
329,192,97395,1,0,0:0:0:0:
36,192,97395,1,0,0:0:0:0:
109,192,97527,1,0,0:0:0:0:
256,192,97527,1,0,0:0:0:0:
402,192,97527,1,0,0:0:0:0:
36,192,97527,1,0,0:0:0:0:
182,192,97658,1,0,0:0:0:0:
329,192,97658,1,0,0:0:0:0:
329,192,97790,1,0,0:0:0:0:
182,192,97790,1,0,0:0:0:0:
36,192,97921,1,0,0:0:0:0:
256,192,97921,1,0,0:0:0:0:
475,192,97921,1,0,0:0:0:0:
402,192,97921,1,0,0:0:0:0:
109,192,97921,1,0,0:0:0:0:
329,192,98053,1,0,0:0:0:0:
182,192,98053,1,0,0:0:0:0:
109,192,98185,1,0,0:0:0:0:
36,192,98185,1,0,0:0:0:0:
256,192,98185,1,0,0:0:0:0:
475,192,98185,1,0,0:0:0:0:
402,192,98185,1,0,0:0:0:0:
109,192,98316,1,0,0:0:0:0:
256,192,98316,1,0,0:0:0:0:
329,192,98448,1,0,0:0:0:0:
402,192,98448,1,0,0:0:0:0:
182,192,98448,1,0,0:0:0:0:
36,192,98448,1,0,0:0:0:0:
475,192,98448,1,0,0:0:0:0:
329,192,98579,1,0,0:0:0:0:
475,192,98579,1,0,0:0:0:0:
475,192,98711,1,0,0:0:0:0:
329,192,98711,1,0,0:0:0:0:
182,192,98711,1,0,0:0:0:0:
36,192,98711,1,0,0:0:0:0:
109,192,98711,1,0,0:0:0:0:
182,192,98843,1,0,0:0:0:0:
36,192,98843,1,0,0:0:0:0:
475,192,98974,1,0,0:0:0:0:
402,192,98974,1,0,0:0:0:0:
36,192,98974,1,0,0:0:0:0:
256,192,98974,1,0,0:0:0:0:
109,192,98974,1,0,0:0:0:0:
475,192,99106,1,0,0:0:0:0:
402,192,99106,1,0,0:0:0:0:
475,192,99237,1,0,0:0:0:0:
329,192,99237,1,0,0:0:0:0:
109,192,99237,1,0,0:0:0:0:
36,192,99237,1,0,0:0:0:0:
182,192,99237,1,0,0:0:0:0:
36,192,99369,1,0,0:0:0:0:
109,192,99369,1,0,0:0:0:0:
402,192,99500,1,0,0:0:0:0:
329,192,99500,1,0,0:0:0:0:
475,192,99500,1,0,0:0:0:0:
182,192,99500,1,0,0:0:0:0:
36,192,99500,1,0,0:0:0:0:
475,192,99632,1,0,0:0:0:0:
402,192,99632,1,0,0:0:0:0:
329,192,99764,1,0,0:0:0:0:
182,192,99764,1,0,0:0:0:0:
36,192,99764,1,0,0:0:0:0:
475,192,99764,1,0,0:0:0:0:
475,192,99895,1,0,0:0:0:0:
36,192,99895,1,0,0:0:0:0:
402,192,99895,1,0,0:0:0:0:
109,192,99895,1,0,0:0:0:0:
329,192,100027,1,0,0:0:0:0:
182,192,100027,1,0,0:0:0:0:
36,192,100027,1,0,0:0:0:0:
475,192,100027,1,0,0:0:0:0:
256,192,100158,1,0,0:0:0:0:
402,192,100158,1,0,0:0:0:0:
475,192,100158,1,0,0:0:0:0:
36,192,100158,1,0,0:0:0:0:
329,192,100290,1,0,0:0:0:0:
182,192,100290,1,0,0:0:0:0:
36,192,100290,1,0,0:0:0:0:
475,192,100290,1,0,0:0:0:0:
109,192,100421,1,0,0:0:0:0:
256,192,100421,1,0,0:0:0:0:
475,192,100421,1,0,0:0:0:0:
36,192,100421,1,0,0:0:0:0:
329,192,100553,1,0,0:0:0:0:
182,192,100553,1,0,0:0:0:0:
36,192,100553,1,0,0:0:0:0:
475,192,100553,1,0,0:0:0:0:
475,192,100685,1,0,0:0:0:0:
329,192,100685,1,0,0:0:0:0:
182,192,100750,1,0,0:0:0:0:
36,192,100750,1,0,0:0:0:0:
475,192,100816,1,0,0:0:0:0:
329,192,100816,1,0,0:0:0:0:
182,192,100882,1,0,0:0:0:0:
36,192,100882,1,0,0:0:0:0:
475,192,100948,1,0,0:0:0:0:
329,192,100948,1,0,0:0:0:0:
182,192,101014,1,0,0:0:0:0:
36,192,101014,1,0,0:0:0:0:
475,192,101079,1,0,0:0:0:0:
329,192,101079,1,0,0:0:0:0:
182,192,101145,1,0,0:0:0:0:
36,192,101145,1,0,0:0:0:0:
475,192,101211,1,0,0:0:0:0:
329,192,101211,1,0,0:0:0:0:
182,192,101277,1,0,0:0:0:0:
36,192,101277,1,0,0:0:0:0:
329,192,101343,1,0,0:0:0:0:
475,192,101343,1,0,0:0:0:0:
182,192,101408,1,0,0:0:0:0:
36,192,101408,1,0,0:0:0:0:
475,192,101474,1,0,0:0:0:0:
109,192,101474,1,0,0:0:0:0:
329,192,101474,1,0,0:0:0:0:
256,192,101474,1,0,0:0:0:0:
402,192,101606,1,0,0:0:0:0:
182,192,101606,1,0,0:0:0:0:
36,192,101606,1,0,0:0:0:0:
402,192,101737,1,0,0:0:0:0:
182,192,101737,1,0,0:0:0:0:
36,192,101737,1,0,0:0:0:0:
256,192,101869,1,0,0:0:0:0:
402,192,101869,1,0,0:0:0:0:
109,192,101869,1,0,0:0:0:0:
182,192,102000,1,0,0:0:0:0:
402,192,102000,1,0,0:0:0:0:
36,192,102000,1,0,0:0:0:0:
182,192,102132,1,0,0:0:0:0:
402,192,102132,1,0,0:0:0:0:
36,192,102132,1,0,0:0:0:0:
256,192,102264,1,0,0:0:0:0:
109,192,102264,1,0,0:0:0:0:
475,192,102264,1,0,0:0:0:0:
182,192,102395,1,0,0:0:0:0:
329,192,102395,1,0,0:0:0:0:
36,192,102395,1,0,0:0:0:0:
109,192,102527,1,0,0:0:0:0:
256,192,102527,1,0,0:0:0:0:
402,192,102527,1,0,0:0:0:0:
475,192,102658,1,0,0:0:0:0:
329,192,102658,1,0,0:0:0:0:
182,192,102658,1,0,0:0:0:0:
109,192,102790,1,0,0:0:0:0:
36,192,102790,1,0,0:0:0:0:
256,192,102790,1,0,0:0:0:0:
329,192,102921,1,0,0:0:0:0:
182,192,102921,1,0,0:0:0:0:
475,192,102921,1,0,0:0:0:0:
402,192,103053,1,0,0:0:0:0:
256,192,103053,1,0,0:0:0:0:
109,192,103053,1,0,0:0:0:0:
109,192,103185,1,0,0:0:0:0:
256,192,103185,1,0,0:0:0:0:
402,192,103185,1,0,0:0:0:0:
109,192,103316,1,0,0:0:0:0:
329,192,103316,1,0,0:0:0:0:
475,192,103316,1,0,0:0:0:0:
109,192,103448,1,0,0:0:0:0:
329,192,103448,1,0,0:0:0:0:
475,192,103448,1,0,0:0:0:0:
256,192,103579,1,0,0:0:0:0:
109,192,103579,1,0,0:0:0:0:
36,192,103579,1,0,0:0:0:0:
109,192,103711,1,0,0:0:0:0:
475,192,103711,1,0,0:0:0:0:
329,192,103711,1,0,0:0:0:0:
402,192,103843,1,0,0:0:0:0:
256,192,103843,1,0,0:0:0:0:
109,192,103843,1,0,0:0:0:0:
256,192,103974,1,0,0:0:0:0:
402,192,103974,1,0,0:0:0:0:
329,192,104106,1,0,0:0:0:0:
182,192,104106,1,0,0:0:0:0:
475,192,104106,1,0,0:0:0:0:
182,192,104237,1,0,0:0:0:0:
329,192,104237,1,0,0:0:0:0:
109,192,104369,1,0,0:0:0:0:
256,192,104369,1,0,0:0:0:0:
402,192,104369,1,0,0:0:0:0:
329,192,104500,1,0,0:0:0:0:
182,192,104500,1,0,0:0:0:0:
36,192,104500,1,0,0:0:0:0:
256,192,104632,1,0,0:0:0:0:
475,192,104632,1,0,0:0:0:0:
36,192,104632,1,0,0:0:0:0:
329,192,104764,1,0,0:0:0:0:
182,192,104764,1,0,0:0:0:0:
109,192,104764,1,0,0:0:0:0:
329,192,104895,1,0,0:0:0:0:
182,192,104895,1,0,0:0:0:0:
109,192,104895,1,0,0:0:0:0:
36,192,105027,1,0,0:0:0:0:
329,192,105027,1,0,0:0:0:0:
475,192,105027,1,0,0:0:0:0:
329,192,105158,1,0,0:0:0:0:
402,192,105158,1,0,0:0:0:0:
182,192,105158,1,0,0:0:0:0:
182,192,105290,1,0,0:0:0:0:
329,192,105290,1,0,0:0:0:0:
402,192,105290,1,0,0:0:0:0:
36,192,105421,1,0,0:0:0:0:
109,192,105421,1,0,0:0:0:0:
329,192,105421,1,0,0:0:0:0:
402,192,105553,1,0,0:0:0:0:
182,192,105553,1,0,0:0:0:0:
475,192,105553,1,0,0:0:0:0:
109,192,105685,1,0,0:0:0:0:
36,192,105685,1,0,0:0:0:0:
329,192,105685,1,0,0:0:0:0:
475,192,105816,1,0,0:0:0:0:
402,192,105816,1,0,0:0:0:0:
256,192,105816,1,0,0:0:0:0:
36,192,105948,1,0,0:0:0:0:
109,192,105948,1,0,0:0:0:0:
329,192,105948,1,0,0:0:0:0:
402,192,106079,1,0,0:0:0:0:
475,192,106079,1,0,0:0:0:0:
182,192,106079,1,0,0:0:0:0:
109,192,106211,1,0,0:0:0:0:
256,192,106211,1,0,0:0:0:0:
329,192,106211,1,0,0:0:0:0:
109,192,106343,1,0,0:0:0:0:
329,192,106343,1,0,0:0:0:0:
109,192,106474,1,0,0:0:0:0:
402,192,106474,1,0,0:0:0:0:
256,192,106474,1,0,0:0:0:0:
109,192,106606,1,0,0:0:0:0:
402,192,106606,1,0,0:0:0:0:
109,192,106737,1,0,0:0:0:0:
256,192,106737,1,0,0:0:0:0:
475,192,106737,1,0,0:0:0:0:
109,192,106869,1,0,0:0:0:0:
329,192,106869,1,0,0:0:0:0:
109,192,107000,1,0,0:0:0:0:
402,192,107000,1,0,0:0:0:0:
256,192,107000,1,0,0:0:0:0:
182,192,107132,1,0,0:0:0:0:
402,192,107132,1,0,0:0:0:0:
329,192,107264,1,0,0:0:0:0:
109,192,107264,1,0,0:0:0:0:
256,192,107264,1,0,0:0:0:0:
329,192,107395,1,0,0:0:0:0:
109,192,107395,1,0,0:0:0:0:
36,192,107527,1,0,0:0:0:0:
182,192,107527,1,0,0:0:0:0:
402,192,107527,1,0,0:0:0:0:
109,192,107658,1,0,0:0:0:0:
256,192,107658,1,0,0:0:0:0:
475,192,107658,1,0,0:0:0:0:
329,192,107790,1,0,0:0:0:0:
182,192,107790,1,0,0:0:0:0:
402,192,107790,1,0,0:0:0:0:
109,192,107921,1,0,0:0:0:0:
256,192,107921,1,0,0:0:0:0:
475,192,107921,1,0,0:0:0:0:
256,192,108053,1,0,0:0:0:0:
109,192,108053,1,0,0:0:0:0:
475,192,108053,1,0,0:0:0:0:
36,192,108185,1,0,0:0:0:0:
182,192,108185,1,0,0:0:0:0:
475,192,108185,1,0,0:0:0:0:
182,192,108316,1,0,0:0:0:0:
36,192,108316,1,0,0:0:0:0:
475,192,108316,1,0,0:0:0:0:
256,192,108448,1,0,0:0:0:0:
475,192,108448,1,0,0:0:0:0:
109,192,108448,1,0,0:0:0:0:
182,192,108579,1,0,0:0:0:0:
36,192,108579,1,0,0:0:0:0:
475,192,108579,1,0,0:0:0:0:
256,192,108711,1,0,0:0:0:0:
109,192,108711,1,0,0:0:0:0:
402,192,108711,1,0,0:0:0:0:
109,192,108843,1,0,0:0:0:0:
36,192,108843,1,0,0:0:0:0:
329,192,108843,1,0,0:0:0:0:
182,192,108974,1,0,0:0:0:0:
402,192,108974,1,0,0:0:0:0:
475,192,108974,1,0,0:0:0:0:
256,192,109106,1,0,0:0:0:0:
109,192,109106,1,0,0:0:0:0:
36,192,109106,1,0,0:0:0:0:
182,192,109237,1,0,0:0:0:0:
329,192,109237,1,0,0:0:0:0:
402,192,109237,1,0,0:0:0:0:
256,192,109369,1,0,0:0:0:0:
109,192,109369,1,0,0:0:0:0:
475,192,109369,1,0,0:0:0:0:
109,192,109500,1,0,0:0:0:0:
256,192,109500,1,0,0:0:0:0:
182,192,109632,1,0,0:0:0:0:
256,192,109632,1,0,0:0:0:0:
402,192,109632,1,0,0:0:0:0:
182,192,109764,1,0,0:0:0:0:
256,192,109764,1,0,0:0:0:0:
256,192,109895,1,0,0:0:0:0:
402,192,109895,1,0,0:0:0:0:
109,192,109895,1,0,0:0:0:0:
256,192,110027,1,0,0:0:0:0:
402,192,110027,1,0,0:0:0:0:
36,192,110158,1,0,0:0:0:0:
182,192,110158,1,0,0:0:0:0:
329,192,110158,1,0,0:0:0:0:
109,192,110290,1,0,0:0:0:0:
256,192,110290,1,0,0:0:0:0:
402,192,110290,1,0,0:0:0:0:
182,192,110421,1,0,0:0:0:0:
329,192,110421,1,0,0:0:0:0:
475,192,110421,1,0,0:0:0:0:
402,192,110553,1,0,0:0:0:0:
256,192,110553,1,0,0:0:0:0:
109,192,110553,1,0,0:0:0:0:
329,192,110685,1,0,0:0:0:0:
182,192,110685,1,0,0:0:0:0:
36,192,110685,1,0,0:0:0:0:
402,192,110816,1,0,0:0:0:0:
256,192,110816,1,0,0:0:0:0:
475,192,110816,1,0,0:0:0:0:
182,192,110948,1,0,0:0:0:0:
36,192,110948,1,0,0:0:0:0:
329,192,110948,1,0,0:0:0:0:
36,192,111079,1,0,0:0:0:0:
256,192,111079,1,0,0:0:0:0:
475,192,111079,1,0,0:0:0:0:
36,192,111211,1,0,0:0:0:0:
256,192,111211,1,0,0:0:0:0:
475,192,111211,1,0,0:0:0:0:
36,192,111343,1,0,0:0:0:0:
402,192,111343,1,0,0:0:0:0:
329,192,111343,1,0,0:0:0:0:
256,192,111474,1,0,0:0:0:0:
36,192,111474,1,0,0:0:0:0:
402,192,111474,1,0,0:0:0:0:
36,192,111606,1,0,0:0:0:0:
256,192,111606,1,0,0:0:0:0:
402,192,111606,1,0,0:0:0:0:
475,192,111737,1,0,0:0:0:0:
329,192,111737,1,0,0:0:0:0:
182,192,111737,1,0,0:0:0:0:
256,192,111869,1,0,0:0:0:0:
402,192,111869,1,0,0:0:0:0:
109,192,111869,1,0,0:0:0:0:
36,192,112000,1,0,0:0:0:0:
182,192,112000,1,0,0:0:0:0:
329,192,112000,1,0,0:0:0:0:
402,192,112132,1,0,0:0:0:0:
475,192,112132,1,0,0:0:0:0:
109,192,112132,1,0,0:0:0:0:
329,192,112264,1,0,0:0:0:0:
256,192,112264,1,0,0:0:0:0:
182,192,112264,1,0,0:0:0:0:
36,192,112395,1,0,0:0:0:0:
109,192,112395,1,0,0:0:0:0:
402,192,112395,1,0,0:0:0:0:
475,192,112527,1,0,0:0:0:0:
329,192,112527,1,0,0:0:0:0:
182,192,112527,1,0,0:0:0:0:
182,192,112658,1,0,0:0:0:0:
329,192,112658,1,0,0:0:0:0:
256,192,112790,1,0,0:0:0:0:
109,192,112790,1,0,0:0:0:0:
329,192,112790,1,0,0:0:0:0:
329,192,112921,1,0,0:0:0:0:
402,192,112921,1,0,0:0:0:0:
36,192,113053,1,0,0:0:0:0:
182,192,113053,1,0,0:0:0:0:
329,192,113053,1,0,0:0:0:0:
329,192,113185,1,0,0:0:0:0:
256,192,113185,1,0,0:0:0:0:
109,192,113185,1,0,0:0:0:0:
329,192,113316,1,0,0:0:0:0:
475,192,113316,1,0,0:0:0:0:
182,192,113316,1,0,0:0:0:0:
36,192,113448,1,0,0:0:0:0:
109,192,113448,1,0,0:0:0:0:
256,192,113448,1,0,0:0:0:0:
182,192,113579,1,0,0:0:0:0:
402,192,113579,1,0,0:0:0:0:
475,192,113579,1,0,0:0:0:0:
329,192,113711,1,0,0:0:0:0:
36,192,113711,1,0,0:0:0:0:
109,192,113777,1,0,0:0:0:0:
182,192,113843,1,0,0:0:0:0:
256,192,113908,1,0,0:0:0:0:
329,192,113974,1,0,0:0:0:0:
402,192,114040,1,0,0:0:0:0:
36,192,114106,1,0,0:0:0:0:
182,192,114106,1,0,0:0:0:0:
475,192,114106,1,0,0:0:0:0:
109,192,114106,1,0,0:0:0:0:
109,192,114237,1,0,0:0:0:0:
329,192,114237,1,0,0:0:0:0:
475,192,114237,1,0,0:0:0:0:
329,192,114369,1,0,0:0:0:0:
475,192,114369,1,0,0:0:0:0:
109,192,114369,1,0,0:0:0:0:
256,192,114500,1,0,0:0:0:0:
475,192,114500,1,0,0:0:0:0:
36,192,114500,1,0,0:0:0:0:
402,192,114632,1,0,0:0:0:0:
182,192,114632,1,0,0:0:0:0:
36,192,114632,1,0,0:0:0:0:
36,192,114764,1,0,0:0:0:0:
182,192,114764,1,0,0:0:0:0:
402,192,114764,1,0,0:0:0:0:
475,192,114895,1,0,0:0:0:0:
109,192,114895,1,0,0:0:0:0:
256,192,114895,1,0,0:0:0:0:
182,192,115027,1,0,0:0:0:0:
329,192,115027,1,0,0:0:0:0:
475,192,115027,1,0,0:0:0:0:
182,192,115158,1,0,0:0:0:0:
329,192,115158,1,0,0:0:0:0:
475,192,115158,1,0,0:0:0:0:
256,192,115290,1,0,0:0:0:0:
36,192,115290,1,0,0:0:0:0:
402,192,115290,1,0,0:0:0:0:
36,192,115421,1,0,0:0:0:0:
182,192,115421,1,0,0:0:0:0:
329,192,115421,1,0,0:0:0:0:
329,192,115553,1,0,0:0:0:0:
182,192,115553,1,0,0:0:0:0:
36,192,115553,1,0,0:0:0:0:
402,192,115685,1,0,0:0:0:0:
256,192,115685,1,0,0:0:0:0:
109,192,115685,1,0,0:0:0:0:
256,192,115816,1,0,0:0:0:0:
109,192,115816,1,0,0:0:0:0:
182,192,115948,1,0,0:0:0:0:
329,192,115948,1,0,0:0:0:0:
475,192,115948,1,0,0:0:0:0:
182,192,116079,1,0,0:0:0:0:
329,192,116079,1,0,0:0:0:0:
256,192,116211,1,0,0:0:0:0:
109,192,116211,1,0,0:0:0:0:
36,192,116211,1,0,0:0:0:0:
182,192,116343,1,0,0:0:0:0:
329,192,116343,1,0,0:0:0:0:
475,192,116343,1,0,0:0:0:0:
402,192,116474,1,0,0:0:0:0:
256,192,116474,1,0,0:0:0:0:
109,192,116474,1,0,0:0:0:0:
36,192,116606,1,0,0:0:0:0:
182,192,116606,1,0,0:0:0:0:
329,192,116606,1,0,0:0:0:0:
402,192,116737,1,0,0:0:0:0:
475,192,116737,1,0,0:0:0:0:
256,192,116737,1,0,0:0:0:0:
36,192,116869,1,0,0:0:0:0:
182,192,116869,1,0,0:0:0:0:
329,192,116869,1,0,0:0:0:0:
109,192,117000,1,0,0:0:0:0:
256,192,117000,1,0,0:0:0:0:
402,192,117000,1,0,0:0:0:0:
182,192,117132,1,0,0:0:0:0:
329,192,117132,1,0,0:0:0:0:
475,192,117132,1,0,0:0:0:0:
109,192,117264,1,0,0:0:0:0:
256,192,117264,1,0,0:0:0:0:
402,192,117264,1,0,0:0:0:0:
402,192,117395,1,0,0:0:0:0:
256,192,117395,1,0,0:0:0:0:
109,192,117395,1,0,0:0:0:0:
329,192,117527,1,0,0:0:0:0:
182,192,117527,1,0,0:0:0:0:
36,192,117527,1,0,0:0:0:0:
329,192,117658,1,0,0:0:0:0:
182,192,117658,1,0,0:0:0:0:
36,192,117658,1,0,0:0:0:0:
109,192,117790,1,0,0:0:0:0:
256,192,117790,1,0,0:0:0:0:
475,192,117790,1,0,0:0:0:0:
402,192,117921,1,0,0:0:0:0:
182,192,117921,1,0,0:0:0:0:
36,192,117921,1,0,0:0:0:0:
329,192,118053,1,0,0:0:0:0:
475,192,118053,1,0,0:0:0:0:
109,192,118053,1,0,0:0:0:0:
182,192,118185,1,0,0:0:0:0:
402,192,118185,1,0,0:0:0:0:
36,192,118185,1,0,0:0:0:0:
256,192,118316,1,0,0:0:0:0:
109,192,118316,1,0,0:0:0:0:
475,192,118316,1,0,0:0:0:0:
329,192,118448,1,0,0:0:0:0:
182,192,118448,1,0,0:0:0:0:
36,192,118448,1,0,0:0:0:0:
402,192,118579,1,0,0:0:0:0:
256,192,118579,1,0,0:0:0:0:
109,192,118579,1,0,0:0:0:0:
182,192,118711,1,0,0:0:0:0:
329,192,118711,1,0,0:0:0:0:
475,192,118711,1,0,0:0:0:0:
402,192,118843,1,0,0:0:0:0:
109,192,118843,1,0,0:0:0:0:
256,192,118843,1,0,0:0:0:0:
402,192,118974,1,0,0:0:0:0:
109,192,118974,1,0,0:0:0:0:
329,192,119106,1,0,0:0:0:0:
182,192,119106,1,0,0:0:0:0:
36,192,119106,1,0,0:0:0:0:
182,192,119237,1,0,0:0:0:0:
329,192,119237,1,0,0:0:0:0:
109,192,119369,1,0,0:0:0:0:
256,192,119369,1,0,0:0:0:0:
402,192,119369,1,0,0:0:0:0:
109,192,119500,1,0,0:0:0:0:
402,192,119500,1,0,0:0:0:0:
182,192,119632,1,0,0:0:0:0:
329,192,119632,1,0,0:0:0:0:
256,192,119632,1,0,0:0:0:0:
402,192,119764,1,0,0:0:0:0:
475,192,119764,1,0,0:0:0:0:
109,192,119764,1,0,0:0:0:0:
329,192,119895,1,0,0:0:0:0:
256,192,119895,1,0,0:0:0:0:
182,192,119895,1,0,0:0:0:0:
109,192,120027,1,0,0:0:0:0:
36,192,120027,1,0,0:0:0:0:
402,192,120027,1,0,0:0:0:0:
329,192,120158,1,0,0:0:0:0:
182,192,120158,1,0,0:0:0:0:
475,192,120158,1,0,0:0:0:0:
402,192,120290,1,0,0:0:0:0:
256,192,120290,1,0,0:0:0:0:
109,192,120290,1,0,0:0:0:0:
36,192,120421,1,0,0:0:0:0:
475,192,120421,1,0,0:0:0:0:
329,192,120421,1,0,0:0:0:0:
329,192,120553,1,0,0:0:0:0:
475,192,120553,1,0,0:0:0:0:
109,192,120553,1,0,0:0:0:0:
329,192,120685,1,0,0:0:0:0:
475,192,120685,1,0,0:0:0:0:
256,192,120685,1,0,0:0:0:0:
36,192,120816,1,0,0:0:0:0:
182,192,120816,1,0,0:0:0:0:
402,192,120816,1,0,0:0:0:0:
36,192,120948,1,0,0:0:0:0:
182,192,120948,1,0,0:0:0:0:
329,192,120948,1,0,0:0:0:0:
36,192,121079,1,0,0:0:0:0:
182,192,121079,1,0,0:0:0:0:
256,192,121079,1,0,0:0:0:0:
329,192,121211,1,0,0:0:0:0:
475,192,121211,1,0,0:0:0:0:
109,192,121211,1,0,0:0:0:0:
329,192,121343,1,0,0:0:0:0:
475,192,121343,1,0,0:0:0:0:
182,192,121343,1,0,0:0:0:0:
475,192,121474,1,0,0:0:0:0:
329,192,121474,1,0,0:0:0:0:
256,192,121474,1,0,0:0:0:0:
182,192,121606,1,0,0:0:0:0:
36,192,121606,1,0,0:0:0:0:
402,192,121606,1,0,0:0:0:0:
36,192,121737,1,0,0:0:0:0:
182,192,121737,1,0,0:0:0:0:
329,192,121737,1,0,0:0:0:0:
36,192,121869,1,0,0:0:0:0:
256,192,121869,1,0,0:0:0:0:
182,192,121869,1,0,0:0:0:0:
475,192,122000,1,0,0:0:0:0:
402,192,122000,1,0,0:0:0:0:
109,192,122000,1,0,0:0:0:0:
475,192,122132,1,0,0:0:0:0:
329,192,122132,1,0,0:0:0:0:
182,192,122132,1,0,0:0:0:0:
475,192,122264,1,0,0:0:0:0:
256,192,122264,1,0,0:0:0:0:
36,192,122264,1,0,0:0:0:0:
475,192,122395,1,0,0:0:0:0:
109,192,122395,1,0,0:0:0:0:
329,192,122395,1,0,0:0:0:0:
475,192,122527,1,0,0:0:0:0:
182,192,122527,1,0,0:0:0:0:
402,192,122527,1,0,0:0:0:0:
475,192,122658,1,0,0:0:0:0:
329,192,122658,1,0,0:0:0:0:
109,192,122658,1,0,0:0:0:0:
475,192,122790,1,0,0:0:0:0:
256,192,122790,1,0,0:0:0:0:
36,192,122790,1,0,0:0:0:0:
475,192,122921,1,0,0:0:0:0:
182,192,122921,1,0,0:0:0:0:
402,192,122921,1,0,0:0:0:0:
475,192,123053,1,0,0:0:0:0:
329,192,123053,1,0,0:0:0:0:
109,192,123053,1,0,0:0:0:0:
475,192,123185,1,0,0:0:0:0:
36,192,123185,1,0,0:0:0:0:
182,192,123185,1,0,0:0:0:0:
475,192,123316,1,0,0:0:0:0:
109,192,123316,1,0,0:0:0:0:
256,192,123316,1,0,0:0:0:0:
475,192,123448,1,0,0:0:0:0:
182,192,123448,1,0,0:0:0:0:
329,192,123448,1,0,0:0:0:0:
36,192,123579,1,0,0:0:0:0:
256,192,123579,1,0,0:0:0:0:
402,192,123579,1,0,0:0:0:0:
475,192,123579,1,0,0:0:0:0:
36,192,123711,1,0,0:0:0:0:
182,192,123711,1,0,0:0:0:0:
329,192,123711,1,0,0:0:0:0:
36,192,123843,1,0,0:0:0:0:
109,192,123843,1,0,0:0:0:0:
402,192,123843,1,0,0:0:0:0:
36,192,123974,1,0,0:0:0:0:
256,192,123974,1,0,0:0:0:0:
475,192,123974,1,0,0:0:0:0:
36,192,124106,1,0,0:0:0:0:
182,192,124106,1,0,0:0:0:0:
402,192,124106,1,0,0:0:0:0:
36,192,124237,1,0,0:0:0:0:
329,192,124237,1,0,0:0:0:0:
109,192,124237,1,0,0:0:0:0:
36,192,124369,1,0,0:0:0:0:
182,192,124369,1,0,0:0:0:0:
402,192,124369,1,0,0:0:0:0:
36,192,124500,1,0,0:0:0:0:
256,192,124500,1,0,0:0:0:0:
475,192,124500,1,0,0:0:0:0:
36,192,124632,1,0,0:0:0:0:
329,192,124632,1,0,0:0:0:0:
109,192,124632,1,0,0:0:0:0:
36,192,124764,1,0,0:0:0:0:
182,192,124764,1,0,0:0:0:0:
402,192,124764,1,0,0:0:0:0:
36,192,124895,1,0,0:0:0:0:
256,192,124895,1,0,0:0:0:0:
475,192,124895,1,0,0:0:0:0:
36,192,125027,1,0,0:0:0:0:
329,192,125027,1,0,0:0:0:0:
402,192,125027,1,0,0:0:0:0:
36,192,125158,1,0,0:0:0:0:
182,192,125158,1,0,0:0:0:0:
475,192,125224,1,0,0:0:0:0:
329,192,125224,1,0,0:0:0:0:
36,192,125290,1,0,0:0:0:0:
182,192,125290,1,0,0:0:0:0:
475,192,125356,1,0,0:0:0:0:
329,192,125356,1,0,0:0:0:0:
36,192,125421,1,0,0:0:0:0:
182,192,125421,1,0,0:0:0:0:
475,192,125487,1,0,0:0:0:0:
329,192,125487,1,0,0:0:0:0:
36,192,125553,1,0,0:0:0:0:
182,192,125553,1,0,0:0:0:0:
475,192,125619,1,0,0:0:0:0:
329,192,125619,1,0,0:0:0:0:
182,192,125685,1,0,0:0:0:0:
36,192,125685,1,0,0:0:0:0:
329,192,125750,1,0,0:0:0:0:
475,192,125750,1,0,0:0:0:0:
182,192,125816,1,0,0:0:0:0:
36,192,125816,1,0,0:0:0:0:
329,192,125882,1,0,0:0:0:0:
475,192,125882,1,0,0:0:0:0:
36,192,125948,1,0,0:0:0:0:
182,192,125948,1,0,0:0:0:0:
256,192,125948,1,0,0:0:0:0:
36,192,126079,1,0,0:0:0:0:
402,192,126079,1,0,0:0:0:0:
109,192,126079,1,0,0:0:0:0:
475,192,126079,1,0,0:0:0:0:
109,192,126211,1,0,0:0:0:0:
36,192,126211,1,0,0:0:0:0:
402,192,126211,1,0,0:0:0:0:
475,192,126211,1,0,0:0:0:0:
36,192,126343,1,0,0:0:0:0:
109,192,126343,1,0,0:0:0:0:
256,192,126343,1,0,0:0:0:0:
402,192,126343,1,0,0:0:0:0:
475,192,126343,1,0,0:0:0:0:
329,192,126408,1,0,0:0:0:0:
182,192,126474,1,0,0:0:0:0:
329,192,126540,1,0,0:0:0:0:
182,192,126606,1,0,0:0:0:0:
329,192,126671,1,0,0:0:0:0:
109,192,126737,1,0,0:0:0:0:
475,192,126737,1,0,0:0:0:0:
36,192,126737,1,0,0:0:0:0:
402,192,126737,1,0,0:0:0:0:
256,192,126737,1,0,0:0:0:0:
36,192,144297,5,0,0:0:0:0:t1.wav
329,192,144297,1,0,0:0:0:0:p1.wav
182,192,144297,1,0,0:0:0:0:tp1.wav
329,192,144452,1,0,0:0:0:0:p2.wav
182,192,144530,1,0,0:0:0:0:tp2.wav
475,192,144607,1,0,0:0:0:0:p3.wav
402,192,144607,1,0,0:0:0:0:tp3.wav
182,192,144763,1,0,0:0:0:0:p1.wav
36,192,144763,1,0,0:0:0:0:t2.wav
329,192,144841,1,0,0:0:0:0:tp4.wav
402,192,144918,1,0,0:0:0:0:p2.wav
182,192,144918,1,0,0:0:0:0:tp5.wav
475,192,145074,1,0,0:0:0:0:p4.wav
109,192,145151,1,0,0:0:0:0:tp6.wav
329,192,145229,1,0,0:0:0:0:p1.wav
182,192,145229,1,0,0:0:0:0:tp7.wav
36,192,145229,1,0,0:0:0:0:t3.wav
329,192,145385,1,0,0:0:0:0:p2.wav
256,192,145462,1,0,0:0:0:0:tp7.5.wav
475,192,145540,1,0,0:0:0:0:p3.wav
182,192,145540,1,0,0:0:0:0:tp8.wav
402,192,145540,1,0,0:0:0:0:t4.wav
182,192,145695,1,0,0:0:0:0:p1.wav
256,192,145773,1,0,0:0:0:0:tp9.wav
329,192,145851,1,0,0:0:0:0:p2.wav
109,192,145851,1,0,0:0:0:0:tp10.wav
329,192,146006,1,0,0:0:0:0:p8.wav
36,192,146006,1,0,0:0:0:0:t5.wav
182,192,146084,1,0,0:0:0:0:tp11.wav
402,192,146162,1,0,0:0:0:0:p1.wav
109,192,146162,1,0,0:0:0:0:tp12.wav
109,192,146317,1,0,0:0:0:0:p2.wav
256,192,146395,1,0,0:0:0:0:tp13.wav
475,192,146473,1,0,0:0:0:0:p5.wav
329,192,146473,1,0,0:0:0:0:tp14.wav
36,192,146473,1,0,0:0:0:0:t6.wav
109,192,146576,1,0,0:0:0:0:tp15.wav
329,192,146628,1,0,0:0:0:0:p4.wav
256,192,146680,1,0,0:0:0:0:tp16.wav
475,192,146784,1,0,0:0:0:0:p1.wav
182,192,146784,1,0,0:0:0:0:tp17.wav
36,192,146784,1,0,0:0:0:0:t1.wav
36,192,146939,1,0,0:0:0:0:p2.wav
182,192,147017,1,0,0:0:0:0:tp18.wav
475,192,147094,1,0,0:0:0:0:p3.wav
329,192,147094,1,0,0:0:0:0:tp19.wav
475,192,147250,1,0,0:0:0:0:p1.wav
109,192,147250,1,0,0:0:0:0:t2.wav
402,192,147328,1,0,0:0:0:0:tp20.wav
329,192,147405,1,0,0:0:0:0:p2.wav
109,192,147405,1,0,0:0:0:0:tp21.wav
475,192,147561,1,0,0:0:0:0:p4.wav
256,192,147638,1,0,0:0:0:0:tp22.wav
329,192,147716,1,0,0:0:0:0:tp23.wav
182,192,147716,1,0,0:0:0:0:p1.wav
36,192,147716,1,0,0:0:0:0:t3.wav
182,192,147872,1,0,0:0:0:0:p2.wav
402,192,147949,1,0,0:0:0:0:tp24.wav
475,192,148027,1,0,0:0:0:0:p3.wav
256,192,148027,1,0,0:0:0:0:tp25.wav
36,192,148027,1,0,0:0:0:0:t4.wav
256,192,148183,1,0,0:0:0:0:p1.wav
182,192,148260,1,0,0:0:0:0:tp26.wav
402,192,148338,1,0,0:0:0:0:p2.wav
109,192,148338,1,0,0:0:0:0:tp27.wav
402,192,148493,1,0,0:0:0:0:p8.wav
36,192,148493,1,0,0:0:0:0:t5.wav
109,192,148571,1,0,0:0:0:0:tp28.wav
329,192,148649,1,0,0:0:0:0:p1.wav
182,192,148649,1,0,0:0:0:0:tp29.wav
182,192,148804,1,0,0:0:0:0:p2.wav
402,192,148882,1,0,0:0:0:0:tp30.wav
329,192,148960,1,0,0:0:0:0:p6.wav
256,192,148960,1,0,0:0:0:0:tp31.wav
36,192,148960,1,0,0:0:0:0:t6.wav
109,192,149063,1,0,0:0:0:0:tp32.wav
402,192,149115,1,0,0:0:0:0:p2.wav
256,192,149167,1,0,0:0:0:0:tp33.wav
329,192,149271,1,0,0:0:0:0:p1.wav
182,192,149271,1,0,0:0:0:0:tp34.wav
36,192,149271,1,0,0:0:0:0:t1.wav
329,192,149426,1,0,0:0:0:0:p2.wav
109,192,149504,1,0,0:0:0:0:tp35.wav
475,192,149581,1,0,0:0:0:0:p3.wav
182,192,149581,1,0,0:0:0:0:tp36.wav
182,192,149737,1,0,0:0:0:0:p1.wav
36,192,149737,1,0,0:0:0:0:t2.wav
329,192,149815,1,0,0:0:0:0:tp37.wav
402,192,149892,1,0,0:0:0:0:p2.wav
256,192,149892,1,0,0:0:0:0:tp38.wav
402,192,150048,1,0,0:0:0:0:p4.wav
36,192,150126,1,0,0:0:0:0:tp39.wav
256,192,150203,1,0,0:0:0:0:p1.wav
475,192,150203,1,0,0:0:0:0:tp40.wav
109,192,150203,1,0,0:0:0:0:t3.wav
109,192,150359,1,0,0:0:0:0:p2.wav
329,192,150436,1,0,0:0:0:0:tp41.wav
475,192,150514,1,0,0:0:0:0:p3.wav
182,192,150514,1,0,0:0:0:0:tp42.wav
36,192,150514,1,0,0:0:0:0:t4.wav
475,192,150670,1,0,0:0:0:0:p1.wav
109,192,150747,1,0,0:0:0:0:tp43.wav
329,192,150825,1,0,0:0:0:0:p2.wav
182,192,150825,1,0,0:0:0:0:tp44.wav
329,192,150980,1,0,0:0:0:0:p8.wav
36,192,150980,1,0,0:0:0:0:t5.wav
182,192,151058,1,0,0:0:0:0:tp45.wav
402,192,151136,1,0,0:0:0:0:p1.wav
109,192,151136,1,0,0:0:0:0:tp46.wav
182,192,151291,1,0,0:0:0:0:p2.wav
256,192,151369,1,0,0:0:0:0:tp47.wav
475,192,151447,1,0,0:0:0:0:p5.wav
182,192,151447,1,0,0:0:0:0:tp48.wav
36,192,151447,1,0,0:0:0:0:t6.wav
329,192,151550,1,0,0:0:0:0:tp49.wav
402,192,151602,1,0,0:0:0:0:p4.wav
109,192,151654,1,0,0:0:0:0:tp50.wav
329,192,151758,1,0,0:0:0:0:p1.wav
182,192,151758,1,0,0:0:0:0:tp51.wav
36,192,151758,1,0,0:0:0:0:t1.wav
182,192,151913,1,0,0:0:0:0:p2.wav
256,192,151991,1,0,0:0:0:0:tp52.wav
475,192,152069,1,0,0:0:0:0:p3.wav
329,192,152069,1,0,0:0:0:0:tp53.wav
329,192,152224,1,0,0:0:0:0:p1.wav
36,192,152224,1,0,0:0:0:0:t2.wav
182,192,152302,1,0,0:0:0:0:tp54.wav
402,192,152379,1,0,0:0:0:0:p2.wav
109,192,152379,1,0,0:0:0:0:tp55.wav
109,192,152535,1,0,0:0:0:0:p4.wav
256,192,152613,1,0,0:0:0:0:tp56.wav
329,192,152690,1,0,0:0:0:0:tp57.wav
182,192,152690,1,0,0:0:0:0:p1.wav
36,192,152690,1,0,0:0:0:0:t3.wav
329,192,152846,1,0,0:0:0:0:p2.wav
256,192,152923,1,0,0:0:0:0:tp58.wav
475,192,153001,1,0,0:0:0:0:p3.wav
182,192,153001,1,0,0:0:0:0:tp59.wav
109,192,153001,1,0,0:0:0:0:t4.wav
475,192,153157,1,0,0:0:0:0:p1.wav
256,192,153234,1,0,0:0:0:0:tp60.wav
329,192,153312,1,0,0:0:0:0:p2.wav
182,192,153312,1,0,0:0:0:0:tp61.wav
182,192,153467,1,0,0:0:0:0:p8.wav
402,192,153467,1,0,0:0:0:0:t5.wav
36,192,153545,1,0,0:0:0:0:tp62.wav
329,192,153623,1,0,0:0:0:0:p1.wav
109,192,153623,1,0,0:0:0:0:tp63.wav
329,192,153778,1,0,0:0:0:0:p2.wav
182,192,153856,1,0,0:0:0:0:tp64.wav
402,192,153934,1,0,0:0:0:0:p6.wav
475,192,153934,1,0,0:0:0:0:tp65.wav
36,192,153934,1,0,0:0:0:0:t6.wav
256,192,154037,1,0,0:0:0:0:tp66.wav
329,192,154089,1,0,0:0:0:0:p2.wav
109,192,154141,1,0,0:0:0:0:tp67.wav
329,192,154245,1,0,0:0:0:0:p1.wav
475,192,154245,1,0,0:0:0:0:tp1.wav
36,192,154245,1,0,0:0:0:0:t1.wav
182,192,154245,1,0,0:0:0:0:bb-1.wav
402,192,154400,1,0,0:0:0:0:p2.wav
182,192,154400,1,0,0:0:0:0:bb-2.wav
109,192,154478,1,0,0:0:0:0:tp2.wav
402,192,154556,1,0,0:0:0:0:p3.wav
182,192,154556,1,0,0:0:0:0:tp3.wav
329,192,154711,1,0,0:0:0:0:p1.wav
256,192,154711,1,0,0:0:0:0:bb-4.wav
36,192,154711,1,0,0:0:0:0:t2.wav
109,192,154789,1,0,0:0:0:0:tp4.wav
402,192,154866,1,0,0:0:0:0:p2.wav
256,192,154866,1,0,0:0:0:0:tp5.wav
182,192,154866,1,0,0:0:0:0:bb-5.wav
475,192,155022,1,0,0:0:0:0:p4.wav
329,192,155022,1,0,0:0:0:0:bb-6.wav
182,192,155100,1,0,0:0:0:0:bb-7.wav
36,192,155100,1,0,0:0:0:0:tp6.wav
475,192,155177,1,0,0:0:0:0:bb-8.wav
329,192,155177,1,0,0:0:0:0:p1.wav
109,192,155177,1,0,0:0:0:0:t3.wav
256,192,155255,1,0,0:0:0:0:bb-9.wav
402,192,155333,1,0,0:0:0:0:p2.wav
182,192,155333,1,0,0:0:0:0:bb-10.wav
109,192,155410,1,0,0:0:0:0:tp7.5.wav
475,192,155488,1,0,0:0:0:0:p3.wav
256,192,155488,1,0,0:0:0:0:bb-11.wav
36,192,155488,1,0,0:0:0:0:t4.wav
182,192,155566,1,0,0:0:0:0:bb-12.wav
329,192,155644,1,0,0:0:0:0:p1.wav
182,192,155721,1,0,0:0:0:0:tp9.wav
402,192,155799,1,0,0:0:0:0:p2.wav
256,192,155799,1,0,0:0:0:0:bb-15.wav
475,192,155955,1,0,0:0:0:0:p8.wav
182,192,155955,1,0,0:0:0:0:bb-16.wav
36,192,155955,1,0,0:0:0:0:t5.wav
256,192,156032,1,0,0:0:0:0:tp11.wav
329,192,156110,1,0,0:0:0:0:p1.wav
109,192,156110,1,0,0:0:0:0:tp12.wav
402,192,156265,1,0,0:0:0:0:p2.wav
256,192,156265,1,0,0:0:0:0:bb-18.wav
109,192,156343,1,0,0:0:0:0:tp13.wav
329,192,156421,1,0,0:0:0:0:tp14.wav
475,192,156421,1,0,0:0:0:0:p5.wav
36,192,156421,1,0,0:0:0:0:t6.wav
182,192,156421,1,0,0:0:0:0:bb-19.wav
109,192,156524,1,0,0:0:0:0:tp15.wav
402,192,156576,1,0,0:0:0:0:p4.wav
182,192,156576,1,0,0:0:0:0:bb-20.wav
256,192,156628,1,0,0:0:0:0:tp16.wav
329,192,156732,1,0,0:0:0:0:p1.wav
475,192,156732,1,0,0:0:0:0:tp17.wav
36,192,156732,1,0,0:0:0:0:t1.wav
182,192,156732,1,0,0:0:0:0:bb-1.wav
402,192,156887,1,0,0:0:0:0:p2.wav
109,192,156887,1,0,0:0:0:0:bb-2.wav
256,192,156965,1,0,0:0:0:0:tp18.wav
475,192,157043,1,0,0:0:0:0:p3.wav
329,192,157043,1,0,0:0:0:0:tp19.wav
182,192,157043,1,0,0:0:0:0:bb-3.wav
475,192,157198,1,0,0:0:0:0:bb-4.wav
256,192,157198,1,0,0:0:0:0:p1.wav
36,192,157198,1,0,0:0:0:0:t2.wav
109,192,157276,1,0,0:0:0:0:tp20.wav
402,192,157353,1,0,0:0:0:0:p2.wav
329,192,157353,1,0,0:0:0:0:tp21.wav
182,192,157353,1,0,0:0:0:0:bb-5.wav
475,192,157509,1,0,0:0:0:0:p4.wav
109,192,157509,1,0,0:0:0:0:bb-6.wav
182,192,157587,1,0,0:0:0:0:
402,192,157587,1,0,0:0:0:0:tp22.wav
329,192,157664,1,0,0:0:0:0:p1.wav
36,192,157664,1,0,0:0:0:0:t3.wav
182,192,157742,1,0,0:0:0:0:
329,192,157820,1,0,0:0:0:0:
402,192,157820,1,0,0:0:0:0:p2.wav
256,192,157898,1,0,0:0:0:0:
475,192,157975,1,0,0:0:0:0:p3.wav
329,192,157975,1,0,0:0:0:0:
36,192,157975,1,0,0:0:0:0:t4.wav
109,192,157975,1,0,0:0:0:0:tp25.wav
182,192,158053,1,0,0:0:0:0:bb-12.wav
329,192,158131,1,0,0:0:0:0:p1.wav
475,192,158208,1,0,0:0:0:0:bb-14.wav
182,192,158208,1,0,0:0:0:0:tp26.wav
402,192,158286,1,0,0:0:0:0:p2.wav
256,192,158286,1,0,0:0:0:0:tp27.wav
109,192,158286,1,0,0:0:0:0:bb-15.wav
329,192,158442,1,0,0:0:0:0:
475,192,158442,1,0,0:0:0:0:p8.wav
36,192,158442,1,0,0:0:0:0:t5.wav
109,192,158519,1,0,0:0:0:0:tp28.wav
402,192,158597,1,0,0:0:0:0:tp29.wav
256,192,158597,1,0,0:0:0:0:p1.wav
182,192,158597,1,0,0:0:0:0:bb-17.wav
475,192,158752,1,0,0:0:0:0:p2.wav
109,192,158752,1,0,0:0:0:0:bb-18.wav
329,192,158830,1,0,0:0:0:0:tp30.wav
256,192,158908,1,0,0:0:0:0:p6.wav
182,192,158908,1,0,0:0:0:0:bb-19.wav
36,192,158908,1,0,0:0:0:0:t6.wav
475,192,159012,1,0,0:0:0:0:tp32.wav
329,192,159063,1,0,0:0:0:0:p2.wav
182,192,159063,1,0,0:0:0:0:bb-20.wav
402,192,159115,1,0,0:0:0:0:tp33.wav
329,192,159219,1,0,0:0:0:0:p1.wav
475,192,159219,1,0,0:0:0:0:tp34.wav
36,192,159219,1,0,0:0:0:0:t1.wav
182,192,159219,1,0,0:0:0:0:bb-1.wav
256,192,159374,1,0,0:0:0:0:
109,192,159374,1,0,0:0:0:0:
182,192,159452,1,0,0:0:0:0:tp35.wav
402,192,159530,1,0,0:0:0:0:p3.wav
329,192,159530,1,0,0:0:0:0:bb-3.wav
109,192,159530,1,0,0:0:0:0:tp36.wav
329,192,159685,1,0,0:0:0:0:p1.wav
182,192,159685,1,0,0:0:0:0:bb-4.wav
36,192,159685,1,0,0:0:0:0:t2.wav
256,192,159763,1,0,0:0:0:0:tp37.wav
329,192,159841,1,0,0:0:0:0:
475,192,159841,1,0,0:0:0:0:p2.wav
109,192,159841,1,0,0:0:0:0:tp38.wav
182,192,159996,1,0,0:0:0:0:p4.wav
329,192,159996,1,0,0:0:0:0:bb-6.wav
402,192,160074,1,0,0:0:0:0:bb-7.wav
109,192,160074,1,0,0:0:0:0:tp39.wav
329,192,160151,1,0,0:0:0:0:p1.wav
475,192,160151,1,0,0:0:0:0:bb-8.wav
36,192,160151,1,0,0:0:0:0:t3.wav
182,192,160151,1,0,0:0:0:0:tp40.wav
256,192,160229,1,0,0:0:0:0:bb-9.wav
402,192,160307,1,0,0:0:0:0:p2.wav
109,192,160307,1,0,0:0:0:0:bb-10.wav
329,192,160385,1,0,0:0:0:0:tp41.wav
256,192,160462,1,0,0:0:0:0:tp42.wav
475,192,160462,1,0,0:0:0:0:p3.wav
36,192,160462,1,0,0:0:0:0:t4.wav
182,192,160462,1,0,0:0:0:0:bb-11.wav
402,192,160540,1,0,0:0:0:0:bb-12.wav
329,192,160618,1,0,0:0:0:0:p1.wav
109,192,160618,1,0,0:0:0:0:bb-13.wav
182,192,160695,1,0,0:0:0:0:bb-14.wav
475,192,160773,1,0,0:0:0:0:bb-15.wav
329,192,160773,1,0,0:0:0:0:p2.wav
256,192,160773,1,0,0:0:0:0:tp44.wav
402,192,160929,1,0,0:0:0:0:p8.wav
182,192,160929,1,0,0:0:0:0:bb-16.wav
36,192,160929,1,0,0:0:0:0:t5.wav
109,192,161006,1,0,0:0:0:0:tp45.wav
475,192,161084,1,0,0:0:0:0:tp46.wav
329,192,161084,1,0,0:0:0:0:p1.wav
182,192,161084,1,0,0:0:0:0:bb-17.wav
402,192,161240,1,0,0:0:0:0:p2.wav
182,192,161240,1,0,0:0:0:0:bb-18.wav
329,192,161317,1,0,0:0:0:0:tp47.wav
256,192,161395,1,0,0:0:0:0:tp48.wav
475,192,161395,1,0,0:0:0:0:p5.wav
36,192,161395,1,0,0:0:0:0:t6.wav
109,192,161395,1,0,0:0:0:0:bb-19.wav
329,192,161499,1,0,0:0:0:0:tp49.wav
402,192,161550,1,0,0:0:0:0:p4.wav
182,192,161550,1,0,0:0:0:0:bb-20.wav
256,192,161602,1,0,0:0:0:0:tp50.wav
329,192,161706,1,0,0:0:0:0:p1.wav
475,192,161706,1,0,0:0:0:0:h1.wav
36,192,161706,1,0,0:0:0:0:t1.wav
182,192,161706,1,0,0:0:0:0:tp51.wav
182,192,161861,1,0,0:0:0:0:p2.wav
36,192,161861,1,0,0:0:0:0:bb-2.wav
256,192,161939,1,0,0:0:0:0:tp52.wav
475,192,162017,1,0,0:0:0:0:p3.wav
329,192,162017,1,0,0:0:0:0:tp53.wav
109,192,162017,1,0,0:0:0:0:bb-3.wav
475,192,162172,1,0,0:0:0:0:bb-4.wav
329,192,162172,1,0,0:0:0:0:p1.wav
182,192,162172,1,0,0:0:0:0:t2.wav
109,192,162250,1,0,0:0:0:0:tp54.wav
402,192,162328,1,0,0:0:0:0:p2.wav
256,192,162328,1,0,0:0:0:0:tp55.wav
182,192,162328,1,0,0:0:0:0:bb-5.wav
475,192,162483,1,0,0:0:0:0:p4.wav
329,192,162483,1,0,0:0:0:0:bb-6.wav
256,192,162561,1,0,0:0:0:0:
109,192,162561,1,0,0:0:0:0:
182,192,162638,1,0,0:0:0:0:
329,192,162638,1,0,0:0:0:0:tp57.wav
36,192,162638,1,0,0:0:0:0:t3.wav
475,192,162716,1,0,0:0:0:0:bb-9.wav
329,192,162794,1,0,0:0:0:0:p2.wav
182,192,162794,1,0,0:0:0:0:bb-10.wav
109,192,162872,1,0,0:0:0:0:tp58.wav
475,192,162949,1,0,0:0:0:0:p3.wav
402,192,162949,1,0,0:0:0:0:tp68.wav
36,192,162949,1,0,0:0:0:0:t4.wav
109,192,163027,1,0,0:0:0:0:bb-12.wav
402,192,163105,1,0,0:0:0:0:bb-13.wav
256,192,163105,1,0,0:0:0:0:p1.wav
475,192,163183,1,0,0:0:0:0:bb-14.wav
329,192,163183,1,0,0:0:0:0:tp71.wav
182,192,163260,1,0,0:0:0:0:bb-15.wav
109,192,163260,1,0,0:0:0:0:tp72.wav
256,192,163338,1,0,0:0:0:0:tp73.wav
402,192,163416,1,0,0:0:0:0:
475,192,163416,1,0,0:0:0:0:
36,192,163416,1,0,0:0:0:0:t5.wav
182,192,163416,1,0,0:0:0:0:
329,192,163493,1,0,0:0:0:0:
402,192,163571,1,0,0:0:0:0:
182,192,163571,1,0,0:0:0:0:bb-17.wav
256,192,163649,1,0,0:0:0:0:tp77.wav
402,192,163701,1,0,0:0:0:0:tp78.wav
329,192,163727,1,0,0:0:0:0:p2.wav
109,192,163752,1,0,0:0:0:0:tp79.wav
256,192,163804,1,0,0:0:0:0:tp80.wav
475,192,163882,1,0,0:0:0:0:p6.wav
36,192,163882,1,0,0:0:0:0:t6.wav
329,192,163960,1,0,0:0:0:0:
182,192,163960,1,0,0:0:0:0:tp82.wav
402,192,164037,1,0,0:0:0:0:p2.wav
109,192,164037,1,0,0:0:0:0:bb-20.wav
256,192,164115,1,0,0:0:0:0:
329,192,164193,1,0,0:0:0:0:p7.wav
475,192,164193,1,0,0:0:0:0:h1.wav
36,192,164193,1,0,0:0:0:0:t7.wav
182,192,164193,1,0,0:0:0:0:tp84.wav
329,192,166680,1,0,0:0:0:0:v1.wav
475,192,166680,1,0,0:0:0:0:r1.wav
36,192,166680,1,0,0:0:0:0:h2.wav
182,192,166680,1,0,0:0:0:0:v2-14.wav
475,192,166835,1,0,0:0:0:0:r2.wav
329,192,166835,1,0,0:0:0:0:v2.wav
182,192,166835,1,0,0:0:0:0:v2-15.wav
475,192,167146,1,0,0:0:0:0:r3.wav
329,192,167146,1,0,0:0:0:0:v3.wav
182,192,167146,1,0,0:0:0:0:v2-16.wav
109,192,167923,1,0,0:0:0:0:
329,192,167923,1,0,0:0:0:0:
36,192,167923,1,0,0:0:0:0:h2.wav
182,192,167923,1,0,0:0:0:0:
329,192,168234,1,0,0:0:0:0:r4.wav
182,192,168234,1,0,0:0:0:0:v4.wav
36,192,168234,1,0,0:0:0:0:v2-17.wav
402,192,168545,1,0,0:0:0:0:r5.wav
256,192,168545,1,0,0:0:0:0:v5.wav
109,192,168545,1,0,0:0:0:0:v2-18.wav
475,192,168856,1,0,0:0:0:0:r6.wav
329,192,168856,1,0,0:0:0:0:v6.wav
182,192,168856,1,0,0:0:0:0:v2-19.wav
329,192,169167,1,0,0:0:0:0:v7.wav
475,192,169167,1,0,0:0:0:0:r7.wav
36,192,169167,1,0,0:0:0:0:h2.wav
182,192,169167,1,0,0:0:0:0:v2-20.wav
475,192,169322,1,0,0:0:0:0:r8.wav
329,192,169322,1,0,0:0:0:0:v8.wav
182,192,169322,1,0,0:0:0:0:v2-21.wav
475,192,169633,1,0,0:0:0:0:r9.wav
329,192,169633,1,0,0:0:0:0:v9.wav
182,192,169633,1,0,0:0:0:0:v2-22.wav
109,192,170372,1,0,0:0:0:0:
182,192,170391,1,0,0:0:0:0:
329,192,170410,1,0,0:0:0:0:
36,192,170410,1,0,0:0:0:0:h2.wav
475,192,170430,1,0,0:0:0:0:
475,192,171032,1,0,0:0:0:0:r10.wav
329,192,171032,1,0,0:0:0:0:v10.wav
182,192,171032,1,0,0:0:0:0:v2-23.wav
402,192,171343,1,0,0:0:0:0:r11.wav
256,192,171343,1,0,0:0:0:0:v11.wav
109,192,171343,1,0,0:0:0:0:v2-24.wav
402,192,171654,1,0,0:0:0:0:v12.wav
475,192,171654,1,0,0:0:0:0:r1.wav
256,192,171654,1,0,0:0:0:0:v2-25.wav
36,192,171654,1,0,0:0:0:0:h2.wav
182,192,171654,1,0,0:0:0:0:bb2-1.wav
402,192,171809,1,0,0:0:0:0:v2.wav
475,192,171809,1,0,0:0:0:0:r2.wav
109,192,171809,1,0,0:0:0:0:bb2-2.wav
256,192,171809,1,0,0:0:0:0:v2-15.wav
182,192,171965,1,0,0:0:0:0:bb2-3.wav
402,192,172120,1,0,0:0:0:0:v3.wav
475,192,172120,1,0,0:0:0:0:
36,192,172120,1,0,0:0:0:0:bb2-4.wav
256,192,172120,1,0,0:0:0:0:v2-16.wav
329,192,172198,1,0,0:0:0:0:bb2-5.wav
182,192,172276,1,0,0:0:0:0:
329,192,172353,1,0,0:0:0:0:
182,192,172431,1,0,0:0:0:0:
36,192,172509,1,0,0:0:0:0:bb2-9.wav
402,192,172587,1,0,0:0:0:0:
329,192,172587,1,0,0:0:0:0:
329,192,172742,1,0,0:0:0:0:bb2-11.wav
402,192,172820,1,0,0:0:0:0:bb2-12.wav
182,192,172898,1,0,0:0:0:0:bb2-13.wav
36,192,172898,1,0,0:0:0:0:h2.wav
329,192,173053,1,0,0:0:0:0:bb2-14.wav
256,192,173208,1,0,0:0:0:0:r4.wav
402,192,173208,1,0,0:0:0:0:v4.wav
109,192,173208,1,0,0:0:0:0:v2-17.wav
182,192,173208,1,0,0:0:0:0:bb2-15.wav
109,192,173364,1,0,0:0:0:0:
182,192,173442,1,0,0:0:0:0:bb2-17.wav
475,192,173519,1,0,0:0:0:0:v5.wav
402,192,173519,1,0,0:0:0:0:
109,192,173519,1,0,0:0:0:0:bb2-18.wav
329,192,173519,1,0,0:0:0:0:r5.wav
109,192,173675,1,0,0:0:0:0:
182,192,173675,1,0,0:0:0:0:bb2-19.wav
329,192,173830,1,0,0:0:0:0:r6.wav
475,192,173830,1,0,0:0:0:0:v6.wav
36,192,173830,1,0,0:0:0:0:bb2-20.wav
256,192,173830,1,0,0:0:0:0:v2-19.wav
109,192,173986,1,0,0:0:0:0:
182,192,173986,1,0,0:0:0:0:bb2-22.wav
402,192,174141,1,0,0:0:0:0:v7.wav
475,192,174141,1,0,0:0:0:0:r7.wav
256,192,174141,1,0,0:0:0:0:v2-20.wav
36,192,174141,1,0,0:0:0:0:h2.wav
182,192,174141,1,0,0:0:0:0:bb2-1.wav
402,192,174297,1,0,0:0:0:0:v8.wav
475,192,174297,1,0,0:0:0:0:r8.wav
109,192,174297,1,0,0:0:0:0:bb2-2.wav
256,192,174297,1,0,0:0:0:0:v2-21.wav
182,192,174452,1,0,0:0:0:0:bb2-3.wav
402,192,174607,1,0,0:0:0:0:v9.wav
475,192,174607,1,0,0:0:0:0:r9.wav
36,192,174607,1,0,0:0:0:0:bb2-4.wav
256,192,174607,1,0,0:0:0:0:v2-22.wav
109,192,174685,1,0,0:0:0:0:bb2-5.wav
329,192,174763,1,0,0:0:0:0:bb2-6.wav
182,192,174841,1,0,0:0:0:0:bb2-7.wav
329,192,174918,1,0,0:0:0:0:bb2-8.wav
182,192,174996,1,0,0:0:0:0:
329,192,175074,1,0,0:0:0:0:
402,192,175074,1,0,0:0:0:0:bb2-10.wav
182,192,175229,1,0,0:0:0:0:
329,192,175307,1,0,0:0:0:0:bb2-12.wav
475,192,175385,1,0,0:0:0:0:
402,192,175385,1,0,0:0:0:0:bb2-23.wav
36,192,175385,1,0,0:0:0:0:h2.wav
256,192,175462,1,0,0:0:0:0:bb2-24.wav
109,192,175540,1,0,0:0:0:0:bb2-25.wav
182,192,175695,1,0,0:0:0:0:bb2-26.wav
329,192,175851,1,0,0:0:0:0:bb2-27.wav
256,192,175929,1,0,0:0:0:0:bb2-28.wav
402,192,176006,1,0,0:0:0:0:v10.wav
475,192,176006,1,0,0:0:0:0:r12.wav
329,192,176006,1,0,0:0:0:0:v2-23.wav
36,192,176006,1,0,0:0:0:0:sn2.wav
182,192,176006,1,0,0:0:0:0:bb2-29.wav
182,192,176162,1,0,0:0:0:0:bb2-30.wav
36,192,176162,1,0,0:0:0:0:sn2.wav
402,192,176317,1,0,0:0:0:0:v13.wav
475,192,176317,1,0,0:0:0:0:r13.wav
36,192,176317,1,0,0:0:0:0:sn3.wav
182,192,176317,1,0,0:0:0:0:bb2-31.wav
329,192,176395,1,0,0:0:0:0:bb2-32.wav
109,192,176395,1,0,0:0:0:0:sn3.5.wav
256,192,176473,1,0,0:0:0:0:bb2-33.wav
182,192,176550,1,0,0:0:0:0:sn3.5.wav
329,192,176628,1,0,0:0:0:0:p2-2.wav
475,192,176628,1,0,0:0:0:0:bbb1.wav
36,192,176628,1,0,0:0:0:0:k1.wav
109,192,176628,1,0,0:0:0:0:p2-1.wav
256,192,176706,1,0,0:0:0:0:bbb2.wav
402,192,176784,1,0,0:0:0:0:p2-3.wav
182,192,176784,1,0,0:0:0:0:bbb3.wav
329,192,176861,1,0,0:0:0:0:bbb4.wav
402,192,176939,1,0,0:0:0:0:bbb5.wav
109,192,176939,1,0,0:0:0:0:sn1.wav
256,192,177017,1,0,0:0:0:0:bbb6.wav
36,192,177094,1,0,0:0:0:0:p2-4.wav
182,192,177094,1,0,0:0:0:0:bbb7.wav
329,192,177172,1,0,0:0:0:0:bbb8.wav
182,192,177250,1,0,0:0:0:0:bbb9.wav
329,192,177328,1,0,0:0:0:0:bbb10.wav
256,192,177405,1,0,0:0:0:0:bbb11.wav
36,192,177405,1,0,0:0:0:0:k1.wav
182,192,177483,1,0,0:0:0:0:bbb12.wav
475,192,177561,1,0,0:0:0:0:p2-5.wav
329,192,177561,1,0,0:0:0:0:bbb13.wav
109,192,177561,1,0,0:0:0:0:sn1.wav
402,192,177638,1,0,0:0:0:0:p2-6.wav
329,192,177716,1,0,0:0:0:0:p2-7.wav
256,192,177794,1,0,0:0:0:0:bbb16.wav
329,192,177872,1,0,0:0:0:0:p2-8.wav
182,192,177872,1,0,0:0:0:0:bbb17.wav
36,192,177872,1,0,0:0:0:0:k1.wav
109,192,177949,1,0,0:0:0:0:bbb18.wav
329,192,178027,1,0,0:0:0:0:p2-9.wav
182,192,178027,1,0,0:0:0:0:bbb19.wav
402,192,178105,1,0,0:0:0:0:bbb20.wav
329,192,178183,1,0,0:0:0:0:p2-10.wav
182,192,178183,1,0,0:0:0:0:bbb21.wav
109,192,178260,1,0,0:0:0:0:bbb22.wav
329,192,178338,1,0,0:0:0:0:p2-9.wav
182,192,178338,1,0,0:0:0:0:k1.wav
256,192,178416,1,0,0:0:0:0:bbb24.wav
402,192,178493,1,0,0:0:0:0:p2-10.wav
109,192,178493,1,0,0:0:0:0:bbb25.wav
182,192,178571,1,0,0:0:0:0:bbb26.wav
475,192,178649,1,0,0:0:0:0:p2-11.wav
329,192,178649,1,0,0:0:0:0:bbb27.wav
36,192,178649,1,0,0:0:0:0:k1.wav
329,192,178804,1,0,0:0:0:0:bbb28.wav
256,192,178843,1,0,0:0:0:0:bbb29.wav
182,192,178882,1,0,0:0:0:0:bbb30.wav
475,192,178960,1,0,0:0:0:0:p2-12.wav
329,192,178960,1,0,0:0:0:0:p2-13.wav
109,192,178960,1,0,0:0:0:0:bbb31.wav
256,192,179037,1,0,0:0:0:0:bbb32.wav
182,192,179115,1,0,0:0:0:0:p2-15.wav
402,192,179115,1,0,0:0:0:0:p2-14.wav
36,192,179115,1,0,0:0:0:0:k1.wav
109,192,179115,1,0,0:0:0:0:bbb33.wav
475,192,179193,1,0,0:0:0:0:bbb34.wav
329,192,179271,1,0,0:0:0:0:bbb35.wav
36,192,179271,1,0,0:0:0:0:k1.wav
475,192,179348,1,0,0:0:0:0:bbb36.wav
329,192,179426,1,0,0:0:0:0:bbb37.wav
109,192,179426,1,0,0:0:0:0:sn1.wav
256,192,179504,1,0,0:0:0:0:bbb38.wav
475,192,179581,1,0,0:0:0:0:p2-16.wav
182,192,179581,1,0,0:0:0:0:bbb39.wav
329,192,179659,1,0,0:0:0:0:bbb40.wav
402,192,179737,1,0,0:0:0:0:p2-17.wav
475,192,179737,1,0,0:0:0:0:bbb41.wav
36,192,179737,1,0,0:0:0:0:p2-20.wav
256,192,179737,1,0,0:0:0:0:p2-18.wav
182,192,179815,1,0,0:0:0:0:bbb42.wav
329,192,179892,1,0,0:0:0:0:bbb43.wav
109,192,179892,1,0,0:0:0:0:k1.wav
182,192,179970,1,0,0:0:0:0:bbb44.wav
475,192,180048,1,0,0:0:0:0:bbb45.wav
329,192,180048,1,0,0:0:0:0:p2-21.wav
109,192,180048,1,0,0:0:0:0:sn1.wav
329,192,180126,1,0,0:0:0:0:p2-22.wav
182,192,180203,1,0,0:0:0:0:p2-23.wav
182,192,180281,1,0,0:0:0:0:p2-24.wav
402,192,180359,1,0,0:0:0:0:bbb49.wav
256,192,180359,1,0,0:0:0:0:p2-2.wav
36,192,180359,1,0,0:0:0:0:k1.wav
475,192,180436,1,0,0:0:0:0:bbb50.wav
329,192,180514,1,0,0:0:0:0:p2-3.wav
182,192,180514,1,0,0:0:0:0:bbb51.wav
109,192,180514,1,0,0:0:0:0:k1.wav
402,192,180592,1,0,0:0:0:0:bbb52.wav
329,192,180670,1,0,0:0:0:0:bbb53.wav
109,192,180670,1,0,0:0:0:0:sn1.wav
182,192,180708,1,0,0:0:0:0:k3.wav
256,192,180747,1,0,0:0:0:0:bbb54.wav
475,192,180786,1,0,0:0:0:0:k3.wav
402,192,180825,1,0,0:0:0:0:p2-4.wav
109,192,180903,1,0,0:0:0:0:bbb56.wav
182,192,180980,1,0,0:0:0:0:bbb57.wav
475,192,181019,1,0,0:0:0:0:bbb58.wav
329,192,181058,1,0,0:0:0:0:bbb59.wav
256,192,181136,1,0,0:0:0:0:bbb60.wav
109,192,181136,1,0,0:0:0:0:k2.wav
475,192,181291,1,0,0:0:0:0:p2-5.wav
109,192,181291,1,0,0:0:0:0:sn1.wav
36,192,181291,1,0,0:0:0:0:k2.wav
402,192,181369,1,0,0:0:0:0:p2-6.wav
329,192,181447,1,0,0:0:0:0:p2-7.wav
36,192,181447,1,0,0:0:0:0:k2.wav
256,192,181524,1,0,0:0:0:0:p2-25.wav
182,192,181602,1,0,0:0:0:0:p2-8.wav
36,192,181602,1,0,0:0:0:0:k1.wav
256,192,181758,1,0,0:0:0:0:p2-9.wav
475,192,181913,1,0,0:0:0:0:p2-10.wav
329,192,181913,1,0,0:0:0:0:p2-35.wav
109,192,181913,1,0,0:0:0:0:sn1.wav
182,192,181991,1,0,0:0:0:0:
329,192,182069,1,0,0:0:0:0:
182,192,182146,1,0,0:0:0:0:
329,192,182224,1,0,0:0:0:0:
475,192,182379,1,0,0:0:0:0:p2-11.wav
402,192,182379,1,0,0:0:0:0:
36,192,182379,1,0,0:0:0:0:k1.wav
182,192,182379,1,0,0:0:0:0:p2-36.wav
256,192,182535,1,0,0:0:0:0:p2-30.wav
109,192,182535,1,0,0:0:0:0:sn1.wav
329,192,182613,1,0,0:0:0:0:p2-31.wav
402,192,182690,1,0,0:0:0:0:p2-32.wav
475,192,182768,1,0,0:0:0:0:p2-33.wav
256,192,182846,1,0,0:0:0:0:
182,192,182846,1,0,0:0:0:0:p2-8.wav
36,192,182846,1,0,0:0:0:0:k1.wav
329,192,183001,1,0,0:0:0:0:
256,192,183079,1,0,0:0:0:0:
475,192,183157,1,0,0:0:0:0:p2-10.wav
402,192,183157,1,0,0:0:0:0:
109,192,183157,1,0,0:0:0:0:sn1.wav
182,192,183157,1,0,0:0:0:0:p2-34.wav
182,192,183312,1,0,0:0:0:0:
256,192,183312,1,0,0:0:0:0:
36,192,183312,1,0,0:0:0:0:k1.wav
329,192,183467,1,0,0:0:0:0:
256,192,183623,1,0,0:0:0:0:
109,192,183623,1,0,0:0:0:0:
475,192,183623,1,0,0:0:0:0:p2-11.wav
402,192,183623,1,0,0:0:0:0:
256,192,183778,1,0,0:0:0:0:
182,192,183778,1,0,0:0:0:0:
36,192,183778,1,0,0:0:0:0:
329,192,183934,1,0,0:0:0:0:
256,192,184089,1,0,0:0:0:0:
182,192,184089,1,0,0:0:0:0:p2-8.wav
36,192,184089,1,0,0:0:0:0:k1.wav
256,192,184245,1,0,0:0:0:0:
182,192,184245,1,0,0:0:0:0:
36,192,184245,1,0,0:0:0:0:k1.wav
475,192,184400,1,0,0:0:0:0:p2-10.wav
329,192,184400,1,0,0:0:0:0:p2-35.wav
109,192,184400,1,0,0:0:0:0:sn1.wav
182,192,184556,1,0,0:0:0:0:
329,192,184633,1,0,0:0:0:0:
182,192,184711,1,0,0:0:0:0:
256,192,184750,1,0,0:0:0:0:
329,192,184789,1,0,0:0:0:0:
475,192,184866,1,0,0:0:0:0:p2-11.wav
109,192,184866,1,0,0:0:0:0:
36,192,184866,1,0,0:0:0:0:k1.wav
402,192,184866,1,0,0:0:0:0:p2-39.wav
475,192,185022,1,0,0:0:0:0:
182,192,185022,1,0,0:0:0:0:
402,192,185100,1,0,0:0:0:0:p2-41.wav
329,192,185177,1,0,0:0:0:0:p2-42.wav
256,192,185255,1,0,0:0:0:0:p2-32.wav
475,192,185333,1,0,0:0:0:0:bbb109.wav
36,192,185333,1,0,0:0:0:0:k1.wav
402,192,185372,1,0,0:0:0:0:
329,192,185410,1,0,0:0:0:0:
109,192,185449,1,0,0:0:0:0:
182,192,185488,1,0,0:0:0:0:
475,192,185527,1,0,0:0:0:0:
256,192,185527,1,0,0:0:0:0:
402,192,185566,1,0,0:0:0:0:
329,192,185644,1,0,0:0:0:0:
109,192,185644,1,0,0:0:0:0:sn1.wav
36,192,185644,1,0,0:0:0:0:k3.wav
182,192,185683,1,0,0:0:0:0:k3.wav
329,192,185799,1,0,0:0:0:0:
256,192,185877,1,0,0:0:0:0:
36,192,185955,1,0,0:0:0:0:
182,192,185955,1,0,0:0:0:0:
109,192,186110,1,0,0:0:0:0:
329,192,186110,1,0,0:0:0:0:
475,192,186110,1,0,0:0:0:0:p2-32.wav
182,192,186265,1,0,0:0:0:0:
256,192,186265,1,0,0:0:0:0:p2-42.wav
36,192,186265,1,0,0:0:0:0:k2.wav
109,192,186421,1,0,0:0:0:0:
256,192,186421,1,0,0:0:0:0:
329,192,186421,1,0,0:0:0:0:p2-48.wav
475,192,186421,1,0,0:0:0:0:p2-47.wav
329,192,186576,1,0,0:0:0:0:p2-2.wav
475,192,186576,1,0,0:0:0:0:bbb128.wav
36,192,186576,1,0,0:0:0:0:k1.wav
182,192,186576,1,0,0:0:0:0:p2-1.wav
182,192,186732,1,0,0:0:0:0:bbb130.wav
402,192,186887,1,0,0:0:0:0:
329,192,186887,1,0,0:0:0:0:bbb132.wav
109,192,186887,1,0,0:0:0:0:sn1.wav
182,192,186965,1,0,0:0:0:0:bbb133.wav
256,192,187043,1,0,0:0:0:0:
475,192,187043,1,0,0:0:0:0:p2-4.wav
182,192,187120,1,0,0:0:0:0:
329,192,187198,1,0,0:0:0:0:
182,192,187276,1,0,0:0:0:0:bbb137.wav
109,192,187353,1,0,0:0:0:0:
329,192,187353,1,0,0:0:0:0:bbb138.wav
36,192,187353,1,0,0:0:0:0:k1.wav
256,192,187431,1,0,0:0:0:0:bbb139.wav
182,192,187509,1,0,0:0:0:0:
475,192,187509,1,0,0:0:0:0:p2-5.wav
402,192,187587,1,0,0:0:0:0:p2-6.wav
329,192,187664,1,0,0:0:0:0:p2-7.wav
256,192,187820,1,0,0:0:0:0:
182,192,187820,1,0,0:0:0:0:bbb143.wav
36,192,187820,1,0,0:0:0:0:k1.wav
329,192,187975,1,0,0:0:0:0:
182,192,188131,1,0,0:0:0:0:
402,192,188131,1,0,0:0:0:0:
475,192,188131,1,0,0:0:0:0:p2-10.wav
182,192,188286,1,0,0:0:0:0:
256,192,188286,1,0,0:0:0:0:
36,192,188286,1,0,0:0:0:0:k1.wav
329,192,188364,1,0,0:0:0:0:
402,192,188442,1,0,0:0:0:0:p2-10.wav
109,192,188442,1,0,0:0:0:0:bbb148.wav
256,192,188597,1,0,0:0:0:0:
475,192,188597,1,0,0:0:0:0:
36,192,188597,1,0,0:0:0:0:k1.wav
182,192,188597,1,0,0:0:0:0:
329,192,188752,1,0,0:0:0:0:bbb151.wav
109,192,188752,1,0,0:0:0:0:sn1.wav
182,192,188830,1,0,0:0:0:0:bbb152.wav
475,192,188908,1,0,0:0:0:0:p2-12.wav
329,192,188908,1,0,0:0:0:0:p2-13.wav
109,192,188908,1,0,0:0:0:0:bbb153.wav
182,192,188986,1,0,0:0:0:0:bbb154.wav
402,192,189063,1,0,0:0:0:0:p2-14.wav
256,192,189063,1,0,0:0:0:0:p2-15.wav
36,192,189063,1,0,0:0:0:0:k1.wav
475,192,189141,1,0,0:0:0:0:bbb156.wav
182,192,189219,1,0,0:0:0:0:
36,192,189219,1,0,0:0:0:0:k1.wav
256,192,189297,1,0,0:0:0:0:bbb158.wav
329,192,189374,1,0,0:0:0:0:bbb159.wav
109,192,189374,1,0,0:0:0:0:sn1.wav
182,192,189452,1,0,0:0:0:0:bbb160.wav
329,192,189530,1,0,0:0:0:0:bbb161.wav
182,192,189607,1,0,0:0:0:0:bbb162.wav
475,192,189685,1,0,0:0:0:0:p2-17.wav
402,192,189685,1,0,0:0:0:0:bbb163.wav
36,192,189685,1,0,0:0:0:0:p2-20.wav
329,192,189724,1,0,0:0:0:0:bbb164.wav
182,192,189763,1,0,0:0:0:0:bbb165.wav
402,192,189841,1,0,0:0:0:0:bbb166.wav
36,192,189841,1,0,0:0:0:0:k1.wav
256,192,189918,1,0,0:0:0:0:bbb167.wav
329,192,189996,1,0,0:0:0:0:p2-21.wav
329,192,190074,1,0,0:0:0:0:
182,192,190151,1,0,0:0:0:0:
182,192,190229,1,0,0:0:0:0:p2-24.wav
256,192,190307,1,0,0:0:0:0:p2-2.wav
402,192,190307,1,0,0:0:0:0:bbb172.wav
36,192,190307,1,0,0:0:0:0:k1.wav
109,192,190307,1,0,0:0:0:0:p2-1.wav
329,192,190462,1,0,0:0:0:0:p2-3.wav
36,192,190462,1,0,0:0:0:0:k1.wav
402,192,190618,1,0,0:0:0:0:bbb173.wav
109,192,190618,1,0,0:0:0:0:sn1.wav
36,192,190618,1,0,0:0:0:0:k3.wav
182,192,190657,1,0,0:0:0:0:k3.wav
256,192,190695,1,0,0:0:0:0:bbb174.wav
475,192,190734,1,0,0:0:0:0:k3.wav
329,192,190773,1,0,0:0:0:0:
402,192,190773,1,0,0:0:0:0:p2-4.wav
182,192,190851,1,0,0:0:0:0:bbb176.wav
329,192,190929,1,0,0:0:0:0:bbb177.wav
182,192,191006,1,0,0:0:0:0:bbb178.wav
329,192,191084,1,0,0:0:0:0:bbb179.wav
36,192,191084,1,0,0:0:0:0:k2.wav
329,192,191240,1,0,0:0:0:0:bbb180.wav
475,192,191240,1,0,0:0:0:0:p2-5.wav
36,192,191240,1,0,0:0:0:0:k2.wav
109,192,191240,1,0,0:0:0:0:sn1.wav
402,192,191317,1,0,0:0:0:0:p2-6.wav
329,192,191395,1,0,0:0:0:0:
36,192,191395,1,0,0:0:0:0:k2.wav
256,192,191473,1,0,0:0:0:0:p2-25.wav
182,192,191550,1,0,0:0:0:0:
36,192,191550,1,0,0:0:0:0:k1.wav
402,192,191706,1,0,0:0:0:0:p2-9.wav
475,192,191861,1,0,0:0:0:0:p2-10.wav
329,192,191861,1,0,0:0:0:0:p2-35.wav
109,192,191861,1,0,0:0:0:0:sn1.wav
182,192,191939,1,0,0:0:0:0:
329,192,192017,1,0,0:0:0:0:
182,192,192094,1,0,0:0:0:0:
256,192,192172,1,0,0:0:0:0:
402,192,192172,1,0,0:0:0:0:p2-10.wav
329,192,192328,1,0,0:0:0:0:p2-37.wav
475,192,192328,1,0,0:0:0:0:p2-11.wav
36,192,192328,1,0,0:0:0:0:k1.wav
182,192,192328,1,0,0:0:0:0:p2-36.wav
256,192,192483,1,0,0:0:0:0:p2-30.wav
109,192,192483,1,0,0:0:0:0:sn1.wav
329,192,192561,1,0,0:0:0:0:p2-31.wav
402,192,192638,1,0,0:0:0:0:p2-32.wav
475,192,192716,1,0,0:0:0:0:p2-33.wav
256,192,192794,1,0,0:0:0:0:
182,192,192794,1,0,0:0:0:0:p2-8.wav
36,192,192794,1,0,0:0:0:0:k1.wav
329,192,192949,1,0,0:0:0:0:p2-9.wav
475,192,193105,1,0,0:0:0:0:p2-10.wav
329,192,193105,1,0,0:0:0:0:p2-35.wav
109,192,193105,1,0,0:0:0:0:sn1.wav
182,192,193260,1,0,0:0:0:0:
256,192,193260,1,0,0:0:0:0:p2-9.wav
36,192,193260,1,0,0:0:0:0:k1.wav
402,192,193416,1,0,0:0:0:0:p2-10.wav
329,192,193571,1,0,0:0:0:0:p2-37.wav
475,192,193571,1,0,0:0:0:0:p2-11.wav
36,192,193571,1,0,0:0:0:0:k1.wav
182,192,193571,1,0,0:0:0:0:p2-36.wav
36,192,193727,1,0,0:0:0:0:
256,192,193727,1,0,0:0:0:0:
109,192,193727,1,0,0:0:0:0:sn1.wav
402,192,193727,1,0,0:0:0:0:p2-32.wav
256,192,193882,1,0,0:0:0:0:p2-31.wav
256,192,194037,1,0,0:0:0:0:
182,192,194037,1,0,0:0:0:0:p2-8.wav
36,192,194037,1,0,0:0:0:0:k1.wav
182,192,194193,1,0,0:0:0:0:
329,192,194193,1,0,0:0:0:0:p2-9.wav
36,192,194193,1,0,0:0:0:0:k1.wav
475,192,194348,1,0,0:0:0:0:p2-10.wav
329,192,194348,1,0,0:0:0:0:p2-35.wav
109,192,194348,1,0,0:0:0:0:sn1.wav
182,192,194426,1,0,0:0:0:0:
402,192,194504,1,0,0:0:0:0:
329,192,194504,1,0,0:0:0:0:
182,192,194581,1,0,0:0:0:0:
475,192,194659,1,0,0:0:0:0:
329,192,194659,1,0,0:0:0:0:
329,192,194815,1,0,0:0:0:0:p2-50.wav
475,192,194815,1,0,0:0:0:0:p2-11.wav
36,192,194815,1,0,0:0:0:0:k1.wav
182,192,194815,1,0,0:0:0:0:p2-49.wav
475,192,194970,1,0,0:0:0:0:p2-40.wav
109,192,194970,1,0,0:0:0:0:sn1.wav
402,192,195048,1,0,0:0:0:0:p2-41.wav
329,192,195126,1,0,0:0:0:0:p2-42.wav
256,192,195203,1,0,0:0:0:0:p2-32.wav
36,192,195281,1,0,0:0:0:0:
182,192,195281,1,0,0:0:0:0:p2-51.wav
402,192,195385,1,0,0:0:0:0:
182,192,195436,1,0,0:0:0:0:
36,192,195436,1,0,0:0:0:0:
256,192,195488,1,0,0:0:0:0:
475,192,195592,1,0,0:0:0:0:
402,192,195592,1,0,0:0:0:0:
109,192,195592,1,0,0:0:0:0:
182,192,195631,1,0,0:0:0:0:
329,192,195695,1,0,0:0:0:0:
182,192,195799,1,0,0:0:0:0:
36,192,195903,1,0,0:0:0:0:
402,192,195903,1,0,0:0:0:0:
475,192,196006,1,0,0:0:0:0:
182,192,196058,1,0,0:0:0:0:
109,192,196058,1,0,0:0:0:0:
329,192,196110,1,0,0:0:0:0:
182,192,196214,1,0,0:0:0:0:
402,192,196214,1,0,0:0:0:0:
36,192,196291,1,0,0:0:0:0:
256,192,196291,1,0,0:0:0:0:
182,192,196369,1,0,0:0:0:0:
329,192,196369,1,0,0:0:0:0:
36,192,196447,1,0,0:0:0:0:
402,192,196447,1,0,0:0:0:0:
256,192,196524,1,0,0:0:0:0:
475,192,196524,1,0,0:0:0:0:
182,192,196524,1,0,0:0:0:0:r14.wav
475,192,196680,1,0,0:0:0:0:
256,192,196680,1,0,0:0:0:0:
475,192,196835,1,0,0:0:0:0:
36,192,196835,1,0,0:0:0:0:
182,192,196835,1,0,0:0:0:0:sn4.wav
256,192,196835,1,0,0:0:0:0:
36,192,197146,1,0,0:0:0:0:sn3.wav
109,192,197185,1,0,0:0:0:0:sn3.5.wav
182,192,197224,1,0,0:0:0:0:sn3.wav
256,192,197263,1,0,0:0:0:0:sn3.5.wav
329,192,197302,1,0,0:0:0:0:sn3.wav
402,192,197341,1,0,0:0:0:0:sn3.5.wav
475,192,197379,1,0,0:0:0:0:sn3.wav
109,192,197418,1,0,0:0:0:0:sn3.5.wav
182,192,197457,1,0,0:0:0:0:sn3.wav
256,192,197496,1,0,0:0:0:0:sn3.5.wav
329,192,197535,1,0,0:0:0:0:sn3.wav
402,192,197574,1,0,0:0:0:0:sn3.5.wav
36,192,197613,1,0,0:0:0:0:sn4.wav
329,192,197768,1,0,0:0:0:0:
109,192,197768,1,0,0:0:0:0:h3.wav
182,192,197846,1,0,0:0:0:0:
475,192,197923,1,0,0:0:0:0:sn3.wav
402,192,197962,1,0,0:0:0:0:sn3.5.wav
329,192,198001,1,0,0:0:0:0:sn3.wav
256,192,198040,1,0,0:0:0:0:sn3.5.wav
182,192,198079,1,0,0:0:0:0:sn3.wav
109,192,198118,1,0,0:0:0:0:sn3.5.wav
36,192,198157,1,0,0:0:0:0:sn3.wav
402,192,198195,1,0,0:0:0:0:sn3.5.wav
329,192,198234,1,0,0:0:0:0:sn4.wav
36,192,198390,1,0,0:0:0:0:bb3-4.wav
109,192,198467,1,0,0:0:0:0:bb3-5.wav
182,192,198545,1,0,0:0:0:0:sn3.wav
256,192,198584,1,0,0:0:0:0:sn3.5.wav
329,192,198623,1,0,0:0:0:0:sn3.wav
402,192,198662,1,0,0:0:0:0:sn3.5.wav
475,192,198701,1,0,0:0:0:0:bb3-3.wav
256,192,198856,1,0,0:0:0:0:
182,192,198856,1,0,0:0:0:0:sn1.wav
475,192,199012,1,0,0:0:0:0:m1.wav
402,192,199050,1,0,0:0:0:0:
329,192,199089,1,0,0:0:0:0:bb3-7.wav
182,192,199128,1,0,0:0:0:0:bb3-8.wav
109,192,199167,1,0,0:0:0:0:
329,192,199245,1,0,0:0:0:0:
182,192,199322,1,0,0:0:0:0:
329,192,199400,1,0,0:0:0:0:
402,192,199478,1,0,0:0:0:0:bb3-13.wav
182,192,199478,1,0,0:0:0:0:sn2.wav
475,192,199556,1,0,0:0:0:0:bb3-14.wav
36,192,199633,1,0,0:0:0:0:sn3.wav
109,192,199672,1,0,0:0:0:0:sn3.5.wav
182,192,199711,1,0,0:0:0:0:sn3.wav
256,192,199750,1,0,0:0:0:0:sn3.5.wav
329,192,199789,1,0,0:0:0:0:sn3.wav
402,192,199828,1,0,0:0:0:0:sn3.5.wav
475,192,199866,1,0,0:0:0:0:sn3.wav
36,192,199905,1,0,0:0:0:0:sn3.5.wav
109,192,199944,1,0,0:0:0:0:sn3.wav
182,192,199983,1,0,0:0:0:0:sn3.5.wav
256,192,200022,1,0,0:0:0:0:sn3.wav
329,192,200061,1,0,0:0:0:0:sn3.5.wav
402,192,200100,1,0,0:0:0:0:sn4.wav
36,192,200255,1,0,0:0:0:0:bb3-1.wav
109,192,200333,1,0,0:0:0:0:bb3-2.wav
182,192,200410,1,0,0:0:0:0:sn3.wav
256,192,200449,1,0,0:0:0:0:sn3.5.wav
329,192,200488,1,0,0:0:0:0:sn3.wav
402,192,200527,1,0,0:0:0:0:sn3.5.wav
475,192,200566,1,0,0:0:0:0:sn3.wav
182,192,200644,1,0,0:0:0:0:sn3.5.wav
36,192,200721,1,0,0:0:0:0:bb3-1.wav
109,192,200799,1,0,0:0:0:0:bb3-2.wav
329,192,200877,1,0,0:0:0:0:
182,192,200877,1,0,0:0:0:0:sn1.wav
402,192,200955,1,0,0:0:0:0:
475,192,201188,1,0,0:0:0:0:
109,192,201188,1,0,0:0:0:0:
256,192,201188,1,0,0:0:0:0:v2-29.wav
402,192,201188,1,0,0:0:0:0:v16.wav
329,192,201265,1,0,0:0:0:0:
36,192,201343,1,0,0:0:0:0:sn3.wav
109,192,201382,1,0,0:0:0:0:sn3.5.wav
182,192,201421,1,0,0:0:0:0:sn3.wav
256,192,201460,1,0,0:0:0:0:sn3.5.wav
475,192,201499,1,0,0:0:0:0:cd.wav
329,192,201499,1,0,0:0:0:0:v2-30.wav
36,192,201499,1,0,0:0:0:0:bb3-1.wav
475,192,201654,1,0,0:0:0:0:bb3-3.wav
329,192,201654,1,0,0:0:0:0:v2-31.wav
329,192,201809,1,0,0:0:0:0:
475,192,201809,1,0,0:0:0:0:
182,192,201809,1,0,0:0:0:0:sn4.wav
36,192,201809,1,0,0:0:0:0:
475,192,202120,1,0,0:0:0:0:sn3.wav
402,192,202159,1,0,0:0:0:0:sn3.5.wav
329,192,202198,1,0,0:0:0:0:sn3.wav
256,192,202237,1,0,0:0:0:0:sn3.5.wav
182,192,202276,1,0,0:0:0:0:sn3.wav
109,192,202315,1,0,0:0:0:0:sn3.5.wav
36,192,202353,1,0,0:0:0:0:sn3.wav
402,192,202392,1,0,0:0:0:0:
329,192,202431,1,0,0:0:0:0:
256,192,202470,1,0,0:0:0:0:
109,192,202509,1,0,0:0:0:0:
182,192,202548,1,0,0:0:0:0:
402,192,202587,1,0,0:0:0:0:
329,192,202664,1,0,0:0:0:0:
256,192,202742,1,0,0:0:0:0:
475,192,202742,1,0,0:0:0:0:h3.wav
36,192,202742,1,0,0:0:0:0:bb3-1.wav
109,192,202820,1,0,0:0:0:0:bb3-2.wav
475,192,202898,1,0,0:0:0:0:sn3.wav
402,192,202936,1,0,0:0:0:0:sn3.5.wav
329,192,202975,1,0,0:0:0:0:sn3.wav
256,192,203014,1,0,0:0:0:0:sn3.5.wav
182,192,203053,1,0,0:0:0:0:sn3.wav
109,192,203092,1,0,0:0:0:0:sn3.5.wav
36,192,203131,1,0,0:0:0:0:sn3.wav
402,192,203170,1,0,0:0:0:0:
329,192,203208,1,0,0:0:0:0:sn4.wav
182,192,203364,1,0,0:0:0:0:
36,192,203364,1,0,0:0:0:0:bb3-4.wav
256,192,203442,1,0,0:0:0:0:
109,192,203442,1,0,0:0:0:0:bb3-5.wav
475,192,203519,1,0,0:0:0:0:sn3.wav
402,192,203558,1,0,0:0:0:0:sn3.5.wav
329,192,203597,1,0,0:0:0:0:sn3.wav
256,192,203636,1,0,0:0:0:0:sn3.5.wav
182,192,203675,1,0,0:0:0:0:bb3-3.wav
182,192,203830,1,0,0:0:0:0:sn1.wav
256,192,203986,1,0,0:0:0:0:
475,192,203986,1,0,0:0:0:0:m2.wav
36,192,203986,1,0,0:0:0:0:bb3-6.wav
182,192,204063,1,0,0:0:0:0:bb3-7.wav
329,192,204102,1,0,0:0:0:0:bb3-8.wav
109,192,204141,1,0,0:0:0:0:bb3-9.wav
402,192,204219,1,0,0:0:0:0:bb3-10.wav
329,192,204297,1,0,0:0:0:0:bb3-11.wav
182,192,204297,1,0,0:0:0:0:sn2.wav
109,192,204335,1,0,0:0:0:0:
402,192,204374,1,0,0:0:0:0:bb3-12.wav
329,192,204452,1,0,0:0:0:0:bb3-13.wav
182,192,204452,1,0,0:0:0:0:sn2.wav
109,192,204530,1,0,0:0:0:0:bb3-14.wav
475,192,204607,1,0,0:0:0:0:sn3.wav
402,192,204646,1,0,0:0:0:0:sn3.5.wav
329,192,204685,1,0,0:0:0:0:sn3.wav
256,192,204724,1,0,0:0:0:0:sn3.5.wav
182,192,204763,1,0,0:0:0:0:sn3.wav
109,192,204802,1,0,0:0:0:0:sn3.5.wav
36,192,204841,1,0,0:0:0:0:sn3.wav
402,192,204879,1,0,0:0:0:0:sn3.5.wav
329,192,204918,1,0,0:0:0:0:sn3.wav
256,192,204957,1,0,0:0:0:0:sn3.5.wav
182,192,204996,1,0,0:0:0:0:sn3.wav
109,192,205035,1,0,0:0:0:0:sn3.5.wav
36,192,205074,1,0,0:0:0:0:sn4.wav
182,192,205229,1,0,0:0:0:0:
256,192,205229,1,0,0:0:0:0:
329,192,205229,1,0,0:0:0:0:m3.wav
475,192,205307,1,0,0:0:0:0:bb3-25.wav
36,192,205385,1,0,0:0:0:0:sn3.wav
109,192,205423,1,0,0:0:0:0:sn3.5.wav
182,192,205462,1,0,0:0:0:0:sn3.wav
256,192,205501,1,0,0:0:0:0:sn3.5.wav
329,192,205540,1,0,0:0:0:0:sn3.wav
36,192,205579,1,0,0:0:0:0:
109,192,205618,1,0,0:0:0:0:
402,192,205618,1,0,0:0:0:0:sn3.5.wav
182,192,205657,1,0,0:0:0:0:
475,192,205695,1,0,0:0:0:0:sn4.wav
329,192,205773,1,0,0:0:0:0:
109,192,205851,1,0,0:0:0:0:
36,192,205851,1,0,0:0:0:0:bb3-33.wav
475,192,205929,1,0,0:0:0:0:bb3-34.wav
329,192,206006,1,0,0:0:0:0:sn3.wav
256,192,206045,1,0,0:0:0:0:sn3.5.wav
182,192,206084,1,0,0:0:0:0:sn3.wav
109,192,206123,1,0,0:0:0:0:sn3.5.wav
36,192,206162,1,0,0:0:0:0:sn3.wav
256,192,206240,1,0,0:0:0:0:
182,192,206317,1,0,0:0:0:0:sn3.wav
256,192,206395,1,0,0:0:0:0:sn3.5.wav
475,192,206473,1,0,0:0:0:0:h1.wav
109,192,206473,1,0,0:0:0:0:
36,192,206473,1,0,0:0:0:0:bb3-1.wav
329,192,206473,1,0,0:0:0:0:v20.wav
329,192,206628,1,0,0:0:0:0:v21.wav
109,192,206628,1,0,0:0:0:0:r21.wav
109,192,206784,1,0,0:0:0:0:
36,192,206784,1,0,0:0:0:0:
475,192,206784,1,0,0:0:0:0:ride.wav
329,192,206784,1,0,0:0:0:0:
36,192,207094,1,0,0:0:0:0:sn3.wav
109,192,207133,1,0,0:0:0:0:sn3.5.wav
182,192,207172,1,0,0:0:0:0:sn3.wav
256,192,207211,1,0,0:0:0:0:sn3.5.wav
329,192,207250,1,0,0:0:0:0:sn3.wav
402,192,207289,1,0,0:0:0:0:sn3.5.wav
36,192,207328,1,0,0:0:0:0:sn3.wav
109,192,207366,1,0,0:0:0:0:sn3.5.wav
182,192,207405,1,0,0:0:0:0:sn3.wav
256,192,207444,1,0,0:0:0:0:sn3.5.wav
329,192,207483,1,0,0:0:0:0:sn3.wav
402,192,207522,1,0,0:0:0:0:sn3.5.wav
475,192,207561,1,0,0:0:0:0:
182,192,207716,1,0,0:0:0:0:
475,192,207716,1,0,0:0:0:0:ride.wav
329,192,207716,1,0,0:0:0:0:h3.wav
256,192,207794,1,0,0:0:0:0:
36,192,207872,1,0,0:0:0:0:sn3.wav
109,192,207910,1,0,0:0:0:0:sn3.5.wav
182,192,207949,1,0,0:0:0:0:sn3.wav
256,192,207988,1,0,0:0:0:0:sn3.5.wav
329,192,208027,1,0,0:0:0:0:sn3.wav
402,192,208066,1,0,0:0:0:0:sn3.5.wav
36,192,208105,1,0,0:0:0:0:sn3.wav
109,192,208144,1,0,0:0:0:0:
182,192,208183,1,0,0:0:0:0:
329,192,208338,1,0,0:0:0:0:
475,192,208338,1,0,0:0:0:0:ride.wav
36,192,208338,1,0,0:0:0:0:bb3-4.wav
109,192,208416,1,0,0:0:0:0:bb3-5.wav
182,192,208493,1,0,0:0:0:0:sn3.wav
256,192,208532,1,0,0:0:0:0:sn3.5.wav
329,192,208571,1,0,0:0:0:0:sn3.wav
402,192,208610,1,0,0:0:0:0:sn3.5.wav
36,192,208649,1,0,0:0:0:0:
475,192,208649,1,0,0:0:0:0:ride.wav
256,192,208804,1,0,0:0:0:0:
182,192,208804,1,0,0:0:0:0:sn1.wav
475,192,208960,1,0,0:0:0:0:ride.wav
36,192,208960,1,0,0:0:0:0:m1.wav
329,192,209037,1,0,0:0:0:0:bb3-7.wav
182,192,209076,1,0,0:0:0:0:bb3-8.wav
109,192,209115,1,0,0:0:0:0:
329,192,209193,1,0,0:0:0:0:bb3-10.wav
256,192,209271,1,0,0:0:0:0:
475,192,209271,1,0,0:0:0:0:ride.wav
36,192,209271,1,0,0:0:0:0:bb3-11.wav
109,192,209348,1,0,0:0:0:0:bb3-12.wav
329,192,209426,1,0,0:0:0:0:bb3-13.wav
182,192,209426,1,0,0:0:0:0:sn2.wav
256,192,209504,1,0,0:0:0:0:bb3-14.wav
36,192,209581,1,0,0:0:0:0:sn3.wav
109,192,209620,1,0,0:0:0:0:sn3.5.wav
182,192,209659,1,0,0:0:0:0:sn3.wav
256,192,209698,1,0,0:0:0:0:sn3.5.wav
329,192,209737,1,0,0:0:0:0:sn3.wav
402,192,209776,1,0,0:0:0:0:sn3.5.wav
36,192,209815,1,0,0:0:0:0:sn3.wav
109,192,209853,1,0,0:0:0:0:sn3.5.wav
182,192,209892,1,0,0:0:0:0:sn3.wav
256,192,209931,1,0,0:0:0:0:sn3.5.wav
329,192,209970,1,0,0:0:0:0:sn3.wav
402,192,210009,1,0,0:0:0:0:sn3.5.wav
109,192,210048,1,0,0:0:0:0:
256,192,210126,1,0,0:0:0:0:
329,192,210203,1,0,0:0:0:0:
475,192,210203,1,0,0:0:0:0:ride.wav
402,192,210281,1,0,0:0:0:0:
36,192,210359,1,0,0:0:0:0:sn3.wav
109,192,210398,1,0,0:0:0:0:sn3.5.wav
182,192,210436,1,0,0:0:0:0:sn3.wav
256,192,210475,1,0,0:0:0:0:sn3.5.wav
475,192,210514,1,0,0:0:0:0:ride.wav
329,192,210514,1,0,0:0:0:0:sn3.wav
402,192,210592,1,0,0:0:0:0:sn3.5.wav
36,192,210670,1,0,0:0:0:0:bb3-1.wav
109,192,210747,1,0,0:0:0:0:bb3-2.wav
475,192,210825,1,0,0:0:0:0:ride.wav
182,192,210825,1,0,0:0:0:0:sn1.wav
109,192,210903,1,0,0:0:0:0:bb3-2.wav
475,192,211136,1,0,0:0:0:0:ride.wav
402,192,211136,1,0,0:0:0:0:v16.wav
36,192,211136,1,0,0:0:0:0:bb3-1.wav
109,192,211214,1,0,0:0:0:0:
329,192,211291,1,0,0:0:0:0:sn3.wav
256,192,211330,1,0,0:0:0:0:sn3.5.wav
182,192,211369,1,0,0:0:0:0:sn3.wav
109,192,211408,1,0,0:0:0:0:sn3.5.wav
475,192,211447,1,0,0:0:0:0:cd.wav
402,192,211447,1,0,0:0:0:0:v17.wav
36,192,211447,1,0,0:0:0:0:bb3-1.wav
475,192,211602,1,0,0:0:0:0:
402,192,211602,1,0,0:0:0:0:v18.wav
402,192,211758,1,0,0:0:0:0:
36,192,211758,1,0,0:0:0:0:
182,192,211758,1,0,0:0:0:0:sn4.wav
475,192,211758,1,0,0:0:0:0:ride.wav
402,192,212069,1,0,0:0:0:0:sn3.wav
329,192,212107,1,0,0:0:0:0:sn3.5.wav
256,192,212146,1,0,0:0:0:0:sn3.wav
182,192,212185,1,0,0:0:0:0:sn3.5.wav
109,192,212224,1,0,0:0:0:0:sn3.wav
36,192,212263,1,0,0:0:0:0:sn3.5.wav
402,192,212302,1,0,0:0:0:0:sn3.wav
329,192,212341,1,0,0:0:0:0:sn3.5.wav
256,192,212379,1,0,0:0:0:0:sn3.wav
182,192,212418,1,0,0:0:0:0:sn3.5.wav
109,192,212457,1,0,0:0:0:0:sn3.wav
36,192,212496,1,0,0:0:0:0:sn3.5.wav
182,192,212690,1,0,0:0:0:0:
475,192,212690,1,0,0:0:0:0:ride.wav
109,192,212768,1,0,0:0:0:0:bb3-2.wav
402,192,212846,1,0,0:0:0:0:sn3.wav
329,192,212885,1,0,0:0:0:0:sn3.5.wav
256,192,212923,1,0,0:0:0:0:sn3.wav
182,192,212962,1,0,0:0:0:0:sn3.5.wav
109,192,213001,1,0,0:0:0:0:sn3.wav
36,192,213040,1,0,0:0:0:0:sn3.5.wav
475,192,213079,1,0,0:0:0:0:
329,192,213118,1,0,0:0:0:0:
256,192,213157,1,0,0:0:0:0:
109,192,213312,1,0,0:0:0:0:
475,192,213312,1,0,0:0:0:0:ride.wav
36,192,213312,1,0,0:0:0:0:bb3-4.wav
402,192,213467,1,0,0:0:0:0:sn3.wav
329,192,213506,1,0,0:0:0:0:sn3.5.wav
256,192,213545,1,0,0:0:0:0:sn3.wav
182,192,213584,1,0,0:0:0:0:sn3.5.wav
475,192,213623,1,0,0:0:0:0:ride.wav
36,192,213623,1,0,0:0:0:0:bb3-3.wav
329,192,213778,1,0,0:0:0:0:
182,192,213778,1,0,0:0:0:0:sn1.wav
475,192,213934,1,0,0:0:0:0:ride.wav
256,192,213934,1,0,0:0:0:0:m1.wav
36,192,213934,1,0,0:0:0:0:bb3-6.wav
329,192,214012,1,0,0:0:0:0:bb3-7.wav
182,192,214050,1,0,0:0:0:0:bb3-8.wav
402,192,214089,1,0,0:0:0:0:bb3-9.wav
256,192,214167,1,0,0:0:0:0:
109,192,214167,1,0,0:0:0:0:bb3-10.wav
475,192,214245,1,0,0:0:0:0:ride.wav
182,192,214245,1,0,0:0:0:0:sn2.wav
36,192,214245,1,0,0:0:0:0:bb3-11.wav
329,192,214322,1,0,0:0:0:0:bb3-12.wav
402,192,214400,1,0,0:0:0:0:bb3-13.wav
182,192,214400,1,0,0:0:0:0:sn2.wav
329,192,214478,1,0,0:0:0:0:bb3-14.wav
475,192,214556,1,0,0:0:0:0:ride.wav
36,192,214556,1,0,0:0:0:0:sn3.wav
109,192,214594,1,0,0:0:0:0:sn3.5.wav
182,192,214633,1,0,0:0:0:0:sn3.wav
256,192,214672,1,0,0:0:0:0:sn3.5.wav
329,192,214711,1,0,0:0:0:0:sn3.wav
402,192,214750,1,0,0:0:0:0:sn3.5.wav
36,192,214789,1,0,0:0:0:0:sn3.wav
109,192,214828,1,0,0:0:0:0:sn3.5.wav
182,192,214866,1,0,0:0:0:0:sn3.wav
256,192,214905,1,0,0:0:0:0:sn3.5.wav
329,192,214944,1,0,0:0:0:0:sn3.wav
402,192,214983,1,0,0:0:0:0:sn3.5.wav
109,192,215022,1,0,0:0:0:0:
182,192,215100,1,0,0:0:0:0:
256,192,215177,1,0,0:0:0:0:
475,192,215177,1,0,0:0:0:0:ride.wav
36,192,215177,1,0,0:0:0:0:bb3-24.wav
402,192,215333,1,0,0:0:0:0:sn3.wav
329,192,215372,1,0,0:0:0:0:sn3.5.wav
256,192,215410,1,0,0:0:0:0:sn3.wav
182,192,215449,1,0,0:0:0:0:sn3.5.wav
475,192,215488,1,0,0:0:0:0:ride.wav
109,192,215488,1,0,0:0:0:0:sn3.wav
402,192,215566,1,0,0:0:0:0:bb3-29.wav
36,192,215566,1,0,0:0:0:0:sn3.5.wav
256,192,215605,1,0,0:0:0:0:bb3-30.wav
182,192,215644,1,0,0:0:0:0:sn4.wav
109,192,215721,1,0,0:0:0:0:bb3-32.wav
329,192,215799,1,0,0:0:0:0:
475,192,215799,1,0,0:0:0:0:ride.wav
36,192,215799,1,0,0:0:0:0:bb3-33.wav
329,192,215955,1,0,0:0:0:0:bb3-35.wav
36,192,215955,1,0,0:0:0:0:sn3.wav
109,192,215993,1,0,0:0:0:0:sn3.5.wav
182,192,216032,1,0,0:0:0:0:sn3.wav
256,192,216071,1,0,0:0:0:0:sn3.5.wav
402,192,216110,1,0,0:0:0:0:
475,192,216110,1,0,0:0:0:0:ride.wav
329,192,216110,1,0,0:0:0:0:sn3.wav
182,192,216188,1,0,0:0:0:0:sn3.5.wav
329,192,216265,1,0,0:0:0:0:sn3.wav
182,192,216343,1,0,0:0:0:0:sn3.5.wav
256,192,216421,1,0,0:0:0:0:
36,192,216421,1,0,0:0:0:0:
475,192,216421,1,0,0:0:0:0:h1.wav
402,192,219001,1,0,0:0:0:0:v23.wav
36,192,219001,1,0,0:0:0:0:k1.wav
182,192,219078,1,0,0:0:0:0:bbb2.wav
256,192,219156,1,0,0:0:0:0:v2-37.wav
329,192,219234,1,0,0:0:0:0:bbb4.wav
36,192,219311,1,0,0:0:0:0:
475,192,219311,1,0,0:0:0:0:bbb5.wav
109,192,219350,1,0,0:0:0:0:
182,192,219467,1,0,0:0:0:0:
329,192,219467,1,0,0:0:0:0:v2-38.wav
402,192,219545,1,0,0:0:0:0:
329,192,219622,1,0,0:0:0:0:
402,192,219700,1,0,0:0:0:0:
256,192,219778,1,0,0:0:0:0:
182,192,219778,1,0,0:0:0:0:v2-39.wav
36,192,219778,1,0,0:0:0:0:k1.wav
329,192,219855,1,0,0:0:0:0:
402,192,219933,1,0,0:0:0:0:
109,192,219933,1,0,0:0:0:0:sn1.wav
182,192,220011,1,0,0:0:0:0:bbb14.wav
475,192,220089,1,0,0:0:0:0:
329,192,220089,1,0,0:0:0:0:
256,192,220166,1,0,0:0:0:0:
475,192,220244,1,0,0:0:0:0:h3.wav
402,192,220244,1,0,0:0:0:0:
36,192,220244,1,0,0:0:0:0:k1.wav
109,192,220244,1,0,0:0:0:0:bbb17.wav
329,192,220322,1,0,0:0:0:0:bbb18.wav
402,192,220399,1,0,0:0:0:0:v29.wav
109,192,220399,1,0,0:0:0:0:bbb19.wav
182,192,220477,1,0,0:0:0:0:bbb20.wav
402,192,220555,1,0,0:0:0:0:
109,192,220555,1,0,0:0:0:0:sn1.wav
329,192,220633,1,0,0:0:0:0:
256,192,220710,1,0,0:0:0:0:
182,192,220710,1,0,0:0:0:0:bbb23.wav
36,192,220710,1,0,0:0:0:0:k1.wav
402,192,220788,1,0,0:0:0:0:
475,192,220866,1,0,0:0:0:0:
256,192,221021,1,0,0:0:0:0:v2-44.wav
402,192,221021,1,0,0:0:0:0:v31.wav
36,192,221021,1,0,0:0:0:0:k1.wav
182,192,221021,1,0,0:0:0:0:bbb27.wav
475,192,221177,1,0,0:0:0:0:bbb28.wav
329,192,221177,1,0,0:0:0:0:v32.wav
109,192,221177,1,0,0:0:0:0:sn1.wav
402,192,221216,1,0,0:0:0:0:bbb29.wav
256,192,221254,1,0,0:0:0:0:bbb30.wav
182,192,221332,1,0,0:0:0:0:v2-46.wav
109,192,221410,1,0,0:0:0:0:bbb32.wav
329,192,221488,1,0,0:0:0:0:
256,192,221488,1,0,0:0:0:0:v2-41.wav
36,192,221488,1,0,0:0:0:0:k1.wav
402,192,221565,1,0,0:0:0:0:
329,192,221643,1,0,0:0:0:0:
256,192,221643,1,0,0:0:0:0:v2-37.wav
36,192,221643,1,0,0:0:0:0:k1.wav
402,192,221721,1,0,0:0:0:0:
256,192,221798,1,0,0:0:0:0:
109,192,221798,1,0,0:0:0:0:sn1.wav
329,192,221837,1,0,0:0:0:0:
36,192,221954,1,0,0:0:0:0:
182,192,221954,1,0,0:0:0:0:
256,192,221993,1,0,0:0:0:0:
329,192,222032,1,0,0:0:0:0:
475,192,222109,1,0,0:0:0:0:bbb41.wav
329,192,222187,1,0,0:0:0:0:
475,192,222265,1,0,0:0:0:0:
182,192,222265,1,0,0:0:0:0:
36,192,222265,1,0,0:0:0:0:k1.wav
109,192,222265,1,0,0:0:0:0:bbb43.wav
329,192,222342,1,0,0:0:0:0:
402,192,222420,1,0,0:0:0:0:
109,192,222420,1,0,0:0:0:0:sn1.wav
182,192,222459,1,0,0:0:0:0:
256,192,222498,1,0,0:0:0:0:
475,192,222576,1,0,0:0:0:0:v27.wav
109,192,222576,1,0,0:0:0:0:bbb47.wav
329,192,222653,1,0,0:0:0:0:bbb48.wav
36,192,222731,1,0,0:0:0:0:
256,192,222731,1,0,0:0:0:0:v2-41.wav
182,192,222731,1,0,0:0:0:0:bbb49.wav
402,192,222809,1,0,0:0:0:0:
36,192,222887,1,0,0:0:0:0:
256,192,222887,1,0,0:0:0:0:v2-42.wav
182,192,222887,1,0,0:0:0:0:bbb51.wav
402,192,222964,1,0,0:0:0:0:
109,192,223042,1,0,0:0:0:0:sn1.wav
182,192,223081,1,0,0:0:0:0:k3.wav
329,192,223120,1,0,0:0:0:0:k3.wav
256,192,223120,1,0,0:0:0:0:bbb54.wav
475,192,223159,1,0,0:0:0:0:k3.wav
109,192,223197,1,0,0:0:0:0:
402,192,223197,1,0,0:0:0:0:v30.wav
182,192,223275,1,0,0:0:0:0:
329,192,223353,1,0,0:0:0:0:
256,192,223392,1,0,0:0:0:0:
182,192,223431,1,0,0:0:0:0:
329,192,223508,1,0,0:0:0:0:v31.wav
109,192,223508,1,0,0:0:0:0:bbb60.wav
36,192,223508,1,0,0:0:0:0:k2.wav
329,192,223664,1,0,0:0:0:0:v32.wav
475,192,223664,1,0,0:0:0:0:bbb61.wav
36,192,223664,1,0,0:0:0:0:k2.wav
109,192,223664,1,0,0:0:0:0:sn1.wav
256,192,223741,1,0,0:0:0:0:bbb62.wav
475,192,223819,1,0,0:0:0:0:
329,192,223819,1,0,0:0:0:0:
109,192,223819,1,0,0:0:0:0:
182,192,223897,1,0,0:0:0:0:
402,192,223975,1,0,0:0:0:0:v34.wav
475,192,223975,1,0,0:0:0:0:
36,192,223975,1,0,0:0:0:0:k1.wav
256,192,223975,1,0,0:0:0:0:v2-41.wav
402,192,224130,1,0,0:0:0:0:v24.wav
256,192,224130,1,0,0:0:0:0:v2-37.wav
329,192,224285,1,0,0:0:0:0:bbb66.wav
109,192,224285,1,0,0:0:0:0:sn1.wav
256,192,224363,1,0,0:0:0:0:bbb67.wav
475,192,224441,1,0,0:0:0:0:v25.wav
329,192,224441,1,0,0:0:0:0:v2-38.wav
109,192,224441,1,0,0:0:0:0:bbb68.wav
182,192,224519,1,0,0:0:0:0:bbb69.wav
402,192,224596,1,0,0:0:0:0:bbb70.wav
329,192,224635,1,0,0:0:0:0:
256,192,224674,1,0,0:0:0:0:bbb71.wav
475,192,224752,1,0,0:0:0:0:bbb72.wav
182,192,224752,1,0,0:0:0:0:v2-39.wav
36,192,224752,1,0,0:0:0:0:k1.wav
256,192,224830,1,0,0:0:0:0:
402,192,224907,1,0,0:0:0:0:
329,192,224907,1,0,0:0:0:0:
109,192,224907,1,0,0:0:0:0:sn1.wav
256,192,224985,1,0,0:0:0:0:bbb75.wav
36,192,225063,1,0,0:0:0:0:
475,192,225063,1,0,0:0:0:0:v27.wav
182,192,225063,1,0,0:0:0:0:bbb76.wav
402,192,225218,1,0,0:0:0:0:v28.wav
475,192,225218,1,0,0:0:0:0:h3.wav
109,192,225218,1,0,0:0:0:0:bbb77.wav
256,192,225218,1,0,0:0:0:0:v2-41.wav
182,192,225296,1,0,0:0:0:0:
109,192,225374,1,0,0:0:0:0:
402,192,225374,1,0,0:0:0:0:v29.wav
182,192,225451,1,0,0:0:0:0:bbb80.wav
329,192,225529,1,0,0:0:0:0:bbb81.wav
109,192,225529,1,0,0:0:0:0:sn1.wav
256,192,225568,1,0,0:0:0:0:
402,192,225607,1,0,0:0:0:0:
475,192,225684,1,0,0:0:0:0:v30.wav
329,192,225684,1,0,0:0:0:0:v2-43.wav
182,192,225684,1,0,0:0:0:0:bbb83.wav
36,192,225762,1,0,0:0:0:0:
256,192,225840,1,0,0:0:0:0:
182,192,225918,1,0,0:0:0:0:bbb86.wav
475,192,225995,1,0,0:0:0:0:
329,192,225995,1,0,0:0:0:0:
109,192,225995,1,0,0:0:0:0:bbb87.wav
182,192,226151,1,0,0:0:0:0:
475,192,226151,1,0,0:0:0:0:bbb88.wav
329,192,226151,1,0,0:0:0:0:v32.wav
36,192,226228,1,0,0:0:0:0:
329,192,226306,1,0,0:0:0:0:
109,192,226306,1,0,0:0:0:0:
182,192,226384,1,0,0:0:0:0:
402,192,226462,1,0,0:0:0:0:v34.wav
256,192,226462,1,0,0:0:0:0:v2-41.wav
36,192,226462,1,0,0:0:0:0:k1.wav
475,192,226539,1,0,0:0:0:0:bbb93.wav
402,192,226617,1,0,0:0:0:0:v24.wav
256,192,226617,1,0,0:0:0:0:v2-37.wav
36,192,226617,1,0,0:0:0:0:k1.wav
475,192,226695,1,0,0:0:0:0:bbb95.wav
329,192,226773,1,0,0:0:0:0:bbb96.wav
109,192,226773,1,0,0:0:0:0:sn1.wav
256,192,226850,1,0,0:0:0:0:bbb97.wav
475,192,226928,1,0,0:0:0:0:v25.wav
329,192,226928,1,0,0:0:0:0:v2-38.wav
109,192,226928,1,0,0:0:0:0:bbb98.wav
182,192,227006,1,0,0:0:0:0:bbb99.wav
475,192,227083,1,0,0:0:0:0:bbb100.wav
329,192,227122,1,0,0:0:0:0:bbb101.wav
109,192,227161,1,0,0:0:0:0:bbb102.wav
182,192,227239,1,0,0:0:0:0:
36,192,227239,1,0,0:0:0:0:
402,192,227239,1,0,0:0:0:0:v26.wav
475,192,227317,1,0,0:0:0:0:bbb104.wav
109,192,227394,1,0,0:0:0:0:
329,192,227394,1,0,0:0:0:0:bbb105.wav
182,192,227472,1,0,0:0:0:0:bbb106.wav
475,192,227550,1,0,0:0:0:0:v27.wav
329,192,227550,1,0,0:0:0:0:v2-40.wav
182,192,227627,1,0,0:0:0:0:bbb108.wav
402,192,227705,1,0,0:0:0:0:v35.wav
109,192,227705,1,0,0:0:0:0:
36,192,227705,1,0,0:0:0:0:k1.wav
256,192,227705,1,0,0:0:0:0:v2-47.wav
475,192,227809,1,0,0:0:0:0:v36.wav
329,192,227809,1,0,0:0:0:0:v2-48.wav
109,192,227861,1,0,0:0:0:0:
36,192,227861,1,0,0:0:0:0:k1.wav
402,192,227912,1,0,0:0:0:0:v37.wav
256,192,227912,1,0,0:0:0:0:v2-49.wav
36,192,228016,1,0,0:0:0:0:
329,192,228016,1,0,0:0:0:0:v38.wav
182,192,228016,1,0,0:0:0:0:v2-50.wav
402,192,228120,1,0,0:0:0:0:v39.wav
256,192,228120,1,0,0:0:0:0:v2-51.wav
329,192,228223,1,0,0:0:0:0:v40.wav
182,192,228223,1,0,0:0:0:0:v2-52.wav
475,192,228327,1,0,0:0:0:0:
256,192,228327,1,0,0:0:0:0:v41.wav
109,192,228327,1,0,0:0:0:0:v2-53.wav
329,192,228431,1,0,0:0:0:0:v42.wav
182,192,228431,1,0,0:0:0:0:v2-54.wav
36,192,228482,1,0,0:0:0:0:k2.wav
256,192,228534,1,0,0:0:0:0:v43.wav
109,192,228534,1,0,0:0:0:0:v2-55.wav
475,192,228638,1,0,0:0:0:0:sn1.wav
329,192,228638,1,0,0:0:0:0:v44.wav
182,192,228638,1,0,0:0:0:0:v2-56.wav
402,192,228741,1,0,0:0:0:0:v45.wav
256,192,228741,1,0,0:0:0:0:v2-57.wav
109,192,228793,1,0,0:0:0:0:
36,192,228793,1,0,0:0:0:0:k2.wav
329,192,228845,1,0,0:0:0:0:v46.wav
182,192,228845,1,0,0:0:0:0:v2-58.wav
402,192,228949,1,0,0:0:0:0:bbb128.wav
475,192,228949,1,0,0:0:0:0:
256,192,228949,1,0,0:0:0:0:v34.wav
36,192,228949,1,0,0:0:0:0:k1.wav
109,192,228949,1,0,0:0:0:0:v2-59.wav
329,192,229104,1,0,0:0:0:0:
109,192,229104,1,0,0:0:0:0:
256,192,229104,1,0,0:0:0:0:
402,192,229182,1,0,0:0:0:0:bbb131.wav
182,192,229260,1,0,0:0:0:0:
36,192,229260,1,0,0:0:0:0:
329,192,229260,1,0,0:0:0:0:bbb132.wav
36,192,229415,1,0,0:0:0:0:
256,192,229415,1,0,0:0:0:0:v2-38.wav
109,192,229415,1,0,0:0:0:0:bbb134.wav
402,192,229493,1,0,0:0:0:0:
329,192,229570,1,0,0:0:0:0:bbb136.wav
402,192,229648,1,0,0:0:0:0:bbb137.wav
256,192,229726,1,0,0:0:0:0:
182,192,229726,1,0,0:0:0:0:v2-39.wav
36,192,229726,1,0,0:0:0:0:k1.wav
329,192,229804,1,0,0:0:0:0:
475,192,229881,1,0,0:0:0:0:
402,192,229881,1,0,0:0:0:0:
109,192,229881,1,0,0:0:0:0:sn1.wav
182,192,229959,1,0,0:0:0:0:
256,192,230037,1,0,0:0:0:0:
402,192,230037,1,0,0:0:0:0:v27.wav
329,192,230037,1,0,0:0:0:0:bbb142.wav
256,192,230192,1,0,0:0:0:0:v28.wav
329,192,230192,1,0,0:0:0:0:bbb143.wav
36,192,230192,1,0,0:0:0:0:k1.wav
109,192,230192,1,0,0:0:0:0:v2-41.wav
36,192,230348,1,0,0:0:0:0:
109,192,230348,1,0,0:0:0:0:v2-42.wav
402,192,230503,1,0,0:0:0:0:
329,192,230503,1,0,0:0:0:0:bbb144.wav
256,192,230542,1,0,0:0:0:0:
182,192,230581,1,0,0:0:0:0:
109,192,230659,1,0,0:0:0:0:
402,192,230659,1,0,0:0:0:0:
36,192,230659,1,0,0:0:0:0:k1.wav
475,192,230659,1,0,0:0:0:0:v30.wav
329,192,230697,1,0,0:0:0:0:
182,192,230736,1,0,0:0:0:0:
329,192,230814,1,0,0:0:0:0:
182,192,230892,1,0,0:0:0:0:
256,192,230969,1,0,0:0:0:0:v2-44.wav
109,192,230969,1,0,0:0:0:0:bbb150.wav
36,192,230969,1,0,0:0:0:0:k1.wav
256,192,231125,1,0,0:0:0:0:
475,192,231125,1,0,0:0:0:0:bbb151.wav
329,192,231125,1,0,0:0:0:0:v32.wav
109,192,231203,1,0,0:0:0:0:
329,192,231280,1,0,0:0:0:0:
182,192,231280,1,0,0:0:0:0:
256,192,231358,1,0,0:0:0:0:bbb154.wav
109,192,231436,1,0,0:0:0:0:
402,192,231436,1,0,0:0:0:0:
36,192,231436,1,0,0:0:0:0:k1.wav
475,192,231513,1,0,0:0:0:0:bbb156.wav
109,192,231591,1,0,0:0:0:0:
402,192,231591,1,0,0:0:0:0:
36,192,231591,1,0,0:0:0:0:k1.wav
475,192,231669,1,0,0:0:0:0:bbb158.wav
256,192,231747,1,0,0:0:0:0:
329,192,231747,1,0,0:0:0:0:bbb159.wav
182,192,231824,1,0,0:0:0:0:
36,192,231902,1,0,0:0:0:0:
402,192,231902,1,0,0:0:0:0:v25.wav
109,192,231902,1,0,0:0:0:0:bbb161.wav
256,192,231980,1,0,0:0:0:0:
475,192,232057,1,0,0:0:0:0:bbb163.wav
329,192,232096,1,0,0:0:0:0:bbb164.wav
182,192,232135,1,0,0:0:0:0:bbb165.wav
256,192,232213,1,0,0:0:0:0:v26.wav
475,192,232213,1,0,0:0:0:0:bbb166.wav
36,192,232213,1,0,0:0:0:0:k1.wav
109,192,232213,1,0,0:0:0:0:v2-39.wav
329,192,232291,1,0,0:0:0:0:bbb167.wav
402,192,232368,1,0,0:0:0:0:bbb168.wav
109,192,232368,1,0,0:0:0:0:sn1.wav
182,192,232407,1,0,0:0:0:0:
256,192,232446,1,0,0:0:0:0:bbb169.wav
109,192,232524,1,0,0:0:0:0:
36,192,232524,1,0,0:0:0:0:
475,192,232602,1,0,0:0:0:0:
329,192,232602,1,0,0:0:0:0:
256,192,232679,1,0,0:0:0:0:
182,192,232679,1,0,0:0:0:0:v2-41.wav
36,192,232679,1,0,0:0:0:0:k1.wav
256,192,232835,1,0,0:0:0:0:
182,192,232835,1,0,0:0:0:0:v2-42.wav
36,192,232835,1,0,0:0:0:0:k1.wav
109,192,232990,1,0,0:0:0:0:sn1.wav
182,192,233029,1,0,0:0:0:0:k3.wav
329,192,233068,1,0,0:0:0:0:
256,192,233068,1,0,0:0:0:0:bbb174.wav
475,192,233107,1,0,0:0:0:0:k3.wav
36,192,233146,1,0,0:0:0:0:
402,192,233146,1,0,0:0:0:0:v30.wav
109,192,233184,1,0,0:0:0:0:
182,192,233223,1,0,0:0:0:0:
329,192,233301,1,0,0:0:0:0:
475,192,233301,1,0,0:0:0:0:bbb177.wav
256,192,233456,1,0,0:0:0:0:v2-44.wav
402,192,233456,1,0,0:0:0:0:v31.wav
36,192,233456,1,0,0:0:0:0:k2.wav
109,192,233456,1,0,0:0:0:0:bbb179.wav
475,192,233612,1,0,0:0:0:0:bbb180.wav
109,192,233612,1,0,0:0:0:0:
182,192,233612,1,0,0:0:0:0:v2-45.wav
329,192,233612,1,0,0:0:0:0:v32.wav
256,192,233690,1,0,0:0:0:0:
182,192,233767,1,0,0:0:0:0:
329,192,233767,1,0,0:0:0:0:v2-46.wav
256,192,233845,1,0,0:0:0:0:
475,192,233923,1,0,0:0:0:0:bbb184.wav
402,192,233923,1,0,0:0:0:0:
36,192,233923,1,0,0:0:0:0:k1.wav
109,192,233923,1,0,0:0:0:0:v2-41.wav
329,192,234001,1,0,0:0:0:0:bbb185.wav
256,192,234078,1,0,0:0:0:0:v24.wav
109,192,234078,1,0,0:0:0:0:v2-37.wav
329,192,234156,1,0,0:0:0:0:bbb187.wav
402,192,234234,1,0,0:0:0:0:
36,192,234234,1,0,0:0:0:0:
182,192,234234,1,0,0:0:0:0:bbb188.wav
475,192,234273,1,0,0:0:0:0:
256,192,234311,1,0,0:0:0:0:
329,192,234389,1,0,0:0:0:0:
402,192,234389,1,0,0:0:0:0:bbb190.wav
182,192,234467,1,0,0:0:0:0:
329,192,234545,1,0,0:0:0:0:
182,192,234622,1,0,0:0:0:0:
402,192,234700,1,0,0:0:0:0:
329,192,234700,1,0,0:0:0:0:
36,192,234700,1,0,0:0:0:0:k1.wav
475,192,234855,1,0,0:0:0:0:
109,192,234855,1,0,0:0:0:0:sn1.wav
182,192,234894,1,0,0:0:0:0:
256,192,234933,1,0,0:0:0:0:
329,192,235011,1,0,0:0:0:0:
475,192,235011,1,0,0:0:0:0:v27.wav
109,192,235166,1,0,0:0:0:0:
402,192,235166,1,0,0:0:0:0:
36,192,235166,1,0,0:0:0:0:k1.wav
256,192,235166,1,0,0:0:0:0:bbb199.wav
329,192,235322,1,0,0:0:0:0:v29.wav
182,192,235399,1,0,0:0:0:0:
475,192,235477,1,0,0:0:0:0:
329,192,235477,1,0,0:0:0:0:bbb202.wav
256,192,235555,1,0,0:0:0:0:
109,192,235633,1,0,0:0:0:0:
182,192,235633,1,0,0:0:0:0:bbb204.wav
36,192,235633,1,0,0:0:0:0:k1.wav
329,192,235710,1,0,0:0:0:0:
402,192,235710,1,0,0:0:0:0:bbb205.wav
182,192,235788,1,0,0:0:0:0:
329,192,235866,1,0,0:0:0:0:
109,192,235944,1,0,0:0:0:0:
256,192,235944,1,0,0:0:0:0:
36,192,235944,1,0,0:0:0:0:k1.wav
402,192,236099,1,0,0:0:0:0:v32.wav
182,192,236099,1,0,0:0:0:0:v2-45.wav
109,192,236099,1,0,0:0:0:0:sn1.wav
329,192,236177,1,0,0:0:0:0:
256,192,236254,1,0,0:0:0:0:
475,192,236254,1,0,0:0:0:0:bbb211.wav
329,192,236410,1,0,0:0:0:0:v34.wav
475,192,236410,1,0,0:0:0:0:bbb213.wav
36,192,236410,1,0,0:0:0:0:k1.wav
109,192,236410,1,0,0:0:0:0:v2-41.wav
402,192,236488,1,0,0:0:0:0:bbb214.wav
109,192,236565,1,0,0:0:0:0:
329,192,236565,1,0,0:0:0:0:v24.wav
36,192,236565,1,0,0:0:0:0:k1.wav
402,192,236643,1,0,0:0:0:0:
182,192,236721,1,0,0:0:0:0:
475,192,236721,1,0,0:0:0:0:
256,192,236798,1,0,0:0:0:0:
402,192,236876,1,0,0:0:0:0:v25.wav
182,192,236876,1,0,0:0:0:0:bbb219.wav
109,192,236915,1,0,0:0:0:0:
329,192,236954,1,0,0:0:0:0:bbb220.wav
256,192,237032,1,0,0:0:0:0:bbb221.wav
329,192,237109,1,0,0:0:0:0:bbb222.wav
256,192,237187,1,0,0:0:0:0:v26.wav
402,192,237187,1,0,0:0:0:0:bbb223.wav
36,192,237187,1,0,0:0:0:0:k1.wav
109,192,237187,1,0,0:0:0:0:v2-39.wav
182,192,237265,1,0,0:0:0:0:bbb224.wav
475,192,237342,1,0,0:0:0:0:bbb225.wav
109,192,237342,1,0,0:0:0:0:sn1.wav
329,192,237420,1,0,0:0:0:0:bbb226.wav
36,192,237498,1,0,0:0:0:0:
402,192,237498,1,0,0:0:0:0:v27.wav
182,192,237498,1,0,0:0:0:0:bbb227.wav
329,192,237576,1,0,0:0:0:0:bbb228.wav
109,192,237653,1,0,0:0:0:0:
36,192,237653,1,0,0:0:0:0:
256,192,237653,1,0,0:0:0:0:v2-47.wav
402,192,237653,1,0,0:0:0:0:v35.wav
475,192,237757,1,0,0:0:0:0:v36.wav
329,192,237757,1,0,0:0:0:0:v2-48.wav
109,192,237809,1,0,0:0:0:0:
402,192,237861,1,0,0:0:0:0:v37.wav
256,192,237861,1,0,0:0:0:0:v2-49.wav
36,192,237964,1,0,0:0:0:0:
329,192,237964,1,0,0:0:0:0:v38.wav
182,192,238042,1,0,0:0:0:0:
402,192,238068,1,0,0:0:0:0:v39.wav
109,192,238120,1,0,0:0:0:0:
329,192,238171,1,0,0:0:0:0:v40.wav
36,192,238197,1,0,0:0:0:0:
475,192,238275,1,0,0:0:0:0:
256,192,238275,1,0,0:0:0:0:v41.wav
402,192,238353,1,0,0:0:0:0:
182,192,238379,1,0,0:0:0:0:v2-54.wav
329,192,238431,1,0,0:0:0:0:
109,192,238482,1,0,0:0:0:0:v2-55.wav
402,192,238508,1,0,0:0:0:0:
182,192,238586,1,0,0:0:0:0:
475,192,238586,1,0,0:0:0:0:
36,192,238586,1,0,0:0:0:0:v2-56.wav
256,192,238664,1,0,0:0:0:0:
109,192,238690,1,0,0:0:0:0:v2-57.wav
329,192,238741,1,0,0:0:0:0:
182,192,238793,1,0,0:0:0:0:v46.wav
402,192,238819,1,0,0:0:0:0:
36,192,238897,1,0,0:0:0:0:
256,192,238897,1,0,0:0:0:0:
109,192,238897,1,0,0:0:0:0:p3-1.wav
475,192,238897,1,0,0:0:0:0:v34.wav
475,192,239052,1,0,0:0:0:0:v24.wav
256,192,239052,1,0,0:0:0:0:p3-3.wav
329,192,239130,1,0,0:0:0:0:p3-4.wav
109,192,239208,1,0,0:0:0:0:
36,192,239208,1,0,0:0:0:0:
402,192,239208,1,0,0:0:0:0:p3-5.wav
182,192,239285,1,0,0:0:0:0:p3-6.wav
402,192,239363,1,0,0:0:0:0:p3-7.wav
256,192,239363,1,0,0:0:0:0:v25.wav
475,192,239441,1,0,0:0:0:0:p3-8.wav
182,192,239519,1,0,0:0:0:0:p3-7.wav
329,192,239655,1,0,0:0:0:0:p3-11.wav
402,192,239674,1,0,0:0:0:0:p3-12.wav
109,192,239674,1,0,0:0:0:0:v26.wav
36,192,239674,1,0,0:0:0:0:k1.wav
475,192,239694,1,0,0:0:0:0:p3-13.wav
256,192,239830,1,0,0:0:0:0:p3-14.wav
182,192,239830,1,0,0:0:0:0:sn1.wav
329,192,239881,1,0,0:0:0:0:p3-15.wav
402,192,239933,1,0,0:0:0:0:p3-16.wav
475,192,239985,1,0,0:0:0:0:v27.wav
109,192,239985,1,0,0:0:0:0:p3-17.wav
182,192,240037,1,0,0:0:0:0:p3-16.wav
256,192,240089,1,0,0:0:0:0:p3-18.wav
329,192,240140,1,0,0:0:0:0:p3-19.wav
36,192,240140,1,0,0:0:0:0:k1.wav
329,192,240218,1,0,0:0:0:0:p3-20.wav
182,192,240374,1,0,0:0:0:0:p3-21.wav
402,192,240451,1,0,0:0:0:0:p3-25.wav
256,192,240451,1,0,0:0:0:0:p3-28.wav
402,192,240529,1,0,0:0:0:0:p3-26.wav
256,192,240529,1,0,0:0:0:0:p3-29.wav
109,192,240607,1,0,0:0:0:0:
36,192,240607,1,0,0:0:0:0:k1.wav
475,192,240684,1,0,0:0:0:0:p3-27.wav
329,192,240762,1,0,0:0:0:0:p3-22.wav
182,192,240762,1,0,0:0:0:0:p3-31.wav
329,192,240840,1,0,0:0:0:0:p3-23.wav
182,192,240840,1,0,0:0:0:0:p3-32.wav
36,192,240918,1,0,0:0:0:0:k1.wav
402,192,240995,1,0,0:0:0:0:p3-24.wav
256,192,241073,1,0,0:0:0:0:p3-28.wav
109,192,241073,1,0,0:0:0:0:p3-34.wav
256,192,241151,1,0,0:0:0:0:p3-29.wav
109,192,241151,1,0,0:0:0:0:p3-35.wav
256,192,241306,1,0,0:0:0:0:p3-36.wav
109,192,241384,1,0,0:0:0:0:
329,192,241384,1,0,0:0:0:0:v34.wav
182,192,241384,1,0,0:0:0:0:p3-37.wav
402,192,241462,1,0,0:0:0:0:p3-8.wav
329,192,241539,1,0,0:0:0:0:v24.wav
182,192,241539,1,0,0:0:0:0:p3-37.wav
402,192,241617,1,0,0:0:0:0:p3-8.wav
475,192,241695,1,0,0:0:0:0:p3-38.wav
182,192,241734,1,0,0:0:0:0:p3-39.wav
329,192,241773,1,0,0:0:0:0:p3-38.wav
36,192,241811,1,0,0:0:0:0:p3-39.wav
475,192,241850,1,0,0:0:0:0:p3-38.wav
182,192,241889,1,0,0:0:0:0:p3-39.wav
329,192,241928,1,0,0:0:0:0:p3-38.wav
36,192,241967,1,0,0:0:0:0:p3-39.wav
475,192,242006,1,0,0:0:0:0:p3-22.wav
256,192,242006,1,0,0:0:0:0:p3-40.wav
402,192,242083,1,0,0:0:0:0:p3-23.wav
109,192,242083,1,0,0:0:0:0:p3-41.wav
329,192,242161,1,0,0:0:0:0:v26.wav
36,192,242161,1,0,0:0:0:0:k1.wav
256,192,242239,1,0,0:0:0:0:p3-24.wav
182,192,242239,1,0,0:0:0:0:p3-42.wav
475,192,242317,1,0,0:0:0:0:p3-43.wav
109,192,242317,1,0,0:0:0:0:sn1.wav
402,192,242355,1,0,0:0:0:0:
329,192,242394,1,0,0:0:0:0:p3-44.wav
256,192,242472,1,0,0:0:0:0:v27.wav
36,192,242472,1,0,0:0:0:0:p3-45.wav
182,192,242550,1,0,0:0:0:0:p3-46.wav
475,192,242627,1,0,0:0:0:0:v28.wav
329,192,242627,1,0,0:0:0:0:p3-1.wav
109,192,242627,1,0,0:0:0:0:k1.wav
256,192,242705,1,0,0:0:0:0:p3-2.wav
475,192,242783,1,0,0:0:0:0:v29.wav
329,192,242783,1,0,0:0:0:0:p3-47.wav
109,192,242783,1,0,0:0:0:0:k1.wav
182,192,242861,1,0,0:0:0:0:p3-46.wav
36,192,242938,1,0,0:0:0:0:
256,192,242938,1,0,0:0:0:0:sn1.wav
402,192,242977,1,0,0:0:0:0:k3.wav
109,192,243016,1,0,0:0:0:0:k3.wav
329,192,243055,1,0,0:0:0:0:k3.wav
475,192,243094,1,0,0:0:0:0:v30.wav
182,192,243094,1,0,0:0:0:0:p3-50.wav
256,192,243171,1,0,0:0:0:0:p3-43.wav
36,192,243249,1,0,0:0:0:0:p3-51.wav
329,192,243288,1,0,0:0:0:0:p3-52.wav
402,192,243327,1,0,0:0:0:0:p3-53.wav
475,192,243366,1,0,0:0:0:0:p3-54.wav
109,192,243385,1,0,0:0:0:0:p3-55.wav
182,192,243405,1,0,0:0:0:0:p3-56.wav
256,192,243424,1,0,0:0:0:0:p3-57.wav
329,192,243482,1,0,0:0:0:0:
402,192,243560,1,0,0:0:0:0:v32.wav
109,192,243560,1,0,0:0:0:0:sn1.wav
329,192,243638,1,0,0:0:0:0:p3-8.wav
182,192,243716,1,0,0:0:0:0:
109,192,243716,1,0,0:0:0:0:
402,192,243716,1,0,0:0:0:0:
329,192,243793,1,0,0:0:0:0:
475,192,243871,1,0,0:0:0:0:
256,192,243871,1,0,0:0:0:0:p3-58.wav
36,192,243871,1,0,0:0:0:0:k1.wav
329,192,244026,1,0,0:0:0:0:
109,192,244026,1,0,0:0:0:0:
182,192,244026,1,0,0:0:0:0:p3-60.wav
256,192,244104,1,0,0:0:0:0:
182,192,244182,1,0,0:0:0:0:
36,192,244182,1,0,0:0:0:0:
475,192,244182,1,0,0:0:0:0:p3-62.wav
402,192,244260,1,0,0:0:0:0:p3-63.wav
36,192,244337,1,0,0:0:0:0:
109,192,244337,1,0,0:0:0:0:
329,192,244337,1,0,0:0:0:0:p3-64.wav
256,192,244415,1,0,0:0:0:0:p3-65.wav
475,192,244493,1,0,0:0:0:0:
182,192,244493,1,0,0:0:0:0:p3-63.wav
402,192,244570,1,0,0:0:0:0:
109,192,244570,1,0,0:0:0:0:p3-64.wav
256,192,244648,1,0,0:0:0:0:
329,192,244648,1,0,0:0:0:0:v26.wav
36,192,244648,1,0,0:0:0:0:k1.wav
402,192,244726,1,0,0:0:0:0:
109,192,244804,1,0,0:0:0:0:
475,192,244804,1,0,0:0:0:0:
182,192,244804,1,0,0:0:0:0:
256,192,244881,1,0,0:0:0:0:
402,192,244959,1,0,0:0:0:0:
182,192,244959,1,0,0:0:0:0:p3-69.wav
329,192,244998,1,0,0:0:0:0:
109,192,245037,1,0,0:0:0:0:p3-70.wav
475,192,245114,1,0,0:0:0:0:
256,192,245114,1,0,0:0:0:0:
36,192,245114,1,0,0:0:0:0:k1.wav
256,192,245218,1,0,0:0:0:0:
109,192,245270,1,0,0:0:0:0:
256,192,245322,1,0,0:0:0:0:
329,192,245425,1,0,0:0:0:0:
329,192,245529,1,0,0:0:0:0:
109,192,245581,1,0,0:0:0:0:
329,192,245633,1,0,0:0:0:0:
182,192,245736,1,0,0:0:0:0:
182,192,245840,1,0,0:0:0:0:
329,192,245892,1,0,0:0:0:0:
182,192,245944,1,0,0:0:0:0:
402,192,246047,1,0,0:0:0:0:p3-25.wav
402,192,246151,1,0,0:0:0:0:p3-26.wav
182,192,246203,1,0,0:0:0:0:
402,192,246254,1,0,0:0:0:0:p3-27.wav
109,192,246358,1,0,0:0:0:0:
256,192,246358,1,0,0:0:0:0:
36,192,246358,1,0,0:0:0:0:k1.wav
329,192,246358,1,0,0:0:0:0:p3-77.wav
402,192,246436,1,0,0:0:0:0:p3-65.wav
475,192,246513,1,0,0:0:0:0:p3-63.wav
182,192,246513,1,0,0:0:0:0:v24.wav
36,192,246513,1,0,0:0:0:0:k1.wav
402,192,246591,1,0,0:0:0:0:p3-64.wav
256,192,246669,1,0,0:0:0:0:
109,192,246669,1,0,0:0:0:0:sn1.wav
475,192,246824,1,0,0:0:0:0:v25.wav
329,192,246824,1,0,0:0:0:0:p3-78.wav
182,192,246863,1,0,0:0:0:0:
256,192,246928,1,0,0:0:0:0:p3-79.wav
109,192,246980,1,0,0:0:0:0:
182,192,247032,1,0,0:0:0:0:p3-80.wav
475,192,247135,1,0,0:0:0:0:
329,192,247135,1,0,0:0:0:0:
36,192,247135,1,0,0:0:0:0:k1.wav
402,192,247135,1,0,0:0:0:0:v26.wav
182,192,247213,1,0,0:0:0:0:
329,192,247291,1,0,0:0:0:0:
109,192,247291,1,0,0:0:0:0:sn1.wav
402,192,247330,1,0,0:0:0:0:
475,192,247446,1,0,0:0:0:0:
182,192,247446,1,0,0:0:0:0:p3-83.wav
36,192,247446,1,0,0:0:0:0:p3-84.wav
109,192,247524,1,0,0:0:0:0:
402,192,247602,1,0,0:0:0:0:p3-85.wav
256,192,247602,1,0,0:0:0:0:v35.wav
475,192,247705,1,0,0:0:0:0:p3-86.wav
329,192,247705,1,0,0:0:0:0:v36.wav
109,192,247757,1,0,0:0:0:0:
36,192,247757,1,0,0:0:0:0:
402,192,247809,1,0,0:0:0:0:p3-85.wav
256,192,247809,1,0,0:0:0:0:v37.wav
329,192,247912,1,0,0:0:0:0:p3-87.wav
182,192,247912,1,0,0:0:0:0:v38.wav
36,192,247912,1,0,0:0:0:0:v2-50.wav
402,192,248016,1,0,0:0:0:0:p3-85.wav
256,192,248016,1,0,0:0:0:0:v39.wav
109,192,248068,1,0,0:0:0:0:
329,192,248120,1,0,0:0:0:0:p3-87.wav
182,192,248120,1,0,0:0:0:0:v40.wav
402,192,248223,1,0,0:0:0:0:p3-88.wav
256,192,248223,1,0,0:0:0:0:v41.wav
329,192,248327,1,0,0:0:0:0:v42.wav
182,192,248327,1,0,0:0:0:0:v2-54.wav
475,192,248379,1,0,0:0:0:0:
256,192,248431,1,0,0:0:0:0:v43.wav
109,192,248431,1,0,0:0:0:0:v2-55.wav
182,192,248534,1,0,0:0:0:0:
475,192,248534,1,0,0:0:0:0:
36,192,248534,1,0,0:0:0:0:v2-56.wav
402,192,248612,1,0,0:0:0:0:
256,192,248638,1,0,0:0:0:0:p3-88.wav
109,192,248690,1,0,0:0:0:0:
329,192,248741,1,0,0:0:0:0:v46.wav
182,192,248767,1,0,0:0:0:0:
475,192,248845,1,0,0:0:0:0:
402,192,248845,1,0,0:0:0:0:
256,192,248845,1,0,0:0:0:0:h1.wav
36,192,248845,1,0,0:0:0:0:
109,192,248923,1,0,0:0:0:0:
256,192,249001,1,0,0:0:0:0:p3-3.wav
329,192,249078,1,0,0:0:0:0:p3-4.wav
36,192,249156,1,0,0:0:0:0:
402,192,249156,1,0,0:0:0:0:p3-5.wav
109,192,249156,1,0,0:0:0:0:sn1.wav
182,192,249195,1,0,0:0:0:0:
475,192,249234,1,0,0:0:0:0:p3-6.wav
109,192,249311,1,0,0:0:0:0:
402,192,249311,1,0,0:0:0:0:p3-7.wav
329,192,249389,1,0,0:0:0:0:p3-8.wav
36,192,249467,1,0,0:0:0:0:
256,192,249467,1,0,0:0:0:0:p3-7.wav
329,192,249603,1,0,0:0:0:0:p3-11.wav
109,192,249622,1,0,0:0:0:0:
182,192,249622,1,0,0:0:0:0:
402,192,249622,1,0,0:0:0:0:p3-12.wav
475,192,249642,1,0,0:0:0:0:p3-13.wav
256,192,249700,1,0,0:0:0:0:
36,192,249778,1,0,0:0:0:0:p3-94.wav
109,192,249830,1,0,0:0:0:0:p3-95.wav
182,192,249881,1,0,0:0:0:0:p3-96.wav
475,192,249933,1,0,0:0:0:0:
256,192,249933,1,0,0:0:0:0:p3-97.wav
329,192,249985,1,0,0:0:0:0:p3-98.wav
402,192,250037,1,0,0:0:0:0:p3-99.wav
475,192,250089,1,0,0:0:0:0:p3-100.wav
36,192,250089,1,0,0:0:0:0:k1.wav
475,192,250166,1,0,0:0:0:0:p3-101.wav
182,192,250244,1,0,0:0:0:0:
109,192,250244,1,0,0:0:0:0:v2-42.wav
475,192,250322,1,0,0:0:0:0:p3-102.wav
402,192,250399,1,0,0:0:0:0:p3-25.wav
256,192,250399,1,0,0:0:0:0:p3-28.wav
402,192,250477,1,0,0:0:0:0:p3-26.wav
256,192,250477,1,0,0:0:0:0:p3-29.wav
36,192,250555,1,0,0:0:0:0:k1.wav
402,192,250633,1,0,0:0:0:0:
329,192,250710,1,0,0:0:0:0:p3-22.wav
182,192,250710,1,0,0:0:0:0:p3-40.wav
329,192,250788,1,0,0:0:0:0:p3-23.wav
182,192,250788,1,0,0:0:0:0:p3-41.wav
36,192,250866,1,0,0:0:0:0:k1.wav
329,192,250944,1,0,0:0:0:0:
256,192,251021,1,0,0:0:0:0:p3-31.wav
109,192,251021,1,0,0:0:0:0:p3-28.wav
256,192,251099,1,0,0:0:0:0:p3-32.wav
109,192,251099,1,0,0:0:0:0:p3-29.wav
475,192,251177,1,0,0:0:0:0:v33.wav
256,192,251254,1,0,0:0:0:0:p3-33.wav
109,192,251254,1,0,0:0:0:0:p3-30.wav
402,192,251332,1,0,0:0:0:0:
329,192,251332,1,0,0:0:0:0:p3-37.wav
36,192,251332,1,0,0:0:0:0:k1.wav
182,192,251410,1,0,0:0:0:0:p3-8.wav
402,192,251488,1,0,0:0:0:0:
329,192,251488,1,0,0:0:0:0:p3-37.wav
182,192,251565,1,0,0:0:0:0:p3-8.wav
36,192,251643,1,0,0:0:0:0:p3-38.wav
329,192,251682,1,0,0:0:0:0:p3-39.wav
182,192,251721,1,0,0:0:0:0:p3-38.wav
475,192,251760,1,0,0:0:0:0:p3-39.wav
36,192,251798,1,0,0:0:0:0:p3-38.wav
329,192,251837,1,0,0:0:0:0:p3-39.wav
182,192,251876,1,0,0:0:0:0:p3-38.wav
475,192,251915,1,0,0:0:0:0:p3-39.wav
402,192,251954,1,0,0:0:0:0:p3-22.wav
256,192,251993,1,0,0:0:0:0:
109,192,252032,1,0,0:0:0:0:p3-23.wav
475,192,252109,1,0,0:0:0:0:
329,192,252109,1,0,0:0:0:0:
36,192,252109,1,0,0:0:0:0:k1.wav
256,192,252187,1,0,0:0:0:0:p3-24.wav
182,192,252187,1,0,0:0:0:0:p3-42.wav
36,192,252265,1,0,0:0:0:0:
475,192,252265,1,0,0:0:0:0:
329,192,252265,1,0,0:0:0:0:
256,192,252342,1,0,0:0:0:0:p3-44.wav
402,192,252368,1,0,0:0:0:0:
182,192,252420,1,0,0:0:0:0:p3-45.wav
329,192,252472,1,0,0:0:0:0:
109,192,252498,1,0,0:0:0:0:p3-46.wav
475,192,252576,1,0,0:0:0:0:
256,192,252576,1,0,0:0:0:0:
36,192,252576,1,0,0:0:0:0:k1.wav
182,192,252653,1,0,0:0:0:0:
475,192,252731,1,0,0:0:0:0:
256,192,252731,1,0,0:0:0:0:
36,192,252731,1,0,0:0:0:0:k1.wav
329,192,252809,1,0,0:0:0:0:
402,192,252887,1,0,0:0:0:0:
109,192,252887,1,0,0:0:0:0:sn1.wav
182,192,252925,1,0,0:0:0:0:k3.wav
256,192,252964,1,0,0:0:0:0:
475,192,253003,1,0,0:0:0:0:k3.wav
36,192,253042,1,0,0:0:0:0:
402,192,253042,1,0,0:0:0:0:v30.wav
109,192,253120,1,0,0:0:0:0:
256,192,253197,1,0,0:0:0:0:p3-51.wav
329,192,253236,1,0,0:0:0:0:p3-52.wav
402,192,253275,1,0,0:0:0:0:p3-53.wav
475,192,253314,1,0,0:0:0:0:p3-54.wav
109,192,253333,1,0,0:0:0:0:p3-55.wav
36,192,253353,1,0,0:0:0:0:p3-56.wav
182,192,253353,1,0,0:0:0:0:v31.wav
256,192,253372,1,0,0:0:0:0:p3-57.wav
329,192,253431,1,0,0:0:0:0:ed60.wav
475,192,253508,1,0,0:0:0:0:
402,192,253508,1,0,0:0:0:0:v32.wav
329,192,253586,1,0,0:0:0:0:p3-8.wav
256,192,253664,1,0,0:0:0:0:
109,192,253664,1,0,0:0:0:0:p3-7.wav
182,192,253741,1,0,0:0:0:0:p3-44.wav
402,192,253819,1,0,0:0:0:0:v34.wav
475,192,253819,1,0,0:0:0:0:
36,192,253819,1,0,0:0:0:0:k1.wav
329,192,253819,1,0,0:0:0:0:p3-58.wav
109,192,253897,1,0,0:0:0:0:p3-59.wav
329,192,253975,1,0,0:0:0:0:
182,192,253975,1,0,0:0:0:0:p3-60.wav
256,192,254052,1,0,0:0:0:0:p3-61.wav
475,192,254130,1,0,0:0:0:0:
109,192,254130,1,0,0:0:0:0:sn1.wav
402,192,254208,1,0,0:0:0:0:
36,192,254285,1,0,0:0:0:0:
475,192,254285,1,0,0:0:0:0:
182,192,254285,1,0,0:0:0:0:v2-38.wav
256,192,254363,1,0,0:0:0:0:p3-65.wav
402,192,254441,1,0,0:0:0:0:p3-63.wav
329,192,254519,1,0,0:0:0:0:p3-64.wav
109,192,254519,1,0,0:0:0:0:ed10.wav
256,192,254596,1,0,0:0:0:0:p3-65.wav
36,192,254596,1,0,0:0:0:0:k1.wav
402,192,254635,1,0,0:0:0:0:
475,192,254674,1,0,0:0:0:0:
182,192,254674,1,0,0:0:0:0:p3-66.wav
256,192,254752,1,0,0:0:0:0:p3-103.wav
109,192,254752,1,0,0:0:0:0:sn1.wav
329,192,254804,1,0,0:0:0:0:p3-104.wav
402,192,254855,1,0,0:0:0:0:p3-95.wav
475,192,254907,1,0,0:0:0:0:v27.wav
182,192,254907,1,0,0:0:0:0:p3-103.wav
329,192,254959,1,0,0:0:0:0:p3-104.wav
402,192,255011,1,0,0:0:0:0:p3-96.wav
475,192,255063,1,0,0:0:0:0:h3.wav
182,192,255063,1,0,0:0:0:0:p3-22.wav
36,192,255063,1,0,0:0:0:0:k1.wav
182,192,255166,1,0,0:0:0:0:p3-23.wav
182,192,255270,1,0,0:0:0:0:p3-24.wav
256,192,255374,1,0,0:0:0:0:p3-25.wav
256,192,255477,1,0,0:0:0:0:p3-26.wav
256,192,255581,1,0,0:0:0:0:p3-27.wav
329,192,255684,1,0,0:0:0:0:p3-74.wav
329,192,255788,1,0,0:0:0:0:p3-75.wav
329,192,255892,1,0,0:0:0:0:p3-76.wav
402,192,255995,1,0,0:0:0:0:p3-105.wav
402,192,256099,1,0,0:0:0:0:p3-106.wav
402,192,256203,1,0,0:0:0:0:p3-107.wav
329,192,256306,1,0,0:0:0:0:
109,192,256306,1,0,0:0:0:0:p3-111.wav
36,192,256306,1,0,0:0:0:0:k1.wav
182,192,256384,1,0,0:0:0:0:p3-65.wav
402,192,256462,1,0,0:0:0:0:v24.wav
256,192,256462,1,0,0:0:0:0:p3-64.wav
36,192,256462,1,0,0:0:0:0:k1.wav
329,192,256539,1,0,0:0:0:0:p3-63.wav
182,192,256617,1,0,0:0:0:0:
402,192,256617,1,0,0:0:0:0:p3-62.wav
109,192,256617,1,0,0:0:0:0:sn1.wav
329,192,256695,1,0,0:0:0:0:p3-63.wav
402,192,256773,1,0,0:0:0:0:p3-62.wav
182,192,256773,1,0,0:0:0:0:v25.wav
475,192,256850,1,0,0:0:0:0:p3-112.wav
329,192,256928,1,0,0:0:0:0:p3-113.wav
475,192,257006,1,0,0:0:0:0:p3-114.wav
329,192,257083,1,0,0:0:0:0:p3-113.wav
182,192,257083,1,0,0:0:0:0:v26.wav
36,192,257083,1,0,0:0:0:0:k1.wav
475,192,257161,1,0,0:0:0:0:p3-114.wav
329,192,257239,1,0,0:0:0:0:p3-115.wav
475,192,257291,1,0,0:0:0:0:p3-116.wav
182,192,257342,1,0,0:0:0:0:p3-115.wav
329,192,257394,1,0,0:0:0:0:p3-116.wav
36,192,257433,1,0,0:0:0:0:p3-115.wav
475,192,257472,1,0,0:0:0:0:p3-116.wav
182,192,257511,1,0,0:0:0:0:p3-117.wav
402,192,257550,1,0,0:0:0:0:p3-85.wav
109,192,257550,1,0,0:0:0:0:v2-47.wav
475,192,257653,1,0,0:0:0:0:p3-86.wav
329,192,257653,1,0,0:0:0:0:v36.wav
109,192,257705,1,0,0:0:0:0:
402,192,257757,1,0,0:0:0:0:p3-85.wav
256,192,257757,1,0,0:0:0:0:v37.wav
329,192,257861,1,0,0:0:0:0:p3-87.wav
182,192,257861,1,0,0:0:0:0:v38.wav
36,192,257861,1,0,0:0:0:0:v2-50.wav
109,192,257938,1,0,0:0:0:0:
402,192,257964,1,0,0:0:0:0:
182,192,258016,1,0,0:0:0:0:
329,192,258068,1,0,0:0:0:0:p3-87.wav
36,192,258094,1,0,0:0:0:0:
402,192,258171,1,0,0:0:0:0:p3-88.wav
256,192,258171,1,0,0:0:0:0:v41.wav
109,192,258171,1,0,0:0:0:0:v2-53.wav
475,192,258249,1,0,0:0:0:0:p3-87.wav
182,192,258275,1,0,0:0:0:0:v2-54.wav
402,192,258327,1,0,0:0:0:0:p3-88.wav
109,192,258379,1,0,0:0:0:0:v2-55.wav
329,192,258405,1,0,0:0:0:0:p3-23.wav
475,192,258482,1,0,0:0:0:0:k2.wav
182,192,258482,1,0,0:0:0:0:p3-118.wav
36,192,258482,1,0,0:0:0:0:v44.wav
256,192,258534,1,0,0:0:0:0:p3-119.wav
329,192,258586,1,0,0:0:0:0:p3-120.wav
109,192,258586,1,0,0:0:0:0:v45.wav
182,192,258638,1,0,0:0:0:0:
402,192,258638,1,0,0:0:0:0:p3-121.wav
475,192,258690,1,0,0:0:0:0:p3-122.wav
256,192,258716,1,0,0:0:0:0:
329,192,258793,1,0,0:0:0:0:v47.wav
402,192,258793,1,0,0:0:0:0:
36,192,258793,1,0,0:0:0:0:k1.wav
109,192,258793,1,0,0:0:0:0:p4-1.wav
256,192,258897,1,0,0:0:0:0:p4-2.wav
329,192,258949,1,0,0:0:0:0:v48.wav
182,192,258949,1,0,0:0:0:0:v2-61.wav
402,192,259026,1,0,0:0:0:0:p4-3.wav
256,192,259104,1,0,0:0:0:0:p4-4.wav
109,192,259104,1,0,0:0:0:0:sn1.wav
402,192,259208,1,0,0:0:0:0:p4-2.wav
329,192,259260,1,0,0:0:0:0:v49.wav
182,192,259260,1,0,0:0:0:0:v2-62.wav
475,192,259311,1,0,0:0:0:0:p4-5.wav
256,192,259415,1,0,0:0:0:0:v50.wav
36,192,259415,1,0,0:0:0:0:v2-63.wav
109,192,259415,1,0,0:0:0:0:p4-4.wav
329,192,259519,1,0,0:0:0:0:p4-2.wav
109,192,259570,1,0,0:0:0:0:k1.wav
402,192,259622,1,0,0:0:0:0:p4-3.wav
36,192,259726,1,0,0:0:0:0:p4-4.wav
329,192,259726,1,0,0:0:0:0:v51.wav
109,192,259726,1,0,0:0:0:0:sn1.wav
182,192,259726,1,0,0:0:0:0:v2-64.wav
402,192,259830,1,0,0:0:0:0:p4-2.wav
329,192,259881,1,0,0:0:0:0:v52.wav
182,192,259881,1,0,0:0:0:0:v2-65.wav
475,192,259933,1,0,0:0:0:0:p4-5.wav
402,192,260037,1,0,0:0:0:0:h3.wav
109,192,260037,1,0,0:0:0:0:p4-4.wav
36,192,260037,1,0,0:0:0:0:k1.wav
256,192,260140,1,0,0:0:0:0:p4-2.wav
329,192,260192,1,0,0:0:0:0:v53.wav
182,192,260192,1,0,0:0:0:0:v2-66.wav
402,192,260244,1,0,0:0:0:0:p4-3.wav
329,192,260348,1,0,0:0:0:0:v54.wav
475,192,260348,1,0,0:0:0:0:p4-7.wav
109,192,260348,1,0,0:0:0:0:sn1.wav
36,192,260348,1,0,0:0:0:0:v2-67.wav
402,192,260451,1,0,0:0:0:0:p4-8.wav
182,192,260503,1,0,0:0:0:0:k1.wav
329,192,260555,1,0,0:0:0:0:p4-9.wav
402,192,260659,1,0,0:0:0:0:p4-7.wav
256,192,260659,1,0,0:0:0:0:v55.wav
109,192,260659,1,0,0:0:0:0:v2-68.wav
329,192,260736,1,0,0:0:0:0:p4-8.wav
182,192,260814,1,0,0:0:0:0:p4-9.wav
36,192,260814,1,0,0:0:0:0:k1.wav
475,192,260892,1,0,0:0:0:0:p4-10.wav
402,192,260969,1,0,0:0:0:0:p4-11.wav
329,192,260969,1,0,0:0:0:0:v2-69.wav
109,192,260969,1,0,0:0:0:0:sn1.wav
256,192,261047,1,0,0:0:0:0:p4-13.wav
329,192,261125,1,0,0:0:0:0:p4-14.wav
402,192,261177,1,0,0:0:0:0:p4-15.wav
475,192,261228,1,0,0:0:0:0:p4-16.wav
256,192,261280,1,0,0:0:0:0:v57.wav
182,192,261280,1,0,0:0:0:0:v2-70.wav
36,192,261280,1,0,0:0:0:0:k1.wav
402,192,261384,1,0,0:0:0:0:p4-2.wav
329,192,261436,1,0,0:0:0:0:v48.wav
182,192,261436,1,0,0:0:0:0:v2-63.wav
36,192,261436,1,0,0:0:0:0:k1.wav
475,192,261513,1,0,0:0:0:0:p4-3.wav
256,192,261591,1,0,0:0:0:0:p4-4.wav
109,192,261591,1,0,0:0:0:0:sn1.wav
402,192,261695,1,0,0:0:0:0:p4-2.wav
329,192,261747,1,0,0:0:0:0:v49.wav
182,192,261747,1,0,0:0:0:0:v2-62.wav
475,192,261798,1,0,0:0:0:0:p4-5.wav
329,192,261902,1,0,0:0:0:0:v50.wav
182,192,261902,1,0,0:0:0:0:v2-63.wav
36,192,261902,1,0,0:0:0:0:p4-4.wav
256,192,262006,1,0,0:0:0:0:p4-2.wav
109,192,262057,1,0,0:0:0:0:k1.wav
475,192,262096,1,0,0:0:0:0:
402,192,262109,1,0,0:0:0:0:p4-3.wav
329,192,262213,1,0,0:0:0:0:v51.wav
182,192,262213,1,0,0:0:0:0:v2-64.wav
36,192,262213,1,0,0:0:0:0:sn1.wav
402,192,262317,1,0,0:0:0:0:p4-2.wav
109,192,262368,1,0,0:0:0:0:v52.wav
256,192,262368,1,0,0:0:0:0:v2-65.wav
475,192,262420,1,0,0:0:0:0:p4-5.wav
329,192,262524,1,0,0:0:0:0:
182,192,262524,1,0,0:0:0:0:
36,192,262524,1,0,0:0:0:0:k1.wav
402,192,262563,1,0,0:0:0:0:
256,192,262627,1,0,0:0:0:0:p4-2.wav
109,192,262679,1,0,0:0:0:0:
329,192,262679,1,0,0:0:0:0:v53.wav
402,192,262731,1,0,0:0:0:0:p4-3.wav
475,192,262835,1,0,0:0:0:0:p4-7.wav
36,192,262835,1,0,0:0:0:0:k3.wav
329,192,262912,1,0,0:0:0:0:k3.wav
256,192,262938,1,0,0:0:0:0:p4-8.wav
402,192,262990,1,0,0:0:0:0:
182,192,262990,1,0,0:0:0:0:ed2-23.wav
109,192,263042,1,0,0:0:0:0:p4-9.wav
36,192,263068,1,0,0:0:0:0:ed2-24.wav
475,192,263146,1,0,0:0:0:0:v58.wav
329,192,263146,1,0,0:0:0:0:v2-71.wav
256,192,263223,1,0,0:0:0:0:p4-8.wav
109,192,263301,1,0,0:0:0:0:
182,192,263301,1,0,0:0:0:0:
36,192,263301,1,0,0:0:0:0:k2.wav
402,192,263353,1,0,0:0:0:0:
329,192,263405,1,0,0:0:0:0:
256,192,263456,1,0,0:0:0:0:
475,192,263456,1,0,0:0:0:0:v59.wav
109,192,263456,1,0,0:0:0:0:sn1.wav
182,192,263534,1,0,0:0:0:0:p4-13.wav
256,192,263612,1,0,0:0:0:0:p4-14.wav
36,192,263612,1,0,0:0:0:0:k2.wav
329,192,263664,1,0,0:0:0:0:p4-15.wav
475,192,263690,1,0,0:0:0:0:p4-16.wav
256,192,263767,1,0,0:0:0:0:v57.wav
402,192,263767,1,0,0:0:0:0:v2-73.wav
36,192,263767,1,0,0:0:0:0:k1.wav
109,192,263767,1,0,0:0:0:0:p4-1.wav
182,192,263871,1,0,0:0:0:0:p4-2.wav
402,192,263923,1,0,0:0:0:0:v2-63.wav
329,192,264001,1,0,0:0:0:0:p4-3.wav
109,192,264078,1,0,0:0:0:0:
256,192,264078,1,0,0:0:0:0:
36,192,264078,1,0,0:0:0:0:
329,192,264182,1,0,0:0:0:0:p4-2.wav
182,192,264234,1,0,0:0:0:0:
402,192,264234,1,0,0:0:0:0:v49.wav
475,192,264285,1,0,0:0:0:0:p4-5.wav
402,192,264389,1,0,0:0:0:0:v50.wav
256,192,264467,1,0,0:0:0:0:
182,192,264493,1,0,0:0:0:0:p4-2.wav
36,192,264545,1,0,0:0:0:0:k1.wav
329,192,264596,1,0,0:0:0:0:p4-3.wav
109,192,264622,1,0,0:0:0:0:
256,192,264700,1,0,0:0:0:0:v2-64.wav
182,192,264700,1,0,0:0:0:0:p4-4.wav
329,192,264804,1,0,0:0:0:0:p4-2.wav
182,192,264855,1,0,0:0:0:0:
402,192,264855,1,0,0:0:0:0:v52.wav
475,192,264933,1,0,0:0:0:0:p4-5.wav
329,192,265011,1,0,0:0:0:0:h3.wav
109,192,265011,1,0,0:0:0:0:p4-4.wav
36,192,265011,1,0,0:0:0:0:k1.wav
182,192,265114,1,0,0:0:0:0:p4-2.wav
256,192,265166,1,0,0:0:0:0:
402,192,265166,1,0,0:0:0:0:v53.wav
109,192,265205,1,0,0:0:0:0:
329,192,265218,1,0,0:0:0:0:p4-3.wav
182,192,265322,1,0,0:0:0:0:
36,192,265322,1,0,0:0:0:0:
475,192,265322,1,0,0:0:0:0:p4-7.wav
329,192,265425,1,0,0:0:0:0:p4-8.wav
109,192,265477,1,0,0:0:0:0:
256,192,265529,1,0,0:0:0:0:p4-9.wav
182,192,265633,1,0,0:0:0:0:
475,192,265633,1,0,0:0:0:0:p4-7.wav
329,192,265633,1,0,0:0:0:0:v55.wav
402,192,265710,1,0,0:0:0:0:p4-8.wav
256,192,265788,1,0,0:0:0:0:p4-9.wav
36,192,265788,1,0,0:0:0:0:k1.wav
329,192,265840,1,0,0:0:0:0:
402,192,265892,1,0,0:0:0:0:
475,192,265944,1,0,0:0:0:0:v56.wav
182,192,265944,1,0,0:0:0:0:v2-69.wav
109,192,266021,1,0,0:0:0:0:
182,192,266099,1,0,0:0:0:0:p4-14.wav
329,192,266151,1,0,0:0:0:0:p4-15.wav
475,192,266203,1,0,0:0:0:0:p4-16.wav
402,192,266254,1,0,0:0:0:0:v57.wav
256,192,266254,1,0,0:0:0:0:
36,192,266254,1,0,0:0:0:0:k1.wav
109,192,266254,1,0,0:0:0:0:p4-1.wav
182,192,266358,1,0,0:0:0:0:p4-2.wav
475,192,266410,1,0,0:0:0:0:
402,192,266410,1,0,0:0:0:0:v48.wav
36,192,266410,1,0,0:0:0:0:k1.wav
329,192,266462,1,0,0:0:0:0:p4-3.wav
182,192,266565,1,0,0:0:0:0:p4-4.wav
109,192,266565,1,0,0:0:0:0:sn1.wav
36,192,266643,1,0,0:0:0:0:bbb97.wav
329,192,266669,1,0,0:0:0:0:p4-2.wav
402,192,266721,1,0,0:0:0:0:v49.wav
256,192,266721,1,0,0:0:0:0:v2-62.wav
475,192,266773,1,0,0:0:0:0:p4-5.wav
182,192,266798,1,0,0:0:0:0:bbb99.wav
329,192,266876,1,0,0:0:0:0:
109,192,266876,1,0,0:0:0:0:p4-4.wav
402,192,266954,1,0,0:0:0:0:
182,192,266980,1,0,0:0:0:0:p4-2.wav
109,192,267032,1,0,0:0:0:0:bbb103.wav
36,192,267032,1,0,0:0:0:0:k1.wav
256,192,267083,1,0,0:0:0:0:p4-3.wav
329,192,267109,1,0,0:0:0:0:bbb104.wav
475,192,267187,1,0,0:0:0:0:
402,192,267187,1,0,0:0:0:0:v2-64.wav
182,192,267187,1,0,0:0:0:0:p4-4.wav
36,192,267265,1,0,0:0:0:0:bbb106.wav
256,192,267291,1,0,0:0:0:0:p4-2.wav
329,192,267342,1,0,0:0:0:0:v52.wav
109,192,267342,1,0,0:0:0:0:v2-65.wav
402,192,267394,1,0,0:0:0:0:p4-5.wav
182,192,267420,1,0,0:0:0:0:ed2-16.wav
475,192,267498,1,0,0:0:0:0:
256,192,267498,1,0,0:0:0:0:p4-4.wav
36,192,267498,1,0,0:0:0:0:k1.wav
109,192,267576,1,0,0:0:0:0:ed2-18.wav
182,192,267614,1,0,0:0:0:0:p4-2.wav
475,192,267653,1,0,0:0:0:0:v53.wav
256,192,267653,1,0,0:0:0:0:v2-66.wav
402,192,267692,1,0,0:0:0:0:p4-3.wav
329,192,267731,1,0,0:0:0:0:ed2-20.wav
109,192,267809,1,0,0:0:0:0:p4-7.wav
36,192,267809,1,0,0:0:0:0:k3.wav
182,192,267848,1,0,0:0:0:0:k3.wav
329,192,267887,1,0,0:0:0:0:k3.wav
402,192,267912,1,0,0:0:0:0:p4-8.wav
475,192,267925,1,0,0:0:0:0:k3.wav
109,192,267964,1,0,0:0:0:0:bbb119.wav
256,192,268016,1,0,0:0:0:0:p4-9.wav
402,192,268042,1,0,0:0:0:0:bbb120.wav
36,192,268042,1,0,0:0:0:0:ed2-24.wav
475,192,268120,1,0,0:0:0:0:p4-7.wav
329,192,268120,1,0,0:0:0:0:v58.wav
182,192,268120,1,0,0:0:0:0:v2-71.wav
109,192,268197,1,0,0:0:0:0:p4-8.wav
256,192,268275,1,0,0:0:0:0:p4-9.wav
329,192,268275,1,0,0:0:0:0:ed2-27.wav
36,192,268275,1,0,0:0:0:0:k2.wav
402,192,268353,1,0,0:0:0:0:p4-10.wav
475,192,268431,1,0,0:0:0:0:p3-90.wav
182,192,268431,1,0,0:0:0:0:p4-11.wav
109,192,268431,1,0,0:0:0:0:v2-72.wav
329,192,268508,1,0,0:0:0:0:p3-91.wav
475,192,268586,1,0,0:0:0:0:p3-92.wav
182,192,268586,1,0,0:0:0:0:k2.wav
329,192,268664,1,0,0:0:0:0:p3-93.wav
402,192,268741,1,0,0:0:0:0:h1.wav
109,192,268741,1,0,0:0:0:0:
36,192,268741,1,0,0:0:0:0:k1.wav
256,192,268741,1,0,0:0:0:0:bbb128.wav
475,192,268819,1,0,0:0:0:0:bbb129.wav
329,192,268845,1,0,0:0:0:0:p4-17.wav
182,192,268897,1,0,0:0:0:0:v2-75.wav
475,192,268949,1,0,0:0:0:0:p4-18.wav
256,192,268975,1,0,0:0:0:0:ed2-4.wav
109,192,269052,1,0,0:0:0:0:
329,192,269052,1,0,0:0:0:0:bbb132.wav
36,192,269052,1,0,0:0:0:0:p4-4.wav
475,192,269130,1,0,0:0:0:0:bbb133.wav
182,192,269130,1,0,0:0:0:0:p4-17.wav
402,192,269208,1,0,0:0:0:0:bbb134.wav
36,192,269208,1,0,0:0:0:0:v2-76.wav
329,192,269260,1,0,0:0:0:0:p4-19.wav
256,192,269285,1,0,0:0:0:0:bbb135.wav
182,192,269363,1,0,0:0:0:0:p4-4.wav
109,192,269441,1,0,0:0:0:0:k1.wav
402,192,269441,1,0,0:0:0:0:bbb137.wav
329,192,269467,1,0,0:0:0:0:p4-17.wav
36,192,269519,1,0,0:0:0:0:
256,192,269519,1,0,0:0:0:0:bbb138.wav
475,192,269570,1,0,0:0:0:0:p4-18.wav
182,192,269596,1,0,0:0:0:0:bbb139.wav
109,192,269674,1,0,0:0:0:0:v2-78.wav
329,192,269674,1,0,0:0:0:0:p4-4.wav
402,192,269752,1,0,0:0:0:0:bbb141.wav
182,192,269778,1,0,0:0:0:0:p4-17.wav
475,192,269830,1,0,0:0:0:0:bbb142.wav
256,192,269881,1,0,0:0:0:0:p4-19.wav
402,192,269985,1,0,0:0:0:0:bbb143.wav
475,192,269985,1,0,0:0:0:0:h3.wav
36,192,269985,1,0,0:0:0:0:k1.wav
182,192,269985,1,0,0:0:0:0:p4-4.wav
329,192,270063,1,0,0:0:0:0:ed2-18.wav
256,192,270140,1,0,0:0:0:0:v66.wav
109,192,270140,1,0,0:0:0:0:v2-80.wav
402,192,270192,1,0,0:0:0:0:p4-18.wav
182,192,270218,1,0,0:0:0:0:ed2-20.wav
329,192,270296,1,0,0:0:0:0:bbb144.wav
475,192,270296,1,0,0:0:0:0:v2-81.wav
36,192,270296,1,0,0:0:0:0:p4-4.wav
256,192,270374,1,0,0:0:0:0:bbb145.wav
182,192,270399,1,0,0:0:0:0:p4-17.wav
402,192,270451,1,0,0:0:0:0:bbb146.wav
36,192,270451,1,0,0:0:0:0:k1.wav
329,192,270503,1,0,0:0:0:0:p4-19.wav
475,192,270607,1,0,0:0:0:0:p4-20.wav
256,192,270607,1,0,0:0:0:0:bbb148.wav
182,192,270607,1,0,0:0:0:0:v2-82.wav
109,192,270684,1,0,0:0:0:0:bbb149.wav
402,192,270710,1,0,0:0:0:0:p4-21.wav
256,192,270762,1,0,0:0:0:0:bbb150.wav
36,192,270762,1,0,0:0:0:0:k1.wav
329,192,270814,1,0,0:0:0:0:p4-22.wav
475,192,270840,1,0,0:0:0:0:ed2-28.wav
402,192,270918,1,0,0:0:0:0:p4-21.wav
182,192,270918,1,0,0:0:0:0:bbb151.wav
109,192,270918,1,0,0:0:0:0:v2-83.wav
475,192,270995,1,0,0:0:0:0:bbb152.wav
36,192,270995,1,0,0:0:0:0:ed2-30.wav
256,192,271021,1,0,0:0:0:0:p4-22.wav
109,192,271073,1,0,0:0:0:0:
402,192,271073,1,0,0:0:0:0:bbb153.wav
329,192,271125,1,0,0:0:0:0:p4-23.wav
475,192,271228,1,0,0:0:0:0:bbb155.wav
182,192,271228,1,0,0:0:0:0:p4-1.wav
36,192,271228,1,0,0:0:0:0:k1.wav
256,192,271306,1,0,0:0:0:0:bbb156.wav
329,192,271332,1,0,0:0:0:0:p4-17.wav
402,192,271384,1,0,0:0:0:0:bbb157.wav
109,192,271384,1,0,0:0:0:0:k1.wav
475,192,271436,1,0,0:0:0:0:p4-18.wav
182,192,271462,1,0,0:0:0:0:bbb158.wav
256,192,271539,1,0,0:0:0:0:bbb159.wav
36,192,271539,1,0,0:0:0:0:p4-4.wav
402,192,271617,1,0,0:0:0:0:bbb160.wav
109,192,271643,1,0,0:0:0:0:p4-17.wav
182,192,271695,1,0,0:0:0:0:bbb161.wav
329,192,271747,1,0,0:0:0:0:p4-19.wav
475,192,271773,1,0,0:0:0:0:bbb162.wav
256,192,271850,1,0,0:0:0:0:bbb163.wav
36,192,271850,1,0,0:0:0:0:p4-4.wav
109,192,271850,1,0,0:0:0:0:v2-77.wav
475,192,271928,1,0,0:0:0:0:bbb165.wav
329,192,271954,1,0,0:0:0:0:p4-17.wav
109,192,272006,1,0,0:0:0:0:bbb166.wav
36,192,272006,1,0,0:0:0:0:k1.wav
182,192,272057,1,0,0:0:0:0:
256,192,272109,1,0,0:0:0:0:
475,192,272161,1,0,0:0:0:0:
329,192,272161,1,0,0:0:0:0:
109,192,272239,1,0,0:0:0:0:
182,192,272265,1,0,0:0:0:0:p4-17.wav
402,192,272317,1,0,0:0:0:0:bbb170.wav
256,192,272317,1,0,0:0:0:0:v2-79.wav
329,192,272368,1,0,0:0:0:0:p4-19.wav
475,192,272472,1,0,0:0:0:0:bbb172.wav
109,192,272472,1,0,0:0:0:0:
36,192,272472,1,0,0:0:0:0:k1.wav
182,192,272472,1,0,0:0:0:0:p4-4.wav
329,192,272576,1,0,0:0:0:0:p4-17.wav
182,192,272627,1,0,0:0:0:0:v66.wav
109,192,272627,1,0,0:0:0:0:v2-80.wav
402,192,272679,1,0,0:0:0:0:p4-18.wav
475,192,272783,1,0,0:0:0:0:
329,192,272783,1,0,0:0:0:0:p4-4.wav
36,192,272783,1,0,0:0:0:0:k3.wav
182,192,272822,1,0,0:0:0:0:k3.wav
256,192,272887,1,0,0:0:0:0:p4-17.wav
109,192,272938,1,0,0:0:0:0:bbb175.wav
329,192,272990,1,0,0:0:0:0:p4-19.wav
182,192,273016,1,0,0:0:0:0:ed2-24.wav
475,192,273094,1,0,0:0:0:0:p4-20.wav
109,192,273094,1,0,0:0:0:0:v2-85.wav
402,192,273171,1,0,0:0:0:0:bbb178.wav
329,192,273197,1,0,0:0:0:0:p4-21.wav
256,192,273249,1,0,0:0:0:0:bbb179.wav
36,192,273249,1,0,0:0:0:0:k2.wav
182,192,273301,1,0,0:0:0:0:p4-22.wav
475,192,273405,1,0,0:0:0:0:p3-90.wav
256,192,273405,1,0,0:0:0:0:bbb180.wav
109,192,273405,1,0,0:0:0:0:k2.wav
329,192,273482,1,0,0:0:0:0:p3-91.wav
475,192,273560,1,0,0:0:0:0:p3-92.wav
36,192,273560,1,0,0:0:0:0:k2.wav
329,192,273638,1,0,0:0:0:0:p3-93.wav
182,192,273716,1,0,0:0:0:0:p4-1.wav
402,192,273716,1,0,0:0:0:0:bbb184.wav
36,192,273716,1,0,0:0:0:0:k1.wav
109,192,273716,1,0,0:0:0:0:v2-87.wav
475,192,273793,1,0,0:0:0:0:bbb185.wav
329,192,273819,1,0,0:0:0:0:p4-17.wav
256,192,273871,1,0,0:0:0:0:bbb186.wav
109,192,273871,1,0,0:0:0:0:v2-75.wav
402,192,273949,1,0,0:0:0:0:bbb187.wav
109,192,274026,1,0,0:0:0:0:
329,192,274026,1,0,0:0:0:0:bbb188.wav
36,192,274026,1,0,0:0:0:0:p4-4.wav
475,192,274104,1,0,0:0:0:0:bbb189.wav
182,192,274130,1,0,0:0:0:0:p4-17.wav
256,192,274182,1,0,0:0:0:0:bbb190.wav
329,192,274234,1,0,0:0:0:0:p4-19.wav
402,192,274260,1,0,0:0:0:0:bbb191.wav
475,192,274337,1,0,0:0:0:0:bbb192.wav
109,192,274337,1,0,0:0:0:0:v2-77.wav
402,192,274415,1,0,0:0:0:0:bbb193.wav
329,192,274441,1,0,0:0:0:0:p4-17.wav
256,192,274493,1,0,0:0:0:0:bbb194.wav
36,192,274493,1,0,0:0:0:0:k1.wav
475,192,274545,1,0,0:0:0:0:p4-18.wav
182,192,274570,1,0,0:0:0:0:bbb195.wav
329,192,274648,1,0,0:0:0:0:bbb196.wav
109,192,274648,1,0,0:0:0:0:v2-78.wav
36,192,274648,1,0,0:0:0:0:p4-4.wav
402,192,274726,1,0,0:0:0:0:bbb197.wav
182,192,274752,1,0,0:0:0:0:p4-17.wav
256,192,274804,1,0,0:0:0:0:bbb198.wav
329,192,274855,1,0,0:0:0:0:p4-19.wav
475,192,274959,1,0,0:0:0:0:h3.wav
182,192,274959,1,0,0:0:0:0:p4-4.wav
36,192,274959,1,0,0:0:0:0:k1.wav
329,192,275063,1,0,0:0:0:0:p4-17.wav
402,192,275114,1,0,0:0:0:0:bbb200.wav
109,192,275114,1,0,0:0:0:0:v2-80.wav
475,192,275166,1,0,0:0:0:0:p4-18.wav
256,192,275192,1,0,0:0:0:0:bbb201.wav
329,192,275270,1,0,0:0:0:0:bbb202.wav
36,192,275270,1,0,0:0:0:0:p4-4.wav
402,192,275348,1,0,0:0:0:0:bbb203.wav
182,192,275374,1,0,0:0:0:0:p4-17.wav
256,192,275425,1,0,0:0:0:0:bbb204.wav
109,192,275425,1,0,0:0:0:0:k1.wav
329,192,275477,1,0,0:0:0:0:p4-19.wav
402,192,275503,1,0,0:0:0:0:bbb205.wav
475,192,275581,1,0,0:0:0:0:p4-20.wav
182,192,275581,1,0,0:0:0:0:v2-82.wav
256,192,275659,1,0,0:0:0:0:bbb207.wav
402,192,275684,1,0,0:0:0:0:p4-21.wav
109,192,275736,1,0,0:0:0:0:bbb208.wav
36,192,275736,1,0,0:0:0:0:k1.wav
329,192,275788,1,0,0:0:0:0:p4-22.wav
475,192,275892,1,0,0:0:0:0:p3-90.wav
256,192,275892,1,0,0:0:0:0:
109,192,275892,1,0,0:0:0:0:v2-83.wav
36,192,275892,1,0,0:0:0:0:bbb209.wav
329,192,275969,1,0,0:0:0:0:p3-91.wav
475,192,276047,1,0,0:0:0:0:p3-92.wav
329,192,276125,1,0,0:0:0:0:p3-93.wav
402,192,276203,1,0,0:0:0:0:bbb213.wav
182,192,276203,1,0,0:0:0:0:p4-1.wav
36,192,276203,1,0,0:0:0:0:k1.wav
256,192,276280,1,0,0:0:0:0:bbb214.wav
329,192,276306,1,0,0:0:0:0:p4-17.wav
402,192,276358,1,0,0:0:0:0:bbb215.wav
36,192,276358,1,0,0:0:0:0:k1.wav
475,192,276410,1,0,0:0:0:0:p4-18.wav
182,192,276436,1,0,0:0:0:0:bbb216.wav
109,192,276513,1,0,0:0:0:0:
329,192,276513,1,0,0:0:0:0:bbb217.wav
36,192,276513,1,0,0:0:0:0:p4-4.wav
475,192,276591,1,0,0:0:0:0:bbb218.wav
182,192,276617,1,0,0:0:0:0:p4-17.wav
256,192,276669,1,0,0:0:0:0:bbb219.wav
329,192,276721,1,0,0:0:0:0:p4-19.wav
475,192,276747,1,0,0:0:0:0:bbb220.wav
402,192,276824,1,0,0:0:0:0:bbb221.wav
182,192,276824,1,0,0:0:0:0:p4-4.wav
109,192,276824,1,0,0:0:0:0:v2-77.wav
329,192,276902,1,0,0:0:0:0:bbb222.wav
36,192,276980,1,0,0:0:0:0:k1.wav
182,192,276980,1,0,0:0:0:0:p4-17.wav
475,192,277032,1,0,0:0:0:0:p4-18.wav
402,192,277083,1,0,0:0:0:0:
256,192,277135,1,0,0:0:0:0:bbb225.wav
109,192,277135,1,0,0:0:0:0:v2-78.wav
36,192,277135,1,0,0:0:0:0:p4-4.wav
475,192,277213,1,0,0:0:0:0:bbb226.wav
182,192,277239,1,0,0:0:0:0:p4-17.wav
402,192,277291,1,0,0:0:0:0:bbb227.wav
329,192,277342,1,0,0:0:0:0:p4-19.wav
256,192,277368,1,0,0:0:0:0:bbb228.wav
182,192,277446,1,0,0:0:0:0:p4-4.wav
36,192,277446,1,0,0:0:0:0:k1.wav
475,192,277524,1,0,0:0:0:0:bbb230.wav
329,192,277550,1,0,0:0:0:0:p4-17.wav
182,192,277602,1,0,0:0:0:0:
36,192,277602,1,0,0:0:0:0:k1.wav
475,192,277653,1,0,0:0:0:0:p4-18.wav
329,192,277679,1,0,0:0:0:0:bbb232.wav
109,192,277757,1,0,0:0:0:0:
256,192,277757,1,0,0:0:0:0:p4-4.wav
36,192,277757,1,0,0:0:0:0:k3.wav
182,192,277796,1,0,0:0:0:0:k3.wav
402,192,277861,1,0,0:0:0:0:p4-17.wav
475,192,277874,1,0,0:0:0:0:k3.wav
329,192,277912,1,0,0:0:0:0:
109,192,277990,1,0,0:0:0:0:
256,192,277990,1,0,0:0:0:0:
475,192,278068,1,0,0:0:0:0:p4-24.wav
36,192,278068,1,0,0:0:0:0:bbb236.wav
402,192,278120,1,0,0:0:0:0:p4-25.wav
329,192,278171,1,0,0:0:0:0:p4-26.wav
475,192,278223,1,0,0:0:0:0:bbb239.wav
256,192,278223,1,0,0:0:0:0:p4-27.wav
36,192,278223,1,0,0:0:0:0:k1.wav
182,192,278275,1,0,0:0:0:0:p4-28.wav
109,192,278327,1,0,0:0:0:0:p4-29.wav
329,192,278379,1,0,0:0:0:0:
402,192,278379,1,0,0:0:0:0:p4-36.wav
329,192,278456,1,0,0:0:0:0:
402,192,278456,1,0,0:0:0:0:p4-37.wav
109,192,278534,1,0,0:0:0:0:
182,192,278534,1,0,0:0:0:0:
182,192,278612,1,0,0:0:0:0:
109,192,278612,1,0,0:0:0:0:
475,192,278690,1,0,0:0:0:0:
329,192,278690,1,0,0:0:0:0:
256,192,278690,1,0,0:0:0:0:
36,192,278690,1,0,0:0:0:0:cs1.wav
402,192,278690,1,0,0:0:0:0:p4-35.wav
109,192,278767,1,0,0:0:0:0:tpe2.wav
402,192,278845,1,0,0:0:0:0:tpe3.wav
109,192,278923,1,0,0:0:0:0:tpe4.wav
256,192,279001,1,0,0:0:0:0:tpe5.wav
402,192,279078,1,0,0:0:0:0:tpe6.wav
475,192,279156,1,0,0:0:0:0:r24.wav
109,192,279156,1,0,0:0:0:0:
329,192,279156,1,0,0:0:0:0:v78.wav
36,192,279156,1,0,0:0:0:0:cs2.wav
182,192,279156,1,0,0:0:0:0:v2-92.wav
256,192,279234,1,0,0:0:0:0:tpe8.wav
402,192,279311,1,0,0:0:0:0:tpe9.wav
109,192,279389,1,0,0:0:0:0:tpe10.wav
256,192,279467,1,0,0:0:0:0:tpe11.wav
402,192,279545,1,0,0:0:0:0:tpe12.wav
475,192,279622,1,0,0:0:0:0:r25.wav
109,192,279622,1,0,0:0:0:0:
329,192,279622,1,0,0:0:0:0:v79.wav
36,192,279622,1,0,0:0:0:0:cs3.wav
182,192,279622,1,0,0:0:0:0:v2-93.wav
256,192,279700,1,0,0:0:0:0:tpe14.wav
402,192,279778,1,0,0:0:0:0:tpe15.wav
109,192,279855,1,0,0:0:0:0:
329,192,279933,1,0,0:0:0:0:
182,192,279933,1,0,0:0:0:0:
402,192,280011,1,0,0:0:0:0:tpe18.wav
475,192,280089,1,0,0:0:0:0:r26.wav
109,192,280089,1,0,0:0:0:0:
329,192,280089,1,0,0:0:0:0:v80.wav
36,192,280089,1,0,0:0:0:0:cs4.wav
182,192,280089,1,0,0:0:0:0:v2-94.wav
256,192,280166,1,0,0:0:0:0:tpe20.wav
402,192,280244,1,0,0:0:0:0:tpe21.wav
109,192,280322,1,0,0:0:0:0:tpe22.wav
256,192,280399,1,0,0:0:0:0:tpe23.wav
402,192,280477,1,0,0:0:0:0:tpe24.wav
329,192,280555,1,0,0:0:0:0:v81.wav
475,192,280555,1,0,0:0:0:0:r27.wav
182,192,280555,1,0,0:0:0:0:v2-95.wav
36,192,280555,1,0,0:0:0:0:cs5.wav
109,192,280555,1,0,0:0:0:0:tpe25.wav
256,192,280633,1,0,0:0:0:0:tpe26.wav
402,192,280710,1,0,0:0:0:0:tpe27.wav
109,192,280788,1,0,0:0:0:0:tpe28.wav
475,192,280866,1,0,0:0:0:0:r28.wav
256,192,280866,1,0,0:0:0:0:
329,192,280866,1,0,0:0:0:0:v82.wav
36,192,280866,1,0,0:0:0:0:cs6.wav
182,192,280866,1,0,0:0:0:0:v2-96.wav
402,192,280944,1,0,0:0:0:0:tpe30.wav
109,192,281021,1,0,0:0:0:0:tpe31.wav
256,192,281099,1,0,0:0:0:0:tpe32.wav
475,192,281177,1,0,0:0:0:0:r29.wav
402,192,281177,1,0,0:0:0:0:
329,192,281177,1,0,0:0:0:0:h1.wav
36,192,281177,1,0,0:0:0:0:cs7.wav
182,192,281177,1,0,0:0:0:0:p5-1.wav
109,192,281254,1,0,0:0:0:0:tpe2.wav
329,192,281332,1,0,0:0:0:0:
402,192,281410,1,0,0:0:0:0:tpe4.wav
182,192,281488,1,0,0:0:0:0:p5-1.wav
256,192,281565,1,0,0:0:0:0:tpe6.wav
475,192,281643,1,0,0:0:0:0:r30.wav
329,192,281643,1,0,0:0:0:0:p5-2.wav
36,192,281643,1,0,0:0:0:0:cs8.wav
109,192,281721,1,0,0:0:0:0:tpe8.wav
256,192,281798,1,0,0:0:0:0:tpe9.wav
182,192,281798,1,0,0:0:0:0:p5-1.wav
402,192,281876,1,0,0:0:0:0:tpe10.wav
329,192,281915,1,0,0:0:0:0:p5-2.wav
109,192,281954,1,0,0:0:0:0:tpe11.wav
182,192,282032,1,0,0:0:0:0:p5-3.wav
402,192,282109,1,0,0:0:0:0:tpe13.wav
475,192,282109,1,0,0:0:0:0:r25.wav
36,192,282109,1,0,0:0:0:0:cs9.wav
329,192,282109,1,0,0:0:0:0:p5-4.wav
182,192,282187,1,0,0:0:0:0:tpe14.wav
109,192,282187,1,0,0:0:0:0:p5-3.wav
402,192,282265,1,0,0:0:0:0:tpe15.wav
329,192,282265,1,0,0:0:0:0:p5-4.wav
182,192,282342,1,0,0:0:0:0:p5-3.wav
329,192,282420,1,0,0:0:0:0:p5-4.wav
182,192,282498,1,0,0:0:0:0:p5-3.wav
329,192,282576,1,0,0:0:0:0:tpe19.wav
109,192,282576,1,0,0:0:0:0:v2-94.wav
36,192,282576,1,0,0:0:0:0:cs10.wav
182,192,282653,1,0,0:0:0:0:p5-3.wav
329,192,282731,1,0,0:0:0:0:p5-4.wav
109,192,282789,1,0,0:0:0:0:p5-5.wav
402,192,282848,1,0,0:0:0:0:p5-6.wav
182,192,282906,1,0,0:0:0:0:p5-5.wav
329,192,282945,1,0,0:0:0:0:p5-6.wav
109,192,282990,1,0,0:0:0:0:p5-5.wav
475,192,283042,1,0,0:0:0:0:
402,192,283042,1,0,0:0:0:0:p5-6.wav
256,192,283042,1,0,0:0:0:0:r27.wav
182,192,283081,1,0,0:0:0:0:p5-5.wav
329,192,283139,1,0,0:0:0:0:p5-6.wav
109,192,283171,1,0,0:0:0:0:p5-5.wav
402,192,283223,1,0,0:0:0:0:p5-6.wav
182,192,283256,1,0,0:0:0:0:p5-5.wav
329,192,283314,1,0,0:0:0:0:p5-6.wav
36,192,283353,1,0,0:0:0:0:cs12.wav
109,192,283353,1,0,0:0:0:0:p5-7.wav
402,192,283392,1,0,0:0:0:0:p5-8.wav
182,192,283431,1,0,0:0:0:0:p5-7.wav
329,192,283469,1,0,0:0:0:0:p5-8.wav
256,192,283508,1,0,0:0:0:0:tpe31.wav
109,192,283508,1,0,0:0:0:0:p5-7.wav
402,192,283547,1,0,0:0:0:0:p5-8.wav
182,192,283586,1,0,0:0:0:0:p5-7.wav
329,192,283625,1,0,0:0:0:0:p5-8.wav
402,192,283664,1,0,0:0:0:0:r29.wav
475,192,283664,1,0,0:0:0:0:
256,192,283664,1,0,0:0:0:0:tpe1.wav
36,192,283664,1,0,0:0:0:0:cs7.wav
109,192,283664,1,0,0:0:0:0:p5-9.wav
182,192,283741,1,0,0:0:0:0:
329,192,283819,1,0,0:0:0:0:
182,192,283897,1,0,0:0:0:0:
256,192,283975,1,0,0:0:0:0:
109,192,284052,1,0,0:0:0:0:tpe6.wav
329,192,284130,1,0,0:0:0:0:v84.wav
475,192,284130,1,0,0:0:0:0:r30.wav
256,192,284130,1,0,0:0:0:0:tpe7.wav
36,192,284130,1,0,0:0:0:0:cs8.wav
182,192,284130,1,0,0:0:0:0:v2-92.wav
402,192,284208,1,0,0:0:0:0:tpe8.wav
109,192,284285,1,0,0:0:0:0:tpe9.wav
256,192,284363,1,0,0:0:0:0:tpe10.wav
402,192,284441,1,0,0:0:0:0:tpe11.wav
109,192,284519,1,0,0:0:0:0:tpe12.wav
329,192,284596,1,0,0:0:0:0:v85.wav
475,192,284596,1,0,0:0:0:0:r25.wav
256,192,284596,1,0,0:0:0:0:tpe13.wav
36,192,284596,1,0,0:0:0:0:cs9.wav
182,192,284596,1,0,0:0:0:0:v2-93.wav
402,192,284674,1,0,0:0:0:0:tpe14.wav
109,192,284752,1,0,0:0:0:0:tpe15.wav
256,192,284830,1,0,0:0:0:0:tpe16.wav
402,192,284907,1,0,0:0:0:0:tpe17.wav
36,192,284907,1,0,0:0:0:0:h3.wav
109,192,284985,1,0,0:0:0:0:tpe18.wav
329,192,285063,1,0,0:0:0:0:v86.wav
475,192,285063,1,0,0:0:0:0:r26.wav
256,192,285063,1,0,0:0:0:0:tpe19.wav
36,192,285063,1,0,0:0:0:0:cs10.wav
182,192,285063,1,0,0:0:0:0:v2-94.wav
402,192,285140,1,0,0:0:0:0:tpe20.wav
109,192,285218,1,0,0:0:0:0:tpe21.wav
256,192,285296,1,0,0:0:0:0:tpe22.wav
402,192,285374,1,0,0:0:0:0:tpe23.wav
109,192,285451,1,0,0:0:0:0:tpe24.wav
329,192,285529,1,0,0:0:0:0:v87.wav
475,192,285529,1,0,0:0:0:0:r27.wav
256,192,285529,1,0,0:0:0:0:tpe25.wav
36,192,285529,1,0,0:0:0:0:cs11.wav
182,192,285529,1,0,0:0:0:0:v2-95.wav
402,192,285607,1,0,0:0:0:0:tpe26.wav
109,192,285684,1,0,0:0:0:0:tpe27.wav
256,192,285762,1,0,0:0:0:0:tpe28.wav
402,192,285840,1,0,0:0:0:0:tpe29.wav
475,192,285840,1,0,0:0:0:0:r28.wav
329,192,285840,1,0,0:0:0:0:v88.wav
36,192,285840,1,0,0:0:0:0:cs12.wav
182,192,285840,1,0,0:0:0:0:v2-96.wav
109,192,285918,1,0,0:0:0:0:tpe30.wav
256,192,285995,1,0,0:0:0:0:tpe31.wav
402,192,286073,1,0,0:0:0:0:tpe32.wav
329,192,286151,1,0,0:0:0:0:v2-98.wav
475,192,286151,1,0,0:0:0:0:v89.wav
256,192,286151,1,0,0:0:0:0:r29.wav
36,192,286151,1,0,0:0:0:0:cs13.wav
182,192,286151,1,0,0:0:0:0:h2.wav
329,192,286617,1,0,0:0:0:0:v2-99.wav
475,192,286617,1,0,0:0:0:0:v90.wav
256,192,286617,1,0,0:0:0:0:r30.wav
36,192,286617,1,0,0:0:0:0:cs14.wav
182,192,286617,1,0,0:0:0:0:h2.wav
329,192,287083,1,0,0:0:0:0:v2-100.wav
475,192,287083,1,0,0:0:0:0:v91.wav
256,192,287083,1,0,0:0:0:0:r31.wav
36,192,287083,1,0,0:0:0:0:cs15.wav
182,192,287083,1,0,0:0:0:0:h2.wav
36,192,302601,5,0,0:0:0:0:
182,192,302601,1,0,0:0:0:0:
182,192,302835,1,0,0:0:0:0:
36,192,302835,1,0,0:0:0:0:
256,192,303069,1,0,0:0:0:0:
109,192,303069,1,0,0:0:0:0:
329,192,303304,1,0,0:0:0:0:
182,192,303421,1,0,0:0:0:0:
329,192,303538,1,0,0:0:0:0:
109,192,303655,1,0,0:0:0:0:
329,192,303772,1,0,0:0:0:0:
36,192,303772,1,0,0:0:0:0:
475,192,303890,1,0,0:0:0:0:
256,192,303890,1,0,0:0:0:0:
109,192,304007,1,0,0:0:0:0:
182,192,304007,1,0,0:0:0:0:
402,192,304007,1,0,0:0:0:0:
329,192,304241,1,0,0:0:0:0:
182,192,304358,1,0,0:0:0:0:
256,192,304476,1,0,0:0:0:0:
36,192,304476,1,0,0:0:0:0:
36,192,304710,1,0,0:0:0:0:
256,192,304710,1,0,0:0:0:0:
329,192,304944,1,0,0:0:0:0:
182,192,304944,1,0,0:0:0:0:
109,192,304944,1,0,0:0:0:0:
402,192,305179,1,0,0:0:0:0:
182,192,305296,1,0,0:0:0:0:
402,192,305413,1,0,0:0:0:0:
109,192,305530,1,0,0:0:0:0:
329,192,305647,1,0,0:0:0:0:
36,192,305765,1,0,0:0:0:0:
256,192,305882,1,0,0:0:0:0:
475,192,305999,1,0,0:0:0:0:
182,192,306116,1,0,0:0:0:0:
402,192,306233,1,0,0:0:0:0:
182,192,306351,1,0,0:0:0:0:
329,192,306468,1,0,0:0:0:0:
109,192,306585,1,0,0:0:0:0:
402,192,306702,1,0,0:0:0:0:
182,192,306819,1,0,0:0:0:0:
329,192,306936,1,0,0:0:0:0:
109,192,307054,1,0,0:0:0:0:
402,192,307171,1,0,0:0:0:0:
182,192,307288,1,0,0:0:0:0:
329,192,307405,1,0,0:0:0:0:
36,192,307522,1,0,0:0:0:0:
182,192,307640,1,0,0:0:0:0:
475,192,307757,1,0,0:0:0:0:
329,192,307874,1,0,0:0:0:0:
36,192,307991,1,0,0:0:0:0:
182,192,308108,1,0,0:0:0:0:
329,192,308226,1,0,0:0:0:0:
402,192,308343,1,0,0:0:0:0:
109,192,308460,1,0,0:0:0:0:
182,192,308577,1,0,0:0:0:0:
402,192,308694,1,0,0:0:0:0:
256,192,308811,1,0,0:0:0:0:
36,192,308929,1,0,0:0:0:0:
182,192,309046,1,0,0:0:0:0:
329,192,309163,1,0,0:0:0:0:
402,192,309280,1,0,0:0:0:0:
475,192,309397,1,0,0:0:0:0:
182,192,309515,1,0,0:0:0:0:
256,192,309632,1,0,0:0:0:0:
329,192,309749,1,0,0:0:0:0:
402,192,309866,1,0,0:0:0:0:
475,192,309983,1,0,0:0:0:0:
475,192,310101,1,0,0:0:0:0:
329,192,310101,1,0,0:0:0:0:
36,192,310101,1,0,0:0:0:0:
109,192,310159,1,0,0:0:0:0:
182,192,310218,1,0,0:0:0:0:
256,192,310276,1,0,0:0:0:0:
36,192,310335,1,0,0:0:0:0:
402,192,310335,1,0,0:0:0:0:
329,192,310393,1,0,0:0:0:0:
182,192,310452,1,0,0:0:0:0:
109,192,310511,1,0,0:0:0:0:
402,192,310569,1,0,0:0:0:0:
475,192,310569,1,0,0:0:0:0:
36,192,310569,1,0,0:0:0:0:
256,192,310569,1,0,0:0:0:0:
182,192,310628,1,0,0:0:0:0:
109,192,310686,1,0,0:0:0:0:
256,192,310745,1,0,0:0:0:0:
475,192,310804,1,0,0:0:0:0:
402,192,310804,1,0,0:0:0:0:
329,192,310862,1,0,0:0:0:0:
256,192,310921,1,0,0:0:0:0:
182,192,310979,1,0,0:0:0:0:
475,192,311038,1,0,0:0:0:0:
36,192,311038,1,0,0:0:0:0:
109,192,311038,1,0,0:0:0:0:
329,192,311097,1,0,0:0:0:0:
256,192,311155,1,0,0:0:0:0:
109,192,311214,1,0,0:0:0:0:
402,192,311272,1,0,0:0:0:0:
475,192,311272,1,0,0:0:0:0:
182,192,311331,1,0,0:0:0:0:
109,192,311390,1,0,0:0:0:0:
36,192,311448,1,0,0:0:0:0:
402,192,311507,1,0,0:0:0:0:
182,192,311507,1,0,0:0:0:0:
256,192,311507,1,0,0:0:0:0:
475,192,311507,1,0,0:0:0:0:
329,192,311565,1,0,0:0:0:0:
109,192,311624,1,0,0:0:0:0:
402,192,311683,1,0,0:0:0:0:
36,192,311741,1,0,0:0:0:0:
256,192,311741,1,0,0:0:0:0:
182,192,311800,1,0,0:0:0:0:
329,192,311858,1,0,0:0:0:0:
402,192,311917,1,0,0:0:0:0:
109,192,311976,1,0,0:0:0:0:
256,192,311976,1,0,0:0:0:0:
475,192,311976,1,0,0:0:0:0:
36,192,312034,1,0,0:0:0:0:
182,192,312093,1,0,0:0:0:0:
329,192,312151,1,0,0:0:0:0:
109,192,312210,1,0,0:0:0:0:
475,192,312210,1,0,0:0:0:0:
402,192,312268,1,0,0:0:0:0:
256,192,312327,1,0,0:0:0:0:
109,192,312386,1,0,0:0:0:0:
402,192,312444,1,0,0:0:0:0:
475,192,312444,1,0,0:0:0:0:
36,192,312444,1,0,0:0:0:0:
329,192,312444,1,0,0:0:0:0:
182,192,312503,1,0,0:0:0:0:
256,192,312561,1,0,0:0:0:0:
402,192,312620,1,0,0:0:0:0:
329,192,312679,1,0,0:0:0:0:
109,192,312679,1,0,0:0:0:0:
182,192,312737,1,0,0:0:0:0:
256,192,312796,1,0,0:0:0:0:
402,192,312854,1,0,0:0:0:0:
109,192,312913,1,0,0:0:0:0:
36,192,312913,1,0,0:0:0:0:
475,192,312913,1,0,0:0:0:0:
329,192,312972,1,0,0:0:0:0:
182,192,313030,1,0,0:0:0:0:
256,192,313089,1,0,0:0:0:0:
36,192,313147,1,0,0:0:0:0:
109,192,313147,1,0,0:0:0:0:
402,192,313206,1,0,0:0:0:0:
256,192,313265,1,0,0:0:0:0:
329,192,313323,1,0,0:0:0:0:
109,192,313382,1,0,0:0:0:0:
36,192,313382,1,0,0:0:0:0:
402,192,313382,1,0,0:0:0:0:
475,192,313382,1,0,0:0:0:0:
182,192,313440,1,0,0:0:0:0:
329,192,313499,1,0,0:0:0:0:
109,192,313558,1,0,0:0:0:0:
36,192,313616,1,0,0:0:0:0:
256,192,313616,1,0,0:0:0:0:
402,192,313675,1,0,0:0:0:0:
475,192,313733,1,0,0:0:0:0:
402,192,313792,1,0,0:0:0:0:
329,192,313851,1,0,0:0:0:0:
36,192,313851,1,0,0:0:0:0:
109,192,313851,1,0,0:0:0:0:
256,192,313909,1,0,0:0:0:0:
182,192,313968,1,0,0:0:0:0:
109,192,314026,1,0,0:0:0:0:
475,192,314085,1,0,0:0:0:0:
36,192,314085,1,0,0:0:0:0:
402,192,314143,1,0,0:0:0:0:
329,192,314202,1,0,0:0:0:0:
182,192,314261,1,0,0:0:0:0:
256,192,314319,1,0,0:0:0:0:
36,192,314319,1,0,0:0:0:0:
402,192,314319,1,0,0:0:0:0:
475,192,314319,1,0,0:0:0:0:
109,192,314378,1,0,0:0:0:0:
182,192,314436,1,0,0:0:0:0:
36,192,314495,1,0,0:0:0:0:
256,192,314554,1,0,0:0:0:0:
109,192,314554,1,0,0:0:0:0:
402,192,314612,1,0,0:0:0:0:
475,192,314671,1,0,0:0:0:0:
36,192,314729,1,0,0:0:0:0:
182,192,314788,1,0,0:0:0:0:
109,192,314788,1,0,0:0:0:0:
329,192,314788,1,0,0:0:0:0:
402,192,314847,1,0,0:0:0:0:
256,192,314905,1,0,0:0:0:0:
36,192,314964,1,0,0:0:0:0:
475,192,315022,1,0,0:0:0:0:
329,192,315022,1,0,0:0:0:0:
182,192,315081,1,0,0:0:0:0:
402,192,315140,1,0,0:0:0:0:
256,192,315198,1,0,0:0:0:0:
36,192,315257,1,0,0:0:0:0:
109,192,315257,1,0,0:0:0:0:
475,192,315257,1,0,0:0:0:0:
329,192,315257,1,0,0:0:0:0:
182,192,315315,1,0,0:0:0:0:
402,192,315374,1,0,0:0:0:0:
256,192,315433,1,0,0:0:0:0:
109,192,315491,1,0,0:0:0:0:
329,192,315491,1,0,0:0:0:0:
36,192,315550,1,0,0:0:0:0:
182,192,315608,1,0,0:0:0:0:
109,192,315667,1,0,0:0:0:0:
329,192,315726,1,0,0:0:0:0:
36,192,315726,1,0,0:0:0:0:
475,192,315726,1,0,0:0:0:0:
402,192,315784,1,0,0:0:0:0:
182,192,315843,1,0,0:0:0:0:
256,192,315901,1,0,0:0:0:0:
402,192,315960,1,0,0:0:0:0:
36,192,315960,1,0,0:0:0:0:
109,192,316018,1,0,0:0:0:0:
182,192,316077,1,0,0:0:0:0:
256,192,316136,1,0,0:0:0:0:
36,192,316194,1,0,0:0:0:0:
329,192,316194,1,0,0:0:0:0:
475,192,316194,1,0,0:0:0:0:
109,192,316194,1,0,0:0:0:0:
402,192,316253,1,0,0:0:0:0:
182,192,316311,1,0,0:0:0:0:
256,192,316370,1,0,0:0:0:0:
329,192,316429,1,0,0:0:0:0:
36,192,316429,1,0,0:0:0:0:
109,192,316487,1,0,0:0:0:0:
182,192,316546,1,0,0:0:0:0:
256,192,316604,1,0,0:0:0:0:
109,192,316663,1,0,0:0:0:0:
36,192,316663,1,0,0:0:0:0:
475,192,316663,1,0,0:0:0:0:
402,192,316722,1,0,0:0:0:0:
329,192,316780,1,0,0:0:0:0:
182,192,316839,1,0,0:0:0:0:
109,192,316897,1,0,0:0:0:0:
36,192,316956,1,0,0:0:0:0:
329,192,317015,1,0,0:0:0:0:
182,192,317073,1,0,0:0:0:0:
475,192,317132,1,0,0:0:0:0:
109,192,317132,1,0,0:0:0:0:
36,192,317132,1,0,0:0:0:0:
402,192,317132,1,0,0:0:0:0:
256,192,317190,1,0,0:0:0:0:
182,192,317249,1,0,0:0:0:0:
329,192,317308,1,0,0:0:0:0:
475,192,317366,1,0,0:0:0:0:
256,192,317366,1,0,0:0:0:0:
182,192,317425,1,0,0:0:0:0:
109,192,317483,1,0,0:0:0:0:
36,192,317542,1,0,0:0:0:0:
329,192,317601,1,0,0:0:0:0:
402,192,317601,1,0,0:0:0:0:
256,192,317601,1,0,0:0:0:0:
109,192,317659,1,0,0:0:0:0:
475,192,317718,1,0,0:0:0:0:
36,192,317776,1,0,0:0:0:0:
256,192,317835,1,0,0:0:0:0:
402,192,317835,1,0,0:0:0:0:
109,192,317893,1,0,0:0:0:0:
329,192,317952,1,0,0:0:0:0:
182,192,318011,1,0,0:0:0:0:
402,192,318069,1,0,0:0:0:0:
475,192,318069,1,0,0:0:0:0:
256,192,318069,1,0,0:0:0:0:
36,192,318069,1,0,0:0:0:0:
109,192,318128,1,0,0:0:0:0:
329,192,318186,1,0,0:0:0:0:
182,192,318245,1,0,0:0:0:0:
402,192,318304,1,0,0:0:0:0:
256,192,318304,1,0,0:0:0:0:
475,192,318362,1,0,0:0:0:0:
109,192,318421,1,0,0:0:0:0:
329,192,318479,1,0,0:0:0:0:
402,192,318538,1,0,0:0:0:0:
36,192,318538,1,0,0:0:0:0:
182,192,318538,1,0,0:0:0:0:
109,192,318597,1,0,0:0:0:0:
256,192,318655,1,0,0:0:0:0:
329,192,318714,1,0,0:0:0:0:
475,192,318772,1,0,0:0:0:0:
36,192,318772,1,0,0:0:0:0:
182,192,318831,1,0,0:0:0:0:
109,192,318890,1,0,0:0:0:0:
329,192,318948,1,0,0:0:0:0:
36,192,319007,1,0,0:0:0:0:
475,192,319007,1,0,0:0:0:0:
256,192,319007,1,0,0:0:0:0:
182,192,319007,1,0,0:0:0:0:
402,192,319065,1,0,0:0:0:0:
109,192,319124,1,0,0:0:0:0:
475,192,319183,1,0,0:0:0:0:
329,192,319241,1,0,0:0:0:0:
182,192,319241,1,0,0:0:0:0:
402,192,319300,1,0,0:0:0:0:
256,192,319358,1,0,0:0:0:0:
329,192,319417,1,0,0:0:0:0:
475,192,319476,1,0,0:0:0:0:
402,192,319476,1,0,0:0:0:0:
182,192,319476,1,0,0:0:0:0:
109,192,319534,1,0,0:0:0:0:
36,192,319593,1,0,0:0:0:0:
256,192,319651,1,0,0:0:0:0:
402,192,319710,1,0,0:0:0:0:
182,192,319710,1,0,0:0:0:0:
256,192,319768,1,0,0:0:0:0:
329,192,319827,1,0,0:0:0:0:
402,192,319886,1,0,0:0:0:0:
182,192,319944,1,0,0:0:0:0:
36,192,319944,1,0,0:0:0:0:
475,192,319944,1,0,0:0:0:0:
109,192,319944,1,0,0:0:0:0:
256,192,320003,1,0,0:0:0:0:
402,192,320061,1,0,0:0:0:0:
182,192,320120,1,0,0:0:0:0:
109,192,320179,1,0,0:0:0:0:
256,192,320179,1,0,0:0:0:0:
329,192,320237,1,0,0:0:0:0:
402,192,320296,1,0,0:0:0:0:
475,192,320354,1,0,0:0:0:0:
329,192,320413,1,0,0:0:0:0:
36,192,320413,1,0,0:0:0:0:
182,192,320413,1,0,0:0:0:0:
402,192,320472,1,0,0:0:0:0:
256,192,320530,1,0,0:0:0:0:
109,192,320589,1,0,0:0:0:0:
475,192,320647,1,0,0:0:0:0:
329,192,320647,1,0,0:0:0:0:
182,192,320706,1,0,0:0:0:0:
36,192,320765,1,0,0:0:0:0:
256,192,320823,1,0,0:0:0:0:
182,192,320882,1,0,0:0:0:0:
475,192,320882,1,0,0:0:0:0:
402,192,320882,1,0,0:0:0:0:
109,192,320882,1,0,0:0:0:0:
329,192,320940,1,0,0:0:0:0:
256,192,320999,1,0,0:0:0:0:
182,192,321058,1,0,0:0:0:0:
109,192,321116,1,0,0:0:0:0:
182,192,321175,1,0,0:0:0:0:
256,192,321233,1,0,0:0:0:0:
329,192,321292,1,0,0:0:0:0:
402,192,321351,1,0,0:0:0:0:
36,192,321351,1,0,0:0:0:0:
475,192,321351,1,0,0:0:0:0:
182,192,321409,1,0,0:0:0:0:
109,192,321468,1,0,0:0:0:0:
256,192,321526,1,0,0:0:0:0:
475,192,321585,1,0,0:0:0:0:
182,192,321585,1,0,0:0:0:0:
329,192,321643,1,0,0:0:0:0:
256,192,321702,1,0,0:0:0:0:
475,192,321761,1,0,0:0:0:0:
109,192,321819,1,0,0:0:0:0:
36,192,321819,1,0,0:0:0:0:
402,192,321819,1,0,0:0:0:0:
182,192,321819,1,0,0:0:0:0:
256,192,321878,1,0,0:0:0:0:
475,192,321936,1,0,0:0:0:0:
182,192,321995,1,0,0:0:0:0:
256,192,322054,1,0,0:0:0:0:
36,192,322054,1,0,0:0:0:0:
402,192,322054,1,0,0:0:0:0:
109,192,322112,1,0,0:0:0:0:
329,192,322171,1,0,0:0:0:0:
36,192,322229,1,0,0:0:0:0:
182,192,322288,1,0,0:0:0:0:
475,192,322288,1,0,0:0:0:0:
402,192,322288,1,0,0:0:0:0:
109,192,322347,1,0,0:0:0:0:
256,192,322405,1,0,0:0:0:0:
329,192,322464,1,0,0:0:0:0:
36,192,322522,1,0,0:0:0:0:
402,192,322522,1,0,0:0:0:0:
109,192,322581,1,0,0:0:0:0:
256,192,322640,1,0,0:0:0:0:
329,192,322698,1,0,0:0:0:0:
36,192,322757,1,0,0:0:0:0:
475,192,322757,1,0,0:0:0:0:
182,192,322757,1,0,0:0:0:0:
402,192,322757,1,0,0:0:0:0:
256,192,322815,1,0,0:0:0:0:
329,192,322874,1,0,0:0:0:0:
36,192,322933,1,0,0:0:0:0:
402,192,322991,1,0,0:0:0:0:
475,192,322991,1,0,0:0:0:0:
109,192,322991,1,0,0:0:0:0:
182,192,323050,1,0,0:0:0:0:
256,192,323108,1,0,0:0:0:0:
36,192,323167,1,0,0:0:0:0:
329,192,323226,1,0,0:0:0:0:
109,192,323226,1,0,0:0:0:0:
475,192,323226,1,0,0:0:0:0:
256,192,323284,1,0,0:0:0:0:
182,192,323343,1,0,0:0:0:0:
109,192,323401,1,0,0:0:0:0:
402,192,323460,1,0,0:0:0:0:
256,192,323460,1,0,0:0:0:0:
36,192,323460,1,0,0:0:0:0:
475,192,323518,1,0,0:0:0:0:
329,192,323577,1,0,0:0:0:0:
256,192,323636,1,0,0:0:0:0:
36,192,323694,1,0,0:0:0:0:
475,192,323694,1,0,0:0:0:0:
182,192,323694,1,0,0:0:0:0:
109,192,323694,1,0,0:0:0:0:
402,192,323753,1,0,0:0:0:0:
329,192,323811,1,0,0:0:0:0:
182,192,323870,1,0,0:0:0:0:
475,192,323929,1,0,0:0:0:0:
109,192,323929,1,0,0:0:0:0:
402,192,323929,1,0,0:0:0:0:
36,192,323987,1,0,0:0:0:0:
329,192,323987,1,0,0:0:0:0:
182,192,324046,1,0,0:0:0:0:
109,192,324104,1,0,0:0:0:0:
475,192,324163,1,0,0:0:0:0:
329,192,324163,1,0,0:0:0:0:
36,192,324163,1,0,0:0:0:0:
402,192,324163,1,0,0:0:0:0:
256,192,324222,1,0,0:0:0:0:
109,192,324280,1,0,0:0:0:0:
182,192,324339,1,0,0:0:0:0:
256,192,324397,1,0,0:0:0:0:
36,192,324397,1,0,0:0:0:0:
329,192,324456,1,0,0:0:0:0:
402,192,324515,1,0,0:0:0:0:
475,192,324573,1,0,0:0:0:0:
256,192,324632,1,0,0:0:0:0:
109,192,324632,1,0,0:0:0:0:
36,192,324632,1,0,0:0:0:0:
329,192,324632,1,0,0:0:0:0:
182,192,324690,1,0,0:0:0:0:
475,192,324749,1,0,0:0:0:0:
402,192,324808,1,0,0:0:0:0:
329,192,324866,1,0,0:0:0:0:
109,192,324866,1,0,0:0:0:0:
256,192,324925,1,0,0:0:0:0:
182,192,324983,1,0,0:0:0:0:
329,192,325042,1,0,0:0:0:0:
402,192,325101,1,0,0:0:0:0:
36,192,325101,1,0,0:0:0:0:
475,192,325101,1,0,0:0:0:0:
109,192,325159,1,0,0:0:0:0:
182,192,325218,1,0,0:0:0:0:
256,192,325276,1,0,0:0:0:0:
36,192,325335,1,0,0:0:0:0:
329,192,325335,1,0,0:0:0:0:
402,192,325393,1,0,0:0:0:0:
475,192,325452,1,0,0:0:0:0:
402,192,325511,1,0,0:0:0:0:
36,192,325569,1,0,0:0:0:0:
329,192,325569,1,0,0:0:0:0:
109,192,325569,1,0,0:0:0:0:
256,192,325569,1,0,0:0:0:0:
182,192,325628,1,0,0:0:0:0:
475,192,325686,1,0,0:0:0:0:
402,192,325745,1,0,0:0:0:0:
329,192,325804,1,0,0:0:0:0:
182,192,325804,1,0,0:0:0:0:
109,192,325862,1,0,0:0:0:0:
36,192,325921,1,0,0:0:0:0:
109,192,325979,1,0,0:0:0:0:
182,192,326038,1,0,0:0:0:0:
256,192,326038,1,0,0:0:0:0:
475,192,326038,1,0,0:0:0:0:
402,192,326097,1,0,0:0:0:0:
329,192,326155,1,0,0:0:0:0:
256,192,326214,1,0,0:0:0:0:
475,192,326272,1,0,0:0:0:0:
182,192,326272,1,0,0:0:0:0:
109,192,326331,1,0,0:0:0:0:
36,192,326390,1,0,0:0:0:0:
182,192,326448,1,0,0:0:0:0:
109,192,326507,1,0,0:0:0:0:
402,192,326507,1,0,0:0:0:0:
256,192,326507,1,0,0:0:0:0:
475,192,326507,1,0,0:0:0:0:
329,192,326565,1,0,0:0:0:0:
182,192,326624,1,0,0:0:0:0:
329,192,326683,1,0,0:0:0:0:
36,192,326741,1,0,0:0:0:0:
109,192,326741,1,0,0:0:0:0:
256,192,326800,1,0,0:0:0:0:
329,192,326858,1,0,0:0:0:0:
402,192,326917,1,0,0:0:0:0:
256,192,326976,1,0,0:0:0:0:
36,192,326976,1,0,0:0:0:0:
109,192,326976,1,0,0:0:0:0:
475,192,327034,1,0,0:0:0:0:
182,192,327093,1,0,0:0:0:0:
402,192,327151,1,0,0:0:0:0:
36,192,327210,1,0,0:0:0:0:
256,192,327210,1,0,0:0:0:0:
109,192,327268,1,0,0:0:0:0:
329,192,327327,1,0,0:0:0:0:
402,192,327386,1,0,0:0:0:0:
36,192,327444,1,0,0:0:0:0:
109,192,327444,1,0,0:0:0:0:
182,192,327444,1,0,0:0:0:0:
256,192,327444,1,0,0:0:0:0:
475,192,327503,1,0,0:0:0:0:
329,192,327561,1,0,0:0:0:0:
256,192,327620,1,0,0:0:0:0:
36,192,327679,1,0,0:0:0:0:
182,192,327679,1,0,0:0:0:0:
402,192,327737,1,0,0:0:0:0:
475,192,327796,1,0,0:0:0:0:
109,192,327854,1,0,0:0:0:0:
329,192,327913,1,0,0:0:0:0:
36,192,327913,1,0,0:0:0:0:
182,192,327913,1,0,0:0:0:0:
402,192,327972,1,0,0:0:0:0:
475,192,328030,1,0,0:0:0:0:
256,192,328089,1,0,0:0:0:0:
329,192,328147,1,0,0:0:0:0:
182,192,328147,1,0,0:0:0:0:
109,192,328206,1,0,0:0:0:0:
36,192,328265,1,0,0:0:0:0:
182,192,328323,1,0,0:0:0:0:
475,192,328382,1,0,0:0:0:0:
109,192,328382,1,0,0:0:0:0:
329,192,328382,1,0,0:0:0:0:
256,192,328382,1,0,0:0:0:0:
402,192,328440,1,0,0:0:0:0:
36,192,328499,1,0,0:0:0:0:
256,192,328558,1,0,0:0:0:0:
109,192,328616,1,0,0:0:0:0:
475,192,328616,1,0,0:0:0:0:
329,192,328675,1,0,0:0:0:0:
402,192,328733,1,0,0:0:0:0:
256,192,328792,1,0,0:0:0:0:
329,192,328851,1,0,0:0:0:0:
109,192,328851,1,0,0:0:0:0:
36,192,328851,1,0,0:0:0:0:
182,192,328909,1,0,0:0:0:0:
256,192,328968,1,0,0:0:0:0:
402,192,329026,1,0,0:0:0:0:
475,192,329085,1,0,0:0:0:0:
36,192,329085,1,0,0:0:0:0:
182,192,329143,1,0,0:0:0:0:
329,192,329202,1,0,0:0:0:0:
36,192,329261,1,0,0:0:0:0:
402,192,329319,1,0,0:0:0:0:
475,192,329319,1,0,0:0:0:0:
109,192,329319,1,0,0:0:0:0:
256,192,329319,1,0,0:0:0:0:
182,192,329378,1,0,0:0:0:0:
36,192,329436,1,0,0:0:0:0:
475,192,329495,1,0,0:0:0:0:
256,192,329554,1,0,0:0:0:0:
182,192,329554,1,0,0:0:0:0:
109,192,329554,1,0,0:0:0:0:
402,192,329612,1,0,0:0:0:0:
36,192,329671,1,0,0:0:0:0:
329,192,329729,1,0,0:0:0:0:
182,192,329788,1,0,0:0:0:0:
109,192,329788,1,0,0:0:0:0:
475,192,329788,1,0,0:0:0:0:
402,192,329847,1,0,0:0:0:0:
329,192,329905,1,0,0:0:0:0:
256,192,329964,1,0,0:0:0:0:
475,192,330022,1,0,0:0:0:0:
109,192,330022,1,0,0:0:0:0:
36,192,330081,1,0,0:0:0:0:
402,192,330140,1,0,0:0:0:0:
329,192,330198,1,0,0:0:0:0:
36,192,330257,1,0,0:0:0:0:
256,192,330257,1,0,0:0:0:0:
182,192,330257,1,0,0:0:0:0:
475,192,330257,1,0,0:0:0:0:
402,192,330315,1,0,0:0:0:0:
329,192,330374,1,0,0:0:0:0:
109,192,330433,1,0,0:0:0:0:
182,192,330491,1,0,0:0:0:0:
36,192,330491,1,0,0:0:0:0:
256,192,330550,1,0,0:0:0:0:
329,192,330608,1,0,0:0:0:0:
402,192,330667,1,0,0:0:0:0:
475,192,330726,1,0,0:0:0:0:
109,192,330726,1,0,0:0:0:0:
36,192,330726,1,0,0:0:0:0:
256,192,330784,1,0,0:0:0:0:
329,192,330843,1,0,0:0:0:0:
402,192,330901,1,0,0:0:0:0:
182,192,330960,1,0,0:0:0:0:
109,192,330960,1,0,0:0:0:0:
256,192,331018,1,0,0:0:0:0:
329,192,331077,1,0,0:0:0:0:
109,192,331136,1,0,0:0:0:0:
36,192,331194,1,0,0:0:0:0:
256,192,331194,1,0,0:0:0:0:
182,192,331194,1,0,0:0:0:0:
475,192,331194,1,0,0:0:0:0:
402,192,331253,1,0,0:0:0:0:
109,192,331311,1,0,0:0:0:0:
182,192,331370,1,0,0:0:0:0:
256,192,331429,1,0,0:0:0:0:
36,192,331429,1,0,0:0:0:0:
475,192,331487,1,0,0:0:0:0:
402,192,331546,1,0,0:0:0:0:
329,192,331604,1,0,0:0:0:0:
36,192,331663,1,0,0:0:0:0:
109,192,331663,1,0,0:0:0:0:
182,192,331663,1,0,0:0:0:0:
256,192,331722,1,0,0:0:0:0:
475,192,331780,1,0,0:0:0:0:
402,192,331839,1,0,0:0:0:0:
182,192,331897,1,0,0:0:0:0:
329,192,331897,1,0,0:0:0:0:
109,192,331956,1,0,0:0:0:0:
36,192,332015,1,0,0:0:0:0:
329,192,332073,1,0,0:0:0:0:
475,192,332132,1,0,0:0:0:0:
109,192,332132,1,0,0:0:0:0:
256,192,332132,1,0,0:0:0:0:
402,192,332132,1,0,0:0:0:0:
182,192,332190,1,0,0:0:0:0:
329,192,332249,1,0,0:0:0:0:
109,192,332308,1,0,0:0:0:0:
256,192,332366,1,0,0:0:0:0:
402,192,332366,1,0,0:0:0:0:
36,192,332425,1,0,0:0:0:0:
109,192,332483,1,0,0:0:0:0:
256,192,332542,1,0,0:0:0:0:
402,192,332601,1,0,0:0:0:0:
475,192,332601,1,0,0:0:0:0:
36,192,332601,1,0,0:0:0:0:
182,192,332659,1,0,0:0:0:0:
329,192,332718,1,0,0:0:0:0:
475,192,332776,1,0,0:0:0:0:
182,192,332835,1,0,0:0:0:0:
402,192,332835,1,0,0:0:0:0:
256,192,332893,1,0,0:0:0:0:
109,192,332952,1,0,0:0:0:0:
182,192,333011,1,0,0:0:0:0:
402,192,333069,1,0,0:0:0:0:
36,192,333069,1,0,0:0:0:0:
329,192,333069,1,0,0:0:0:0:
475,192,333069,1,0,0:0:0:0:
256,192,333128,1,0,0:0:0:0:
182,192,333186,1,0,0:0:0:0:
36,192,333245,1,0,0:0:0:0:
402,192,333304,1,0,0:0:0:0:
109,192,333304,1,0,0:0:0:0:
256,192,333362,1,0,0:0:0:0:
329,192,333421,1,0,0:0:0:0:
402,192,333479,1,0,0:0:0:0:
109,192,333538,1,0,0:0:0:0:
36,192,333538,1,0,0:0:0:0:
182,192,333538,1,0,0:0:0:0:
475,192,333597,1,0,0:0:0:0:
256,192,333655,1,0,0:0:0:0:
402,192,333714,1,0,0:0:0:0:
475,192,333772,1,0,0:0:0:0:
182,192,333772,1,0,0:0:0:0:
329,192,333831,1,0,0:0:0:0:
109,192,333890,1,0,0:0:0:0:
256,192,333948,1,0,0:0:0:0:
402,192,334007,1,0,0:0:0:0:
475,192,334007,1,0,0:0:0:0:
36,192,334007,1,0,0:0:0:0:
182,192,334007,1,0,0:0:0:0:
329,192,334065,1,0,0:0:0:0:
109,192,334124,1,0,0:0:0:0:
256,192,334183,1,0,0:0:0:0:
475,192,334241,1,0,0:0:0:0:
182,192,334241,1,0,0:0:0:0:
329,192,334300,1,0,0:0:0:0:
256,192,334358,1,0,0:0:0:0:
36,192,334417,1,0,0:0:0:0:
182,192,334476,1,0,0:0:0:0:
475,192,334476,1,0,0:0:0:0:
329,192,334476,1,0,0:0:0:0:
256,192,334534,1,0,0:0:0:0:
109,192,334593,1,0,0:0:0:0:
329,192,334651,1,0,0:0:0:0:
36,192,334651,1,0,0:0:0:0:
402,192,334710,1,0,0:0:0:0:
475,192,334710,1,0,0:0:0:0:
256,192,334768,1,0,0:0:0:0:
182,192,334827,1,0,0:0:0:0:
109,192,334886,1,0,0:0:0:0:
402,192,334944,1,0,0:0:0:0:
475,192,334944,1,0,0:0:0:0:
36,192,334944,1,0,0:0:0:0:
256,192,334944,1,0,0:0:0:0:
329,192,335003,1,0,0:0:0:0:
109,192,335061,1,0,0:0:0:0:
402,192,335120,1,0,0:0:0:0:
475,192,335179,1,0,0:0:0:0:
182,192,335179,1,0,0:0:0:0:
36,192,335237,1,0,0:0:0:0:
256,192,335296,1,0,0:0:0:0:
329,192,335354,1,0,0:0:0:0:
36,192,335413,1,0,0:0:0:0:
402,192,335413,1,0,0:0:0:0:
182,192,335413,1,0,0:0:0:0:
256,192,335472,1,0,0:0:0:0:
109,192,335530,1,0,0:0:0:0:
182,192,335589,1,0,0:0:0:0:
329,192,335647,1,0,0:0:0:0:
36,192,335647,1,0,0:0:0:0:
109,192,335706,1,0,0:0:0:0:
182,192,335765,1,0,0:0:0:0:
256,192,335823,1,0,0:0:0:0:
109,192,335882,1,0,0:0:0:0:
36,192,335882,1,0,0:0:0:0:
402,192,335882,1,0,0:0:0:0:
475,192,335882,1,0,0:0:0:0:
329,192,335940,1,0,0:0:0:0:
182,192,335999,1,0,0:0:0:0:
109,192,336058,1,0,0:0:0:0:
256,192,336116,1,0,0:0:0:0:
36,192,336116,1,0,0:0:0:0:
475,192,336175,1,0,0:0:0:0:
329,192,336233,1,0,0:0:0:0:
182,192,336292,1,0,0:0:0:0:
402,192,336351,1,0,0:0:0:0:
256,192,336351,1,0,0:0:0:0:
109,192,336351,1,0,0:0:0:0:
36,192,336409,1,0,0:0:0:0:
475,192,336468,1,0,0:0:0:0:
109,192,336526,1,0,0:0:0:0:
329,192,336585,1,0,0:0:0:0:
402,192,336585,1,0,0:0:0:0:
256,192,336643,1,0,0:0:0:0:
182,192,336702,1,0,0:0:0:0:
109,192,336761,1,0,0:0:0:0:
36,192,336819,1,0,0:0:0:0:
475,192,336819,1,0,0:0:0:0:
402,192,336819,1,0,0:0:0:0:
256,192,336878,1,0,0:0:0:0:
182,192,336936,1,0,0:0:0:0:
36,192,336995,1,0,0:0:0:0:
256,192,337054,1,0,0:0:0:0:
109,192,337054,1,0,0:0:0:0:
182,192,337112,1,0,0:0:0:0:
329,192,337171,1,0,0:0:0:0:
402,192,337229,1,0,0:0:0:0:
36,192,337288,1,0,0:0:0:0:
182,192,337288,1,0,0:0:0:0:
475,192,337288,1,0,0:0:0:0:
109,192,337288,1,0,0:0:0:0:
329,192,337347,1,0,0:0:0:0:
256,192,337405,1,0,0:0:0:0:
182,192,337464,1,0,0:0:0:0:
475,192,337522,1,0,0:0:0:0:
402,192,337581,1,0,0:0:0:0:
329,192,337640,1,0,0:0:0:0:
256,192,337698,1,0,0:0:0:0:
109,192,337757,1,0,0:0:0:0:
475,192,337757,1,0,0:0:0:0:
182,192,337757,1,0,0:0:0:0:
402,192,337815,1,0,0:0:0:0:
36,192,337874,1,0,0:0:0:0:
329,192,337933,1,0,0:0:0:0:
256,192,337991,1,0,0:0:0:0:
475,192,337991,1,0,0:0:0:0:
109,192,338050,1,0,0:0:0:0:
36,192,338108,1,0,0:0:0:0:
182,192,338167,1,0,0:0:0:0:
329,192,338226,1,0,0:0:0:0:
475,192,338226,1,0,0:0:0:0:
402,192,338226,1,0,0:0:0:0:
109,192,338284,1,0,0:0:0:0:
182,192,338343,1,0,0:0:0:0:
36,192,338401,1,0,0:0:0:0:
402,192,338460,1,0,0:0:0:0:
109,192,338460,1,0,0:0:0:0:
256,192,338460,1,0,0:0:0:0:
475,192,338518,1,0,0:0:0:0:
36,192,338577,1,0,0:0:0:0:
182,192,338636,1,0,0:0:0:0:
329,192,338694,1,0,0:0:0:0:
475,192,338694,1,0,0:0:0:0:
256,192,338694,1,0,0:0:0:0:
109,192,338753,1,0,0:0:0:0:
402,192,338811,1,0,0:0:0:0:
182,192,338870,1,0,0:0:0:0:
256,192,338929,1,0,0:0:0:0:
475,192,338929,1,0,0:0:0:0:
36,192,338929,1,0,0:0:0:0:
109,192,338987,1,0,0:0:0:0:
329,192,339046,1,0,0:0:0:0:
475,192,339104,1,0,0:0:0:0:
36,192,339163,1,0,0:0:0:0:
182,192,339163,1,0,0:0:0:0:
402,192,339163,1,0,0:0:0:0:
109,192,339163,1,0,0:0:0:0:
329,192,339280,1,0,0:0:0:0:
256,192,339280,1,0,0:0:0:0:
109,192,339397,1,0,0:0:0:0:
36,192,339397,1,0,0:0:0:0:
402,192,339397,1,0,0:0:0:0:
475,192,339397,1,0,0:0:0:0:
182,192,339515,1,0,0:0:0:0:
256,192,339515,1,0,0:0:0:0:
109,192,339632,1,0,0:0:0:0:
36,192,339632,1,0,0:0:0:0:
329,192,339632,1,0,0:0:0:0:
402,192,339632,1,0,0:0:0:0:
256,192,339749,1,0,0:0:0:0:
402,192,339866,1,0,0:0:0:0:
182,192,339866,1,0,0:0:0:0:
329,192,339866,1,0,0:0:0:0:
402,192,340101,1,0,0:0:0:0:
109,192,340101,1,0,0:0:0:0:
182,192,340101,1,0,0:0:0:0:
475,192,340335,1,0,0:0:0:0:
36,192,340335,1,0,0:0:0:0:
182,192,340335,1,0,0:0:0:0:
402,192,340452,1,0,0:0:0:0:
475,192,340569,1,0,0:0:0:0:
256,192,340569,1,0,0:0:0:0:
329,192,340569,1,0,0:0:0:0:
109,192,340569,1,0,0:0:0:0:
402,192,340804,1,0,0:0:0:0:
182,192,340804,1,0,0:0:0:0:
402,192,341038,1,0,0:0:0:0:
475,192,341038,1,0,0:0:0:0:
182,192,341038,1,0,0:0:0:0:
329,192,341038,1,0,0:0:0:0:
109,192,341155,1,0,0:0:0:0:
256,192,341272,1,0,0:0:0:0:
36,192,341272,1,0,0:0:0:0:
329,192,341390,1,0,0:0:0:0:
182,192,341390,1,0,0:0:0:0:
402,192,341507,1,0,0:0:0:0:
475,192,341507,1,0,0:0:0:0:
109,192,341507,1,0,0:0:0:0:
36,192,341507,1,0,0:0:0:0:
329,192,341741,1,0,0:0:0:0:
109,192,341741,1,0,0:0:0:0:
256,192,341976,1,0,0:0:0:0:
182,192,341976,1,0,0:0:0:0:
475,192,341976,1,0,0:0:0:0:
475,192,342210,1,0,0:0:0:0:
402,192,342210,1,0,0:0:0:0:
256,192,342327,1,0,0:0:0:0:
475,192,342444,1,0,0:0:0:0:
36,192,342444,1,0,0:0:0:0:
109,192,342444,1,0,0:0:0:0:
329,192,342444,1,0,0:0:0:0:
329,192,342679,1,0,0:0:0:0:
256,192,342679,1,0,0:0:0:0:
402,192,342679,1,0,0:0:0:0:
182,192,342913,1,0,0:0:0:0:
256,192,343147,1,0,0:0:0:0:
109,192,343147,1,0,0:0:0:0:
402,192,343147,1,0,0:0:0:0:
182,192,343265,1,0,0:0:0:0:
475,192,343382,1,0,0:0:0:0:
329,192,343382,1,0,0:0:0:0:
182,192,343616,1,0,0:0:0:0:
256,192,343616,1,0,0:0:0:0:
402,192,343616,1,0,0:0:0:0:
36,192,343616,1,0,0:0:0:0:
109,192,343851,1,0,0:0:0:0:
475,192,343851,1,0,0:0:0:0:
329,192,343851,1,0,0:0:0:0:
182,192,344085,1,0,0:0:0:0:
402,192,344085,1,0,0:0:0:0:
475,192,344085,1,0,0:0:0:0:
109,192,344202,1,0,0:0:0:0:
402,192,344319,1,0,0:0:0:0:
329,192,344319,1,0,0:0:0:0:
256,192,344319,1,0,0:0:0:0:
36,192,344319,1,0,0:0:0:0:
109,192,344554,1,0,0:0:0:0:
475,192,344554,1,0,0:0:0:0:
256,192,344671,1,0,0:0:0:0:
36,192,344788,1,0,0:0:0:0:
475,192,344788,1,0,0:0:0:0:
182,192,345022,1,0,0:0:0:0:
109,192,345022,1,0,0:0:0:0:
256,192,345022,1,0,0:0:0:0:
36,192,345140,1,0,0:0:0:0:
402,192,345140,1,0,0:0:0:0:
256,192,345257,1,0,0:0:0:0:
329,192,345257,1,0,0:0:0:0:
475,192,345257,1,0,0:0:0:0:
109,192,345257,1,0,0:0:0:0:
475,192,345491,1,0,0:0:0:0:
36,192,345491,1,0,0:0:0:0:
182,192,345491,1,0,0:0:0:0:
402,192,345491,1,0,0:0:0:0:
256,192,345726,1,0,0:0:0:0:
329,192,345726,1,0,0:0:0:0:
109,192,345726,1,0,0:0:0:0:
402,192,345960,1,0,0:0:0:0:
36,192,345960,1,0,0:0:0:0:
109,192,345960,1,0,0:0:0:0:
256,192,346077,1,0,0:0:0:0:
36,192,346194,1,0,0:0:0:0:
329,192,346194,1,0,0:0:0:0:
182,192,346194,1,0,0:0:0:0:
475,192,346194,1,0,0:0:0:0:
256,192,346429,1,0,0:0:0:0:
109,192,346429,1,0,0:0:0:0:
182,192,346663,1,0,0:0:0:0:
256,192,346663,1,0,0:0:0:0:
402,192,346663,1,0,0:0:0:0:
109,192,346897,1,0,0:0:0:0:
475,192,346897,1,0,0:0:0:0:
329,192,346897,1,0,0:0:0:0:
182,192,347015,1,0,0:0:0:0:
36,192,347132,1,0,0:0:0:0:
329,192,347366,1,0,0:0:0:0:
182,192,347366,1,0,0:0:0:0:
402,192,347366,1,0,0:0:0:0:
475,192,347366,1,0,0:0:0:0:
329,192,347601,1,0,0:0:0:0:
256,192,347601,1,0,0:0:0:0:
109,192,347601,1,0,0:0:0:0:
475,192,347835,1,0,0:0:0:0:
182,192,347835,1,0,0:0:0:0:
109,192,347952,1,0,0:0:0:0:
475,192,348069,1,0,0:0:0:0:
182,192,348069,1,0,0:0:0:0:
36,192,348069,1,0,0:0:0:0:
402,192,348069,1,0,0:0:0:0:
109,192,348304,1,0,0:0:0:0:
256,192,348304,1,0,0:0:0:0:
329,192,348421,1,0,0:0:0:0:
36,192,348538,1,0,0:0:0:0:
182,192,348538,1,0,0:0:0:0:
256,192,348655,1,0,0:0:0:0:
109,192,348772,1,0,0:0:0:0:
182,192,348772,1,0,0:0:0:0:
329,192,348772,1,0,0:0:0:0:
402,192,348772,1,0,0:0:0:0:
36,192,348890,1,0,0:0:0:0:
475,192,348890,1,0,0:0:0:0:
256,192,349007,1,0,0:0:0:0:
329,192,349007,1,0,0:0:0:0:
402,192,349007,1,0,0:0:0:0:
109,192,349007,1,0,0:0:0:0:
475,192,349241,1,0,0:0:0:0:
36,192,349241,1,0,0:0:0:0:
182,192,349241,1,0,0:0:0:0:
402,192,349241,1,0,0:0:0:0:
256,192,349476,1,0,0:0:0:0:
109,192,349476,1,0,0:0:0:0:
329,192,349476,1,0,0:0:0:0:
402,192,349710,1,0,0:0:0:0:
329,192,349710,1,0,0:0:0:0:
182,192,349710,1,0,0:0:0:0:
256,192,349827,1,0,0:0:0:0:
475,192,349944,1,0,0:0:0:0:
329,192,349944,1,0,0:0:0:0:
109,192,349944,1,0,0:0:0:0:
36,192,349944,1,0,0:0:0:0:
256,192,350179,1,0,0:0:0:0:
36,192,350179,1,0,0:0:0:0:
109,192,350296,1,0,0:0:0:0:
402,192,350413,1,0,0:0:0:0:
182,192,350413,1,0,0:0:0:0:
329,192,350647,1,0,0:0:0:0:
256,192,350647,1,0,0:0:0:0:
182,192,350765,1,0,0:0:0:0:
475,192,350882,1,0,0:0:0:0:
182,192,351116,1,0,0:0:0:0:
36,192,351351,1,0,0:0:0:0:
109,192,351585,1,0,0:0:0:0:
182,192,351819,1,0,0:0:0:0:
256,192,352054,1,0,0:0:0:0:
182,192,352288,1,0,0:0:0:0:
329,192,352522,1,0,0:0:0:0:
402,192,352757,1,0,0:0:0:0:
36,192,352991,1,0,0:0:0:0:
109,192,353226,1,0,0:0:0:0:
182,192,353460,1,0,0:0:0:0:
256,192,353694,1,0,0:0:0:0:
182,192,353929,1,0,0:0:0:0:
329,192,354163,1,0,0:0:0:0:
475,192,354280,1,0,0:0:0:0:
402,192,354280,1,0,0:0:0:0:
256,192,354397,1,0,0:0:0:0:
256,192,354515,1,0,0:0:0:0:
109,192,354515,1,0,0:0:0:0:
109,192,354632,1,0,0:0:0:0:
329,192,354632,1,0,0:0:0:0:
329,192,354749,1,0,0:0:0:0:
182,192,354749,1,0,0:0:0:0:
402,192,354866,1,0,0:0:0:0:
182,192,354866,1,0,0:0:0:0:
402,192,354983,1,0,0:0:0:0:
256,192,354983,1,0,0:0:0:0:
475,192,355101,1,0,0:0:0:0:
256,192,355101,1,0,0:0:0:0:
36,192,355101,1,0,0:0:0:0:
109,192,355159,1,0,0:0:0:0:
182,192,355218,1,0,0:0:0:0:
256,192,355276,1,0,0:0:0:0:
36,192,355335,1,0,0:0:0:0:
402,192,355335,1,0,0:0:0:0:
475,192,355393,1,0,0:0:0:0:
109,192,355452,1,0,0:0:0:0:
256,192,355452,1,0,0:0:0:0:
329,192,355511,1,0,0:0:0:0:
36,192,355569,1,0,0:0:0:0:
402,192,355569,1,0,0:0:0:0:
182,192,355569,1,0,0:0:0:0:
109,192,355628,1,0,0:0:0:0:
256,192,355686,1,0,0:0:0:0:
182,192,355745,1,0,0:0:0:0:
475,192,355804,1,0,0:0:0:0:
36,192,355804,1,0,0:0:0:0:
329,192,355862,1,0,0:0:0:0:
402,192,355921,1,0,0:0:0:0:
256,192,355921,1,0,0:0:0:0:
182,192,355979,1,0,0:0:0:0:
475,192,356038,1,0,0:0:0:0:
36,192,356038,1,0,0:0:0:0:
109,192,356038,1,0,0:0:0:0:
329,192,356097,1,0,0:0:0:0:
182,192,356155,1,0,0:0:0:0:
402,192,356214,1,0,0:0:0:0:
329,192,356272,1,0,0:0:0:0:
36,192,356272,1,0,0:0:0:0:
109,192,356331,1,0,0:0:0:0:
402,192,356390,1,0,0:0:0:0:
182,192,356390,1,0,0:0:0:0:
256,192,356448,1,0,0:0:0:0:
329,192,356507,1,0,0:0:0:0:
475,192,356507,1,0,0:0:0:0:
36,192,356507,1,0,0:0:0:0:
109,192,356565,1,0,0:0:0:0:
182,192,356624,1,0,0:0:0:0:
329,192,356683,1,0,0:0:0:0:
36,192,356741,1,0,0:0:0:0:
256,192,356741,1,0,0:0:0:0:
182,192,356800,1,0,0:0:0:0:
109,192,356858,1,0,0:0:0:0:
329,192,356858,1,0,0:0:0:0:
402,192,356917,1,0,0:0:0:0:
182,192,356976,1,0,0:0:0:0:
256,192,356976,1,0,0:0:0:0:
475,192,356976,1,0,0:0:0:0:
36,192,357034,1,0,0:0:0:0:
109,192,357093,1,0,0:0:0:0:
182,192,357151,1,0,0:0:0:0:
256,192,357210,1,0,0:0:0:0:
475,192,357210,1,0,0:0:0:0:
402,192,357268,1,0,0:0:0:0:
329,192,357327,1,0,0:0:0:0:
182,192,357327,1,0,0:0:0:0:
109,192,357386,1,0,0:0:0:0:
475,192,357444,1,0,0:0:0:0:
256,192,357444,1,0,0:0:0:0:
36,192,357444,1,0,0:0:0:0:
182,192,357503,1,0,0:0:0:0:
329,192,357561,1,0,0:0:0:0:
402,192,357620,1,0,0:0:0:0:
36,192,357679,1,0,0:0:0:0:
256,192,357679,1,0,0:0:0:0:
182,192,357737,1,0,0:0:0:0:
109,192,357796,1,0,0:0:0:0:
329,192,357796,1,0,0:0:0:0:
402,192,357854,1,0,0:0:0:0:
182,192,357913,1,0,0:0:0:0:
36,192,357913,1,0,0:0:0:0:
475,192,357913,1,0,0:0:0:0:
256,192,357972,1,0,0:0:0:0:
329,192,358030,1,0,0:0:0:0:
402,192,358089,1,0,0:0:0:0:
182,192,358147,1,0,0:0:0:0:
36,192,358147,1,0,0:0:0:0:
329,192,358206,1,0,0:0:0:0:
109,192,358265,1,0,0:0:0:0:
256,192,358265,1,0,0:0:0:0:
475,192,358323,1,0,0:0:0:0:
182,192,358382,1,0,0:0:0:0:
36,192,358382,1,0,0:0:0:0:
402,192,358382,1,0,0:0:0:0:
329,192,358440,1,0,0:0:0:0:
256,192,358499,1,0,0:0:0:0:
182,192,358558,1,0,0:0:0:0:
109,192,358616,1,0,0:0:0:0:
36,192,358616,1,0,0:0:0:0:
329,192,358675,1,0,0:0:0:0:
182,192,358733,1,0,0:0:0:0:
475,192,358733,1,0,0:0:0:0:
402,192,358792,1,0,0:0:0:0:
329,192,358851,1,0,0:0:0:0:
36,192,358851,1,0,0:0:0:0:
109,192,358851,1,0,0:0:0:0:
256,192,358909,1,0,0:0:0:0:
182,192,358968,1,0,0:0:0:0:
109,192,359026,1,0,0:0:0:0:
402,192,359085,1,0,0:0:0:0:
36,192,359085,1,0,0:0:0:0:
329,192,359143,1,0,0:0:0:0:
182,192,359202,1,0,0:0:0:0:
256,192,359261,1,0,0:0:0:0:
36,192,359319,1,0,0:0:0:0:
475,192,359319,1,0,0:0:0:0:
402,192,359319,1,0,0:0:0:0:
109,192,359378,1,0,0:0:0:0:
329,192,359436,1,0,0:0:0:0:
182,192,359436,1,0,0:0:0:0:
402,192,359495,1,0,0:0:0:0:
256,192,359554,1,0,0:0:0:0:
109,192,359554,1,0,0:0:0:0:
329,192,359612,1,0,0:0:0:0:
182,192,359671,1,0,0:0:0:0:
475,192,359671,1,0,0:0:0:0:
36,192,359729,1,0,0:0:0:0:
256,192,359788,1,0,0:0:0:0:
402,192,359788,1,0,0:0:0:0:
109,192,359788,1,0,0:0:0:0:
475,192,359847,1,0,0:0:0:0:
182,192,359905,1,0,0:0:0:0:
36,192,359964,1,0,0:0:0:0:
256,192,360022,1,0,0:0:0:0:
475,192,360022,1,0,0:0:0:0:
109,192,360081,1,0,0:0:0:0:
182,192,360140,1,0,0:0:0:0:
329,192,360140,1,0,0:0:0:0:
402,192,360198,1,0,0:0:0:0:
256,192,360257,1,0,0:0:0:0:
36,192,360257,1,0,0:0:0:0:
475,192,360257,1,0,0:0:0:0:
329,192,360315,1,0,0:0:0:0:
182,192,360374,1,0,0:0:0:0:
475,192,360433,1,0,0:0:0:0:
109,192,360491,1,0,0:0:0:0:
329,192,360491,1,0,0:0:0:0:
36,192,360550,1,0,0:0:0:0:
402,192,360608,1,0,0:0:0:0:
182,192,360608,1,0,0:0:0:0:
109,192,360667,1,0,0:0:0:0:
329,192,360726,1,0,0:0:0:0:
36,192,360726,1,0,0:0:0:0:
256,192,360726,1,0,0:0:0:0:
475,192,360784,1,0,0:0:0:0:
182,192,360843,1,0,0:0:0:0:
256,192,360901,1,0,0:0:0:0:
402,192,360960,1,0,0:0:0:0:
36,192,360960,1,0,0:0:0:0:
109,192,361018,1,0,0:0:0:0:
475,192,361077,1,0,0:0:0:0:
182,192,361077,1,0,0:0:0:0:
256,192,361136,1,0,0:0:0:0:
329,192,361194,1,0,0:0:0:0:
36,192,361194,1,0,0:0:0:0:
109,192,361194,1,0,0:0:0:0:
402,192,361253,1,0,0:0:0:0:
475,192,361311,1,0,0:0:0:0:
329,192,361370,1,0,0:0:0:0:
182,192,361429,1,0,0:0:0:0:
36,192,361429,1,0,0:0:0:0:
256,192,361487,1,0,0:0:0:0:
402,192,361546,1,0,0:0:0:0:
109,192,361546,1,0,0:0:0:0:
329,192,361604,1,0,0:0:0:0:
182,192,361663,1,0,0:0:0:0:
36,192,361663,1,0,0:0:0:0:
475,192,361663,1,0,0:0:0:0:
402,192,361722,1,0,0:0:0:0:
329,192,361780,1,0,0:0:0:0:
109,192,361780,1,0,0:0:0:0:
256,192,361839,1,0,0:0:0:0:
475,192,361897,1,0,0:0:0:0:
182,192,361897,1,0,0:0:0:0:
36,192,361956,1,0,0:0:0:0:
402,192,362015,1,0,0:0:0:0:
256,192,362015,1,0,0:0:0:0:
182,192,362073,1,0,0:0:0:0:
475,192,362132,1,0,0:0:0:0:
329,192,362132,1,0,0:0:0:0:
109,192,362132,1,0,0:0:0:0:
256,192,362190,1,0,0:0:0:0:
182,192,362249,1,0,0:0:0:0:
402,192,362308,1,0,0:0:0:0:
36,192,362366,1,0,0:0:0:0:
329,192,362366,1,0,0:0:0:0:
109,192,362425,1,0,0:0:0:0:
475,192,362483,1,0,0:0:0:0:
182,192,362483,1,0,0:0:0:0:
256,192,362542,1,0,0:0:0:0:
402,192,362601,1,0,0:0:0:0:
329,192,362601,1,0,0:0:0:0:
36,192,362601,1,0,0:0:0:0:
109,192,362659,1,0,0:0:0:0:
256,192,362718,1,0,0:0:0:0:
475,192,362776,1,0,0:0:0:0:
329,192,362835,1,0,0:0:0:0:
182,192,362835,1,0,0:0:0:0:
109,192,362893,1,0,0:0:0:0:
256,192,362952,1,0,0:0:0:0:
36,192,362952,1,0,0:0:0:0:
182,192,363011,1,0,0:0:0:0:
109,192,363069,1,0,0:0:0:0:
475,192,363069,1,0,0:0:0:0:
402,192,363069,1,0,0:0:0:0:
36,192,363128,1,0,0:0:0:0:
256,192,363186,1,0,0:0:0:0:
182,192,363245,1,0,0:0:0:0:
402,192,363304,1,0,0:0:0:0:
329,192,363304,1,0,0:0:0:0:
475,192,363362,1,0,0:0:0:0:
182,192,363421,1,0,0:0:0:0:
109,192,363421,1,0,0:0:0:0:
256,192,363479,1,0,0:0:0:0:
475,192,363538,1,0,0:0:0:0:
402,192,363538,1,0,0:0:0:0:
36,192,363538,1,0,0:0:0:0:
109,192,363597,1,0,0:0:0:0:
329,192,363655,1,0,0:0:0:0:
182,192,363655,1,0,0:0:0:0:
402,192,363714,1,0,0:0:0:0:
475,192,363772,1,0,0:0:0:0:
36,192,363772,1,0,0:0:0:0:
182,192,363831,1,0,0:0:0:0:
329,192,363890,1,0,0:0:0:0:
256,192,363948,1,0,0:0:0:0:
475,192,364007,1,0,0:0:0:0:
36,192,364007,1,0,0:0:0:0:
182,192,364007,1,0,0:0:0:0:
402,192,364065,1,0,0:0:0:0:
329,192,364124,1,0,0:0:0:0:
109,192,364124,1,0,0:0:0:0:
475,192,364183,1,0,0:0:0:0:
182,192,364241,1,0,0:0:0:0:
402,192,364300,1,0,0:0:0:0:
109,192,364358,1,0,0:0:0:0:
256,192,364358,1,0,0:0:0:0:
329,192,364417,1,0,0:0:0:0:
475,192,364476,1,0,0:0:0:0:
402,192,364476,1,0,0:0:0:0:
182,192,364476,1,0,0:0:0:0:
109,192,364534,1,0,0:0:0:0:
329,192,364593,1,0,0:0:0:0:
36,192,364593,1,0,0:0:0:0:
256,192,364651,1,0,0:0:0:0:
109,192,364710,1,0,0:0:0:0:
182,192,364768,1,0,0:0:0:0:
256,192,364827,1,0,0:0:0:0:
329,192,364827,1,0,0:0:0:0:
402,192,364886,1,0,0:0:0:0:
36,192,364944,1,0,0:0:0:0:
182,192,364944,1,0,0:0:0:0:
475,192,364944,1,0,0:0:0:0:
256,192,365003,1,0,0:0:0:0:
329,192,365061,1,0,0:0:0:0:
402,192,365061,1,0,0:0:0:0:
109,192,365120,1,0,0:0:0:0:
475,192,365179,1,0,0:0:0:0:
182,192,365179,1,0,0:0:0:0:
402,192,365237,1,0,0:0:0:0:
109,192,365296,1,0,0:0:0:0:
329,192,365296,1,0,0:0:0:0:
256,192,365354,1,0,0:0:0:0:
475,192,365413,1,0,0:0:0:0:
36,192,365413,1,0,0:0:0:0:
182,192,365413,1,0,0:0:0:0:
402,192,365472,1,0,0:0:0:0:
329,192,365530,1,0,0:0:0:0:
109,192,365530,1,0,0:0:0:0:
182,192,365589,1,0,0:0:0:0:
256,192,365647,1,0,0:0:0:0:
36,192,365706,1,0,0:0:0:0:
329,192,365765,1,0,0:0:0:0:
109,192,365765,1,0,0:0:0:0:
256,192,365823,1,0,0:0:0:0:
36,192,365882,1,0,0:0:0:0:
182,192,365882,1,0,0:0:0:0:
402,192,365882,1,0,0:0:0:0:
475,192,365940,1,0,0:0:0:0:
109,192,365999,1,0,0:0:0:0:
256,192,365999,1,0,0:0:0:0:
329,192,366058,1,0,0:0:0:0:
402,192,366116,1,0,0:0:0:0:
109,192,366175,1,0,0:0:0:0:
475,192,366233,1,0,0:0:0:0:
182,192,366233,1,0,0:0:0:0:
256,192,366292,1,0,0:0:0:0:
329,192,366351,1,0,0:0:0:0:
36,192,366351,1,0,0:0:0:0:
402,192,366351,1,0,0:0:0:0:
182,192,366409,1,0,0:0:0:0:
109,192,366468,1,0,0:0:0:0:
329,192,366526,1,0,0:0:0:0:
256,192,366585,1,0,0:0:0:0:
36,192,366585,1,0,0:0:0:0:
402,192,366643,1,0,0:0:0:0:
182,192,366702,1,0,0:0:0:0:
329,192,366702,1,0,0:0:0:0:
475,192,366761,1,0,0:0:0:0:
36,192,366819,1,0,0:0:0:0:
256,192,366819,1,0,0:0:0:0:
402,192,366819,1,0,0:0:0:0:
109,192,366878,1,0,0:0:0:0:
329,192,366936,1,0,0:0:0:0:
256,192,366995,1,0,0:0:0:0:
182,192,367054,1,0,0:0:0:0:
36,192,367054,1,0,0:0:0:0:
402,192,367054,1,0,0:0:0:0:
109,192,367112,1,0,0:0:0:0:
329,192,367171,1,0,0:0:0:0:
475,192,367171,1,0,0:0:0:0:
256,192,367229,1,0,0:0:0:0:
36,192,367288,1,0,0:0:0:0:
182,192,367288,1,0,0:0:0:0:
402,192,367288,1,0,0:0:0:0:
475,192,367347,1,0,0:0:0:0:
109,192,367405,1,0,0:0:0:0:
329,192,367405,1,0,0:0:0:0:
182,192,367464,1,0,0:0:0:0:
36,192,367522,1,0,0:0:0:0:
256,192,367522,1,0,0:0:0:0:
109,192,367581,1,0,0:0:0:0:
329,192,367640,1,0,0:0:0:0:
182,192,367640,1,0,0:0:0:0:
402,192,367698,1,0,0:0:0:0:
475,192,367757,1,0,0:0:0:0:
36,192,367757,1,0,0:0:0:0:
256,192,367757,1,0,0:0:0:0:
109,192,367815,1,0,0:0:0:0:
182,192,367874,1,0,0:0:0:0:
329,192,367933,1,0,0:0:0:0:
36,192,367991,1,0,0:0:0:0:
475,192,367991,1,0,0:0:0:0:
109,192,367991,1,0,0:0:0:0:
256,192,368050,1,0,0:0:0:0:
182,192,368108,1,0,0:0:0:0:
329,192,368108,1,0,0:0:0:0:
402,192,368167,1,0,0:0:0:0:
256,192,368226,1,0,0:0:0:0:
109,192,368226,1,0,0:0:0:0:
475,192,368226,1,0,0:0:0:0:
329,192,368284,1,0,0:0:0:0:
182,192,368343,1,0,0:0:0:0:
36,192,368401,1,0,0:0:0:0:
402,192,368460,1,0,0:0:0:0:
256,192,368460,1,0,0:0:0:0:
475,192,368518,1,0,0:0:0:0:
182,192,368577,1,0,0:0:0:0:
36,192,368577,1,0,0:0:0:0:
256,192,368636,1,0,0:0:0:0:
329,192,368694,1,0,0:0:0:0:
109,192,368694,1,0,0:0:0:0:
402,192,368753,1,0,0:0:0:0:
256,192,368811,1,0,0:0:0:0:
475,192,368811,1,0,0:0:0:0:
36,192,368870,1,0,0:0:0:0:
182,192,368929,1,0,0:0:0:0:
109,192,368929,1,0,0:0:0:0:
329,192,368929,1,0,0:0:0:0:
402,192,368987,1,0,0:0:0:0:
256,192,369046,1,0,0:0:0:0:
182,192,369104,1,0,0:0:0:0:
475,192,369163,1,0,0:0:0:0:
329,192,369163,1,0,0:0:0:0:
36,192,369163,1,0,0:0:0:0:
256,192,369222,1,0,0:0:0:0:
402,192,369280,1,0,0:0:0:0:
182,192,369280,1,0,0:0:0:0:
109,192,369339,1,0,0:0:0:0:
329,192,369397,1,0,0:0:0:0:
36,192,369397,1,0,0:0:0:0:
256,192,369456,1,0,0:0:0:0:
182,192,369515,1,0,0:0:0:0:
475,192,369573,1,0,0:0:0:0:
109,192,369632,1,0,0:0:0:0:
329,192,369632,1,0,0:0:0:0:
36,192,369632,1,0,0:0:0:0:
182,192,369690,1,0,0:0:0:0:
256,192,369749,1,0,0:0:0:0:
475,192,369749,1,0,0:0:0:0:
402,192,369808,1,0,0:0:0:0:
36,192,369866,1,0,0:0:0:0:
109,192,369866,1,0,0:0:0:0:
256,192,369925,1,0,0:0:0:0:
182,192,369983,1,0,0:0:0:0:
402,192,369983,1,0,0:0:0:0:
475,192,370042,1,0,0:0:0:0:
36,192,370101,1,0,0:0:0:0:
256,192,370101,1,0,0:0:0:0:
329,192,370101,1,0,0:0:0:0:
109,192,370159,1,0,0:0:0:0:
402,192,370218,1,0,0:0:0:0:
182,192,370218,1,0,0:0:0:0:
256,192,370276,1,0,0:0:0:0:
36,192,370335,1,0,0:0:0:0:
329,192,370335,1,0,0:0:0:0:
402,192,370393,1,0,0:0:0:0:
182,192,370452,1,0,0:0:0:0:
475,192,370452,1,0,0:0:0:0:
256,192,370511,1,0,0:0:0:0:
36,192,370569,1,0,0:0:0:0:
329,192,370569,1,0,0:0:0:0:
109,192,370569,1,0,0:0:0:0:
182,192,370628,1,0,0:0:0:0:
475,192,370686,1,0,0:0:0:0:
402,192,370745,1,0,0:0:0:0:
329,192,370804,1,0,0:0:0:0:
182,192,370804,1,0,0:0:0:0:
109,192,370862,1,0,0:0:0:0:
402,192,370921,1,0,0:0:0:0:
36,192,370921,1,0,0:0:0:0:
256,192,370979,1,0,0:0:0:0:
182,192,371038,1,0,0:0:0:0:
109,192,371038,1,0,0:0:0:0:
475,192,371038,1,0,0:0:0:0:
402,192,371097,1,0,0:0:0:0:
329,192,371155,1,0,0:0:0:0:
256,192,371214,1,0,0:0:0:0:
475,192,371272,1,0,0:0:0:0:
182,192,371272,1,0,0:0:0:0:
109,192,371331,1,0,0:0:0:0:
329,192,371390,1,0,0:0:0:0:
36,192,371390,1,0,0:0:0:0:
256,192,371448,1,0,0:0:0:0:
182,192,371507,1,0,0:0:0:0:
109,192,371507,1,0,0:0:0:0:
402,192,371507,1,0,0:0:0:0:
475,192,371565,1,0,0:0:0:0:
256,192,371624,1,0,0:0:0:0:
402,192,371683,1,0,0:0:0:0:
109,192,371741,1,0,0:0:0:0:
36,192,371741,1,0,0:0:0:0:
329,192,371800,1,0,0:0:0:0:
475,192,371858,1,0,0:0:0:0:
256,192,371858,1,0,0:0:0:0:
402,192,371917,1,0,0:0:0:0:
182,192,371976,1,0,0:0:0:0:
36,192,371976,1,0,0:0:0:0:
109,192,371976,1,0,0:0:0:0:
475,192,372034,1,0,0:0:0:0:
329,192,372093,1,0,0:0:0:0:
402,192,372151,1,0,0:0:0:0:
36,192,372210,1,0,0:0:0:0:
256,192,372210,1,0,0:0:0:0:
109,192,372268,1,0,0:0:0:0:
402,192,372327,1,0,0:0:0:0:
182,192,372327,1,0,0:0:0:0:
329,192,372386,1,0,0:0:0:0:
109,192,372444,1,0,0:0:0:0:
36,192,372444,1,0,0:0:0:0:
256,192,372444,1,0,0:0:0:0:
475,192,372503,1,0,0:0:0:0:
402,192,372561,1,0,0:0:0:0:
182,192,372561,1,0,0:0:0:0:
109,192,372620,1,0,0:0:0:0:
36,192,372679,1,0,0:0:0:0:
256,192,372679,1,0,0:0:0:0:
329,192,372737,1,0,0:0:0:0:
182,192,372796,1,0,0:0:0:0:
475,192,372796,1,0,0:0:0:0:
109,192,372854,1,0,0:0:0:0:
256,192,372913,1,0,0:0:0:0:
36,192,372913,1,0,0:0:0:0:
402,192,372972,1,0,0:0:0:0:
475,192,373030,1,0,0:0:0:0:
182,192,373030,1,0,0:0:0:0:
256,192,373089,1,0,0:0:0:0:
329,192,373147,1,0,0:0:0:0:
109,192,373147,1,0,0:0:0:0:
402,192,373206,1,0,0:0:0:0:
475,192,373265,1,0,0:0:0:0:
182,192,373265,1,0,0:0:0:0:
109,192,373323,1,0,0:0:0:0:
36,192,373382,1,0,0:0:0:0:
402,192,373382,1,0,0:0:0:0:
256,192,373382,1,0,0:0:0:0:
182,192,373440,1,0,0:0:0:0:
109,192,373499,1,0,0:0:0:0:
475,192,373499,1,0,0:0:0:0:
256,192,373558,1,0,0:0:0:0:
36,192,373616,1,0,0:0:0:0:
402,192,373616,1,0,0:0:0:0:
329,192,373675,1,0,0:0:0:0:
109,192,373733,1,0,0:0:0:0:
182,192,373733,1,0,0:0:0:0:
256,192,373792,1,0,0:0:0:0:
329,192,373851,1,0,0:0:0:0:
475,192,373851,1,0,0:0:0:0:
36,192,373851,1,0,0:0:0:0:
182,192,373909,1,0,0:0:0:0:
256,192,373968,1,0,0:0:0:0:
36,192,374026,1,0,0:0:0:0:
329,192,374085,1,0,0:0:0:0:
182,192,374085,1,0,0:0:0:0:
402,192,374143,1,0,0:0:0:0:
109,192,374202,1,0,0:0:0:0:
256,192,374202,1,0,0:0:0:0:
36,192,374261,1,0,0:0:0:0:
182,192,374319,1,0,0:0:0:0:
475,192,374319,1,0,0:0:0:0:
329,192,374319,1,0,0:0:0:0:
109,192,374378,1,0,0:0:0:0:
256,192,374436,1,0,0:0:0:0:
402,192,374495,1,0,0:0:0:0:
329,192,374554,1,0,0:0:0:0:
182,192,374554,1,0,0:0:0:0:
36,192,374554,1,0,0:0:0:0:
256,192,374612,1,0,0:0:0:0:
475,192,374671,1,0,0:0:0:0:
109,192,374671,1,0,0:0:0:0:
402,192,374729,1,0,0:0:0:0:
182,192,374788,1,0,0:0:0:0:
36,192,374788,1,0,0:0:0:0:
329,192,374788,1,0,0:0:0:0:
256,192,374847,1,0,0:0:0:0:
402,192,374905,1,0,0:0:0:0:
109,192,374964,1,0,0:0:0:0:
475,192,375022,1,0,0:0:0:0:
182,192,375022,1,0,0:0:0:0:
256,192,375081,1,0,0:0:0:0:
109,192,375140,1,0,0:0:0:0:
402,192,375140,1,0,0:0:0:0:
329,192,375198,1,0,0:0:0:0:
36,192,375257,1,0,0:0:0:0:
475,192,375257,1,0,0:0:0:0:
182,192,375257,1,0,0:0:0:0:
402,192,375315,1,0,0:0:0:0:
109,192,375374,1,0,0:0:0:0:
329,192,375374,1,0,0:0:0:0:
182,192,375433,1,0,0:0:0:0:
256,192,375491,1,0,0:0:0:0:
475,192,375491,1,0,0:0:0:0:
329,192,375550,1,0,0:0:0:0:
36,192,375608,1,0,0:0:0:0:
182,192,375608,1,0,0:0:0:0:
256,192,375667,1,0,0:0:0:0:
329,192,375726,1,0,0:0:0:0:
475,192,375726,1,0,0:0:0:0:
109,192,375726,1,0,0:0:0:0:
402,192,375784,1,0,0:0:0:0:
182,192,375843,1,0,0:0:0:0:
256,192,375901,1,0,0:0:0:0:
329,192,375960,1,0,0:0:0:0:
475,192,375960,1,0,0:0:0:0:
109,192,376018,1,0,0:0:0:0:
182,192,376077,1,0,0:0:0:0:
402,192,376077,1,0,0:0:0:0:
256,192,376136,1,0,0:0:0:0:
329,192,376194,1,0,0:0:0:0:
109,192,376194,1,0,0:0:0:0:
36,192,376194,1,0,0:0:0:0:
402,192,376253,1,0,0:0:0:0:
475,192,376311,1,0,0:0:0:0:
182,192,376311,1,0,0:0:0:0:
109,192,376370,1,0,0:0:0:0:
256,192,376429,1,0,0:0:0:0:
36,192,376429,1,0,0:0:0:0:
329,192,376487,1,0,0:0:0:0:
109,192,376546,1,0,0:0:0:0:
402,192,376546,1,0,0:0:0:0:
475,192,376604,1,0,0:0:0:0:
182,192,376663,1,0,0:0:0:0:
329,192,376663,1,0,0:0:0:0:
36,192,376722,1,0,0:0:0:0:
256,192,376780,1,0,0:0:0:0:
475,192,376780,1,0,0:0:0:0:
402,192,376839,1,0,0:0:0:0:
36,192,376897,1,0,0:0:0:0:
329,192,376897,1,0,0:0:0:0:
109,192,376956,1,0,0:0:0:0:
182,192,377015,1,0,0:0:0:0:
256,192,377015,1,0,0:0:0:0:
329,192,377073,1,0,0:0:0:0:
36,192,377132,1,0,0:0:0:0:
475,192,377132,1,0,0:0:0:0:
402,192,377132,1,0,0:0:0:0:
109,192,377190,1,0,0:0:0:0:
182,192,377249,1,0,0:0:0:0:
329,192,377249,1,0,0:0:0:0:
402,192,377308,1,0,0:0:0:0:
256,192,377366,1,0,0:0:0:0:
475,192,377366,1,0,0:0:0:0:
36,192,377425,1,0,0:0:0:0:
109,192,377483,1,0,0:0:0:0:
182,192,377483,1,0,0:0:0:0:
329,192,377542,1,0,0:0:0:0:
402,192,377601,1,0,0:0:0:0:
475,192,377601,1,0,0:0:0:0:
36,192,377601,1,0,0:0:0:0:
182,192,377659,1,0,0:0:0:0:
109,192,377718,1,0,0:0:0:0:
475,192,377776,1,0,0:0:0:0:
182,192,377835,1,0,0:0:0:0:
402,192,377835,1,0,0:0:0:0:
256,192,377893,1,0,0:0:0:0:
329,192,377952,1,0,0:0:0:0:
109,192,377952,1,0,0:0:0:0:
182,192,378011,1,0,0:0:0:0:
36,192,378069,1,0,0:0:0:0:
402,192,378069,1,0,0:0:0:0:
475,192,378069,1,0,0:0:0:0:
256,192,378128,1,0,0:0:0:0:
109,192,378186,1,0,0:0:0:0:
182,192,378245,1,0,0:0:0:0:
475,192,378304,1,0,0:0:0:0:
402,192,378304,1,0,0:0:0:0:
256,192,378362,1,0,0:0:0:0:
109,192,378421,1,0,0:0:0:0:
329,192,378421,1,0,0:0:0:0:
402,192,378479,1,0,0:0:0:0:
256,192,378538,1,0,0:0:0:0:
182,192,378538,1,0,0:0:0:0:
36,192,378538,1,0,0:0:0:0:
329,192,378597,1,0,0:0:0:0:
109,192,378655,1,0,0:0:0:0:
402,192,378714,1,0,0:0:0:0:
256,192,378772,1,0,0:0:0:0:
475,192,378772,1,0,0:0:0:0:
182,192,378831,1,0,0:0:0:0:
402,192,378890,1,0,0:0:0:0:
109,192,378890,1,0,0:0:0:0:
329,192,378948,1,0,0:0:0:0:
256,192,379007,1,0,0:0:0:0:
182,192,379007,1,0,0:0:0:0:
36,192,379007,1,0,0:0:0:0:
109,192,379065,1,0,0:0:0:0:
329,192,379124,1,0,0:0:0:0:
402,192,379124,1,0,0:0:0:0:
256,192,379183,1,0,0:0:0:0:
109,192,379241,1,0,0:0:0:0:
475,192,379241,1,0,0:0:0:0:
182,192,379300,1,0,0:0:0:0:
36,192,379358,1,0,0:0:0:0:
329,192,379358,1,0,0:0:0:0:
402,192,379417,1,0,0:0:0:0:
475,192,379476,1,0,0:0:0:0:
109,192,379476,1,0,0:0:0:0:
256,192,379534,1,0,0:0:0:0:
402,192,379593,1,0,0:0:0:0:
36,192,379593,1,0,0:0:0:0:
182,192,379651,1,0,0:0:0:0:
329,192,379710,1,0,0:0:0:0:
475,192,379710,1,0,0:0:0:0:
109,192,379768,1,0,0:0:0:0:
402,192,379827,1,0,0:0:0:0:
182,192,379827,1,0,0:0:0:0:
256,192,379886,1,0,0:0:0:0:
475,192,379944,1,0,0:0:0:0:
329,192,379944,1,0,0:0:0:0:
36,192,379944,1,0,0:0:0:0:
182,192,380003,1,0,0:0:0:0:
402,192,380061,1,0,0:0:0:0:
109,192,380061,1,0,0:0:0:0:
329,192,380120,1,0,0:0:0:0:
36,192,380179,1,0,0:0:0:0:
256,192,380179,1,0,0:0:0:0:
402,192,380237,1,0,0:0:0:0:
109,192,380296,1,0,0:0:0:0:
182,192,380296,1,0,0:0:0:0:
329,192,380354,1,0,0:0:0:0:
36,192,380413,1,0,0:0:0:0:
475,192,380413,1,0,0:0:0:0:
256,192,380413,1,0,0:0:0:0:
402,192,380472,1,0,0:0:0:0:
329,192,380530,1,0,0:0:0:0:
109,192,380530,1,0,0:0:0:0:
182,192,380589,1,0,0:0:0:0:
256,192,380647,1,0,0:0:0:0:
36,192,380647,1,0,0:0:0:0:
109,192,380706,1,0,0:0:0:0:
182,192,380765,1,0,0:0:0:0:
329,192,380823,1,0,0:0:0:0:
36,192,380882,1,0,0:0:0:0:
402,192,380882,1,0,0:0:0:0:
475,192,380882,1,0,0:0:0:0:
256,192,380940,1,0,0:0:0:0:
109,192,380999,1,0,0:0:0:0:
182,192,380999,1,0,0:0:0:0:
36,192,381058,1,0,0:0:0:0:
402,192,381116,1,0,0:0:0:0:
256,192,381116,1,0,0:0:0:0:
475,192,381175,1,0,0:0:0:0:
109,192,381233,1,0,0:0:0:0:
329,192,381233,1,0,0:0:0:0:
182,192,381292,1,0,0:0:0:0:
36,192,381351,1,0,0:0:0:0:
402,192,381351,1,0,0:0:0:0:
256,192,381351,1,0,0:0:0:0:
109,192,381409,1,0,0:0:0:0:
182,192,381468,1,0,0:0:0:0:
475,192,381468,1,0,0:0:0:0:
256,192,381526,1,0,0:0:0:0:
329,192,381585,1,0,0:0:0:0:
402,192,381585,1,0,0:0:0:0:
109,192,381643,1,0,0:0:0:0:
475,192,381702,1,0,0:0:0:0:
182,192,381702,1,0,0:0:0:0:
256,192,381761,1,0,0:0:0:0:
36,192,381819,1,0,0:0:0:0:
329,192,381819,1,0,0:0:0:0:
402,192,381819,1,0,0:0:0:0:
256,192,381878,1,0,0:0:0:0:
109,192,381936,1,0,0:0:0:0:
182,192,381936,1,0,0:0:0:0:
36,192,381995,1,0,0:0:0:0:
475,192,382054,1,0,0:0:0:0:
109,192,382054,1,0,0:0:0:0:
182,192,382112,1,0,0:0:0:0:
256,192,382171,1,0,0:0:0:0:
329,192,382171,1,0,0:0:0:0:
402,192,382229,1,0,0:0:0:0:
109,192,382288,1,0,0:0:0:0:
36,192,382288,1,0,0:0:0:0:
475,192,382288,1,0,0:0:0:0:
182,192,382347,1,0,0:0:0:0:
256,192,382405,1,0,0:0:0:0:
402,192,382405,1,0,0:0:0:0:
109,192,382464,1,0,0:0:0:0:
182,192,382522,1,0,0:0:0:0:
475,192,382522,1,0,0:0:0:0:
402,192,382581,1,0,0:0:0:0:
109,192,382640,1,0,0:0:0:0:
329,192,382640,1,0,0:0:0:0:
256,192,382698,1,0,0:0:0:0:
36,192,382757,1,0,0:0:0:0:
475,192,382757,1,0,0:0:0:0:
182,192,382757,1,0,0:0:0:0:
402,192,382815,1,0,0:0:0:0:
256,192,382874,1,0,0:0:0:0:
109,192,382874,1,0,0:0:0:0:
329,192,382933,1,0,0:0:0:0:
182,192,382991,1,0,0:0:0:0:
475,192,382991,1,0,0:0:0:0:
256,192,383050,1,0,0:0:0:0:
402,192,383108,1,0,0:0:0:0:
36,192,383108,1,0,0:0:0:0:
329,192,383167,1,0,0:0:0:0:
109,192,383226,1,0,0:0:0:0:
475,192,383226,1,0,0:0:0:0:
182,192,383284,1,0,0:0:0:0:
256,192,383343,1,0,0:0:0:0:
36,192,383343,1,0,0:0:0:0:
329,192,383401,1,0,0:0:0:0:
402,192,383460,1,0,0:0:0:0:
182,192,383460,1,0,0:0:0:0:
109,192,383460,1,0,0:0:0:0:
36,192,383518,1,0,0:0:0:0:
475,192,383577,1,0,0:0:0:0:
329,192,383577,1,0,0:0:0:0:
182,192,383636,1,0,0:0:0:0:
402,192,383694,1,0,0:0:0:0:
36,192,383694,1,0,0:0:0:0:
256,192,383694,1,0,0:0:0:0:
109,192,383753,1,0,0:0:0:0:
182,192,383811,1,0,0:0:0:0:
329,192,383811,1,0,0:0:0:0:
36,192,383870,1,0,0:0:0:0:
256,192,383929,1,0,0:0:0:0:
109,192,383929,1,0,0:0:0:0:
402,192,383929,1,0,0:0:0:0:
182,192,383987,1,0,0:0:0:0:
36,192,384046,1,0,0:0:0:0:
329,192,384046,1,0,0:0:0:0:
402,192,384104,1,0,0:0:0:0:
475,192,384163,1,0,0:0:0:0:
182,192,384163,1,0,0:0:0:0:
256,192,384163,1,0,0:0:0:0:
109,192,384163,1,0,0:0:0:0:
109,192,384280,1,0,0:0:0:0:
475,192,384280,1,0,0:0:0:0:
256,192,384280,1,0,0:0:0:0:
182,192,384397,1,0,0:0:0:0:
36,192,384397,1,0,0:0:0:0:
402,192,384397,1,0,0:0:0:0:
329,192,384397,1,0,0:0:0:0:
329,192,384515,1,0,0:0:0:0:
182,192,384515,1,0,0:0:0:0:
36,192,384632,1,0,0:0:0:0:
256,192,384632,1,0,0:0:0:0:
402,192,384632,1,0,0:0:0:0:
109,192,384632,1,0,0:0:0:0:
182,192,384749,1,0,0:0:0:0:
402,192,384749,1,0,0:0:0:0:
475,192,384866,1,0,0:0:0:0:
109,192,384866,1,0,0:0:0:0:
256,192,384866,1,0,0:0:0:0:
402,192,385101,1,0,0:0:0:0:
109,192,385101,1,0,0:0:0:0:
182,192,385101,1,0,0:0:0:0:
475,192,385335,1,0,0:0:0:0:
36,192,385335,1,0,0:0:0:0:
182,192,385335,1,0,0:0:0:0:
402,192,385452,1,0,0:0:0:0:
256,192,385569,1,0,0:0:0:0:
475,192,385569,1,0,0:0:0:0:
329,192,385569,1,0,0:0:0:0:
109,192,385569,1,0,0:0:0:0:
402,192,385804,1,0,0:0:0:0:
182,192,385804,1,0,0:0:0:0:
402,192,386038,1,0,0:0:0:0:
475,192,386038,1,0,0:0:0:0:
182,192,386038,1,0,0:0:0:0:
329,192,386038,1,0,0:0:0:0:
109,192,386155,1,0,0:0:0:0:
256,192,386272,1,0,0:0:0:0:
36,192,386272,1,0,0:0:0:0:
329,192,386390,1,0,0:0:0:0:
182,192,386390,1,0,0:0:0:0:
402,192,386507,1,0,0:0:0:0:
475,192,386507,1,0,0:0:0:0:
109,192,386507,1,0,0:0:0:0:
36,192,386507,1,0,0:0:0:0:
329,192,386741,1,0,0:0:0:0:
109,192,386741,1,0,0:0:0:0:
256,192,386976,1,0,0:0:0:0:
182,192,386976,1,0,0:0:0:0:
475,192,386976,1,0,0:0:0:0:
475,192,387210,1,0,0:0:0:0:
402,192,387210,1,0,0:0:0:0:
256,192,387327,1,0,0:0:0:0:
475,192,387444,1,0,0:0:0:0:
36,192,387444,1,0,0:0:0:0:
109,192,387444,1,0,0:0:0:0:
329,192,387444,1,0,0:0:0:0:
329,192,387679,1,0,0:0:0:0:
256,192,387679,1,0,0:0:0:0:
402,192,387679,1,0,0:0:0:0:
182,192,387913,1,0,0:0:0:0:
256,192,388147,1,0,0:0:0:0:
109,192,388147,1,0,0:0:0:0:
402,192,388147,1,0,0:0:0:0:
182,192,388265,1,0,0:0:0:0:
475,192,388382,1,0,0:0:0:0:
329,192,388382,1,0,0:0:0:0:
182,192,388616,1,0,0:0:0:0:
256,192,388616,1,0,0:0:0:0:
402,192,388616,1,0,0:0:0:0:
36,192,388616,1,0,0:0:0:0:
109,192,388851,1,0,0:0:0:0:
475,192,388851,1,0,0:0:0:0:
329,192,388851,1,0,0:0:0:0:
182,192,389085,1,0,0:0:0:0:
402,192,389085,1,0,0:0:0:0:
475,192,389085,1,0,0:0:0:0:
109,192,389202,1,0,0:0:0:0:
402,192,389319,1,0,0:0:0:0:
329,192,389319,1,0,0:0:0:0:
256,192,389319,1,0,0:0:0:0:
36,192,389319,1,0,0:0:0:0:
109,192,389554,1,0,0:0:0:0:
475,192,389554,1,0,0:0:0:0:
256,192,389671,1,0,0:0:0:0:
36,192,389788,1,0,0:0:0:0:
475,192,389788,1,0,0:0:0:0:
182,192,390022,1,0,0:0:0:0:
109,192,390022,1,0,0:0:0:0:
256,192,390022,1,0,0:0:0:0:
36,192,390140,1,0,0:0:0:0:
402,192,390140,1,0,0:0:0:0:
256,192,390257,1,0,0:0:0:0:
329,192,390257,1,0,0:0:0:0:
475,192,390257,1,0,0:0:0:0:
109,192,390257,1,0,0:0:0:0:
475,192,390491,1,0,0:0:0:0:
36,192,390491,1,0,0:0:0:0:
182,192,390491,1,0,0:0:0:0:
402,192,390491,1,0,0:0:0:0:
256,192,390726,1,0,0:0:0:0:
329,192,390726,1,0,0:0:0:0:
109,192,390726,1,0,0:0:0:0:
402,192,390960,1,0,0:0:0:0:
36,192,390960,1,0,0:0:0:0:
109,192,390960,1,0,0:0:0:0:
256,192,391077,1,0,0:0:0:0:
36,192,391194,1,0,0:0:0:0:
329,192,391194,1,0,0:0:0:0:
182,192,391194,1,0,0:0:0:0:
475,192,391194,1,0,0:0:0:0:
256,192,391429,1,0,0:0:0:0:
109,192,391429,1,0,0:0:0:0:
182,192,391663,1,0,0:0:0:0:
256,192,391663,1,0,0:0:0:0:
402,192,391663,1,0,0:0:0:0:
109,192,391897,1,0,0:0:0:0:
475,192,391897,1,0,0:0:0:0:
329,192,391897,1,0,0:0:0:0:
182,192,392015,1,0,0:0:0:0:
36,192,392132,1,0,0:0:0:0:
329,192,392366,1,0,0:0:0:0:
182,192,392366,1,0,0:0:0:0:
402,192,392366,1,0,0:0:0:0:
475,192,392366,1,0,0:0:0:0:
329,192,392601,1,0,0:0:0:0:
256,192,392601,1,0,0:0:0:0:
109,192,392601,1,0,0:0:0:0:
475,192,392835,1,0,0:0:0:0:
182,192,392835,1,0,0:0:0:0:
109,192,392952,1,0,0:0:0:0:
475,192,393069,1,0,0:0:0:0:
182,192,393069,1,0,0:0:0:0:
36,192,393069,1,0,0:0:0:0:
402,192,393069,1,0,0:0:0:0:
109,192,393304,1,0,0:0:0:0:
256,192,393304,1,0,0:0:0:0:
329,192,393421,1,0,0:0:0:0:
36,192,393538,1,0,0:0:0:0:
182,192,393538,1,0,0:0:0:0:
256,192,393655,1,0,0:0:0:0:
109,192,393772,1,0,0:0:0:0:
182,192,393772,1,0,0:0:0:0:
329,192,393772,1,0,0:0:0:0:
402,192,393772,1,0,0:0:0:0:
36,192,393890,1,0,0:0:0:0:
475,192,393890,1,0,0:0:0:0:
256,192,394007,1,0,0:0:0:0:
329,192,394007,1,0,0:0:0:0:
402,192,394007,1,0,0:0:0:0:
109,192,394007,1,0,0:0:0:0:
402,192,394241,1,0,0:0:0:0:
475,192,394241,1,0,0:0:0:0:
182,192,394241,1,0,0:0:0:0:
36,192,394241,1,0,0:0:0:0:
256,192,394476,1,0,0:0:0:0:
109,192,394476,1,0,0:0:0:0:
329,192,394476,1,0,0:0:0:0:
402,192,394710,1,0,0:0:0:0:
329,192,394710,1,0,0:0:0:0:
182,192,394710,1,0,0:0:0:0:
256,192,394827,1,0,0:0:0:0:
475,192,394944,1,0,0:0:0:0:
329,192,394944,1,0,0:0:0:0:
109,192,394944,1,0,0:0:0:0:
36,192,394944,1,0,0:0:0:0:
256,192,395179,1,0,0:0:0:0:
36,192,395179,1,0,0:0:0:0:
109,192,395296,1,0,0:0:0:0:
402,192,395413,1,0,0:0:0:0:
182,192,395413,1,0,0:0:0:0:
329,192,395647,1,0,0:0:0:0:
182,192,395765,1,0,0:0:0:0:
475,192,395882,1,0,0:0:0:0:
182,192,396116,1,0,0:0:0:0:
36,192,396351,1,0,0:0:0:0:
182,192,396351,1,0,0:0:0:0:
329,192,396351,1,0,0:0:0:0:
475,192,396351,1,0,0:0:0:0:
36,192,414133,5,0,0:0:0:0:
182,192,414133,1,0,0:0:0:0:
475,192,414133,1,0,0:0:0:0:
256,192,414309,1,0,0:0:0:0:
329,192,414485,1,0,0:0:0:0:
36,192,414662,1,0,0:0:0:0:
402,192,414662,1,0,0:0:0:0:
475,192,414838,1,0,0:0:0:0:
109,192,415015,1,0,0:0:0:0:
256,192,415015,1,0,0:0:0:0:
182,192,415191,1,0,0:0:0:0:
329,192,415191,1,0,0:0:0:0:
402,192,415368,1,0,0:0:0:0:
109,192,415544,1,0,0:0:0:0:
475,192,415544,1,0,0:0:0:0:
182,192,415721,1,0,0:0:0:0:
329,192,415897,1,0,0:0:0:0:
36,192,416074,1,0,0:0:0:0:
402,192,416074,1,0,0:0:0:0:
475,192,416250,1,0,0:0:0:0:
109,192,416427,1,0,0:0:0:0:
402,192,416427,1,0,0:0:0:0:
182,192,416603,1,0,0:0:0:0:
329,192,416603,1,0,0:0:0:0:
256,192,416780,1,0,0:0:0:0:
329,192,416956,1,0,0:0:0:0:
475,192,416956,1,0,0:0:0:0:
182,192,417133,1,0,0:0:0:0:
402,192,417309,1,0,0:0:0:0:
256,192,417485,1,0,0:0:0:0:
36,192,417485,1,0,0:0:0:0:
182,192,417662,1,0,0:0:0:0:
475,192,417662,1,0,0:0:0:0:
329,192,417838,1,0,0:0:0:0:
109,192,418015,1,0,0:0:0:0:
402,192,418015,1,0,0:0:0:0:
256,192,418191,1,0,0:0:0:0:
182,192,418368,1,0,0:0:0:0:
475,192,418368,1,0,0:0:0:0:
329,192,418544,1,0,0:0:0:0:
402,192,418721,1,0,0:0:0:0:
109,192,418897,1,0,0:0:0:0:
256,192,418897,1,0,0:0:0:0:
182,192,419074,1,0,0:0:0:0:
329,192,419074,1,0,0:0:0:0:
402,192,419250,1,0,0:0:0:0:
36,192,419427,1,0,0:0:0:0:
475,192,419427,1,0,0:0:0:0:
109,192,419603,1,0,0:0:0:0:
329,192,419603,1,0,0:0:0:0:
36,192,419780,1,0,0:0:0:0:
402,192,419780,1,0,0:0:0:0:
182,192,419956,1,0,0:0:0:0:
329,192,420133,1,0,0:0:0:0:
182,192,420309,1,0,0:0:0:0:
402,192,420309,1,0,0:0:0:0:
475,192,420485,1,0,0:0:0:0:
109,192,420662,1,0,0:0:0:0:
329,192,420662,1,0,0:0:0:0:
36,192,420838,1,0,0:0:0:0:
256,192,420838,1,0,0:0:0:0:
182,192,421015,1,0,0:0:0:0:
109,192,421191,1,0,0:0:0:0:
402,192,421191,1,0,0:0:0:0:
182,192,421368,1,0,0:0:0:0:
256,192,421544,1,0,0:0:0:0:
182,192,421721,1,0,0:0:0:0:
329,192,421721,1,0,0:0:0:0:
402,192,421897,1,0,0:0:0:0:
109,192,422074,1,0,0:0:0:0:
329,192,422074,1,0,0:0:0:0:
36,192,422250,1,0,0:0:0:0:
475,192,422250,1,0,0:0:0:0:
256,192,422427,1,0,0:0:0:0:
109,192,422603,1,0,0:0:0:0:
402,192,422603,1,0,0:0:0:0:
182,192,422780,1,0,0:0:0:0:
256,192,422956,1,0,0:0:0:0:
329,192,423133,1,0,0:0:0:0:
182,192,423309,1,0,0:0:0:0:
402,192,423309,1,0,0:0:0:0:
256,192,423485,1,0,0:0:0:0:
329,192,423662,1,0,0:0:0:0:
402,192,423838,1,0,0:0:0:0:
36,192,424015,1,0,0:0:0:0:
475,192,424015,1,0,0:0:0:0:
182,192,424191,1,0,0:0:0:0:
329,192,424368,1,0,0:0:0:0:
402,192,424544,1,0,0:0:0:0:
475,192,424721,1,0,0:0:0:0:
329,192,424897,1,0,0:0:0:0:
256,192,425074,1,0,0:0:0:0:
182,192,425250,1,0,0:0:0:0:
475,192,425427,1,0,0:0:0:0:
329,192,425427,1,0,0:0:0:0:
109,192,425427,1,0,0:0:0:0:
36,192,425603,1,0,0:0:0:0:
182,192,425603,1,0,0:0:0:0:
329,192,425780,1,0,0:0:0:0:
36,192,425868,1,0,0:0:0:0:
402,192,425956,1,0,0:0:0:0:
36,192,426133,1,0,0:0:0:0:
475,192,426133,1,0,0:0:0:0:
256,192,426309,1,0,0:0:0:0:
109,192,426485,1,0,0:0:0:0:
329,192,426485,1,0,0:0:0:0:
402,192,426662,1,0,0:0:0:0:
182,192,426838,1,0,0:0:0:0:
475,192,426838,1,0,0:0:0:0:
256,192,427015,1,0,0:0:0:0:
36,192,427015,1,0,0:0:0:0:
329,192,427191,1,0,0:0:0:0:
36,192,427280,1,0,0:0:0:0:
402,192,427368,1,0,0:0:0:0:
109,192,427456,1,0,0:0:0:0:
36,192,427544,1,0,0:0:0:0:
475,192,427544,1,0,0:0:0:0:
402,192,427721,1,0,0:0:0:0:
329,192,427897,1,0,0:0:0:0:
256,192,428074,1,0,0:0:0:0:
182,192,428250,1,0,0:0:0:0:
475,192,428250,1,0,0:0:0:0:
36,192,428427,1,0,0:0:0:0:
329,192,428427,1,0,0:0:0:0:
475,192,428603,1,0,0:0:0:0:
402,192,428603,1,0,0:0:0:0:
36,192,428691,1,0,0:0:0:0:
256,192,428780,1,0,0:0:0:0:
109,192,428868,1,0,0:0:0:0:
402,192,428956,1,0,0:0:0:0:
36,192,428956,1,0,0:0:0:0:
329,192,428956,1,0,0:0:0:0:
182,192,429133,1,0,0:0:0:0:
329,192,429309,1,0,0:0:0:0:
256,192,429309,1,0,0:0:0:0:
109,192,429485,1,0,0:0:0:0:
329,192,429662,1,0,0:0:0:0:
475,192,429662,1,0,0:0:0:0:
182,192,429838,1,0,0:0:0:0:
402,192,430015,1,0,0:0:0:0:
256,192,430015,1,0,0:0:0:0:
109,192,430191,1,0,0:0:0:0:
475,192,430368,1,0,0:0:0:0:
329,192,430368,1,0,0:0:0:0:
182,192,430368,1,0,0:0:0:0:
256,192,430544,1,0,0:0:0:0:
402,192,430721,1,0,0:0:0:0:
36,192,430721,1,0,0:0:0:0:
182,192,430897,1,0,0:0:0:0:
36,192,430897,1,0,0:0:0:0:
329,192,431074,1,0,0:0:0:0:
36,192,431074,1,0,0:0:0:0:
109,192,431250,1,0,0:0:0:0:
182,192,431250,1,0,0:0:0:0:
256,192,431250,1,0,0:0:0:0:
329,192,431427,1,0,0:0:0:0:
182,192,431603,1,0,0:0:0:0:
109,192,431603,1,0,0:0:0:0:
402,192,431603,1,0,0:0:0:0:
475,192,431780,1,0,0:0:0:0:
182,192,431956,1,0,0:0:0:0:
109,192,431956,1,0,0:0:0:0:
402,192,431956,1,0,0:0:0:0:
329,192,432133,1,0,0:0:0:0:
36,192,432309,1,0,0:0:0:0:
402,192,432309,1,0,0:0:0:0:
256,192,432309,1,0,0:0:0:0:
182,192,432309,1,0,0:0:0:0:
182,192,432485,1,0,0:0:0:0:
256,192,432485,1,0,0:0:0:0:
402,192,432485,1,0,0:0:0:0:
36,192,432485,1,0,0:0:0:0:
36,192,432662,1,0,0:0:0:0:
182,192,432662,1,0,0:0:0:0:
256,192,432662,1,0,0:0:0:0:
329,192,432838,1,0,0:0:0:0:
36,192,433015,1,0,0:0:0:0:
182,192,433015,1,0,0:0:0:0:
402,192,433015,1,0,0:0:0:0:
475,192,433191,1,0,0:0:0:0:
182,192,433368,1,0,0:0:0:0:
36,192,433368,1,0,0:0:0:0:
329,192,433368,1,0,0:0:0:0:
475,192,433544,1,0,0:0:0:0:
182,192,433721,1,0,0:0:0:0:
36,192,433721,1,0,0:0:0:0:
256,192,433721,1,0,0:0:0:0:
182,192,433897,1,0,0:0:0:0:
329,192,433897,1,0,0:0:0:0:
402,192,433897,1,0,0:0:0:0:
36,192,433897,1,0,0:0:0:0:
109,192,434074,1,0,0:0:0:0:
36,192,434074,1,0,0:0:0:0:
256,192,434074,1,0,0:0:0:0:
329,192,434250,1,0,0:0:0:0:
36,192,434427,1,0,0:0:0:0:
109,192,434427,1,0,0:0:0:0:
402,192,434427,1,0,0:0:0:0:
182,192,434603,1,0,0:0:0:0:
329,192,434603,1,0,0:0:0:0:
475,192,434603,1,0,0:0:0:0:
109,192,434780,1,0,0:0:0:0:
36,192,434780,1,0,0:0:0:0:
256,192,434780,1,0,0:0:0:0:
182,192,434956,1,0,0:0:0:0:
329,192,434956,1,0,0:0:0:0:
109,192,435133,1,0,0:0:0:0:
36,192,435133,1,0,0:0:0:0:
402,192,435133,1,0,0:0:0:0:
182,192,435309,1,0,0:0:0:0:
329,192,435309,1,0,0:0:0:0:
475,192,435309,1,0,0:0:0:0:
36,192,435309,1,0,0:0:0:0:
36,192,435485,1,0,0:0:0:0:
256,192,435485,1,0,0:0:0:0:
182,192,435574,1,0,0:0:0:0:
36,192,435662,1,0,0:0:0:0:
329,192,435662,1,0,0:0:0:0:
182,192,435750,1,0,0:0:0:0:
36,192,435838,1,0,0:0:0:0:
402,192,435838,1,0,0:0:0:0:
182,192,435927,1,0,0:0:0:0:
475,192,436015,1,0,0:0:0:0:
109,192,436015,1,0,0:0:0:0:
36,192,436015,1,0,0:0:0:0:
182,192,436103,1,0,0:0:0:0:
329,192,436191,1,0,0:0:0:0:
109,192,436191,1,0,0:0:0:0:
36,192,436191,1,0,0:0:0:0:
182,192,436280,1,0,0:0:0:0:
109,192,436368,1,0,0:0:0:0:
402,192,436368,1,0,0:0:0:0:
475,192,436368,1,0,0:0:0:0:
36,192,436368,1,0,0:0:0:0:
329,192,436412,1,0,0:0:0:0:
256,192,436456,1,0,0:0:0:0:
182,192,436500,1,0,0:0:0:0:
109,192,436544,1,0,0:0:0:0:
402,192,436544,1,0,0:0:0:0:
475,192,436544,1,0,0:0:0:0:
36,192,436544,1,0,0:0:0:0:
329,192,436588,1,0,0:0:0:0:
256,192,436633,1,0,0:0:0:0:
182,192,436677,1,0,0:0:0:0:
109,192,436721,1,0,0:0:0:0:
36,192,436721,1,0,0:0:0:0:
402,192,436721,1,0,0:0:0:0:
475,192,436721,1,0,0:0:0:0:
329,192,436897,1,0,0:0:0:0:
182,192,436897,1,0,0:0:0:0:
475,192,437074,1,0,0:0:0:0:
402,192,437074,1,0,0:0:0:0:
256,192,437074,1,0,0:0:0:0:
109,192,437250,1,0,0:0:0:0:
36,192,437250,1,0,0:0:0:0:
329,192,437338,1,0,0:0:0:0:
182,192,437338,1,0,0:0:0:0:
329,192,437515,1,0,0:0:0:0:
182,192,437515,1,0,0:0:0:0:
109,192,437603,1,0,0:0:0:0:
36,192,437603,1,0,0:0:0:0:
475,192,437780,1,0,0:0:0:0:
402,192,437780,1,0,0:0:0:0:
182,192,437780,1,0,0:0:0:0:
329,192,437780,1,0,0:0:0:0:
475,192,438133,1,0,0:0:0:0:
256,192,438133,1,0,0:0:0:0:
182,192,438133,1,0,0:0:0:0:
36,192,438133,1,0,0:0:0:0:
109,192,438133,1,0,0:0:0:0:
402,192,438221,1,0,0:0:0:0:
109,192,438309,1,0,0:0:0:0:
475,192,438309,1,0,0:0:0:0:
329,192,438309,1,0,0:0:0:0:
256,192,438397,1,0,0:0:0:0:
402,192,438485,1,0,0:0:0:0:
329,192,438485,1,0,0:0:0:0:
182,192,438485,1,0,0:0:0:0:
109,192,438485,1,0,0:0:0:0:
36,192,438485,1,0,0:0:0:0:
475,192,438574,1,0,0:0:0:0:
329,192,438662,1,0,0:0:0:0:
109,192,438662,1,0,0:0:0:0:
402,192,438662,1,0,0:0:0:0:
182,192,438750,1,0,0:0:0:0:
475,192,438838,1,0,0:0:0:0:
329,192,438838,1,0,0:0:0:0:
402,192,438838,1,0,0:0:0:0:
36,192,438838,1,0,0:0:0:0:
256,192,438838,1,0,0:0:0:0:
182,192,438927,1,0,0:0:0:0:
475,192,439015,1,0,0:0:0:0:
402,192,439015,1,0,0:0:0:0:
109,192,439015,1,0,0:0:0:0:
36,192,439103,1,0,0:0:0:0:
256,192,439191,1,0,0:0:0:0:
109,192,439191,1,0,0:0:0:0:
475,192,439191,1,0,0:0:0:0:
329,192,439191,1,0,0:0:0:0:
402,192,439191,1,0,0:0:0:0:
182,192,439280,1,0,0:0:0:0:
475,192,439368,1,0,0:0:0:0:
329,192,439368,1,0,0:0:0:0:
109,192,439368,1,0,0:0:0:0:
36,192,439456,1,0,0:0:0:0:
475,192,439544,1,0,0:0:0:0:
109,192,439544,1,0,0:0:0:0:
329,192,439544,1,0,0:0:0:0:
182,192,439544,1,0,0:0:0:0:
256,192,439544,1,0,0:0:0:0:
402,192,439633,1,0,0:0:0:0:
109,192,439721,1,0,0:0:0:0:
329,192,439721,1,0,0:0:0:0:
36,192,439721,1,0,0:0:0:0:
256,192,439809,1,0,0:0:0:0:
36,192,439897,1,0,0:0:0:0:
475,192,439897,1,0,0:0:0:0:
182,192,439897,1,0,0:0:0:0:
402,192,439897,1,0,0:0:0:0:
109,192,439897,1,0,0:0:0:0:
329,192,439985,1,0,0:0:0:0:
109,192,440074,1,0,0:0:0:0:
402,192,440074,1,0,0:0:0:0:
256,192,440074,1,0,0:0:0:0:
182,192,440162,1,0,0:0:0:0:
36,192,440250,1,0,0:0:0:0:
109,192,440250,1,0,0:0:0:0:
475,192,440250,1,0,0:0:0:0:
329,192,440250,1,0,0:0:0:0:
402,192,440250,1,0,0:0:0:0:
256,192,440338,1,0,0:0:0:0:
36,192,440427,1,0,0:0:0:0:
402,192,440427,1,0,0:0:0:0:
182,192,440427,1,0,0:0:0:0:
109,192,440515,1,0,0:0:0:0:
475,192,440603,1,0,0:0:0:0:
36,192,440603,1,0,0:0:0:0:
402,192,440603,1,0,0:0:0:0:
256,192,440603,1,0,0:0:0:0:
329,192,440603,1,0,0:0:0:0:
182,192,440691,1,0,0:0:0:0:
475,192,440780,1,0,0:0:0:0:
256,192,440780,1,0,0:0:0:0:
109,192,440780,1,0,0:0:0:0:
36,192,440868,1,0,0:0:0:0:
109,192,440956,1,0,0:0:0:0:
182,192,440956,1,0,0:0:0:0:
475,192,440956,1,0,0:0:0:0:
329,192,440956,1,0,0:0:0:0:
402,192,440956,1,0,0:0:0:0:
256,192,441044,1,0,0:0:0:0:
109,192,441133,1,0,0:0:0:0:
36,192,441133,1,0,0:0:0:0:
329,192,441133,1,0,0:0:0:0:
402,192,441221,1,0,0:0:0:0:
329,192,441309,1,0,0:0:0:0:
475,192,441309,1,0,0:0:0:0:
182,192,441309,1,0,0:0:0:0:
36,192,441309,1,0,0:0:0:0:
109,192,441309,1,0,0:0:0:0:
256,192,441397,1,0,0:0:0:0:
182,192,441485,1,0,0:0:0:0:
109,192,441485,1,0,0:0:0:0:
329,192,441485,1,0,0:0:0:0:
402,192,441574,1,0,0:0:0:0:
109,192,441662,1,0,0:0:0:0:
329,192,441662,1,0,0:0:0:0:
36,192,441662,1,0,0:0:0:0:
475,192,441662,1,0,0:0:0:0:
256,192,441662,1,0,0:0:0:0:
182,192,441750,1,0,0:0:0:0:
36,192,441838,1,0,0:0:0:0:
402,192,441838,1,0,0:0:0:0:
256,192,441838,1,0,0:0:0:0:
329,192,441927,1,0,0:0:0:0:
256,192,442015,1,0,0:0:0:0:
36,192,442015,1,0,0:0:0:0:
109,192,442015,1,0,0:0:0:0:
475,192,442015,1,0,0:0:0:0:
402,192,442015,1,0,0:0:0:0:
182,192,442103,1,0,0:0:0:0:
402,192,442191,1,0,0:0:0:0:
109,192,442191,1,0,0:0:0:0:
256,192,442191,1,0,0:0:0:0:
329,192,442280,1,0,0:0:0:0:
182,192,442368,1,0,0:0:0:0:
109,192,442368,1,0,0:0:0:0:
36,192,442368,1,0,0:0:0:0:
475,192,442368,1,0,0:0:0:0:
402,192,442368,1,0,0:0:0:0:
256,192,442456,1,0,0:0:0:0:
109,192,442544,1,0,0:0:0:0:
329,192,442544,1,0,0:0:0:0:
402,192,442544,1,0,0:0:0:0:
475,192,442633,1,0,0:0:0:0:
109,192,442721,1,0,0:0:0:0:
256,192,442721,1,0,0:0:0:0:
329,192,442721,1,0,0:0:0:0:
36,192,442721,1,0,0:0:0:0:
402,192,442721,1,0,0:0:0:0:
182,192,442809,1,0,0:0:0:0:
36,192,442897,1,0,0:0:0:0:
329,192,442897,1,0,0:0:0:0:
256,192,442897,1,0,0:0:0:0:
402,192,442985,1,0,0:0:0:0:
36,192,443074,1,0,0:0:0:0:
256,192,443074,1,0,0:0:0:0:
329,192,443074,1,0,0:0:0:0:
475,192,443074,1,0,0:0:0:0:
182,192,443074,1,0,0:0:0:0:
109,192,443162,1,0,0:0:0:0:
475,192,443250,1,0,0:0:0:0:
329,192,443250,1,0,0:0:0:0:
182,192,443250,1,0,0:0:0:0:
402,192,443338,1,0,0:0:0:0:
475,192,443427,1,0,0:0:0:0:
329,192,443427,1,0,0:0:0:0:
182,192,443427,1,0,0:0:0:0:
36,192,443427,1,0,0:0:0:0:
109,192,443427,1,0,0:0:0:0:
256,192,443515,1,0,0:0:0:0:
36,192,443603,1,0,0:0:0:0:
402,192,443603,1,0,0:0:0:0:
329,192,443603,1,0,0:0:0:0:
475,192,443691,1,0,0:0:0:0:
402,192,443780,1,0,0:0:0:0:
329,192,443780,1,0,0:0:0:0:
256,192,443780,1,0,0:0:0:0:
109,192,443780,1,0,0:0:0:0:
182,192,443780,1,0,0:0:0:0:
36,192,443868,1,0,0:0:0:0:
182,192,443956,1,0,0:0:0:0:
475,192,443956,1,0,0:0:0:0:
402,192,443956,1,0,0:0:0:0:
329,192,444044,1,0,0:0:0:0:
256,192,444133,1,0,0:0:0:0:
475,192,444133,1,0,0:0:0:0:
182,192,444133,1,0,0:0:0:0:
109,192,444133,1,0,0:0:0:0:
36,192,444133,1,0,0:0:0:0:
402,192,444221,1,0,0:0:0:0:
109,192,444309,1,0,0:0:0:0:
475,192,444309,1,0,0:0:0:0:
329,192,444309,1,0,0:0:0:0:
256,192,444397,1,0,0:0:0:0:
475,192,444485,1,0,0:0:0:0:
329,192,444485,1,0,0:0:0:0:
402,192,444485,1,0,0:0:0:0:
36,192,444485,1,0,0:0:0:0:
182,192,444485,1,0,0:0:0:0:
109,192,444574,1,0,0:0:0:0:
402,192,444662,1,0,0:0:0:0:
256,192,444662,1,0,0:0:0:0:
182,192,444662,1,0,0:0:0:0:
329,192,444750,1,0,0:0:0:0:
475,192,444838,1,0,0:0:0:0:
402,192,444838,1,0,0:0:0:0:
182,192,444838,1,0,0:0:0:0:
109,192,444838,1,0,0:0:0:0:
36,192,444838,1,0,0:0:0:0:
329,192,444927,1,0,0:0:0:0:
475,192,445015,1,0,0:0:0:0:
109,192,445015,1,0,0:0:0:0:
256,192,445015,1,0,0:0:0:0:
182,192,445103,1,0,0:0:0:0:
402,192,445191,1,0,0:0:0:0:
475,192,445191,1,0,0:0:0:0:
329,192,445191,1,0,0:0:0:0:
36,192,445191,1,0,0:0:0:0:
109,192,445191,1,0,0:0:0:0:
182,192,445280,1,0,0:0:0:0:
36,192,445368,1,0,0:0:0:0:
256,192,445368,1,0,0:0:0:0:
402,192,445368,1,0,0:0:0:0:
109,192,445456,1,0,0:0:0:0:
402,192,445544,1,0,0:0:0:0:
475,192,445544,1,0,0:0:0:0:
329,192,445544,1,0,0:0:0:0:
182,192,445544,1,0,0:0:0:0:
256,192,445544,1,0,0:0:0:0:
109,192,445633,1,0,0:0:0:0:
36,192,445721,1,0,0:0:0:0:
475,192,445721,1,0,0:0:0:0:
329,192,445721,1,0,0:0:0:0:
109,192,445809,1,0,0:0:0:0:
402,192,445897,1,0,0:0:0:0:
475,192,445897,1,0,0:0:0:0:
256,192,445897,1,0,0:0:0:0:
36,192,445897,1,0,0:0:0:0:
182,192,445897,1,0,0:0:0:0:
329,192,445985,1,0,0:0:0:0:
182,192,446074,1,0,0:0:0:0:
109,192,446074,1,0,0:0:0:0:
402,192,446074,1,0,0:0:0:0:
475,192,446162,1,0,0:0:0:0:
256,192,446250,1,0,0:0:0:0:
329,192,446250,1,0,0:0:0:0:
182,192,446250,1,0,0:0:0:0:
36,192,446250,1,0,0:0:0:0:
109,192,446250,1,0,0:0:0:0:
475,192,446338,1,0,0:0:0:0:
36,192,446427,1,0,0:0:0:0:
256,192,446427,1,0,0:0:0:0:
402,192,446427,1,0,0:0:0:0:
329,192,446515,1,0,0:0:0:0:
475,192,446603,1,0,0:0:0:0:
36,192,446603,1,0,0:0:0:0:
402,192,446603,1,0,0:0:0:0:
182,192,446603,1,0,0:0:0:0:
109,192,446603,1,0,0:0:0:0:
256,192,446691,1,0,0:0:0:0:
329,192,446780,1,0,0:0:0:0:
109,192,446780,1,0,0:0:0:0:
182,192,446780,1,0,0:0:0:0:
402,192,446868,1,0,0:0:0:0:
182,192,446956,1,0,0:0:0:0:
329,192,446956,1,0,0:0:0:0:
109,192,446956,1,0,0:0:0:0:
475,192,446956,1,0,0:0:0:0:
36,192,446956,1,0,0:0:0:0:
256,192,447044,1,0,0:0:0:0:
36,192,447133,1,0,0:0:0:0:
402,192,447133,1,0,0:0:0:0:
182,192,447133,1,0,0:0:0:0:
109,192,447221,1,0,0:0:0:0:
36,192,447309,1,0,0:0:0:0:
182,192,447309,1,0,0:0:0:0:
329,192,447309,1,0,0:0:0:0:
475,192,447309,1,0,0:0:0:0:
402,192,447309,1,0,0:0:0:0:
256,192,447397,1,0,0:0:0:0:
402,192,447485,1,0,0:0:0:0:
329,192,447485,1,0,0:0:0:0:
109,192,447485,1,0,0:0:0:0:
475,192,447574,1,0,0:0:0:0:
402,192,447662,1,0,0:0:0:0:
256,192,447662,1,0,0:0:0:0:
109,192,447662,1,0,0:0:0:0:
36,192,447662,1,0,0:0:0:0:
182,192,447662,1,0,0:0:0:0:
329,192,447750,1,0,0:0:0:0:
36,192,447838,1,0,0:0:0:0:
256,192,447838,1,0,0:0:0:0:
475,192,447838,1,0,0:0:0:0:
182,192,447927,1,0,0:0:0:0:
475,192,448015,1,0,0:0:0:0:
402,192,448015,1,0,0:0:0:0:
329,192,448015,1,0,0:0:0:0:
36,192,448015,1,0,0:0:0:0:
109,192,448015,1,0,0:0:0:0:
256,192,448103,1,0,0:0:0:0:
402,192,448191,1,0,0:0:0:0:
109,192,448191,1,0,0:0:0:0:
182,192,448191,1,0,0:0:0:0:
36,192,448280,1,0,0:0:0:0:
109,192,448368,1,0,0:0:0:0:
182,192,448368,1,0,0:0:0:0:
256,192,448368,1,0,0:0:0:0:
475,192,448368,1,0,0:0:0:0:
329,192,448368,1,0,0:0:0:0:
402,192,448456,1,0,0:0:0:0:
36,192,448544,1,0,0:0:0:0:
256,192,448544,1,0,0:0:0:0:
329,192,448544,1,0,0:0:0:0:
109,192,448633,1,0,0:0:0:0:
329,192,448721,1,0,0:0:0:0:
36,192,448721,1,0,0:0:0:0:
182,192,448721,1,0,0:0:0:0:
475,192,448721,1,0,0:0:0:0:
402,192,448721,1,0,0:0:0:0:
256,192,448809,1,0,0:0:0:0:
109,192,448897,1,0,0:0:0:0:
475,192,448897,1,0,0:0:0:0:
329,192,448897,1,0,0:0:0:0:
182,192,448985,1,0,0:0:0:0:
475,192,449074,1,0,0:0:0:0:
256,192,449074,1,0,0:0:0:0:
402,192,449074,1,0,0:0:0:0:
36,192,449074,1,0,0:0:0:0:
109,192,449074,1,0,0:0:0:0:
329,192,449162,1,0,0:0:0:0:
402,192,449250,1,0,0:0:0:0:
475,192,449250,1,0,0:0:0:0:
256,192,449250,1,0,0:0:0:0:
36,192,449250,1,0,0:0:0:0:
109,192,449250,1,0,0:0:0:0:
182,192,449338,1,0,0:0:0:0:
402,192,449427,1,0,0:0:0:0:
475,192,449427,1,0,0:0:0:0:
256,192,449427,1,0,0:0:0:0:
109,192,449427,1,0,0:0:0:0:
36,192,449427,1,0,0:0:0:0:
329,192,449515,1,0,0:0:0:0:
182,192,449515,1,0,0:0:0:0:
109,192,449603,1,0,0:0:0:0:
402,192,449603,1,0,0:0:0:0:
256,192,449691,1,0,0:0:0:0:
36,192,449691,1,0,0:0:0:0:
475,192,449780,1,0,0:0:0:0:
182,192,449780,1,0,0:0:0:0:
109,192,449780,1,0,0:0:0:0:
329,192,449780,1,0,0:0:0:0:
256,192,449868,1,0,0:0:0:0:
402,192,449868,1,0,0:0:0:0:
329,192,449956,1,0,0:0:0:0:
182,192,449956,1,0,0:0:0:0:
256,192,450044,1,0,0:0:0:0:
109,192,450044,1,0,0:0:0:0:
475,192,450133,1,0,0:0:0:0:
402,192,450133,1,0,0:0:0:0:
36,192,450133,1,0,0:0:0:0:
182,192,450133,1,0,0:0:0:0:
256,192,450221,1,0,0:0:0:0:
329,192,450221,1,0,0:0:0:0:
182,192,450309,1,0,0:0:0:0:
109,192,450309,1,0,0:0:0:0:
256,192,450397,1,0,0:0:0:0:
329,192,450397,1,0,0:0:0:0:
475,192,450485,1,0,0:0:0:0:
182,192,450485,1,0,0:0:0:0:
36,192,450485,1,0,0:0:0:0:
402,192,450485,1,0,0:0:0:0:
329,192,450574,1,0,0:0:0:0:
109,192,450574,1,0,0:0:0:0:
402,192,450662,1,0,0:0:0:0:
182,192,450662,1,0,0:0:0:0:
36,192,450750,1,0,0:0:0:0:
256,192,450750,1,0,0:0:0:0:
329,192,450838,1,0,0:0:0:0:
109,192,450838,1,0,0:0:0:0:
475,192,450838,1,0,0:0:0:0:
402,192,450838,1,0,0:0:0:0:
256,192,450927,1,0,0:0:0:0:
182,192,450927,1,0,0:0:0:0:
402,192,451015,1,0,0:0:0:0:
36,192,451015,1,0,0:0:0:0:
329,192,451103,1,0,0:0:0:0:
109,192,451103,1,0,0:0:0:0:
256,192,451191,1,0,0:0:0:0:
36,192,451191,1,0,0:0:0:0:
475,192,451191,1,0,0:0:0:0:
402,192,451191,1,0,0:0:0:0:
329,192,451280,1,0,0:0:0:0:
182,192,451280,1,0,0:0:0:0:
36,192,451368,1,0,0:0:0:0:
109,192,451368,1,0,0:0:0:0:
402,192,451456,1,0,0:0:0:0:
256,192,451456,1,0,0:0:0:0:
182,192,451544,1,0,0:0:0:0:
475,192,451544,1,0,0:0:0:0:
36,192,451544,1,0,0:0:0:0:
109,192,451544,1,0,0:0:0:0:
402,192,451633,1,0,0:0:0:0:
329,192,451633,1,0,0:0:0:0:
109,192,451721,1,0,0:0:0:0:
256,192,451721,1,0,0:0:0:0:
329,192,451809,1,0,0:0:0:0:
182,192,451809,1,0,0:0:0:0:
475,192,451897,1,0,0:0:0:0:
256,192,451897,1,0,0:0:0:0:
36,192,451897,1,0,0:0:0:0:
109,192,451897,1,0,0:0:0:0:
329,192,451985,1,0,0:0:0:0:
402,192,451985,1,0,0:0:0:0:
182,192,452074,1,0,0:0:0:0:
109,192,452074,1,0,0:0:0:0:
329,192,452162,1,0,0:0:0:0:
256,192,452162,1,0,0:0:0:0:
182,192,452250,1,0,0:0:0:0:
36,192,452250,1,0,0:0:0:0:
402,192,452250,1,0,0:0:0:0:
475,192,452250,1,0,0:0:0:0:
329,192,452338,1,0,0:0:0:0:
109,192,452338,1,0,0:0:0:0:
256,192,452427,1,0,0:0:0:0:
182,192,452427,1,0,0:0:0:0:
329,192,452515,1,0,0:0:0:0:
109,192,452515,1,0,0:0:0:0:
475,192,452603,1,0,0:0:0:0:
256,192,452603,1,0,0:0:0:0:
36,192,452603,1,0,0:0:0:0:
402,192,452603,1,0,0:0:0:0:
329,192,452691,1,0,0:0:0:0:
182,192,452691,1,0,0:0:0:0:
256,192,452780,1,0,0:0:0:0:
109,192,452780,1,0,0:0:0:0:
182,192,452868,1,0,0:0:0:0:
329,192,452868,1,0,0:0:0:0:
256,192,452956,1,0,0:0:0:0:
475,192,452956,1,0,0:0:0:0:
36,192,452956,1,0,0:0:0:0:
109,192,452956,1,0,0:0:0:0:
402,192,453044,1,0,0:0:0:0:
329,192,453044,1,0,0:0:0:0:
36,192,453133,1,0,0:0:0:0:
182,192,453133,1,0,0:0:0:0:
256,192,453221,1,0,0:0:0:0:
109,192,453221,1,0,0:0:0:0:
475,192,453309,1,0,0:0:0:0:
182,192,453309,1,0,0:0:0:0:
36,192,453309,1,0,0:0:0:0:
329,192,453309,1,0,0:0:0:0:
402,192,453397,1,0,0:0:0:0:
256,192,453397,1,0,0:0:0:0:
329,192,453485,1,0,0:0:0:0:
109,192,453485,1,0,0:0:0:0:
36,192,453574,1,0,0:0:0:0:
256,192,453574,1,0,0:0:0:0:
475,192,453662,1,0,0:0:0:0:
182,192,453662,1,0,0:0:0:0:
329,192,453662,1,0,0:0:0:0:
402,192,453662,1,0,0:0:0:0:
36,192,453750,1,0,0:0:0:0:
109,192,453750,1,0,0:0:0:0:
256,192,453838,1,0,0:0:0:0:
182,192,453838,1,0,0:0:0:0:
329,192,453927,1,0,0:0:0:0:
109,192,453927,1,0,0:0:0:0:
256,192,454015,1,0,0:0:0:0:
36,192,454015,1,0,0:0:0:0:
402,192,454015,1,0,0:0:0:0:
475,192,454015,1,0,0:0:0:0:
329,192,454103,1,0,0:0:0:0:
182,192,454103,1,0,0:0:0:0:
256,192,454191,1,0,0:0:0:0:
402,192,454191,1,0,0:0:0:0:
329,192,454280,1,0,0:0:0:0:
182,192,454280,1,0,0:0:0:0:
256,192,454368,1,0,0:0:0:0:
475,192,454368,1,0,0:0:0:0:
36,192,454368,1,0,0:0:0:0:
109,192,454368,1,0,0:0:0:0:
329,192,454456,1,0,0:0:0:0:
402,192,454456,1,0,0:0:0:0:
109,192,454544,1,0,0:0:0:0:
182,192,454544,1,0,0:0:0:0:
329,192,454633,1,0,0:0:0:0:
256,192,454633,1,0,0:0:0:0:
475,192,454721,1,0,0:0:0:0:
109,192,454721,1,0,0:0:0:0:
36,192,454721,1,0,0:0:0:0:
256,192,454809,1,0,0:0:0:0:
182,192,454809,1,0,0:0:0:0:
402,192,454897,1,0,0:0:0:0:
329,192,454897,1,0,0:0:0:0:
256,192,454985,1,0,0:0:0:0:
182,192,454985,1,0,0:0:0:0:
475,192,455074,1,0,0:0:0:0:
402,192,455074,1,0,0:0:0:0:
36,192,455074,1,0,0:0:0:0:
109,192,455074,1,0,0:0:0:0:
182,192,455162,1,0,0:0:0:0:
329,192,455162,1,0,0:0:0:0:
109,192,455250,1,0,0:0:0:0:
36,192,455250,1,0,0:0:0:0:
256,192,455250,1,0,0:0:0:0:
329,192,455338,1,0,0:0:0:0:
182,192,455338,1,0,0:0:0:0:
36,192,455427,1,0,0:0:0:0:
402,192,455427,1,0,0:0:0:0:
256,192,455427,1,0,0:0:0:0:
475,192,455427,1,0,0:0:0:0:
182,192,455515,1,0,0:0:0:0:
109,192,455515,1,0,0:0:0:0:
329,192,455603,1,0,0:0:0:0:
475,192,455603,1,0,0:0:0:0:
256,192,455603,1,0,0:0:0:0:
109,192,455691,1,0,0:0:0:0:
36,192,455691,1,0,0:0:0:0:
402,192,455780,1,0,0:0:0:0:
475,192,455780,1,0,0:0:0:0:
329,192,455780,1,0,0:0:0:0:
182,192,455780,1,0,0:0:0:0:
109,192,455868,1,0,0:0:0:0:
256,192,455868,1,0,0:0:0:0:
329,192,455956,1,0,0:0:0:0:
36,192,455956,1,0,0:0:0:0:
182,192,455956,1,0,0:0:0:0:
402,192,456044,1,0,0:0:0:0:
256,192,456044,1,0,0:0:0:0:
109,192,456133,1,0,0:0:0:0:
329,192,456133,1,0,0:0:0:0:
475,192,456133,1,0,0:0:0:0:
36,192,456133,1,0,0:0:0:0:
256,192,456221,1,0,0:0:0:0:
182,192,456221,1,0,0:0:0:0:
475,192,456309,1,0,0:0:0:0:
402,192,456309,1,0,0:0:0:0:
36,192,456309,1,0,0:0:0:0:
182,192,456397,1,0,0:0:0:0:
329,192,456397,1,0,0:0:0:0:
475,192,456485,1,0,0:0:0:0:
109,192,456485,1,0,0:0:0:0:
256,192,456485,1,0,0:0:0:0:
36,192,456485,1,0,0:0:0:0:
329,192,456574,1,0,0:0:0:0:
182,192,456574,1,0,0:0:0:0:
475,192,456662,1,0,0:0:0:0:
402,192,456662,1,0,0:0:0:0:
256,192,456662,1,0,0:0:0:0:
329,192,456750,1,0,0:0:0:0:
182,192,456750,1,0,0:0:0:0:
109,192,456838,1,0,0:0:0:0:
475,192,456838,1,0,0:0:0:0:
256,192,456838,1,0,0:0:0:0:
36,192,456838,1,0,0:0:0:0:
329,192,456927,1,0,0:0:0:0:
402,192,456927,1,0,0:0:0:0:
256,192,457015,1,0,0:0:0:0:
182,192,457015,1,0,0:0:0:0:
36,192,457015,1,0,0:0:0:0:
402,192,457103,1,0,0:0:0:0:
329,192,457103,1,0,0:0:0:0:
109,192,457191,1,0,0:0:0:0:
475,192,457191,1,0,0:0:0:0:
182,192,457191,1,0,0:0:0:0:
36,192,457191,1,0,0:0:0:0:
329,192,457280,1,0,0:0:0:0:
256,192,457280,1,0,0:0:0:0:
36,192,457368,1,0,0:0:0:0:
402,192,457368,1,0,0:0:0:0:
182,192,457368,1,0,0:0:0:0:
329,192,457456,1,0,0:0:0:0:
109,192,457456,1,0,0:0:0:0:
475,192,457544,1,0,0:0:0:0:
36,192,457544,1,0,0:0:0:0:
256,192,457544,1,0,0:0:0:0:
402,192,457544,1,0,0:0:0:0:
329,192,457633,1,0,0:0:0:0:
182,192,457633,1,0,0:0:0:0:
402,192,457721,1,0,0:0:0:0:
109,192,457721,1,0,0:0:0:0:
256,192,457721,1,0,0:0:0:0:
36,192,457809,1,0,0:0:0:0:
182,192,457809,1,0,0:0:0:0:
109,192,457897,1,0,0:0:0:0:
402,192,457897,1,0,0:0:0:0:
475,192,457897,1,0,0:0:0:0:
256,192,457897,1,0,0:0:0:0:
329,192,457897,1,0,0:0:0:0:
36,192,458074,1,0,0:0:0:0:
402,192,458074,1,0,0:0:0:0:
182,192,458074,1,0,0:0:0:0:
256,192,458074,1,0,0:0:0:0:
329,192,458250,1,0,0:0:0:0:
475,192,458250,1,0,0:0:0:0:
256,192,458250,1,0,0:0:0:0:
36,192,458250,1,0,0:0:0:0:
182,192,458250,1,0,0:0:0:0:
109,192,458427,1,0,0:0:0:0:
329,192,458427,1,0,0:0:0:0:
256,192,458427,1,0,0:0:0:0:
402,192,458427,1,0,0:0:0:0:
475,192,458603,1,0,0:0:0:0:
402,192,458603,1,0,0:0:0:0:
329,192,458603,1,0,0:0:0:0:
36,192,458603,1,0,0:0:0:0:
182,192,458603,1,0,0:0:0:0:
329,192,458780,1,0,0:0:0:0:
256,192,458780,1,0,0:0:0:0:
36,192,458780,1,0,0:0:0:0:
182,192,458780,1,0,0:0:0:0:
182,192,458956,1,0,0:0:0:0:
109,192,458956,1,0,0:0:0:0:
475,192,458956,1,0,0:0:0:0:
329,192,458956,1,0,0:0:0:0:
402,192,458956,1,0,0:0:0:0:
329,192,459133,1,0,0:0:0:0:
402,192,459133,1,0,0:0:0:0:
36,192,459133,1,0,0:0:0:0:
182,192,459133,1,0,0:0:0:0:
256,192,459309,1,0,0:0:0:0:
402,192,459309,1,0,0:0:0:0:
329,192,459309,1,0,0:0:0:0:
182,192,459397,1,0,0:0:0:0:
109,192,459397,1,0,0:0:0:0:
402,192,459485,1,0,0:0:0:0:
329,192,459485,1,0,0:0:0:0:
182,192,459574,1,0,0:0:0:0:
109,192,459574,1,0,0:0:0:0:
256,192,459662,1,0,0:0:0:0:
402,192,459662,1,0,0:0:0:0:
329,192,459662,1,0,0:0:0:0:
475,192,459838,1,0,0:0:0:0:
402,192,459838,1,0,0:0:0:0:
329,192,459838,1,0,0:0:0:0:
109,192,459927,1,0,0:0:0:0:
36,192,459927,1,0,0:0:0:0:
475,192,460015,1,0,0:0:0:0:
402,192,460015,1,0,0:0:0:0:
329,192,460015,1,0,0:0:0:0:
256,192,460059,1,0,0:0:0:0:
182,192,460103,1,0,0:0:0:0:
475,192,460191,1,0,0:0:0:0:
402,192,460191,1,0,0:0:0:0:
329,192,460191,1,0,0:0:0:0:
109,192,460280,1,0,0:0:0:0:
36,192,460280,1,0,0:0:0:0:
475,192,460368,1,0,0:0:0:0:
402,192,460368,1,0,0:0:0:0:
329,192,460368,1,0,0:0:0:0:
256,192,460412,1,0,0:0:0:0:
182,192,460456,1,0,0:0:0:0:
109,192,460500,1,0,0:0:0:0:
475,192,460544,1,0,0:0:0:0:
402,192,460544,1,0,0:0:0:0:
329,192,460544,1,0,0:0:0:0:
256,192,460588,1,0,0:0:0:0:
182,192,460633,1,0,0:0:0:0:
109,192,460677,1,0,0:0:0:0:
402,192,460721,1,0,0:0:0:0:
475,192,460721,1,0,0:0:0:0:
36,192,460721,1,0,0:0:0:0:
329,192,460721,1,0,0:0:0:0:
36,192,460897,1,0,0:0:0:0:
109,192,460897,1,0,0:0:0:0:
475,192,461074,1,0,0:0:0:0:
182,192,461074,1,0,0:0:0:0:
329,192,461074,1,0,0:0:0:0:
402,192,461074,1,0,0:0:0:0:
109,192,461250,1,0,0:0:0:0:
36,192,461250,1,0,0:0:0:0:
329,192,461338,1,0,0:0:0:0:
256,192,461338,1,0,0:0:0:0:
182,192,461338,1,0,0:0:0:0:
109,192,461603,1,0,0:0:0:0:
402,192,461603,1,0,0:0:0:0:
182,192,461603,1,0,0:0:0:0:
329,192,461603,1,0,0:0:0:0:
329,192,461780,1,0,0:0:0:0:
182,192,461780,1,0,0:0:0:0:
475,192,461780,1,0,0:0:0:0:
36,192,461780,1,0,0:0:0:0:
256,192,461780,1,0,0:0:0:0:
329,192,461956,1,0,0:0:0:0:
402,192,461956,1,0,0:0:0:0:
109,192,461956,1,0,0:0:0:0:
182,192,461956,1,0,0:0:0:0:
475,192,462133,1,0,0:0:0:0:
256,192,462133,1,0,0:0:0:0:
36,192,462133,1,0,0:0:0:0:
329,192,462221,1,0,0:0:0:0:
109,192,462221,1,0,0:0:0:0:
402,192,462309,1,0,0:0:0:0:
182,192,462309,1,0,0:0:0:0:
329,192,462397,1,0,0:0:0:0:
109,192,462397,1,0,0:0:0:0:
36,192,462485,1,0,0:0:0:0:
475,192,462485,1,0,0:0:0:0:
256,192,462485,1,0,0:0:0:0:
109,192,462662,1,0,0:0:0:0:
36,192,462662,1,0,0:0:0:0:
475,192,462750,1,0,0:0:0:0:
329,192,462750,1,0,0:0:0:0:
109,192,462927,1,0,0:0:0:0:
36,192,462927,1,0,0:0:0:0:
182,192,463015,1,0,0:0:0:0:
475,192,463015,1,0,0:0:0:0:
402,192,463015,1,0,0:0:0:0:
109,192,463103,1,0,0:0:0:0:
329,192,463103,1,0,0:0:0:0:
256,192,463191,1,0,0:0:0:0:
475,192,463191,1,0,0:0:0:0:
36,192,463191,1,0,0:0:0:0:
182,192,463280,1,0,0:0:0:0:
402,192,463280,1,0,0:0:0:0:
36,192,463368,1,0,0:0:0:0:
109,192,463368,1,0,0:0:0:0:
329,192,463368,1,0,0:0:0:0:
475,192,463544,1,0,0:0:0:0:
256,192,463544,1,0,0:0:0:0:
109,192,463544,1,0,0:0:0:0:
329,192,463633,1,0,0:0:0:0:
182,192,463633,1,0,0:0:0:0:
402,192,463721,1,0,0:0:0:0:
256,192,463721,1,0,0:0:0:0:
329,192,463809,1,0,0:0:0:0:
182,192,463809,1,0,0:0:0:0:
109,192,463897,1,0,0:0:0:0:
402,192,463897,1,0,0:0:0:0:
256,192,463897,1,0,0:0:0:0:
182,192,464074,1,0,0:0:0:0:
36,192,464074,1,0,0:0:0:0:
475,192,464162,1,0,0:0:0:0:
329,192,464162,1,0,0:0:0:0:
256,192,464338,1,0,0:0:0:0:
109,192,464338,1,0,0:0:0:0:
475,192,464427,1,0,0:0:0:0:
402,192,464427,1,0,0:0:0:0:
329,192,464427,1,0,0:0:0:0:
182,192,464515,1,0,0:0:0:0:
36,192,464515,1,0,0:0:0:0:
109,192,464603,1,0,0:0:0:0:
475,192,464603,1,0,0:0:0:0:
329,192,464603,1,0,0:0:0:0:
402,192,464691,1,0,0:0:0:0:
256,192,464691,1,0,0:0:0:0:
36,192,464780,1,0,0:0:0:0:
329,192,464780,1,0,0:0:0:0:
182,192,464780,1,0,0:0:0:0:
256,192,464868,1,0,0:0:0:0:
109,192,464868,1,0,0:0:0:0:
475,192,464956,1,0,0:0:0:0:
182,192,464956,1,0,0:0:0:0:
329,192,464956,1,0,0:0:0:0:
402,192,465044,1,0,0:0:0:0:
36,192,465044,1,0,0:0:0:0:
329,192,465132,1,0,0:0:0:0:
109,192,465132,1,0,0:0:0:0:
182,192,465221,1,0,0:0:0:0:
402,192,465221,1,0,0:0:0:0:
36,192,465309,1,0,0:0:0:0:
256,192,465309,1,0,0:0:0:0:
475,192,465309,1,0,0:0:0:0:
329,192,465485,1,0,0:0:0:0:
182,192,465485,1,0,0:0:0:0:
36,192,465485,1,0,0:0:0:0:
402,192,465574,1,0,0:0:0:0:
475,192,465574,1,0,0:0:0:0:
256,192,465750,1,0,0:0:0:0:
109,192,465750,1,0,0:0:0:0:
182,192,465838,1,0,0:0:0:0:
475,192,465838,1,0,0:0:0:0:
329,192,465838,1,0,0:0:0:0:
109,192,465927,1,0,0:0:0:0:
402,192,465927,1,0,0:0:0:0:
256,192,466015,1,0,0:0:0:0:
36,192,466015,1,0,0:0:0:0:
475,192,466015,1,0,0:0:0:0:
402,192,466103,1,0,0:0:0:0:
109,192,466103,1,0,0:0:0:0:
182,192,466191,1,0,0:0:0:0:
329,192,466191,1,0,0:0:0:0:
36,192,466191,1,0,0:0:0:0:
402,192,466280,1,0,0:0:0:0:
256,192,466280,1,0,0:0:0:0:
109,192,466368,1,0,0:0:0:0:
329,192,466368,1,0,0:0:0:0:
475,192,466368,1,0,0:0:0:0:
182,192,466456,1,0,0:0:0:0:
36,192,466456,1,0,0:0:0:0:
402,192,466544,1,0,0:0:0:0:
256,192,466544,1,0,0:0:0:0:
109,192,466632,1,0,0:0:0:0:
182,192,466632,1,0,0:0:0:0:
475,192,466721,1,0,0:0:0:0:
402,192,466721,1,0,0:0:0:0:
329,192,466721,1,0,0:0:0:0:
182,192,466897,1,0,0:0:0:0:
109,192,466897,1,0,0:0:0:0:
402,192,466985,1,0,0:0:0:0:
329,192,466985,1,0,0:0:0:0:
109,192,467162,1,0,0:0:0:0:
182,192,467162,1,0,0:0:0:0:
475,192,467250,1,0,0:0:0:0:
402,192,467250,1,0,0:0:0:0:
329,192,467250,1,0,0:0:0:0:
182,192,467338,1,0,0:0:0:0:
109,192,467338,1,0,0:0:0:0:
475,192,467427,1,0,0:0:0:0:
329,192,467427,1,0,0:0:0:0:
256,192,467427,1,0,0:0:0:0:
402,192,467515,1,0,0:0:0:0:
109,192,467603,1,0,0:0:0:0:
182,192,467603,1,0,0:0:0:0:
329,192,467603,1,0,0:0:0:0:
402,192,467691,1,0,0:0:0:0:
256,192,467691,1,0,0:0:0:0:
182,192,467780,1,0,0:0:0:0:
36,192,467780,1,0,0:0:0:0:
475,192,467780,1,0,0:0:0:0:
256,192,467868,1,0,0:0:0:0:
109,192,467868,1,0,0:0:0:0:
329,192,467956,1,0,0:0:0:0:
182,192,467956,1,0,0:0:0:0:
256,192,468044,1,0,0:0:0:0:
109,192,468044,1,0,0:0:0:0:
475,192,468132,1,0,0:0:0:0:
329,192,468132,1,0,0:0:0:0:
36,192,468132,1,0,0:0:0:0:
182,192,468309,1,0,0:0:0:0:
109,192,468309,1,0,0:0:0:0:
402,192,468397,1,0,0:0:0:0:
329,192,468397,1,0,0:0:0:0:
182,192,468485,1,0,0:0:0:0:
109,192,468485,1,0,0:0:0:0:
36,192,468485,1,0,0:0:0:0:
329,192,468574,1,0,0:0:0:0:
475,192,468574,1,0,0:0:0:0:
182,192,468662,1,0,0:0:0:0:
36,192,468662,1,0,0:0:0:0:
475,192,468750,1,0,0:0:0:0:
329,192,468750,1,0,0:0:0:0:
256,192,468838,1,0,0:0:0:0:
402,192,468838,1,0,0:0:0:0:
36,192,468838,1,0,0:0:0:0:
109,192,468838,1,0,0:0:0:0:
329,192,468927,1,0,0:0:0:0:
182,192,468927,1,0,0:0:0:0:
256,192,469015,1,0,0:0:0:0:
109,192,469015,1,0,0:0:0:0:
402,192,469015,1,0,0:0:0:0:
475,192,469015,1,0,0:0:0:0:
182,192,469103,1,0,0:0:0:0:
36,192,469103,1,0,0:0:0:0:
256,192,469191,1,0,0:0:0:0:
475,192,469191,1,0,0:0:0:0:
109,192,469191,1,0,0:0:0:0:
329,192,469191,1,0,0:0:0:0:
402,192,469280,1,0,0:0:0:0:
182,192,469280,1,0,0:0:0:0:
475,192,469368,1,0,0:0:0:0:
256,192,469368,1,0,0:0:0:0:
402,192,469456,1,0,0:0:0:0:
182,192,469456,1,0,0:0:0:0:
329,192,469544,1,0,0:0:0:0:
475,192,469544,1,0,0:0:0:0:
36,192,469544,1,0,0:0:0:0:
109,192,469544,1,0,0:0:0:0:
329,192,469721,1,0,0:0:0:0:
36,192,469721,1,0,0:0:0:0:
182,192,469809,1,0,0:0:0:0:
402,192,469809,1,0,0:0:0:0:
256,192,469897,1,0,0:0:0:0:
109,192,469897,1,0,0:0:0:0:
36,192,469897,1,0,0:0:0:0:
475,192,469897,1,0,0:0:0:0:
182,192,469985,1,0,0:0:0:0:
402,192,469985,1,0,0:0:0:0:
109,192,470074,1,0,0:0:0:0:
329,192,470074,1,0,0:0:0:0:
36,192,470162,1,0,0:0:0:0:
256,192,470162,1,0,0:0:0:0:
402,192,470250,1,0,0:0:0:0:
475,192,470250,1,0,0:0:0:0:
109,192,470250,1,0,0:0:0:0:
182,192,470250,1,0,0:0:0:0:
36,192,470338,1,0,0:0:0:0:
329,192,470338,1,0,0:0:0:0:
402,192,470427,1,0,0:0:0:0:
475,192,470427,1,0,0:0:0:0:
109,192,470427,1,0,0:0:0:0:
182,192,470427,1,0,0:0:0:0:
329,192,470515,1,0,0:0:0:0:
256,192,470515,1,0,0:0:0:0:
402,192,470603,1,0,0:0:0:0:
475,192,470603,1,0,0:0:0:0:
36,192,470603,1,0,0:0:0:0:
182,192,470603,1,0,0:0:0:0:
256,192,470691,1,0,0:0:0:0:
109,192,470691,1,0,0:0:0:0:
329,192,470780,1,0,0:0:0:0:
182,192,470780,1,0,0:0:0:0:
402,192,470868,1,0,0:0:0:0:
256,192,470868,1,0,0:0:0:0:
182,192,470956,1,0,0:0:0:0:
36,192,470956,1,0,0:0:0:0:
475,192,470956,1,0,0:0:0:0:
329,192,470956,1,0,0:0:0:0:
256,192,471132,1,0,0:0:0:0:
109,192,471132,1,0,0:0:0:0:
475,192,471221,1,0,0:0:0:0:
329,192,471221,1,0,0:0:0:0:
402,192,471309,1,0,0:0:0:0:
109,192,471309,1,0,0:0:0:0:
36,192,471309,1,0,0:0:0:0:
182,192,471309,1,0,0:0:0:0:
329,192,471397,1,0,0:0:0:0:
256,192,471397,1,0,0:0:0:0:
475,192,471485,1,0,0:0:0:0:
402,192,471485,1,0,0:0:0:0:
256,192,471574,1,0,0:0:0:0:
182,192,471574,1,0,0:0:0:0:
402,192,471662,1,0,0:0:0:0:
475,192,471662,1,0,0:0:0:0:
36,192,471662,1,0,0:0:0:0:
109,192,471662,1,0,0:0:0:0:
256,192,471750,1,0,0:0:0:0:
402,192,471838,1,0,0:0:0:0:
109,192,471838,1,0,0:0:0:0:
256,192,471927,1,0,0:0:0:0:
329,192,472015,1,0,0:0:0:0:
475,192,472015,1,0,0:0:0:0:
36,192,472015,1,0,0:0:0:0:
182,192,472015,1,0,0:0:0:0:
256,192,472103,1,0,0:0:0:0:
109,192,472103,1,0,0:0:0:0:
182,192,472191,1,0,0:0:0:0:
329,192,472191,1,0,0:0:0:0:
402,192,472280,1,0,0:0:0:0:
109,192,472280,1,0,0:0:0:0:
256,192,472368,1,0,0:0:0:0:
36,192,472368,1,0,0:0:0:0:
475,192,472368,1,0,0:0:0:0:
182,192,472544,1,0,0:0:0:0:
109,192,472544,1,0,0:0:0:0:
402,192,472632,1,0,0:0:0:0:
329,192,472632,1,0,0:0:0:0:
182,192,472809,1,0,0:0:0:0:
109,192,472809,1,0,0:0:0:0:
475,192,472897,1,0,0:0:0:0:
402,192,472897,1,0,0:0:0:0:
329,192,472897,1,0,0:0:0:0:
182,192,472985,1,0,0:0:0:0:
109,192,472985,1,0,0:0:0:0:
475,192,473074,1,0,0:0:0:0:
402,192,473074,1,0,0:0:0:0:
256,192,473074,1,0,0:0:0:0:
329,192,473162,1,0,0:0:0:0:
36,192,473250,1,0,0:0:0:0:
109,192,473250,1,0,0:0:0:0:
256,192,473250,1,0,0:0:0:0:
182,192,473338,1,0,0:0:0:0:
475,192,473427,1,0,0:0:0:0:
329,192,473427,1,0,0:0:0:0:
402,192,473427,1,0,0:0:0:0:
256,192,473603,1,0,0:0:0:0:
36,192,473603,1,0,0:0:0:0:
329,192,473780,1,0,0:0:0:0:
109,192,473780,1,0,0:0:0:0:
402,192,473956,1,0,0:0:0:0:
182,192,473956,1,0,0:0:0:0:
256,192,474309,1,0,0:0:0:0:
182,192,474309,1,0,0:0:0:0:
402,192,474309,1,0,0:0:0:0:
109,192,474662,1,0,0:0:0:0:
182,192,474662,1,0,0:0:0:0:
329,192,474662,1,0,0:0:0:0:
402,192,474838,1,0,0:0:0:0:
182,192,474838,1,0,0:0:0:0:
256,192,474838,1,0,0:0:0:0:
109,192,475015,1,0,0:0:0:0:
329,192,475368,1,0,0:0:0:0:
475,192,475721,1,0,0:0:0:0:
36,192,475721,1,0,0:0:0:0:
475,192,476074,1,0,0:0:0:0:
36,192,476074,1,0,0:0:0:0:
36,192,476250,1,0,0:0:0:0:
475,192,476250,1,0,0:0:0:0:
256,192,476250,1,0,0:0:0:0:
256,192,476427,1,0,0:0:0:0:
36,192,476427,1,0,0:0:0:0:
109,192,476603,1,0,0:0:0:0:
329,192,476603,1,0,0:0:0:0:
182,192,476780,1,0,0:0:0:0:
402,192,476780,1,0,0:0:0:0:
109,192,477132,1,0,0:0:0:0:
36,192,477132,1,0,0:0:0:0:
256,192,477485,1,0,0:0:0:0:
109,192,477485,1,0,0:0:0:0:
36,192,477485,1,0,0:0:0:0:
36,192,477662,1,0,0:0:0:0:
109,192,477662,1,0,0:0:0:0:
182,192,477838,1,0,0:0:0:0:
256,192,478191,1,0,0:0:0:0:
402,192,478544,1,0,0:0:0:0:
329,192,478544,1,0,0:0:0:0:
402,192,478897,1,0,0:0:0:0:
329,192,478897,1,0,0:0:0:0:
109,192,479074,1,0,0:0:0:0:
402,192,479074,1,0,0:0:0:0:
329,192,479074,1,0,0:0:0:0:
109,192,479250,1,0,0:0:0:0:
256,192,479250,1,0,0:0:0:0:
182,192,479427,1,0,0:0:0:0:
329,192,479427,1,0,0:0:0:0:
256,192,479603,1,0,0:0:0:0:
402,192,479603,1,0,0:0:0:0:
36,192,479956,1,0,0:0:0:0:
256,192,479956,1,0,0:0:0:0:
182,192,479956,1,0,0:0:0:0:
256,192,480309,1,0,0:0:0:0:
109,192,480309,1,0,0:0:0:0:
182,192,480309,1,0,0:0:0:0:
475,192,480485,1,0,0:0:0:0:
402,192,480485,1,0,0:0:0:0:
182,192,480662,1,0,0:0:0:0:
402,192,480838,1,0,0:0:0:0:
256,192,481015,1,0,0:0:0:0:
402,192,481103,1,0,0:0:0:0:
402,192,481280,1,0,0:0:0:0:
256,192,481368,1,0,0:0:0:0:
109,192,481368,1,0,0:0:0:0:
36,192,481368,1,0,0:0:0:0:
402,192,481544,1,0,0:0:0:0:
109,192,481721,1,0,0:0:0:0:
182,192,481809,1,0,0:0:0:0:
329,192,481897,1,0,0:0:0:0:
109,192,481897,1,0,0:0:0:0:
402,192,481897,1,0,0:0:0:0:
182,192,482074,1,0,0:0:0:0:
36,192,482250,1,0,0:0:0:0:
475,192,482250,1,0,0:0:0:0:
256,192,482250,1,0,0:0:0:0:
329,192,482427,1,0,0:0:0:0:
402,192,482603,1,0,0:0:0:0:
182,192,482603,1,0,0:0:0:0:
36,192,482603,1,0,0:0:0:0:
256,192,482780,1,0,0:0:0:0:
475,192,482956,1,0,0:0:0:0:
329,192,482956,1,0,0:0:0:0:
109,192,482956,1,0,0:0:0:0:
402,192,483132,1,0,0:0:0:0:
182,192,483309,1,0,0:0:0:0:
109,192,483309,1,0,0:0:0:0:
329,192,483397,1,0,0:0:0:0:
475,192,483485,1,0,0:0:0:0:
329,192,483574,1,0,0:0:0:0:
36,192,483662,1,0,0:0:0:0:
109,192,483662,1,0,0:0:0:0:
256,192,483750,1,0,0:0:0:0:
402,192,483838,1,0,0:0:0:0:
256,192,483927,1,0,0:0:0:0:
475,192,484015,1,0,0:0:0:0:
36,192,484015,1,0,0:0:0:0:
182,192,484103,1,0,0:0:0:0:
329,192,484191,1,0,0:0:0:0:
182,192,484280,1,0,0:0:0:0:
402,192,484368,1,0,0:0:0:0:
475,192,484368,1,0,0:0:0:0:
109,192,484456,1,0,0:0:0:0:
329,192,484544,1,0,0:0:0:0:
182,192,484632,1,0,0:0:0:0:
256,192,484721,1,0,0:0:0:0:
402,192,484721,1,0,0:0:0:0:
36,192,484721,1,0,0:0:0:0:
475,192,484721,1,0,0:0:0:0:
329,192,484809,1,0,0:0:0:0:
109,192,484809,1,0,0:0:0:0:
182,192,484897,1,0,0:0:0:0:
475,192,484897,1,0,0:0:0:0:
402,192,484897,1,0,0:0:0:0:
36,192,484985,1,0,0:0:0:0:
256,192,484985,1,0,0:0:0:0:
475,192,485074,1,0,0:0:0:0:
402,192,485074,1,0,0:0:0:0:
182,192,485074,1,0,0:0:0:0:
329,192,485074,1,0,0:0:0:0:
256,192,485162,1,0,0:0:0:0:
109,192,485162,1,0,0:0:0:0:
182,192,485250,1,0,0:0:0:0:
402,192,485250,1,0,0:0:0:0:
329,192,485250,1,0,0:0:0:0:
256,192,485338,1,0,0:0:0:0:
109,192,485338,1,0,0:0:0:0:
475,192,485427,1,0,0:0:0:0:
182,192,485427,1,0,0:0:0:0:
329,192,485427,1,0,0:0:0:0:
402,192,485427,1,0,0:0:0:0:
256,192,485515,1,0,0:0:0:0:
36,192,485515,1,0,0:0:0:0:
475,192,485603,1,0,0:0:0:0:
329,192,485603,1,0,0:0:0:0:
109,192,485603,1,0,0:0:0:0:
402,192,485691,1,0,0:0:0:0:
182,192,485691,1,0,0:0:0:0:
109,192,485780,1,0,0:0:0:0:
475,192,485780,1,0,0:0:0:0:
256,192,485780,1,0,0:0:0:0:
36,192,485780,1,0,0:0:0:0:
182,192,485868,1,0,0:0:0:0:
329,192,485868,1,0,0:0:0:0:
256,192,485956,1,0,0:0:0:0:
36,192,485956,1,0,0:0:0:0:
109,192,485956,1,0,0:0:0:0:
402,192,486044,1,0,0:0:0:0:
329,192,486044,1,0,0:0:0:0:
36,192,486132,1,0,0:0:0:0:
475,192,486132,1,0,0:0:0:0:
182,192,486132,1,0,0:0:0:0:
109,192,486132,1,0,0:0:0:0:
329,192,486221,1,0,0:0:0:0:
475,192,486309,1,0,0:0:0:0:
109,192,486309,1,0,0:0:0:0:
256,192,486309,1,0,0:0:0:0:
182,192,486397,1,0,0:0:0:0:
329,192,486397,1,0,0:0:0:0:
402,192,486485,1,0,0:0:0:0:
475,192,486485,1,0,0:0:0:0:
36,192,486485,1,0,0:0:0:0:
256,192,486485,1,0,0:0:0:0:
256,192,486574,1,0,0:0:0:0:
109,192,486574,1,0,0:0:0:0:
402,192,486662,1,0,0:0:0:0:
329,192,486662,1,0,0:0:0:0:
182,192,486662,1,0,0:0:0:0:
109,192,486750,1,0,0:0:0:0:
256,192,486750,1,0,0:0:0:0:
402,192,486838,1,0,0:0:0:0:
475,192,486838,1,0,0:0:0:0:
329,192,486838,1,0,0:0:0:0:
182,192,486838,1,0,0:0:0:0:
36,192,486838,1,0,0:0:0:0:
256,192,487544,1,0,0:0:0:0:
109,192,487544,1,0,0:0:0:0:
475,192,487544,1,0,0:0:0:0:
36,192,487544,1,0,0:0:0:0:
182,192,487632,1,0,0:0:0:0:
402,192,487632,1,0,0:0:0:0:
36,192,487721,1,0,0:0:0:0:
109,192,487721,1,0,0:0:0:0:
329,192,487721,1,0,0:0:0:0:
475,192,487809,1,0,0:0:0:0:
256,192,487809,1,0,0:0:0:0:
36,192,487897,1,0,0:0:0:0:
109,192,487897,1,0,0:0:0:0:
329,192,487897,1,0,0:0:0:0:
182,192,487897,1,0,0:0:0:0:
256,192,487985,1,0,0:0:0:0:
402,192,487985,1,0,0:0:0:0:
329,192,488074,1,0,0:0:0:0:
109,192,488074,1,0,0:0:0:0:
182,192,488074,1,0,0:0:0:0:
256,192,488162,1,0,0:0:0:0:
402,192,488162,1,0,0:0:0:0:
36,192,488250,1,0,0:0:0:0:
329,192,488250,1,0,0:0:0:0:
475,192,488250,1,0,0:0:0:0:
109,192,488250,1,0,0:0:0:0:
402,192,488338,1,0,0:0:0:0:
182,192,488338,1,0,0:0:0:0:
475,192,488427,1,0,0:0:0:0:
109,192,488427,1,0,0:0:0:0:
256,192,488427,1,0,0:0:0:0:
182,192,488515,1,0,0:0:0:0:
329,192,488515,1,0,0:0:0:0:
402,192,488603,1,0,0:0:0:0:
36,192,488603,1,0,0:0:0:0:
256,192,488603,1,0,0:0:0:0:
475,192,488603,1,0,0:0:0:0:
329,192,488691,1,0,0:0:0:0:
182,192,488691,1,0,0:0:0:0:
256,192,488780,1,0,0:0:0:0:
475,192,488780,1,0,0:0:0:0:
402,192,488780,1,0,0:0:0:0:
109,192,488868,1,0,0:0:0:0:
182,192,488868,1,0,0:0:0:0:
36,192,488956,1,0,0:0:0:0:
329,192,488956,1,0,0:0:0:0:
402,192,488956,1,0,0:0:0:0:
475,192,488956,1,0,0:0:0:0:
256,192,489044,1,0,0:0:0:0:
109,192,489044,1,0,0:0:0:0:
329,192,489132,1,0,0:0:0:0:
182,192,489132,1,0,0:0:0:0:
402,192,489221,1,0,0:0:0:0:
256,192,489221,1,0,0:0:0:0:
109,192,489309,1,0,0:0:0:0:
36,192,489309,1,0,0:0:0:0:
475,192,489309,1,0,0:0:0:0:
329,192,489309,1,0,0:0:0:0:
475,192,489397,1,0,0:0:0:0:
182,192,489397,1,0,0:0:0:0:
109,192,489485,1,0,0:0:0:0:
256,192,489485,1,0,0:0:0:0:
329,192,489485,1,0,0:0:0:0:
402,192,489574,1,0,0:0:0:0:
182,192,489574,1,0,0:0:0:0:
109,192,489662,1,0,0:0:0:0:
36,192,489662,1,0,0:0:0:0:
256,192,489662,1,0,0:0:0:0:
329,192,489662,1,0,0:0:0:0:
475,192,489662,1,0,0:0:0:0:
36,192,490015,1,0,0:0:0:0:
182,192,490015,1,0,0:0:0:0:
329,192,490015,1,0,0:0:0:0:
182,192,490191,1,0,0:0:0:0:
36,192,490191,1,0,0:0:0:0:
36,192,490368,1,0,0:0:0:0:
475,192,490368,1,0,0:0:0:0:
182,192,490368,1,0,0:0:0:0:
402,192,490368,1,0,0:0:0:0:
256,192,490456,1,0,0:0:0:0:
329,192,490456,1,0,0:0:0:0:
402,192,490544,1,0,0:0:0:0:
109,192,490544,1,0,0:0:0:0:
182,192,490544,1,0,0:0:0:0:
329,192,490632,1,0,0:0:0:0:
256,192,490632,1,0,0:0:0:0:
36,192,490721,1,0,0:0:0:0:
402,192,490721,1,0,0:0:0:0:
475,192,490721,1,0,0:0:0:0:
182,192,490721,1,0,0:0:0:0:
109,192,490809,1,0,0:0:0:0:
256,192,490809,1,0,0:0:0:0:
329,192,490897,1,0,0:0:0:0:
402,192,490897,1,0,0:0:0:0:
182,192,490897,1,0,0:0:0:0:
109,192,490985,1,0,0:0:0:0:
256,192,490985,1,0,0:0:0:0:
475,192,491074,1,0,0:0:0:0:
402,192,491074,1,0,0:0:0:0:
36,192,491074,1,0,0:0:0:0:
182,192,491074,1,0,0:0:0:0:
256,192,491162,1,0,0:0:0:0:
329,192,491162,1,0,0:0:0:0:
109,192,491250,1,0,0:0:0:0:
182,192,491250,1,0,0:0:0:0:
402,192,491250,1,0,0:0:0:0:
256,192,491338,1,0,0:0:0:0:
329,192,491338,1,0,0:0:0:0:
402,192,491427,1,0,0:0:0:0:
36,192,491427,1,0,0:0:0:0:
109,192,491427,1,0,0:0:0:0:
475,192,491427,1,0,0:0:0:0:
256,192,491515,1,0,0:0:0:0:
182,192,491515,1,0,0:0:0:0:
109,192,491603,1,0,0:0:0:0:
402,192,491603,1,0,0:0:0:0:
36,192,491603,1,0,0:0:0:0:
329,192,491691,1,0,0:0:0:0:
256,192,491691,1,0,0:0:0:0:
182,192,491780,1,0,0:0:0:0:
109,192,491780,1,0,0:0:0:0:
36,192,491780,1,0,0:0:0:0:
475,192,491780,1,0,0:0:0:0:
256,192,491868,1,0,0:0:0:0:
402,192,491868,1,0,0:0:0:0:
329,192,491956,1,0,0:0:0:0:
109,192,491956,1,0,0:0:0:0:
402,192,492044,1,0,0:0:0:0:
182,192,492044,1,0,0:0:0:0:
36,192,492132,1,0,0:0:0:0:
256,192,492132,1,0,0:0:0:0:
109,192,492132,1,0,0:0:0:0:
475,192,492132,1,0,0:0:0:0:
109,192,492221,1,0,0:0:0:0:
329,192,492221,1,0,0:0:0:0:
182,192,492309,1,0,0:0:0:0:
256,192,492309,1,0,0:0:0:0:
402,192,492309,1,0,0:0:0:0:
36,192,492397,1,0,0:0:0:0:
329,192,492397,1,0,0:0:0:0:
109,192,492485,1,0,0:0:0:0:
182,192,492485,1,0,0:0:0:0:
256,192,492485,1,0,0:0:0:0:
402,192,492485,1,0,0:0:0:0:
475,192,492485,1,0,0:0:0:0:
402,192,492838,1,0,0:0:0:0:
402,192,493015,1,0,0:0:0:0:
109,192,493015,1,0,0:0:0:0:
256,192,493015,1,0,0:0:0:0:
256,192,493191,1,0,0:0:0:0:
402,192,493191,1,0,0:0:0:0:
36,192,493191,1,0,0:0:0:0:
109,192,493191,1,0,0:0:0:0:
329,192,493280,1,0,0:0:0:0:
182,192,493280,1,0,0:0:0:0:
475,192,493368,1,0,0:0:0:0:
402,192,493368,1,0,0:0:0:0:
256,192,493368,1,0,0:0:0:0:
36,192,493456,1,0,0:0:0:0:
109,192,493456,1,0,0:0:0:0:
475,192,493544,1,0,0:0:0:0:
256,192,493544,1,0,0:0:0:0:
182,192,493544,1,0,0:0:0:0:
329,192,493544,1,0,0:0:0:0:
36,192,493632,1,0,0:0:0:0:
109,192,493632,1,0,0:0:0:0:
475,192,493721,1,0,0:0:0:0:
402,192,493721,1,0,0:0:0:0:
256,192,493721,1,0,0:0:0:0:
329,192,493809,1,0,0:0:0:0:
182,192,493809,1,0,0:0:0:0:
475,192,493897,1,0,0:0:0:0:
256,192,493897,1,0,0:0:0:0:
109,192,493897,1,0,0:0:0:0:
402,192,493897,1,0,0:0:0:0:
182,192,493985,1,0,0:0:0:0:
36,192,493985,1,0,0:0:0:0:
402,192,494074,1,0,0:0:0:0:
256,192,494074,1,0,0:0:0:0:
109,192,494074,1,0,0:0:0:0:
329,192,494162,1,0,0:0:0:0:
182,192,494162,1,0,0:0:0:0:
475,192,494250,1,0,0:0:0:0:
402,192,494250,1,0,0:0:0:0:
109,192,494250,1,0,0:0:0:0:
256,192,494250,1,0,0:0:0:0:
36,192,494250,1,0,0:0:0:0:
182,192,494338,1,0,0:0:0:0:
329,192,494338,1,0,0:0:0:0:
256,192,494427,1,0,0:0:0:0:
36,192,494427,1,0,0:0:0:0:
402,192,494427,1,0,0:0:0:0:
475,192,494515,1,0,0:0:0:0:
329,192,494515,1,0,0:0:0:0:
36,192,494603,1,0,0:0:0:0:
402,192,494603,1,0,0:0:0:0:
256,192,494603,1,0,0:0:0:0:
109,192,494603,1,0,0:0:0:0:
182,192,494691,1,0,0:0:0:0:
329,192,494780,1,0,0:0:0:0:
402,192,494780,1,0,0:0:0:0:
182,192,494868,1,0,0:0:0:0:
109,192,494868,1,0,0:0:0:0:
402,192,494956,1,0,0:0:0:0:
475,192,494956,1,0,0:0:0:0:
36,192,494956,1,0,0:0:0:0:
256,192,494956,1,0,0:0:0:0:
182,192,495044,1,0,0:0:0:0:
402,192,495132,1,0,0:0:0:0:
329,192,495132,1,0,0:0:0:0:
109,192,495132,1,0,0:0:0:0:
182,192,495221,1,0,0:0:0:0:
256,192,495221,1,0,0:0:0:0:
402,192,495309,1,0,0:0:0:0:
475,192,495309,1,0,0:0:0:0:
329,192,495309,1,0,0:0:0:0:
109,192,495309,1,0,0:0:0:0:
36,192,495309,1,0,0:0:0:0:
256,192,495397,1,0,0:0:0:0:
182,192,495397,1,0,0:0:0:0:
36,192,495485,1,0,0:0:0:0:
109,192,495485,1,0,0:0:0:0:
402,192,495485,1,0,0:0:0:0:
475,192,495485,1,0,0:0:0:0:
329,192,495574,1,0,0:0:0:0:
256,192,495574,1,0,0:0:0:0:
475,192,495662,1,0,0:0:0:0:
402,192,495662,1,0,0:0:0:0:
182,192,495662,1,0,0:0:0:0:
109,192,495662,1,0,0:0:0:0:
36,192,495662,1,0,0:0:0:0:
402,192,495838,1,0,0:0:0:0:
329,192,495838,1,0,0:0:0:0:
256,192,496015,1,0,0:0:0:0:
329,192,496015,1,0,0:0:0:0:
475,192,496015,1,0,0:0:0:0:
36,192,496015,1,0,0:0:0:0:
182,192,496015,1,0,0:0:0:0:
256,192,496191,1,0,0:0:0:0:
329,192,496368,1,0,0:0:0:0:
402,192,496544,1,0,0:0:0:0:
475,192,496721,1,0,0:0:0:0:
182,192,496897,1,0,0:0:0:0:
329,192,497074,1,0,0:0:0:0:
109,192,497250,1,0,0:0:0:0:
36,192,497250,1,0,0:0:0:0:
402,192,497250,1,0,0:0:0:0:
475,192,497427,1,0,0:0:0:0:
109,192,497427,1,0,0:0:0:0:
36,192,497427,1,0,0:0:0:0:
182,192,497603,1,0,0:0:0:0:
256,192,497780,1,0,0:0:0:0:
329,192,497956,1,0,0:0:0:0:
402,192,498132,1,0,0:0:0:0:
329,192,498309,1,0,0:0:0:0:
256,192,498485,1,0,0:0:0:0:
182,192,498662,1,0,0:0:0:0:
475,192,498838,1,0,0:0:0:0:
109,192,498838,1,0,0:0:0:0:
36,192,498838,1,0,0:0:0:0:
256,192,499015,1,0,0:0:0:0:
402,192,499191,1,0,0:0:0:0:
182,192,499368,1,0,0:0:0:0:
36,192,499544,1,0,0:0:0:0:
329,192,499544,1,0,0:0:0:0:
109,192,499721,1,0,0:0:0:0:
256,192,499897,1,0,0:0:0:0:
402,192,500074,1,0,0:0:0:0:
109,192,500074,1,0,0:0:0:0:
36,192,500074,1,0,0:0:0:0:
36,192,500250,1,0,0:0:0:0:
182,192,500250,1,0,0:0:0:0:
475,192,500250,1,0,0:0:0:0:
329,192,500427,1,0,0:0:0:0:
402,192,500603,1,0,0:0:0:0:
109,192,500780,1,0,0:0:0:0:
256,192,500780,1,0,0:0:0:0:
36,192,500780,1,0,0:0:0:0:
329,192,500956,1,0,0:0:0:0:
109,192,501132,1,0,0:0:0:0:
36,192,501132,1,0,0:0:0:0:
402,192,501132,1,0,0:0:0:0:
475,192,501309,1,0,0:0:0:0:
109,192,501485,1,0,0:0:0:0:
36,192,501485,1,0,0:0:0:0:
329,192,501485,1,0,0:0:0:0:
109,192,501662,1,0,0:0:0:0:
36,192,501662,1,0,0:0:0:0:
402,192,501662,1,0,0:0:0:0:
182,192,501838,1,0,0:0:0:0:
256,192,502015,1,0,0:0:0:0:
109,192,502191,1,0,0:0:0:0:
36,192,502191,1,0,0:0:0:0:
329,192,502191,1,0,0:0:0:0:
256,192,502368,1,0,0:0:0:0:
182,192,502368,1,0,0:0:0:0:
475,192,502368,1,0,0:0:0:0:
109,192,502544,1,0,0:0:0:0:
36,192,502544,1,0,0:0:0:0:
402,192,502544,1,0,0:0:0:0:
329,192,502721,1,0,0:0:0:0:
109,192,502897,1,0,0:0:0:0:
36,192,502897,1,0,0:0:0:0:
182,192,502897,1,0,0:0:0:0:
36,192,503074,1,0,0:0:0:0:
109,192,503074,1,0,0:0:0:0:
402,192,503074,1,0,0:0:0:0:
182,192,503250,1,0,0:0:0:0:
256,192,503427,1,0,0:0:0:0:
109,192,503603,1,0,0:0:0:0:
36,192,503603,1,0,0:0:0:0:
329,192,503603,1,0,0:0:0:0:
256,192,503780,1,0,0:0:0:0:
182,192,503780,1,0,0:0:0:0:
402,192,503780,1,0,0:0:0:0:
109,192,503956,1,0,0:0:0:0:
36,192,503956,1,0,0:0:0:0:
329,192,503956,1,0,0:0:0:0:
475,192,504132,1,0,0:0:0:0:
109,192,504309,1,0,0:0:0:0:
36,192,504309,1,0,0:0:0:0:
182,192,504309,1,0,0:0:0:0:
36,192,504485,1,0,0:0:0:0:
109,192,504485,1,0,0:0:0:0:
475,192,504485,1,0,0:0:0:0:
329,192,504485,1,0,0:0:0:0:
182,192,504662,1,0,0:0:0:0:
256,192,504838,1,0,0:0:0:0:
109,192,505015,1,0,0:0:0:0:
36,192,505015,1,0,0:0:0:0:
329,192,505015,1,0,0:0:0:0:
182,192,505191,1,0,0:0:0:0:
475,192,505191,1,0,0:0:0:0:
402,192,505191,1,0,0:0:0:0:
109,192,505368,1,0,0:0:0:0:
36,192,505368,1,0,0:0:0:0:
256,192,505368,1,0,0:0:0:0:
329,192,505544,1,0,0:0:0:0:
109,192,505721,1,0,0:0:0:0:
36,192,505721,1,0,0:0:0:0:
402,192,505721,1,0,0:0:0:0:
36,192,505897,1,0,0:0:0:0:
109,192,505897,1,0,0:0:0:0:
475,192,505897,1,0,0:0:0:0:
329,192,505897,1,0,0:0:0:0:
256,192,506074,1,0,0:0:0:0:
109,192,506250,1,0,0:0:0:0:
36,192,506250,1,0,0:0:0:0:
329,192,506250,1,0,0:0:0:0:
109,192,506427,1,0,0:0:0:0:
36,192,506427,1,0,0:0:0:0:
402,192,506427,1,0,0:0:0:0:
256,192,506603,1,0,0:0:0:0:
182,192,506603,1,0,0:0:0:0:
475,192,506603,1,0,0:0:0:0:
109,192,506780,1,0,0:0:0:0:
36,192,506780,1,0,0:0:0:0:
402,192,506780,1,0,0:0:0:0:
329,192,506956,1,0,0:0:0:0:
109,192,507132,1,0,0:0:0:0:
36,192,507132,1,0,0:0:0:0:
256,192,507132,1,0,0:0:0:0:
182,192,507309,1,0,0:0:0:0:
402,192,507309,1,0,0:0:0:0:
475,192,507309,1,0,0:0:0:0:
329,192,507309,1,0,0:0:0:0:
256,192,507485,1,0,0:0:0:0:
182,192,507485,1,0,0:0:0:0:
109,192,507485,1,0,0:0:0:0:
182,192,507662,1,0,0:0:0:0:
109,192,507662,1,0,0:0:0:0:
329,192,507662,1,0,0:0:0:0:
402,192,507838,1,0,0:0:0:0:
109,192,508015,1,0,0:0:0:0:
182,192,508015,1,0,0:0:0:0:
475,192,508015,1,0,0:0:0:0:
256,192,508191,1,0,0:0:0:0:
182,192,508280,1,0,0:0:0:0:
109,192,508280,1,0,0:0:0:0:
36,192,508368,1,0,0:0:0:0:
329,192,508368,1,0,0:0:0:0:
402,192,508544,1,0,0:0:0:0:
182,192,508544,1,0,0:0:0:0:
109,192,508544,1,0,0:0:0:0:
475,192,508721,1,0,0:0:0:0:
36,192,508897,1,0,0:0:0:0:
182,192,508897,1,0,0:0:0:0:
256,192,508897,1,0,0:0:0:0:
36,192,509074,1,0,0:0:0:0:
182,192,509074,1,0,0:0:0:0:
329,192,509074,1,0,0:0:0:0:
402,192,509250,1,0,0:0:0:0:
182,192,509427,1,0,0:0:0:0:
36,192,509427,1,0,0:0:0:0:
475,192,509427,1,0,0:0:0:0:
402,192,509603,1,0,0:0:0:0:
182,192,509691,1,0,0:0:0:0:
36,192,509691,1,0,0:0:0:0:
109,192,509780,1,0,0:0:0:0:
329,192,509780,1,0,0:0:0:0:
182,192,509956,1,0,0:0:0:0:
36,192,509956,1,0,0:0:0:0:
256,192,509956,1,0,0:0:0:0:
329,192,510132,1,0,0:0:0:0:
475,192,510309,1,0,0:0:0:0:
402,192,510309,1,0,0:0:0:0:
182,192,510309,1,0,0:0:0:0:
475,192,510485,1,0,0:0:0:0:
402,192,510485,1,0,0:0:0:0:
256,192,510485,1,0,0:0:0:0:
109,192,510662,1,0,0:0:0:0:
402,192,510838,1,0,0:0:0:0:
329,192,510838,1,0,0:0:0:0:
182,192,510838,1,0,0:0:0:0:
36,192,511015,1,0,0:0:0:0:
402,192,511103,1,0,0:0:0:0:
329,192,511103,1,0,0:0:0:0:
475,192,511191,1,0,0:0:0:0:
109,192,511191,1,0,0:0:0:0:
329,192,511368,1,0,0:0:0:0:
402,192,511368,1,0,0:0:0:0:
36,192,511368,1,0,0:0:0:0:
329,192,511544,1,0,0:0:0:0:
182,192,511544,1,0,0:0:0:0:
475,192,511721,1,0,0:0:0:0:
402,192,511721,1,0,0:0:0:0:
109,192,511721,1,0,0:0:0:0:
475,192,511897,1,0,0:0:0:0:
402,192,511897,1,0,0:0:0:0:
256,192,511897,1,0,0:0:0:0:
109,192,512074,1,0,0:0:0:0:
475,192,512250,1,0,0:0:0:0:
402,192,512250,1,0,0:0:0:0:
36,192,512250,1,0,0:0:0:0:
109,192,512427,1,0,0:0:0:0:
475,192,512515,1,0,0:0:0:0:
402,192,512515,1,0,0:0:0:0:
329,192,512603,1,0,0:0:0:0:
182,192,512603,1,0,0:0:0:0:
475,192,512780,1,0,0:0:0:0:
402,192,512780,1,0,0:0:0:0:
36,192,512780,1,0,0:0:0:0:
475,192,512956,1,0,0:0:0:0:
256,192,512956,1,0,0:0:0:0:
109,192,512956,1,0,0:0:0:0:
402,192,513044,1,0,0:0:0:0:
329,192,513132,1,0,0:0:0:0:
182,192,513132,1,0,0:0:0:0:
109,192,513221,1,0,0:0:0:0:
402,192,513309,1,0,0:0:0:0:
256,192,513309,1,0,0:0:0:0:
36,192,513309,1,0,0:0:0:0:
475,192,513397,1,0,0:0:0:0:
182,192,513485,1,0,0:0:0:0:
329,192,513485,1,0,0:0:0:0:
36,192,513574,1,0,0:0:0:0:
109,192,513662,1,0,0:0:0:0:
402,192,513662,1,0,0:0:0:0:
256,192,513662,1,0,0:0:0:0:
475,192,513750,1,0,0:0:0:0:
329,192,513838,1,0,0:0:0:0:
182,192,513838,1,0,0:0:0:0:
402,192,513927,1,0,0:0:0:0:
475,192,514015,1,0,0:0:0:0:
109,192,514015,1,0,0:0:0:0:
256,192,514015,1,0,0:0:0:0:
329,192,514103,1,0,0:0:0:0:
36,192,514191,1,0,0:0:0:0:
182,192,514191,1,0,0:0:0:0:
329,192,514280,1,0,0:0:0:0:
109,192,514368,1,0,0:0:0:0:
256,192,514368,1,0,0:0:0:0:
402,192,514368,1,0,0:0:0:0:
475,192,514456,1,0,0:0:0:0:
182,192,514544,1,0,0:0:0:0:
36,192,514544,1,0,0:0:0:0:
329,192,514632,1,0,0:0:0:0:
475,192,514721,1,0,0:0:0:0:
256,192,514721,1,0,0:0:0:0:
109,192,514721,1,0,0:0:0:0:
402,192,514809,1,0,0:0:0:0:
329,192,514897,1,0,0:0:0:0:
182,192,514897,1,0,0:0:0:0:
109,192,514985,1,0,0:0:0:0:
36,192,515074,1,0,0:0:0:0:
256,192,515074,1,0,0:0:0:0:
402,192,515074,1,0,0:0:0:0:
475,192,515162,1,0,0:0:0:0:
182,192,515250,1,0,0:0:0:0:
109,192,515250,1,0,0:0:0:0:
329,192,515338,1,0,0:0:0:0:
36,192,515427,1,0,0:0:0:0:
475,192,515427,1,0,0:0:0:0:
256,192,515427,1,0,0:0:0:0:
182,192,515515,1,0,0:0:0:0:
256,192,515603,1,0,0:0:0:0:
402,192,515603,1,0,0:0:0:0:
329,192,515603,1,0,0:0:0:0:
109,192,515691,1,0,0:0:0:0:
475,192,515780,1,0,0:0:0:0:
256,192,515780,1,0,0:0:0:0:
36,192,515780,1,0,0:0:0:0:
182,192,515780,1,0,0:0:0:0:
402,192,515868,1,0,0:0:0:0:
329,192,515956,1,0,0:0:0:0:
182,192,515956,1,0,0:0:0:0:
109,192,515956,1,0,0:0:0:0:
475,192,516044,1,0,0:0:0:0:
402,192,516132,1,0,0:0:0:0:
36,192,516132,1,0,0:0:0:0:
182,192,516132,1,0,0:0:0:0:
256,192,516132,1,0,0:0:0:0:
109,192,516221,1,0,0:0:0:0:
475,192,516309,1,0,0:0:0:0:
329,192,516309,1,0,0:0:0:0:
256,192,516309,1,0,0:0:0:0:
182,192,516397,1,0,0:0:0:0:
36,192,516485,1,0,0:0:0:0:
256,192,516485,1,0,0:0:0:0:
402,192,516485,1,0,0:0:0:0:
475,192,516485,1,0,0:0:0:0:
329,192,516574,1,0,0:0:0:0:
475,192,516662,1,0,0:0:0:0:
182,192,516662,1,0,0:0:0:0:
109,192,516662,1,0,0:0:0:0:
402,192,516750,1,0,0:0:0:0:
329,192,516838,1,0,0:0:0:0:
36,192,516838,1,0,0:0:0:0:
182,192,516838,1,0,0:0:0:0:
256,192,516838,1,0,0:0:0:0:
109,192,516927,1,0,0:0:0:0:
402,192,517015,1,0,0:0:0:0:
329,192,517015,1,0,0:0:0:0:
256,192,517015,1,0,0:0:0:0:
182,192,517103,1,0,0:0:0:0:
36,192,517191,1,0,0:0:0:0:
109,192,517191,1,0,0:0:0:0:
475,192,517191,1,0,0:0:0:0:
329,192,517191,1,0,0:0:0:0:
402,192,517191,1,0,0:0:0:0:
256,192,517368,1,0,0:0:0:0:
402,192,517368,1,0,0:0:0:0:
109,192,517368,1,0,0:0:0:0:
182,192,517368,1,0,0:0:0:0:
36,192,517456,1,0,0:0:0:0:
329,192,517544,1,0,0:0:0:0:
475,192,517544,1,0,0:0:0:0:
182,192,517544,1,0,0:0:0:0:
256,192,517544,1,0,0:0:0:0:
109,192,517632,1,0,0:0:0:0:
402,192,517721,1,0,0:0:0:0:
36,192,517721,1,0,0:0:0:0:
256,192,517721,1,0,0:0:0:0:
329,192,517721,1,0,0:0:0:0:
182,192,517809,1,0,0:0:0:0:
109,192,517897,1,0,0:0:0:0:
36,192,517897,1,0,0:0:0:0:
329,192,517897,1,0,0:0:0:0:
402,192,517897,1,0,0:0:0:0:
256,192,517985,1,0,0:0:0:0:
402,192,518074,1,0,0:0:0:0:
475,192,518074,1,0,0:0:0:0:
182,192,518074,1,0,0:0:0:0:
36,192,518074,1,0,0:0:0:0:
329,192,518162,1,0,0:0:0:0:
475,192,518250,1,0,0:0:0:0:
402,192,518250,1,0,0:0:0:0:
36,192,518250,1,0,0:0:0:0:
109,192,518250,1,0,0:0:0:0:
182,192,518294,1,0,0:0:0:0:
256,192,518338,1,0,0:0:0:0:
329,192,518382,1,0,0:0:0:0:
109,192,518427,1,0,0:0:0:0:
402,192,518427,1,0,0:0:0:0:
475,192,518427,1,0,0:0:0:0:
36,192,518427,1,0,0:0:0:0:
182,192,518471,1,0,0:0:0:0:
256,192,518515,1,0,0:0:0:0:
329,192,518559,1,0,0:0:0:0:
36,192,518603,1,0,0:0:0:0:
475,192,518603,1,0,0:0:0:0:
109,192,518603,1,0,0:0:0:0:
402,192,518603,1,0,0:0:0:0:
329,192,518691,1,0,0:0:0:0:
182,192,518691,1,0,0:0:0:0:
402,192,518780,1,0,0:0:0:0:
109,192,518780,1,0,0:0:0:0:
256,192,518780,1,0,0:0:0:0:
182,192,518868,1,0,0:0:0:0:
402,192,518956,1,0,0:0:0:0:
475,192,518956,1,0,0:0:0:0:
109,192,518956,1,0,0:0:0:0:
256,192,518956,1,0,0:0:0:0:
36,192,518956,1,0,0:0:0:0:
329,192,519044,1,0,0:0:0:0:
182,192,519044,1,0,0:0:0:0:
402,192,519132,1,0,0:0:0:0:
256,192,519132,1,0,0:0:0:0:
36,192,519132,1,0,0:0:0:0:
109,192,519221,1,0,0:0:0:0:
329,192,519309,1,0,0:0:0:0:
182,192,519309,1,0,0:0:0:0:
475,192,519309,1,0,0:0:0:0:
256,192,519397,1,0,0:0:0:0:
109,192,519397,1,0,0:0:0:0:
475,192,519485,1,0,0:0:0:0:
36,192,519485,1,0,0:0:0:0:
329,192,519485,1,0,0:0:0:0:
182,192,519574,1,0,0:0:0:0:
256,192,519662,1,0,0:0:0:0:
329,192,519662,1,0,0:0:0:0:
475,192,519662,1,0,0:0:0:0:
109,192,519662,1,0,0:0:0:0:
36,192,519662,1,0,0:0:0:0:
402,192,519750,1,0,0:0:0:0:
182,192,519750,1,0,0:0:0:0:
36,192,519838,1,0,0:0:0:0:
109,192,519838,1,0,0:0:0:0:
329,192,519838,1,0,0:0:0:0:
256,192,519927,1,0,0:0:0:0:
182,192,520015,1,0,0:0:0:0:
475,192,520015,1,0,0:0:0:0:
402,192,520015,1,0,0:0:0:0:
109,192,520103,1,0,0:0:0:0:
329,192,520103,1,0,0:0:0:0:
36,192,520191,1,0,0:0:0:0:
475,192,520191,1,0,0:0:0:0:
256,192,520191,1,0,0:0:0:0:
402,192,520280,1,0,0:0:0:0:
329,192,520368,1,0,0:0:0:0:
475,192,520368,1,0,0:0:0:0:
182,192,520368,1,0,0:0:0:0:
109,192,520368,1,0,0:0:0:0:
36,192,520368,1,0,0:0:0:0:
256,192,520456,1,0,0:0:0:0:
402,192,520456,1,0,0:0:0:0:
182,192,520544,1,0,0:0:0:0:
36,192,520544,1,0,0:0:0:0:
329,192,520544,1,0,0:0:0:0:
256,192,520632,1,0,0:0:0:0:
109,192,520721,1,0,0:0:0:0:
475,192,520721,1,0,0:0:0:0:
329,192,520721,1,0,0:0:0:0:
182,192,520809,1,0,0:0:0:0:
402,192,520809,1,0,0:0:0:0:
109,192,520897,1,0,0:0:0:0:
256,192,520897,1,0,0:0:0:0:
36,192,520897,1,0,0:0:0:0:
329,192,520985,1,0,0:0:0:0:
256,192,521074,1,0,0:0:0:0:
402,192,521074,1,0,0:0:0:0:
475,192,521074,1,0,0:0:0:0:
36,192,521074,1,0,0:0:0:0:
109,192,521074,1,0,0:0:0:0:
329,192,521162,1,0,0:0:0:0:
182,192,521162,1,0,0:0:0:0:
475,192,521250,1,0,0:0:0:0:
256,192,521250,1,0,0:0:0:0:
109,192,521250,1,0,0:0:0:0:
329,192,521338,1,0,0:0:0:0:
402,192,521427,1,0,0:0:0:0:
36,192,521427,1,0,0:0:0:0:
182,192,521427,1,0,0:0:0:0:
256,192,521515,1,0,0:0:0:0:
475,192,521515,1,0,0:0:0:0:
329,192,521603,1,0,0:0:0:0:
36,192,521603,1,0,0:0:0:0:
109,192,521603,1,0,0:0:0:0:
256,192,521691,1,0,0:0:0:0:
329,192,521780,1,0,0:0:0:0:
475,192,521780,1,0,0:0:0:0:
182,192,521780,1,0,0:0:0:0:
109,192,521780,1,0,0:0:0:0:
36,192,521780,1,0,0:0:0:0:
402,192,521868,1,0,0:0:0:0:
256,192,521868,1,0,0:0:0:0:
475,192,521956,1,0,0:0:0:0:
329,192,521956,1,0,0:0:0:0:
182,192,521956,1,0,0:0:0:0:
109,192,522044,1,0,0:0:0:0:
475,192,522132,1,0,0:0:0:0:
256,192,522132,1,0,0:0:0:0:
36,192,522132,1,0,0:0:0:0:
109,192,522221,1,0,0:0:0:0:
329,192,522221,1,0,0:0:0:0:
475,192,522309,1,0,0:0:0:0:
402,192,522309,1,0,0:0:0:0:
256,192,522309,1,0,0:0:0:0:
182,192,522397,1,0,0:0:0:0:
475,192,522485,1,0,0:0:0:0:
402,192,522485,1,0,0:0:0:0:
256,192,522485,1,0,0:0:0:0:
109,192,522485,1,0,0:0:0:0:
36,192,522485,1,0,0:0:0:0:
329,192,522574,1,0,0:0:0:0:
182,192,522574,1,0,0:0:0:0:
36,192,522662,1,0,0:0:0:0:
402,192,522662,1,0,0:0:0:0:
256,192,522662,1,0,0:0:0:0:
109,192,522750,1,0,0:0:0:0:
475,192,522838,1,0,0:0:0:0:
329,192,522838,1,0,0:0:0:0:
182,192,522838,1,0,0:0:0:0:
256,192,522927,1,0,0:0:0:0:
109,192,522927,1,0,0:0:0:0:
402,192,523015,1,0,0:0:0:0:
182,192,523015,1,0,0:0:0:0:
36,192,523015,1,0,0:0:0:0:
329,192,523103,1,0,0:0:0:0:
475,192,523191,1,0,0:0:0:0:
36,192,523191,1,0,0:0:0:0:
256,192,523191,1,0,0:0:0:0:
109,192,523191,1,0,0:0:0:0:
182,192,523191,1,0,0:0:0:0:
402,192,523280,1,0,0:0:0:0:
329,192,523280,1,0,0:0:0:0:
36,192,523368,1,0,0:0:0:0:
109,192,523368,1,0,0:0:0:0:
256,192,523368,1,0,0:0:0:0:
182,192,523456,1,0,0:0:0:0:
475,192,523544,1,0,0:0:0:0:
36,192,523544,1,0,0:0:0:0:
256,192,523544,1,0,0:0:0:0:
402,192,523632,1,0,0:0:0:0:
182,192,523632,1,0,0:0:0:0:
329,192,523721,1,0,0:0:0:0:
475,192,523721,1,0,0:0:0:0:
109,192,523721,1,0,0:0:0:0:
256,192,523809,1,0,0:0:0:0:
402,192,523897,1,0,0:0:0:0:
475,192,523897,1,0,0:0:0:0:
329,192,523897,1,0,0:0:0:0:
182,192,523897,1,0,0:0:0:0:
36,192,523897,1,0,0:0:0:0:
109,192,523985,1,0,0:0:0:0:
256,192,523985,1,0,0:0:0:0:
475,192,524074,1,0,0:0:0:0:
329,192,524074,1,0,0:0:0:0:
182,192,524074,1,0,0:0:0:0:
109,192,524162,1,0,0:0:0:0:
329,192,524250,1,0,0:0:0:0:
475,192,524250,1,0,0:0:0:0:
256,192,524250,1,0,0:0:0:0:
36,192,524250,1,0,0:0:0:0:
182,192,524338,1,0,0:0:0:0:
109,192,524338,1,0,0:0:0:0:
402,192,524427,1,0,0:0:0:0:
329,192,524427,1,0,0:0:0:0:
256,192,524427,1,0,0:0:0:0:
109,192,524515,1,0,0:0:0:0:
182,192,524515,1,0,0:0:0:0:
402,192,524603,1,0,0:0:0:0:
475,192,524603,1,0,0:0:0:0:
329,192,524603,1,0,0:0:0:0:
36,192,524603,1,0,0:0:0:0:
256,192,524603,1,0,0:0:0:0:
182,192,524691,1,0,0:0:0:0:
109,192,524691,1,0,0:0:0:0:
402,192,524780,1,0,0:0:0:0:
256,192,524780,1,0,0:0:0:0:
329,192,524780,1,0,0:0:0:0:
109,192,524868,1,0,0:0:0:0:
182,192,524868,1,0,0:0:0:0:
256,192,524956,1,0,0:0:0:0:
475,192,524956,1,0,0:0:0:0:
36,192,524956,1,0,0:0:0:0:
329,192,525044,1,0,0:0:0:0:
402,192,525044,1,0,0:0:0:0:
109,192,525132,1,0,0:0:0:0:
182,192,525132,1,0,0:0:0:0:
256,192,525132,1,0,0:0:0:0:
402,192,525221,1,0,0:0:0:0:
329,192,525221,1,0,0:0:0:0:
256,192,525309,1,0,0:0:0:0:
475,192,525309,1,0,0:0:0:0:
182,192,525309,1,0,0:0:0:0:
36,192,525309,1,0,0:0:0:0:
109,192,525309,1,0,0:0:0:0:
402,192,525397,1,0,0:0:0:0:
329,192,525397,1,0,0:0:0:0:
109,192,525485,1,0,0:0:0:0:
182,192,525485,1,0,0:0:0:0:
256,192,525485,1,0,0:0:0:0:
402,192,525574,1,0,0:0:0:0:
329,192,525574,1,0,0:0:0:0:
109,192,525662,1,0,0:0:0:0:
475,192,525662,1,0,0:0:0:0:
36,192,525662,1,0,0:0:0:0:
256,192,525750,1,0,0:0:0:0:
182,192,525750,1,0,0:0:0:0:
402,192,525838,1,0,0:0:0:0:
109,192,525838,1,0,0:0:0:0:
36,192,525838,1,0,0:0:0:0:
329,192,525927,1,0,0:0:0:0:
256,192,525927,1,0,0:0:0:0:
402,192,526015,1,0,0:0:0:0:
475,192,526015,1,0,0:0:0:0:
36,192,526015,1,0,0:0:0:0:
182,192,526015,1,0,0:0:0:0:
109,192,526015,1,0,0:0:0:0:
329,192,526103,1,0,0:0:0:0:
256,192,526103,1,0,0:0:0:0:
475,192,526191,1,0,0:0:0:0:
402,192,526191,1,0,0:0:0:0:
109,192,526191,1,0,0:0:0:0:
329,192,526280,1,0,0:0:0:0:
256,192,526280,1,0,0:0:0:0:
475,192,526368,1,0,0:0:0:0:
109,192,526368,1,0,0:0:0:0:
36,192,526368,1,0,0:0:0:0:
402,192,526368,1,0,0:0:0:0:
256,192,526456,1,0,0:0:0:0:
182,192,526456,1,0,0:0:0:0:
402,192,526544,1,0,0:0:0:0:
109,192,526544,1,0,0:0:0:0:
36,192,526544,1,0,0:0:0:0:
182,192,526632,1,0,0:0:0:0:
329,192,526632,1,0,0:0:0:0:
402,192,526721,1,0,0:0:0:0:
475,192,526721,1,0,0:0:0:0:
36,192,526721,1,0,0:0:0:0:
256,192,526721,1,0,0:0:0:0:
109,192,526721,1,0,0:0:0:0:
329,192,526809,1,0,0:0:0:0:
182,192,526809,1,0,0:0:0:0:
475,192,526897,1,0,0:0:0:0:
402,192,526897,1,0,0:0:0:0:
109,192,526897,1,0,0:0:0:0:
329,192,526985,1,0,0:0:0:0:
256,192,526985,1,0,0:0:0:0:
36,192,527074,1,0,0:0:0:0:
109,192,527074,1,0,0:0:0:0:
402,192,527074,1,0,0:0:0:0:
475,192,527074,1,0,0:0:0:0:
329,192,527162,1,0,0:0:0:0:
182,192,527162,1,0,0:0:0:0:
36,192,527250,1,0,0:0:0:0:
402,192,527250,1,0,0:0:0:0:
109,192,527250,1,0,0:0:0:0:
329,192,527338,1,0,0:0:0:0:
182,192,527338,1,0,0:0:0:0:
475,192,527427,1,0,0:0:0:0:
256,192,527427,1,0,0:0:0:0:
402,192,527427,1,0,0:0:0:0:
36,192,527427,1,0,0:0:0:0:
109,192,527427,1,0,0:0:0:0:
329,192,527515,1,0,0:0:0:0:
182,192,527515,1,0,0:0:0:0:
109,192,527603,1,0,0:0:0:0:
475,192,527603,1,0,0:0:0:0:
402,192,527603,1,0,0:0:0:0:
329,192,527691,1,0,0:0:0:0:
182,192,527691,1,0,0:0:0:0:
109,192,527780,1,0,0:0:0:0:
475,192,527780,1,0,0:0:0:0:
36,192,527780,1,0,0:0:0:0:
256,192,527780,1,0,0:0:0:0:
402,192,527868,1,0,0:0:0:0:
329,192,527868,1,0,0:0:0:0:
36,192,527956,1,0,0:0:0:0:
109,192,527956,1,0,0:0:0:0:
182,192,527956,1,0,0:0:0:0:
402,192,528044,1,0,0:0:0:0:
329,192,528044,1,0,0:0:0:0:
109,192,528132,1,0,0:0:0:0:
36,192,528132,1,0,0:0:0:0:
182,192,528132,1,0,0:0:0:0:
256,192,528132,1,0,0:0:0:0:
475,192,528132,1,0,0:0:0:0:
402,192,528221,1,0,0:0:0:0:
329,192,528221,1,0,0:0:0:0:
256,192,528309,1,0,0:0:0:0:
182,192,528309,1,0,0:0:0:0:
109,192,528309,1,0,0:0:0:0:
475,192,528397,1,0,0:0:0:0:
402,192,528397,1,0,0:0:0:0:
256,192,528485,1,0,0:0:0:0:
329,192,528485,1,0,0:0:0:0:
36,192,528485,1,0,0:0:0:0:
109,192,528485,1,0,0:0:0:0:
475,192,528574,1,0,0:0:0:0:
402,192,528574,1,0,0:0:0:0:
36,192,528662,1,0,0:0:0:0:
256,192,528662,1,0,0:0:0:0:
182,192,528662,1,0,0:0:0:0:
402,192,528750,1,0,0:0:0:0:
329,192,528750,1,0,0:0:0:0:
256,192,528838,1,0,0:0:0:0:
475,192,528838,1,0,0:0:0:0:
36,192,528838,1,0,0:0:0:0:
109,192,528838,1,0,0:0:0:0:
182,192,528838,1,0,0:0:0:0:
402,192,528927,1,0,0:0:0:0:
329,192,528927,1,0,0:0:0:0:
475,192,529015,1,0,0:0:0:0:
182,192,529015,1,0,0:0:0:0:
109,192,529015,1,0,0:0:0:0:
329,192,529103,1,0,0:0:0:0:
256,192,529103,1,0,0:0:0:0:
402,192,529191,1,0,0:0:0:0:
475,192,529191,1,0,0:0:0:0:
36,192,529191,1,0,0:0:0:0:
109,192,529191,1,0,0:0:0:0:
329,192,529280,1,0,0:0:0:0:
182,192,529280,1,0,0:0:0:0:
402,192,529368,1,0,0:0:0:0:
256,192,529368,1,0,0:0:0:0:
109,192,529368,1,0,0:0:0:0:
329,192,529456,1,0,0:0:0:0:
182,192,529456,1,0,0:0:0:0:
402,192,529544,1,0,0:0:0:0:
475,192,529544,1,0,0:0:0:0:
36,192,529544,1,0,0:0:0:0:
109,192,529544,1,0,0:0:0:0:
329,192,529632,1,0,0:0:0:0:
182,192,529632,1,0,0:0:0:0:
475,192,529721,1,0,0:0:0:0:
36,192,529721,1,0,0:0:0:0:
256,192,529721,1,0,0:0:0:0:
329,192,529809,1,0,0:0:0:0:
182,192,529809,1,0,0:0:0:0:
402,192,529897,1,0,0:0:0:0:
475,192,529897,1,0,0:0:0:0:
36,192,529897,1,0,0:0:0:0:
109,192,529897,1,0,0:0:0:0:
256,192,530074,5,0,0:0:0:0:
329,192,530250,1,0,0:0:0:0:
402,192,530250,1,0,0:0:0:0:
109,192,530250,1,0,0:0:0:0:
182,192,530250,1,0,0:0:0:0:
256,192,530427,1,0,0:0:0:0:
475,192,530603,1,0,0:0:0:0:
36,192,530603,1,0,0:0:0:0:
402,192,530647,1,0,0:0:0:0:
109,192,530647,1,0,0:0:0:0:
329,192,530691,1,0,0:0:0:0:
182,192,530691,1,0,0:0:0:0:
256,192,530735,1,0,0:0:0:0:
475,192,530780,1,0,0:0:0:0:
36,192,530780,1,0,0:0:0:0:
402,192,530824,1,0,0:0:0:0:
109,192,530824,1,0,0:0:0:0:
329,192,530868,1,0,0:0:0:0:
182,192,530868,1,0,0:0:0:0:
256,192,530912,1,0,0:0:0:0:
402,192,530956,1,0,0:0:0:0:
475,192,530956,1,0,0:0:0:0:
36,192,530956,1,0,0:0:0:0:
109,192,530956,1,0,0:0:0:0:
329,192,531044,1,0,0:0:0:0:
182,192,531044,1,0,0:0:0:0:
402,192,531132,1,0,0:0:0:0:
475,192,531132,1,0,0:0:0:0:
36,192,531132,1,0,0:0:0:0:
109,192,531132,1,0,0:0:0:0:
329,192,531221,1,0,0:0:0:0:
182,192,531221,1,0,0:0:0:0:
109,192,531309,1,0,0:0:0:0:
256,192,531309,1,0,0:0:0:0:
475,192,531309,1,0,0:0:0:0:
36,192,531309,1,0,0:0:0:0:
402,192,531309,1,0,0:0:0:0:
329,192,531397,1,0,0:0:0:0:
182,192,531397,1,0,0:0:0:0:
256,192,531485,1,0,0:0:0:0:
402,192,531485,1,0,0:0:0:0:
329,192,531574,1,0,0:0:0:0:
109,192,531574,1,0,0:0:0:0:
182,192,531662,1,0,0:0:0:0:
402,192,531662,1,0,0:0:0:0:
36,192,531662,1,0,0:0:0:0:
475,192,531662,1,0,0:0:0:0:
256,192,531750,1,0,0:0:0:0:
109,192,531750,1,0,0:0:0:0:
475,192,531838,1,0,0:0:0:0:
329,192,531838,1,0,0:0:0:0:
109,192,531927,1,0,0:0:0:0:
256,192,531927,1,0,0:0:0:0:
402,192,532015,1,0,0:0:0:0:
475,192,532015,1,0,0:0:0:0:
182,192,532015,1,0,0:0:0:0:
36,192,532015,1,0,0:0:0:0:
256,192,532103,1,0,0:0:0:0:
329,192,532103,1,0,0:0:0:0:
109,192,532191,1,0,0:0:0:0:
36,192,532191,1,0,0:0:0:0:
329,192,532280,1,0,0:0:0:0:
182,192,532280,1,0,0:0:0:0:
36,192,532368,1,0,0:0:0:0:
402,192,532368,1,0,0:0:0:0:
475,192,532368,1,0,0:0:0:0:
256,192,532368,1,0,0:0:0:0:
329,192,532456,1,0,0:0:0:0:
182,192,532456,1,0,0:0:0:0:
402,192,532544,1,0,0:0:0:0:
109,192,532544,1,0,0:0:0:0:
329,192,532632,1,0,0:0:0:0:
182,192,532632,1,0,0:0:0:0:
256,192,532721,1,0,0:0:0:0:
36,192,532721,1,0,0:0:0:0:
402,192,532721,1,0,0:0:0:0:
475,192,532721,1,0,0:0:0:0:
329,192,532809,1,0,0:0:0:0:
109,192,532809,1,0,0:0:0:0:
182,192,532897,1,0,0:0:0:0:
402,192,532897,1,0,0:0:0:0:
36,192,532985,1,0,0:0:0:0:
256,192,532985,1,0,0:0:0:0:
109,192,533074,1,0,0:0:0:0:
182,192,533074,1,0,0:0:0:0:
475,192,533074,1,0,0:0:0:0:
329,192,533074,1,0,0:0:0:0:
402,192,533162,1,0,0:0:0:0:
256,192,533162,1,0,0:0:0:0:
36,192,533250,1,0,0:0:0:0:
109,192,533250,1,0,0:0:0:0:
329,192,533338,1,0,0:0:0:0:
182,192,533338,1,0,0:0:0:0:
402,192,533427,1,0,0:0:0:0:
475,192,533427,1,0,0:0:0:0:
256,192,533427,1,0,0:0:0:0:
36,192,533427,1,0,0:0:0:0:
109,192,533515,1,0,0:0:0:0:
182,192,533515,1,0,0:0:0:0:
475,192,533603,1,0,0:0:0:0:
329,192,533603,1,0,0:0:0:0:
109,192,533691,1,0,0:0:0:0:
256,192,533691,1,0,0:0:0:0:
182,192,533780,1,0,0:0:0:0:
402,192,533780,1,0,0:0:0:0:
475,192,533780,1,0,0:0:0:0:
36,192,533780,1,0,0:0:0:0:
256,192,533868,1,0,0:0:0:0:
329,192,533868,1,0,0:0:0:0:
109,192,533956,1,0,0:0:0:0:
402,192,533956,1,0,0:0:0:0:
329,192,534044,1,0,0:0:0:0:
182,192,534044,1,0,0:0:0:0:
36,192,534132,1,0,0:0:0:0:
475,192,534132,1,0,0:0:0:0:
402,192,534132,1,0,0:0:0:0:
256,192,534132,1,0,0:0:0:0:
109,192,534221,1,0,0:0:0:0:
182,192,534221,1,0,0:0:0:0:
402,192,534309,1,0,0:0:0:0:
329,192,534309,1,0,0:0:0:0:
36,192,534397,1,0,0:0:0:0:
256,192,534397,1,0,0:0:0:0:
109,192,534485,1,0,0:0:0:0:
402,192,534485,1,0,0:0:0:0:
475,192,534485,1,0,0:0:0:0:
182,192,534485,1,0,0:0:0:0:
329,192,534574,1,0,0:0:0:0:
256,192,534574,1,0,0:0:0:0:
109,192,534662,1,0,0:0:0:0:
36,192,534662,1,0,0:0:0:0:
329,192,534750,1,0,0:0:0:0:
182,192,534750,1,0,0:0:0:0:
256,192,534838,1,0,0:0:0:0:
475,192,534838,1,0,0:0:0:0:
402,192,534838,1,0,0:0:0:0:
36,192,534838,1,0,0:0:0:0:
329,192,534927,1,0,0:0:0:0:
109,192,534927,1,0,0:0:0:0:
182,192,535015,1,0,0:0:0:0:
402,192,535015,1,0,0:0:0:0:
36,192,535103,1,0,0:0:0:0:
256,192,535103,1,0,0:0:0:0:
475,192,535191,1,0,0:0:0:0:
402,192,535191,1,0,0:0:0:0:
109,192,535191,1,0,0:0:0:0:
329,192,535191,1,0,0:0:0:0:
36,192,535280,1,0,0:0:0:0:
256,192,535280,1,0,0:0:0:0:
402,192,535368,1,0,0:0:0:0:
182,192,535368,1,0,0:0:0:0:
109,192,535456,1,0,0:0:0:0:
329,192,535456,1,0,0:0:0:0:
256,192,535544,1,0,0:0:0:0:
36,192,535544,1,0,0:0:0:0:
475,192,535544,1,0,0:0:0:0:
402,192,535544,1,0,0:0:0:0:
182,192,535632,1,0,0:0:0:0:
109,192,535632,1,0,0:0:0:0:
402,192,535721,1,0,0:0:0:0:
329,192,535721,1,0,0:0:0:0:
256,192,535809,1,0,0:0:0:0:
182,192,535809,1,0,0:0:0:0:
402,192,535897,1,0,0:0:0:0:
109,192,535897,1,0,0:0:0:0:
36,192,535897,1,0,0:0:0:0:
475,192,535897,1,0,0:0:0:0:
256,192,535985,1,0,0:0:0:0:
182,192,535985,1,0,0:0:0:0:
475,192,536074,1,0,0:0:0:0:
329,192,536074,1,0,0:0:0:0:
182,192,536162,1,0,0:0:0:0:
36,192,536162,1,0,0:0:0:0:
109,192,536250,1,0,0:0:0:0:
475,192,536250,1,0,0:0:0:0:
256,192,536250,1,0,0:0:0:0:
402,192,536250,1,0,0:0:0:0:
329,192,536338,1,0,0:0:0:0:
182,192,536338,1,0,0:0:0:0:
256,192,536427,1,0,0:0:0:0:
475,192,536427,1,0,0:0:0:0:
402,192,536515,1,0,0:0:0:0:
182,192,536515,1,0,0:0:0:0:
329,192,536603,1,0,0:0:0:0:
109,192,536603,1,0,0:0:0:0:
36,192,536603,1,0,0:0:0:0:
256,192,536603,1,0,0:0:0:0:
475,192,536691,1,0,0:0:0:0:
182,192,536691,1,0,0:0:0:0:
256,192,536780,1,0,0:0:0:0:
402,192,536780,1,0,0:0:0:0:
329,192,536868,1,0,0:0:0:0:
109,192,536868,1,0,0:0:0:0:
36,192,536956,1,0,0:0:0:0:
475,192,536956,1,0,0:0:0:0:
182,192,536956,1,0,0:0:0:0:
256,192,536956,1,0,0:0:0:0:
402,192,537044,1,0,0:0:0:0:
109,192,537044,1,0,0:0:0:0:
329,192,537132,1,0,0:0:0:0:
182,192,537132,1,0,0:0:0:0:
402,192,537221,1,0,0:0:0:0:
256,192,537221,1,0,0:0:0:0:
36,192,537309,1,0,0:0:0:0:
475,192,537309,1,0,0:0:0:0:
182,192,537309,1,0,0:0:0:0:
329,192,537309,1,0,0:0:0:0:
256,192,537397,1,0,0:0:0:0:
109,192,537397,1,0,0:0:0:0:
402,192,537485,1,0,0:0:0:0:
182,192,537485,1,0,0:0:0:0:
109,192,537574,1,0,0:0:0:0:
329,192,537574,1,0,0:0:0:0:
36,192,537662,1,0,0:0:0:0:
402,192,537662,1,0,0:0:0:0:
475,192,537662,1,0,0:0:0:0:
256,192,537662,1,0,0:0:0:0:
329,192,537750,1,0,0:0:0:0:
182,192,537750,1,0,0:0:0:0:
36,192,537838,1,0,0:0:0:0:
402,192,537838,1,0,0:0:0:0:
475,192,537927,1,0,0:0:0:0:
109,192,537927,1,0,0:0:0:0:
182,192,538015,1,0,0:0:0:0:
402,192,538015,1,0,0:0:0:0:
256,192,538015,1,0,0:0:0:0:
329,192,538015,1,0,0:0:0:0:
475,192,538103,1,0,0:0:0:0:
109,192,538103,1,0,0:0:0:0:
402,192,538191,1,0,0:0:0:0:
36,192,538191,1,0,0:0:0:0:
182,192,538280,1,0,0:0:0:0:
329,192,538280,1,0,0:0:0:0:
256,192,538368,1,0,0:0:0:0:
36,192,538368,1,0,0:0:0:0:
402,192,538368,1,0,0:0:0:0:
475,192,538368,1,0,0:0:0:0:
182,192,538456,1,0,0:0:0:0:
109,192,538456,1,0,0:0:0:0:
329,192,538544,1,0,0:0:0:0:
402,192,538544,1,0,0:0:0:0:
256,192,538632,1,0,0:0:0:0:
182,192,538632,1,0,0:0:0:0:
329,192,538721,1,0,0:0:0:0:
475,192,538721,1,0,0:0:0:0:
36,192,538721,1,0,0:0:0:0:
109,192,538721,1,0,0:0:0:0:
256,192,538809,1,0,0:0:0:0:
402,192,538809,1,0,0:0:0:0:
36,192,538897,1,0,0:0:0:0:
182,192,538897,1,0,0:0:0:0:
256,192,538985,1,0,0:0:0:0:
109,192,538985,1,0,0:0:0:0:
329,192,539074,1,0,0:0:0:0:
182,192,539074,1,0,0:0:0:0:
475,192,539074,1,0,0:0:0:0:
402,192,539074,1,0,0:0:0:0:
109,192,539162,1,0,0:0:0:0:
36,192,539162,1,0,0:0:0:0:
182,192,539250,1,0,0:0:0:0:
329,192,539250,1,0,0:0:0:0:
402,192,539338,1,0,0:0:0:0:
256,192,539338,1,0,0:0:0:0:
329,192,539427,1,0,0:0:0:0:
475,192,539427,1,0,0:0:0:0:
36,192,539427,1,0,0:0:0:0:
109,192,539427,1,0,0:0:0:0:
402,192,539515,1,0,0:0:0:0:
256,192,539515,1,0,0:0:0:0:
329,192,539603,1,0,0:0:0:0:
182,192,539603,1,0,0:0:0:0:
109,192,539691,1,0,0:0:0:0:
256,192,539691,1,0,0:0:0:0:
182,192,539780,1,0,0:0:0:0:
329,192,539780,1,0,0:0:0:0:
475,192,539780,1,0,0:0:0:0:
36,192,539780,1,0,0:0:0:0:
402,192,539780,1,0,0:0:0:0:
256,192,539868,1,0,0:0:0:0:
109,192,539868,1,0,0:0:0:0:
402,192,539956,1,0,0:0:0:0:
475,192,539956,1,0,0:0:0:0:
182,192,539956,1,0,0:0:0:0:
329,192,539956,1,0,0:0:0:0:
109,192,540044,1,0,0:0:0:0:
256,192,540044,1,0,0:0:0:0:
475,192,540132,1,0,0:0:0:0:
182,192,540132,1,0,0:0:0:0:
402,192,540132,1,0,0:0:0:0:
36,192,540132,1,0,0:0:0:0:
329,192,540221,1,0,0:0:0:0:
256,192,540221,1,0,0:0:0:0:
109,192,540309,1,0,0:0:0:0:
182,192,540309,1,0,0:0:0:0:
36,192,540309,1,0,0:0:0:0:
475,192,540397,1,0,0:0:0:0:
402,192,540397,1,0,0:0:0:0:
329,192,540397,1,0,0:0:0:0:
256,192,540485,1,0,0:0:0:0:
182,192,540485,1,0,0:0:0:0:
36,192,540485,1,0,0:0:0:0:
109,192,540485,1,0,0:0:0:0:
329,192,540574,1,0,0:0:0:0:
402,192,540574,1,0,0:0:0:0:
475,192,540574,1,0,0:0:0:0:
182,192,540662,1,0,0:0:0:0:
109,192,540662,1,0,0:0:0:0:
36,192,540662,1,0,0:0:0:0:
475,192,540750,1,0,0:0:0:0:
402,192,540750,1,0,0:0:0:0:
329,192,540750,1,0,0:0:0:0:
182,192,540838,1,0,0:0:0:0:
109,192,540838,1,0,0:0:0:0:
36,192,540838,1,0,0:0:0:0:
256,192,540882,1,0,0:0:0:0:
329,192,540927,1,0,0:0:0:0:
402,192,540971,1,0,0:0:0:0:
182,192,541015,1,0,0:0:0:0:
475,192,541015,1,0,0:0:0:0:
36,192,541015,1,0,0:0:0:0:
109,192,541015,1,0,0:0:0:0:
256,192,541059,1,0,0:0:0:0:
329,192,541103,1,0,0:0:0:0:
402,192,541147,1,0,0:0:0:0:
182,192,541191,1,0,0:0:0:0:
109,192,541191,1,0,0:0:0:0:
475,192,541191,1,0,0:0:0:0:
36,192,541191,1,0,0:0:0:0:
329,192,541280,1,0,0:0:0:0:
256,192,541280,1,0,0:0:0:0:
109,192,541368,1,0,0:0:0:0:
36,192,541368,1,0,0:0:0:0:
475,192,541368,1,0,0:0:0:0:
256,192,541456,1,0,0:0:0:0:
182,192,541456,1,0,0:0:0:0:
402,192,541544,1,0,0:0:0:0:
36,192,541544,1,0,0:0:0:0:
475,192,541544,1,0,0:0:0:0:
182,192,541632,1,0,0:0:0:0:
329,192,541632,1,0,0:0:0:0:
256,192,541721,1,0,0:0:0:0:
36,192,541721,1,0,0:0:0:0:
109,192,541721,1,0,0:0:0:0:
475,192,541809,1,0,0:0:0:0:
402,192,541809,1,0,0:0:0:0:
182,192,541897,1,0,0:0:0:0:
329,192,541897,1,0,0:0:0:0:
36,192,541897,1,0,0:0:0:0:
475,192,541985,1,0,0:0:0:0:
402,192,541985,1,0,0:0:0:0:
329,192,542074,1,0,0:0:0:0:
256,192,542074,1,0,0:0:0:0:
109,192,542074,1,0,0:0:0:0:
402,192,542162,1,0,0:0:0:0:
182,192,542162,1,0,0:0:0:0:
475,192,542250,1,0,0:0:0:0:
256,192,542250,1,0,0:0:0:0:
36,192,542250,1,0,0:0:0:0:
182,192,542338,1,0,0:0:0:0:
109,192,542338,1,0,0:0:0:0:
402,192,542427,1,0,0:0:0:0:
329,192,542427,1,0,0:0:0:0:
475,192,542427,1,0,0:0:0:0:
182,192,542515,1,0,0:0:0:0:
256,192,542515,1,0,0:0:0:0:
475,192,542603,1,0,0:0:0:0:
402,192,542603,1,0,0:0:0:0:
109,192,542603,1,0,0:0:0:0:
36,192,542603,1,0,0:0:0:0:
329,192,542693,1,0,0:0:0:0:
256,192,542693,1,0,0:0:0:0:
475,192,542784,1,0,0:0:0:0:
109,192,542784,1,0,0:0:0:0:
182,192,542784,1,0,0:0:0:0:
256,192,542875,1,0,0:0:0:0:
329,192,542966,1,0,0:0:0:0:
109,192,542966,1,0,0:0:0:0:
36,192,542966,1,0,0:0:0:0:
402,192,543057,1,0,0:0:0:0:
182,192,543057,1,0,0:0:0:0:
36,192,543148,1,0,0:0:0:0:
475,192,543148,1,0,0:0:0:0:
256,192,543148,1,0,0:0:0:0:
329,192,543239,1,0,0:0:0:0:
402,192,543331,1,0,0:0:0:0:
109,192,543331,1,0,0:0:0:0:
475,192,543331,1,0,0:0:0:0:
36,192,543421,1,0,0:0:0:0:
256,192,543421,1,0,0:0:0:0:
109,192,543512,1,0,0:0:0:0:
475,192,543512,1,0,0:0:0:0:
329,192,543512,1,0,0:0:0:0:
182,192,543603,1,0,0:0:0:0:
475,192,543693,1,0,0:0:0:0:
36,192,543693,1,0,0:0:0:0:
256,192,543693,1,0,0:0:0:0:
182,192,543784,1,0,0:0:0:0:
109,192,543784,1,0,0:0:0:0:
475,192,543875,1,0,0:0:0:0:
402,192,543875,1,0,0:0:0:0:
256,192,543875,1,0,0:0:0:0:
182,192,543966,1,0,0:0:0:0:
109,192,544057,1,0,0:0:0:0:
256,192,544057,1,0,0:0:0:0:
329,192,544057,1,0,0:0:0:0:
475,192,544057,1,0,0:0:0:0:
36,192,544150,1,0,0:0:0:0:
182,192,544150,1,0,0:0:0:0:
402,192,544244,1,0,0:0:0:0:
256,192,544244,1,0,0:0:0:0:
329,192,544338,1,0,0:0:0:0:
475,192,544432,1,0,0:0:0:0:
36,192,544432,1,0,0:0:0:0:
402,192,544432,1,0,0:0:0:0:
256,192,544525,1,0,0:0:0:0:
109,192,544525,1,0,0:0:0:0:
402,192,544619,1,0,0:0:0:0:
329,192,544619,1,0,0:0:0:0:
182,192,544713,1,0,0:0:0:0:
402,192,544807,1,0,0:0:0:0:
109,192,544807,1,0,0:0:0:0:
475,192,544807,1,0,0:0:0:0:
256,192,544807,1,0,0:0:0:0:
329,192,544900,1,0,0:0:0:0:
256,192,544994,1,0,0:0:0:0:
36,192,544994,1,0,0:0:0:0:
182,192,545088,1,0,0:0:0:0:
329,192,545182,1,0,0:0:0:0:
475,192,545182,1,0,0:0:0:0:
256,192,545182,1,0,0:0:0:0:
36,192,545182,1,0,0:0:0:0:
182,192,545275,1,0,0:0:0:0:
402,192,545368,1,0,0:0:0:0:
109,192,545368,1,0,0:0:0:0:
256,192,545463,1,0,0:0:0:0:
36,192,545557,1,0,0:0:0:0:
182,192,545557,1,0,0:0:0:0:
475,192,545557,1,0,0:0:0:0:
256,192,545653,1,0,0:0:0:0:
329,192,545750,1,0,0:0:0:0:
109,192,545750,1,0,0:0:0:0:
182,192,545846,1,0,0:0:0:0:
36,192,545944,1,0,0:0:0:0:
402,192,545944,1,0,0:0:0:0:
475,192,545944,1,0,0:0:0:0:
182,192,546040,1,0,0:0:0:0:
402,192,546137,1,0,0:0:0:0:
256,192,546137,1,0,0:0:0:0:
109,192,546234,1,0,0:0:0:0:
475,192,546331,1,0,0:0:0:0:
256,192,546331,1,0,0:0:0:0:
182,192,546331,1,0,0:0:0:0:
402,192,546331,1,0,0:0:0:0:
36,192,546427,1,0,0:0:0:0:
256,192,546524,1,0,0:0:0:0:
402,192,546524,1,0,0:0:0:0:
182,192,546621,1,0,0:0:0:0:
36,192,546718,1,0,0:0:0:0:
475,192,546718,1,0,0:0:0:0:
109,192,546718,1,0,0:0:0:0:
329,192,546816,1,0,0:0:0:0:
402,192,546816,1,0,0:0:0:0:
109,192,546911,1,0,0:0:0:0:
182,192,546911,1,0,0:0:0:0:
256,192,547008,1,0,0:0:0:0:
475,192,547105,1,0,0:0:0:0:
109,192,547105,1,0,0:0:0:0:
36,192,547105,1,0,0:0:0:0:
329,192,547105,1,0,0:0:0:0:
402,192,547205,1,0,0:0:0:0:
256,192,547305,1,0,0:0:0:0:
182,192,547305,1,0,0:0:0:0:
109,192,547405,1,0,0:0:0:0:
256,192,547505,1,0,0:0:0:0:
329,192,547505,1,0,0:0:0:0:
182,192,547605,1,0,0:0:0:0:
329,192,547705,1,0,0:0:0:0:
402,192,547705,1,0,0:0:0:0:
256,192,547805,1,0,0:0:0:0:
402,192,547905,1,0,0:0:0:0:
36,192,547905,1,0,0:0:0:0:
475,192,547905,1,0,0:0:0:0:
256,192,548005,1,0,0:0:0:0:
402,192,548105,1,0,0:0:0:0:
329,192,548105,1,0,0:0:0:0:
329,192,548305,1,0,0:0:0:0:
256,192,548305,1,0,0:0:0:0:
109,192,548405,1,0,0:0:0:0:
256,192,548505,1,0,0:0:0:0:
182,192,548505,1,0,0:0:0:0:
329,192,548605,1,0,0:0:0:0:
109,192,548705,1,0,0:0:0:0:
36,192,548705,1,0,0:0:0:0:
475,192,548705,1,0,0:0:0:0:
402,192,548809,1,0,0:0:0:0:
329,192,548912,1,0,0:0:0:0:
182,192,548912,1,0,0:0:0:0:
109,192,549015,1,0,0:0:0:0:
402,192,549118,1,0,0:0:0:0:
256,192,549118,1,0,0:0:0:0:
182,192,549221,1,0,0:0:0:0:
475,192,549325,1,0,0:0:0:0:
329,192,549325,1,0,0:0:0:0:
256,192,549429,1,0,0:0:0:0:
329,192,549532,1,0,0:0:0:0:
109,192,549532,1,0,0:0:0:0:
475,192,549532,1,0,0:0:0:0:
182,192,549636,1,0,0:0:0:0:
402,192,549739,1,0,0:0:0:0:
256,192,549739,1,0,0:0:0:0:
329,192,549946,1,0,0:0:0:0:
182,192,549946,1,0,0:0:0:0:
402,192,550049,1,0,0:0:0:0:
256,192,550153,1,0,0:0:0:0:
109,192,550153,1,0,0:0:0:0:
329,192,550257,1,0,0:0:0:0:
256,192,550360,1,0,0:0:0:0:
36,192,550360,1,0,0:0:0:0:
182,192,550360,1,0,0:0:0:0:
402,192,550415,1,0,0:0:0:0:
475,192,550471,1,0,0:0:0:0:
329,192,551248,1,0,0:0:0:0:
402,192,551248,1,0,0:0:0:0:
182,192,551248,1,0,0:0:0:0:
36,192,551248,1,0,0:0:0:0:
109,192,552082,1,0,0:0:0:0:
182,192,552137,1,0,0:0:0:0:
329,192,552137,1,0,0:0:0:0:
402,192,552193,1,0,0:0:0:0:
