osu file format v14

[General]
AudioFilename: Dan_6.mp3
AudioLeadIn: 0
PreviewTime: 32
Countdown: 0
SampleSet: Soft
StackLeniency: 0.7
Mode: 3
LetterboxInBreaks: 0
SpecialStyle: 0
WidescreenStoryboard: 0

[Editor]
DistanceSpacing: 0.8
BeatDivisor: 4
GridSize: 32
TimelineZoom: 1.6

[Metadata]
Title:Regular Dan Phase II
TitleUnicode:Regular Dan Phase II
Artist:osu!mania 7K Dan Course
ArtistUnicode:osu!mania 7K Dan Course
Creator:Jinjin
Version:6th Dan (Marathon)
Source:
Tags:renard gabberse town the algorithm isometry -45 44river yuuyu yuuna sasara imperishable night 2006 2016 refine
BeatmapID:969189
BeatmapSetID:451788

[Difficulty]
HPDrainRate:8
CircleSize:7
OverallDifficulty:8.5
ApproachRate:5
SliderMultiplier:1.4
SliderTickRate:1

[Events]
//Background and Video events
0,0,"Dan_6.png",0,0
//Break Periods
2,87660,99082
2,253669,267346
2,390436,402505
//Storyboard Layer 0 (Background)
//Storyboard Layer 1 (Fail)
//Storyboard Layer 2 (Pass)
//Storyboard Layer 3 (Foreground)
//Storyboard Sound Samples

[TimingPoints]
32,342.857142857143,4,2,0,0,1,0
32,-72.992700729927,4,2,0,0,0,0
100282,250,4,2,0,0,1,0
219532,250,4,2,0,0,1,0
268546,422.535211267606,4,2,0,0,1,0
268546,-59.1715976331361,4,2,0,0,0,0
403705,372.670807453416,4,2,0,0,1,0
403705,-67.1140939597315,4,2,0,0,0,0

[HitObjects]
36,192,32,5,0,0:0:0:0:
109,192,32,1,0,0:0:0:0:
182,192,32,1,0,0:0:0:0:
256,192,32,1,0,0:0:0:0:
475,192,32,1,0,0:0:0:0:
256,192,374,1,0,0:0:0:0:
475,192,374,1,0,0:0:0:0:
256,192,717,1,0,0:0:0:0:
256,192,1060,1,0,0:0:0:0:
475,192,1060,1,0,0:0:0:0:
256,192,1289,1,0,0:0:0:0:
256,192,1403,1,0,0:0:0:0:
256,192,1746,1,0,0:0:0:0:
475,192,1746,1,0,0:0:0:0:
256,192,2089,1,0,0:0:0:0:
256,192,2317,1,0,0:0:0:0:
256,192,2432,1,0,0:0:0:0:
475,192,2432,1,0,0:0:0:0:
256,192,2660,1,0,0:0:0:0:
256,192,2774,1,0,0:0:0:0:
256,192,3117,1,0,0:0:0:0:
475,192,3117,1,0,0:0:0:0:
256,192,3460,1,0,0:0:0:0:
256,192,3803,1,0,0:0:0:0:
475,192,3803,1,0,0:0:0:0:
256,192,4032,1,0,0:0:0:0:
256,192,4146,1,0,0:0:0:0:
256,192,4489,1,0,0:0:0:0:
475,192,4489,1,0,0:0:0:0:
256,192,4832,1,0,0:0:0:0:
256,192,5060,1,0,0:0:0:0:
256,192,5174,1,0,0:0:0:0:
475,192,5174,1,0,0:0:0:0:
256,192,5403,1,0,0:0:0:0:
36,192,5517,1,0,0:0:0:0:
109,192,5517,1,0,0:0:0:0:
182,192,5517,1,0,0:0:0:0:
256,192,5517,1,0,0:0:0:0:
256,192,5860,1,0,0:0:0:0:
475,192,5860,1,0,0:0:0:0:
256,192,6203,1,0,0:0:0:0:
256,192,6546,1,0,0:0:0:0:
475,192,6546,1,0,0:0:0:0:
256,192,6774,1,0,0:0:0:0:
36,192,6889,1,0,0:0:0:0:
109,192,6889,1,0,0:0:0:0:
182,192,6889,1,0,0:0:0:0:
256,192,6889,1,0,0:0:0:0:
256,192,7232,1,0,0:0:0:0:
475,192,7232,1,0,0:0:0:0:
256,192,7574,1,0,0:0:0:0:
256,192,7803,1,0,0:0:0:0:
256,192,7917,1,0,0:0:0:0:
475,192,7917,1,0,0:0:0:0:
256,192,8146,1,0,0:0:0:0:
36,192,8260,1,0,0:0:0:0:
109,192,8260,1,0,0:0:0:0:
182,192,8260,1,0,0:0:0:0:
256,192,8260,1,0,0:0:0:0:
256,192,8603,1,0,0:0:0:0:
475,192,8603,1,0,0:0:0:0:
256,192,8946,1,0,0:0:0:0:
256,192,9289,1,0,0:0:0:0:
475,192,9289,1,0,0:0:0:0:
256,192,9517,1,0,0:0:0:0:
36,192,9632,1,0,0:0:0:0:
109,192,9632,1,0,0:0:0:0:
182,192,9632,1,0,0:0:0:0:
256,192,9632,1,0,0:0:0:0:
329,192,9632,1,0,0:0:0:0:
475,192,9632,1,0,0:0:0:0:
36,192,9974,1,0,0:0:0:0:
109,192,9974,1,0,0:0:0:0:
182,192,9974,1,0,0:0:0:0:
256,192,9974,1,0,0:0:0:0:
329,192,9974,1,0,0:0:0:0:
475,192,9974,1,0,0:0:0:0:
36,192,10317,1,0,0:0:0:0:
109,192,10317,1,0,0:0:0:0:
182,192,10317,1,0,0:0:0:0:
256,192,10317,1,0,0:0:0:0:
329,192,10317,1,0,0:0:0:0:
475,192,10317,1,0,0:0:0:0:
109,192,10660,1,0,0:0:0:0:
182,192,10660,1,0,0:0:0:0:
329,192,10660,1,0,0:0:0:0:
402,192,10660,1,0,0:0:0:0:
36,192,11003,1,0,0:0:0:0:
109,192,11003,1,0,0:0:0:0:
182,192,11003,1,0,0:0:0:0:
256,192,11003,1,0,0:0:0:0:
475,192,11003,1,0,0:0:0:0:
329,192,11117,1,0,0:0:0:0:
329,192,11232,1,0,0:0:0:0:
36,192,11346,1,0,0:0:0:0:
109,192,11346,1,0,0:0:0:0:
182,192,11346,1,0,0:0:0:0:
256,192,11346,1,0,0:0:0:0:
475,192,11346,1,0,0:0:0:0:
402,192,11460,1,0,0:0:0:0:
402,192,11574,1,0,0:0:0:0:
36,192,11689,1,0,0:0:0:0:
109,192,11689,1,0,0:0:0:0:
182,192,11689,1,0,0:0:0:0:
256,192,11689,1,0,0:0:0:0:
475,192,11689,1,0,0:0:0:0:
329,192,11803,1,0,0:0:0:0:
329,192,11917,1,0,0:0:0:0:
36,192,12032,1,0,0:0:0:0:
109,192,12032,1,0,0:0:0:0:
182,192,12032,1,0,0:0:0:0:
256,192,12032,1,0,0:0:0:0:
475,192,12032,1,0,0:0:0:0:
402,192,12146,1,0,0:0:0:0:
402,192,12260,1,0,0:0:0:0:
36,192,12374,1,0,0:0:0:0:
109,192,12374,1,0,0:0:0:0:
182,192,12374,1,0,0:0:0:0:
256,192,12374,1,0,0:0:0:0:
475,192,12374,1,0,0:0:0:0:
329,192,12489,1,0,0:0:0:0:
329,192,12603,1,0,0:0:0:0:
36,192,12717,1,0,0:0:0:0:
109,192,12717,1,0,0:0:0:0:
182,192,12717,1,0,0:0:0:0:
256,192,12717,1,0,0:0:0:0:
475,192,12717,1,0,0:0:0:0:
402,192,12832,1,0,0:0:0:0:
402,192,12946,1,0,0:0:0:0:
36,192,13060,1,0,0:0:0:0:
109,192,13060,1,0,0:0:0:0:
182,192,13060,1,0,0:0:0:0:
256,192,13060,1,0,0:0:0:0:
475,192,13060,1,0,0:0:0:0:
329,192,13174,1,0,0:0:0:0:
329,192,13289,1,0,0:0:0:0:
36,192,13403,1,0,0:0:0:0:
109,192,13403,1,0,0:0:0:0:
182,192,13403,1,0,0:0:0:0:
256,192,13403,1,0,0:0:0:0:
475,192,13403,1,0,0:0:0:0:
402,192,13517,1,0,0:0:0:0:
36,192,13632,1,0,0:0:0:0:
109,192,13632,1,0,0:0:0:0:
182,192,13632,1,0,0:0:0:0:
256,192,13632,1,0,0:0:0:0:
402,192,13632,1,0,0:0:0:0:
36,192,13746,1,0,0:0:0:0:
109,192,13746,1,0,0:0:0:0:
182,192,13746,1,0,0:0:0:0:
256,192,13746,1,0,0:0:0:0:
475,192,13746,1,0,0:0:0:0:
329,192,13860,1,0,0:0:0:0:
329,192,13974,1,0,0:0:0:0:
36,192,14089,1,0,0:0:0:0:
109,192,14089,1,0,0:0:0:0:
182,192,14089,1,0,0:0:0:0:
256,192,14089,1,0,0:0:0:0:
475,192,14089,1,0,0:0:0:0:
402,192,14203,1,0,0:0:0:0:
402,192,14317,1,0,0:0:0:0:
36,192,14432,1,0,0:0:0:0:
109,192,14432,1,0,0:0:0:0:
182,192,14432,1,0,0:0:0:0:
256,192,14432,1,0,0:0:0:0:
475,192,14432,1,0,0:0:0:0:
329,192,14546,1,0,0:0:0:0:
329,192,14660,1,0,0:0:0:0:
36,192,14774,1,0,0:0:0:0:
109,192,14774,1,0,0:0:0:0:
182,192,14774,1,0,0:0:0:0:
256,192,14774,1,0,0:0:0:0:
475,192,14774,1,0,0:0:0:0:
402,192,14889,1,0,0:0:0:0:
402,192,15003,1,0,0:0:0:0:
36,192,15117,1,0,0:0:0:0:
109,192,15117,1,0,0:0:0:0:
182,192,15117,1,0,0:0:0:0:
256,192,15117,1,0,0:0:0:0:
475,192,15117,1,0,0:0:0:0:
329,192,15232,1,0,0:0:0:0:
329,192,15346,1,0,0:0:0:0:
36,192,15460,1,0,0:0:0:0:
109,192,15460,1,0,0:0:0:0:
182,192,15460,1,0,0:0:0:0:
256,192,15460,1,0,0:0:0:0:
475,192,15460,1,0,0:0:0:0:
402,192,15574,1,0,0:0:0:0:
402,192,15689,1,0,0:0:0:0:
36,192,15803,1,0,0:0:0:0:
109,192,15803,1,0,0:0:0:0:
182,192,15803,1,0,0:0:0:0:
256,192,15803,1,0,0:0:0:0:
475,192,15803,1,0,0:0:0:0:
329,192,15917,1,0,0:0:0:0:
329,192,16032,1,0,0:0:0:0:
36,192,16146,1,0,0:0:0:0:
109,192,16146,1,0,0:0:0:0:
182,192,16146,1,0,0:0:0:0:
256,192,16146,1,0,0:0:0:0:
475,192,16146,1,0,0:0:0:0:
402,192,16260,1,0,0:0:0:0:
36,192,16374,1,0,0:0:0:0:
109,192,16374,1,0,0:0:0:0:
182,192,16374,1,0,0:0:0:0:
256,192,16374,1,0,0:0:0:0:
329,192,16374,1,0,0:0:0:0:
36,192,16489,1,0,0:0:0:0:
402,192,16489,1,0,0:0:0:0:
182,192,16489,1,0,0:0:0:0:
256,192,16489,1,0,0:0:0:0:
329,192,16489,1,0,0:0:0:0:
475,192,16489,1,0,0:0:0:0:
109,192,16603,1,0,0:0:0:0:
109,192,16717,1,0,0:0:0:0:
36,192,16832,1,0,0:0:0:0:
402,192,16832,1,0,0:0:0:0:
329,192,16832,1,0,0:0:0:0:
256,192,16832,1,0,0:0:0:0:
475,192,16832,1,0,0:0:0:0:
182,192,16946,1,0,0:0:0:0:
182,192,17060,1,0,0:0:0:0:
36,192,17174,1,0,0:0:0:0:
256,192,17174,1,0,0:0:0:0:
402,192,17174,1,0,0:0:0:0:
329,192,17174,1,0,0:0:0:0:
475,192,17174,1,0,0:0:0:0:
109,192,17289,1,0,0:0:0:0:
109,192,17403,1,0,0:0:0:0:
36,192,17517,1,0,0:0:0:0:
402,192,17517,1,0,0:0:0:0:
256,192,17517,1,0,0:0:0:0:
329,192,17517,1,0,0:0:0:0:
475,192,17517,1,0,0:0:0:0:
182,192,17632,1,0,0:0:0:0:
182,192,17746,1,0,0:0:0:0:
36,192,17860,1,0,0:0:0:0:
256,192,17860,1,0,0:0:0:0:
329,192,17860,1,0,0:0:0:0:
402,192,17860,1,0,0:0:0:0:
475,192,17860,1,0,0:0:0:0:
109,192,17974,1,0,0:0:0:0:
109,192,18089,1,0,0:0:0:0:
36,192,18203,1,0,0:0:0:0:
256,192,18203,1,0,0:0:0:0:
329,192,18203,1,0,0:0:0:0:
402,192,18203,1,0,0:0:0:0:
475,192,18203,1,0,0:0:0:0:
182,192,18317,1,0,0:0:0:0:
182,192,18432,1,0,0:0:0:0:
36,192,18546,1,0,0:0:0:0:
256,192,18546,1,0,0:0:0:0:
329,192,18546,1,0,0:0:0:0:
402,192,18546,1,0,0:0:0:0:
475,192,18546,1,0,0:0:0:0:
109,192,18660,1,0,0:0:0:0:
109,192,18774,1,0,0:0:0:0:
36,192,18889,1,0,0:0:0:0:
256,192,18889,1,0,0:0:0:0:
329,192,18889,1,0,0:0:0:0:
402,192,18889,1,0,0:0:0:0:
475,192,18889,1,0,0:0:0:0:
182,192,19003,1,0,0:0:0:0:
36,192,19117,1,0,0:0:0:0:
109,192,19117,1,0,0:0:0:0:
182,192,19117,1,0,0:0:0:0:
256,192,19117,1,0,0:0:0:0:
402,192,19117,1,0,0:0:0:0:
36,192,19232,1,0,0:0:0:0:
109,192,19232,1,0,0:0:0:0:
329,192,19232,1,0,0:0:0:0:
402,192,19232,1,0,0:0:0:0:
475,192,19232,1,0,0:0:0:0:
256,192,19346,1,0,0:0:0:0:
256,192,19460,1,0,0:0:0:0:
36,192,19574,1,0,0:0:0:0:
109,192,19574,1,0,0:0:0:0:
182,192,19574,1,0,0:0:0:0:
402,192,19574,1,0,0:0:0:0:
475,192,19574,1,0,0:0:0:0:
256,192,19689,1,0,0:0:0:0:
256,192,19803,1,0,0:0:0:0:
36,192,19917,1,0,0:0:0:0:
109,192,19917,1,0,0:0:0:0:
329,192,19917,1,0,0:0:0:0:
402,192,19917,1,0,0:0:0:0:
475,192,19917,1,0,0:0:0:0:
256,192,20032,1,0,0:0:0:0:
256,192,20146,1,0,0:0:0:0:
36,192,20260,1,0,0:0:0:0:
109,192,20260,1,0,0:0:0:0:
182,192,20260,1,0,0:0:0:0:
402,192,20260,1,0,0:0:0:0:
475,192,20260,1,0,0:0:0:0:
256,192,20374,1,0,0:0:0:0:
256,192,20489,1,0,0:0:0:0:
36,192,20603,1,0,0:0:0:0:
182,192,20603,1,0,0:0:0:0:
256,192,20603,1,0,0:0:0:0:
329,192,20603,1,0,0:0:0:0:
475,192,20603,1,0,0:0:0:0:
329,192,20717,1,0,0:0:0:0:
182,192,20832,1,0,0:0:0:0:
109,192,20946,1,0,0:0:0:0:
182,192,20946,1,0,0:0:0:0:
256,192,20946,1,0,0:0:0:0:
329,192,20946,1,0,0:0:0:0:
475,192,20946,1,0,0:0:0:0:
329,192,21060,1,0,0:0:0:0:
109,192,21174,1,0,0:0:0:0:
36,192,21289,1,0,0:0:0:0:
109,192,21289,1,0,0:0:0:0:
182,192,21289,1,0,0:0:0:0:
256,192,21289,1,0,0:0:0:0:
475,192,21289,1,0,0:0:0:0:
256,192,21403,1,0,0:0:0:0:
402,192,21517,1,0,0:0:0:0:
36,192,21632,1,0,0:0:0:0:
182,192,21632,1,0,0:0:0:0:
256,192,21632,1,0,0:0:0:0:
329,192,21632,1,0,0:0:0:0:
402,192,21632,1,0,0:0:0:0:
475,192,21632,1,0,0:0:0:0:
36,192,21974,1,0,0:0:0:0:
109,192,21974,1,0,0:0:0:0:
182,192,21974,1,0,0:0:0:0:
329,192,21974,1,0,0:0:0:0:
402,192,21974,1,0,0:0:0:0:
36,192,22203,1,0,0:0:0:0:
182,192,22317,1,0,0:0:0:0:
329,192,22546,1,0,0:0:0:0:
475,192,22660,1,0,0:0:0:0:
182,192,22889,1,0,0:0:0:0:
475,192,23232,1,0,0:0:0:0:
402,192,23346,1,0,0:0:0:0:
182,192,23460,1,0,0:0:0:0:
182,192,23574,1,0,0:0:0:0:
329,192,23689,1,0,0:0:0:0:
36,192,24032,1,0,0:0:0:0:
256,192,24146,1,0,0:0:0:0:
475,192,24260,1,0,0:0:0:0:
36,192,24374,1,0,0:0:0:0:
256,192,24489,1,0,0:0:0:0:
475,192,24603,1,0,0:0:0:0:
36,192,24717,1,0,0:0:0:0:
109,192,24832,1,0,0:0:0:0:
329,192,24946,1,0,0:0:0:0:
475,192,25060,1,0,0:0:0:0:
475,192,25289,1,0,0:0:0:0:
329,192,25403,1,0,0:0:0:0:
36,192,25632,1,0,0:0:0:0:
475,192,25974,1,0,0:0:0:0:
402,192,26089,1,0,0:0:0:0:
182,192,26203,1,0,0:0:0:0:
182,192,26317,1,0,0:0:0:0:
329,192,26432,1,0,0:0:0:0:
475,192,26774,1,0,0:0:0:0:
182,192,26889,1,0,0:0:0:0:
182,192,27003,1,0,0:0:0:0:
329,192,27117,1,0,0:0:0:0:
329,192,27232,1,0,0:0:0:0:
329,192,27346,1,0,0:0:0:0:
256,192,27460,1,0,0:0:0:0:
182,192,27574,1,0,0:0:0:0:
256,192,27689,1,0,0:0:0:0:
329,192,27803,1,0,0:0:0:0:
329,192,28032,1,0,0:0:0:0:
475,192,28146,1,0,0:0:0:0:
182,192,28374,1,0,0:0:0:0:
475,192,28717,1,0,0:0:0:0:
402,192,28832,1,0,0:0:0:0:
182,192,28946,1,0,0:0:0:0:
109,192,29060,1,0,0:0:0:0:
36,192,29174,1,0,0:0:0:0:
36,192,29517,1,0,0:0:0:0:
256,192,29632,1,0,0:0:0:0:
475,192,29746,1,0,0:0:0:0:
36,192,29860,1,0,0:0:0:0:
256,192,29974,1,0,0:0:0:0:
475,192,30089,1,0,0:0:0:0:
36,192,30203,1,0,0:0:0:0:
109,192,30317,1,0,0:0:0:0:
329,192,30432,1,0,0:0:0:0:
475,192,30546,1,0,0:0:0:0:
475,192,30774,1,0,0:0:0:0:
329,192,30889,1,0,0:0:0:0:
36,192,31117,1,0,0:0:0:0:
475,192,31460,1,0,0:0:0:0:
402,192,31574,1,0,0:0:0:0:
182,192,31689,1,0,0:0:0:0:
182,192,31803,1,0,0:0:0:0:
402,192,31917,1,0,0:0:0:0:
475,192,32260,1,0,0:0:0:0:
109,192,32374,1,0,0:0:0:0:
109,192,32489,1,0,0:0:0:0:
256,192,32603,1,0,0:0:0:0:
256,192,32717,1,0,0:0:0:0:
256,192,32832,1,0,0:0:0:0:
256,192,32946,1,0,0:0:0:0:
475,192,32946,1,0,0:0:0:0:
109,192,33174,1,0,0:0:0:0:
256,192,33289,1,0,0:0:0:0:
402,192,33289,1,0,0:0:0:0:
109,192,33517,1,0,0:0:0:0:
256,192,33632,1,0,0:0:0:0:
475,192,33632,1,0,0:0:0:0:
109,192,33860,1,0,0:0:0:0:
256,192,33974,1,0,0:0:0:0:
329,192,33974,1,0,0:0:0:0:
402,192,34089,1,0,0:0:0:0:
256,192,34203,1,0,0:0:0:0:
475,192,34203,1,0,0:0:0:0:
256,192,34317,1,0,0:0:0:0:
402,192,34317,1,0,0:0:0:0:
109,192,34546,1,0,0:0:0:0:
256,192,34660,1,0,0:0:0:0:
402,192,34660,1,0,0:0:0:0:
109,192,34889,1,0,0:0:0:0:
256,192,35003,1,0,0:0:0:0:
329,192,35003,1,0,0:0:0:0:
109,192,35232,1,0,0:0:0:0:
256,192,35232,1,0,0:0:0:0:
256,192,35346,1,0,0:0:0:0:
475,192,35346,1,0,0:0:0:0:
109,192,35574,1,0,0:0:0:0:
256,192,35574,1,0,0:0:0:0:
256,192,35689,1,0,0:0:0:0:
475,192,35689,1,0,0:0:0:0:
402,192,35803,1,0,0:0:0:0:
402,192,35917,1,0,0:0:0:0:
36,192,36032,1,0,0:0:0:0:
256,192,36032,1,0,0:0:0:0:
329,192,36146,1,0,0:0:0:0:
329,192,36260,1,0,0:0:0:0:
182,192,36374,1,0,0:0:0:0:
475,192,36374,1,0,0:0:0:0:
256,192,36489,1,0,0:0:0:0:
256,192,36603,1,0,0:0:0:0:
402,192,36717,1,0,0:0:0:0:
109,192,36717,1,0,0:0:0:0:
182,192,36832,1,0,0:0:0:0:
182,192,36946,1,0,0:0:0:0:
256,192,37060,1,0,0:0:0:0:
475,192,37060,1,0,0:0:0:0:
36,192,37060,1,0,0:0:0:0:
329,192,37174,1,0,0:0:0:0:
329,192,37289,1,0,0:0:0:0:
182,192,37289,1,0,0:0:0:0:
36,192,37403,1,0,0:0:0:0:
256,192,37403,1,0,0:0:0:0:
402,192,37403,1,0,0:0:0:0:
182,192,37517,1,0,0:0:0:0:
182,192,37632,1,0,0:0:0:0:
329,192,37632,1,0,0:0:0:0:
109,192,37746,1,0,0:0:0:0:
402,192,37746,1,0,0:0:0:0:
256,192,37860,1,0,0:0:0:0:
402,192,37974,1,0,0:0:0:0:
256,192,37974,1,0,0:0:0:0:
36,192,38089,1,0,0:0:0:0:
182,192,38089,1,0,0:0:0:0:
256,192,38203,1,0,0:0:0:0:
256,192,38317,1,0,0:0:0:0:
475,192,38317,1,0,0:0:0:0:
256,192,38432,1,0,0:0:0:0:
475,192,38432,1,0,0:0:0:0:
109,192,38660,1,0,0:0:0:0:
256,192,38774,1,0,0:0:0:0:
402,192,38774,1,0,0:0:0:0:
109,192,39003,1,0,0:0:0:0:
256,192,39117,1,0,0:0:0:0:
475,192,39117,1,0,0:0:0:0:
109,192,39346,1,0,0:0:0:0:
256,192,39460,1,0,0:0:0:0:
329,192,39460,1,0,0:0:0:0:
402,192,39574,1,0,0:0:0:0:
256,192,39689,1,0,0:0:0:0:
475,192,39689,1,0,0:0:0:0:
256,192,39803,1,0,0:0:0:0:
402,192,39803,1,0,0:0:0:0:
109,192,40032,1,0,0:0:0:0:
256,192,40146,1,0,0:0:0:0:
402,192,40146,1,0,0:0:0:0:
109,192,40374,1,0,0:0:0:0:
256,192,40489,1,0,0:0:0:0:
329,192,40489,1,0,0:0:0:0:
109,192,40717,1,0,0:0:0:0:
256,192,40717,1,0,0:0:0:0:
256,192,40832,1,0,0:0:0:0:
475,192,40832,1,0,0:0:0:0:
36,192,41060,1,0,0:0:0:0:
256,192,41060,1,0,0:0:0:0:
256,192,41174,1,0,0:0:0:0:
475,192,41174,1,0,0:0:0:0:
36,192,41403,1,0,0:0:0:0:
256,192,41517,1,0,0:0:0:0:
402,192,41517,1,0,0:0:0:0:
36,192,41746,1,0,0:0:0:0:
256,192,41860,1,0,0:0:0:0:
402,192,41860,1,0,0:0:0:0:
329,192,41974,1,0,0:0:0:0:
36,192,42089,1,0,0:0:0:0:
256,192,42203,1,0,0:0:0:0:
329,192,42203,1,0,0:0:0:0:
36,192,42432,1,0,0:0:0:0:
256,192,42432,1,0,0:0:0:0:
475,192,42432,1,0,0:0:0:0:
256,192,42546,1,0,0:0:0:0:
475,192,42546,1,0,0:0:0:0:
36,192,42546,1,0,0:0:0:0:
36,192,42774,1,0,0:0:0:0:
256,192,42889,1,0,0:0:0:0:
475,192,42889,1,0,0:0:0:0:
36,192,43117,1,0,0:0:0:0:
256,192,43232,1,0,0:0:0:0:
402,192,43232,1,0,0:0:0:0:
329,192,43346,1,0,0:0:0:0:
109,192,43574,1,0,0:0:0:0:
182,192,43574,1,0,0:0:0:0:
256,192,43574,1,0,0:0:0:0:
329,192,43574,1,0,0:0:0:0:
475,192,43574,1,0,0:0:0:0:
36,192,43917,1,0,0:0:0:0:
109,192,43917,1,0,0:0:0:0:
256,192,43917,1,0,0:0:0:0:
329,192,43917,1,0,0:0:0:0:
475,192,43917,1,0,0:0:0:0:
329,192,44032,1,0,0:0:0:0:
182,192,44032,1,0,0:0:0:0:
182,192,44146,1,0,0:0:0:0:
402,192,44146,1,0,0:0:0:0:
36,192,44260,1,0,0:0:0:0:
109,192,44260,1,0,0:0:0:0:
256,192,44260,1,0,0:0:0:0:
475,192,44260,1,0,0:0:0:0:
329,192,44374,1,0,0:0:0:0:
182,192,44374,1,0,0:0:0:0:
182,192,44489,1,0,0:0:0:0:
402,192,44489,1,0,0:0:0:0:
36,192,44603,1,0,0:0:0:0:
109,192,44603,1,0,0:0:0:0:
256,192,44603,1,0,0:0:0:0:
475,192,44603,1,0,0:0:0:0:
402,192,44717,1,0,0:0:0:0:
182,192,44717,1,0,0:0:0:0:
182,192,44832,1,0,0:0:0:0:
329,192,44832,1,0,0:0:0:0:
36,192,44946,1,0,0:0:0:0:
256,192,44946,1,0,0:0:0:0:
475,192,44946,1,0,0:0:0:0:
402,192,44946,1,0,0:0:0:0:
329,192,45060,1,0,0:0:0:0:
109,192,45060,1,0,0:0:0:0:
182,192,45174,1,0,0:0:0:0:
329,192,45174,1,0,0:0:0:0:
36,192,45289,1,0,0:0:0:0:
109,192,45289,1,0,0:0:0:0:
256,192,45289,1,0,0:0:0:0:
475,192,45289,1,0,0:0:0:0:
256,192,45403,1,0,0:0:0:0:
402,192,45403,1,0,0:0:0:0:
109,192,45517,1,0,0:0:0:0:
256,192,45517,1,0,0:0:0:0:
36,192,45632,1,0,0:0:0:0:
182,192,45632,1,0,0:0:0:0:
475,192,45632,1,0,0:0:0:0:
402,192,45632,1,0,0:0:0:0:
109,192,45746,1,0,0:0:0:0:
256,192,45746,1,0,0:0:0:0:
182,192,45860,1,0,0:0:0:0:
329,192,45860,1,0,0:0:0:0:
109,192,45974,1,0,0:0:0:0:
256,192,45974,1,0,0:0:0:0:
475,192,45974,1,0,0:0:0:0:
402,192,45974,1,0,0:0:0:0:
109,192,46089,1,0,0:0:0:0:
329,192,46089,1,0,0:0:0:0:
329,192,46203,1,0,0:0:0:0:
182,192,46203,1,0,0:0:0:0:
36,192,46317,1,0,0:0:0:0:
109,192,46317,1,0,0:0:0:0:
256,192,46317,1,0,0:0:0:0:
475,192,46317,1,0,0:0:0:0:
402,192,46432,1,0,0:0:0:0:
256,192,46432,1,0,0:0:0:0:
36,192,46546,1,0,0:0:0:0:
475,192,46546,1,0,0:0:0:0:
182,192,46546,1,0,0:0:0:0:
329,192,46546,1,0,0:0:0:0:
36,192,46660,1,0,0:0:0:0:
182,192,46660,1,0,0:0:0:0:
329,192,46660,1,0,0:0:0:0:
475,192,46660,1,0,0:0:0:0:
256,192,46774,1,0,0:0:0:0:
109,192,46774,1,0,0:0:0:0:
329,192,46889,1,0,0:0:0:0:
109,192,46889,1,0,0:0:0:0:
36,192,47003,1,0,0:0:0:0:
256,192,47003,1,0,0:0:0:0:
402,192,47003,1,0,0:0:0:0:
475,192,47003,1,0,0:0:0:0:
402,192,47117,1,0,0:0:0:0:
475,192,47117,1,0,0:0:0:0:
182,192,47232,1,0,0:0:0:0:
36,192,47232,1,0,0:0:0:0:
36,192,47346,1,0,0:0:0:0:
182,192,47346,1,0,0:0:0:0:
329,192,47346,1,0,0:0:0:0:
475,192,47346,1,0,0:0:0:0:
329,192,47460,1,0,0:0:0:0:
475,192,47460,1,0,0:0:0:0:
182,192,47574,1,0,0:0:0:0:
402,192,47574,1,0,0:0:0:0:
256,192,47689,1,0,0:0:0:0:
329,192,47689,1,0,0:0:0:0:
109,192,47689,1,0,0:0:0:0:
475,192,47689,1,0,0:0:0:0:
329,192,47803,1,0,0:0:0:0:
256,192,47803,1,0,0:0:0:0:
182,192,47917,1,0,0:0:0:0:
36,192,47917,1,0,0:0:0:0:
36,192,48032,1,0,0:0:0:0:
182,192,48032,1,0,0:0:0:0:
256,192,48032,1,0,0:0:0:0:
402,192,48032,1,0,0:0:0:0:
256,192,48146,1,0,0:0:0:0:
402,192,48146,1,0,0:0:0:0:
182,192,48260,1,0,0:0:0:0:
36,192,48260,1,0,0:0:0:0:
36,192,48374,1,0,0:0:0:0:
182,192,48374,1,0,0:0:0:0:
329,192,48374,1,0,0:0:0:0:
475,192,48374,1,0,0:0:0:0:
329,192,48489,1,0,0:0:0:0:
475,192,48489,1,0,0:0:0:0:
182,192,48603,1,0,0:0:0:0:
36,192,48603,1,0,0:0:0:0:
36,192,48717,1,0,0:0:0:0:
182,192,48717,1,0,0:0:0:0:
256,192,48717,1,0,0:0:0:0:
402,192,48717,1,0,0:0:0:0:
402,192,48832,1,0,0:0:0:0:
256,192,48832,1,0,0:0:0:0:
475,192,48946,1,0,0:0:0:0:
329,192,48946,1,0,0:0:0:0:
256,192,49060,1,0,0:0:0:0:
329,192,49060,1,0,0:0:0:0:
109,192,49060,1,0,0:0:0:0:
475,192,49060,1,0,0:0:0:0:
109,192,49174,1,0,0:0:0:0:
256,192,49174,1,0,0:0:0:0:
182,192,49289,1,0,0:0:0:0:
329,192,49289,1,0,0:0:0:0:
402,192,49289,1,0,0:0:0:0:
475,192,49289,1,0,0:0:0:0:
36,192,49289,1,0,0:0:0:0:
36,192,49403,1,0,0:0:0:0:
182,192,49403,1,0,0:0:0:0:
256,192,49403,1,0,0:0:0:0:
402,192,49403,1,0,0:0:0:0:
475,192,49403,1,0,0:0:0:0:
329,192,49517,1,0,0:0:0:0:
109,192,49517,1,0,0:0:0:0:
182,192,49632,1,0,0:0:0:0:
329,192,49632,1,0,0:0:0:0:
36,192,49746,1,0,0:0:0:0:
109,192,49746,1,0,0:0:0:0:
256,192,49746,1,0,0:0:0:0:
475,192,49746,1,0,0:0:0:0:
402,192,49860,1,0,0:0:0:0:
182,192,49860,1,0,0:0:0:0:
182,192,49974,1,0,0:0:0:0:
329,192,49974,1,0,0:0:0:0:
36,192,50089,1,0,0:0:0:0:
109,192,50089,1,0,0:0:0:0:
256,192,50089,1,0,0:0:0:0:
475,192,50089,1,0,0:0:0:0:
402,192,50203,1,0,0:0:0:0:
256,192,50203,1,0,0:0:0:0:
182,192,50317,1,0,0:0:0:0:
402,192,50317,1,0,0:0:0:0:
36,192,50432,1,0,0:0:0:0:
109,192,50432,1,0,0:0:0:0:
475,192,50432,1,0,0:0:0:0:
329,192,50432,1,0,0:0:0:0:
256,192,50546,1,0,0:0:0:0:
109,192,50546,1,0,0:0:0:0:
182,192,50660,1,0,0:0:0:0:
329,192,50660,1,0,0:0:0:0:
36,192,50774,1,0,0:0:0:0:
109,192,50774,1,0,0:0:0:0:
256,192,50774,1,0,0:0:0:0:
402,192,50774,1,0,0:0:0:0:
329,192,50889,1,0,0:0:0:0:
109,192,50889,1,0,0:0:0:0:
182,192,51003,1,0,0:0:0:0:
329,192,51003,1,0,0:0:0:0:
36,192,51117,1,0,0:0:0:0:
109,192,51117,1,0,0:0:0:0:
475,192,51117,1,0,0:0:0:0:
256,192,51117,1,0,0:0:0:0:
402,192,51232,1,0,0:0:0:0:
256,192,51232,1,0,0:0:0:0:
182,192,51346,1,0,0:0:0:0:
329,192,51346,1,0,0:0:0:0:
36,192,51460,1,0,0:0:0:0:
256,192,51460,1,0,0:0:0:0:
402,192,51460,1,0,0:0:0:0:
475,192,51460,1,0,0:0:0:0:
109,192,51574,1,0,0:0:0:0:
329,192,51574,1,0,0:0:0:0:
182,192,51689,1,0,0:0:0:0:
329,192,51689,1,0,0:0:0:0:
36,192,51803,1,0,0:0:0:0:
109,192,51803,1,0,0:0:0:0:
256,192,51803,1,0,0:0:0:0:
475,192,51803,1,0,0:0:0:0:
36,192,51917,1,0,0:0:0:0:
256,192,51917,1,0,0:0:0:0:
329,192,52032,1,0,0:0:0:0:
109,192,52032,1,0,0:0:0:0:
182,192,52032,1,0,0:0:0:0:
402,192,52032,1,0,0:0:0:0:
475,192,52032,1,0,0:0:0:0:
256,192,52146,1,0,0:0:0:0:
402,192,52146,1,0,0:0:0:0:
475,192,52146,1,0,0:0:0:0:
109,192,52146,1,0,0:0:0:0:
182,192,52146,1,0,0:0:0:0:
329,192,52260,1,0,0:0:0:0:
256,192,52260,1,0,0:0:0:0:
182,192,52374,1,0,0:0:0:0:
256,192,52374,1,0,0:0:0:0:
109,192,52489,1,0,0:0:0:0:
36,192,52489,1,0,0:0:0:0:
329,192,52489,1,0,0:0:0:0:
475,192,52489,1,0,0:0:0:0:
256,192,52603,1,0,0:0:0:0:
402,192,52603,1,0,0:0:0:0:
329,192,52717,1,0,0:0:0:0:
182,192,52717,1,0,0:0:0:0:
36,192,52832,1,0,0:0:0:0:
329,192,52832,1,0,0:0:0:0:
475,192,52832,1,0,0:0:0:0:
109,192,52832,1,0,0:0:0:0:
182,192,52946,1,0,0:0:0:0:
256,192,52946,1,0,0:0:0:0:
256,192,53060,1,0,0:0:0:0:
329,192,53060,1,0,0:0:0:0:
329,192,53174,1,0,0:0:0:0:
475,192,53174,1,0,0:0:0:0:
182,192,53174,1,0,0:0:0:0:
36,192,53174,1,0,0:0:0:0:
182,192,53289,1,0,0:0:0:0:
329,192,53403,1,0,0:0:0:0:
475,192,53403,1,0,0:0:0:0:
36,192,53517,1,0,0:0:0:0:
256,192,53517,1,0,0:0:0:0:
329,192,53517,1,0,0:0:0:0:
475,192,53517,1,0,0:0:0:0:
182,192,53632,1,0,0:0:0:0:
402,192,53632,1,0,0:0:0:0:
109,192,53746,1,0,0:0:0:0:
402,192,53746,1,0,0:0:0:0:
182,192,53860,1,0,0:0:0:0:
36,192,53860,1,0,0:0:0:0:
329,192,53860,1,0,0:0:0:0:
475,192,53860,1,0,0:0:0:0:
256,192,53974,1,0,0:0:0:0:
109,192,53974,1,0,0:0:0:0:
329,192,54089,1,0,0:0:0:0:
109,192,54089,1,0,0:0:0:0:
36,192,54203,1,0,0:0:0:0:
182,192,54203,1,0,0:0:0:0:
402,192,54203,1,0,0:0:0:0:
475,192,54203,1,0,0:0:0:0:
329,192,54317,1,0,0:0:0:0:
109,192,54317,1,0,0:0:0:0:
182,192,54432,1,0,0:0:0:0:
402,192,54432,1,0,0:0:0:0:
36,192,54546,1,0,0:0:0:0:
109,192,54546,1,0,0:0:0:0:
256,192,54546,1,0,0:0:0:0:
475,192,54546,1,0,0:0:0:0:
182,192,54660,1,0,0:0:0:0:
329,192,54660,1,0,0:0:0:0:
109,192,54774,1,0,0:0:0:0:
256,192,54774,1,0,0:0:0:0:
475,192,54774,1,0,0:0:0:0:
402,192,54774,1,0,0:0:0:0:
36,192,54889,1,0,0:0:0:0:
402,192,54889,1,0,0:0:0:0:
329,192,54889,1,0,0:0:0:0:
182,192,54889,1,0,0:0:0:0:
475,192,54889,1,0,0:0:0:0:
256,192,55003,1,0,0:0:0:0:
109,192,55117,1,0,0:0:0:0:
256,192,55117,1,0,0:0:0:0:
36,192,55232,1,0,0:0:0:0:
109,192,55232,1,0,0:0:0:0:
402,192,55232,1,0,0:0:0:0:
475,192,55232,1,0,0:0:0:0:
402,192,55346,1,0,0:0:0:0:
182,192,55346,1,0,0:0:0:0:
182,192,55460,1,0,0:0:0:0:
36,192,55574,1,0,0:0:0:0:
109,192,55574,1,0,0:0:0:0:
256,192,55574,1,0,0:0:0:0:
475,192,55574,1,0,0:0:0:0:
109,192,55689,1,0,0:0:0:0:
329,192,55689,1,0,0:0:0:0:
329,192,55803,1,0,0:0:0:0:
36,192,55917,1,0,0:0:0:0:
182,192,55917,1,0,0:0:0:0:
256,192,55917,1,0,0:0:0:0:
475,192,55917,1,0,0:0:0:0:
256,192,56032,1,0,0:0:0:0:
402,192,56032,1,0,0:0:0:0:
109,192,56146,1,0,0:0:0:0:
256,192,56146,1,0,0:0:0:0:
402,192,56260,1,0,0:0:0:0:
475,192,56260,1,0,0:0:0:0:
36,192,56260,1,0,0:0:0:0:
182,192,56260,1,0,0:0:0:0:
329,192,56374,1,0,0:0:0:0:
329,192,56489,1,0,0:0:0:0:
109,192,56489,1,0,0:0:0:0:
256,192,56603,1,0,0:0:0:0:
402,192,56603,1,0,0:0:0:0:
475,192,56603,1,0,0:0:0:0:
109,192,56603,1,0,0:0:0:0:
329,192,56717,1,0,0:0:0:0:
182,192,56832,1,0,0:0:0:0:
329,192,56832,1,0,0:0:0:0:
36,192,56946,1,0,0:0:0:0:
256,192,56946,1,0,0:0:0:0:
475,192,56946,1,0,0:0:0:0:
182,192,56946,1,0,0:0:0:0:
109,192,57060,1,0,0:0:0:0:
256,192,57174,1,0,0:0:0:0:
109,192,57174,1,0,0:0:0:0:
36,192,57289,1,0,0:0:0:0:
475,192,57289,1,0,0:0:0:0:
329,192,57289,1,0,0:0:0:0:
256,192,57289,1,0,0:0:0:0:
182,192,57403,1,0,0:0:0:0:
109,192,57517,1,0,0:0:0:0:
256,192,57517,1,0,0:0:0:0:
402,192,57517,1,0,0:0:0:0:
36,192,57517,1,0,0:0:0:0:
475,192,57517,1,0,0:0:0:0:
36,192,57632,1,0,0:0:0:0:
109,192,57632,1,0,0:0:0:0:
256,192,57632,1,0,0:0:0:0:
475,192,57632,1,0,0:0:0:0:
402,192,57632,1,0,0:0:0:0:
329,192,57746,1,0,0:0:0:0:
329,192,57860,1,0,0:0:0:0:
36,192,57974,1,0,0:0:0:0:
109,192,57974,1,0,0:0:0:0:
256,192,57974,1,0,0:0:0:0:
402,192,57974,1,0,0:0:0:0:
475,192,57974,1,0,0:0:0:0:
182,192,58089,1,0,0:0:0:0:
182,192,58203,1,0,0:0:0:0:
36,192,58317,1,0,0:0:0:0:
109,192,58317,1,0,0:0:0:0:
329,192,58317,1,0,0:0:0:0:
475,192,58317,1,0,0:0:0:0:
402,192,58432,1,0,0:0:0:0:
182,192,58432,1,0,0:0:0:0:
402,192,58546,1,0,0:0:0:0:
182,192,58546,1,0,0:0:0:0:
36,192,58660,1,0,0:0:0:0:
256,192,58660,1,0,0:0:0:0:
475,192,58660,1,0,0:0:0:0:
329,192,58774,1,0,0:0:0:0:
109,192,58774,1,0,0:0:0:0:
109,192,58889,1,0,0:0:0:0:
329,192,58889,1,0,0:0:0:0:
36,192,59003,1,0,0:0:0:0:
475,192,59003,1,0,0:0:0:0:
182,192,59003,1,0,0:0:0:0:
256,192,59003,1,0,0:0:0:0:
402,192,59003,1,0,0:0:0:0:
182,192,59117,1,0,0:0:0:0:
329,192,59232,1,0,0:0:0:0:
402,192,59346,1,0,0:0:0:0:
475,192,59346,1,0,0:0:0:0:
36,192,59346,1,0,0:0:0:0:
329,192,59346,1,0,0:0:0:0:
182,192,59346,1,0,0:0:0:0:
182,192,59460,1,0,0:0:0:0:
329,192,59574,1,0,0:0:0:0:
36,192,59689,1,0,0:0:0:0:
109,192,59689,1,0,0:0:0:0:
475,192,59689,1,0,0:0:0:0:
256,192,59689,1,0,0:0:0:0:
329,192,59689,1,0,0:0:0:0:
182,192,59803,1,0,0:0:0:0:
475,192,59917,1,0,0:0:0:0:
256,192,59917,1,0,0:0:0:0:
402,192,59917,1,0,0:0:0:0:
36,192,60032,1,0,0:0:0:0:
109,192,60032,1,0,0:0:0:0:
182,192,60032,1,0,0:0:0:0:
256,192,60032,1,0,0:0:0:0:
402,192,60032,1,0,0:0:0:0:
475,192,60032,1,0,0:0:0:0:
329,192,60146,1,0,0:0:0:0:
36,192,60260,1,0,0:0:0:0:
109,192,60260,1,0,0:0:0:0:
182,192,60260,1,0,0:0:0:0:
402,192,60260,1,0,0:0:0:0:
475,192,60260,1,0,0:0:0:0:
109,192,60374,1,0,0:0:0:0:
182,192,60374,1,0,0:0:0:0:
256,192,60374,1,0,0:0:0:0:
475,192,60374,1,0,0:0:0:0:
329,192,60489,1,0,0:0:0:0:
402,192,60489,1,0,0:0:0:0:
182,192,60603,1,0,0:0:0:0:
109,192,60603,1,0,0:0:0:0:
329,192,60717,1,0,0:0:0:0:
402,192,60717,1,0,0:0:0:0:
475,192,60717,1,0,0:0:0:0:
182,192,60717,1,0,0:0:0:0:
109,192,60717,1,0,0:0:0:0:
329,192,60832,1,0,0:0:0:0:
402,192,60832,1,0,0:0:0:0:
109,192,60946,1,0,0:0:0:0:
182,192,60946,1,0,0:0:0:0:
36,192,61060,1,0,0:0:0:0:
402,192,61060,1,0,0:0:0:0:
256,192,61060,1,0,0:0:0:0:
329,192,61060,1,0,0:0:0:0:
475,192,61060,1,0,0:0:0:0:
109,192,61174,1,0,0:0:0:0:
182,192,61174,1,0,0:0:0:0:
182,192,61289,1,0,0:0:0:0:
36,192,61403,1,0,0:0:0:0:
256,192,61403,1,0,0:0:0:0:
329,192,61403,1,0,0:0:0:0:
109,192,61403,1,0,0:0:0:0:
402,192,61403,1,0,0:0:0:0:
329,192,61517,1,0,0:0:0:0:
402,192,61517,1,0,0:0:0:0:
475,192,61517,1,0,0:0:0:0:
402,192,61632,1,0,0:0:0:0:
329,192,61632,1,0,0:0:0:0:
256,192,61632,1,0,0:0:0:0:
36,192,61746,1,0,0:0:0:0:
182,192,61746,1,0,0:0:0:0:
256,192,61746,1,0,0:0:0:0:
329,192,61746,1,0,0:0:0:0:
475,192,61860,1,0,0:0:0:0:
402,192,61860,1,0,0:0:0:0:
402,192,61974,1,0,0:0:0:0:
475,192,61974,1,0,0:0:0:0:
182,192,61974,1,0,0:0:0:0:
36,192,62089,1,0,0:0:0:0:
182,192,62089,1,0,0:0:0:0:
256,192,62089,1,0,0:0:0:0:
329,192,62089,1,0,0:0:0:0:
109,192,62203,1,0,0:0:0:0:
109,192,62317,1,0,0:0:0:0:
256,192,62317,1,0,0:0:0:0:
36,192,62432,1,0,0:0:0:0:
182,192,62432,1,0,0:0:0:0:
256,192,62432,1,0,0:0:0:0:
402,192,62432,1,0,0:0:0:0:
329,192,62546,1,0,0:0:0:0:
109,192,62660,1,0,0:0:0:0:
256,192,62660,1,0,0:0:0:0:
402,192,62660,1,0,0:0:0:0:
402,192,62774,1,0,0:0:0:0:
475,192,62774,1,0,0:0:0:0:
256,192,62774,1,0,0:0:0:0:
109,192,62774,1,0,0:0:0:0:
182,192,62889,1,0,0:0:0:0:
109,192,63003,1,0,0:0:0:0:
36,192,63003,1,0,0:0:0:0:
402,192,63003,1,0,0:0:0:0:
256,192,63003,1,0,0:0:0:0:
36,192,63117,1,0,0:0:0:0:
109,192,63117,1,0,0:0:0:0:
256,192,63117,1,0,0:0:0:0:
475,192,63117,1,0,0:0:0:0:
329,192,63117,1,0,0:0:0:0:
329,192,63232,1,0,0:0:0:0:
182,192,63346,1,0,0:0:0:0:
36,192,63460,1,0,0:0:0:0:
182,192,63460,1,0,0:0:0:0:
475,192,63460,1,0,0:0:0:0:
329,192,63460,1,0,0:0:0:0:
329,192,63574,1,0,0:0:0:0:
182,192,63689,1,0,0:0:0:0:
256,192,63803,1,0,0:0:0:0:
402,192,63803,1,0,0:0:0:0:
475,192,63803,1,0,0:0:0:0:
36,192,63803,1,0,0:0:0:0:
182,192,63917,1,0,0:0:0:0:
109,192,63917,1,0,0:0:0:0:
256,192,64032,1,0,0:0:0:0:
402,192,64032,1,0,0:0:0:0:
475,192,64032,1,0,0:0:0:0:
36,192,64146,1,0,0:0:0:0:
182,192,64146,1,0,0:0:0:0:
329,192,64146,1,0,0:0:0:0:
475,192,64146,1,0,0:0:0:0:
182,192,64260,1,0,0:0:0:0:
36,192,64260,1,0,0:0:0:0:
329,192,64374,1,0,0:0:0:0:
475,192,64374,1,0,0:0:0:0:
36,192,64489,1,0,0:0:0:0:
182,192,64489,1,0,0:0:0:0:
475,192,64489,1,0,0:0:0:0:
329,192,64489,1,0,0:0:0:0:
402,192,64603,1,0,0:0:0:0:
36,192,64717,1,0,0:0:0:0:
329,192,64717,1,0,0:0:0:0:
182,192,64717,1,0,0:0:0:0:
36,192,64832,1,0,0:0:0:0:
182,192,64832,1,0,0:0:0:0:
256,192,64832,1,0,0:0:0:0:
475,192,64832,1,0,0:0:0:0:
402,192,64946,1,0,0:0:0:0:
36,192,65060,1,0,0:0:0:0:
329,192,65060,1,0,0:0:0:0:
182,192,65060,1,0,0:0:0:0:
36,192,65174,1,0,0:0:0:0:
182,192,65174,1,0,0:0:0:0:
256,192,65174,1,0,0:0:0:0:
402,192,65174,1,0,0:0:0:0:
329,192,65403,1,0,0:0:0:0:
402,192,65403,1,0,0:0:0:0:
182,192,65403,1,0,0:0:0:0:
36,192,65517,1,0,0:0:0:0:
109,192,65517,1,0,0:0:0:0:
475,192,65517,1,0,0:0:0:0:
182,192,65517,1,0,0:0:0:0:
329,192,65517,1,0,0:0:0:0:
36,192,65860,1,0,0:0:0:0:
182,192,65860,1,0,0:0:0:0:
256,192,65860,1,0,0:0:0:0:
329,192,65860,1,0,0:0:0:0:
475,192,65860,1,0,0:0:0:0:
402,192,65974,1,0,0:0:0:0:
182,192,65974,1,0,0:0:0:0:
329,192,66089,1,0,0:0:0:0:
109,192,66089,1,0,0:0:0:0:
182,192,66203,1,0,0:0:0:0:
402,192,66203,1,0,0:0:0:0:
475,192,66203,1,0,0:0:0:0:
256,192,66203,1,0,0:0:0:0:
402,192,66317,1,0,0:0:0:0:
109,192,66317,1,0,0:0:0:0:
329,192,66432,1,0,0:0:0:0:
182,192,66432,1,0,0:0:0:0:
36,192,66546,1,0,0:0:0:0:
402,192,66546,1,0,0:0:0:0:
475,192,66546,1,0,0:0:0:0:
256,192,66546,1,0,0:0:0:0:
109,192,66660,1,0,0:0:0:0:
329,192,66660,1,0,0:0:0:0:
329,192,66774,1,0,0:0:0:0:
182,192,66774,1,0,0:0:0:0:
36,192,66889,1,0,0:0:0:0:
256,192,66889,1,0,0:0:0:0:
402,192,66889,1,0,0:0:0:0:
475,192,66889,1,0,0:0:0:0:
329,192,67003,1,0,0:0:0:0:
109,192,67003,1,0,0:0:0:0:
402,192,67117,1,0,0:0:0:0:
475,192,67117,1,0,0:0:0:0:
182,192,67117,1,0,0:0:0:0:
36,192,67232,1,0,0:0:0:0:
256,192,67232,1,0,0:0:0:0:
475,192,67232,1,0,0:0:0:0:
402,192,67232,1,0,0:0:0:0:
109,192,67346,1,0,0:0:0:0:
329,192,67346,1,0,0:0:0:0:
182,192,67460,1,0,0:0:0:0:
329,192,67460,1,0,0:0:0:0:
36,192,67574,1,0,0:0:0:0:
256,192,67574,1,0,0:0:0:0:
475,192,67574,1,0,0:0:0:0:
402,192,67574,1,0,0:0:0:0:
402,192,67689,1,0,0:0:0:0:
109,192,67689,1,0,0:0:0:0:
182,192,67803,1,0,0:0:0:0:
329,192,67803,1,0,0:0:0:0:
36,192,67917,1,0,0:0:0:0:
109,192,67917,1,0,0:0:0:0:
256,192,67917,1,0,0:0:0:0:
475,192,67917,1,0,0:0:0:0:
329,192,68032,1,0,0:0:0:0:
329,192,68146,1,0,0:0:0:0:
182,192,68146,1,0,0:0:0:0:
109,192,68146,1,0,0:0:0:0:
36,192,68260,1,0,0:0:0:0:
182,192,68260,1,0,0:0:0:0:
256,192,68260,1,0,0:0:0:0:
402,192,68260,1,0,0:0:0:0:
36,192,68489,1,0,0:0:0:0:
109,192,68489,1,0,0:0:0:0:
182,192,68489,1,0,0:0:0:0:
329,192,68489,1,0,0:0:0:0:
402,192,68489,1,0,0:0:0:0:
36,192,68603,1,0,0:0:0:0:
109,192,68603,1,0,0:0:0:0:
182,192,68603,1,0,0:0:0:0:
475,192,68603,1,0,0:0:0:0:
329,192,68603,1,0,0:0:0:0:
402,192,68717,1,0,0:0:0:0:
329,192,68832,1,0,0:0:0:0:
109,192,68832,1,0,0:0:0:0:
109,192,68946,1,0,0:0:0:0:
256,192,68946,1,0,0:0:0:0:
402,192,68946,1,0,0:0:0:0:
475,192,68946,1,0,0:0:0:0:
329,192,69060,1,0,0:0:0:0:
402,192,69174,1,0,0:0:0:0:
109,192,69174,1,0,0:0:0:0:
36,192,69289,1,0,0:0:0:0:
109,192,69289,1,0,0:0:0:0:
256,192,69289,1,0,0:0:0:0:
475,192,69289,1,0,0:0:0:0:
329,192,69403,1,0,0:0:0:0:
182,192,69403,1,0,0:0:0:0:
402,192,69517,1,0,0:0:0:0:
256,192,69517,1,0,0:0:0:0:
182,192,69632,1,0,0:0:0:0:
256,192,69632,1,0,0:0:0:0:
402,192,69632,1,0,0:0:0:0:
109,192,69632,1,0,0:0:0:0:
182,192,69746,1,0,0:0:0:0:
329,192,69746,1,0,0:0:0:0:
182,192,69860,1,0,0:0:0:0:
109,192,69974,1,0,0:0:0:0:
256,192,69974,1,0,0:0:0:0:
475,192,69974,1,0,0:0:0:0:
402,192,69974,1,0,0:0:0:0:
182,192,70089,1,0,0:0:0:0:
109,192,70203,1,0,0:0:0:0:
475,192,70203,1,0,0:0:0:0:
329,192,70203,1,0,0:0:0:0:
475,192,70317,1,0,0:0:0:0:
329,192,70317,1,0,0:0:0:0:
36,192,70317,1,0,0:0:0:0:
182,192,70317,1,0,0:0:0:0:
256,192,70432,1,0,0:0:0:0:
475,192,70546,1,0,0:0:0:0:
182,192,70546,1,0,0:0:0:0:
329,192,70546,1,0,0:0:0:0:
475,192,70660,1,0,0:0:0:0:
329,192,70660,1,0,0:0:0:0:
109,192,70660,1,0,0:0:0:0:
36,192,70660,1,0,0:0:0:0:
182,192,70774,1,0,0:0:0:0:
182,192,70889,1,0,0:0:0:0:
475,192,71003,1,0,0:0:0:0:
402,192,71003,1,0,0:0:0:0:
329,192,71003,1,0,0:0:0:0:
256,192,71003,1,0,0:0:0:0:
36,192,71232,1,0,0:0:0:0:
109,192,71232,1,0,0:0:0:0:
256,192,71232,1,0,0:0:0:0:
329,192,71232,1,0,0:0:0:0:
402,192,71232,1,0,0:0:0:0:
36,192,71346,1,0,0:0:0:0:
109,192,71346,1,0,0:0:0:0:
182,192,71346,1,0,0:0:0:0:
256,192,71346,1,0,0:0:0:0:
475,192,71346,1,0,0:0:0:0:
402,192,71460,1,0,0:0:0:0:
329,192,71574,1,0,0:0:0:0:
182,192,71574,1,0,0:0:0:0:
36,192,71689,1,0,0:0:0:0:
182,192,71689,1,0,0:0:0:0:
256,192,71689,1,0,0:0:0:0:
402,192,71689,1,0,0:0:0:0:
329,192,71803,1,0,0:0:0:0:
402,192,71917,1,0,0:0:0:0:
182,192,71917,1,0,0:0:0:0:
36,192,72032,1,0,0:0:0:0:
182,192,72032,1,0,0:0:0:0:
256,192,72032,1,0,0:0:0:0:
475,192,72032,1,0,0:0:0:0:
329,192,72146,1,0,0:0:0:0:
109,192,72146,1,0,0:0:0:0:
256,192,72260,1,0,0:0:0:0:
109,192,72260,1,0,0:0:0:0:
36,192,72374,1,0,0:0:0:0:
182,192,72374,1,0,0:0:0:0:
329,192,72374,1,0,0:0:0:0:
475,192,72374,1,0,0:0:0:0:
402,192,72489,1,0,0:0:0:0:
256,192,72489,1,0,0:0:0:0:
182,192,72603,1,0,0:0:0:0:
329,192,72603,1,0,0:0:0:0:
36,192,72717,1,0,0:0:0:0:
109,192,72717,1,0,0:0:0:0:
182,192,72717,1,0,0:0:0:0:
329,192,72717,1,0,0:0:0:0:
402,192,72832,1,0,0:0:0:0:
475,192,72946,1,0,0:0:0:0:
182,192,72946,1,0,0:0:0:0:
36,192,73060,1,0,0:0:0:0:
182,192,73060,1,0,0:0:0:0:
256,192,73060,1,0,0:0:0:0:
329,192,73060,1,0,0:0:0:0:
475,192,73174,1,0,0:0:0:0:
402,192,73289,1,0,0:0:0:0:
182,192,73289,1,0,0:0:0:0:
36,192,73403,1,0,0:0:0:0:
182,192,73403,1,0,0:0:0:0:
256,192,73403,1,0,0:0:0:0:
329,192,73403,1,0,0:0:0:0:
475,192,73403,1,0,0:0:0:0:
402,192,73517,1,0,0:0:0:0:
402,192,73632,1,0,0:0:0:0:
256,192,73632,1,0,0:0:0:0:
182,192,73632,1,0,0:0:0:0:
36,192,73746,1,0,0:0:0:0:
109,192,73746,1,0,0:0:0:0:
182,192,73746,1,0,0:0:0:0:
256,192,73746,1,0,0:0:0:0:
36,192,73974,1,0,0:0:0:0:
109,192,73974,1,0,0:0:0:0:
182,192,73974,1,0,0:0:0:0:
256,192,73974,1,0,0:0:0:0:
36,192,74089,1,0,0:0:0:0:
109,192,74089,1,0,0:0:0:0:
182,192,74089,1,0,0:0:0:0:
256,192,74089,1,0,0:0:0:0:
402,192,74089,1,0,0:0:0:0:
402,192,74203,1,0,0:0:0:0:
36,192,74317,1,0,0:0:0:0:
256,192,74317,1,0,0:0:0:0:
36,192,74432,1,0,0:0:0:0:
256,192,74432,1,0,0:0:0:0:
402,192,74432,1,0,0:0:0:0:
475,192,74432,1,0,0:0:0:0:
402,192,74546,1,0,0:0:0:0:
36,192,74660,1,0,0:0:0:0:
256,192,74660,1,0,0:0:0:0:
36,192,74774,1,0,0:0:0:0:
256,192,74774,1,0,0:0:0:0:
475,192,74774,1,0,0:0:0:0:
182,192,74774,1,0,0:0:0:0:
182,192,74889,1,0,0:0:0:0:
329,192,75003,1,0,0:0:0:0:
475,192,75003,1,0,0:0:0:0:
36,192,75117,1,0,0:0:0:0:
182,192,75117,1,0,0:0:0:0:
329,192,75117,1,0,0:0:0:0:
475,192,75117,1,0,0:0:0:0:
182,192,75232,1,0,0:0:0:0:
36,192,75346,1,0,0:0:0:0:
475,192,75346,1,0,0:0:0:0:
329,192,75346,1,0,0:0:0:0:
109,192,75346,1,0,0:0:0:0:
36,192,75460,1,0,0:0:0:0:
109,192,75460,1,0,0:0:0:0:
182,192,75460,1,0,0:0:0:0:
402,192,75460,1,0,0:0:0:0:
475,192,75460,1,0,0:0:0:0:
329,192,75460,1,0,0:0:0:0:
402,192,75574,1,0,0:0:0:0:
182,192,75689,1,0,0:0:0:0:
402,192,75689,1,0,0:0:0:0:
36,192,75803,1,0,0:0:0:0:
109,192,75803,1,0,0:0:0:0:
256,192,75803,1,0,0:0:0:0:
329,192,75803,1,0,0:0:0:0:
182,192,75917,1,0,0:0:0:0:
182,192,76032,1,0,0:0:0:0:
402,192,76032,1,0,0:0:0:0:
36,192,76146,1,0,0:0:0:0:
109,192,76146,1,0,0:0:0:0:
256,192,76146,1,0,0:0:0:0:
475,192,76146,1,0,0:0:0:0:
329,192,76260,1,0,0:0:0:0:
329,192,76374,1,0,0:0:0:0:
182,192,76374,1,0,0:0:0:0:
36,192,76489,1,0,0:0:0:0:
182,192,76489,1,0,0:0:0:0:
329,192,76489,1,0,0:0:0:0:
475,192,76489,1,0,0:0:0:0:
329,192,76603,1,0,0:0:0:0:
36,192,76717,1,0,0:0:0:0:
109,192,76717,1,0,0:0:0:0:
182,192,76717,1,0,0:0:0:0:
402,192,76717,1,0,0:0:0:0:
256,192,76717,1,0,0:0:0:0:
36,192,76832,1,0,0:0:0:0:
109,192,76832,1,0,0:0:0:0:
182,192,76832,1,0,0:0:0:0:
329,192,76832,1,0,0:0:0:0:
475,192,76832,1,0,0:0:0:0:
256,192,76946,1,0,0:0:0:0:
329,192,77060,1,0,0:0:0:0:
109,192,77060,1,0,0:0:0:0:
109,192,77174,1,0,0:0:0:0:
256,192,77174,1,0,0:0:0:0:
402,192,77174,1,0,0:0:0:0:
475,192,77174,1,0,0:0:0:0:
329,192,77289,1,0,0:0:0:0:
402,192,77403,1,0,0:0:0:0:
182,192,77403,1,0,0:0:0:0:
36,192,77517,1,0,0:0:0:0:
109,192,77517,1,0,0:0:0:0:
182,192,77517,1,0,0:0:0:0:
402,192,77517,1,0,0:0:0:0:
329,192,77632,1,0,0:0:0:0:
256,192,77746,1,0,0:0:0:0:
475,192,77746,1,0,0:0:0:0:
329,192,77860,1,0,0:0:0:0:
475,192,77860,1,0,0:0:0:0:
109,192,77860,1,0,0:0:0:0:
256,192,77860,1,0,0:0:0:0:
109,192,77974,1,0,0:0:0:0:
256,192,78089,1,0,0:0:0:0:
182,192,78089,1,0,0:0:0:0:
475,192,78089,1,0,0:0:0:0:
36,192,78203,1,0,0:0:0:0:
182,192,78203,1,0,0:0:0:0:
256,192,78203,1,0,0:0:0:0:
475,192,78203,1,0,0:0:0:0:
329,192,78317,1,0,0:0:0:0:
36,192,78432,1,0,0:0:0:0:
182,192,78432,1,0,0:0:0:0:
256,192,78432,1,0,0:0:0:0:
36,192,78546,1,0,0:0:0:0:
256,192,78546,1,0,0:0:0:0:
182,192,78546,1,0,0:0:0:0:
402,192,78546,1,0,0:0:0:0:
329,192,78660,1,0,0:0:0:0:
36,192,78774,1,0,0:0:0:0:
182,192,78774,1,0,0:0:0:0:
402,192,78774,1,0,0:0:0:0:
36,192,78889,1,0,0:0:0:0:
182,192,78889,1,0,0:0:0:0:
256,192,78889,1,0,0:0:0:0:
402,192,78889,1,0,0:0:0:0:
329,192,79003,1,0,0:0:0:0:
329,192,79117,1,0,0:0:0:0:
109,192,79117,1,0,0:0:0:0:
182,192,79117,1,0,0:0:0:0:
36,192,79232,1,0,0:0:0:0:
109,192,79232,1,0,0:0:0:0:
182,192,79232,1,0,0:0:0:0:
256,192,79232,1,0,0:0:0:0:
475,192,79232,1,0,0:0:0:0:
36,192,79460,1,0,0:0:0:0:
109,192,79460,1,0,0:0:0:0:
256,192,79460,1,0,0:0:0:0:
402,192,79460,1,0,0:0:0:0:
475,192,79460,1,0,0:0:0:0:
36,192,79574,1,0,0:0:0:0:
182,192,79574,1,0,0:0:0:0:
475,192,79574,1,0,0:0:0:0:
329,192,79574,1,0,0:0:0:0:
109,192,79574,1,0,0:0:0:0:
182,192,79689,1,0,0:0:0:0:
402,192,79689,1,0,0:0:0:0:
329,192,79803,1,0,0:0:0:0:
109,192,79803,1,0,0:0:0:0:
36,192,79917,1,0,0:0:0:0:
256,192,79917,1,0,0:0:0:0:
402,192,79917,1,0,0:0:0:0:
475,192,79917,1,0,0:0:0:0:
109,192,80032,1,0,0:0:0:0:
329,192,80032,1,0,0:0:0:0:
329,192,80146,1,0,0:0:0:0:
182,192,80146,1,0,0:0:0:0:
36,192,80260,1,0,0:0:0:0:
402,192,80260,1,0,0:0:0:0:
475,192,80260,1,0,0:0:0:0:
256,192,80260,1,0,0:0:0:0:
329,192,80374,1,0,0:0:0:0:
109,192,80374,1,0,0:0:0:0:
182,192,80489,1,0,0:0:0:0:
329,192,80489,1,0,0:0:0:0:
36,192,80603,1,0,0:0:0:0:
475,192,80603,1,0,0:0:0:0:
256,192,80603,1,0,0:0:0:0:
402,192,80603,1,0,0:0:0:0:
109,192,80717,1,0,0:0:0:0:
329,192,80717,1,0,0:0:0:0:
256,192,80832,1,0,0:0:0:0:
109,192,80832,1,0,0:0:0:0:
36,192,80946,1,0,0:0:0:0:
182,192,80946,1,0,0:0:0:0:
475,192,80946,1,0,0:0:0:0:
402,192,80946,1,0,0:0:0:0:
182,192,81060,1,0,0:0:0:0:
329,192,81060,1,0,0:0:0:0:
329,192,81174,1,0,0:0:0:0:
109,192,81174,1,0,0:0:0:0:
182,192,81289,1,0,0:0:0:0:
256,192,81289,1,0,0:0:0:0:
475,192,81289,1,0,0:0:0:0:
402,192,81289,1,0,0:0:0:0:
329,192,81403,1,0,0:0:0:0:
109,192,81403,1,0,0:0:0:0:
329,192,81517,1,0,0:0:0:0:
182,192,81517,1,0,0:0:0:0:
36,192,81632,1,0,0:0:0:0:
256,192,81632,1,0,0:0:0:0:
402,192,81632,1,0,0:0:0:0:
475,192,81632,1,0,0:0:0:0:
109,192,81632,1,0,0:0:0:0:
256,192,81746,1,0,0:0:0:0:
182,192,81860,1,0,0:0:0:0:
329,192,81860,1,0,0:0:0:0:
475,192,81860,1,0,0:0:0:0:
109,192,81860,1,0,0:0:0:0:
36,192,81974,1,0,0:0:0:0:
109,192,81974,1,0,0:0:0:0:
182,192,81974,1,0,0:0:0:0:
475,192,81974,1,0,0:0:0:0:
329,192,81974,1,0,0:0:0:0:
36,192,82203,1,0,0:0:0:0:
182,192,82203,1,0,0:0:0:0:
256,192,82203,1,0,0:0:0:0:
329,192,82203,1,0,0:0:0:0:
402,192,82203,1,0,0:0:0:0:
36,192,82317,1,0,0:0:0:0:
109,192,82317,1,0,0:0:0:0:
256,192,82317,1,0,0:0:0:0:
402,192,82317,1,0,0:0:0:0:
475,192,82317,1,0,0:0:0:0:
329,192,82432,1,0,0:0:0:0:
182,192,82432,1,0,0:0:0:0:
402,192,82546,1,0,0:0:0:0:
182,192,82546,1,0,0:0:0:0:
36,192,82660,1,0,0:0:0:0:
109,192,82660,1,0,0:0:0:0:
256,192,82660,1,0,0:0:0:0:
402,192,82660,1,0,0:0:0:0:
475,192,82660,1,0,0:0:0:0:
329,192,82774,1,0,0:0:0:0:
182,192,82774,1,0,0:0:0:0:
256,192,82889,1,0,0:0:0:0:
109,192,82889,1,0,0:0:0:0:
36,192,83003,1,0,0:0:0:0:
109,192,83003,1,0,0:0:0:0:
182,192,83003,1,0,0:0:0:0:
256,192,83003,1,0,0:0:0:0:
402,192,83003,1,0,0:0:0:0:
475,192,83003,1,0,0:0:0:0:
182,192,83117,1,0,0:0:0:0:
402,192,83117,1,0,0:0:0:0:
329,192,83232,1,0,0:0:0:0:
109,192,83232,1,0,0:0:0:0:
36,192,83346,1,0,0:0:0:0:
109,192,83346,1,0,0:0:0:0:
182,192,83346,1,0,0:0:0:0:
256,192,83346,1,0,0:0:0:0:
329,192,83346,1,0,0:0:0:0:
475,192,83346,1,0,0:0:0:0:
182,192,83460,1,0,0:0:0:0:
256,192,83574,1,0,0:0:0:0:
402,192,83574,1,0,0:0:0:0:
475,192,83574,1,0,0:0:0:0:
109,192,83574,1,0,0:0:0:0:
36,192,83689,1,0,0:0:0:0:
109,192,83689,1,0,0:0:0:0:
182,192,83689,1,0,0:0:0:0:
256,192,83689,1,0,0:0:0:0:
475,192,83689,1,0,0:0:0:0:
329,192,83803,1,0,0:0:0:0:
402,192,83917,1,0,0:0:0:0:
182,192,83917,1,0,0:0:0:0:
36,192,84032,1,0,0:0:0:0:
109,192,84032,1,0,0:0:0:0:
182,192,84032,1,0,0:0:0:0:
256,192,84032,1,0,0:0:0:0:
475,192,84032,1,0,0:0:0:0:
402,192,84146,1,0,0:0:0:0:
329,192,84260,1,0,0:0:0:0:
109,192,84260,1,0,0:0:0:0:
36,192,84374,1,0,0:0:0:0:
109,192,84374,1,0,0:0:0:0:
182,192,84374,1,0,0:0:0:0:
256,192,84374,1,0,0:0:0:0:
402,192,84374,1,0,0:0:0:0:
475,192,84374,1,0,0:0:0:0:
182,192,84489,1,0,0:0:0:0:
402,192,84489,1,0,0:0:0:0:
329,192,84603,1,0,0:0:0:0:
36,192,84717,1,0,0:0:0:0:
109,192,84717,1,0,0:0:0:0:
182,192,84717,1,0,0:0:0:0:
256,192,84717,1,0,0:0:0:0:
475,192,84717,1,0,0:0:0:0:
36,192,84946,1,0,0:0:0:0:
109,192,84946,1,0,0:0:0:0:
256,192,84946,1,0,0:0:0:0:
329,192,84946,1,0,0:0:0:0:
402,192,84946,1,0,0:0:0:0:
36,192,85060,1,0,0:0:0:0:
109,192,85060,1,0,0:0:0:0:
256,192,85060,1,0,0:0:0:0:
402,192,85060,1,0,0:0:0:0:
475,192,85060,1,0,0:0:0:0:
329,192,85060,1,0,0:0:0:0:
182,192,85174,1,0,0:0:0:0:
329,192,85289,1,0,0:0:0:0:
182,192,85289,1,0,0:0:0:0:
36,192,85403,1,0,0:0:0:0:
109,192,85403,1,0,0:0:0:0:
329,192,85403,1,0,0:0:0:0:
256,192,85403,1,0,0:0:0:0:
402,192,85403,1,0,0:0:0:0:
475,192,85403,1,0,0:0:0:0:
182,192,85517,1,0,0:0:0:0:
256,192,85632,1,0,0:0:0:0:
402,192,85632,1,0,0:0:0:0:
36,192,85746,1,0,0:0:0:0:
109,192,85746,1,0,0:0:0:0:
329,192,85746,1,0,0:0:0:0:
256,192,85746,1,0,0:0:0:0:
402,192,85746,1,0,0:0:0:0:
475,192,85746,1,0,0:0:0:0:
329,192,85860,1,0,0:0:0:0:
182,192,85860,1,0,0:0:0:0:
475,192,85974,1,0,0:0:0:0:
109,192,85974,1,0,0:0:0:0:
475,192,86089,1,0,0:0:0:0:
402,192,86089,1,0,0:0:0:0:
329,192,86089,1,0,0:0:0:0:
256,192,86089,1,0,0:0:0:0:
182,192,86089,1,0,0:0:0:0:
36,192,86089,1,0,0:0:0:0:
109,192,86203,1,0,0:0:0:0:
329,192,86203,1,0,0:0:0:0:
475,192,86317,1,0,0:0:0:0:
256,192,86317,1,0,0:0:0:0:
182,192,86317,1,0,0:0:0:0:
36,192,86317,1,0,0:0:0:0:
475,192,86432,1,0,0:0:0:0:
402,192,86432,1,0,0:0:0:0:
329,192,86432,1,0,0:0:0:0:
256,192,86432,1,0,0:0:0:0:
109,192,86432,1,0,0:0:0:0:
402,192,86546,1,0,0:0:0:0:
36,192,86660,1,0,0:0:0:0:
182,192,86660,1,0,0:0:0:0:
329,192,86660,1,0,0:0:0:0:
36,192,86774,1,0,0:0:0:0:
109,192,86774,1,0,0:0:0:0:
182,192,86774,1,0,0:0:0:0:
256,192,86774,1,0,0:0:0:0:
475,192,86774,1,0,0:0:0:0:
402,192,86774,1,0,0:0:0:0:
329,192,86889,1,0,0:0:0:0:
182,192,87003,1,0,0:0:0:0:
109,192,87003,1,0,0:0:0:0:
36,192,87003,1,0,0:0:0:0:
256,192,87003,1,0,0:0:0:0:
402,192,87003,1,0,0:0:0:0:
36,192,87117,1,0,0:0:0:0:
109,192,87117,1,0,0:0:0:0:
182,192,87117,1,0,0:0:0:0:
256,192,87117,1,0,0:0:0:0:
402,192,87117,1,0,0:0:0:0:
475,192,87117,1,0,0:0:0:0:
475,192,87460,1,0,0:0:0:0:
402,192,87460,1,0,0:0:0:0:
329,192,87460,1,0,0:0:0:0:
256,192,87460,1,0,0:0:0:0:
109,192,87460,1,0,0:0:0:0:
36,192,87460,1,0,0:0:0:0:
402,192,100282,5,0,0:0:0:0:
109,192,100407,1,0,0:0:0:0:
109,192,100657,1,0,0:0:0:0:
402,192,100782,1,0,0:0:0:0:
109,192,100907,1,0,0:0:0:0:
109,192,101157,1,0,0:0:0:0:
402,192,101282,1,0,0:0:0:0:
109,192,101407,1,0,0:0:0:0:
182,192,101532,1,0,0:0:0:0:
329,192,101532,1,0,0:0:0:0:
109,192,101657,1,0,0:0:0:0:
402,192,101782,1,0,0:0:0:0:
329,192,101907,1,0,0:0:0:0:
182,192,101907,1,0,0:0:0:0:
109,192,101907,1,0,0:0:0:0:
109,192,102157,1,0,0:0:0:0:
402,192,102282,1,0,0:0:0:0:
109,192,102407,1,0,0:0:0:0:
256,192,102657,1,0,0:0:0:0:
475,192,102782,1,0,0:0:0:0:
256,192,102907,1,0,0:0:0:0:
256,192,103157,1,0,0:0:0:0:
402,192,103282,1,0,0:0:0:0:
109,192,103407,1,0,0:0:0:0:
109,192,103532,1,0,0:0:0:0:
109,192,103657,1,0,0:0:0:0:
475,192,103782,1,0,0:0:0:0:
182,192,103907,1,0,0:0:0:0:
182,192,104032,1,0,0:0:0:0:
182,192,104157,1,0,0:0:0:0:
402,192,104282,1,0,0:0:0:0:
109,192,104407,1,0,0:0:0:0:
36,192,104657,1,0,0:0:0:0:
256,192,104782,1,0,0:0:0:0:
36,192,104907,1,0,0:0:0:0:
36,192,105157,1,0,0:0:0:0:
256,192,105282,1,0,0:0:0:0:
36,192,105407,1,0,0:0:0:0:
475,192,105532,1,0,0:0:0:0:
402,192,105532,1,0,0:0:0:0:
36,192,105657,1,0,0:0:0:0:
256,192,105782,1,0,0:0:0:0:
475,192,105907,1,0,0:0:0:0:
36,192,105907,1,0,0:0:0:0:
402,192,105907,1,0,0:0:0:0:
36,192,106157,1,0,0:0:0:0:
256,192,106282,1,0,0:0:0:0:
36,192,106407,1,0,0:0:0:0:
36,192,106657,1,0,0:0:0:0:
256,192,106782,1,0,0:0:0:0:
109,192,106907,1,0,0:0:0:0:
109,192,107032,1,0,0:0:0:0:
109,192,107157,1,0,0:0:0:0:
402,192,107282,1,0,0:0:0:0:
182,192,107407,1,0,0:0:0:0:
182,192,107532,1,0,0:0:0:0:
182,192,107657,1,0,0:0:0:0:
329,192,107782,1,0,0:0:0:0:
256,192,107907,1,0,0:0:0:0:
256,192,108157,1,0,0:0:0:0:
182,192,108282,1,0,0:0:0:0:
402,192,108282,1,0,0:0:0:0:
475,192,108282,1,0,0:0:0:0:
109,192,108407,1,0,0:0:0:0:
109,192,108657,1,0,0:0:0:0:
329,192,108782,1,0,0:0:0:0:
109,192,108907,1,0,0:0:0:0:
182,192,109032,1,0,0:0:0:0:
36,192,109157,1,0,0:0:0:0:
256,192,109157,1,0,0:0:0:0:
402,192,109282,1,0,0:0:0:0:
475,192,109282,1,0,0:0:0:0:
109,192,109282,1,0,0:0:0:0:
329,192,109282,1,0,0:0:0:0:
182,192,109407,1,0,0:0:0:0:
36,192,109532,1,0,0:0:0:0:
182,192,109657,1,0,0:0:0:0:
329,192,109782,1,0,0:0:0:0:
36,192,109907,1,0,0:0:0:0:
109,192,109907,1,0,0:0:0:0:
475,192,110032,1,0,0:0:0:0:
402,192,110073,1,0,0:0:0:0:
329,192,110115,1,0,0:0:0:0:
182,192,110157,1,0,0:0:0:0:
256,192,110157,1,0,0:0:0:0:
36,192,110282,1,0,0:0:0:0:
109,192,110407,1,0,0:0:0:0:
475,192,110407,1,0,0:0:0:0:
402,192,110448,1,0,0:0:0:0:
329,192,110490,1,0,0:0:0:0:
182,192,110532,1,0,0:0:0:0:
256,192,110532,1,0,0:0:0:0:
36,192,110657,1,0,0:0:0:0:
109,192,110782,1,0,0:0:0:0:
475,192,110782,1,0,0:0:0:0:
402,192,110823,1,0,0:0:0:0:
182,192,110844,1,0,0:0:0:0:
329,192,110865,1,0,0:0:0:0:
256,192,110907,1,0,0:0:0:0:
36,192,110969,1,0,0:0:0:0:
182,192,111125,1,0,0:0:0:0:
329,192,111157,1,0,0:0:0:0:
109,192,111157,1,0,0:0:0:0:
256,192,111282,1,0,0:0:0:0:
36,192,111282,1,0,0:0:0:0:
475,192,111282,1,0,0:0:0:0:
402,192,111282,1,0,0:0:0:0:
182,192,111407,1,0,0:0:0:0:
109,192,111532,1,0,0:0:0:0:
182,192,111657,1,0,0:0:0:0:
402,192,111782,1,0,0:0:0:0:
329,192,111907,1,0,0:0:0:0:
109,192,111907,1,0,0:0:0:0:
256,192,112032,1,0,0:0:0:0:
109,192,112032,1,0,0:0:0:0:
329,192,112157,1,0,0:0:0:0:
109,192,112157,1,0,0:0:0:0:
402,192,112282,1,0,0:0:0:0:
475,192,112407,1,0,0:0:0:0:
109,192,112407,1,0,0:0:0:0:
109,192,112532,1,0,0:0:0:0:
329,192,112657,1,0,0:0:0:0:
109,192,112657,1,0,0:0:0:0:
402,192,112782,1,0,0:0:0:0:
329,192,112907,1,0,0:0:0:0:
109,192,112907,1,0,0:0:0:0:
109,192,113032,1,0,0:0:0:0:
329,192,113157,1,0,0:0:0:0:
109,192,113157,1,0,0:0:0:0:
475,192,113282,1,0,0:0:0:0:
256,192,113282,1,0,0:0:0:0:
36,192,113282,1,0,0:0:0:0:
402,192,113282,1,0,0:0:0:0:
182,192,113407,1,0,0:0:0:0:
36,192,113532,1,0,0:0:0:0:
256,192,113657,1,0,0:0:0:0:
109,192,113782,1,0,0:0:0:0:
402,192,113782,1,0,0:0:0:0:
329,192,113907,1,0,0:0:0:0:
256,192,113907,1,0,0:0:0:0:
329,192,114157,1,0,0:0:0:0:
109,192,114282,1,0,0:0:0:0:
36,192,114282,1,0,0:0:0:0:
402,192,114282,1,0,0:0:0:0:
475,192,114282,1,0,0:0:0:0:
256,192,114407,1,0,0:0:0:0:
182,192,114657,1,0,0:0:0:0:
256,192,114782,1,0,0:0:0:0:
109,192,114782,1,0,0:0:0:0:
329,192,114907,1,0,0:0:0:0:
109,192,115032,1,0,0:0:0:0:
329,192,115157,1,0,0:0:0:0:
475,192,115282,1,0,0:0:0:0:
256,192,115282,1,0,0:0:0:0:
109,192,115282,1,0,0:0:0:0:
36,192,115282,1,0,0:0:0:0:
402,192,115407,1,0,0:0:0:0:
329,192,115532,1,0,0:0:0:0:
256,192,115657,1,0,0:0:0:0:
475,192,115782,1,0,0:0:0:0:
36,192,115907,1,0,0:0:0:0:
109,192,116032,1,0,0:0:0:0:
182,192,116157,1,0,0:0:0:0:
402,192,116282,1,0,0:0:0:0:
329,192,116407,1,0,0:0:0:0:
256,192,116532,1,0,0:0:0:0:
182,192,116657,1,0,0:0:0:0:
36,192,116782,1,0,0:0:0:0:
109,192,116907,1,0,0:0:0:0:
182,192,117032,1,0,0:0:0:0:
256,192,117157,1,0,0:0:0:0:
36,192,117282,1,0,0:0:0:0:
475,192,117282,1,0,0:0:0:0:
329,192,117407,1,0,0:0:0:0:
182,192,117532,1,0,0:0:0:0:
329,192,117657,1,0,0:0:0:0:
109,192,117782,1,0,0:0:0:0:
256,192,117907,1,0,0:0:0:0:
402,192,118032,1,0,0:0:0:0:
256,192,118157,1,0,0:0:0:0:
475,192,118282,1,0,0:0:0:0:
329,192,118407,1,0,0:0:0:0:
182,192,118657,1,0,0:0:0:0:
329,192,118719,1,0,0:0:0:0:
36,192,118782,1,0,0:0:0:0:
109,192,118782,1,0,0:0:0:0:
475,192,118844,1,0,0:0:0:0:
402,192,118844,1,0,0:0:0:0:
109,192,118907,1,0,0:0:0:0:
36,192,118907,1,0,0:0:0:0:
475,192,118969,1,0,0:0:0:0:
402,192,118969,1,0,0:0:0:0:
329,192,119032,1,0,0:0:0:0:
182,192,119032,1,0,0:0:0:0:
329,192,119157,1,0,0:0:0:0:
182,192,119157,1,0,0:0:0:0:
402,192,119282,1,0,0:0:0:0:
475,192,119282,1,0,0:0:0:0:
36,192,119344,1,0,0:0:0:0:
109,192,119344,1,0,0:0:0:0:
329,192,119407,1,0,0:0:0:0:
182,192,119469,1,0,0:0:0:0:
475,192,119532,1,0,0:0:0:0:
402,192,119532,1,0,0:0:0:0:
36,192,119594,1,0,0:0:0:0:
109,192,119594,1,0,0:0:0:0:
329,192,119657,1,0,0:0:0:0:
182,192,119719,1,0,0:0:0:0:
256,192,119782,1,0,0:0:0:0:
402,192,119782,1,0,0:0:0:0:
475,192,119782,1,0,0:0:0:0:
475,192,120282,1,0,0:0:0:0:
109,192,120282,1,0,0:0:0:0:
36,192,120282,1,0,0:0:0:0:
402,192,120365,1,0,0:0:0:0:
329,192,120365,1,0,0:0:0:0:
109,192,120448,1,0,0:0:0:0:
182,192,120448,1,0,0:0:0:0:
402,192,120532,1,0,0:0:0:0:
475,192,120532,1,0,0:0:0:0:
109,192,120615,1,0,0:0:0:0:
182,192,120615,1,0,0:0:0:0:
402,192,120698,1,0,0:0:0:0:
329,192,120698,1,0,0:0:0:0:
182,192,120782,1,0,0:0:0:0:
36,192,120782,1,0,0:0:0:0:
36,192,120907,1,0,0:0:0:0:
182,192,120907,1,0,0:0:0:0:
182,192,121032,1,0,0:0:0:0:
36,192,121032,1,0,0:0:0:0:
36,192,121157,1,0,0:0:0:0:
182,192,121157,1,0,0:0:0:0:
329,192,121219,1,0,0:0:0:0:
475,192,121282,1,0,0:0:0:0:
402,192,121282,1,0,0:0:0:0:
256,192,121282,1,0,0:0:0:0:
109,192,121407,1,0,0:0:0:0:
256,192,121532,1,0,0:0:0:0:
329,192,121532,1,0,0:0:0:0:
402,192,121532,1,0,0:0:0:0:
36,192,121615,1,0,0:0:0:0:
109,192,121615,1,0,0:0:0:0:
475,192,121698,1,0,0:0:0:0:
402,192,121698,1,0,0:0:0:0:
182,192,121782,1,0,0:0:0:0:
256,192,121782,1,0,0:0:0:0:
402,192,121865,1,0,0:0:0:0:
475,192,121865,1,0,0:0:0:0:
36,192,121948,1,0,0:0:0:0:
109,192,121948,1,0,0:0:0:0:
329,192,122032,1,0,0:0:0:0:
475,192,122032,1,0,0:0:0:0:
475,192,122157,1,0,0:0:0:0:
329,192,122157,1,0,0:0:0:0:
329,192,122282,1,0,0:0:0:0:
475,192,122282,1,0,0:0:0:0:
182,192,122407,1,0,0:0:0:0:
109,192,122407,1,0,0:0:0:0:
36,192,122407,1,0,0:0:0:0:
475,192,122490,1,0,0:0:0:0:
402,192,122490,1,0,0:0:0:0:
182,192,122573,1,0,0:0:0:0:
256,192,122573,1,0,0:0:0:0:
329,192,122657,1,0,0:0:0:0:
402,192,122657,1,0,0:0:0:0:
109,192,122740,1,0,0:0:0:0:
36,192,122740,1,0,0:0:0:0:
329,192,122823,1,0,0:0:0:0:
256,192,122823,1,0,0:0:0:0:
36,192,122907,1,0,0:0:0:0:
109,192,122907,1,0,0:0:0:0:
182,192,122907,1,0,0:0:0:0:
475,192,123032,1,0,0:0:0:0:
329,192,123157,1,0,0:0:0:0:
256,192,123188,1,0,0:0:0:0:
182,192,123219,1,0,0:0:0:0:
109,192,123250,1,0,0:0:0:0:
36,192,123282,1,0,0:0:0:0:
475,192,123282,1,0,0:0:0:0:
402,192,123282,1,0,0:0:0:0:
329,192,123407,1,0,0:0:0:0:
182,192,123532,1,0,0:0:0:0:
256,192,123657,1,0,0:0:0:0:
109,192,123657,1,0,0:0:0:0:
402,192,123782,1,0,0:0:0:0:
329,192,123907,1,0,0:0:0:0:
256,192,124032,1,0,0:0:0:0:
109,192,124032,1,0,0:0:0:0:
182,192,124282,1,0,0:0:0:0:
475,192,124282,1,0,0:0:0:0:
402,192,124282,1,0,0:0:0:0:
256,192,124365,1,0,0:0:0:0:
109,192,124365,1,0,0:0:0:0:
475,192,124448,1,0,0:0:0:0:
402,192,124448,1,0,0:0:0:0:
109,192,124532,1,0,0:0:0:0:
36,192,124532,1,0,0:0:0:0:
256,192,124615,1,0,0:0:0:0:
402,192,124615,1,0,0:0:0:0:
109,192,124698,1,0,0:0:0:0:
36,192,124698,1,0,0:0:0:0:
475,192,124782,1,0,0:0:0:0:
402,192,124782,1,0,0:0:0:0:
182,192,124782,1,0,0:0:0:0:
402,192,124948,1,0,0:0:0:0:
475,192,124948,1,0,0:0:0:0:
109,192,125032,1,0,0:0:0:0:
36,192,125032,1,0,0:0:0:0:
329,192,125032,1,0,0:0:0:0:
256,192,125115,1,0,0:0:0:0:
402,192,125115,1,0,0:0:0:0:
109,192,125198,1,0,0:0:0:0:
36,192,125198,1,0,0:0:0:0:
475,192,125282,1,0,0:0:0:0:
402,192,125282,1,0,0:0:0:0:
109,192,125365,1,0,0:0:0:0:
256,192,125365,1,0,0:0:0:0:
402,192,125448,1,0,0:0:0:0:
475,192,125448,1,0,0:0:0:0:
36,192,125532,1,0,0:0:0:0:
109,192,125532,1,0,0:0:0:0:
329,192,125532,1,0,0:0:0:0:
36,192,125698,1,0,0:0:0:0:
109,192,125698,1,0,0:0:0:0:
182,192,125782,1,0,0:0:0:0:
475,192,125782,1,0,0:0:0:0:
402,192,125782,1,0,0:0:0:0:
256,192,125865,1,0,0:0:0:0:
109,192,125865,1,0,0:0:0:0:
475,192,125948,1,0,0:0:0:0:
402,192,125948,1,0,0:0:0:0:
109,192,126032,1,0,0:0:0:0:
36,192,126032,1,0,0:0:0:0:
256,192,126115,1,0,0:0:0:0:
402,192,126115,1,0,0:0:0:0:
182,192,126198,1,0,0:0:0:0:
109,192,126198,1,0,0:0:0:0:
475,192,126282,1,0,0:0:0:0:
402,192,126282,1,0,0:0:0:0:
36,192,126282,1,0,0:0:0:0:
329,192,126365,1,0,0:0:0:0:
182,192,126365,1,0,0:0:0:0:
36,192,126448,1,0,0:0:0:0:
109,192,126448,1,0,0:0:0:0:
402,192,126532,1,0,0:0:0:0:
256,192,126532,1,0,0:0:0:0:
36,192,126615,1,0,0:0:0:0:
109,192,126615,1,0,0:0:0:0:
182,192,126698,1,0,0:0:0:0:
329,192,126698,1,0,0:0:0:0:
36,192,126782,1,0,0:0:0:0:
475,192,126782,1,0,0:0:0:0:
256,192,126782,1,0,0:0:0:0:
36,192,126948,1,0,0:0:0:0:
256,192,126948,1,0,0:0:0:0:
475,192,126948,1,0,0:0:0:0:
36,192,127115,1,0,0:0:0:0:
256,192,127115,1,0,0:0:0:0:
475,192,127115,1,0,0:0:0:0:
36,192,127282,1,0,0:0:0:0:
256,192,127282,1,0,0:0:0:0:
475,192,127282,1,0,0:0:0:0:
402,192,127448,1,0,0:0:0:0:
475,192,127448,1,0,0:0:0:0:
36,192,127448,1,0,0:0:0:0:
109,192,127490,1,0,0:0:0:0:
182,192,127532,1,0,0:0:0:0:
256,192,127573,1,0,0:0:0:0:
329,192,127615,1,0,0:0:0:0:
109,192,127657,1,0,0:0:0:0:
182,192,127698,1,0,0:0:0:0:
256,192,127740,1,0,0:0:0:0:
402,192,127782,1,0,0:0:0:0:
329,192,127782,1,0,0:0:0:0:
109,192,127865,1,0,0:0:0:0:
182,192,127865,1,0,0:0:0:0:
402,192,127948,1,0,0:0:0:0:
329,192,127948,1,0,0:0:0:0:
109,192,128032,1,0,0:0:0:0:
182,192,128032,1,0,0:0:0:0:
329,192,128115,1,0,0:0:0:0:
402,192,128115,1,0,0:0:0:0:
182,192,128198,1,0,0:0:0:0:
109,192,128198,1,0,0:0:0:0:
329,192,128282,1,0,0:0:0:0:
402,192,128282,1,0,0:0:0:0:
475,192,128282,1,0,0:0:0:0:
109,192,128365,1,0,0:0:0:0:
256,192,128365,1,0,0:0:0:0:
475,192,128448,1,0,0:0:0:0:
329,192,128448,1,0,0:0:0:0:
182,192,128532,1,0,0:0:0:0:
36,192,128532,1,0,0:0:0:0:
256,192,128615,1,0,0:0:0:0:
402,192,128615,1,0,0:0:0:0:
109,192,128698,1,0,0:0:0:0:
36,192,128698,1,0,0:0:0:0:
182,192,128698,1,0,0:0:0:0:
402,192,128782,1,0,0:0:0:0:
329,192,128782,1,0,0:0:0:0:
256,192,128865,1,0,0:0:0:0:
182,192,128865,1,0,0:0:0:0:
475,192,128948,1,0,0:0:0:0:
402,192,128948,1,0,0:0:0:0:
109,192,129032,1,0,0:0:0:0:
182,192,129032,1,0,0:0:0:0:
402,192,129115,1,0,0:0:0:0:
329,192,129115,1,0,0:0:0:0:
36,192,129198,1,0,0:0:0:0:
109,192,129198,1,0,0:0:0:0:
329,192,129282,1,0,0:0:0:0:
475,192,129282,1,0,0:0:0:0:
256,192,129282,1,0,0:0:0:0:
182,192,129407,1,0,0:0:0:0:
36,192,129532,1,0,0:0:0:0:
402,192,129532,1,0,0:0:0:0:
475,192,129532,1,0,0:0:0:0:
109,192,129615,1,0,0:0:0:0:
256,192,129615,1,0,0:0:0:0:
475,192,129698,1,0,0:0:0:0:
329,192,129698,1,0,0:0:0:0:
109,192,129782,1,0,0:0:0:0:
36,192,129782,1,0,0:0:0:0:
402,192,129865,1,0,0:0:0:0:
256,192,129865,1,0,0:0:0:0:
36,192,129948,1,0,0:0:0:0:
182,192,129948,1,0,0:0:0:0:
475,192,130032,1,0,0:0:0:0:
329,192,130032,1,0,0:0:0:0:
329,192,130157,1,0,0:0:0:0:
475,192,130157,1,0,0:0:0:0:
475,192,130282,1,0,0:0:0:0:
329,192,130282,1,0,0:0:0:0:
182,192,130407,1,0,0:0:0:0:
109,192,130407,1,0,0:0:0:0:
36,192,130407,1,0,0:0:0:0:
402,192,130490,1,0,0:0:0:0:
256,192,130490,1,0,0:0:0:0:
109,192,130573,1,0,0:0:0:0:
36,192,130573,1,0,0:0:0:0:
182,192,130657,1,0,0:0:0:0:
329,192,130657,1,0,0:0:0:0:
475,192,130740,1,0,0:0:0:0:
402,192,130740,1,0,0:0:0:0:
256,192,130823,1,0,0:0:0:0:
109,192,130823,1,0,0:0:0:0:
475,192,130907,1,0,0:0:0:0:
329,192,130907,1,0,0:0:0:0:
36,192,131032,1,0,0:0:0:0:
329,192,131157,1,0,0:0:0:0:
256,192,131198,1,0,0:0:0:0:
182,192,131240,1,0,0:0:0:0:
36,192,131282,1,0,0:0:0:0:
475,192,131282,1,0,0:0:0:0:
109,192,131282,1,0,0:0:0:0:
402,192,131282,1,0,0:0:0:0:
329,192,131532,1,0,0:0:0:0:
256,192,131657,1,0,0:0:0:0:
109,192,131657,1,0,0:0:0:0:
182,192,131782,1,0,0:0:0:0:
329,192,131907,1,0,0:0:0:0:
256,192,132032,1,0,0:0:0:0:
109,192,132032,1,0,0:0:0:0:
182,192,132157,1,0,0:0:0:0:
402,192,132282,1,0,0:0:0:0:
475,192,132282,1,0,0:0:0:0:
475,192,132365,1,0,0:0:0:0:
402,192,132365,1,0,0:0:0:0:
182,192,132448,1,0,0:0:0:0:
109,192,132448,1,0,0:0:0:0:
182,192,132532,1,0,0:0:0:0:
109,192,132532,1,0,0:0:0:0:
402,192,132615,1,0,0:0:0:0:
329,192,132615,1,0,0:0:0:0:
402,192,132698,1,0,0:0:0:0:
329,192,132698,1,0,0:0:0:0:
109,192,132782,1,0,0:0:0:0:
36,192,132782,1,0,0:0:0:0:
109,192,132865,1,0,0:0:0:0:
36,192,132865,1,0,0:0:0:0:
475,192,132948,1,0,0:0:0:0:
329,192,132948,1,0,0:0:0:0:
475,192,133032,1,0,0:0:0:0:
329,192,133032,1,0,0:0:0:0:
182,192,133115,1,0,0:0:0:0:
36,192,133115,1,0,0:0:0:0:
182,192,133198,1,0,0:0:0:0:
36,192,133198,1,0,0:0:0:0:
329,192,133282,1,0,0:0:0:0:
402,192,133282,1,0,0:0:0:0:
475,192,133282,1,0,0:0:0:0:
36,192,133407,1,0,0:0:0:0:
109,192,133407,1,0,0:0:0:0:
182,192,133407,1,0,0:0:0:0:
475,192,133532,1,0,0:0:0:0:
402,192,133532,1,0,0:0:0:0:
329,192,133532,1,0,0:0:0:0:
256,192,133615,1,0,0:0:0:0:
109,192,133657,1,0,0:0:0:0:
36,192,133657,1,0,0:0:0:0:
182,192,133698,1,0,0:0:0:0:
475,192,133782,1,0,0:0:0:0:
402,192,133782,1,0,0:0:0:0:
329,192,133782,1,0,0:0:0:0:
475,192,133907,1,0,0:0:0:0:
402,192,133907,1,0,0:0:0:0:
329,192,133907,1,0,0:0:0:0:
109,192,134032,1,0,0:0:0:0:
36,192,134032,1,0,0:0:0:0:
182,192,134032,1,0,0:0:0:0:
256,192,134115,1,0,0:0:0:0:
475,192,134157,1,0,0:0:0:0:
402,192,134157,1,0,0:0:0:0:
329,192,134198,1,0,0:0:0:0:
36,192,134282,1,0,0:0:0:0:
109,192,134282,1,0,0:0:0:0:
182,192,134282,1,0,0:0:0:0:
475,192,134407,1,0,0:0:0:0:
402,192,134407,1,0,0:0:0:0:
329,192,134448,1,0,0:0:0:0:
109,192,134532,1,0,0:0:0:0:
36,192,134532,1,0,0:0:0:0:
256,192,134532,1,0,0:0:0:0:
182,192,134615,1,0,0:0:0:0:
475,192,134657,1,0,0:0:0:0:
329,192,134657,1,0,0:0:0:0:
475,192,134782,1,0,0:0:0:0:
182,192,134782,1,0,0:0:0:0:
329,192,134782,1,0,0:0:0:0:
475,192,134907,1,0,0:0:0:0:
182,192,134907,1,0,0:0:0:0:
329,192,134907,1,0,0:0:0:0:
402,192,135032,1,0,0:0:0:0:
256,192,135032,1,0,0:0:0:0:
109,192,135032,1,0,0:0:0:0:
402,192,135157,1,0,0:0:0:0:
256,192,135157,1,0,0:0:0:0:
109,192,135157,1,0,0:0:0:0:
329,192,135282,1,0,0:0:0:0:
475,192,135282,1,0,0:0:0:0:
36,192,135282,1,0,0:0:0:0:
182,192,135282,1,0,0:0:0:0:
402,192,135469,1,0,0:0:0:0:
256,192,135469,1,0,0:0:0:0:
109,192,135469,1,0,0:0:0:0:
329,192,135657,1,0,0:0:0:0:
182,192,135657,1,0,0:0:0:0:
329,192,135782,1,0,0:0:0:0:
256,192,135782,1,0,0:0:0:0:
182,192,135782,1,0,0:0:0:0:
475,192,135907,1,0,0:0:0:0:
256,192,136032,1,0,0:0:0:0:
256,192,136157,1,0,0:0:0:0:
329,192,136282,1,0,0:0:0:0:
402,192,136282,1,0,0:0:0:0:
109,192,136282,1,0,0:0:0:0:
36,192,136407,1,0,0:0:0:0:
256,192,136532,1,0,0:0:0:0:
256,192,136657,1,0,0:0:0:0:
182,192,136782,1,0,0:0:0:0:
109,192,136782,1,0,0:0:0:0:
402,192,136782,1,0,0:0:0:0:
475,192,136907,1,0,0:0:0:0:
256,192,137032,1,0,0:0:0:0:
256,192,137157,1,0,0:0:0:0:
109,192,137282,1,0,0:0:0:0:
402,192,137282,1,0,0:0:0:0:
329,192,137282,1,0,0:0:0:0:
36,192,137407,1,0,0:0:0:0:
256,192,137532,1,0,0:0:0:0:
256,192,137657,1,0,0:0:0:0:
402,192,137782,1,0,0:0:0:0:
182,192,137782,1,0,0:0:0:0:
109,192,137782,1,0,0:0:0:0:
475,192,137907,1,0,0:0:0:0:
256,192,138032,1,0,0:0:0:0:
256,192,138157,1,0,0:0:0:0:
109,192,138282,1,0,0:0:0:0:
329,192,138282,1,0,0:0:0:0:
402,192,138282,1,0,0:0:0:0:
36,192,138407,1,0,0:0:0:0:
256,192,138532,1,0,0:0:0:0:
256,192,138657,1,0,0:0:0:0:
36,192,138782,1,0,0:0:0:0:
182,192,138782,1,0,0:0:0:0:
109,192,138782,1,0,0:0:0:0:
475,192,138907,1,0,0:0:0:0:
402,192,138907,1,0,0:0:0:0:
256,192,139032,1,0,0:0:0:0:
182,192,139032,1,0,0:0:0:0:
475,192,139157,1,0,0:0:0:0:
402,192,139157,1,0,0:0:0:0:
182,192,139282,1,0,0:0:0:0:
256,192,139282,1,0,0:0:0:0:
329,192,139282,1,0,0:0:0:0:
36,192,139407,1,0,0:0:0:0:
109,192,139407,1,0,0:0:0:0:
329,192,139532,1,0,0:0:0:0:
256,192,139532,1,0,0:0:0:0:
36,192,139657,1,0,0:0:0:0:
109,192,139657,1,0,0:0:0:0:
182,192,139782,1,0,0:0:0:0:
256,192,139782,1,0,0:0:0:0:
475,192,139782,1,0,0:0:0:0:
402,192,139782,1,0,0:0:0:0:
109,192,139907,1,0,0:0:0:0:
182,192,140032,1,0,0:0:0:0:
182,192,140157,1,0,0:0:0:0:
256,192,140282,1,0,0:0:0:0:
329,192,140282,1,0,0:0:0:0:
36,192,140282,1,0,0:0:0:0:
109,192,140282,1,0,0:0:0:0:
329,192,140532,1,0,0:0:0:0:
329,192,140657,1,0,0:0:0:0:
402,192,140782,1,0,0:0:0:0:
182,192,140782,1,0,0:0:0:0:
256,192,140782,1,0,0:0:0:0:
475,192,140782,1,0,0:0:0:0:
109,192,140907,1,0,0:0:0:0:
182,192,141032,1,0,0:0:0:0:
182,192,141157,1,0,0:0:0:0:
256,192,141282,1,0,0:0:0:0:
329,192,141282,1,0,0:0:0:0:
36,192,141282,1,0,0:0:0:0:
109,192,141282,1,0,0:0:0:0:
329,192,141532,1,0,0:0:0:0:
329,192,141657,1,0,0:0:0:0:
256,192,141782,1,0,0:0:0:0:
182,192,141782,1,0,0:0:0:0:
475,192,141782,1,0,0:0:0:0:
402,192,141782,1,0,0:0:0:0:
109,192,141907,1,0,0:0:0:0:
182,192,142032,1,0,0:0:0:0:
182,192,142157,1,0,0:0:0:0:
256,192,142282,1,0,0:0:0:0:
329,192,142282,1,0,0:0:0:0:
36,192,142282,1,0,0:0:0:0:
109,192,142282,1,0,0:0:0:0:
256,192,142532,1,0,0:0:0:0:
256,192,142657,1,0,0:0:0:0:
402,192,142782,1,0,0:0:0:0:
329,192,142782,1,0,0:0:0:0:
109,192,142782,1,0,0:0:0:0:
182,192,142782,1,0,0:0:0:0:
475,192,142907,1,0,0:0:0:0:
182,192,143032,1,0,0:0:0:0:
329,192,143157,1,0,0:0:0:0:
109,192,143282,1,0,0:0:0:0:
36,192,143282,1,0,0:0:0:0:
256,192,143282,1,0,0:0:0:0:
475,192,143282,1,0,0:0:0:0:
402,192,143282,1,0,0:0:0:0:
182,192,143532,1,0,0:0:0:0:
256,192,143657,1,0,0:0:0:0:
182,192,143782,1,0,0:0:0:0:
109,192,143782,1,0,0:0:0:0:
475,192,143782,1,0,0:0:0:0:
329,192,143782,1,0,0:0:0:0:
402,192,143907,1,0,0:0:0:0:
109,192,144032,1,0,0:0:0:0:
109,192,144157,1,0,0:0:0:0:
329,192,144282,1,0,0:0:0:0:
182,192,144282,1,0,0:0:0:0:
36,192,144282,1,0,0:0:0:0:
402,192,144282,1,0,0:0:0:0:
402,192,144532,1,0,0:0:0:0:
402,192,144657,1,0,0:0:0:0:
182,192,144782,1,0,0:0:0:0:
109,192,144782,1,0,0:0:0:0:
475,192,144782,1,0,0:0:0:0:
329,192,144782,1,0,0:0:0:0:
402,192,144907,1,0,0:0:0:0:
109,192,145032,1,0,0:0:0:0:
109,192,145157,1,0,0:0:0:0:
329,192,145282,1,0,0:0:0:0:
402,192,145282,1,0,0:0:0:0:
36,192,145282,1,0,0:0:0:0:
182,192,145282,1,0,0:0:0:0:
402,192,145532,1,0,0:0:0:0:
402,192,145657,1,0,0:0:0:0:
182,192,145782,1,0,0:0:0:0:
109,192,145782,1,0,0:0:0:0:
475,192,145782,1,0,0:0:0:0:
329,192,145782,1,0,0:0:0:0:
402,192,145907,1,0,0:0:0:0:
109,192,146032,1,0,0:0:0:0:
109,192,146157,1,0,0:0:0:0:
329,192,146282,1,0,0:0:0:0:
402,192,146282,1,0,0:0:0:0:
36,192,146282,1,0,0:0:0:0:
182,192,146282,1,0,0:0:0:0:
402,192,146532,1,0,0:0:0:0:
402,192,146657,1,0,0:0:0:0:
329,192,146782,1,0,0:0:0:0:
475,192,146782,1,0,0:0:0:0:
36,192,146782,1,0,0:0:0:0:
182,192,146782,1,0,0:0:0:0:
256,192,146907,1,0,0:0:0:0:
109,192,147032,1,0,0:0:0:0:
182,192,147157,1,0,0:0:0:0:
475,192,147282,1,0,0:0:0:0:
402,192,147282,1,0,0:0:0:0:
256,192,147282,1,0,0:0:0:0:
109,192,147344,1,0,0:0:0:0:
182,192,147407,1,0,0:0:0:0:
109,192,147469,1,0,0:0:0:0:
402,192,147532,1,0,0:0:0:0:
182,192,147532,1,0,0:0:0:0:
329,192,147594,1,0,0:0:0:0:
36,192,147594,1,0,0:0:0:0:
402,192,147657,1,0,0:0:0:0:
109,192,147657,1,0,0:0:0:0:
329,192,147719,1,0,0:0:0:0:
182,192,147719,1,0,0:0:0:0:
256,192,147782,1,0,0:0:0:0:
475,192,147782,1,0,0:0:0:0:
36,192,147782,1,0,0:0:0:0:
329,192,147907,1,0,0:0:0:0:
182,192,148032,1,0,0:0:0:0:
182,192,148157,1,0,0:0:0:0:
256,192,148282,1,0,0:0:0:0:
36,192,148282,1,0,0:0:0:0:
475,192,148282,1,0,0:0:0:0:
329,192,148282,1,0,0:0:0:0:
329,192,148532,1,0,0:0:0:0:
329,192,148657,1,0,0:0:0:0:
36,192,148782,1,0,0:0:0:0:
475,192,148782,1,0,0:0:0:0:
256,192,148782,1,0,0:0:0:0:
182,192,148782,1,0,0:0:0:0:
329,192,148907,1,0,0:0:0:0:
182,192,149032,1,0,0:0:0:0:
182,192,149157,1,0,0:0:0:0:
256,192,149282,1,0,0:0:0:0:
36,192,149282,1,0,0:0:0:0:
475,192,149282,1,0,0:0:0:0:
329,192,149282,1,0,0:0:0:0:
329,192,149532,1,0,0:0:0:0:
329,192,149657,1,0,0:0:0:0:
36,192,149782,1,0,0:0:0:0:
475,192,149782,1,0,0:0:0:0:
256,192,149782,1,0,0:0:0:0:
182,192,149782,1,0,0:0:0:0:
329,192,149907,1,0,0:0:0:0:
182,192,150032,1,0,0:0:0:0:
182,192,150157,1,0,0:0:0:0:
256,192,150282,1,0,0:0:0:0:
36,192,150282,1,0,0:0:0:0:
475,192,150282,1,0,0:0:0:0:
329,192,150282,1,0,0:0:0:0:
256,192,150532,1,0,0:0:0:0:
256,192,150657,1,0,0:0:0:0:
329,192,150782,1,0,0:0:0:0:
402,192,150782,1,0,0:0:0:0:
109,192,150782,1,0,0:0:0:0:
182,192,150782,1,0,0:0:0:0:
475,192,150907,1,0,0:0:0:0:
109,192,151032,1,0,0:0:0:0:
402,192,151157,1,0,0:0:0:0:
329,192,151282,1,0,0:0:0:0:
475,192,151282,1,0,0:0:0:0:
182,192,151282,1,0,0:0:0:0:
36,192,151282,1,0,0:0:0:0:
256,192,151282,1,0,0:0:0:0:
329,192,151532,1,0,0:0:0:0:
256,192,151657,1,0,0:0:0:0:
182,192,151782,1,0,0:0:0:0:
109,192,151782,1,0,0:0:0:0:
475,192,151782,1,0,0:0:0:0:
402,192,151782,1,0,0:0:0:0:
36,192,151907,1,0,0:0:0:0:
256,192,152032,1,0,0:0:0:0:
256,192,152157,1,0,0:0:0:0:
109,192,152282,1,0,0:0:0:0:
402,192,152282,1,0,0:0:0:0:
329,192,152282,1,0,0:0:0:0:
36,192,152282,1,0,0:0:0:0:
256,192,152532,1,0,0:0:0:0:
256,192,152657,1,0,0:0:0:0:
182,192,152782,1,0,0:0:0:0:
109,192,152782,1,0,0:0:0:0:
475,192,152782,1,0,0:0:0:0:
402,192,152782,1,0,0:0:0:0:
36,192,152907,1,0,0:0:0:0:
256,192,153032,1,0,0:0:0:0:
256,192,153157,1,0,0:0:0:0:
329,192,153282,1,0,0:0:0:0:
402,192,153282,1,0,0:0:0:0:
36,192,153282,1,0,0:0:0:0:
109,192,153282,1,0,0:0:0:0:
256,192,153532,1,0,0:0:0:0:
256,192,153657,1,0,0:0:0:0:
182,192,153782,1,0,0:0:0:0:
109,192,153782,1,0,0:0:0:0:
475,192,153782,1,0,0:0:0:0:
402,192,153782,1,0,0:0:0:0:
36,192,153907,1,0,0:0:0:0:
256,192,154032,1,0,0:0:0:0:
256,192,154157,1,0,0:0:0:0:
329,192,154282,1,0,0:0:0:0:
402,192,154282,1,0,0:0:0:0:
36,192,154282,1,0,0:0:0:0:
109,192,154282,1,0,0:0:0:0:
256,192,154532,1,0,0:0:0:0:
256,192,154657,1,0,0:0:0:0:
36,192,154782,1,0,0:0:0:0:
475,192,154782,1,0,0:0:0:0:
329,192,154782,1,0,0:0:0:0:
182,192,154782,1,0,0:0:0:0:
402,192,154907,1,0,0:0:0:0:
109,192,155032,1,0,0:0:0:0:
329,192,155157,1,0,0:0:0:0:
182,192,155282,1,0,0:0:0:0:
256,192,155282,1,0,0:0:0:0:
36,192,155282,1,0,0:0:0:0:
402,192,155344,1,0,0:0:0:0:
329,192,155407,1,0,0:0:0:0:
402,192,155469,1,0,0:0:0:0:
109,192,155532,1,0,0:0:0:0:
329,192,155532,1,0,0:0:0:0:
182,192,155594,1,0,0:0:0:0:
475,192,155594,1,0,0:0:0:0:
109,192,155657,1,0,0:0:0:0:
402,192,155657,1,0,0:0:0:0:
182,192,155719,1,0,0:0:0:0:
329,192,155719,1,0,0:0:0:0:
109,192,155782,1,0,0:0:0:0:
402,192,155782,1,0,0:0:0:0:
475,192,155782,1,0,0:0:0:0:
36,192,155782,1,0,0:0:0:0:
256,192,155782,1,0,0:0:0:0:
402,192,155907,1,0,0:0:0:0:
329,192,156032,1,0,0:0:0:0:
256,192,156157,1,0,0:0:0:0:
182,192,156282,1,0,0:0:0:0:
109,192,156407,1,0,0:0:0:0:
182,192,156532,1,0,0:0:0:0:
256,192,156657,1,0,0:0:0:0:
402,192,156782,1,0,0:0:0:0:
475,192,156782,1,0,0:0:0:0:
329,192,156782,1,0,0:0:0:0:
36,192,156782,1,0,0:0:0:0:
182,192,156782,1,0,0:0:0:0:
109,192,156907,1,0,0:0:0:0:
182,192,157032,1,0,0:0:0:0:
256,192,157157,1,0,0:0:0:0:
329,192,157282,1,0,0:0:0:0:
256,192,157407,1,0,0:0:0:0:
182,192,157532,1,0,0:0:0:0:
109,192,157657,1,0,0:0:0:0:
36,192,157782,1,0,0:0:0:0:
402,192,157907,1,0,0:0:0:0:
182,192,157907,1,0,0:0:0:0:
475,192,157907,1,0,0:0:0:0:
109,192,157907,1,0,0:0:0:0:
329,192,157969,1,0,0:0:0:0:
182,192,158032,1,0,0:0:0:0:
329,192,158094,1,0,0:0:0:0:
182,192,158157,1,0,0:0:0:0:
329,192,158219,1,0,0:0:0:0:
36,192,158282,1,0,0:0:0:0:
109,192,158282,1,0,0:0:0:0:
475,192,158282,1,0,0:0:0:0:
402,192,158282,1,0,0:0:0:0:
182,192,158407,1,0,0:0:0:0:
256,192,158532,1,0,0:0:0:0:
109,192,158657,1,0,0:0:0:0:
475,192,158657,1,0,0:0:0:0:
402,192,158657,1,0,0:0:0:0:
36,192,158782,1,0,0:0:0:0:
329,192,158782,1,0,0:0:0:0:
182,192,158782,1,0,0:0:0:0:
475,192,158907,1,0,0:0:0:0:
402,192,158907,1,0,0:0:0:0:
256,192,158907,1,0,0:0:0:0:
36,192,158948,1,0,0:0:0:0:
109,192,158990,1,0,0:0:0:0:
182,192,159032,1,0,0:0:0:0:
402,192,159073,1,0,0:0:0:0:
329,192,159115,1,0,0:0:0:0:
256,192,159157,1,0,0:0:0:0:
182,192,159198,1,0,0:0:0:0:
109,192,159240,1,0,0:0:0:0:
475,192,159282,1,0,0:0:0:0:
402,192,159282,1,0,0:0:0:0:
329,192,159344,1,0,0:0:0:0:
256,192,159344,1,0,0:0:0:0:
475,192,159407,1,0,0:0:0:0:
402,192,159407,1,0,0:0:0:0:
109,192,159532,1,0,0:0:0:0:
182,192,159532,1,0,0:0:0:0:
402,192,159657,1,0,0:0:0:0:
475,192,159657,1,0,0:0:0:0:
109,192,159782,1,0,0:0:0:0:
36,192,159782,1,0,0:0:0:0:
475,192,159782,1,0,0:0:0:0:
402,192,159782,1,0,0:0:0:0:
182,192,159907,1,0,0:0:0:0:
256,192,160032,1,0,0:0:0:0:
329,192,160157,1,0,0:0:0:0:
109,192,160219,1,0,0:0:0:0:
402,192,160282,1,0,0:0:0:0:
182,192,160344,1,0,0:0:0:0:
329,192,160407,1,0,0:0:0:0:
109,192,160469,1,0,0:0:0:0:
402,192,160532,1,0,0:0:0:0:
256,192,160594,1,0,0:0:0:0:
36,192,160657,1,0,0:0:0:0:
182,192,160657,1,0,0:0:0:0:
402,192,160719,1,0,0:0:0:0:
475,192,160782,1,0,0:0:0:0:
109,192,160782,1,0,0:0:0:0:
329,192,160782,1,0,0:0:0:0:
256,192,160782,1,0,0:0:0:0:
182,192,160907,1,0,0:0:0:0:
402,192,161032,1,0,0:0:0:0:
329,192,161157,1,0,0:0:0:0:
256,192,161282,1,0,0:0:0:0:
109,192,161282,1,0,0:0:0:0:
402,192,161407,1,0,0:0:0:0:
109,192,161532,1,0,0:0:0:0:
402,192,161657,1,0,0:0:0:0:
329,192,161782,1,0,0:0:0:0:
182,192,161782,1,0,0:0:0:0:
329,192,161907,1,0,0:0:0:0:
182,192,161907,1,0,0:0:0:0:
475,192,162032,1,0,0:0:0:0:
256,192,162032,1,0,0:0:0:0:
36,192,162032,1,0,0:0:0:0:
109,192,162157,1,0,0:0:0:0:
402,192,162157,1,0,0:0:0:0:
329,192,162282,1,0,0:0:0:0:
182,192,162407,1,0,0:0:0:0:
329,192,162532,1,0,0:0:0:0:
182,192,162657,1,0,0:0:0:0:
329,192,162782,1,0,0:0:0:0:
36,192,162782,1,0,0:0:0:0:
475,192,162782,1,0,0:0:0:0:
402,192,162782,1,0,0:0:0:0:
182,192,162875,1,0,0:0:0:0:
109,192,162891,1,0,0:0:0:0:
329,192,162953,1,0,0:0:0:0:
256,192,162969,1,0,0:0:0:0:
475,192,163032,1,0,0:0:0:0:
402,192,163047,1,0,0:0:0:0:
36,192,163094,1,0,0:0:0:0:
109,192,163110,1,0,0:0:0:0:
402,192,163198,1,0,0:0:0:0:
329,192,163219,1,0,0:0:0:0:
109,192,163282,1,0,0:0:0:0:
36,192,163282,1,0,0:0:0:0:
256,192,163282,1,0,0:0:0:0:
182,192,163282,1,0,0:0:0:0:
402,192,163532,1,0,0:0:0:0:
475,192,163532,1,0,0:0:0:0:
329,192,163594,1,0,0:0:0:0:
182,192,163657,1,0,0:0:0:0:
36,192,163719,1,0,0:0:0:0:
109,192,163719,1,0,0:0:0:0:
402,192,163782,1,0,0:0:0:0:
475,192,163782,1,0,0:0:0:0:
329,192,163823,1,0,0:0:0:0:
256,192,163865,1,0,0:0:0:0:
402,192,163907,1,0,0:0:0:0:
329,192,163948,1,0,0:0:0:0:
256,192,163990,1,0,0:0:0:0:
36,192,164032,1,0,0:0:0:0:
109,192,164073,1,0,0:0:0:0:
182,192,164115,1,0,0:0:0:0:
36,192,164157,1,0,0:0:0:0:
109,192,164198,1,0,0:0:0:0:
182,192,164240,1,0,0:0:0:0:
475,192,164282,1,0,0:0:0:0:
402,192,164323,1,0,0:0:0:0:
329,192,164365,1,0,0:0:0:0:
475,192,164407,1,0,0:0:0:0:
402,192,164448,1,0,0:0:0:0:
329,192,164490,1,0,0:0:0:0:
109,192,164532,1,0,0:0:0:0:
182,192,164573,1,0,0:0:0:0:
256,192,164615,1,0,0:0:0:0:
109,192,164657,1,0,0:0:0:0:
182,192,164698,1,0,0:0:0:0:
256,192,164740,1,0,0:0:0:0:
109,192,164782,1,0,0:0:0:0:
36,192,164782,1,0,0:0:0:0:
475,192,164782,1,0,0:0:0:0:
402,192,164823,1,0,0:0:0:0:
329,192,164865,1,0,0:0:0:0:
36,192,164907,1,0,0:0:0:0:
109,192,164948,1,0,0:0:0:0:
182,192,164990,1,0,0:0:0:0:
475,192,165032,1,0,0:0:0:0:
402,192,165073,1,0,0:0:0:0:
329,192,165115,1,0,0:0:0:0:
109,192,165157,1,0,0:0:0:0:
36,192,165157,1,0,0:0:0:0:
475,192,165282,1,0,0:0:0:0:
402,192,165313,1,0,0:0:0:0:
329,192,165344,1,0,0:0:0:0:
182,192,165375,1,0,0:0:0:0:
109,192,165407,1,0,0:0:0:0:
36,192,165438,1,0,0:0:0:0:
475,192,165469,1,0,0:0:0:0:
402,192,165500,1,0,0:0:0:0:
329,192,165532,1,0,0:0:0:0:
182,192,165594,1,0,0:0:0:0:
109,192,165657,1,0,0:0:0:0:
329,192,165657,1,0,0:0:0:0:
182,192,165719,1,0,0:0:0:0:
329,192,165782,1,0,0:0:0:0:
109,192,165844,1,0,0:0:0:0:
402,192,165907,1,0,0:0:0:0:
109,192,165969,1,0,0:0:0:0:
182,192,166032,1,0,0:0:0:0:
256,192,166115,1,0,0:0:0:0:
475,192,166198,1,0,0:0:0:0:
109,192,166282,1,0,0:0:0:0:
182,192,166344,1,0,0:0:0:0:
402,192,166407,1,0,0:0:0:0:
329,192,166469,1,0,0:0:0:0:
36,192,166532,1,0,0:0:0:0:
256,192,166615,1,0,0:0:0:0:
475,192,166698,1,0,0:0:0:0:
182,192,166782,1,0,0:0:0:0:
36,192,166782,1,0,0:0:0:0:
402,192,166844,1,0,0:0:0:0:
109,192,166907,1,0,0:0:0:0:
329,192,166969,1,0,0:0:0:0:
36,192,167032,1,0,0:0:0:0:
256,192,167094,1,0,0:0:0:0:
475,192,167157,1,0,0:0:0:0:
329,192,167219,1,0,0:0:0:0:
36,192,167282,1,0,0:0:0:0:
109,192,167323,1,0,0:0:0:0:
182,192,167365,1,0,0:0:0:0:
256,192,167407,1,0,0:0:0:0:
329,192,167448,1,0,0:0:0:0:
402,192,167490,1,0,0:0:0:0:
36,192,167532,1,0,0:0:0:0:
475,192,167532,1,0,0:0:0:0:
109,192,167573,1,0,0:0:0:0:
182,192,167615,1,0,0:0:0:0:
475,192,167657,1,0,0:0:0:0:
402,192,167698,1,0,0:0:0:0:
329,192,167740,1,0,0:0:0:0:
182,192,167782,1,0,0:0:0:0:
36,192,167782,1,0,0:0:0:0:
475,192,167865,1,0,0:0:0:0:
256,192,167865,1,0,0:0:0:0:
182,192,167948,1,0,0:0:0:0:
109,192,167948,1,0,0:0:0:0:
475,192,168032,1,0,0:0:0:0:
329,192,168032,1,0,0:0:0:0:
109,192,168115,1,0,0:0:0:0:
36,192,168115,1,0,0:0:0:0:
402,192,168198,1,0,0:0:0:0:
256,192,168198,1,0,0:0:0:0:
36,192,168282,1,0,0:0:0:0:
182,192,168282,1,0,0:0:0:0:
475,192,168365,1,0,0:0:0:0:
329,192,168365,1,0,0:0:0:0:
182,192,168448,1,0,0:0:0:0:
109,192,168448,1,0,0:0:0:0:
402,192,168532,1,0,0:0:0:0:
256,192,168532,1,0,0:0:0:0:
36,192,168615,1,0,0:0:0:0:
109,192,168615,1,0,0:0:0:0:
475,192,168698,1,0,0:0:0:0:
329,192,168698,1,0,0:0:0:0:
256,192,168782,1,0,0:0:0:0:
109,192,168782,1,0,0:0:0:0:
36,192,168782,1,0,0:0:0:0:
182,192,168865,1,0,0:0:0:0:
329,192,168865,1,0,0:0:0:0:
109,192,168948,1,0,0:0:0:0:
256,192,168948,1,0,0:0:0:0:
402,192,169032,1,0,0:0:0:0:
182,192,169032,1,0,0:0:0:0:
36,192,169032,1,0,0:0:0:0:
475,192,169115,1,0,0:0:0:0:
329,192,169115,1,0,0:0:0:0:
109,192,169198,1,0,0:0:0:0:
256,192,169198,1,0,0:0:0:0:
329,192,169282,1,0,0:0:0:0:
402,192,169282,1,0,0:0:0:0:
256,192,169365,1,0,0:0:0:0:
182,192,169365,1,0,0:0:0:0:
402,192,169448,1,0,0:0:0:0:
329,192,169448,1,0,0:0:0:0:
182,192,169532,1,0,0:0:0:0:
109,192,169532,1,0,0:0:0:0:
329,192,169615,1,0,0:0:0:0:
256,192,169615,1,0,0:0:0:0:
182,192,169698,1,0,0:0:0:0:
109,192,169698,1,0,0:0:0:0:
475,192,169782,1,0,0:0:0:0:
36,192,169782,1,0,0:0:0:0:
402,192,169782,1,0,0:0:0:0:
329,192,169782,1,0,0:0:0:0:
182,192,169844,1,0,0:0:0:0:
256,192,169907,1,0,0:0:0:0:
402,192,169969,1,0,0:0:0:0:
109,192,170032,1,0,0:0:0:0:
182,192,170094,1,0,0:0:0:0:
475,192,170157,1,0,0:0:0:0:
329,192,170157,1,0,0:0:0:0:
256,192,170219,1,0,0:0:0:0:
402,192,170282,1,0,0:0:0:0:
109,192,170282,1,0,0:0:0:0:
36,192,170282,1,0,0:0:0:0:
329,192,170407,1,0,0:0:0:0:
475,192,170407,1,0,0:0:0:0:
36,192,170469,1,0,0:0:0:0:
182,192,170469,1,0,0:0:0:0:
402,192,170532,1,0,0:0:0:0:
109,192,170594,1,0,0:0:0:0:
475,192,170657,1,0,0:0:0:0:
329,192,170657,1,0,0:0:0:0:
36,192,170719,1,0,0:0:0:0:
182,192,170719,1,0,0:0:0:0:
402,192,170782,1,0,0:0:0:0:
475,192,170782,1,0,0:0:0:0:
109,192,170844,1,0,0:0:0:0:
329,192,170907,1,0,0:0:0:0:
182,192,170969,1,0,0:0:0:0:
329,192,171032,1,0,0:0:0:0:
109,192,171094,1,0,0:0:0:0:
475,192,171157,1,0,0:0:0:0:
402,192,171157,1,0,0:0:0:0:
256,192,171219,1,0,0:0:0:0:
109,192,171282,1,0,0:0:0:0:
36,192,171282,1,0,0:0:0:0:
402,192,171344,1,0,0:0:0:0:
182,192,171407,1,0,0:0:0:0:
329,192,171469,1,0,0:0:0:0:
182,192,171532,1,0,0:0:0:0:
402,192,171594,1,0,0:0:0:0:
109,192,171657,1,0,0:0:0:0:
36,192,171657,1,0,0:0:0:0:
402,192,171719,1,0,0:0:0:0:
256,192,171782,1,0,0:0:0:0:
182,192,171823,1,0,0:0:0:0:
109,192,171865,1,0,0:0:0:0:
256,192,171907,1,0,0:0:0:0:
182,192,171948,1,0,0:0:0:0:
109,192,171990,1,0,0:0:0:0:
329,192,172032,1,0,0:0:0:0:
402,192,172073,1,0,0:0:0:0:
475,192,172115,1,0,0:0:0:0:
329,192,172157,1,0,0:0:0:0:
402,192,172198,1,0,0:0:0:0:
475,192,172240,1,0,0:0:0:0:
36,192,172282,1,0,0:0:0:0:
109,192,172323,1,0,0:0:0:0:
182,192,172365,1,0,0:0:0:0:
36,192,172407,1,0,0:0:0:0:
109,192,172448,1,0,0:0:0:0:
182,192,172490,1,0,0:0:0:0:
475,192,172532,1,0,0:0:0:0:
402,192,172573,1,0,0:0:0:0:
329,192,172615,1,0,0:0:0:0:
475,192,172657,1,0,0:0:0:0:
402,192,172698,1,0,0:0:0:0:
329,192,172740,1,0,0:0:0:0:
109,192,172782,1,0,0:0:0:0:
182,192,172823,1,0,0:0:0:0:
256,192,172865,1,0,0:0:0:0:
109,192,172907,1,0,0:0:0:0:
182,192,172948,1,0,0:0:0:0:
256,192,172990,1,0,0:0:0:0:
475,192,173032,1,0,0:0:0:0:
402,192,173073,1,0,0:0:0:0:
329,192,173115,1,0,0:0:0:0:
475,192,173157,1,0,0:0:0:0:
402,192,173198,1,0,0:0:0:0:
329,192,173240,1,0,0:0:0:0:
36,192,173282,1,0,0:0:0:0:
109,192,173313,1,0,0:0:0:0:
256,192,173344,1,0,0:0:0:0:
329,192,173375,1,0,0:0:0:0:
402,192,173407,1,0,0:0:0:0:
475,192,173438,1,0,0:0:0:0:
36,192,173469,1,0,0:0:0:0:
109,192,173500,1,0,0:0:0:0:
256,192,173532,1,0,0:0:0:0:
182,192,173532,1,0,0:0:0:0:
402,192,173594,1,0,0:0:0:0:
109,192,173657,1,0,0:0:0:0:
329,192,173657,1,0,0:0:0:0:
182,192,173719,1,0,0:0:0:0:
256,192,173782,1,0,0:0:0:0:
36,192,173844,1,0,0:0:0:0:
109,192,173907,1,0,0:0:0:0:
182,192,173969,1,0,0:0:0:0:
256,192,174032,1,0,0:0:0:0:
402,192,174115,1,0,0:0:0:0:
475,192,174198,1,0,0:0:0:0:
329,192,174282,1,0,0:0:0:0:
256,192,174344,1,0,0:0:0:0:
109,192,174407,1,0,0:0:0:0:
402,192,174469,1,0,0:0:0:0:
329,192,174532,1,0,0:0:0:0:
182,192,174615,1,0,0:0:0:0:
36,192,174698,1,0,0:0:0:0:
256,192,174782,1,0,0:0:0:0:
475,192,174782,1,0,0:0:0:0:
329,192,174844,1,0,0:0:0:0:
109,192,174907,1,0,0:0:0:0:
182,192,174969,1,0,0:0:0:0:
402,192,175032,1,0,0:0:0:0:
329,192,175094,1,0,0:0:0:0:
256,192,175157,1,0,0:0:0:0:
182,192,175219,1,0,0:0:0:0:
475,192,175282,1,0,0:0:0:0:
402,192,175323,1,0,0:0:0:0:
329,192,175365,1,0,0:0:0:0:
36,192,175407,1,0,0:0:0:0:
109,192,175448,1,0,0:0:0:0:
182,192,175490,1,0,0:0:0:0:
329,192,175532,1,0,0:0:0:0:
402,192,175573,1,0,0:0:0:0:
475,192,175615,1,0,0:0:0:0:
109,192,175657,1,0,0:0:0:0:
182,192,175698,1,0,0:0:0:0:
256,192,175740,1,0,0:0:0:0:
475,192,175782,1,0,0:0:0:0:
329,192,175782,1,0,0:0:0:0:
109,192,175865,1,0,0:0:0:0:
36,192,175865,1,0,0:0:0:0:
402,192,175948,1,0,0:0:0:0:
256,192,175948,1,0,0:0:0:0:
109,192,176032,1,0,0:0:0:0:
182,192,176032,1,0,0:0:0:0:
475,192,176115,1,0,0:0:0:0:
329,192,176115,1,0,0:0:0:0:
182,192,176198,1,0,0:0:0:0:
36,192,176198,1,0,0:0:0:0:
402,192,176282,1,0,0:0:0:0:
329,192,176282,1,0,0:0:0:0:
109,192,176365,1,0,0:0:0:0:
256,192,176365,1,0,0:0:0:0:
475,192,176448,1,0,0:0:0:0:
329,192,176448,1,0,0:0:0:0:
182,192,176532,1,0,0:0:0:0:
36,192,176532,1,0,0:0:0:0:
475,192,176615,1,0,0:0:0:0:
402,192,176615,1,0,0:0:0:0:
329,192,176698,1,0,0:0:0:0:
182,192,176698,1,0,0:0:0:0:
256,192,176782,1,0,0:0:0:0:
36,192,176782,1,0,0:0:0:0:
109,192,176782,1,0,0:0:0:0:
182,192,176865,1,0,0:0:0:0:
329,192,176865,1,0,0:0:0:0:
256,192,176948,1,0,0:0:0:0:
402,192,176948,1,0,0:0:0:0:
475,192,177032,1,0,0:0:0:0:
109,192,177032,1,0,0:0:0:0:
329,192,177032,1,0,0:0:0:0:
36,192,177115,1,0,0:0:0:0:
182,192,177115,1,0,0:0:0:0:
256,192,177198,1,0,0:0:0:0:
402,192,177198,1,0,0:0:0:0:
182,192,177282,1,0,0:0:0:0:
109,192,177282,1,0,0:0:0:0:
329,192,177365,1,0,0:0:0:0:
256,192,177365,1,0,0:0:0:0:
109,192,177448,1,0,0:0:0:0:
182,192,177448,1,0,0:0:0:0:
329,192,177532,1,0,0:0:0:0:
402,192,177532,1,0,0:0:0:0:
182,192,177615,1,0,0:0:0:0:
256,192,177615,1,0,0:0:0:0:
329,192,177698,1,0,0:0:0:0:
402,192,177698,1,0,0:0:0:0:
182,192,177782,1,0,0:0:0:0:
36,192,177782,1,0,0:0:0:0:
109,192,177782,1,0,0:0:0:0:
475,192,177782,1,0,0:0:0:0:
402,192,177844,1,0,0:0:0:0:
256,192,177907,1,0,0:0:0:0:
36,192,177969,1,0,0:0:0:0:
109,192,178032,1,0,0:0:0:0:
329,192,178094,1,0,0:0:0:0:
182,192,178157,1,0,0:0:0:0:
256,192,178157,1,0,0:0:0:0:
402,192,178219,1,0,0:0:0:0:
475,192,178282,1,0,0:0:0:0:
36,192,178282,1,0,0:0:0:0:
329,192,178282,1,0,0:0:0:0:
182,192,178407,1,0,0:0:0:0:
109,192,178407,1,0,0:0:0:0:
402,192,178469,1,0,0:0:0:0:
329,192,178469,1,0,0:0:0:0:
182,192,178532,1,0,0:0:0:0:
402,192,178594,1,0,0:0:0:0:
109,192,178657,1,0,0:0:0:0:
329,192,178719,1,0,0:0:0:0:
182,192,178782,1,0,0:0:0:0:
36,192,178782,1,0,0:0:0:0:
402,192,178844,1,0,0:0:0:0:
256,192,178907,1,0,0:0:0:0:
475,192,178969,1,0,0:0:0:0:
256,192,179032,1,0,0:0:0:0:
402,192,179094,1,0,0:0:0:0:
182,192,179157,1,0,0:0:0:0:
36,192,179157,1,0,0:0:0:0:
256,192,179219,1,0,0:0:0:0:
475,192,179282,1,0,0:0:0:0:
329,192,179282,1,0,0:0:0:0:
109,192,179344,1,0,0:0:0:0:
402,192,179407,1,0,0:0:0:0:
182,192,179469,1,0,0:0:0:0:
329,192,179532,1,0,0:0:0:0:
109,192,179594,1,0,0:0:0:0:
402,192,179657,1,0,0:0:0:0:
256,192,179657,1,0,0:0:0:0:
329,192,179782,1,0,0:0:0:0:
182,192,179782,1,0,0:0:0:0:
109,192,179782,1,0,0:0:0:0:
329,192,180032,1,0,0:0:0:0:
256,192,180094,1,0,0:0:0:0:
402,192,180157,1,0,0:0:0:0:
475,192,180219,1,0,0:0:0:0:
256,192,180282,1,0,0:0:0:0:
182,192,180344,1,0,0:0:0:0:
329,192,180407,1,0,0:0:0:0:
402,192,180469,1,0,0:0:0:0:
182,192,180532,1,0,0:0:0:0:
109,192,180594,1,0,0:0:0:0:
256,192,180657,1,0,0:0:0:0:
329,192,180719,1,0,0:0:0:0:
109,192,180782,1,0,0:0:0:0:
36,192,180844,1,0,0:0:0:0:
182,192,180907,1,0,0:0:0:0:
256,192,180969,1,0,0:0:0:0:
329,192,181032,1,0,0:0:0:0:
182,192,181094,1,0,0:0:0:0:
402,192,181157,1,0,0:0:0:0:
475,192,181219,1,0,0:0:0:0:
256,192,181282,1,0,0:0:0:0:
109,192,181344,1,0,0:0:0:0:
329,192,181407,1,0,0:0:0:0:
402,192,181469,1,0,0:0:0:0:
182,192,181532,1,0,0:0:0:0:
36,192,181594,1,0,0:0:0:0:
256,192,181657,1,0,0:0:0:0:
329,192,181719,1,0,0:0:0:0:
182,192,181782,1,0,0:0:0:0:
36,192,181844,1,0,0:0:0:0:
256,192,181907,1,0,0:0:0:0:
329,192,181969,1,0,0:0:0:0:
402,192,182032,1,0,0:0:0:0:
182,192,182094,1,0,0:0:0:0:
402,192,182157,1,0,0:0:0:0:
475,192,182219,1,0,0:0:0:0:
256,192,182282,1,0,0:0:0:0:
182,192,182344,1,0,0:0:0:0:
329,192,182407,1,0,0:0:0:0:
402,192,182469,1,0,0:0:0:0:
182,192,182532,1,0,0:0:0:0:
109,192,182594,1,0,0:0:0:0:
256,192,182657,1,0,0:0:0:0:
329,192,182719,1,0,0:0:0:0:
109,192,182782,1,0,0:0:0:0:
36,192,182844,1,0,0:0:0:0:
182,192,182907,1,0,0:0:0:0:
256,192,182969,1,0,0:0:0:0:
329,192,183032,1,0,0:0:0:0:
182,192,183094,1,0,0:0:0:0:
402,192,183157,1,0,0:0:0:0:
475,192,183219,1,0,0:0:0:0:
256,192,183282,1,0,0:0:0:0:
109,192,183344,1,0,0:0:0:0:
329,192,183407,1,0,0:0:0:0:
402,192,183469,1,0,0:0:0:0:
182,192,183532,1,0,0:0:0:0:
36,192,183594,1,0,0:0:0:0:
109,192,183657,1,0,0:0:0:0:
256,192,183719,1,0,0:0:0:0:
182,192,183782,1,0,0:0:0:0:
36,192,183782,1,0,0:0:0:0:
475,192,183782,1,0,0:0:0:0:
402,192,183782,1,0,0:0:0:0:
329,192,183782,1,0,0:0:0:0:
402,192,184782,1,0,0:0:0:0:
36,192,184782,1,0,0:0:0:0:
109,192,184823,1,0,0:0:0:0:
329,192,184865,1,0,0:0:0:0:
182,192,184907,1,0,0:0:0:0:
402,192,184948,1,0,0:0:0:0:
109,192,185032,1,0,0:0:0:0:
256,192,185115,1,0,0:0:0:0:
402,192,185157,1,0,0:0:0:0:
182,192,185198,1,0,0:0:0:0:
329,192,185240,1,0,0:0:0:0:
36,192,185282,1,0,0:0:0:0:
256,192,185365,1,0,0:0:0:0:
109,192,185407,1,0,0:0:0:0:
329,192,185448,1,0,0:0:0:0:
182,192,185490,1,0,0:0:0:0:
402,192,185532,1,0,0:0:0:0:
256,192,185615,1,0,0:0:0:0:
36,192,185698,1,0,0:0:0:0:
109,192,185698,1,0,0:0:0:0:
475,192,185782,1,0,0:0:0:0:
402,192,185782,1,0,0:0:0:0:
182,192,185823,1,0,0:0:0:0:
329,192,185865,1,0,0:0:0:0:
36,192,185907,1,0,0:0:0:0:
109,192,185948,1,0,0:0:0:0:
256,192,186032,1,0,0:0:0:0:
36,192,186115,1,0,0:0:0:0:
329,192,186157,1,0,0:0:0:0:
182,192,186198,1,0,0:0:0:0:
475,192,186240,1,0,0:0:0:0:
402,192,186282,1,0,0:0:0:0:
36,192,186365,1,0,0:0:0:0:
256,192,186407,1,0,0:0:0:0:
109,192,186448,1,0,0:0:0:0:
329,192,186490,1,0,0:0:0:0:
402,192,186532,1,0,0:0:0:0:
475,192,186615,1,0,0:0:0:0:
256,192,186657,1,0,0:0:0:0:
402,192,186698,1,0,0:0:0:0:
182,192,186740,1,0,0:0:0:0:
475,192,186782,1,0,0:0:0:0:
329,192,186782,1,0,0:0:0:0:
36,192,186823,1,0,0:0:0:0:
256,192,186865,1,0,0:0:0:0:
109,192,186907,1,0,0:0:0:0:
329,192,186948,1,0,0:0:0:0:
36,192,187032,1,0,0:0:0:0:
182,192,187032,1,0,0:0:0:0:
109,192,187115,1,0,0:0:0:0:
256,192,187115,1,0,0:0:0:0:
182,192,187198,1,0,0:0:0:0:
36,192,187198,1,0,0:0:0:0:
329,192,187282,1,0,0:0:0:0:
475,192,187282,1,0,0:0:0:0:
402,192,187365,1,0,0:0:0:0:
256,192,187365,1,0,0:0:0:0:
329,192,187448,1,0,0:0:0:0:
475,192,187448,1,0,0:0:0:0:
36,192,187532,1,0,0:0:0:0:
182,192,187532,1,0,0:0:0:0:
402,192,187615,1,0,0:0:0:0:
109,192,187657,1,0,0:0:0:0:
329,192,187698,1,0,0:0:0:0:
182,192,187740,1,0,0:0:0:0:
402,192,187782,1,0,0:0:0:0:
256,192,187865,1,0,0:0:0:0:
109,192,187948,1,0,0:0:0:0:
402,192,187990,1,0,0:0:0:0:
182,192,188032,1,0,0:0:0:0:
329,192,188073,1,0,0:0:0:0:
109,192,188115,1,0,0:0:0:0:
475,192,188198,1,0,0:0:0:0:
182,192,188240,1,0,0:0:0:0:
329,192,188282,1,0,0:0:0:0:
36,192,188323,1,0,0:0:0:0:
256,192,188365,1,0,0:0:0:0:
109,192,188448,1,0,0:0:0:0:
182,192,188532,1,0,0:0:0:0:
402,192,188573,1,0,0:0:0:0:
256,192,188615,1,0,0:0:0:0:
475,192,188657,1,0,0:0:0:0:
109,192,188698,1,0,0:0:0:0:
182,192,188782,1,0,0:0:0:0:
36,192,188782,1,0,0:0:0:0:
329,192,188782,1,0,0:0:0:0:
475,192,188865,1,0,0:0:0:0:
402,192,188948,1,0,0:0:0:0:
182,192,188990,1,0,0:0:0:0:
329,192,189032,1,0,0:0:0:0:
109,192,189073,1,0,0:0:0:0:
256,192,189115,1,0,0:0:0:0:
36,192,189157,1,0,0:0:0:0:
329,192,189198,1,0,0:0:0:0:
109,192,189240,1,0,0:0:0:0:
402,192,189282,1,0,0:0:0:0:
182,192,189365,1,0,0:0:0:0:
36,192,189448,1,0,0:0:0:0:
329,192,189490,1,0,0:0:0:0:
109,192,189532,1,0,0:0:0:0:
402,192,189573,1,0,0:0:0:0:
475,192,189657,1,0,0:0:0:0:
109,192,189698,1,0,0:0:0:0:
402,192,189740,1,0,0:0:0:0:
36,192,189782,1,0,0:0:0:0:
329,192,189823,1,0,0:0:0:0:
182,192,189865,1,0,0:0:0:0:
402,192,189948,1,0,0:0:0:0:
256,192,190032,1,0,0:0:0:0:
36,192,190115,1,0,0:0:0:0:
329,192,190157,1,0,0:0:0:0:
182,192,190198,1,0,0:0:0:0:
475,192,190240,1,0,0:0:0:0:
109,192,190282,1,0,0:0:0:0:
402,192,190365,1,0,0:0:0:0:
329,192,190365,1,0,0:0:0:0:
256,192,190448,1,0,0:0:0:0:
475,192,190448,1,0,0:0:0:0:
402,192,190532,1,0,0:0:0:0:
329,192,190532,1,0,0:0:0:0:
109,192,190615,1,0,0:0:0:0:
182,192,190615,1,0,0:0:0:0:
256,192,190698,1,0,0:0:0:0:
36,192,190698,1,0,0:0:0:0:
475,192,190782,1,0,0:0:0:0:
182,192,190782,1,0,0:0:0:0:
109,192,190782,1,0,0:0:0:0:
402,192,190865,1,0,0:0:0:0:
182,192,190907,1,0,0:0:0:0:
329,192,190948,1,0,0:0:0:0:
256,192,191032,1,0,0:0:0:0:
36,192,191115,1,0,0:0:0:0:
109,192,191157,1,0,0:0:0:0:
182,192,191198,1,0,0:0:0:0:
256,192,191240,1,0,0:0:0:0:
329,192,191282,1,0,0:0:0:0:
402,192,191282,1,0,0:0:0:0:
182,192,191344,1,0,0:0:0:0:
402,192,191407,1,0,0:0:0:0:
329,192,191407,1,0,0:0:0:0:
182,192,191469,1,0,0:0:0:0:
402,192,191532,1,0,0:0:0:0:
329,192,191532,1,0,0:0:0:0:
182,192,191594,1,0,0:0:0:0:
402,192,191657,1,0,0:0:0:0:
329,192,191657,1,0,0:0:0:0:
182,192,191719,1,0,0:0:0:0:
329,192,191782,1,0,0:0:0:0:
402,192,191782,1,0,0:0:0:0:
475,192,191782,1,0,0:0:0:0:
109,192,191865,1,0,0:0:0:0:
256,192,191948,1,0,0:0:0:0:
182,192,192032,1,0,0:0:0:0:
402,192,192094,1,0,0:0:0:0:
475,192,192094,1,0,0:0:0:0:
329,192,192115,1,0,0:0:0:0:
182,192,192198,1,0,0:0:0:0:
475,192,192219,1,0,0:0:0:0:
402,192,192219,1,0,0:0:0:0:
256,192,192282,1,0,0:0:0:0:
329,192,192344,1,0,0:0:0:0:
36,192,192407,1,0,0:0:0:0:
109,192,192438,1,0,0:0:0:0:
182,192,192469,1,0,0:0:0:0:
475,192,192532,1,0,0:0:0:0:
329,192,192532,1,0,0:0:0:0:
36,192,192594,1,0,0:0:0:0:
109,192,192594,1,0,0:0:0:0:
475,192,192657,1,0,0:0:0:0:
329,192,192657,1,0,0:0:0:0:
182,192,192719,1,0,0:0:0:0:
109,192,192719,1,0,0:0:0:0:
475,192,192782,1,0,0:0:0:0:
329,192,192782,1,0,0:0:0:0:
36,192,192823,1,0,0:0:0:0:
256,192,192865,1,0,0:0:0:0:
109,192,192907,1,0,0:0:0:0:
329,192,192948,1,0,0:0:0:0:
475,192,193032,1,0,0:0:0:0:
256,192,193115,1,0,0:0:0:0:
402,192,193157,1,0,0:0:0:0:
182,192,193198,1,0,0:0:0:0:
329,192,193240,1,0,0:0:0:0:
36,192,193282,1,0,0:0:0:0:
256,192,193365,1,0,0:0:0:0:
109,192,193407,1,0,0:0:0:0:
329,192,193448,1,0,0:0:0:0:
182,192,193490,1,0,0:0:0:0:
402,192,193532,1,0,0:0:0:0:
256,192,193615,1,0,0:0:0:0:
329,192,193698,1,0,0:0:0:0:
475,192,193698,1,0,0:0:0:0:
109,192,193782,1,0,0:0:0:0:
36,192,193782,1,0,0:0:0:0:
402,192,193823,1,0,0:0:0:0:
182,192,193865,1,0,0:0:0:0:
329,192,193907,1,0,0:0:0:0:
109,192,193948,1,0,0:0:0:0:
402,192,194032,1,0,0:0:0:0:
36,192,194115,1,0,0:0:0:0:
256,192,194157,1,0,0:0:0:0:
109,192,194198,1,0,0:0:0:0:
329,192,194240,1,0,0:0:0:0:
182,192,194282,1,0,0:0:0:0:
475,192,194365,1,0,0:0:0:0:
256,192,194407,1,0,0:0:0:0:
402,192,194448,1,0,0:0:0:0:
182,192,194490,1,0,0:0:0:0:
329,192,194532,1,0,0:0:0:0:
36,192,194615,1,0,0:0:0:0:
256,192,194657,1,0,0:0:0:0:
109,192,194698,1,0,0:0:0:0:
329,192,194740,1,0,0:0:0:0:
36,192,194782,1,0,0:0:0:0:
402,192,194782,1,0,0:0:0:0:
475,192,194782,1,0,0:0:0:0:
182,192,194823,1,0,0:0:0:0:
329,192,194865,1,0,0:0:0:0:
109,192,194907,1,0,0:0:0:0:
256,192,194948,1,0,0:0:0:0:
36,192,195032,1,0,0:0:0:0:
182,192,195032,1,0,0:0:0:0:
109,192,195115,1,0,0:0:0:0:
329,192,195115,1,0,0:0:0:0:
182,192,195198,1,0,0:0:0:0:
36,192,195198,1,0,0:0:0:0:
475,192,195282,1,0,0:0:0:0:
329,192,195282,1,0,0:0:0:0:
182,192,195365,1,0,0:0:0:0:
402,192,195365,1,0,0:0:0:0:
475,192,195448,1,0,0:0:0:0:
329,192,195448,1,0,0:0:0:0:
36,192,195532,1,0,0:0:0:0:
182,192,195532,1,0,0:0:0:0:
402,192,195615,1,0,0:0:0:0:
109,192,195657,1,0,0:0:0:0:
329,192,195698,1,0,0:0:0:0:
36,192,195740,1,0,0:0:0:0:
256,192,195782,1,0,0:0:0:0:
329,192,195865,1,0,0:0:0:0:
109,192,195948,1,0,0:0:0:0:
402,192,195990,1,0,0:0:0:0:
182,192,196032,1,0,0:0:0:0:
475,192,196073,1,0,0:0:0:0:
256,192,196115,1,0,0:0:0:0:
402,192,196198,1,0,0:0:0:0:
109,192,196240,1,0,0:0:0:0:
329,192,196282,1,0,0:0:0:0:
36,192,196323,1,0,0:0:0:0:
402,192,196407,1,0,0:0:0:0:
109,192,196490,1,0,0:0:0:0:
329,192,196532,1,0,0:0:0:0:
182,192,196573,1,0,0:0:0:0:
402,192,196615,1,0,0:0:0:0:
109,192,196657,1,0,0:0:0:0:
256,192,196698,1,0,0:0:0:0:
475,192,196782,1,0,0:0:0:0:
329,192,196782,1,0,0:0:0:0:
36,192,196782,1,0,0:0:0:0:
182,192,196865,1,0,0:0:0:0:
402,192,196948,1,0,0:0:0:0:
109,192,196990,1,0,0:0:0:0:
329,192,197032,1,0,0:0:0:0:
182,192,197073,1,0,0:0:0:0:
402,192,197115,1,0,0:0:0:0:
256,192,197157,1,0,0:0:0:0:
402,192,197282,1,0,0:0:0:0:
475,192,197282,1,0,0:0:0:0:
182,192,197344,1,0,0:0:0:0:
329,192,197407,1,0,0:0:0:0:
109,192,197469,1,0,0:0:0:0:
256,192,197532,1,0,0:0:0:0:
36,192,197594,1,0,0:0:0:0:
182,192,197657,1,0,0:0:0:0:
329,192,197719,1,0,0:0:0:0:
109,192,197782,1,0,0:0:0:0:
36,192,197782,1,0,0:0:0:0:
475,192,197844,1,0,0:0:0:0:
402,192,197844,1,0,0:0:0:0:
182,192,197907,1,0,0:0:0:0:
329,192,197969,1,0,0:0:0:0:
109,192,198032,1,0,0:0:0:0:
402,192,198094,1,0,0:0:0:0:
182,192,198157,1,0,0:0:0:0:
329,192,198219,1,0,0:0:0:0:
256,192,198282,1,0,0:0:0:0:
36,192,198282,1,0,0:0:0:0:
182,192,198344,1,0,0:0:0:0:
329,192,198407,1,0,0:0:0:0:
109,192,198469,1,0,0:0:0:0:
402,192,198532,1,0,0:0:0:0:
182,192,198594,1,0,0:0:0:0:
329,192,198657,1,0,0:0:0:0:
256,192,198719,1,0,0:0:0:0:
182,192,198782,1,0,0:0:0:0:
36,192,198782,1,0,0:0:0:0:
329,192,198844,1,0,0:0:0:0:
182,192,198907,1,0,0:0:0:0:
329,192,198969,1,0,0:0:0:0:
109,192,199032,1,0,0:0:0:0:
402,192,199094,1,0,0:0:0:0:
109,192,199157,1,0,0:0:0:0:
402,192,199219,1,0,0:0:0:0:
109,192,199282,1,0,0:0:0:0:
402,192,199344,1,0,0:0:0:0:
36,192,199407,1,0,0:0:0:0:
329,192,199407,1,0,0:0:0:0:
182,192,199469,1,0,0:0:0:0:
109,192,199532,1,0,0:0:0:0:
402,192,199594,1,0,0:0:0:0:
109,192,199657,1,0,0:0:0:0:
402,192,199719,1,0,0:0:0:0:
475,192,199782,1,0,0:0:0:0:
182,192,199782,1,0,0:0:0:0:
36,192,199844,1,0,0:0:0:0:
109,192,199907,1,0,0:0:0:0:
182,192,199969,1,0,0:0:0:0:
402,192,200032,1,0,0:0:0:0:
109,192,200094,1,0,0:0:0:0:
402,192,200157,1,0,0:0:0:0:
109,192,200219,1,0,0:0:0:0:
402,192,200282,1,0,0:0:0:0:
109,192,200344,1,0,0:0:0:0:
182,192,200407,1,0,0:0:0:0:
475,192,200407,1,0,0:0:0:0:
329,192,200469,1,0,0:0:0:0:
402,192,200532,1,0,0:0:0:0:
256,192,200594,1,0,0:0:0:0:
182,192,200657,1,0,0:0:0:0:
109,192,200719,1,0,0:0:0:0:
36,192,200782,1,0,0:0:0:0:
329,192,200782,1,0,0:0:0:0:
182,192,200844,1,0,0:0:0:0:
329,192,200907,1,0,0:0:0:0:
182,192,200969,1,0,0:0:0:0:
402,192,201032,1,0,0:0:0:0:
109,192,201094,1,0,0:0:0:0:
402,192,201157,1,0,0:0:0:0:
109,192,201219,1,0,0:0:0:0:
402,192,201282,1,0,0:0:0:0:
109,192,201344,1,0,0:0:0:0:
475,192,201407,1,0,0:0:0:0:
182,192,201407,1,0,0:0:0:0:
329,192,201469,1,0,0:0:0:0:
402,192,201532,1,0,0:0:0:0:
109,192,201594,1,0,0:0:0:0:
402,192,201657,1,0,0:0:0:0:
109,192,201719,1,0,0:0:0:0:
329,192,201782,1,0,0:0:0:0:
36,192,201782,1,0,0:0:0:0:
475,192,201844,1,0,0:0:0:0:
402,192,201907,1,0,0:0:0:0:
329,192,201969,1,0,0:0:0:0:
109,192,202032,1,0,0:0:0:0:
402,192,202094,1,0,0:0:0:0:
109,192,202157,1,0,0:0:0:0:
402,192,202219,1,0,0:0:0:0:
109,192,202282,1,0,0:0:0:0:
402,192,202344,1,0,0:0:0:0:
36,192,202407,1,0,0:0:0:0:
329,192,202407,1,0,0:0:0:0:
182,192,202469,1,0,0:0:0:0:
109,192,202532,1,0,0:0:0:0:
256,192,202594,1,0,0:0:0:0:
329,192,202657,1,0,0:0:0:0:
402,192,202719,1,0,0:0:0:0:
109,192,202782,1,0,0:0:0:0:
36,192,202782,1,0,0:0:0:0:
182,192,202865,1,0,0:0:0:0:
256,192,202865,1,0,0:0:0:0:
475,192,202948,1,0,0:0:0:0:
402,192,202948,1,0,0:0:0:0:
256,192,203032,1,0,0:0:0:0:
329,192,203032,1,0,0:0:0:0:
109,192,203115,1,0,0:0:0:0:
36,192,203115,1,0,0:0:0:0:
329,192,203157,1,0,0:0:0:0:
182,192,203198,1,0,0:0:0:0:
402,192,203219,1,0,0:0:0:0:
475,192,203282,1,0,0:0:0:0:
256,192,203282,1,0,0:0:0:0:
36,192,203344,1,0,0:0:0:0:
329,192,203365,1,0,0:0:0:0:
109,192,203407,1,0,0:0:0:0:
402,192,203448,1,0,0:0:0:0:
182,192,203469,1,0,0:0:0:0:
256,192,203532,1,0,0:0:0:0:
475,192,203532,1,0,0:0:0:0:
329,192,203594,1,0,0:0:0:0:
109,192,203657,1,0,0:0:0:0:
256,192,203719,1,0,0:0:0:0:
475,192,203782,1,0,0:0:0:0:
36,192,203782,1,0,0:0:0:0:
182,192,203844,1,0,0:0:0:0:
329,192,203907,1,0,0:0:0:0:
109,192,203969,1,0,0:0:0:0:
182,192,204032,1,0,0:0:0:0:
256,192,204094,1,0,0:0:0:0:
475,192,204157,1,0,0:0:0:0:
329,192,204157,1,0,0:0:0:0:
36,192,204219,1,0,0:0:0:0:
109,192,204282,1,0,0:0:0:0:
182,192,204344,1,0,0:0:0:0:
402,192,204407,1,0,0:0:0:0:
256,192,204407,1,0,0:0:0:0:
36,192,204469,1,0,0:0:0:0:
109,192,204532,1,0,0:0:0:0:
329,192,204532,1,0,0:0:0:0:
475,192,204532,1,0,0:0:0:0:
256,192,204594,1,0,0:0:0:0:
182,192,204657,1,0,0:0:0:0:
109,192,204719,1,0,0:0:0:0:
36,192,204782,1,0,0:0:0:0:
182,192,204823,1,0,0:0:0:0:
329,192,204865,1,0,0:0:0:0:
475,192,204907,1,0,0:0:0:0:
402,192,204969,1,0,0:0:0:0:
256,192,205032,1,0,0:0:0:0:
36,192,205032,1,0,0:0:0:0:
182,192,205094,1,0,0:0:0:0:
256,192,205157,1,0,0:0:0:0:
36,192,205157,1,0,0:0:0:0:
329,192,205219,1,0,0:0:0:0:
109,192,205282,1,0,0:0:0:0:
402,192,205282,1,0,0:0:0:0:
182,192,205344,1,0,0:0:0:0:
475,192,205407,1,0,0:0:0:0:
256,192,205407,1,0,0:0:0:0:
109,192,205469,1,0,0:0:0:0:
475,192,205532,1,0,0:0:0:0:
182,192,205532,1,0,0:0:0:0:
256,192,205594,1,0,0:0:0:0:
36,192,205657,1,0,0:0:0:0:
329,192,205657,1,0,0:0:0:0:
402,192,205719,1,0,0:0:0:0:
475,192,205782,1,0,0:0:0:0:
182,192,205844,1,0,0:0:0:0:
402,192,205907,1,0,0:0:0:0:
256,192,205948,1,0,0:0:0:0:
109,192,205990,1,0,0:0:0:0:
36,192,206032,1,0,0:0:0:0:
329,192,206094,1,0,0:0:0:0:
256,192,206157,1,0,0:0:0:0:
182,192,206219,1,0,0:0:0:0:
329,192,206282,1,0,0:0:0:0:
402,192,206282,1,0,0:0:0:0:
109,192,206344,1,0,0:0:0:0:
329,192,206407,1,0,0:0:0:0:
402,192,206407,1,0,0:0:0:0:
109,192,206469,1,0,0:0:0:0:
256,192,206532,1,0,0:0:0:0:
182,192,206532,1,0,0:0:0:0:
475,192,206573,1,0,0:0:0:0:
402,192,206615,1,0,0:0:0:0:
329,192,206657,1,0,0:0:0:0:
182,192,206719,1,0,0:0:0:0:
402,192,206782,1,0,0:0:0:0:
256,192,206782,1,0,0:0:0:0:
109,192,206844,1,0,0:0:0:0:
182,192,206907,1,0,0:0:0:0:
256,192,206948,1,0,0:0:0:0:
402,192,206990,1,0,0:0:0:0:
475,192,207032,1,0,0:0:0:0:
329,192,207094,1,0,0:0:0:0:
36,192,207157,1,0,0:0:0:0:
256,192,207157,1,0,0:0:0:0:
182,192,207219,1,0,0:0:0:0:
109,192,207282,1,0,0:0:0:0:
182,192,207344,1,0,0:0:0:0:
329,192,207407,1,0,0:0:0:0:
402,192,207469,1,0,0:0:0:0:
475,192,207532,1,0,0:0:0:0:
256,192,207532,1,0,0:0:0:0:
182,192,207594,1,0,0:0:0:0:
36,192,207657,1,0,0:0:0:0:
109,192,207657,1,0,0:0:0:0:
329,192,207719,1,0,0:0:0:0:
109,192,207782,1,0,0:0:0:0:
36,192,207782,1,0,0:0:0:0:
329,192,207844,1,0,0:0:0:0:
109,192,207907,1,0,0:0:0:0:
36,192,207907,1,0,0:0:0:0:
256,192,207969,1,0,0:0:0:0:
402,192,208032,1,0,0:0:0:0:
329,192,208032,1,0,0:0:0:0:
182,192,208094,1,0,0:0:0:0:
402,192,208157,1,0,0:0:0:0:
329,192,208157,1,0,0:0:0:0:
182,192,208219,1,0,0:0:0:0:
402,192,208282,1,0,0:0:0:0:
329,192,208282,1,0,0:0:0:0:
182,192,208344,1,0,0:0:0:0:
402,192,208407,1,0,0:0:0:0:
329,192,208407,1,0,0:0:0:0:
256,192,208469,1,0,0:0:0:0:
182,192,208532,1,0,0:0:0:0:
36,192,208532,1,0,0:0:0:0:
109,192,208532,1,0,0:0:0:0:
329,192,208573,1,0,0:0:0:0:
402,192,208615,1,0,0:0:0:0:
475,192,208657,1,0,0:0:0:0:
36,192,208719,1,0,0:0:0:0:
109,192,208782,1,0,0:0:0:0:
182,192,208844,1,0,0:0:0:0:
256,192,208907,1,0,0:0:0:0:
329,192,208969,1,0,0:0:0:0:
109,192,209032,1,0,0:0:0:0:
402,192,209032,1,0,0:0:0:0:
256,192,209094,1,0,0:0:0:0:
109,192,209157,1,0,0:0:0:0:
402,192,209157,1,0,0:0:0:0:
182,192,209219,1,0,0:0:0:0:
256,192,209282,1,0,0:0:0:0:
329,192,209344,1,0,0:0:0:0:
402,192,209407,1,0,0:0:0:0:
475,192,209407,1,0,0:0:0:0:
109,192,209469,1,0,0:0:0:0:
36,192,209469,1,0,0:0:0:0:
402,192,209532,1,0,0:0:0:0:
109,192,209594,1,0,0:0:0:0:
475,192,209657,1,0,0:0:0:0:
329,192,209657,1,0,0:0:0:0:
182,192,209719,1,0,0:0:0:0:
475,192,209782,1,0,0:0:0:0:
329,192,209782,1,0,0:0:0:0:
182,192,209844,1,0,0:0:0:0:
402,192,209907,1,0,0:0:0:0:
109,192,209969,1,0,0:0:0:0:
402,192,210032,1,0,0:0:0:0:
109,192,210094,1,0,0:0:0:0:
475,192,210157,1,0,0:0:0:0:
329,192,210157,1,0,0:0:0:0:
182,192,210219,1,0,0:0:0:0:
36,192,210282,1,0,0:0:0:0:
256,192,210282,1,0,0:0:0:0:
329,192,210344,1,0,0:0:0:0:
109,192,210407,1,0,0:0:0:0:
402,192,210407,1,0,0:0:0:0:
182,192,210469,1,0,0:0:0:0:
256,192,210532,1,0,0:0:0:0:
36,192,210532,1,0,0:0:0:0:
475,192,210532,1,0,0:0:0:0:
402,192,210573,1,0,0:0:0:0:
329,192,210615,1,0,0:0:0:0:
109,192,210657,1,0,0:0:0:0:
182,192,210719,1,0,0:0:0:0:
475,192,210782,1,0,0:0:0:0:
329,192,210782,1,0,0:0:0:0:
109,192,210844,1,0,0:0:0:0:
182,192,210907,1,0,0:0:0:0:
256,192,210969,1,0,0:0:0:0:
402,192,211032,1,0,0:0:0:0:
329,192,211032,1,0,0:0:0:0:
182,192,211094,1,0,0:0:0:0:
109,192,211094,1,0,0:0:0:0:
402,192,211157,1,0,0:0:0:0:
329,192,211157,1,0,0:0:0:0:
109,192,211219,1,0,0:0:0:0:
182,192,211219,1,0,0:0:0:0:
402,192,211282,1,0,0:0:0:0:
329,192,211282,1,0,0:0:0:0:
109,192,211344,1,0,0:0:0:0:
182,192,211344,1,0,0:0:0:0:
402,192,211407,1,0,0:0:0:0:
329,192,211407,1,0,0:0:0:0:
109,192,211469,1,0,0:0:0:0:
182,192,211469,1,0,0:0:0:0:
402,192,211532,1,0,0:0:0:0:
329,192,211532,1,0,0:0:0:0:
256,192,211573,1,0,0:0:0:0:
182,192,211615,1,0,0:0:0:0:
109,192,211657,1,0,0:0:0:0:
329,192,211719,1,0,0:0:0:0:
36,192,211782,1,0,0:0:0:0:
256,192,211782,1,0,0:0:0:0:
182,192,211844,1,0,0:0:0:0:
402,192,211907,1,0,0:0:0:0:
182,192,211969,1,0,0:0:0:0:
256,192,212032,1,0,0:0:0:0:
329,192,212094,1,0,0:0:0:0:
109,192,212157,1,0,0:0:0:0:
402,192,212157,1,0,0:0:0:0:
182,192,212219,1,0,0:0:0:0:
402,192,212282,1,0,0:0:0:0:
329,192,212344,1,0,0:0:0:0:
36,192,212407,1,0,0:0:0:0:
256,192,212407,1,0,0:0:0:0:
182,192,212469,1,0,0:0:0:0:
109,192,212532,1,0,0:0:0:0:
475,192,212532,1,0,0:0:0:0:
402,192,212532,1,0,0:0:0:0:
182,192,212594,1,0,0:0:0:0:
256,192,212657,1,0,0:0:0:0:
329,192,212719,1,0,0:0:0:0:
402,192,212782,1,0,0:0:0:0:
256,192,212823,1,0,0:0:0:0:
182,192,212865,1,0,0:0:0:0:
36,192,212907,1,0,0:0:0:0:
109,192,212969,1,0,0:0:0:0:
475,192,213032,1,0,0:0:0:0:
256,192,213032,1,0,0:0:0:0:
36,192,213094,1,0,0:0:0:0:
475,192,213157,1,0,0:0:0:0:
256,192,213157,1,0,0:0:0:0:
36,192,213219,1,0,0:0:0:0:
182,192,213282,1,0,0:0:0:0:
329,192,213282,1,0,0:0:0:0:
402,192,213344,1,0,0:0:0:0:
475,192,213407,1,0,0:0:0:0:
256,192,213407,1,0,0:0:0:0:
109,192,213469,1,0,0:0:0:0:
329,192,213532,1,0,0:0:0:0:
182,192,213532,1,0,0:0:0:0:
402,192,213594,1,0,0:0:0:0:
36,192,213657,1,0,0:0:0:0:
475,192,213657,1,0,0:0:0:0:
182,192,213719,1,0,0:0:0:0:
329,192,213782,1,0,0:0:0:0:
109,192,213844,1,0,0:0:0:0:
402,192,213907,1,0,0:0:0:0:
256,192,213948,1,0,0:0:0:0:
182,192,213990,1,0,0:0:0:0:
36,192,214032,1,0,0:0:0:0:
329,192,214094,1,0,0:0:0:0:
402,192,214157,1,0,0:0:0:0:
182,192,214219,1,0,0:0:0:0:
36,192,214282,1,0,0:0:0:0:
475,192,214282,1,0,0:0:0:0:
329,192,214344,1,0,0:0:0:0:
109,192,214407,1,0,0:0:0:0:
475,192,214407,1,0,0:0:0:0:
182,192,214469,1,0,0:0:0:0:
36,192,214532,1,0,0:0:0:0:
329,192,214532,1,0,0:0:0:0:
256,192,214573,1,0,0:0:0:0:
402,192,214615,1,0,0:0:0:0:
475,192,214657,1,0,0:0:0:0:
109,192,214719,1,0,0:0:0:0:
329,192,214782,1,0,0:0:0:0:
182,192,214782,1,0,0:0:0:0:
475,192,214844,1,0,0:0:0:0:
402,192,214907,1,0,0:0:0:0:
256,192,214948,1,0,0:0:0:0:
109,192,214990,1,0,0:0:0:0:
36,192,215032,1,0,0:0:0:0:
402,192,215094,1,0,0:0:0:0:
329,192,215157,1,0,0:0:0:0:
182,192,215157,1,0,0:0:0:0:
475,192,215219,1,0,0:0:0:0:
109,192,215282,1,0,0:0:0:0:
182,192,215344,1,0,0:0:0:0:
256,192,215407,1,0,0:0:0:0:
329,192,215469,1,0,0:0:0:0:
109,192,215532,1,0,0:0:0:0:
182,192,215594,1,0,0:0:0:0:
475,192,215657,1,0,0:0:0:0:
256,192,215657,1,0,0:0:0:0:
36,192,215719,1,0,0:0:0:0:
475,192,215782,1,0,0:0:0:0:
256,192,215782,1,0,0:0:0:0:
109,192,215844,1,0,0:0:0:0:
182,192,215907,1,0,0:0:0:0:
402,192,215907,1,0,0:0:0:0:
329,192,215969,1,0,0:0:0:0:
36,192,216032,1,0,0:0:0:0:
256,192,216032,1,0,0:0:0:0:
475,192,216094,1,0,0:0:0:0:
256,192,216157,1,0,0:0:0:0:
36,192,216157,1,0,0:0:0:0:
402,192,216219,1,0,0:0:0:0:
109,192,216282,1,0,0:0:0:0:
329,192,216282,1,0,0:0:0:0:
182,192,216344,1,0,0:0:0:0:
475,192,216407,1,0,0:0:0:0:
256,192,216407,1,0,0:0:0:0:
329,192,216469,1,0,0:0:0:0:
402,192,216532,1,0,0:0:0:0:
256,192,216573,1,0,0:0:0:0:
109,192,216615,1,0,0:0:0:0:
36,192,216657,1,0,0:0:0:0:
182,192,216719,1,0,0:0:0:0:
256,192,216782,1,0,0:0:0:0:
329,192,216844,1,0,0:0:0:0:
109,192,216907,1,0,0:0:0:0:
256,192,216948,1,0,0:0:0:0:
402,192,216990,1,0,0:0:0:0:
475,192,217032,1,0,0:0:0:0:
329,192,217094,1,0,0:0:0:0:
256,192,217157,1,0,0:0:0:0:
182,192,217219,1,0,0:0:0:0:
475,192,217282,1,0,0:0:0:0:
329,192,217323,1,0,0:0:0:0:
182,192,217365,1,0,0:0:0:0:
36,192,217407,1,0,0:0:0:0:
109,192,217469,1,0,0:0:0:0:
256,192,217532,1,0,0:0:0:0:
402,192,217594,1,0,0:0:0:0:
36,192,217657,1,0,0:0:0:0:
182,192,217698,1,0,0:0:0:0:
329,192,217740,1,0,0:0:0:0:
475,192,217782,1,0,0:0:0:0:
402,192,217844,1,0,0:0:0:0:
256,192,217907,1,0,0:0:0:0:
109,192,217969,1,0,0:0:0:0:
36,192,218032,1,0,0:0:0:0:
182,192,218073,1,0,0:0:0:0:
329,192,218115,1,0,0:0:0:0:
475,192,218157,1,0,0:0:0:0:
256,192,218219,1,0,0:0:0:0:
109,192,218282,1,0,0:0:0:0:
402,192,218282,1,0,0:0:0:0:
182,192,218344,1,0,0:0:0:0:
475,192,218407,1,0,0:0:0:0:
402,192,218448,1,0,0:0:0:0:
329,192,218490,1,0,0:0:0:0:
36,192,218532,1,0,0:0:0:0:
182,192,218532,1,0,0:0:0:0:
475,192,218594,1,0,0:0:0:0:
329,192,218594,1,0,0:0:0:0:
182,192,218657,1,0,0:0:0:0:
329,192,218719,1,0,0:0:0:0:
109,192,218782,1,0,0:0:0:0:
402,192,218844,1,0,0:0:0:0:
109,192,218907,1,0,0:0:0:0:
402,192,218969,1,0,0:0:0:0:
36,192,219032,1,0,0:0:0:0:
182,192,219032,1,0,0:0:0:0:
475,192,219094,1,0,0:0:0:0:
329,192,219094,1,0,0:0:0:0:
182,192,219157,1,0,0:0:0:0:
402,192,219219,1,0,0:0:0:0:
109,192,219282,1,0,0:0:0:0:
329,192,219344,1,0,0:0:0:0:
36,192,219407,1,0,0:0:0:0:
256,192,219469,1,0,0:0:0:0:
475,192,219532,5,0,0:0:0:0:
109,192,219532,1,0,0:0:0:0:
402,192,219532,1,0,0:0:0:0:
109,192,219657,1,0,0:0:0:0:
329,192,219782,1,0,0:0:0:0:
329,192,219907,1,0,0:0:0:0:
182,192,220032,1,0,0:0:0:0:
182,192,220157,1,0,0:0:0:0:
329,192,220282,1,0,0:0:0:0:
329,192,220407,1,0,0:0:0:0:
402,192,220532,1,0,0:0:0:0:
475,192,220532,1,0,0:0:0:0:
36,192,220532,1,0,0:0:0:0:
109,192,220532,1,0,0:0:0:0:
109,192,220657,1,0,0:0:0:0:
402,192,220782,1,0,0:0:0:0:
329,192,220782,1,0,0:0:0:0:
402,192,220907,1,0,0:0:0:0:
329,192,220907,1,0,0:0:0:0:
182,192,221032,1,0,0:0:0:0:
36,192,221032,1,0,0:0:0:0:
182,192,221157,1,0,0:0:0:0:
36,192,221157,1,0,0:0:0:0:
475,192,221282,1,0,0:0:0:0:
329,192,221282,1,0,0:0:0:0:
329,192,221407,1,0,0:0:0:0:
475,192,221407,1,0,0:0:0:0:
36,192,221532,1,0,0:0:0:0:
402,192,221532,1,0,0:0:0:0:
109,192,221594,1,0,0:0:0:0:
182,192,221657,1,0,0:0:0:0:
256,192,221719,1,0,0:0:0:0:
329,192,221782,1,0,0:0:0:0:
402,192,221844,1,0,0:0:0:0:
475,192,221907,1,0,0:0:0:0:
109,192,221969,1,0,0:0:0:0:
182,192,222032,1,0,0:0:0:0:
256,192,222094,1,0,0:0:0:0:
329,192,222157,1,0,0:0:0:0:
402,192,222219,1,0,0:0:0:0:
182,192,222282,1,0,0:0:0:0:
256,192,222344,1,0,0:0:0:0:
329,192,222407,1,0,0:0:0:0:
402,192,222469,1,0,0:0:0:0:
36,192,222532,1,0,0:0:0:0:
109,192,222532,1,0,0:0:0:0:
475,192,222532,1,0,0:0:0:0:
256,192,222532,1,0,0:0:0:0:
329,192,222594,1,0,0:0:0:0:
182,192,222657,1,0,0:0:0:0:
402,192,222657,1,0,0:0:0:0:
109,192,222719,1,0,0:0:0:0:
36,192,222782,1,0,0:0:0:0:
256,192,222782,1,0,0:0:0:0:
329,192,222844,1,0,0:0:0:0:
402,192,222907,1,0,0:0:0:0:
182,192,222907,1,0,0:0:0:0:
109,192,222969,1,0,0:0:0:0:
36,192,223032,1,0,0:0:0:0:
329,192,223032,1,0,0:0:0:0:
402,192,223094,1,0,0:0:0:0:
475,192,223157,1,0,0:0:0:0:
256,192,223157,1,0,0:0:0:0:
182,192,223219,1,0,0:0:0:0:
109,192,223282,1,0,0:0:0:0:
329,192,223282,1,0,0:0:0:0:
402,192,223344,1,0,0:0:0:0:
475,192,223407,1,0,0:0:0:0:
256,192,223407,1,0,0:0:0:0:
182,192,223469,1,0,0:0:0:0:
36,192,223532,1,0,0:0:0:0:
402,192,223532,1,0,0:0:0:0:
475,192,223532,1,0,0:0:0:0:
109,192,223594,1,0,0:0:0:0:
256,192,223657,1,0,0:0:0:0:
475,192,223698,1,0,0:0:0:0:
402,192,223698,1,0,0:0:0:0:
182,192,223719,1,0,0:0:0:0:
329,192,223782,1,0,0:0:0:0:
256,192,223844,1,0,0:0:0:0:
109,192,223865,1,0,0:0:0:0:
36,192,223865,1,0,0:0:0:0:
475,192,223907,1,0,0:0:0:0:
402,192,223969,1,0,0:0:0:0:
329,192,224032,1,0,0:0:0:0:
109,192,224032,1,0,0:0:0:0:
36,192,224032,1,0,0:0:0:0:
256,192,224094,1,0,0:0:0:0:
182,192,224157,1,0,0:0:0:0:
475,192,224198,1,0,0:0:0:0:
402,192,224198,1,0,0:0:0:0:
36,192,224219,1,0,0:0:0:0:
109,192,224282,1,0,0:0:0:0:
182,192,224344,1,0,0:0:0:0:
475,192,224365,1,0,0:0:0:0:
402,192,224365,1,0,0:0:0:0:
256,192,224407,1,0,0:0:0:0:
329,192,224469,1,0,0:0:0:0:
402,192,224532,1,0,0:0:0:0:
109,192,224532,1,0,0:0:0:0:
475,192,224532,1,0,0:0:0:0:
36,192,224532,1,0,0:0:0:0:
256,192,224594,1,0,0:0:0:0:
182,192,224657,1,0,0:0:0:0:
475,192,224698,1,0,0:0:0:0:
329,192,224698,1,0,0:0:0:0:
109,192,224719,1,0,0:0:0:0:
36,192,224782,1,0,0:0:0:0:
109,192,224844,1,0,0:0:0:0:
475,192,224865,1,0,0:0:0:0:
329,192,224865,1,0,0:0:0:0:
182,192,224907,1,0,0:0:0:0:
256,192,224969,1,0,0:0:0:0:
109,192,225032,1,0,0:0:0:0:
36,192,225032,1,0,0:0:0:0:
329,192,225094,1,0,0:0:0:0:
402,192,225157,1,0,0:0:0:0:
182,192,225198,1,0,0:0:0:0:
36,192,225198,1,0,0:0:0:0:
329,192,225219,1,0,0:0:0:0:
475,192,225282,1,0,0:0:0:0:
402,192,225344,1,0,0:0:0:0:
182,192,225365,1,0,0:0:0:0:
36,192,225365,1,0,0:0:0:0:
329,192,225407,1,0,0:0:0:0:
256,192,225469,1,0,0:0:0:0:
36,192,225532,1,0,0:0:0:0:
475,192,225532,1,0,0:0:0:0:
182,192,225594,1,0,0:0:0:0:
329,192,225657,1,0,0:0:0:0:
475,192,225698,1,0,0:0:0:0:
109,192,225719,1,0,0:0:0:0:
256,192,225782,1,0,0:0:0:0:
402,192,225844,1,0,0:0:0:0:
475,192,225865,1,0,0:0:0:0:
182,192,225907,1,0,0:0:0:0:
329,192,225969,1,0,0:0:0:0:
36,192,226032,1,0,0:0:0:0:
475,192,226032,1,0,0:0:0:0:
256,192,226094,1,0,0:0:0:0:
109,192,226157,1,0,0:0:0:0:
475,192,226198,1,0,0:0:0:0:
329,192,226219,1,0,0:0:0:0:
36,192,226282,1,0,0:0:0:0:
182,192,226282,1,0,0:0:0:0:
402,192,226344,1,0,0:0:0:0:
475,192,226365,1,0,0:0:0:0:
256,192,226407,1,0,0:0:0:0:
182,192,226469,1,0,0:0:0:0:
36,192,226532,1,0,0:0:0:0:
109,192,226532,1,0,0:0:0:0:
475,192,226532,1,0,0:0:0:0:
329,192,226532,1,0,0:0:0:0:
475,192,226698,1,0,0:0:0:0:
256,192,226698,1,0,0:0:0:0:
109,192,226698,1,0,0:0:0:0:
182,192,226698,1,0,0:0:0:0:
329,192,226865,1,0,0:0:0:0:
475,192,226865,1,0,0:0:0:0:
36,192,226865,1,0,0:0:0:0:
182,192,226865,1,0,0:0:0:0:
402,192,227032,1,0,0:0:0:0:
475,192,227032,1,0,0:0:0:0:
256,192,227032,1,0,0:0:0:0:
109,192,227032,1,0,0:0:0:0:
256,192,227198,1,0,0:0:0:0:
402,192,227198,1,0,0:0:0:0:
36,192,227198,1,0,0:0:0:0:
109,192,227198,1,0,0:0:0:0:
329,192,227365,1,0,0:0:0:0:
475,192,227365,1,0,0:0:0:0:
182,192,227365,1,0,0:0:0:0:
109,192,227365,1,0,0:0:0:0:
475,192,227532,1,0,0:0:0:0:
36,192,227532,1,0,0:0:0:0:
329,192,227532,1,0,0:0:0:0:
402,192,227532,1,0,0:0:0:0:
109,192,227594,1,0,0:0:0:0:
182,192,227657,1,0,0:0:0:0:
256,192,227719,1,0,0:0:0:0:
36,192,227782,1,0,0:0:0:0:
329,192,227782,1,0,0:0:0:0:
182,192,227844,1,0,0:0:0:0:
36,192,227907,1,0,0:0:0:0:
329,192,227907,1,0,0:0:0:0:
109,192,227969,1,0,0:0:0:0:
182,192,228032,1,0,0:0:0:0:
256,192,228094,1,0,0:0:0:0:
329,192,228157,1,0,0:0:0:0:
475,192,228157,1,0,0:0:0:0:
109,192,228219,1,0,0:0:0:0:
329,192,228282,1,0,0:0:0:0:
475,192,228282,1,0,0:0:0:0:
182,192,228344,1,0,0:0:0:0:
329,192,228407,1,0,0:0:0:0:
475,192,228407,1,0,0:0:0:0:
109,192,228469,1,0,0:0:0:0:
256,192,228532,1,0,0:0:0:0:
475,192,228532,1,0,0:0:0:0:
36,192,228532,1,0,0:0:0:0:
402,192,228594,1,0,0:0:0:0:
329,192,228657,1,0,0:0:0:0:
256,192,228719,1,0,0:0:0:0:
36,192,228782,1,0,0:0:0:0:
182,192,228782,1,0,0:0:0:0:
329,192,228844,1,0,0:0:0:0:
182,192,228907,1,0,0:0:0:0:
36,192,228907,1,0,0:0:0:0:
256,192,228969,1,0,0:0:0:0:
329,192,229032,1,0,0:0:0:0:
402,192,229094,1,0,0:0:0:0:
36,192,229157,1,0,0:0:0:0:
182,192,229157,1,0,0:0:0:0:
329,192,229219,1,0,0:0:0:0:
182,192,229282,1,0,0:0:0:0:
36,192,229282,1,0,0:0:0:0:
402,192,229344,1,0,0:0:0:0:
329,192,229407,1,0,0:0:0:0:
256,192,229469,1,0,0:0:0:0:
475,192,229532,1,0,0:0:0:0:
182,192,229532,1,0,0:0:0:0:
402,192,229532,1,0,0:0:0:0:
109,192,229594,1,0,0:0:0:0:
475,192,229657,1,0,0:0:0:0:
402,192,229657,1,0,0:0:0:0:
256,192,229719,1,0,0:0:0:0:
182,192,229782,1,0,0:0:0:0:
36,192,229782,1,0,0:0:0:0:
402,192,229844,1,0,0:0:0:0:
182,192,229907,1,0,0:0:0:0:
36,192,229907,1,0,0:0:0:0:
256,192,229969,1,0,0:0:0:0:
402,192,230032,1,0,0:0:0:0:
329,192,230032,1,0,0:0:0:0:
109,192,230094,1,0,0:0:0:0:
36,192,230094,1,0,0:0:0:0:
402,192,230157,1,0,0:0:0:0:
329,192,230157,1,0,0:0:0:0:
182,192,230219,1,0,0:0:0:0:
36,192,230282,1,0,0:0:0:0:
475,192,230282,1,0,0:0:0:0:
256,192,230282,1,0,0:0:0:0:
36,192,230407,1,0,0:0:0:0:
475,192,230407,1,0,0:0:0:0:
256,192,230407,1,0,0:0:0:0:
256,192,230532,1,0,0:0:0:0:
402,192,230532,1,0,0:0:0:0:
36,192,230532,1,0,0:0:0:0:
475,192,230532,1,0,0:0:0:0:
329,192,230594,1,0,0:0:0:0:
182,192,230657,1,0,0:0:0:0:
109,192,230657,1,0,0:0:0:0:
256,192,230719,1,0,0:0:0:0:
402,192,230782,1,0,0:0:0:0:
329,192,230782,1,0,0:0:0:0:
475,192,230844,1,0,0:0:0:0:
36,192,230907,1,0,0:0:0:0:
109,192,230907,1,0,0:0:0:0:
182,192,230969,1,0,0:0:0:0:
402,192,231032,1,0,0:0:0:0:
329,192,231032,1,0,0:0:0:0:
256,192,231094,1,0,0:0:0:0:
109,192,231157,1,0,0:0:0:0:
182,192,231157,1,0,0:0:0:0:
36,192,231219,1,0,0:0:0:0:
329,192,231282,1,0,0:0:0:0:
402,192,231282,1,0,0:0:0:0:
256,192,231344,1,0,0:0:0:0:
36,192,231407,1,0,0:0:0:0:
109,192,231407,1,0,0:0:0:0:
182,192,231469,1,0,0:0:0:0:
402,192,231532,1,0,0:0:0:0:
329,192,231532,1,0,0:0:0:0:
475,192,231532,1,0,0:0:0:0:
109,192,231594,1,0,0:0:0:0:
256,192,231657,1,0,0:0:0:0:
36,192,231698,1,0,0:0:0:0:
182,192,231698,1,0,0:0:0:0:
402,192,231719,1,0,0:0:0:0:
329,192,231782,1,0,0:0:0:0:
256,192,231844,1,0,0:0:0:0:
182,192,231865,1,0,0:0:0:0:
36,192,231865,1,0,0:0:0:0:
402,192,231907,1,0,0:0:0:0:
329,192,231969,1,0,0:0:0:0:
256,192,232032,1,0,0:0:0:0:
182,192,232032,1,0,0:0:0:0:
36,192,232032,1,0,0:0:0:0:
329,192,232094,1,0,0:0:0:0:
109,192,232157,1,0,0:0:0:0:
475,192,232157,1,0,0:0:0:0:
402,192,232157,1,0,0:0:0:0:
182,192,232219,1,0,0:0:0:0:
475,192,232282,1,0,0:0:0:0:
329,192,232282,1,0,0:0:0:0:
256,192,232282,1,0,0:0:0:0:
109,192,232344,1,0,0:0:0:0:
329,192,232407,1,0,0:0:0:0:
182,192,232407,1,0,0:0:0:0:
256,192,232469,1,0,0:0:0:0:
402,192,232532,1,0,0:0:0:0:
36,192,232532,1,0,0:0:0:0:
109,192,232532,1,0,0:0:0:0:
475,192,232532,1,0,0:0:0:0:
329,192,232594,1,0,0:0:0:0:
182,192,232657,1,0,0:0:0:0:
475,192,232698,1,0,0:0:0:0:
36,192,232719,1,0,0:0:0:0:
256,192,232782,1,0,0:0:0:0:
109,192,232844,1,0,0:0:0:0:
475,192,232865,1,0,0:0:0:0:
329,192,232907,1,0,0:0:0:0:
182,192,232969,1,0,0:0:0:0:
36,192,233032,1,0,0:0:0:0:
475,192,233032,1,0,0:0:0:0:
256,192,233094,1,0,0:0:0:0:
182,192,233157,1,0,0:0:0:0:
402,192,233157,1,0,0:0:0:0:
475,192,233198,1,0,0:0:0:0:
36,192,233282,1,0,0:0:0:0:
182,192,233282,1,0,0:0:0:0:
329,192,233344,1,0,0:0:0:0:
475,192,233365,1,0,0:0:0:0:
182,192,233407,1,0,0:0:0:0:
256,192,233469,1,0,0:0:0:0:
329,192,233532,1,0,0:0:0:0:
36,192,233532,1,0,0:0:0:0:
475,192,233532,1,0,0:0:0:0:
182,192,233594,1,0,0:0:0:0:
402,192,233657,1,0,0:0:0:0:
36,192,233698,1,0,0:0:0:0:
256,192,233719,1,0,0:0:0:0:
109,192,233782,1,0,0:0:0:0:
329,192,233844,1,0,0:0:0:0:
36,192,233865,1,0,0:0:0:0:
182,192,233907,1,0,0:0:0:0:
475,192,233969,1,0,0:0:0:0:
256,192,234032,1,0,0:0:0:0:
329,192,234032,1,0,0:0:0:0:
36,192,234032,1,0,0:0:0:0:
109,192,234094,1,0,0:0:0:0:
329,192,234157,1,0,0:0:0:0:
36,192,234198,1,0,0:0:0:0:
182,192,234219,1,0,0:0:0:0:
475,192,234282,1,0,0:0:0:0:
402,192,234282,1,0,0:0:0:0:
256,192,234282,1,0,0:0:0:0:
36,192,234365,1,0,0:0:0:0:
329,192,234407,1,0,0:0:0:0:
182,192,234469,1,0,0:0:0:0:
475,192,234532,1,0,0:0:0:0:
36,192,234532,1,0,0:0:0:0:
329,192,234532,1,0,0:0:0:0:
256,192,234532,1,0,0:0:0:0:
256,192,234698,1,0,0:0:0:0:
36,192,234698,1,0,0:0:0:0:
109,192,234698,1,0,0:0:0:0:
475,192,234698,1,0,0:0:0:0:
182,192,234865,5,0,0:0:0:0:
36,192,234865,1,0,0:0:0:0:
475,192,234865,1,0,0:0:0:0:
329,192,234865,1,0,0:0:0:0:
256,192,234865,1,0,0:0:0:0:
402,192,235032,1,0,0:0:0:0:
475,192,235032,1,0,0:0:0:0:
36,192,235032,1,0,0:0:0:0:
256,192,235032,1,0,0:0:0:0:
182,192,235198,1,0,0:0:0:0:
36,192,235198,1,0,0:0:0:0:
329,192,235198,1,0,0:0:0:0:
475,192,235198,1,0,0:0:0:0:
402,192,235365,1,0,0:0:0:0:
182,192,235365,1,0,0:0:0:0:
109,192,235365,1,0,0:0:0:0:
329,192,235365,1,0,0:0:0:0:
256,192,235532,1,0,0:0:0:0:
475,192,235532,1,0,0:0:0:0:
36,192,235532,1,0,0:0:0:0:
256,192,235698,1,0,0:0:0:0:
36,192,235698,1,0,0:0:0:0:
475,192,235698,1,0,0:0:0:0:
256,192,235865,1,0,0:0:0:0:
36,192,235865,1,0,0:0:0:0:
475,192,235865,1,0,0:0:0:0:
182,192,235969,1,0,0:0:0:0:
402,192,236032,1,0,0:0:0:0:
329,192,236094,1,0,0:0:0:0:
256,192,236115,1,0,0:0:0:0:
36,192,236365,1,0,0:0:0:0:
182,192,236365,1,0,0:0:0:0:
182,192,236490,1,0,0:0:0:0:
109,192,236490,1,0,0:0:0:0:
475,192,236490,1,0,0:0:0:0:
402,192,236490,1,0,0:0:0:0:
329,192,236532,1,0,0:0:0:0:
36,192,236594,1,0,0:0:0:0:
329,192,236657,1,0,0:0:0:0:
36,192,236719,1,0,0:0:0:0:
256,192,236782,1,0,0:0:0:0:
109,192,236823,1,0,0:0:0:0:
402,192,236865,1,0,0:0:0:0:
329,192,236948,1,0,0:0:0:0:
182,192,236990,1,0,0:0:0:0:
256,192,237032,1,0,0:0:0:0:
402,192,237094,1,0,0:0:0:0:
329,192,237188,1,0,0:0:0:0:
475,192,237188,1,0,0:0:0:0:
36,192,237188,1,0,0:0:0:0:
182,192,237282,1,0,0:0:0:0:
256,192,237323,1,0,0:0:0:0:
36,192,237365,1,0,0:0:0:0:
475,192,237365,1,0,0:0:0:0:
329,192,237365,1,0,0:0:0:0:
182,192,237448,1,0,0:0:0:0:
256,192,237490,1,0,0:0:0:0:
329,192,237532,1,0,0:0:0:0:
475,192,237532,1,0,0:0:0:0:
36,192,237573,1,0,0:0:0:0:
182,192,237657,1,0,0:0:0:0:
256,192,237657,1,0,0:0:0:0:
402,192,237657,1,0,0:0:0:0:
109,192,237782,1,0,0:0:0:0:
402,192,237907,1,0,0:0:0:0:
256,192,237907,1,0,0:0:0:0:
182,192,237907,1,0,0:0:0:0:
475,192,238032,1,0,0:0:0:0:
329,192,238157,1,0,0:0:0:0:
109,192,238282,1,0,0:0:0:0:
182,192,238282,1,0,0:0:0:0:
402,192,238282,1,0,0:0:0:0:
256,192,238407,1,0,0:0:0:0:
475,192,238532,1,0,0:0:0:0:
36,192,238657,1,0,0:0:0:0:
109,192,238657,1,0,0:0:0:0:
329,192,238657,1,0,0:0:0:0:
256,192,238782,1,0,0:0:0:0:
182,192,238907,1,0,0:0:0:0:
36,192,239032,1,0,0:0:0:0:
329,192,239032,1,0,0:0:0:0:
256,192,239032,1,0,0:0:0:0:
109,192,239157,1,0,0:0:0:0:
182,192,239282,1,0,0:0:0:0:
36,192,239407,1,0,0:0:0:0:
475,192,239407,1,0,0:0:0:0:
329,192,239407,1,0,0:0:0:0:
402,192,239532,1,0,0:0:0:0:
256,192,239657,1,0,0:0:0:0:
329,192,239782,1,0,0:0:0:0:
36,192,239782,1,0,0:0:0:0:
182,192,239782,1,0,0:0:0:0:
402,192,239907,1,0,0:0:0:0:
256,192,239907,1,0,0:0:0:0:
109,192,239907,1,0,0:0:0:0:
329,192,240032,1,0,0:0:0:0:
182,192,240157,1,0,0:0:0:0:
36,192,240282,1,0,0:0:0:0:
329,192,240282,1,0,0:0:0:0:
475,192,240282,1,0,0:0:0:0:
182,192,240407,1,0,0:0:0:0:
402,192,240532,1,0,0:0:0:0:
109,192,240532,1,0,0:0:0:0:
256,192,240532,1,0,0:0:0:0:
329,192,240657,1,0,0:0:0:0:
182,192,240782,1,0,0:0:0:0:
36,192,240907,1,0,0:0:0:0:
256,192,240907,1,0,0:0:0:0:
475,192,240907,1,0,0:0:0:0:
182,192,241032,1,0,0:0:0:0:
402,192,241157,1,0,0:0:0:0:
256,192,241282,1,0,0:0:0:0:
109,192,241282,1,0,0:0:0:0:
329,192,241282,1,0,0:0:0:0:
475,192,241407,1,0,0:0:0:0:
182,192,241532,1,0,0:0:0:0:
109,192,241532,1,0,0:0:0:0:
402,192,241594,1,0,0:0:0:0:
329,192,241594,1,0,0:0:0:0:
182,192,241657,1,0,0:0:0:0:
109,192,241657,1,0,0:0:0:0:
402,192,241719,1,0,0:0:0:0:
329,192,241719,1,0,0:0:0:0:
109,192,241782,1,0,0:0:0:0:
182,192,241782,1,0,0:0:0:0:
402,192,241844,1,0,0:0:0:0:
329,192,241844,1,0,0:0:0:0:
475,192,241907,1,0,0:0:0:0:
256,192,241907,1,0,0:0:0:0:
36,192,241907,1,0,0:0:0:0:
182,192,242032,1,0,0:0:0:0:
329,192,242157,1,0,0:0:0:0:
182,192,242282,1,0,0:0:0:0:
256,192,242282,1,0,0:0:0:0:
36,192,242282,1,0,0:0:0:0:
402,192,242407,1,0,0:0:0:0:
182,192,242532,1,0,0:0:0:0:
109,192,242657,1,0,0:0:0:0:
475,192,242657,1,0,0:0:0:0:
329,192,242657,1,0,0:0:0:0:
256,192,242782,1,0,0:0:0:0:
182,192,242907,1,0,0:0:0:0:
109,192,243032,1,0,0:0:0:0:
402,192,243032,1,0,0:0:0:0:
329,192,243032,1,0,0:0:0:0:
256,192,243157,1,0,0:0:0:0:
182,192,243282,1,0,0:0:0:0:
329,192,243407,1,0,0:0:0:0:
109,192,243407,1,0,0:0:0:0:
36,192,243407,1,0,0:0:0:0:
475,192,243532,1,0,0:0:0:0:
256,192,243657,1,0,0:0:0:0:
109,192,243782,1,0,0:0:0:0:
329,192,243782,1,0,0:0:0:0:
402,192,243782,1,0,0:0:0:0:
36,192,243907,1,0,0:0:0:0:
256,192,243907,1,0,0:0:0:0:
182,192,243907,1,0,0:0:0:0:
329,192,244032,1,0,0:0:0:0:
182,192,244157,1,0,0:0:0:0:
475,192,244282,1,0,0:0:0:0:
402,192,244282,1,0,0:0:0:0:
36,192,244344,1,0,0:0:0:0:
109,192,244344,1,0,0:0:0:0:
475,192,244407,1,0,0:0:0:0:
402,192,244407,1,0,0:0:0:0:
36,192,244469,1,0,0:0:0:0:
109,192,244469,1,0,0:0:0:0:
475,192,244532,1,0,0:0:0:0:
402,192,244532,1,0,0:0:0:0:
329,192,244657,1,0,0:0:0:0:
182,192,244782,1,0,0:0:0:0:
475,192,244907,1,0,0:0:0:0:
402,192,245032,1,0,0:0:0:0:
329,192,245032,1,0,0:0:0:0:
182,192,245094,1,0,0:0:0:0:
109,192,245094,1,0,0:0:0:0:
329,192,245157,1,0,0:0:0:0:
182,192,245219,1,0,0:0:0:0:
475,192,245282,1,0,0:0:0:0:
402,192,245282,1,0,0:0:0:0:
256,192,245282,1,0,0:0:0:0:
109,192,245344,1,0,0:0:0:0:
36,192,245344,1,0,0:0:0:0:
329,192,245407,1,0,0:0:0:0:
109,192,245469,1,0,0:0:0:0:
402,192,245532,1,0,0:0:0:0:
256,192,245532,1,0,0:0:0:0:
182,192,245532,1,0,0:0:0:0:
36,192,245657,1,0,0:0:0:0:
475,192,245657,1,0,0:0:0:0:
329,192,245657,1,0,0:0:0:0:
109,192,245782,1,0,0:0:0:0:
329,192,245907,1,0,0:0:0:0:
182,192,245907,1,0,0:0:0:0:
402,192,245907,1,0,0:0:0:0:
475,192,246032,1,0,0:0:0:0:
109,192,246157,1,0,0:0:0:0:
402,192,246282,1,0,0:0:0:0:
329,192,246282,1,0,0:0:0:0:
256,192,246282,1,0,0:0:0:0:
109,192,246407,1,0,0:0:0:0:
109,192,246532,1,0,0:0:0:0:
256,192,246532,1,0,0:0:0:0:
475,192,246532,1,0,0:0:0:0:
182,192,246532,1,0,0:0:0:0:
36,192,246657,1,0,0:0:0:0:
329,192,246657,1,0,0:0:0:0:
402,192,246657,1,0,0:0:0:0:
256,192,246782,1,0,0:0:0:0:
182,192,246907,1,0,0:0:0:0:
402,192,247032,1,0,0:0:0:0:
109,192,247032,1,0,0:0:0:0:
36,192,247032,1,0,0:0:0:0:
256,192,247157,1,0,0:0:0:0:
329,192,247282,1,0,0:0:0:0:
109,192,247407,1,0,0:0:0:0:
182,192,247407,1,0,0:0:0:0:
402,192,247407,1,0,0:0:0:0:
475,192,247532,1,0,0:0:0:0:
256,192,247657,1,0,0:0:0:0:
36,192,247782,1,0,0:0:0:0:
402,192,247782,1,0,0:0:0:0:
182,192,247782,1,0,0:0:0:0:
329,192,247907,1,0,0:0:0:0:
256,192,247907,1,0,0:0:0:0:
109,192,247907,1,0,0:0:0:0:
182,192,248032,1,0,0:0:0:0:
256,192,248157,1,0,0:0:0:0:
109,192,248282,1,0,0:0:0:0:
475,192,248282,1,0,0:0:0:0:
402,192,248282,1,0,0:0:0:0:
329,192,248407,1,0,0:0:0:0:
329,192,248532,1,0,0:0:0:0:
475,192,248532,1,0,0:0:0:0:
256,192,248532,1,0,0:0:0:0:
36,192,248532,1,0,0:0:0:0:
402,192,248657,1,0,0:0:0:0:
182,192,248782,1,0,0:0:0:0:
36,192,248907,1,0,0:0:0:0:
329,192,248907,1,0,0:0:0:0:
256,192,248907,1,0,0:0:0:0:
109,192,249032,1,0,0:0:0:0:
402,192,249157,1,0,0:0:0:0:
182,192,249282,1,0,0:0:0:0:
256,192,249282,1,0,0:0:0:0:
329,192,249282,1,0,0:0:0:0:
475,192,249407,1,0,0:0:0:0:
329,192,249532,1,0,0:0:0:0:
402,192,249532,1,0,0:0:0:0:
109,192,249594,1,0,0:0:0:0:
182,192,249594,1,0,0:0:0:0:
329,192,249657,1,0,0:0:0:0:
182,192,249719,1,0,0:0:0:0:
329,192,249782,1,0,0:0:0:0:
182,192,249844,1,0,0:0:0:0:
36,192,249907,1,0,0:0:0:0:
475,192,249907,1,0,0:0:0:0:
256,192,249907,1,0,0:0:0:0:
329,192,250032,1,0,0:0:0:0:
109,192,250157,1,0,0:0:0:0:
402,192,250282,1,0,0:0:0:0:
256,192,250282,1,0,0:0:0:0:
182,192,250282,1,0,0:0:0:0:
475,192,250407,1,0,0:0:0:0:
182,192,250532,1,0,0:0:0:0:
475,192,250532,1,0,0:0:0:0:
36,192,250532,1,0,0:0:0:0:
329,192,250532,1,0,0:0:0:0:
402,192,250657,1,0,0:0:0:0:
182,192,250657,1,0,0:0:0:0:
109,192,250657,1,0,0:0:0:0:
329,192,250782,1,0,0:0:0:0:
256,192,250907,1,0,0:0:0:0:
36,192,251032,1,0,0:0:0:0:
329,192,251032,1,0,0:0:0:0:
475,192,251032,1,0,0:0:0:0:
256,192,251157,1,0,0:0:0:0:
182,192,251282,1,0,0:0:0:0:
329,192,251407,1,0,0:0:0:0:
109,192,251407,1,0,0:0:0:0:
36,192,251407,1,0,0:0:0:0:
475,192,251532,1,0,0:0:0:0:
256,192,251657,1,0,0:0:0:0:
402,192,251782,1,0,0:0:0:0:
109,192,251782,1,0,0:0:0:0:
182,192,251782,1,0,0:0:0:0:
36,192,251907,1,0,0:0:0:0:
256,192,251907,1,0,0:0:0:0:
329,192,251907,1,0,0:0:0:0:
402,192,252032,1,0,0:0:0:0:
256,192,252032,1,0,0:0:0:0:
475,192,252032,1,0,0:0:0:0:
36,192,252032,1,0,0:0:0:0:
329,192,252157,1,0,0:0:0:0:
109,192,252282,1,0,0:0:0:0:
36,192,252282,1,0,0:0:0:0:
475,192,252344,1,0,0:0:0:0:
402,192,252344,1,0,0:0:0:0:
109,192,252407,1,0,0:0:0:0:
36,192,252407,1,0,0:0:0:0:
475,192,252469,1,0,0:0:0:0:
402,192,252469,1,0,0:0:0:0:
329,192,252532,1,0,0:0:0:0:
182,192,252532,1,0,0:0:0:0:
36,192,252594,1,0,0:0:0:0:
109,192,252594,1,0,0:0:0:0:
475,192,252657,1,0,0:0:0:0:
402,192,252657,1,0,0:0:0:0:
109,192,252719,1,0,0:0:0:0:
36,192,252719,1,0,0:0:0:0:
475,192,252782,1,0,0:0:0:0:
402,192,252782,1,0,0:0:0:0:
109,192,252844,1,0,0:0:0:0:
36,192,252844,1,0,0:0:0:0:
475,192,252907,1,0,0:0:0:0:
402,192,252907,1,0,0:0:0:0:
329,192,252969,1,0,0:0:0:0:
182,192,252969,1,0,0:0:0:0:
36,192,253032,1,0,0:0:0:0:
109,192,253032,1,0,0:0:0:0:
402,192,253094,1,0,0:0:0:0:
475,192,253094,1,0,0:0:0:0:
109,192,253157,1,0,0:0:0:0:
36,192,253157,1,0,0:0:0:0:
475,192,253219,1,0,0:0:0:0:
402,192,253219,1,0,0:0:0:0:
182,192,253282,1,0,0:0:0:0:
109,192,253282,1,0,0:0:0:0:
36,192,253282,1,0,0:0:0:0:
475,192,253344,1,0,0:0:0:0:
402,192,253344,1,0,0:0:0:0:
329,192,253344,1,0,0:0:0:0:
36,192,253407,1,0,0:0:0:0:
109,192,253407,1,0,0:0:0:0:
182,192,253407,1,0,0:0:0:0:
475,192,253469,1,0,0:0:0:0:
402,192,253469,1,0,0:0:0:0:
329,192,253469,1,0,0:0:0:0:
182,192,268546,5,0,0:0:0:1:
36,192,268546,1,0,0:0:0:1:
475,192,268546,1,0,0:0:0:1:
329,192,268546,1,0,0:0:0:1:
256,192,268651,1,0,0:0:0:1:
402,192,268757,1,0,0:0:0:1:
182,192,268757,1,0,0:0:0:1:
329,192,268862,1,0,0:0:0:1:
475,192,268968,1,0,0:0:0:1:
256,192,268968,1,0,0:0:0:1:
109,192,269038,1,0,0:0:0:1:
182,192,269109,1,0,0:0:0:1:
36,192,269179,1,0,0:0:0:1:
402,192,269179,1,0,0:0:0:1:
329,192,269250,1,0,0:0:0:1:
256,192,269320,1,0,0:0:0:1:
475,192,269391,1,0,0:0:0:1:
402,192,269391,1,0,0:0:0:1:
182,192,269391,1,0,0:0:0:1:
109,192,269496,1,0,0:0:0:1:
402,192,269602,1,0,0:0:0:1:
182,192,269602,1,0,0:0:0:1:
329,192,269707,1,0,0:0:0:1:
475,192,269813,1,0,0:0:0:1:
256,192,269813,1,0,0:0:0:1:
109,192,269884,1,0,0:0:0:1:
182,192,269954,1,0,0:0:0:1:
36,192,270024,1,0,0:0:0:1:
402,192,270024,1,0,0:0:0:1:
329,192,270095,1,0,0:0:0:1:
256,192,270165,1,0,0:0:0:1:
475,192,270236,1,0,0:0:0:1:
36,192,270236,1,0,0:0:0:1:
182,192,270236,1,0,0:0:0:1:
329,192,270341,1,0,0:0:0:1:
402,192,270447,1,0,0:0:0:1:
109,192,270447,1,0,0:0:0:1:
329,192,270553,1,0,0:0:0:1:
475,192,270658,1,0,0:0:0:1:
36,192,270658,1,0,0:0:0:1:
182,192,270658,1,0,0:0:0:1:
402,192,270729,1,0,0:0:0:1:
329,192,270799,1,0,0:0:0:1:
36,192,270869,1,0,0:0:0:1:
256,192,270869,1,0,0:0:0:1:
109,192,270940,1,0,0:0:0:1:
402,192,271010,1,0,0:0:0:1:
475,192,271081,1,0,0:0:0:1:
36,192,271081,1,0,0:0:0:1:
182,192,271081,1,0,0:0:0:1:
329,192,271186,1,0,0:0:0:1:
402,192,271292,1,0,0:0:0:1:
109,192,271292,1,0,0:0:0:1:
329,192,271398,1,0,0:0:0:1:
475,192,271503,1,0,0:0:0:1:
36,192,271503,1,0,0:0:0:1:
182,192,271503,1,0,0:0:0:1:
402,192,271574,1,0,0:0:0:1:
329,192,271644,1,0,0:0:0:1:
109,192,271715,1,0,0:0:0:1:
182,192,271715,1,0,0:0:0:1:
256,192,271785,1,0,0:0:0:1:
329,192,271855,1,0,0:0:0:1:
182,192,271926,1,0,0:0:0:1:
402,192,271926,1,0,0:0:0:1:
256,192,272031,1,0,0:0:0:1:
329,192,272137,1,0,0:0:0:1:
109,192,272137,1,0,0:0:0:1:
182,192,272243,1,0,0:0:0:1:
36,192,272348,1,0,0:0:0:1:
256,192,272348,1,0,0:0:0:1:
402,192,272419,1,0,0:0:0:1:
329,192,272489,1,0,0:0:0:1:
475,192,272560,1,0,0:0:0:1:
109,192,272560,1,0,0:0:0:1:
182,192,272630,1,0,0:0:0:1:
329,192,272700,1,0,0:0:0:1:
256,192,272771,1,0,0:0:0:1:
36,192,272771,1,0,0:0:0:1:
402,192,272876,1,0,0:0:0:1:
329,192,272982,1,0,0:0:0:1:
109,192,272982,1,0,0:0:0:1:
182,192,273088,1,0,0:0:0:1:
36,192,273193,1,0,0:0:0:1:
256,192,273193,1,0,0:0:0:1:
329,192,273264,1,0,0:0:0:1:
402,192,273334,1,0,0:0:0:1:
475,192,273405,1,0,0:0:0:1:
182,192,273405,1,0,0:0:0:1:
256,192,273475,1,0,0:0:0:1:
109,192,273546,1,0,0:0:0:1:
475,192,273616,1,0,0:0:0:1:
36,192,273616,1,0,0:0:0:1:
329,192,273616,1,0,0:0:0:1:
182,192,273722,1,0,0:0:0:1:
402,192,273827,1,0,0:0:0:1:
109,192,273827,1,0,0:0:0:1:
182,192,273933,1,0,0:0:0:1:
36,192,274038,1,0,0:0:0:1:
329,192,274038,1,0,0:0:0:1:
256,192,274038,1,0,0:0:0:1:
402,192,274109,1,0,0:0:0:1:
109,192,274179,1,0,0:0:0:0:
475,192,274250,1,0,0:0:0:1:
256,192,274250,1,0,0:0:0:1:
182,192,274250,1,0,0:0:0:1:
329,192,274320,1,0,0:0:0:0:
109,192,274391,1,0,0:0:0:0:
402,192,274461,1,0,0:0:0:0:
475,192,274461,1,0,0:0:0:1:
36,192,274461,1,0,0:0:0:1:
182,192,274567,1,0,0:0:0:1:
402,192,274672,1,0,0:0:0:1:
109,192,274672,1,0,0:0:0:1:
182,192,274778,1,0,0:0:0:1:
36,192,274884,1,0,0:0:0:1:
256,192,274884,1,0,0:0:0:1:
329,192,274954,1,0,0:0:0:0:
109,192,275024,1,0,0:0:0:0:
475,192,275095,1,0,0:0:0:1:
402,192,275095,1,0,0:0:0:1:
182,192,275095,1,0,0:0:0:1:
256,192,275165,1,0,0:0:0:0:
36,192,275200,1,0,0:0:0:1:
329,192,275236,1,0,0:0:0:0:
475,192,275306,1,0,0:0:0:1:
182,192,275306,1,0,0:0:0:1:
256,192,275412,1,0,0:0:0:1:
329,192,275517,1,0,0:0:0:1:
109,192,275517,1,0,0:0:0:1:
182,192,275623,1,0,0:0:0:1:
475,192,275729,1,0,0:0:0:0:
36,192,275729,1,0,0:0:0:1:
256,192,275729,1,0,0:0:0:1:
329,192,275799,1,0,0:0:0:0:
182,192,275869,1,0,0:0:0:0:
475,192,275940,1,0,0:0:0:1:
402,192,275940,1,0,0:0:0:1:
109,192,275940,1,0,0:0:0:1:
256,192,276010,1,0,0:0:0:0:
329,192,276081,1,0,0:0:0:0:
475,192,276151,1,0,0:0:0:0:
36,192,276151,1,0,0:0:0:1:
182,192,276151,1,0,0:0:0:1:
402,192,276257,1,0,0:0:0:1:
329,192,276362,1,0,0:0:0:1:
109,192,276362,1,0,0:0:0:1:
182,192,276468,1,0,0:0:0:1:
475,192,276574,1,0,0:0:0:0:
36,192,276574,1,0,0:0:0:1:
256,192,276574,1,0,0:0:0:1:
329,192,276644,1,0,0:0:0:0:
182,192,276715,1,0,0:0:0:0:
475,192,276785,1,0,0:0:0:1:
402,192,276785,1,0,0:0:0:1:
109,192,276785,1,0,0:0:0:1:
256,192,276855,1,0,0:0:0:0:
182,192,276926,1,0,0:0:0:0:
475,192,276996,1,0,0:0:0:1:
36,192,276996,1,0,0:0:0:1:
329,192,276996,1,0,0:0:0:1:
182,192,277102,1,0,0:0:0:1:
402,192,277207,1,0,0:0:0:1:
109,192,277207,1,0,0:0:0:1:
182,192,277313,1,0,0:0:0:1:
36,192,277419,1,0,0:0:0:1:
256,192,277419,1,0,0:0:0:1:
329,192,277489,1,0,0:0:0:0:
109,192,277560,1,0,0:0:0:0:
182,192,277630,1,0,0:0:0:0:
475,192,277630,1,0,0:0:0:1:
402,192,277630,1,0,0:0:0:1:
256,192,277700,1,0,0:0:0:0:
109,192,277771,1,0,0:0:0:0:
475,192,277841,1,0,0:0:0:1:
36,192,277841,1,0,0:0:0:1:
329,192,277841,1,0,0:0:0:1:
182,192,277947,1,0,0:0:0:1:
402,192,278053,1,0,0:0:0:1:
109,192,278053,1,0,0:0:0:1:
182,192,278158,1,0,0:0:0:1:
36,192,278264,1,0,0:0:0:1:
256,192,278264,1,0,0:0:0:1:
329,192,278334,1,0,0:0:0:0:
109,192,278405,1,0,0:0:0:0:
475,192,278475,1,0,0:0:0:1:
256,192,278475,1,0,0:0:0:1:
402,192,278546,1,0,0:0:0:0:
182,192,278616,1,0,0:0:0:0:
475,192,278686,1,0,0:0:0:1:
36,192,278686,1,0,0:0:0:1:
329,192,278686,1,0,0:0:0:1:
256,192,278792,1,0,0:0:0:1:
402,192,278898,1,0,0:0:0:1:
182,192,278898,1,0,0:0:0:1:
329,192,279003,1,0,0:0:0:1:
475,192,279109,1,0,0:0:0:1:
256,192,279109,1,0,0:0:0:1:
109,192,279109,1,0,0:0:0:1:
329,192,279179,1,0,0:0:0:0:
182,192,279250,1,0,0:0:0:0:
36,192,279320,1,0,0:0:0:1:
402,192,279320,1,0,0:0:0:1:
109,192,279320,1,0,0:0:0:1:
329,192,279391,1,0,0:0:0:0:
182,192,279461,1,0,0:0:0:0:
402,192,279531,1,0,0:0:0:0:
256,192,279531,1,0,0:0:0:0:
475,192,279531,1,0,0:0:0:1:
109,192,279637,1,0,0:0:0:1:
402,192,279743,1,0,0:0:0:1:
182,192,279743,1,0,0:0:0:1:
329,192,279848,1,0,0:0:0:1:
475,192,279954,1,0,0:0:0:1:
256,192,279954,1,0,0:0:0:1:
109,192,280024,1,0,0:0:0:0:
182,192,280095,1,0,0:0:0:0:
36,192,280165,1,0,0:0:0:1:
402,192,280165,1,0,0:0:0:1:
329,192,280236,1,0,0:0:0:0:
256,192,280306,1,0,0:0:0:0:
475,192,280376,1,0,0:0:0:1:
36,192,280376,1,0,0:0:0:1:
182,192,280376,1,0,0:0:0:1:
329,192,280482,1,0,0:0:0:1:
402,192,280588,1,0,0:0:0:1:
109,192,280588,1,0,0:0:0:1:
329,192,280693,1,0,0:0:0:1:
36,192,280799,1,0,0:0:0:0:
475,192,280799,1,0,0:0:0:1:
182,192,280799,1,0,0:0:0:1:
402,192,280869,1,0,0:0:0:0:
329,192,280940,1,0,0:0:0:0:
36,192,281010,1,0,0:0:0:1:
256,192,281010,1,0,0:0:0:1:
109,192,281010,1,0,0:0:0:1:
475,192,281081,1,0,0:0:0:0:
402,192,281151,1,0,0:0:0:0:
256,192,281222,1,0,0:0:0:0:
36,192,281222,1,0,0:0:0:1:
182,192,281222,1,0,0:0:0:1:
329,192,281327,1,0,0:0:0:1:
402,192,281433,1,0,0:0:0:1:
109,192,281433,1,0,0:0:0:1:
329,192,281538,1,0,0:0:0:1:
475,192,281644,1,0,0:0:0:1:
256,192,281644,1,0,0:0:0:1:
182,192,281644,1,0,0:0:0:1:
402,192,281750,1,0,0:0:0:1:
329,192,281855,1,0,0:0:0:1:
36,192,281855,1,0,0:0:0:1:
109,192,281855,1,0,0:0:0:1:
256,192,281855,1,0,0:0:0:1:
475,192,281961,1,0,0:0:0:1:
402,192,282067,1,0,0:0:0:1:
36,192,282067,1,0,0:0:0:1:
329,192,282067,1,0,0:0:0:1:
109,192,282067,1,0,0:0:0:1:
256,192,282067,1,0,0:0:0:1:
182,192,282119,1,0,0:0:0:1:
475,192,282172,1,0,0:0:0:1:
256,192,282225,1,0,0:0:0:1:
329,192,282278,1,0,0:0:0:1:
109,192,282331,1,0,0:0:0:1:
402,192,282384,1,0,0:0:0:1:
182,192,282489,1,0,0:0:0:1:
329,192,282542,1,0,0:0:0:1:
475,192,282595,1,0,0:0:0:1:
109,192,282648,1,0,0:0:0:1:
402,192,282700,1,0,0:0:0:1:
256,192,282753,1,0,0:0:0:1:
36,192,282806,1,0,0:0:0:1:
329,192,282859,1,0,0:0:0:1:
475,192,282912,1,0,0:0:0:1:
182,192,282965,1,0,0:0:0:1:
256,192,283017,1,0,0:0:0:1:
402,192,283070,1,0,0:0:0:1:
109,192,283123,1,0,0:0:0:1:
329,192,283176,1,0,0:0:0:1:
182,192,283229,1,0,0:0:0:1:
475,192,283281,1,0,0:0:0:1:
256,192,283334,1,0,0:0:0:1:
36,192,283387,1,0,0:0:0:1:
182,192,283440,1,0,0:0:0:1:
402,192,283493,1,0,0:0:0:1:
109,192,283546,1,0,0:0:0:1:
329,192,283598,1,0,0:0:0:1:
256,192,283651,1,0,0:0:0:1:
475,192,283704,1,0,0:0:0:1:
182,192,283757,1,0,0:0:0:1:
36,192,283810,1,0,0:0:0:1:
329,192,283862,1,0,0:0:0:1:
402,192,283915,1,0,0:0:0:1:
109,192,283968,1,0,0:0:0:1:
256,192,284021,1,0,0:0:0:1:
475,192,284074,1,0,0:0:0:1:
182,192,284126,1,0,0:0:0:1:
36,192,284179,1,0,0:0:0:1:
329,192,284232,1,0,0:0:0:1:
109,192,284285,1,0,0:0:0:1:
256,192,284338,1,0,0:0:0:1:
402,192,284391,1,0,0:0:0:1:
36,192,284443,1,0,0:0:0:1:
329,192,284496,1,0,0:0:0:1:
182,192,284549,1,0,0:0:0:1:
475,192,284602,1,0,0:0:0:1:
402,192,284655,1,0,0:0:0:1:
256,192,284707,1,0,0:0:0:1:
109,192,284760,1,0,0:0:0:1:
329,192,284813,1,0,0:0:0:1:
36,192,284866,1,0,0:0:0:1:
182,192,284919,1,0,0:0:0:1:
475,192,284972,1,0,0:0:0:1:
256,192,285024,1,0,0:0:0:1:
402,192,285077,1,0,0:0:0:1:
109,192,285130,1,0,0:0:0:1:
182,192,285183,1,0,0:0:0:1:
475,192,285236,1,0,0:0:0:1:
36,192,285288,1,0,0:0:0:1:
329,192,285341,1,0,0:0:0:1:
256,192,285394,1,0,0:0:0:1:
402,192,285447,1,0,0:0:0:1:
109,192,285447,1,0,0:0:0:1:
182,192,285500,1,0,0:0:0:1:
475,192,285553,1,0,0:0:0:1:
256,192,285605,1,0,0:0:0:1:
329,192,285658,1,0,0:0:0:1:
109,192,285711,1,0,0:0:0:1:
402,192,285764,1,0,0:0:0:1:
182,192,285869,1,0,0:0:0:1:
329,192,285922,1,0,0:0:0:1:
475,192,285975,1,0,0:0:0:1:
109,192,286028,1,0,0:0:0:1:
402,192,286081,1,0,0:0:0:1:
256,192,286134,1,0,0:0:0:1:
36,192,286186,1,0,0:0:0:1:
329,192,286239,1,0,0:0:0:1:
475,192,286292,1,0,0:0:0:1:
182,192,286345,1,0,0:0:0:1:
256,192,286398,1,0,0:0:0:1:
402,192,286450,1,0,0:0:0:1:
109,192,286503,1,0,0:0:0:1:
329,192,286556,1,0,0:0:0:1:
182,192,286609,1,0,0:0:0:1:
475,192,286662,1,0,0:0:0:1:
256,192,286715,1,0,0:0:0:1:
36,192,286767,1,0,0:0:0:1:
182,192,286820,1,0,0:0:0:1:
402,192,286873,1,0,0:0:0:1:
109,192,286926,1,0,0:0:0:1:
329,192,286979,1,0,0:0:0:1:
256,192,287031,1,0,0:0:0:1:
475,192,287084,1,0,0:0:0:1:
182,192,287137,1,0,0:0:0:1:
36,192,287190,1,0,0:0:0:1:
329,192,287243,1,0,0:0:0:1:
402,192,287296,1,0,0:0:0:1:
109,192,287348,1,0,0:0:0:1:
256,192,287401,1,0,0:0:0:1:
475,192,287454,1,0,0:0:0:1:
182,192,287507,1,0,0:0:0:1:
36,192,287560,1,0,0:0:0:1:
329,192,287612,1,0,0:0:0:1:
109,192,287665,1,0,0:0:0:1:
256,192,287718,1,0,0:0:0:1:
402,192,287771,1,0,0:0:0:1:
36,192,287824,1,0,0:0:0:1:
329,192,287876,1,0,0:0:0:1:
182,192,287929,1,0,0:0:0:1:
475,192,287982,1,0,0:0:0:1:
402,192,288035,1,0,0:0:0:1:
256,192,288088,1,0,0:0:0:1:
109,192,288141,1,0,0:0:0:1:
329,192,288193,1,0,0:0:0:1:
36,192,288246,1,0,0:0:0:1:
182,192,288299,1,0,0:0:0:1:
475,192,288352,1,0,0:0:0:1:
256,192,288405,1,0,0:0:0:1:
402,192,288457,1,0,0:0:0:1:
109,192,288510,1,0,0:0:0:1:
182,192,288563,1,0,0:0:0:1:
475,192,288616,1,0,0:0:0:1:
36,192,288669,1,0,0:0:0:1:
329,192,288722,1,0,0:0:0:1:
256,192,288774,1,0,0:0:0:1:
402,192,288827,1,0,0:0:0:1:
109,192,288827,1,0,0:0:0:1:
182,192,288880,1,0,0:0:0:1:
475,192,288933,1,0,0:0:0:1:
256,192,288986,1,0,0:0:0:1:
329,192,289038,1,0,0:0:0:1:
109,192,289091,1,0,0:0:0:1:
402,192,289144,1,0,0:0:0:1:
182,192,289250,1,0,0:0:0:1:
329,192,289303,1,0,0:0:0:1:
475,192,289355,1,0,0:0:0:1:
109,192,289408,1,0,0:0:0:1:
402,192,289461,1,0,0:0:0:1:
256,192,289514,1,0,0:0:0:1:
36,192,289567,1,0,0:0:0:1:
329,192,289619,1,0,0:0:0:1:
475,192,289672,1,0,0:0:0:1:
182,192,289725,1,0,0:0:0:1:
256,192,289778,1,0,0:0:0:1:
402,192,289831,1,0,0:0:0:1:
109,192,289884,1,0,0:0:0:1:
329,192,289936,1,0,0:0:0:1:
182,192,289989,1,0,0:0:0:1:
475,192,290042,1,0,0:0:0:1:
256,192,290095,1,0,0:0:0:1:
36,192,290148,1,0,0:0:0:1:
182,192,290200,1,0,0:0:0:1:
402,192,290253,1,0,0:0:0:1:
109,192,290306,1,0,0:0:0:1:
329,192,290359,1,0,0:0:0:1:
256,192,290412,1,0,0:0:0:1:
475,192,290465,1,0,0:0:0:1:
182,192,290517,1,0,0:0:0:1:
36,192,290570,1,0,0:0:0:1:
329,192,290623,1,0,0:0:0:1:
402,192,290676,1,0,0:0:0:1:
109,192,290729,1,0,0:0:0:1:
256,192,290781,1,0,0:0:0:1:
475,192,290834,1,0,0:0:0:1:
182,192,290887,1,0,0:0:0:1:
36,192,290940,1,0,0:0:0:1:
329,192,290993,1,0,0:0:0:1:
109,192,291046,1,0,0:0:0:1:
256,192,291098,1,0,0:0:0:1:
402,192,291151,1,0,0:0:0:1:
36,192,291204,1,0,0:0:0:1:
329,192,291257,1,0,0:0:0:1:
182,192,291310,1,0,0:0:0:1:
475,192,291362,1,0,0:0:0:1:
402,192,291415,1,0,0:0:0:1:
256,192,291468,1,0,0:0:0:1:
109,192,291521,1,0,0:0:0:1:
329,192,291574,1,0,0:0:0:1:
36,192,291626,1,0,0:0:0:1:
182,192,291679,1,0,0:0:0:1:
475,192,291732,1,0,0:0:0:1:
256,192,291785,1,0,0:0:0:1:
402,192,291838,1,0,0:0:0:1:
109,192,291891,1,0,0:0:0:1:
182,192,291943,1,0,0:0:0:1:
475,192,291996,1,0,0:0:0:1:
36,192,292049,1,0,0:0:0:1:
329,192,292102,1,0,0:0:0:1:
256,192,292155,1,0,0:0:0:1:
402,192,292207,1,0,0:0:0:1:
109,192,292207,1,0,0:0:0:1:
182,192,292260,1,0,0:0:0:1:
475,192,292313,1,0,0:0:0:1:
256,192,292366,1,0,0:0:0:1:
329,192,292419,1,0,0:0:0:1:
109,192,292472,1,0,0:0:0:1:
402,192,292524,1,0,0:0:0:1:
182,192,292630,1,0,0:0:0:1:
329,192,292683,1,0,0:0:0:1:
475,192,292736,1,0,0:0:0:1:
109,192,292788,1,0,0:0:0:1:
402,192,292841,1,0,0:0:0:1:
256,192,292894,1,0,0:0:0:1:
36,192,292947,1,0,0:0:0:1:
329,192,293000,1,0,0:0:0:1:
475,192,293053,1,0,0:0:0:1:
182,192,293105,1,0,0:0:0:1:
256,192,293158,1,0,0:0:0:1:
402,192,293211,1,0,0:0:0:1:
109,192,293264,1,0,0:0:0:1:
329,192,293317,1,0,0:0:0:1:
182,192,293369,1,0,0:0:0:1:
475,192,293422,1,0,0:0:0:1:
256,192,293475,1,0,0:0:0:1:
36,192,293528,1,0,0:0:0:1:
182,192,293581,1,0,0:0:0:1:
402,192,293634,1,0,0:0:0:1:
109,192,293686,1,0,0:0:0:1:
329,192,293739,1,0,0:0:0:1:
256,192,293792,1,0,0:0:0:1:
475,192,293845,1,0,0:0:0:1:
182,192,293898,1,0,0:0:0:1:
36,192,293950,1,0,0:0:0:1:
329,192,294003,1,0,0:0:0:1:
402,192,294056,1,0,0:0:0:1:
109,192,294109,1,0,0:0:0:1:
256,192,294162,1,0,0:0:0:1:
475,192,294215,1,0,0:0:0:1:
182,192,294267,1,0,0:0:0:1:
36,192,294320,1,0,0:0:0:1:
329,192,294373,1,0,0:0:0:1:
109,192,294426,1,0,0:0:0:1:
256,192,294479,1,0,0:0:0:1:
402,192,294531,1,0,0:0:0:1:
36,192,294584,1,0,0:0:0:1:
329,192,294637,1,0,0:0:0:1:
182,192,294690,1,0,0:0:0:1:
475,192,294743,1,0,0:0:0:1:
402,192,294796,1,0,0:0:0:1:
256,192,294848,1,0,0:0:0:1:
109,192,294901,1,0,0:0:0:1:
329,192,294954,1,0,0:0:0:1:
36,192,295007,1,0,0:0:0:1:
182,192,295060,1,0,0:0:0:1:
475,192,295112,1,0,0:0:0:1:
256,192,295165,1,0,0:0:0:1:
402,192,295218,1,0,0:0:0:1:
109,192,295271,1,0,0:0:0:1:
182,192,295324,1,0,0:0:0:1:
329,192,295376,1,0,0:0:0:1:
36,192,295429,1,0,0:0:0:1:
256,192,295482,1,0,0:0:0:1:
329,192,295535,1,0,0:0:0:1:
475,192,295588,1,0,0:0:0:1:
402,192,295588,1,0,0:0:0:1:
182,192,295588,1,0,0:0:0:1:
109,192,295641,1,0,0:0:0:1:
256,192,295693,1,0,0:0:0:1:
329,192,295746,1,0,0:0:0:1:
36,192,295799,1,0,0:0:0:1:
182,192,295852,1,0,0:0:0:1:
402,192,295905,1,0,0:0:0:1:
256,192,295957,1,0,0:0:0:1:
109,192,296010,1,0,0:0:0:1:
329,192,296063,1,0,0:0:0:1:
475,192,296116,1,0,0:0:0:1:
182,192,296116,1,0,0:0:0:1:
402,192,296169,1,0,0:0:0:1:
256,192,296222,1,0,0:0:0:1:
36,192,296274,1,0,0:0:0:1:
109,192,296327,1,0,0:0:0:1:
182,192,296380,1,0,0:0:0:1:
256,192,296433,1,0,0:0:0:1:
329,192,296486,1,0,0:0:0:1:
109,192,296538,1,0,0:0:0:1:
402,192,296591,1,0,0:0:0:1:
256,192,296644,1,0,0:0:0:1:
36,192,296697,1,0,0:0:0:1:
475,192,296750,1,0,0:0:0:1:
182,192,296750,1,0,0:0:0:1:
329,192,296803,1,0,0:0:0:1:
256,192,296855,1,0,0:0:0:1:
109,192,296908,1,0,0:0:0:1:
402,192,296961,1,0,0:0:0:1:
182,192,297014,1,0,0:0:0:1:
36,192,297067,1,0,0:0:0:1:
329,192,297119,1,0,0:0:0:1:
256,192,297172,1,0,0:0:0:1:
109,192,297225,1,0,0:0:0:1:
182,192,297278,1,0,0:0:0:1:
329,192,297331,1,0,0:0:0:1:
475,192,297384,1,0,0:0:0:1:
36,192,297384,1,0,0:0:0:1:
109,192,297436,1,0,0:0:0:1:
182,192,297489,1,0,0:0:0:1:
402,192,297542,1,0,0:0:0:1:
256,192,297595,1,0,0:0:0:1:
36,192,297648,1,0,0:0:0:1:
329,192,297700,1,0,0:0:0:1:
182,192,297753,1,0,0:0:0:1:
109,192,297806,1,0,0:0:0:1:
402,192,297859,1,0,0:0:0:1:
329,192,297912,1,0,0:0:0:1:
256,192,297965,1,0,0:0:0:1:
475,192,298017,1,0,0:0:0:1:
182,192,298017,1,0,0:0:0:1:
402,192,298070,1,0,0:0:0:1:
36,192,298123,1,0,0:0:0:1:
329,192,298176,1,0,0:0:0:1:
109,192,298229,1,0,0:0:0:1:
256,192,298281,1,0,0:0:0:1:
475,192,298334,1,0,0:0:0:1:
402,192,298387,1,0,0:0:0:1:
36,192,298440,1,0,0:0:0:1:
256,192,298493,1,0,0:0:0:1:
329,192,298546,1,0,0:0:0:1:
109,192,298598,1,0,0:0:0:1:
402,192,298651,1,0,0:0:0:1:
182,192,298704,1,0,0:0:0:1:
329,192,298757,1,0,0:0:0:1:
256,192,298810,1,0,0:0:0:1:
475,192,298862,1,0,0:0:0:1:
402,192,298915,1,0,0:0:0:1:
36,192,298968,1,0,0:0:0:0:
109,192,298968,1,0,0:0:0:1:
329,192,299021,1,0,0:0:0:1:
256,192,299074,1,0,0:0:0:1:
182,192,299126,1,0,0:0:0:1:
475,192,299179,1,0,0:0:0:1:
329,192,299232,1,0,0:0:0:1:
109,192,299285,1,0,0:0:0:1:
256,192,299338,1,0,0:0:0:1:
402,192,299391,1,0,0:0:0:1:
182,192,299443,1,0,0:0:0:1:
36,192,299496,1,0,0:0:0:1:
329,192,299496,1,0,0:0:0:1:
109,192,299549,1,0,0:0:0:1:
256,192,299602,1,0,0:0:0:1:
475,192,299655,1,0,0:0:0:1:
402,192,299707,1,0,0:0:0:1:
329,192,299760,1,0,0:0:0:1:
36,192,299813,1,0,0:0:0:1:
182,192,299866,1,0,0:0:0:1:
402,192,299919,1,0,0:0:0:1:
109,192,299972,1,0,0:0:0:1:
256,192,300024,1,0,0:0:0:1:
475,192,300077,1,0,0:0:0:1:
36,192,300130,1,0,0:0:0:1:
329,192,300130,1,0,0:0:0:1:
182,192,300183,1,0,0:0:0:1:
256,192,300236,1,0,0:0:0:1:
402,192,300288,1,0,0:0:0:1:
109,192,300341,1,0,0:0:0:1:
329,192,300394,1,0,0:0:0:1:
475,192,300447,1,0,0:0:0:1:
182,192,300500,1,0,0:0:0:1:
256,192,300553,1,0,0:0:0:1:
402,192,300605,1,0,0:0:0:1:
329,192,300658,1,0,0:0:0:1:
182,192,300711,1,0,0:0:0:1:
475,192,300764,1,0,0:0:0:1:
36,192,300764,1,0,0:0:0:1:
402,192,300817,1,0,0:0:0:1:
329,192,300869,1,0,0:0:0:1:
109,192,300922,1,0,0:0:0:1:
256,192,300975,1,0,0:0:0:1:
475,192,301028,1,0,0:0:0:1:
182,192,301081,1,0,0:0:0:1:
329,192,301134,1,0,0:0:0:1:
402,192,301186,1,0,0:0:0:1:
109,192,301239,1,0,0:0:0:1:
182,192,301292,1,0,0:0:0:1:
256,192,301345,1,0,0:0:0:1:
36,192,301398,1,0,0:0:0:1:
329,192,301398,1,0,0:0:0:1:
109,192,301450,1,0,0:0:0:1:
475,192,301503,1,0,0:0:0:1:
182,192,301556,1,0,0:0:0:1:
402,192,301609,1,0,0:0:0:1:
256,192,301662,1,0,0:0:0:1:
36,192,301715,1,0,0:0:0:1:
329,192,301715,1,0,0:0:0:1:
109,192,301767,1,0,0:0:0:1:
475,192,301820,1,0,0:0:0:1:
256,192,301873,1,0,0:0:0:1:
182,192,301926,1,0,0:0:0:1:
402,192,301979,1,0,0:0:0:1:
109,192,302031,1,0,0:0:0:1:
329,192,302084,1,0,0:0:0:1:
182,192,302137,1,0,0:0:0:1:
256,192,302190,1,0,0:0:0:1:
36,192,302243,1,0,0:0:0:1:
109,192,302296,1,0,0:0:0:1:
475,192,302348,1,0,0:0:0:1:
402,192,302348,1,0,0:0:0:1:
182,192,302401,1,0,0:0:0:0:
256,192,302454,1,0,0:0:0:1:
329,192,302507,1,0,0:0:0:1:
36,192,302560,1,0,0:0:0:1:
182,192,302612,1,0,0:0:0:1:
402,192,302665,1,0,0:0:0:1:
256,192,302718,1,0,0:0:0:1:
109,192,302771,1,0,0:0:0:1:
329,192,302824,1,0,0:0:0:1:
475,192,302876,1,0,0:0:0:1:
182,192,302876,1,0,0:0:0:1:
402,192,302929,1,0,0:0:0:1:
256,192,302982,1,0,0:0:0:1:
36,192,303035,1,0,0:0:0:1:
109,192,303088,1,0,0:0:0:1:
182,192,303141,1,0,0:0:0:1:
475,192,303193,1,0,0:0:0:1:
329,192,303246,1,0,0:0:0:1:
109,192,303299,1,0,0:0:0:1:
402,192,303352,1,0,0:0:0:1:
256,192,303405,1,0,0:0:0:1:
36,192,303457,1,0,0:0:0:1:
475,192,303510,1,0,0:0:0:1:
182,192,303510,1,0,0:0:0:1:
329,192,303563,1,0,0:0:0:1:
256,192,303616,1,0,0:0:0:1:
109,192,303669,1,0,0:0:0:1:
402,192,303722,1,0,0:0:0:1:
182,192,303774,1,0,0:0:0:1:
475,192,303827,1,0,0:0:0:1:
36,192,303827,1,0,0:0:0:1:
329,192,303880,1,0,0:0:0:1:
256,192,303933,1,0,0:0:0:1:
109,192,303986,1,0,0:0:0:1:
182,192,304038,1,0,0:0:0:1:
329,192,304091,1,0,0:0:0:1:
475,192,304144,1,0,0:0:0:1:
36,192,304144,1,0,0:0:0:1:
109,192,304197,1,0,0:0:0:1:
182,192,304250,1,0,0:0:0:1:
402,192,304303,1,0,0:0:0:1:
256,192,304355,1,0,0:0:0:1:
36,192,304408,1,0,0:0:0:1:
329,192,304461,1,0,0:0:0:1:
182,192,304514,1,0,0:0:0:1:
109,192,304567,1,0,0:0:0:1:
402,192,304619,1,0,0:0:0:1:
329,192,304672,1,0,0:0:0:1:
256,192,304725,1,0,0:0:0:1:
475,192,304778,1,0,0:0:0:1:
182,192,304778,1,0,0:0:0:1:
402,192,304831,1,0,0:0:0:1:
36,192,304884,1,0,0:0:0:1:
329,192,304936,1,0,0:0:0:1:
109,192,304989,1,0,0:0:0:1:
256,192,305042,1,0,0:0:0:1:
475,192,305095,1,0,0:0:0:1:
402,192,305148,1,0,0:0:0:1:
36,192,305200,1,0,0:0:0:1:
256,192,305253,1,0,0:0:0:1:
329,192,305306,1,0,0:0:0:1:
109,192,305359,1,0,0:0:0:1:
402,192,305412,1,0,0:0:0:1:
182,192,305465,1,0,0:0:0:1:
329,192,305517,1,0,0:0:0:1:
256,192,305570,1,0,0:0:0:1:
475,192,305623,1,0,0:0:0:1:
402,192,305676,1,0,0:0:0:1:
36,192,305729,1,0,0:0:0:1:
109,192,305729,1,0,0:0:0:1:
329,192,305781,1,0,0:0:0:1:
256,192,305834,1,0,0:0:0:1:
182,192,305887,1,0,0:0:0:1:
475,192,305940,1,0,0:0:0:1:
329,192,305993,1,0,0:0:0:1:
109,192,306046,1,0,0:0:0:1:
256,192,306098,1,0,0:0:0:1:
402,192,306151,1,0,0:0:0:1:
182,192,306204,1,0,0:0:0:1:
36,192,306257,1,0,0:0:0:1:
329,192,306257,1,0,0:0:0:1:
109,192,306310,1,0,0:0:0:1:
256,192,306362,1,0,0:0:0:1:
475,192,306415,1,0,0:0:0:1:
402,192,306468,1,0,0:0:0:1:
329,192,306521,1,0,0:0:0:1:
36,192,306574,1,0,0:0:0:1:
182,192,306626,1,0,0:0:0:1:
402,192,306679,1,0,0:0:0:1:
109,192,306732,1,0,0:0:0:1:
256,192,306785,1,0,0:0:0:1:
475,192,306838,1,0,0:0:0:1:
36,192,306891,1,0,0:0:0:1:
329,192,306891,1,0,0:0:0:1:
182,192,306943,1,0,0:0:0:1:
256,192,306996,1,0,0:0:0:1:
402,192,307049,1,0,0:0:0:1:
109,192,307102,1,0,0:0:0:1:
329,192,307155,1,0,0:0:0:1:
475,192,307207,1,0,0:0:0:1:
182,192,307260,1,0,0:0:0:1:
256,192,307313,1,0,0:0:0:1:
402,192,307366,1,0,0:0:0:1:
329,192,307419,1,0,0:0:0:1:
182,192,307472,1,0,0:0:0:1:
475,192,307524,1,0,0:0:0:1:
36,192,307524,1,0,0:0:0:1:
402,192,307577,1,0,0:0:0:1:
329,192,307630,1,0,0:0:0:1:
109,192,307683,1,0,0:0:0:1:
256,192,307736,1,0,0:0:0:1:
475,192,307788,1,0,0:0:0:1:
182,192,307841,1,0,0:0:0:1:
329,192,307894,1,0,0:0:0:1:
402,192,307947,1,0,0:0:0:1:
109,192,308000,1,0,0:0:0:1:
182,192,308053,1,0,0:0:0:1:
256,192,308105,1,0,0:0:0:1:
36,192,308158,1,0,0:0:0:1:
109,192,308211,1,0,0:0:0:1:
475,192,308264,1,0,0:0:0:1:
182,192,308317,1,0,0:0:0:1:
402,192,308369,1,0,0:0:0:1:
256,192,308422,1,0,0:0:0:1:
329,192,308475,1,0,0:0:0:1:
109,192,308528,1,0,0:0:0:1:
475,192,308581,1,0,0:0:0:1:
256,192,308634,1,0,0:0:0:1:
182,192,308686,1,0,0:0:0:1:
402,192,308739,1,0,0:0:0:1:
109,192,308792,1,0,0:0:0:1:
329,192,308845,1,0,0:0:0:1:
182,192,308898,1,0,0:0:0:1:
256,192,308950,1,0,0:0:0:1:
36,192,309003,1,0,0:0:0:1:
109,192,309056,1,0,0:0:0:1:
329,192,309109,1,0,0:0:0:1:
475,192,309109,1,0,0:0:0:1:
182,192,309109,1,0,0:0:0:1:
402,192,309162,1,0,0:0:0:1:
256,192,309215,1,0,0:0:0:1:
182,192,309267,1,0,0:0:0:1:
475,192,309320,1,0,0:0:0:1:
329,192,309373,1,0,0:0:0:1:
109,192,309426,1,0,0:0:0:1:
256,192,309479,1,0,0:0:0:1:
402,192,309531,1,0,0:0:0:1:
182,192,309584,1,0,0:0:0:1:
36,192,309637,1,0,0:0:0:1:
329,192,309637,1,0,0:0:0:1:
109,192,309690,1,0,0:0:0:1:
256,192,309743,1,0,0:0:0:1:
475,192,309796,1,0,0:0:0:1:
402,192,309848,1,0,0:0:0:1:
329,192,309901,1,0,0:0:0:1:
256,192,309954,1,0,0:0:0:1:
182,192,310007,1,0,0:0:0:1:
402,192,310060,1,0,0:0:0:1:
109,192,310112,1,0,0:0:0:1:
256,192,310165,1,0,0:0:0:1:
475,192,310218,1,0,0:0:0:1:
36,192,310271,1,0,0:0:0:1:
329,192,310271,1,0,0:0:0:1:
182,192,310324,1,0,0:0:0:1:
256,192,310376,1,0,0:0:0:1:
402,192,310429,1,0,0:0:0:1:
109,192,310482,1,0,0:0:0:1:
329,192,310535,1,0,0:0:0:1:
475,192,310588,1,0,0:0:0:1:
182,192,310641,1,0,0:0:0:1:
256,192,310693,1,0,0:0:0:1:
402,192,310746,1,0,0:0:0:1:
329,192,310799,1,0,0:0:0:1:
182,192,310852,1,0,0:0:0:1:
36,192,310905,1,0,0:0:0:1:
475,192,310905,1,0,0:0:0:1:
402,192,310957,1,0,0:0:0:1:
329,192,311010,1,0,0:0:0:1:
109,192,311063,1,0,0:0:0:1:
256,192,311116,1,0,0:0:0:1:
475,192,311169,1,0,0:0:0:1:
182,192,311222,1,0,0:0:0:1:
329,192,311274,1,0,0:0:0:1:
402,192,311327,1,0,0:0:0:1:
109,192,311380,1,0,0:0:0:1:
182,192,311433,1,0,0:0:0:1:
256,192,311486,1,0,0:0:0:1:
36,192,311538,1,0,0:0:0:1:
329,192,311538,1,0,0:0:0:1:
109,192,311591,1,0,0:0:0:1:
475,192,311644,1,0,0:0:0:1:
182,192,311697,1,0,0:0:0:1:
402,192,311750,1,0,0:0:0:1:
256,192,311803,1,0,0:0:0:1:
36,192,311855,1,0,0:0:0:1:
109,192,311908,1,0,0:0:0:1:
475,192,311961,1,0,0:0:0:1:
256,192,312014,1,0,0:0:0:1:
182,192,312067,1,0,0:0:0:1:
402,192,312119,1,0,0:0:0:1:
109,192,312172,1,0,0:0:0:1:
329,192,312225,1,0,0:0:0:1:
182,192,312278,1,0,0:0:0:1:
256,192,312331,1,0,0:0:0:1:
36,192,312384,1,0,0:0:0:1:
109,192,312436,1,0,0:0:0:1:
475,192,312489,1,0,0:0:0:0:
402,192,312489,1,0,0:0:0:1:
182,192,312542,1,0,0:0:0:1:
256,192,312595,1,0,0:0:0:1:
329,192,312648,1,0,0:0:0:1:
36,192,312700,1,0,0:0:0:1:
182,192,312753,1,0,0:0:0:1:
402,192,312806,1,0,0:0:0:1:
256,192,312859,1,0,0:0:0:1:
109,192,312912,1,0,0:0:0:1:
329,192,312965,1,0,0:0:0:1:
475,192,313017,1,0,0:0:0:1:
182,192,313017,1,0,0:0:0:1:
402,192,313070,1,0,0:0:0:1:
256,192,313123,1,0,0:0:0:1:
36,192,313176,1,0,0:0:0:1:
109,192,313229,1,0,0:0:0:1:
182,192,313281,1,0,0:0:0:1:
475,192,313334,1,0,0:0:0:1:
329,192,313387,1,0,0:0:0:1:
109,192,313440,1,0,0:0:0:1:
402,192,313493,1,0,0:0:0:1:
256,192,313546,1,0,0:0:0:1:
36,192,313598,1,0,0:0:0:1:
475,192,313651,1,0,0:0:0:1:
182,192,313651,1,0,0:0:0:1:
329,192,313704,1,0,0:0:0:1:
256,192,313757,1,0,0:0:0:1:
109,192,313810,1,0,0:0:0:1:
402,192,313862,1,0,0:0:0:1:
182,192,313915,1,0,0:0:0:1:
36,192,313968,1,0,0:0:0:1:
329,192,314021,1,0,0:0:0:1:
256,192,314074,1,0,0:0:0:1:
109,192,314126,1,0,0:0:0:1:
182,192,314179,1,0,0:0:0:1:
329,192,314232,1,0,0:0:0:1:
36,192,314285,1,0,0:0:0:1:
475,192,314285,1,0,0:0:0:1:
109,192,314338,1,0,0:0:0:1:
182,192,314391,1,0,0:0:0:1:
402,192,314443,1,0,0:0:0:1:
256,192,314496,1,0,0:0:0:1:
36,192,314549,1,0,0:0:0:1:
329,192,314602,1,0,0:0:0:1:
182,192,314655,1,0,0:0:0:1:
109,192,314707,1,0,0:0:0:1:
402,192,314760,1,0,0:0:0:1:
329,192,314813,1,0,0:0:0:1:
256,192,314866,1,0,0:0:0:1:
475,192,314919,1,0,0:0:0:1:
182,192,314919,1,0,0:0:0:1:
402,192,314972,1,0,0:0:0:1:
36,192,315024,1,0,0:0:0:1:
329,192,315077,1,0,0:0:0:1:
109,192,315130,1,0,0:0:0:1:
256,192,315183,1,0,0:0:0:1:
475,192,315236,1,0,0:0:0:1:
182,192,315236,1,0,0:0:0:1:
402,192,315288,1,0,0:0:0:1:
36,192,315341,1,0,0:0:0:1:
256,192,315394,1,0,0:0:0:1:
329,192,315447,1,0,0:0:0:1:
109,192,315500,1,0,0:0:0:1:
402,192,315553,1,0,0:0:0:1:
182,192,315605,1,0,0:0:0:1:
329,192,315658,1,0,0:0:0:1:
256,192,315711,1,0,0:0:0:1:
475,192,315764,1,0,0:0:0:1:
402,192,315817,1,0,0:0:0:1:
36,192,315869,1,0,0:0:0:1:
109,192,315869,1,0,0:0:0:1:
329,192,315922,1,0,0:0:0:0:
256,192,315975,1,0,0:0:0:1:
182,192,316028,1,0,0:0:0:1:
475,192,316081,1,0,0:0:0:1:
329,192,316134,1,0,0:0:0:1:
402,192,316186,1,0,0:0:0:1:
256,192,316239,1,0,0:0:0:1:
109,192,316292,1,0,0:0:0:0:
36,192,316292,1,0,0:0:0:0:
182,192,316345,1,0,0:0:0:1:
329,192,316398,1,0,0:0:0:1:
402,192,316450,1,0,0:0:0:1:
256,192,316503,1,0,0:0:0:1:
182,192,316556,1,0,0:0:0:1:
402,192,316609,1,0,0:0:0:1:
329,192,316662,1,0,0:0:0:1:
109,192,316715,1,0,0:0:0:0:
36,192,316715,1,0,0:0:0:1:
256,192,316767,1,0,0:0:0:1:
475,192,316820,1,0,0:0:0:1:
182,192,316873,1,0,0:0:0:1:
329,192,316926,1,0,0:0:0:1:
402,192,316979,1,0,0:0:0:1:
256,192,317031,1,0,0:0:0:1:
475,192,317084,1,0,0:0:0:1:
36,192,317137,1,0,0:0:0:0:
109,192,317137,1,0,0:0:0:0:
329,192,317190,1,0,0:0:0:1:
182,192,317243,1,0,0:0:0:1:
402,192,317296,1,0,0:0:0:1:
475,192,317348,1,0,0:0:0:1:
256,192,317401,1,0,0:0:0:1:
182,192,317454,1,0,0:0:0:1:
402,192,317507,1,0,0:0:0:1:
36,192,317560,1,0,0:0:0:0:
109,192,317560,1,0,0:0:0:0:
329,192,317560,1,0,0:0:0:1:
182,192,317612,1,0,0:0:0:1:
475,192,317665,1,0,0:0:0:1:
402,192,317718,1,0,0:0:0:1:
329,192,317771,1,0,0:0:0:1:
256,192,317824,1,0,0:0:0:1:
182,192,317876,1,0,0:0:0:1:
402,192,317929,1,0,0:0:0:1:
109,192,317982,1,0,0:0:0:0:
36,192,317982,1,0,0:0:0:0:
256,192,318035,1,0,0:0:0:1:
329,192,318088,1,0,0:0:0:1:
182,192,318141,1,0,0:0:0:0:
402,192,318193,1,0,0:0:0:0:
256,192,318246,1,0,0:0:0:1:
329,192,318299,1,0,0:0:0:1:
475,192,318352,1,0,0:0:0:0:
109,192,318405,1,0,0:0:0:0:
36,192,318405,1,0,0:0:0:0:
402,192,318457,1,0,0:0:0:0:
256,192,318510,1,0,0:0:0:0:
329,192,318563,1,0,0:0:0:0:
475,192,318616,1,0,0:0:0:0:
402,192,318669,1,0,0:0:0:0:
182,192,318722,1,0,0:0:0:0:
256,192,318774,1,0,0:0:0:1:
36,192,318827,1,0,0:0:0:0:
109,192,318827,1,0,0:0:0:0:
402,192,318880,1,0,0:0:0:1:
329,192,318933,1,0,0:0:0:0:
256,192,318986,1,0,0:0:0:0:
182,192,319038,1,0,0:0:0:0:
36,192,319091,1,0,0:0:0:0:
109,192,319144,1,0,0:0:0:0:
256,192,319197,1,0,0:0:0:0:
475,192,319250,1,0,0:0:0:1:
402,192,319250,1,0,0:0:0:1:
182,192,319303,1,0,0:0:0:1:
109,192,319355,1,0,0:0:0:0:
329,192,319408,1,0,0:0:0:1:
36,192,319461,1,0,0:0:0:1:
182,192,319514,1,0,0:0:0:1:
256,192,319567,1,0,0:0:0:0:
329,192,319619,1,0,0:0:0:0:
475,192,319672,1,0,0:0:0:0:
402,192,319672,1,0,0:0:0:0:
109,192,319725,1,0,0:0:0:0:
182,192,319778,1,0,0:0:0:1:
329,192,319831,1,0,0:0:0:0:
256,192,319884,1,0,0:0:0:0:
109,192,319936,1,0,0:0:0:0:
36,192,319989,1,0,0:0:0:0:
182,192,320042,1,0,0:0:0:1:
475,192,320095,1,0,0:0:0:0:
402,192,320095,1,0,0:0:0:0:
329,192,320148,1,0,0:0:0:0:
109,192,320200,1,0,0:0:0:1:
256,192,320253,1,0,0:0:0:0:
182,192,320306,1,0,0:0:0:0:
36,192,320359,1,0,0:0:0:1:
109,192,320412,1,0,0:0:0:0:
256,192,320465,1,0,0:0:0:0:
475,192,320517,1,0,0:0:0:0:
402,192,320517,1,0,0:0:0:0:
182,192,320570,1,0,0:0:0:0:
329,192,320623,1,0,0:0:0:0:
256,192,320676,1,0,0:0:0:0:
109,192,320729,1,0,0:0:0:0:
36,192,320781,1,0,0:0:0:0:
182,192,320834,1,0,0:0:0:0:
256,192,320887,1,0,0:0:0:0:
475,192,320940,1,0,0:0:0:0:
402,192,320940,1,0,0:0:0:0:
329,192,320993,1,0,0:0:0:0:
36,192,321046,1,0,0:0:0:0:
109,192,321098,1,0,0:0:0:1:
182,192,321151,1,0,0:0:0:1:
256,192,321204,1,0,0:0:0:0:
329,192,321257,1,0,0:0:0:0:
109,192,321310,1,0,0:0:0:0:
475,192,321362,1,0,0:0:0:0:
402,192,321362,1,0,0:0:0:0:
256,192,321415,1,0,0:0:0:0:
182,192,321468,5,0,0:0:0:0:
36,192,321521,1,0,0:0:0:0:
329,192,321574,1,0,0:0:0:1:
109,192,321626,1,0,0:0:0:0:
256,192,321679,1,0,0:0:0:0:
182,192,321732,1,0,0:0:0:0:
475,192,321785,1,0,0:0:0:0:
402,192,321785,1,0,0:0:0:0:
329,192,321838,1,0,0:0:0:1:
109,192,321891,1,0,0:0:0:1:
256,192,321943,1,0,0:0:0:1:
182,192,321996,1,0,0:0:0:1:
36,192,322049,1,0,0:0:0:0:
109,192,322102,1,0,0:0:0:0:
256,192,322155,1,0,0:0:0:1:
475,192,322207,1,0,0:0:0:0:
402,192,322207,1,0,0:0:0:0:
109,192,322260,1,0,0:0:0:1:
329,192,322313,1,0,0:0:0:0:
182,192,322366,1,0,0:0:0:1:
36,192,322419,1,0,0:0:0:0:
256,192,322472,1,0,0:0:0:1:
402,192,322524,1,0,0:0:0:0:
475,192,322577,1,0,0:0:0:0:
182,192,322630,5,0,0:0:0:1:
329,192,322630,1,0,0:0:0:1:
36,192,322630,1,0,0:0:0:1:
402,192,322736,1,0,0:0:0:1:
329,192,322841,1,0,0:0:0:1:
109,192,322841,1,0,0:0:0:1:
256,192,322947,1,0,0:0:0:1:
36,192,323053,1,0,0:0:0:1:
402,192,323053,1,0,0:0:0:1:
182,192,323053,1,0,0:0:0:1:
475,192,323158,1,0,0:0:0:1:
329,192,323264,1,0,0:0:0:1:
109,192,323264,1,0,0:0:0:1:
256,192,323369,1,0,0:0:0:1:
36,192,323475,1,0,0:0:0:1:
402,192,323475,1,0,0:0:0:1:
182,192,323475,1,0,0:0:0:1:
475,192,323581,1,0,0:0:0:1:
329,192,323686,1,0,0:0:0:1:
109,192,323686,1,0,0:0:0:1:
256,192,323792,1,0,0:0:0:1:
36,192,323898,1,0,0:0:0:1:
402,192,323898,1,0,0:0:0:1:
182,192,323898,1,0,0:0:0:1:
475,192,324003,1,0,0:0:0:1:
329,192,324109,1,0,0:0:0:1:
109,192,324109,1,0,0:0:0:1:
256,192,324215,1,0,0:0:0:1:
36,192,324320,1,0,0:0:0:1:
402,192,324320,1,0,0:0:0:1:
109,192,324320,1,0,0:0:0:1:
329,192,324426,1,0,0:0:0:1:
475,192,324531,1,0,0:0:0:1:
182,192,324531,1,0,0:0:0:1:
256,192,324637,1,0,0:0:0:1:
36,192,324743,1,0,0:0:0:1:
402,192,324743,1,0,0:0:0:1:
109,192,324743,1,0,0:0:0:1:
329,192,324848,1,0,0:0:0:1:
475,192,324954,1,0,0:0:0:1:
182,192,324954,1,0,0:0:0:1:
256,192,325060,1,0,0:0:0:1:
36,192,325165,1,0,0:0:0:1:
402,192,325165,1,0,0:0:0:1:
109,192,325165,1,0,0:0:0:1:
329,192,325271,1,0,0:0:0:1:
475,192,325376,1,0,0:0:0:1:
182,192,325376,1,0,0:0:0:1:
256,192,325482,1,0,0:0:0:1:
36,192,325588,1,0,0:0:0:1:
402,192,325588,1,0,0:0:0:1:
109,192,325588,1,0,0:0:0:1:
329,192,325693,1,0,0:0:0:1:
402,192,325799,1,0,0:0:0:1:
182,192,325799,1,0,0:0:0:1:
256,192,325905,1,0,0:0:0:1:
475,192,326010,1,0,0:0:0:1:
329,192,326010,1,0,0:0:0:1:
109,192,326010,1,0,0:0:0:1:
36,192,326116,1,0,0:0:0:1:
402,192,326222,1,0,0:0:0:1:
182,192,326222,1,0,0:0:0:1:
256,192,326327,1,0,0:0:0:1:
475,192,326433,1,0,0:0:0:1:
329,192,326433,1,0,0:0:0:1:
109,192,326433,1,0,0:0:0:1:
36,192,326538,1,0,0:0:0:1:
402,192,326644,1,0,0:0:0:1:
182,192,326644,1,0,0:0:0:1:
256,192,326750,1,0,0:0:0:1:
475,192,326855,1,0,0:0:0:1:
329,192,326855,1,0,0:0:0:1:
109,192,326855,1,0,0:0:0:1:
36,192,326961,1,0,0:0:0:1:
402,192,327067,1,0,0:0:0:1:
182,192,327067,1,0,0:0:0:1:
256,192,327172,1,0,0:0:0:1:
475,192,327278,1,0,0:0:0:1:
329,192,327278,1,0,0:0:0:1:
109,192,327278,1,0,0:0:0:1:
36,192,327384,1,0,0:0:0:1:
402,192,327489,1,0,0:0:0:1:
182,192,327489,1,0,0:0:0:1:
256,192,327595,1,0,0:0:0:1:
475,192,327700,1,0,0:0:0:1:
402,192,327700,1,0,0:0:0:1:
109,192,327700,1,0,0:0:0:1:
182,192,327806,1,0,0:0:0:1:
36,192,327912,1,0,0:0:0:1:
329,192,327912,1,0,0:0:0:1:
256,192,328017,1,0,0:0:0:1:
475,192,328123,1,0,0:0:0:1:
402,192,328123,1,0,0:0:0:1:
109,192,328123,1,0,0:0:0:1:
182,192,328229,1,0,0:0:0:1:
36,192,328334,1,0,0:0:0:1:
329,192,328334,1,0,0:0:0:1:
256,192,328440,1,0,0:0:0:1:
475,192,328546,1,0,0:0:0:1:
402,192,328546,1,0,0:0:0:1:
109,192,328546,1,0,0:0:0:1:
182,192,328651,1,0,0:0:0:1:
36,192,328757,1,0,0:0:0:1:
329,192,328757,1,0,0:0:0:1:
256,192,328862,1,0,0:0:0:1:
475,192,328968,1,0,0:0:0:1:
402,192,328968,1,0,0:0:0:1:
109,192,328968,1,0,0:0:0:1:
182,192,329074,1,0,0:0:0:1:
329,192,329179,1,0,0:0:0:1:
109,192,329179,1,0,0:0:0:1:
256,192,329285,1,0,0:0:0:1:
36,192,329391,1,0,0:0:0:1:
475,192,329391,1,0,0:0:0:1:
182,192,329391,1,0,0:0:0:1:
402,192,329391,1,0,0:0:0:1:
256,192,329496,1,0,0:0:0:1:
329,192,329602,1,0,0:0:0:1:
109,192,329602,1,0,0:0:0:1:
182,192,329707,1,0,0:0:0:1:
36,192,329813,1,0,0:0:0:1:
402,192,329813,1,0,0:0:0:1:
256,192,329813,1,0,0:0:0:1:
329,192,329919,1,0,0:0:0:1:
402,192,330024,1,0,0:0:0:1:
475,192,330024,1,0,0:0:0:1:
109,192,330024,1,0,0:0:0:1:
182,192,330024,1,0,0:0:0:1:
256,192,330130,1,0,0:0:0:1:
36,192,330236,1,0,0:0:0:1:
329,192,330236,1,0,0:0:0:1:
182,192,330236,1,0,0:0:0:1:
402,192,330341,1,0,0:0:0:1:
329,192,330447,1,0,0:0:0:1:
109,192,330447,1,0,0:0:0:1:
182,192,330553,1,0,0:0:0:1:
36,192,330658,1,0,0:0:0:1:
402,192,330658,1,0,0:0:0:1:
256,192,330658,1,0,0:0:0:1:
329,192,330764,1,0,0:0:0:1:
402,192,330869,1,0,0:0:0:1:
475,192,330869,1,0,0:0:0:1:
109,192,330869,1,0,0:0:0:1:
182,192,330869,1,0,0:0:0:1:
256,192,330975,1,0,0:0:0:1:
475,192,331081,1,0,0:0:0:1:
36,192,331081,1,0,0:0:0:1:
329,192,331081,1,0,0:0:0:1:
182,192,331186,1,0,0:0:0:1:
402,192,331292,1,0,0:0:0:1:
109,192,331292,1,0,0:0:0:1:
182,192,331398,1,0,0:0:0:1:
36,192,331503,1,0,0:0:0:1:
329,192,331503,1,0,0:0:0:1:
256,192,331503,1,0,0:0:0:1:
109,192,331609,1,0,0:0:0:1:
402,192,331715,1,0,0:0:0:1:
475,192,331715,1,0,0:0:0:1:
182,192,331715,1,0,0:0:0:1:
256,192,331715,1,0,0:0:0:1:
109,192,331820,1,0,0:0:0:1:
475,192,331926,1,0,0:0:0:1:
36,192,331926,1,0,0:0:0:1:
329,192,331926,1,0,0:0:0:1:
182,192,332031,1,0,0:0:0:1:
402,192,332137,1,0,0:0:0:1:
109,192,332137,1,0,0:0:0:1:
182,192,332243,1,0,0:0:0:1:
36,192,332348,1,0,0:0:0:1:
329,192,332348,1,0,0:0:0:1:
256,192,332348,1,0,0:0:0:1:
109,192,332454,1,0,0:0:0:1:
402,192,332560,1,0,0:0:0:1:
475,192,332560,1,0,0:0:0:1:
182,192,332560,1,0,0:0:0:1:
256,192,332560,1,0,0:0:0:1:
109,192,332665,1,0,0:0:0:1:
475,192,332771,1,0,0:0:0:1:
36,192,332771,1,0,0:0:0:1:
329,192,332771,1,0,0:0:0:1:
256,192,332876,1,0,0:0:0:1:
402,192,332982,1,0,0:0:0:1:
182,192,332982,1,0,0:0:0:1:
329,192,333088,1,0,0:0:0:1:
475,192,333193,1,0,0:0:0:1:
256,192,333193,1,0,0:0:0:1:
109,192,333193,1,0,0:0:0:1:
182,192,333299,1,0,0:0:0:1:
402,192,333405,1,0,0:0:0:1:
36,192,333405,1,0,0:0:0:1:
109,192,333405,1,0,0:0:0:1:
329,192,333405,1,0,0:0:0:1:
256,192,333510,1,0,0:0:0:1:
475,192,333616,1,0,0:0:0:1:
329,192,333616,1,0,0:0:0:1:
182,192,333616,1,0,0:0:0:1:
109,192,333722,1,0,0:0:0:1:
402,192,333827,1,0,0:0:0:1:
182,192,333827,1,0,0:0:0:1:
329,192,333933,1,0,0:0:0:1:
475,192,334038,1,0,0:0:0:1:
256,192,334038,1,0,0:0:0:1:
109,192,334038,1,0,0:0:0:1:
182,192,334144,1,0,0:0:0:1:
402,192,334250,1,0,0:0:0:1:
36,192,334250,1,0,0:0:0:1:
109,192,334250,1,0,0:0:0:1:
329,192,334250,1,0,0:0:0:1:
256,192,334355,1,0,0:0:0:1:
475,192,334461,1,0,0:0:0:1:
36,192,334461,1,0,0:0:0:1:
182,192,334461,1,0,0:0:0:1:
329,192,334567,1,0,0:0:0:1:
402,192,334672,1,0,0:0:0:1:
109,192,334672,1,0,0:0:0:1:
329,192,334778,1,0,0:0:0:1:
475,192,334884,1,0,0:0:0:1:
256,192,334884,1,0,0:0:0:1:
182,192,334884,1,0,0:0:0:1:
402,192,334989,1,0,0:0:0:1:
329,192,335095,1,0,0:0:0:1:
36,192,335095,1,0,0:0:0:1:
109,192,335095,1,0,0:0:0:1:
256,192,335095,1,0,0:0:0:1:
402,192,335200,1,0,0:0:0:1:
475,192,335306,1,0,0:0:0:1:
36,192,335306,1,0,0:0:0:1:
182,192,335306,1,0,0:0:0:1:
329,192,335412,1,0,0:0:0:1:
402,192,335517,1,0,0:0:0:1:
109,192,335517,1,0,0:0:0:1:
329,192,335623,1,0,0:0:0:1:
475,192,335729,1,0,0:0:0:1:
256,192,335729,1,0,0:0:0:1:
182,192,335729,1,0,0:0:0:1:
402,192,335834,1,0,0:0:0:1:
329,192,335940,1,0,0:0:0:1:
36,192,335940,1,0,0:0:0:1:
109,192,335940,1,0,0:0:0:1:
256,192,335940,1,0,0:0:0:1:
475,192,336046,1,0,0:0:0:1:
402,192,336151,1,0,0:0:0:1:
36,192,336151,1,0,0:0:0:1:
329,192,336151,1,0,0:0:0:1:
109,192,336151,1,0,0:0:0:1:
256,192,336151,1,0,0:0:0:1:
182,192,336257,1,0,0:0:0:1:
329,192,336362,1,0,0:0:0:1:
182,192,336574,1,0,0:0:0:1:
329,192,336679,1,0,0:0:0:1:
182,192,336891,1,0,0:0:0:1:
329,192,336996,1,0,0:0:0:1:
182,192,337207,1,0,0:0:0:1:
329,192,337313,1,0,0:0:0:1:
182,192,337524,1,0,0:0:0:1:
329,192,337630,1,0,0:0:0:1:
182,192,337841,1,0,0:0:0:1:
329,192,337947,1,0,0:0:0:1:
182,192,338158,1,0,0:0:0:1:
329,192,338264,1,0,0:0:0:1:
109,192,338475,1,0,0:0:0:1:
256,192,338581,1,0,0:0:0:1:
109,192,338792,1,0,0:0:0:1:
256,192,338898,1,0,0:0:0:1:
109,192,339109,1,0,0:0:0:1:
256,192,339215,1,0,0:0:0:1:
109,192,339320,1,0,0:0:0:1:
402,192,339531,1,0,0:0:0:1:
475,192,339637,1,0,0:0:0:1:
329,192,339743,1,0,0:0:0:1:
475,192,339954,1,0,0:0:0:1:
329,192,340060,1,0,0:0:0:1:
475,192,340271,1,0,0:0:0:1:
329,192,340376,1,0,0:0:0:1:
475,192,340588,1,0,0:0:0:1:
402,192,340693,1,0,0:0:0:1:
109,192,340905,1,0,0:0:0:1:
256,192,341010,1,0,0:0:0:1:
109,192,341222,1,0,0:0:0:1:
256,192,341327,1,0,0:0:0:1:
109,192,341538,1,0,0:0:0:1:
256,192,341644,1,0,0:0:0:1:
109,192,341855,1,0,0:0:0:1:
256,192,341961,1,0,0:0:0:1:
182,192,342172,1,0,0:0:0:1:
329,192,342278,1,0,0:0:0:1:
256,192,342489,1,0,0:0:0:1:
402,192,342595,1,0,0:0:0:1:
256,192,342700,1,0,0:0:0:1:
36,192,342912,1,0,0:0:0:1:
475,192,342912,1,0,0:0:0:1:
402,192,342912,1,0,0:0:0:1:
109,192,342912,1,0,0:0:0:1:
182,192,342912,1,0,0:0:0:1:
329,192,343017,1,0,0:0:0:1:
182,192,343123,1,0,0:0:0:1:
329,192,343334,1,0,0:0:0:1:
182,192,343440,1,0,0:0:0:1:
329,192,343651,1,0,0:0:0:1:
182,192,343757,1,0,0:0:0:1:
329,192,343968,1,0,0:0:0:1:
182,192,344074,1,0,0:0:0:1:
329,192,344285,1,0,0:0:0:1:
182,192,344391,1,0,0:0:0:1:
329,192,344602,1,0,0:0:0:1:
182,192,344707,1,0,0:0:0:1:
329,192,344919,1,0,0:0:0:1:
182,192,345024,1,0,0:0:0:1:
329,192,345236,1,0,0:0:0:1:
182,192,345341,1,0,0:0:0:1:
402,192,345553,1,0,0:0:0:1:
256,192,345658,1,0,0:0:0:1:
475,192,345869,1,0,0:0:0:1:
329,192,345975,1,0,0:0:0:1:
475,192,346081,1,0,0:0:0:1:
182,192,346292,1,0,0:0:0:1:
36,192,346398,1,0,0:0:0:1:
182,192,346503,1,0,0:0:0:1:
36,192,346715,1,0,0:0:0:1:
182,192,346820,1,0,0:0:0:1:
36,192,347031,1,0,0:0:0:1:
182,192,347137,1,0,0:0:0:1:
36,192,347348,1,0,0:0:0:1:
182,192,347454,1,0,0:0:0:1:
36,192,347665,1,0,0:0:0:1:
182,192,347771,1,0,0:0:0:1:
475,192,347982,1,0,0:0:0:1:
329,192,348088,1,0,0:0:0:1:
402,192,348299,1,0,0:0:0:1:
256,192,348405,1,0,0:0:0:1:
329,192,348616,1,0,0:0:0:1:
182,192,348722,1,0,0:0:0:1:
256,192,348933,1,0,0:0:0:1:
109,192,349038,1,0,0:0:0:1:
182,192,349250,1,0,0:0:0:1:
36,192,349355,1,0,0:0:0:1:
182,192,349461,1,0,0:0:0:1:
36,192,349672,1,0,0:0:0:1:
475,192,349672,1,0,0:0:0:1:
109,192,349672,1,0,0:0:0:1:
329,192,349672,1,0,0:0:0:1:
256,192,349725,1,0,0:0:0:1:
182,192,349778,1,0,0:0:0:1:
402,192,349831,1,0,0:0:0:1:
36,192,349884,1,0,0:0:0:1:
329,192,349884,1,0,0:0:0:1:
109,192,349936,1,0,0:0:0:1:
256,192,349989,1,0,0:0:0:1:
475,192,350042,1,0,0:0:0:1:
36,192,350095,1,0,0:0:0:1:
182,192,350095,1,0,0:0:0:1:
329,192,350148,1,0,0:0:0:1:
256,192,350200,1,0,0:0:0:1:
475,192,350253,1,0,0:0:0:1:
329,192,350306,1,0,0:0:0:1:
109,192,350306,1,0,0:0:0:1:
182,192,350359,1,0,0:0:0:1:
402,192,350412,1,0,0:0:0:1:
36,192,350465,1,0,0:0:0:1:
256,192,350517,1,0,0:0:0:1:
109,192,350517,1,0,0:0:0:1:
329,192,350570,1,0,0:0:0:1:
182,192,350623,1,0,0:0:0:1:
402,192,350676,1,0,0:0:0:1:
475,192,350729,1,0,0:0:0:1:
109,192,350729,1,0,0:0:0:1:
256,192,350781,1,0,0:0:0:1:
329,192,350834,1,0,0:0:0:1:
182,192,350887,1,0,0:0:0:1:
36,192,350940,1,0,0:0:0:1:
402,192,350940,1,0,0:0:0:1:
256,192,350993,1,0,0:0:0:1:
329,192,351046,1,0,0:0:0:1:
182,192,351098,1,0,0:0:0:1:
475,192,351151,1,0,0:0:0:1:
36,192,351151,1,0,0:0:0:1:
402,192,351204,1,0,0:0:0:1:
329,192,351257,1,0,0:0:0:1:
182,192,351310,1,0,0:0:0:1:
475,192,351362,1,0,0:0:0:1:
109,192,351362,1,0,0:0:0:1:
256,192,351415,1,0,0:0:0:1:
36,192,351468,1,0,0:0:0:1:
329,192,351521,1,0,0:0:0:1:
402,192,351574,1,0,0:0:0:1:
109,192,351574,1,0,0:0:0:1:
256,192,351626,1,0,0:0:0:1:
182,192,351679,1,0,0:0:0:1:
475,192,351785,1,0,0:0:0:1:
329,192,351785,1,0,0:0:0:1:
256,192,351838,1,0,0:0:0:1:
109,192,351891,1,0,0:0:0:1:
402,192,351943,1,0,0:0:0:1:
475,192,351996,1,0,0:0:0:1:
182,192,351996,1,0,0:0:0:1:
256,192,352049,1,0,0:0:0:1:
36,192,352102,1,0,0:0:0:1:
329,192,352155,1,0,0:0:0:1:
402,192,352207,1,0,0:0:0:1:
182,192,352207,1,0,0:0:0:1:
475,192,352260,1,0,0:0:0:1:
256,192,352313,1,0,0:0:0:1:
36,192,352366,1,0,0:0:0:1:
329,192,352419,1,0,0:0:0:1:
109,192,352419,1,0,0:0:0:1:
402,192,352472,1,0,0:0:0:1:
182,192,352524,1,0,0:0:0:1:
256,192,352577,1,0,0:0:0:1:
36,192,352630,1,0,0:0:0:1:
329,192,352630,1,0,0:0:0:0:
182,192,352683,1,0,0:0:0:1:
402,192,352736,1,0,0:0:0:1:
256,192,352788,1,0,0:0:0:1:
475,192,352841,1,0,0:0:0:1:
109,192,352841,1,0,0:0:0:1:
182,192,352894,1,0,0:0:0:1:
329,192,352947,1,0,0:0:0:1:
402,192,353000,1,0,0:0:0:1:
475,192,353053,1,0,0:0:0:1:
36,192,353053,1,0,0:0:0:1:
182,192,353105,1,0,0:0:0:1:
329,192,353158,1,0,0:0:0:1:
109,192,353211,1,0,0:0:0:1:
475,192,353264,1,0,0:0:0:1:
182,192,353264,1,0,0:0:0:1:
402,192,353317,1,0,0:0:0:1:
256,192,353369,1,0,0:0:0:1:
36,192,353422,1,0,0:0:0:1:
329,192,353475,1,0,0:0:0:1:
109,192,353475,1,0,0:0:0:1:
182,192,353528,1,0,0:0:0:1:
256,192,353581,1,0,0:0:0:1:
36,192,353634,1,0,0:0:0:1:
402,192,353686,1,0,0:0:0:1:
182,192,353686,1,0,0:0:0:1:
329,192,353739,1,0,0:0:0:1:
109,192,353792,1,0,0:0:0:1:
475,192,353845,1,0,0:0:0:1:
402,192,353898,1,0,0:0:0:1:
256,192,353898,1,0,0:0:0:1:
182,192,353950,1,0,0:0:0:1:
329,192,354003,1,0,0:0:0:1:
109,192,354056,1,0,0:0:0:1:
36,192,354109,1,0,0:0:0:1:
402,192,354109,1,0,0:0:0:1:
256,192,354162,1,0,0:0:0:1:
182,192,354215,1,0,0:0:0:1:
329,192,354267,1,0,0:0:0:1:
475,192,354320,1,0,0:0:0:1:
109,192,354320,1,0,0:0:0:1:
256,192,354373,1,0,0:0:0:1:
182,192,354426,1,0,0:0:0:1:
329,192,354479,1,0,0:0:0:1:
475,192,354531,1,0,0:0:0:1:
36,192,354531,1,0,0:0:0:1:
109,192,354584,1,0,0:0:0:1:
256,192,354637,1,0,0:0:0:1:
182,192,354690,1,0,0:0:0:1:
36,192,354743,1,0,0:0:0:1:
402,192,354743,1,0,0:0:0:1:
329,192,354796,1,0,0:0:0:0:
475,192,354848,1,0,0:0:0:1:
182,192,354901,1,0,0:0:0:1:
402,192,354954,1,0,0:0:0:1:
109,192,354954,1,0,0:0:0:1:
256,192,355007,1,0,0:0:0:1:
329,192,355060,1,0,0:0:0:1:
475,192,355165,1,0,0:0:0:1:
36,192,355165,1,0,0:0:0:1:
182,192,355218,1,0,0:0:0:0:
402,192,355271,1,0,0:0:0:1:
109,192,355324,1,0,0:0:0:1:
36,192,355376,1,0,0:0:0:1:
329,192,355376,1,0,0:0:0:1:
256,192,355429,1,0,0:0:0:1:
475,192,355482,1,0,0:0:0:1:
182,192,355535,1,0,0:0:0:1:
329,192,355588,1,0,0:0:0:1:
109,192,355588,1,0,0:0:0:1:
36,192,355641,1,0,0:0:0:1:
256,192,355693,1,0,0:0:0:1:
475,192,355746,1,0,0:0:0:1:
402,192,355799,1,0,0:0:0:1:
182,192,355799,1,0,0:0:0:1:
109,192,355852,1,0,0:0:0:1:
329,192,355905,1,0,0:0:0:1:
256,192,355957,1,0,0:0:0:1:
36,192,356010,1,0,0:0:0:1:
182,192,356010,1,0,0:0:0:1:
475,192,356063,1,0,0:0:0:0:
109,192,356116,1,0,0:0:0:1:
256,192,356169,1,0,0:0:0:1:
36,192,356222,1,0,0:0:0:1:
402,192,356222,1,0,0:0:0:1:
329,192,356274,1,0,0:0:0:1:
182,192,356327,1,0,0:0:0:1:
109,192,356380,1,0,0:0:0:1:
475,192,356433,1,0,0:0:0:1:
36,192,356433,1,0,0:0:0:1:
256,192,356486,1,0,0:0:0:0:
182,192,356538,1,0,0:0:0:1:
402,192,356591,1,0,0:0:0:1:
36,192,356644,1,0,0:0:0:1:
329,192,356644,1,0,0:0:0:1:
109,192,356697,1,0,0:0:0:1:
256,192,356750,1,0,0:0:0:1:
475,192,356803,1,0,0:0:0:1:
36,192,356855,1,0,0:0:0:1:
182,192,356855,1,0,0:0:0:1:
402,192,356908,1,0,0:0:0:0:
256,192,356961,1,0,0:0:0:1:
475,192,357014,1,0,0:0:0:1:
329,192,357067,1,0,0:0:0:1:
109,192,357067,1,0,0:0:0:1:
182,192,357119,1,0,0:0:0:1:
402,192,357172,1,0,0:0:0:1:
36,192,357225,1,0,0:0:0:1:
256,192,357278,1,0,0:0:0:1:
109,192,357278,1,0,0:0:0:1:
329,192,357331,1,0,0:0:0:1:
182,192,357384,1,0,0:0:0:1:
402,192,357436,1,0,0:0:0:1:
475,192,357489,1,0,0:0:0:1:
109,192,357489,1,0,0:0:0:1:
256,192,357542,1,0,0:0:0:1:
329,192,357595,1,0,0:0:0:1:
182,192,357648,1,0,0:0:0:0:
36,192,357700,1,0,0:0:0:1:
475,192,357700,1,0,0:0:0:0:
402,192,357753,1,0,0:0:0:0:
256,192,357806,1,0,0:0:0:0:
182,192,357859,1,0,0:0:0:1:
475,192,357912,1,0,0:0:0:1:
109,192,357912,1,0,0:0:0:1:
402,192,357965,1,0,0:0:0:1:
256,192,358017,1,0,0:0:0:1:
329,192,358070,1,0,0:0:0:1:
475,192,358123,1,0,0:0:0:1:
109,192,358123,1,0,0:0:0:1:
182,192,358176,1,0,0:0:0:0:
36,192,358229,1,0,0:0:0:1:
329,192,358281,1,0,0:0:0:1:
402,192,358334,1,0,0:0:0:1:
109,192,358334,1,0,0:0:0:1:
256,192,358387,1,0,0:0:0:1:
182,192,358440,1,0,0:0:0:1:
36,192,358546,1,0,0:0:0:1:
329,192,358546,1,0,0:0:0:1:
256,192,358598,1,0,0:0:0:1:
109,192,358651,1,0,0:0:0:1:
402,192,358704,1,0,0:0:0:1:
475,192,358757,1,0,0:0:0:1:
182,192,358757,1,0,0:0:0:1:
256,192,358810,1,0,0:0:0:1:
36,192,358862,1,0,0:0:0:1:
329,192,358915,1,0,0:0:0:1:
402,192,358968,1,0,0:0:0:1:
109,192,358968,1,0,0:0:0:1:
475,192,359021,1,0,0:0:0:1:
256,192,359074,1,0,0:0:0:1:
36,192,359126,1,0,0:0:0:1:
329,192,359179,1,0,0:0:0:1:
109,192,359179,1,0,0:0:0:1:
402,192,359232,1,0,0:0:0:1:
182,192,359285,1,0,0:0:0:1:
256,192,359338,1,0,0:0:0:1:
36,192,359391,1,0,0:0:0:1:
329,192,359391,1,0,0:0:0:0:
109,192,359443,1,0,0:0:0:0:
402,192,359496,1,0,0:0:0:1:
256,192,359549,1,0,0:0:0:1:
475,192,359602,1,0,0:0:0:1:
36,192,359602,1,0,0:0:0:0:
182,192,359655,1,0,0:0:0:1:
329,192,359707,1,0,0:0:0:1:
402,192,359760,1,0,0:0:0:1:
36,192,359813,1,0,0:0:0:1:
475,192,359813,1,0,0:0:0:0:
109,192,359866,1,0,0:0:0:1:
182,192,359919,1,0,0:0:0:1:
402,192,359972,1,0,0:0:0:0:
36,192,360024,1,0,0:0:0:1:
329,192,360024,1,0,0:0:0:0:
256,192,360077,1,0,0:0:0:0:
109,192,360130,1,0,0:0:0:1:
182,192,360183,1,0,0:0:0:1:
475,192,360236,1,0,0:0:0:1:
402,192,360236,1,0,0:0:0:1:
329,192,360288,1,0,0:0:0:1:
256,192,360341,1,0,0:0:0:1:
36,192,360394,1,0,0:0:0:1:
182,192,360447,1,0,0:0:0:1:
109,192,360447,1,0,0:0:0:1:
329,192,360500,1,0,0:0:0:1:
402,192,360553,1,0,0:0:0:1:
475,192,360605,1,0,0:0:0:1:
36,192,360658,1,0,0:0:0:1:
182,192,360658,1,0,0:0:0:1:
256,192,360711,1,0,0:0:0:1:
329,192,360764,1,0,0:0:0:1:
475,192,360817,1,0,0:0:0:1:
36,192,360869,1,0,0:0:0:1:
109,192,360869,1,0,0:0:0:1:
402,192,360922,1,0,0:0:0:1:
329,192,360975,1,0,0:0:0:1:
182,192,361028,1,0,0:0:0:1:
475,192,361081,1,0,0:0:0:1:
109,192,361081,1,0,0:0:0:1:
36,192,361134,1,0,0:0:0:1:
402,192,361186,1,0,0:0:0:1:
256,192,361239,1,0,0:0:0:1:
182,192,361292,1,0,0:0:0:1:
109,192,361292,1,0,0:0:0:0:
475,192,361345,1,0,0:0:0:1:
329,192,361398,1,0,0:0:0:1:
256,192,361450,1,0,0:0:0:1:
182,192,361503,1,0,0:0:0:1:
36,192,361503,1,0,0:0:0:0:
402,192,361556,1,0,0:0:0:0:
109,192,361609,1,0,0:0:0:1:
256,192,361662,1,0,0:0:0:1:
475,192,361715,1,0,0:0:0:1:
36,192,361715,1,0,0:0:0:1:
329,192,361767,1,0,0:0:0:1:
182,192,361820,1,0,0:0:0:1:
402,192,361873,1,0,0:0:0:1:
256,192,361926,1,0,0:0:0:1:
109,192,361926,1,0,0:0:0:1:
329,192,361979,1,0,0:0:0:1:
475,192,362031,1,0,0:0:0:1:
36,192,362084,1,0,0:0:0:1:
256,192,362137,1,0,0:0:0:1:
182,192,362137,1,0,0:0:0:1:
402,192,362190,1,0,0:0:0:1:
475,192,362243,1,0,0:0:0:1:
36,192,362296,1,0,0:0:0:1:
256,192,362348,1,0,0:0:0:1:
109,192,362348,1,0,0:0:0:1:
402,192,362401,1,0,0:0:0:1:
475,192,362454,1,0,0:0:0:1:
329,192,362507,1,0,0:0:0:1:
36,192,362560,1,0,0:0:0:1:
182,192,362560,1,0,0:0:0:1:
256,192,362612,1,0,0:0:0:1:
402,192,362665,1,0,0:0:0:1:
475,192,362718,1,0,0:0:0:1:
182,192,362771,1,0,0:0:0:1:
109,192,362771,1,0,0:0:0:0:
329,192,362824,1,0,0:0:0:1:
475,192,362876,1,0,0:0:0:1:
36,192,362929,1,0,0:0:0:1:
109,192,362982,1,0,0:0:0:1:
402,192,362982,1,0,0:0:0:0:
182,192,363035,1,0,0:0:0:1:
256,192,363088,1,0,0:0:0:1:
36,192,363141,1,0,0:0:0:1:
475,192,363193,1,0,0:0:0:1:
402,192,363193,1,0,0:0:0:1:
109,192,363246,1,0,0:0:0:1:
329,192,363299,1,0,0:0:0:1:
256,192,363352,1,0,0:0:0:1:
475,192,363405,1,0,0:0:0:1:
182,192,363405,1,0,0:0:0:1:
109,192,363457,1,0,0:0:0:1:
402,192,363510,1,0,0:0:0:1:
329,192,363563,1,0,0:0:0:1:
36,192,363616,1,0,0:0:0:1:
256,192,363616,1,0,0:0:0:1:
182,192,363669,1,0,0:0:0:1:
109,192,363722,1,0,0:0:0:1:
475,192,363774,1,0,0:0:0:1:
402,192,363827,1,0,0:0:0:1:
256,192,363827,1,0,0:0:0:1:
182,192,363880,1,0,0:0:0:1:
36,192,363933,1,0,0:0:0:1:
329,192,363986,1,0,0:0:0:1:
256,192,364038,1,0,0:0:0:1:
109,192,364038,1,0,0:0:0:1:
402,192,364091,1,0,0:0:0:1:
182,192,364144,1,0,0:0:0:1:
36,192,364197,1,0,0:0:0:1:
475,192,364250,1,0,0:0:0:1:
329,192,364250,1,0,0:0:0:1:
256,192,364303,1,0,0:0:0:1:
109,192,364355,1,0,0:0:0:1:
182,192,364408,1,0,0:0:0:1:
402,192,364461,1,0,0:0:0:1:
475,192,364461,1,0,0:0:0:1:
329,192,364514,1,0,0:0:0:1:
256,192,364567,1,0,0:0:0:1:
109,192,364619,1,0,0:0:0:1:
36,192,364672,1,0,0:0:0:1:
475,192,364672,1,0,0:0:0:1:
329,192,364725,1,0,0:0:0:1:
182,192,364778,1,0,0:0:0:1:
256,192,364831,1,0,0:0:0:1:
329,192,364884,1,0,0:0:0:1:
36,192,364884,1,0,0:0:0:1:
109,192,364936,1,0,0:0:0:1:
182,192,364989,1,0,0:0:0:1:
256,192,365042,1,0,0:0:0:1:
475,192,365095,1,0,0:0:0:1:
36,192,365095,1,0,0:0:0:1:
402,192,365148,1,0,0:0:0:1:
329,192,365200,1,0,0:0:0:1:
182,192,365253,1,0,0:0:0:1:
475,192,365306,1,0,0:0:0:1:
109,192,365306,1,0,0:0:0:1:
256,192,365359,1,0,0:0:0:1:
402,192,365412,1,0,0:0:0:1:
36,192,365465,1,0,0:0:0:1:
329,192,365517,1,0,0:0:0:1:
182,192,365517,1,0,0:0:0:1:
475,192,365570,1,0,0:0:0:1:
109,192,365623,1,0,0:0:0:1:
256,192,365676,1,0,0:0:0:1:
329,192,365729,1,0,0:0:0:1:
402,192,365729,1,0,0:0:0:1:
182,192,365781,1,0,0:0:0:1:
36,192,365834,1,0,0:0:0:1:
475,192,365887,1,0,0:0:0:1:
109,192,365940,1,0,0:0:0:1:
402,192,365940,1,0,0:0:0:1:
329,192,365993,1,0,0:0:0:1:
256,192,366046,1,0,0:0:0:1:
36,192,366098,1,0,0:0:0:1:
475,192,366151,1,0,0:0:0:1:
182,192,366151,1,0,0:0:0:1:
329,192,366204,1,0,0:0:0:1:
109,192,366257,1,0,0:0:0:1:
256,192,366310,1,0,0:0:0:1:
36,192,366362,1,0,0:0:0:1:
182,192,366362,1,0,0:0:0:1:
329,192,366415,1,0,0:0:0:1:
109,192,366468,1,0,0:0:0:1:
402,192,366468,1,0,0:0:0:1:
475,192,366521,1,0,0:0:0:1:
182,192,366574,1,0,0:0:0:1:
36,192,366574,1,0,0:0:0:1:
256,192,366626,1,0,0:0:0:1:
329,192,366679,1,0,0:0:0:1:
109,192,366732,1,0,0:0:0:1:
475,192,366785,1,0,0:0:0:1:
182,192,366785,1,0,0:0:0:1:
256,192,366838,1,0,0:0:0:1:
402,192,366891,1,0,0:0:0:1:
329,192,366943,1,0,0:0:0:1:
36,192,366996,1,0,0:0:0:1:
182,192,366996,1,0,0:0:0:1:
475,192,367049,1,0,0:0:0:1:
109,192,367102,1,0,0:0:0:1:
402,192,367155,1,0,0:0:0:1:
329,192,367207,1,0,0:0:0:1:
256,192,367207,1,0,0:0:0:1:
182,192,367260,1,0,0:0:0:1:
475,192,367313,1,0,0:0:0:1:
402,192,367366,1,0,0:0:0:1:
109,192,367419,1,0,0:0:0:1:
36,192,367419,1,0,0:0:0:1:
256,192,367472,1,0,0:0:0:1:
329,192,367524,1,0,0:0:0:1:
182,192,367577,1,0,0:0:0:1:
475,192,367630,1,0,0:0:0:1:
402,192,367630,1,0,0:0:0:1:
36,192,367683,1,0,0:0:0:1:
109,192,367736,1,0,0:0:0:0:
182,192,367788,1,0,0:0:0:0:
402,192,367841,1,0,0:0:0:1:
475,192,367841,1,0,0:0:0:0:
329,192,367894,1,0,0:0:0:1:
256,192,367947,1,0,0:0:0:1:
182,192,368000,1,0,0:0:0:1:
36,192,368053,1,0,0:0:0:1:
109,192,368053,1,0,0:0:0:1:
475,192,368105,1,0,0:0:0:1:
402,192,368158,1,0,0:0:0:1:
256,192,368211,1,0,0:0:0:1:
36,192,368264,1,0,0:0:0:1:
182,192,368264,1,0,0:0:0:1:
475,192,368317,1,0,0:0:0:1:
329,192,368369,1,0,0:0:0:1:
182,192,368422,1,0,0:0:0:1:
109,192,368475,1,0,0:0:0:1:
36,192,368475,1,0,0:0:0:1:
402,192,368528,1,0,0:0:0:1:
256,192,368581,1,0,0:0:0:1:
182,192,368634,1,0,0:0:0:1:
36,192,368686,1,0,0:0:0:1:
475,192,368686,1,0,0:0:0:1:
329,192,368739,1,0,0:0:0:1:
109,192,368792,1,0,0:0:0:1:
182,192,368845,1,0,0:0:0:0:
402,192,368898,1,0,0:0:0:1:
256,192,368898,1,0,0:0:0:0:
36,192,368950,1,0,0:0:0:1:
109,192,369003,1,0,0:0:0:1:
182,192,369056,1,0,0:0:0:1:
475,192,369109,1,0,0:0:0:1:
329,192,369109,1,0,0:0:0:1:
36,192,369162,1,0,0:0:0:1:
256,192,369215,1,0,0:0:0:1:
182,192,369267,1,0,0:0:0:1:
109,192,369320,1,0,0:0:0:1:
402,192,369320,1,0,0:0:0:1:
329,192,369373,1,0,0:0:0:1:
256,192,369426,1,0,0:0:0:1:
36,192,369479,1,0,0:0:0:1:
475,192,369531,1,0,0:0:0:1:
109,192,369531,1,0,0:0:0:1:
329,192,369584,1,0,0:0:0:1:
182,192,369637,1,0,0:0:0:1:
36,192,369690,1,0,0:0:0:1:
402,192,369743,1,0,0:0:0:1:
256,192,369743,1,0,0:0:0:1:
109,192,369796,1,0,0:0:0:1:
329,192,369848,1,0,0:0:0:1:
475,192,369901,1,0,0:0:0:1:
36,192,369954,1,0,0:0:0:1:
182,192,369954,1,0,0:0:0:1:
402,192,370007,1,0,0:0:0:1:
109,192,370060,1,0,0:0:0:1:
256,192,370112,1,0,0:0:0:1:
182,192,370165,1,0,0:0:0:1:
329,192,370165,1,0,0:0:0:1:
402,192,370218,1,0,0:0:0:1:
36,192,370271,1,0,0:0:0:1:
109,192,370324,1,0,0:0:0:1:
182,192,370376,1,0,0:0:0:1:
329,192,370376,1,0,0:0:0:0:
475,192,370429,1,0,0:0:0:1:
256,192,370482,1,0,0:0:0:1:
109,192,370535,1,0,0:0:0:0:
182,192,370588,1,0,0:0:0:0:
329,192,370588,1,0,0:0:0:0:
475,192,370641,1,0,0:0:0:0:
36,192,370693,1,0,0:0:0:1:
182,192,370746,1,0,0:0:0:1:
402,192,370799,1,0,0:0:0:1:
256,192,370799,1,0,0:0:0:1:
109,192,370852,1,0,0:0:0:1:
329,192,370905,1,0,0:0:0:1:
475,192,370957,1,0,0:0:0:1:
36,192,371010,1,0,0:0:0:1:
182,192,371010,1,0,0:0:0:1:
402,192,371063,1,0,0:0:0:1:
329,192,371116,1,0,0:0:0:1:
256,192,371169,1,0,0:0:0:1:
109,192,371222,1,0,0:0:0:1:
475,192,371222,1,0,0:0:0:0:
36,192,371274,1,0,0:0:0:1:
329,192,371327,1,0,0:0:0:0:
256,192,371380,1,0,0:0:0:1:
182,192,371433,1,0,0:0:0:1:
109,192,371433,1,0,0:0:0:1:
402,192,371486,1,0,0:0:0:0:
36,192,371538,1,0,0:0:0:1:
256,192,371591,1,0,0:0:0:1:
402,192,371644,1,0,0:0:0:1:
182,192,371644,1,0,0:0:0:1:
329,192,371697,1,0,0:0:0:1:
109,192,371750,1,0,0:0:0:1:
256,192,371803,1,0,0:0:0:1:
475,192,371855,1,0,0:0:0:1:
36,192,371855,1,0,0:0:0:1:
329,192,371908,1,0,0:0:0:1:
182,192,371961,1,0,0:0:0:1:
402,192,372014,1,0,0:0:0:1:
256,192,372067,1,0,0:0:0:1:
109,192,372067,1,0,0:0:0:1:
329,192,372119,1,0,0:0:0:1:
36,192,372172,1,0,0:0:0:1:
182,192,372225,1,0,0:0:0:1:
402,192,372278,1,0,0:0:0:1:
256,192,372278,1,0,0:0:0:1:
475,192,372331,1,0,0:0:0:1:
329,192,372384,1,0,0:0:0:1:
36,192,372436,1,0,0:0:0:1:
256,192,372489,1,0,0:0:0:1:
182,192,372489,1,0,0:0:0:1:
402,192,372542,1,0,0:0:0:1:
109,192,372595,1,0,0:0:0:1:
329,192,372648,1,0,0:0:0:1:
475,192,372700,1,0,0:0:0:1:
182,192,372700,1,0,0:0:0:1:
256,192,372753,1,0,0:0:0:1:
36,192,372806,1,0,0:0:0:1:
402,192,372859,1,0,0:0:0:1:
329,192,372912,1,0,0:0:0:1:
109,192,372912,1,0,0:0:0:1:
256,192,372965,1,0,0:0:0:1:
475,192,373017,1,0,0:0:0:1:
36,192,373070,1,0,0:0:0:1:
402,192,373123,1,0,0:0:0:1:
109,192,373123,1,0,0:0:0:1:
182,192,373176,1,0,0:0:0:1:
256,192,373229,1,0,0:0:0:1:
36,192,373281,1,0,0:0:0:1:
475,192,373334,1,0,0:0:0:1:
329,192,373334,1,0,0:0:0:1:
109,192,373334,1,0,0:0:0:1:
182,192,373387,1,0,0:0:0:1:
402,192,373440,1,0,0:0:0:1:
256,192,373493,1,0,0:0:0:1:
475,192,373546,1,0,0:0:0:1:
36,192,373546,1,0,0:0:0:1:
109,192,373598,1,0,0:0:0:1:
329,192,373651,1,0,0:0:0:1:
402,192,373704,1,0,0:0:0:1:
36,192,373757,1,0,0:0:0:1:
182,192,373757,1,0,0:0:0:1:
475,192,373810,1,0,0:0:0:1:
109,192,373862,1,0,0:0:0:1:
329,192,373915,1,0,0:0:0:1:
36,192,373968,1,0,0:0:0:1:
256,192,373968,1,0,0:0:0:1:
182,192,374021,1,0,0:0:0:1:
475,192,374074,1,0,0:0:0:1:
329,192,374126,1,0,0:0:0:1:
256,192,374179,1,0,0:0:0:1:
109,192,374179,1,0,0:0:0:1:
402,192,374232,1,0,0:0:0:1:
182,192,374285,1,0,0:0:0:1:
36,192,374338,1,0,0:0:0:1:
475,192,374391,1,0,0:0:0:1:
329,192,374391,1,0,0:0:0:1:
109,192,374443,1,0,0:0:0:1:
182,192,374496,1,0,0:0:0:1:
256,192,374549,1,0,0:0:0:1:
36,192,374602,1,0,0:0:0:1:
402,192,374602,1,0,0:0:0:1:
475,192,374655,1,0,0:0:0:1:
109,192,374707,1,0,0:0:0:1:
256,192,374760,1,0,0:0:0:1:
402,192,374813,1,0,0:0:0:1:
329,192,374813,1,0,0:0:0:1:
182,192,374866,1,0,0:0:0:0:
36,192,374919,1,0,0:0:0:0:
256,192,374972,1,0,0:0:0:1:
329,192,375024,1,0,0:0:0:1:
109,192,375024,1,0,0:0:0:1:
182,192,375077,1,0,0:0:0:1:
402,192,375130,1,0,0:0:0:1:
256,192,375183,1,0,0:0:0:1:
475,192,375236,1,0,0:0:0:1:
36,192,375236,1,0,0:0:0:1:
182,192,375288,1,0,0:0:0:1:
329,192,375341,1,0,0:0:0:1:
109,192,375394,1,0,0:0:0:1:
402,192,375447,1,0,0:0:0:1:
256,192,375447,1,0,0:0:0:1:
36,192,375500,1,0,0:0:0:0:
475,192,375553,1,0,0:0:0:1:
329,192,375605,1,0,0:0:0:1:
109,192,375658,1,0,0:0:0:1:
256,192,375658,1,0,0:0:0:0:
36,192,375711,1,0,0:0:0:1:
182,192,375764,1,0,0:0:0:1:
475,192,375817,1,0,0:0:0:1:
329,192,375869,1,0,0:0:0:1:
256,192,375869,1,0,0:0:0:1:
109,192,375922,1,0,0:0:0:1:
402,192,375975,1,0,0:0:0:1:
182,192,376028,1,0,0:0:0:1:
36,192,376081,1,0,0:0:0:1:
329,192,376081,1,0,0:0:0:1:
256,192,376134,1,0,0:0:0:1:
475,192,376186,1,0,0:0:0:1:
109,192,376239,1,0,0:0:0:1:
402,192,376292,1,0,0:0:0:1:
182,192,376292,1,0,0:0:0:1:
256,192,376345,1,0,0:0:0:1:
36,192,376398,1,0,0:0:0:1:
475,192,376450,1,0,0:0:0:1:
402,192,376503,1,0,0:0:0:1:
109,192,376503,1,0,0:0:0:1:
329,192,376556,1,0,0:0:0:1:
36,192,376609,1,0,0:0:0:1:
256,192,376609,1,0,0:0:0:1:
475,192,376662,1,0,0:0:0:1:
109,192,376715,1,0,0:0:0:1:
182,192,376715,1,0,0:0:0:1:
256,192,376820,1,0,0:0:0:1:
475,192,376926,1,0,0:0:0:1:
329,192,376926,1,0,0:0:0:1:
109,192,376926,1,0,0:0:0:1:
182,192,377031,1,0,0:0:0:1:
329,192,377137,1,0,0:0:0:1:
36,192,377137,1,0,0:0:0:1:
109,192,377137,1,0,0:0:0:1:
402,192,377137,1,0,0:0:0:1:
182,192,377243,1,0,0:0:0:1:
329,192,377348,1,0,0:0:0:1:
402,192,377348,1,0,0:0:0:1:
475,192,377348,1,0,0:0:0:1:
256,192,377348,1,0,0:0:0:1:
182,192,377454,1,0,0:0:0:1:
475,192,377560,1,0,0:0:0:1:
329,192,377560,1,0,0:0:0:1:
109,192,377560,1,0,0:0:0:1:
256,192,377665,1,0,0:0:0:1:
402,192,377771,1,0,0:0:0:1:
36,192,377771,1,0,0:0:0:1:
182,192,377771,1,0,0:0:0:1:
256,192,377876,1,0,0:0:0:1:
36,192,377982,1,0,0:0:0:1:
329,192,377982,1,0,0:0:0:1:
109,192,377982,1,0,0:0:0:1:
256,192,378088,1,0,0:0:0:1:
109,192,378193,1,0,0:0:0:1:
475,192,378193,1,0,0:0:0:1:
182,192,378193,1,0,0:0:0:1:
402,192,378193,1,0,0:0:0:1:
329,192,378299,1,0,0:0:0:1:
475,192,378405,1,0,0:0:0:1:
256,192,378405,1,0,0:0:0:1:
182,192,378475,1,0,0:0:0:0:
36,192,378546,1,0,0:0:0:0:
475,192,378616,1,0,0:0:0:0:
329,192,378616,1,0,0:0:0:0:
109,192,378686,1,0,0:0:0:0:
256,192,378757,1,0,0:0:0:0:
36,192,378827,1,0,0:0:0:0:
402,192,378827,1,0,0:0:0:0:
182,192,378898,1,0,0:0:0:0:
329,192,378968,1,0,0:0:0:0:
256,192,379038,1,0,0:0:0:0:
475,192,379038,1,0,0:0:0:0:
36,192,379038,1,0,0:0:0:0:
109,192,379109,1,0,0:0:0:0:
182,192,379179,1,0,0:0:0:0:
475,192,379250,1,0,0:0:0:0:
329,192,379250,1,0,0:0:0:0:
256,192,379320,1,0,0:0:0:0:
109,192,379391,1,0,0:0:0:0:
402,192,379461,1,0,0:0:0:0:
36,192,379461,1,0,0:0:0:0:
182,192,379531,1,0,0:0:0:0:
329,192,379602,1,0,0:0:0:0:
109,192,379672,1,0,0:0:0:0:
36,192,379672,1,0,0:0:0:0:
256,192,379743,1,0,0:0:0:0:
182,192,379813,1,0,0:0:0:0:
36,192,379884,1,0,0:0:0:0:
475,192,379884,1,0,0:0:0:0:
329,192,379884,1,0,0:0:0:0:
256,192,379954,1,0,0:0:0:0:
109,192,380024,1,0,0:0:0:0:
475,192,380095,1,0,0:0:0:0:
402,192,380095,1,0,0:0:0:0:
36,192,380095,1,0,0:0:0:0:
182,192,380148,1,0,0:0:0:0:
329,192,380200,1,0,0:0:0:0:
109,192,380253,1,0,0:0:0:0:
256,192,380306,1,0,0:0:0:0:
402,192,380359,1,0,0:0:0:0:
182,192,380412,1,0,0:0:0:0:
36,192,380465,1,0,0:0:0:0:
475,192,380517,1,0,0:0:0:0:
329,192,380517,1,0,0:0:0:0:
109,192,380570,1,0,0:0:0:0:
256,192,380623,1,0,0:0:0:0:
182,192,380729,1,0,0:0:0:0:
475,192,380729,1,0,0:0:0:0:
402,192,380729,1,0,0:0:0:0:
36,192,380781,1,0,0:0:0:0:
256,192,380834,1,0,0:0:0:0:
109,192,380887,1,0,0:0:0:0:
329,192,380940,1,0,0:0:0:0:
475,192,380993,1,0,0:0:0:0:
182,192,381046,1,0,0:0:0:0:
402,192,381098,1,0,0:0:0:0:
36,192,381151,1,0,0:0:0:0:
256,192,381204,1,0,0:0:0:0:
109,192,381257,1,0,0:0:0:0:
329,192,381310,1,0,0:0:0:0:
182,192,381362,1,0,0:0:0:0:
475,192,381362,1,0,0:0:0:0:
36,192,381415,1,0,0:0:0:0:
256,192,381468,1,0,0:0:0:0:
109,192,381521,1,0,0:0:0:0:
475,192,381574,1,0,0:0:0:0:
402,192,381574,1,0,0:0:0:0:
329,192,381574,1,0,0:0:0:0:
182,192,381626,1,0,0:0:0:0:
36,192,381679,1,0,0:0:0:0:
256,192,381732,1,0,0:0:0:0:
475,192,381785,1,0,0:0:0:0:
402,192,381785,1,0,0:0:0:0:
182,192,381838,1,0,0:0:0:0:
36,192,381891,1,0,0:0:0:0:
329,192,381943,1,0,0:0:0:0:
109,192,381996,1,0,0:0:0:0:
256,192,382049,1,0,0:0:0:0:
475,192,382102,1,0,0:0:0:0:
182,192,382155,1,0,0:0:0:0:
329,192,382207,1,0,0:0:0:0:
36,192,382207,1,0,0:0:0:0:
402,192,382260,1,0,0:0:0:0:
256,192,382313,1,0,0:0:0:0:
109,192,382366,1,0,0:0:0:0:
475,192,382419,1,0,0:0:0:0:
329,192,382419,1,0,0:0:0:0:
182,192,382419,1,0,0:0:0:0:
36,192,382472,1,0,0:0:0:0:
256,192,382524,1,0,0:0:0:0:
109,192,382577,1,0,0:0:0:0:
475,192,382630,1,0,0:0:0:0:
402,192,382630,1,0,0:0:0:0:
329,192,382683,1,0,0:0:0:0:
182,192,382736,1,0,0:0:0:0:
36,192,382788,1,0,0:0:0:0:
256,192,382841,1,0,0:0:0:0:
402,192,382894,1,0,0:0:0:0:
475,192,382947,1,0,0:0:0:0:
109,192,383000,1,0,0:0:0:0:
329,192,383053,1,0,0:0:0:0:
182,192,383053,1,0,0:0:0:0:
36,192,383105,1,0,0:0:0:0:
256,192,383158,1,0,0:0:0:0:
402,192,383211,1,0,0:0:0:0:
329,192,383264,1,0,0:0:0:0:
182,192,383264,1,0,0:0:0:0:
109,192,383264,1,0,0:0:0:0:
475,192,383317,1,0,0:0:0:0:
256,192,383405,1,0,0:0:0:0:
329,192,383475,1,0,0:0:0:0:
109,192,383475,1,0,0:0:0:0:
36,192,383475,1,0,0:0:0:0:
475,192,383546,1,0,0:0:0:0:
182,192,383616,1,0,0:0:0:0:
402,192,383686,1,0,0:0:0:0:
256,192,383757,1,0,0:0:0:0:
109,192,383827,1,0,0:0:0:0:
329,192,383898,1,0,0:0:0:0:
36,192,383898,1,0,0:0:0:0:
182,192,383968,1,0,0:0:0:0:
256,192,384038,1,0,0:0:0:0:
475,192,384109,1,0,0:0:0:0:
402,192,384109,1,0,0:0:0:0:
109,192,384109,1,0,0:0:0:0:
329,192,384179,1,0,0:0:0:0:
182,192,384250,1,0,0:0:0:0:
256,192,384320,1,0,0:0:0:0:
36,192,384320,1,0,0:0:0:0:
402,192,384391,1,0,0:0:0:0:
109,192,384461,1,0,0:0:0:0:
182,192,384531,1,0,0:0:0:0:
329,192,384602,1,0,0:0:0:0:
475,192,384672,1,0,0:0:0:0:
109,192,384743,1,0,0:0:0:0:
36,192,384743,1,0,0:0:0:0:
256,192,384813,1,0,0:0:0:0:
182,192,384884,1,0,0:0:0:0:
402,192,384954,1,0,0:0:0:0:
475,192,384954,1,0,0:0:0:0:
329,192,384954,1,0,0:0:0:0:
109,192,385024,1,0,0:0:0:0:
36,192,385095,1,0,0:0:0:0:
475,192,385165,1,0,0:0:0:1:
256,192,385165,1,0,0:0:0:1:
182,192,385165,1,0,0:0:0:1:
36,192,385271,1,0,0:0:0:1:
402,192,385271,1,0,0:0:0:1:
329,192,385376,1,0,0:0:0:1:
109,192,385376,1,0,0:0:0:1:
182,192,385447,1,0,0:0:0:1:
475,192,385482,1,0,0:0:0:1:
256,192,385517,1,0,0:0:0:1:
402,192,385588,1,0,0:0:0:1:
36,192,385588,1,0,0:0:0:1:
109,192,385588,1,0,0:0:0:1:
329,192,385588,1,0,0:0:0:1:
256,192,385693,1,0,0:0:0:1:
182,192,385693,1,0,0:0:0:1:
36,192,385799,1,0,0:0:0:1:
475,192,385799,1,0,0:0:0:1:
109,192,385799,1,0,0:0:0:1:
402,192,385869,1,0,0:0:0:1:
182,192,385905,1,0,0:0:0:1:
329,192,385940,1,0,0:0:0:1:
475,192,386010,1,0,0:0:0:1:
256,192,386010,1,0,0:0:0:1:
109,192,386010,1,0,0:0:0:1:
36,192,386116,1,0,0:0:0:1:
329,192,386116,1,0,0:0:0:1:
402,192,386222,1,0,0:0:0:1:
256,192,386222,1,0,0:0:0:1:
182,192,386222,1,0,0:0:0:1:
109,192,386327,1,0,0:0:0:1:
36,192,386433,1,0,0:0:0:1:
475,192,386433,1,0,0:0:0:1:
182,192,386433,1,0,0:0:0:1:
402,192,386433,1,0,0:0:0:1:
256,192,386503,1,0,0:0:0:1:
109,192,386538,1,0,0:0:0:1:
329,192,386574,1,0,0:0:0:1:
402,192,386644,1,0,0:0:0:1:
36,192,386644,1,0,0:0:0:1:
182,192,386644,1,0,0:0:0:1:
256,192,386715,1,0,0:0:0:1:
329,192,386785,1,0,0:0:0:1:
402,192,386855,1,0,0:0:0:1:
182,192,386855,1,0,0:0:0:1:
109,192,386855,1,0,0:0:0:1:
36,192,386961,1,0,0:0:0:1:
256,192,386961,1,0,0:0:0:1:
475,192,387067,1,0,0:0:0:1:
329,192,387067,1,0,0:0:0:1:
109,192,387067,1,0,0:0:0:1:
402,192,387172,1,0,0:0:0:1:
182,192,387172,1,0,0:0:0:1:
329,192,387278,1,0,0:0:0:1:
36,192,387278,1,0,0:0:0:1:
256,192,387278,1,0,0:0:0:1:
109,192,387348,1,0,0:0:0:1:
475,192,387384,1,0,0:0:0:1:
182,192,387419,1,0,0:0:0:1:
329,192,387489,1,0,0:0:0:1:
402,192,387489,1,0,0:0:0:1:
36,192,387489,1,0,0:0:0:1:
256,192,387560,1,0,0:0:0:1:
182,192,387630,1,0,0:0:0:1:
475,192,387700,1,0,0:0:0:1:
329,192,387700,1,0,0:0:0:1:
109,192,387700,1,0,0:0:0:1:
402,192,387806,1,0,0:0:0:1:
256,192,387806,1,0,0:0:0:1:
36,192,387912,1,0,0:0:0:1:
329,192,387912,1,0,0:0:0:1:
182,192,387912,1,0,0:0:0:1:
256,192,388017,1,0,0:0:0:1:
109,192,388017,1,0,0:0:0:1:
402,192,388123,1,0,0:0:0:1:
475,192,388123,1,0,0:0:0:1:
182,192,388123,1,0,0:0:0:1:
329,192,388193,1,0,0:0:0:1:
109,192,388229,1,0,0:0:0:1:
256,192,388264,1,0,0:0:0:1:
36,192,388334,1,0,0:0:0:1:
475,192,388334,1,0,0:0:0:1:
182,192,388334,1,0,0:0:0:1:
402,192,388405,1,0,0:0:0:1:
109,192,388440,1,0,0:0:0:1:
329,192,388475,1,0,0:0:0:1:
475,192,388546,1,0,0:0:0:1:
256,192,388546,1,0,0:0:0:1:
182,192,388546,1,0,0:0:0:1:
36,192,388651,1,0,0:0:0:1:
402,192,388651,1,0,0:0:0:1:
329,192,388757,1,0,0:0:0:1:
182,192,388757,1,0,0:0:0:1:
109,192,388757,1,0,0:0:0:1:
475,192,388862,1,0,0:0:0:1:
256,192,388862,1,0,0:0:0:1:
402,192,388968,1,0,0:0:0:1:
36,192,388968,1,0,0:0:0:1:
109,192,388968,1,0,0:0:0:1:
329,192,389038,1,0,0:0:0:1:
182,192,389074,1,0,0:0:0:1:
256,192,389109,1,0,0:0:0:1:
36,192,389179,1,0,0:0:0:1:
475,192,389179,1,0,0:0:0:1:
402,192,389179,1,0,0:0:0:1:
109,192,389250,1,0,0:0:0:1:
329,192,389285,1,0,0:0:0:1:
182,192,389320,1,0,0:0:0:1:
475,192,389391,1,0,0:0:0:1:
256,192,389391,1,0,0:0:0:1:
36,192,389391,1,0,0:0:0:1:
109,192,389496,1,0,0:0:0:1:
329,192,389496,1,0,0:0:0:1:
402,192,389602,1,0,0:0:0:1:
256,192,389602,1,0,0:0:0:1:
182,192,389602,1,0,0:0:0:1:
109,192,389707,1,0,0:0:0:1:
36,192,389813,1,0,0:0:0:1:
475,192,389813,1,0,0:0:0:1:
182,192,389813,1,0,0:0:0:1:
329,192,389866,1,0,0:0:0:1:
256,192,389919,1,0,0:0:0:1:
109,192,389972,1,0,0:0:0:1:
36,192,390024,1,0,0:0:0:1:
329,192,390024,1,0,0:0:0:1:
402,192,390077,1,0,0:0:0:1:
182,192,390077,1,0,0:0:0:1:
256,192,390130,1,0,0:0:0:1:
475,192,390183,1,0,0:0:0:1:
402,192,390236,1,0,0:0:0:1:
36,192,390236,1,0,0:0:0:1:
329,192,390236,1,0,0:0:0:1:
109,192,390236,1,0,0:0:0:1:
182,192,390236,1,0,0:0:0:1:
109,192,403705,5,0,0:0:0:0:
329,192,403705,1,0,0:0:0:0:
475,192,403705,1,0,0:0:0:0:
36,192,403705,1,0,0:0:0:75:kick.ogg
402,192,403798,1,0,0:0:0:0:
182,192,403798,1,0,0:0:0:0:
256,192,403891,1,0,0:0:0:0:
329,192,403984,1,0,0:0:0:0:
475,192,403984,1,0,0:0:0:0:
109,192,403984,1,0,0:0:0:0:
36,192,403984,1,0,0:0:0:75:kick.ogg
402,192,404077,1,0,0:0:0:0:
182,192,404077,1,0,0:0:0:0:
256,192,404170,1,0,0:0:0:0:
475,192,404264,1,0,0:0:0:0:
329,192,404264,1,0,0:0:0:0:
36,192,404264,1,0,0:0:0:75:kick.ogg
109,192,404264,1,0,0:0:0:0:
182,192,404357,1,0,0:0:0:0:
402,192,404357,1,0,0:0:0:0:
256,192,404450,1,0,0:0:0:0:
475,192,404450,1,0,0:0:0:0:
329,192,404450,1,0,0:0:0:0:
109,192,404450,1,0,0:0:0:65:claprev.ogg
36,192,404450,1,0,0:0:0:0:
329,192,404823,1,0,0:0:0:0:
402,192,404823,1,0,0:0:0:0:
109,192,404916,1,0,0:0:0:0:
182,192,404916,1,0,0:0:0:0:
402,192,405009,1,0,0:0:0:0:
329,192,405009,1,0,0:0:0:0:
256,192,405102,1,0,0:0:0:0:
182,192,405102,1,0,0:0:0:0:
109,192,405195,1,0,0:0:0:0:
36,192,405195,1,0,0:0:0:75:kick.ogg
329,192,405195,1,0,0:0:0:0:
475,192,405195,1,0,0:0:0:0:
402,192,405288,1,0,0:0:0:0:
182,192,405288,1,0,0:0:0:0:
256,192,405382,1,0,0:0:0:0:
475,192,405475,1,0,0:0:0:0:
36,192,405475,1,0,0:0:0:75:kick.ogg
109,192,405475,1,0,0:0:0:0:
329,192,405475,1,0,0:0:0:0:
402,192,405568,1,0,0:0:0:0:
182,192,405568,1,0,0:0:0:0:
256,192,405661,1,0,0:0:0:0:
329,192,405754,1,0,0:0:0:0:
36,192,405754,1,0,0:0:0:75:kick.ogg
475,192,405754,1,0,0:0:0:0:
109,192,405754,1,0,0:0:0:0:
402,192,405847,1,0,0:0:0:0:
182,192,405847,1,0,0:0:0:0:
329,192,405941,1,0,0:0:0:0:
256,192,405941,1,0,0:0:0:0:
109,192,405941,1,0,0:0:0:65:claprev.ogg
36,192,405941,1,0,0:0:0:0:
182,192,406034,1,0,0:0:0:0:
329,192,406080,1,0,0:0:0:0:
402,192,406127,1,0,0:0:0:0:
475,192,406127,1,0,0:0:0:0:
36,192,406173,1,0,0:0:0:0:
109,192,406220,1,0,0:0:0:0:
182,192,406267,1,0,0:0:0:0:
329,192,406313,1,0,0:0:0:0:
402,192,406313,1,0,0:0:0:0:
402,192,406500,1,0,0:0:0:0:
109,192,406500,1,0,0:0:0:0:
256,192,406593,1,0,0:0:0:0:
182,192,406593,1,0,0:0:0:0:
109,192,406686,1,0,0:0:0:0:
36,192,406686,1,0,0:0:0:75:kick.ogg
329,192,406686,1,0,0:0:0:0:
475,192,406686,1,0,0:0:0:0:
182,192,406779,1,0,0:0:0:0:
402,192,406779,1,0,0:0:0:0:
256,192,406872,1,0,0:0:0:0:
109,192,406965,1,0,0:0:0:0:
36,192,406965,1,0,0:0:0:75:kick.ogg
329,192,406965,1,0,0:0:0:0:
475,192,406965,1,0,0:0:0:0:
182,192,407059,1,0,0:0:0:0:
402,192,407059,1,0,0:0:0:0:
256,192,407152,1,0,0:0:0:0:
109,192,407245,1,0,0:0:0:0:
36,192,407245,1,0,0:0:0:75:kick.ogg
329,192,407245,1,0,0:0:0:0:
402,192,407245,1,0,0:0:0:0:
182,192,407338,1,0,0:0:0:0:
475,192,407338,1,0,0:0:0:0:
36,192,407431,1,0,0:0:0:0:
256,192,407431,1,0,0:0:0:0:
402,192,407431,1,0,0:0:0:0:
329,192,407431,1,0,0:0:0:65:claprev.ogg
475,192,407804,1,0,0:0:0:0:
329,192,407804,1,0,0:0:0:0:
182,192,407897,1,0,0:0:0:0:
109,192,407897,1,0,0:0:0:0:
402,192,407990,1,0,0:0:0:0:
256,192,407990,1,0,0:0:0:0:
182,192,408083,1,0,0:0:0:0:
36,192,408083,1,0,0:0:0:0:
256,192,408177,1,0,0:0:0:0:
329,192,408177,1,0,0:0:0:75:kick.ogg
402,192,408177,1,0,0:0:0:0:
109,192,408177,1,0,0:0:0:0:
182,192,408270,1,0,0:0:0:0:
475,192,408270,1,0,0:0:0:0:
36,192,408363,1,0,0:0:0:0:
402,192,408456,1,0,0:0:0:0:
329,192,408456,1,0,0:0:0:75:kick.ogg
109,192,408456,1,0,0:0:0:0:
256,192,408456,1,0,0:0:0:0:
475,192,408549,1,0,0:0:0:0:
182,192,408549,1,0,0:0:0:0:
36,192,408642,1,0,0:0:0:0:
256,192,408736,1,0,0:0:0:0:
329,192,408736,1,0,0:0:0:75:kick.ogg
402,192,408736,1,0,0:0:0:0:
109,192,408736,1,0,0:0:0:0:
475,192,408829,1,0,0:0:0:0:
182,192,408829,1,0,0:0:0:0:
109,192,408922,1,0,0:0:0:0:
256,192,408922,1,0,0:0:0:0:
329,192,408922,1,0,0:0:0:65:claprev.ogg
402,192,408922,1,0,0:0:0:0:
182,192,409015,1,0,0:0:0:0:
475,192,409015,1,0,0:0:0:0:
36,192,409108,1,0,0:0:0:0:
402,192,409108,1,0,0:0:0:0:
109,192,409108,1,0,0:0:0:0:
182,192,409201,1,0,0:0:0:0:
329,192,409201,1,0,0:0:0:0:
475,192,409295,1,0,0:0:0:0:
402,192,409295,1,0,0:0:0:0:
109,192,409295,1,0,0:0:0:0:
329,192,409388,1,0,0:0:0:0:
182,192,409388,1,0,0:0:0:0:
256,192,409481,1,0,0:0:0:0:
36,192,409481,1,0,0:0:0:0:
402,192,409574,1,0,0:0:0:0:
182,192,409574,1,0,0:0:0:0:
329,192,409667,1,0,0:0:0:0:
36,192,409667,1,0,0:0:0:75:kick.ogg
256,192,409667,1,0,0:0:0:0:
109,192,409667,1,0,0:0:0:0:
182,192,409760,1,0,0:0:0:0:
475,192,409760,1,0,0:0:0:0:
402,192,409854,1,0,0:0:0:0:
329,192,409947,1,0,0:0:0:0:
36,192,409947,1,0,0:0:0:75:kick.ogg
109,192,409947,1,0,0:0:0:0:
256,192,409947,1,0,0:0:0:0:
475,192,410040,1,0,0:0:0:0:
182,192,410040,1,0,0:0:0:0:
329,192,410133,1,0,0:0:0:0:
402,192,410226,1,0,0:0:0:0:
36,192,410226,1,0,0:0:0:75:kick.ogg
109,192,410226,1,0,0:0:0:0:
182,192,410226,1,0,0:0:0:0:
329,192,410319,1,0,0:0:0:0:
256,192,410319,1,0,0:0:0:0:
36,192,410413,1,0,0:0:0:0:
475,192,410413,1,0,0:0:0:0:
182,192,410413,1,0,0:0:0:0:
109,192,410413,1,0,0:0:0:65:claprev.ogg
402,192,410413,1,0,0:0:0:0:
329,192,410785,1,0,0:0:0:0:
256,192,410785,1,0,0:0:0:0:
182,192,410878,1,0,0:0:0:0:
109,192,410878,1,0,0:0:0:0:
329,192,410972,1,0,0:0:0:0:
475,192,410972,1,0,0:0:0:0:
402,192,411065,1,0,0:0:0:0:
256,192,411065,1,0,0:0:0:0:
329,192,411158,1,0,0:0:0:0:
36,192,411158,1,0,0:0:0:75:kick.ogg
182,192,411158,1,0,0:0:0:0:
109,192,411158,1,0,0:0:0:0:
475,192,411251,1,0,0:0:0:0:
256,192,411251,1,0,0:0:0:0:
402,192,411344,1,0,0:0:0:0:
329,192,411437,1,0,0:0:0:0:
36,192,411437,1,0,0:0:0:75:kick.ogg
182,192,411437,1,0,0:0:0:0:
109,192,411437,1,0,0:0:0:0:
256,192,411531,1,0,0:0:0:0:
475,192,411531,1,0,0:0:0:0:
402,192,411624,1,0,0:0:0:0:
329,192,411717,1,0,0:0:0:0:
36,192,411717,1,0,0:0:0:75:kick.ogg
182,192,411717,1,0,0:0:0:0:
109,192,411717,1,0,0:0:0:0:
475,192,411810,1,0,0:0:0:0:
256,192,411810,1,0,0:0:0:0:
182,192,411903,1,0,0:0:0:0:
402,192,411903,1,0,0:0:0:0:
329,192,411903,1,0,0:0:0:65:claprev.ogg
36,192,411903,1,0,0:0:0:0:
256,192,411996,1,0,0:0:0:0:
475,192,411996,1,0,0:0:0:0:
109,192,412090,1,0,0:0:0:0:
329,192,412090,1,0,0:0:0:0:
182,192,412183,1,0,0:0:0:0:
256,192,412229,1,0,0:0:0:0:
329,192,412276,1,0,0:0:0:0:
475,192,412276,1,0,0:0:0:0:
36,192,412323,1,0,0:0:0:0:
109,192,412369,1,0,0:0:0:0:
182,192,412416,1,0,0:0:0:0:
475,192,412462,1,0,0:0:0:0:
402,192,412462,1,0,0:0:0:0:
329,192,412509,1,0,0:0:0:0:
182,192,412555,1,0,0:0:0:0:
109,192,412602,1,0,0:0:0:0:
36,192,412649,1,0,0:0:0:75:kick.ogg
475,192,412649,1,0,0:0:0:0:
329,192,412649,1,0,0:0:0:0:
256,192,412742,1,0,0:0:0:0:
402,192,412742,1,0,0:0:0:0:
109,192,412835,1,0,0:0:0:0:
475,192,412928,1,0,0:0:0:0:
36,192,412928,1,0,0:0:0:75:kick.ogg
182,192,412928,1,0,0:0:0:0:
329,192,412928,1,0,0:0:0:0:
256,192,413021,1,0,0:0:0:0:
402,192,413021,1,0,0:0:0:0:
109,192,413114,1,0,0:0:0:0:
329,192,413208,1,0,0:0:0:0:
36,192,413208,1,0,0:0:0:75:kick.ogg
475,192,413208,1,0,0:0:0:0:
182,192,413208,1,0,0:0:0:0:
256,192,413301,1,0,0:0:0:0:
402,192,413301,1,0,0:0:0:0:
182,192,413394,1,0,0:0:0:0:
329,192,413394,1,0,0:0:0:0:
475,192,413394,1,0,0:0:0:0:
109,192,413394,1,0,0:0:0:65:claprev.ogg
36,192,413394,1,0,0:0:0:0:
36,192,413767,1,0,0:0:0:0:
475,192,413767,1,0,0:0:0:0:
109,192,413813,1,0,0:0:0:0:
402,192,413813,1,0,0:0:0:0:
182,192,413860,1,0,0:0:0:0:
329,192,413860,1,0,0:0:0:0:
256,192,413906,1,0,0:0:0:0:
109,192,413953,1,0,0:0:0:0:
402,192,413953,1,0,0:0:0:0:
402,192,414139,1,0,0:0:0:0:
475,192,414139,1,0,0:0:0:75:kick.ogg
109,192,414139,1,0,0:0:0:0:
256,192,414139,1,0,0:0:0:0:
182,192,414232,1,0,0:0:0:0:
329,192,414232,1,0,0:0:0:0:
36,192,414326,1,0,0:0:0:0:
256,192,414419,1,0,0:0:0:0:
475,192,414419,1,0,0:0:0:75:kick.ogg
109,192,414419,1,0,0:0:0:0:
402,192,414419,1,0,0:0:0:0:
182,192,414512,1,0,0:0:0:0:
329,192,414512,1,0,0:0:0:0:
36,192,414605,1,0,0:0:0:0:
402,192,414698,1,0,0:0:0:0:
475,192,414698,1,0,0:0:0:75:kick.ogg
256,192,414698,1,0,0:0:0:0:
109,192,414698,1,0,0:0:0:0:
182,192,414791,1,0,0:0:0:0:
329,192,414791,1,0,0:0:0:0:
475,192,414885,1,0,0:0:0:0:
402,192,414885,1,0,0:0:0:0:
109,192,414885,1,0,0:0:0:0:
182,192,414978,1,0,0:0:0:0:
329,192,414978,1,0,0:0:0:0:
475,192,415071,1,0,0:0:0:0:
36,192,415071,1,0,0:0:0:0:
109,192,415118,1,0,0:0:0:0:
182,192,415164,1,0,0:0:0:0:
256,192,415211,1,0,0:0:0:0:
329,192,415257,1,0,0:0:0:0:
475,192,415257,1,0,0:0:0:0:
182,192,415350,1,0,0:0:0:0:
36,192,415350,1,0,0:0:0:0:
475,192,415444,1,0,0:0:0:0:
329,192,415444,1,0,0:0:0:0:
256,192,415537,1,0,0:0:0:0:
182,192,415537,1,0,0:0:0:0:
475,192,415630,1,0,0:0:0:0:
109,192,415630,1,0,0:0:0:0:
36,192,415630,1,0,0:0:0:45:kick.ogg
402,192,415630,1,0,0:0:0:0:
182,192,415723,1,0,0:0:0:0:
329,192,415723,1,0,0:0:0:0:
475,192,415816,1,0,0:0:0:0:
109,192,415816,1,0,0:0:0:0:
256,192,415816,1,0,0:0:0:0:
36,192,415909,1,0,0:0:0:0:
182,192,415909,1,0,0:0:0:0:
475,192,416003,1,0,0:0:0:0:
329,192,416003,1,0,0:0:0:0:
109,192,416003,1,0,0:0:0:45:kick.ogg
402,192,416096,1,0,0:0:0:0:
182,192,416096,1,0,0:0:0:0:
329,192,416189,1,0,0:0:0:0:
36,192,416189,1,0,0:0:0:0:
256,192,416189,1,0,0:0:0:0:
109,192,416282,1,0,0:0:0:0:
182,192,416282,1,0,0:0:0:0:
475,192,416375,1,0,0:0:0:0:
402,192,416375,1,0,0:0:0:0:
256,192,416375,1,0,0:0:0:45:kick.ogg
36,192,416468,1,0,0:0:0:0:
329,192,416468,1,0,0:0:0:0:
109,192,416562,1,0,0:0:0:0:
256,192,416562,1,0,0:0:0:0:
475,192,416562,1,0,0:0:0:0:
402,192,416655,1,0,0:0:0:0:
182,192,416655,1,0,0:0:0:0:
109,192,416748,1,0,0:0:0:0:
36,192,416748,1,0,0:0:0:45:kick.ogg
329,192,416748,1,0,0:0:0:0:
256,192,416841,1,0,0:0:0:0:
182,192,416841,1,0,0:0:0:0:
475,192,416934,1,0,0:0:0:0:
402,192,416934,1,0,0:0:0:0:
36,192,416934,1,0,0:0:0:0:
329,192,417027,1,0,0:0:0:0:
109,192,417027,1,0,0:0:0:0:
36,192,417121,1,0,0:0:0:45:kick.ogg
256,192,417121,1,0,0:0:0:0:
182,192,417121,1,0,0:0:0:0:
475,192,417121,1,0,0:0:0:0:
329,192,417214,1,0,0:0:0:0:
402,192,417214,1,0,0:0:0:0:
256,192,417307,1,0,0:0:0:0:
36,192,417307,1,0,0:0:0:0:
109,192,417307,1,0,0:0:0:0:
182,192,417400,1,0,0:0:0:0:
475,192,417400,1,0,0:0:0:0:
329,192,417493,1,0,0:0:0:0:
256,192,417493,1,0,0:0:0:45:kick.ogg
402,192,417493,1,0,0:0:0:0:
182,192,417586,1,0,0:0:0:0:
36,192,417586,1,0,0:0:0:0:
109,192,417680,1,0,0:0:0:0:
402,192,417680,1,0,0:0:0:0:
475,192,417680,1,0,0:0:0:0:
182,192,417773,1,0,0:0:0:0:
329,192,417773,1,0,0:0:0:0:
256,192,417866,1,0,0:0:0:0:
36,192,417866,1,0,0:0:0:45:kick.ogg
475,192,417866,1,0,0:0:0:0:
109,192,417959,1,0,0:0:0:0:
402,192,417959,1,0,0:0:0:0:
182,192,418052,1,0,0:0:0:0:
329,192,418052,1,0,0:0:0:0:
475,192,418052,1,0,0:0:0:0:
256,192,418145,1,0,0:0:0:0:
36,192,418145,1,0,0:0:0:0:
329,192,418239,1,0,0:0:0:0:
182,192,418239,1,0,0:0:0:0:
109,192,418239,1,0,0:0:0:45:kick.ogg
256,192,418332,1,0,0:0:0:0:
475,192,418332,1,0,0:0:0:0:
402,192,418425,1,0,0:0:0:0:
329,192,418425,1,0,0:0:0:0:
182,192,418425,1,0,0:0:0:0:
256,192,418518,1,0,0:0:0:0:
109,192,418518,1,0,0:0:0:0:
475,192,418611,1,0,0:0:0:0:
402,192,418611,1,0,0:0:0:0:
182,192,418611,1,0,0:0:0:0:
36,192,418611,1,0,0:0:0:45:kick.ogg
256,192,418705,1,0,0:0:0:0:
182,192,418798,1,0,0:0:0:0:
329,192,418798,1,0,0:0:0:0:
402,192,418798,1,0,0:0:0:0:
256,192,418891,1,0,0:0:0:0:
109,192,418891,1,0,0:0:0:0:
36,192,418984,1,0,0:0:0:45:kick.ogg
329,192,418984,1,0,0:0:0:0:
475,192,418984,1,0,0:0:0:0:
402,192,419077,1,0,0:0:0:0:
109,192,419170,1,0,0:0:0:0:
329,192,419170,1,0,0:0:0:0:
182,192,419170,1,0,0:0:0:0:
256,192,419264,1,0,0:0:0:0:
475,192,419264,1,0,0:0:0:0:
329,192,419357,1,0,0:0:0:0:
182,192,419357,1,0,0:0:0:0:
36,192,419357,1,0,0:0:0:45:kick.ogg
109,192,419450,1,0,0:0:0:0:
402,192,419450,1,0,0:0:0:0:
475,192,419543,1,0,0:0:0:0:
182,192,419543,1,0,0:0:0:0:
329,192,419543,1,0,0:0:0:0:
256,192,419636,1,0,0:0:0:0:
36,192,419636,1,0,0:0:0:0:
402,192,419729,1,0,0:0:0:0:
109,192,419729,1,0,0:0:0:45:kick.ogg
475,192,419729,1,0,0:0:0:0:
329,192,419823,1,0,0:0:0:0:
182,192,419823,1,0,0:0:0:0:
475,192,419916,1,0,0:0:0:0:
256,192,419916,1,0,0:0:0:0:
109,192,419916,1,0,0:0:0:0:
402,192,420009,1,0,0:0:0:0:
36,192,420009,1,0,0:0:0:0:
109,192,420102,1,0,0:0:0:45:kick.ogg
329,192,420102,1,0,0:0:0:0:
256,192,420102,1,0,0:0:0:0:
475,192,420102,1,0,0:0:0:0:
182,192,420195,1,0,0:0:0:0:
402,192,420195,1,0,0:0:0:0:
36,192,420288,1,0,0:0:0:0:
475,192,420288,1,0,0:0:0:0:
256,192,420288,1,0,0:0:0:0:
109,192,420382,1,0,0:0:0:0:
329,192,420382,1,0,0:0:0:0:
475,192,420475,1,0,0:0:0:0:
402,192,420475,1,0,0:0:0:0:
182,192,420475,1,0,0:0:0:45:kick.ogg
329,192,420568,1,0,0:0:0:0:
36,192,420568,1,0,0:0:0:0:
402,192,420661,1,0,0:0:0:0:
256,192,420661,1,0,0:0:0:0:
109,192,420661,1,0,0:0:0:0:
182,192,420754,1,0,0:0:0:0:
475,192,420847,1,0,0:0:0:0:
256,192,420847,1,0,0:0:0:0:
36,192,420847,1,0,0:0:0:45:kick.ogg
329,192,420941,1,0,0:0:0:0:
402,192,420941,1,0,0:0:0:0:
36,192,421034,1,0,0:0:0:45:kick.ogg
256,192,421034,1,0,0:0:0:0:
182,192,421034,1,0,0:0:0:0:
109,192,421127,1,0,0:0:0:0:
475,192,421127,1,0,0:0:0:0:
256,192,421220,1,0,0:0:0:0:
329,192,421220,1,0,0:0:0:45:kick.ogg
402,192,421220,1,0,0:0:0:0:
109,192,421313,1,0,0:0:0:0:
182,192,421313,1,0,0:0:0:45:kick.ogg
402,192,421406,1,0,0:0:0:0:
475,192,421406,1,0,0:0:0:0:
329,192,421406,1,0,0:0:0:45:kick.ogg
182,192,421500,1,0,0:0:0:0:
256,192,421500,1,0,0:0:0:45:kick.ogg
329,192,421593,1,0,0:0:0:45:snare.ogg
475,192,421593,1,0,0:0:0:0:
36,192,421593,1,0,0:0:0:45:kick.ogg
109,192,421593,1,0,0:0:0:0:
402,192,421686,1,0,0:0:0:45:snare.ogg
256,192,421686,1,0,0:0:0:0:
182,192,421779,1,0,0:0:0:0:
329,192,421779,1,0,0:0:0:0:
475,192,421779,1,0,0:0:0:45:snare.ogg
109,192,421872,1,0,0:0:0:0:
256,192,421872,1,0,0:0:0:45:snare.ogg
36,192,421965,1,0,0:0:0:0:
182,192,421965,1,0,0:0:0:45:snare.ogg
475,192,421965,1,0,0:0:0:0:
109,192,422059,1,0,0:0:0:0:
402,192,422059,1,0,0:0:0:45:snare.ogg
182,192,422152,1,0,0:0:0:0:
256,192,422152,1,0,0:0:0:45:snare.ogg
329,192,422152,1,0,0:0:0:0:
109,192,422245,1,0,0:0:0:0:
402,192,422245,1,0,0:0:0:45:snare.ogg
182,192,422338,1,0,0:0:0:0:
36,192,422338,1,0,0:0:0:45:snare.ogg
329,192,422338,1,0,0:0:0:0:
256,192,422431,1,0,0:0:0:0:
402,192,422431,1,0,0:0:0:45:snare.ogg
329,192,422524,1,0,0:0:0:0:
36,192,422524,1,0,0:0:0:0:
182,192,422524,1,0,0:0:0:45:snare.ogg
109,192,422618,1,0,0:0:0:0:
256,192,422618,1,0,0:0:0:45:snare.ogg
475,192,422711,1,0,0:0:0:0:
182,192,422711,1,0,0:0:0:45:snare.ogg
36,192,422711,1,0,0:0:0:65:claprev.ogg
256,192,422804,1,0,0:0:0:45:snare.ogg
402,192,422804,1,0,0:0:0:0:
109,192,422897,1,0,0:0:0:0:
36,192,422897,1,0,0:0:0:0:
329,192,422897,1,0,0:0:0:45:snare.ogg
402,192,422990,1,0,0:0:0:45:snare.ogg
182,192,422990,1,0,0:0:0:0:
256,192,423083,1,0,0:0:0:45:snare.ogg
36,192,423083,1,0,0:0:0:45:kick.ogg
475,192,423083,1,0,0:0:0:0:
329,192,423083,1,0,0:0:0:0:
109,192,423177,1,0,0:0:0:45:snare.ogg
402,192,423177,1,0,0:0:0:0:
182,192,423270,1,0,0:0:0:0:
475,192,423270,1,0,0:0:0:45:snare.ogg
329,192,423270,1,0,0:0:0:0:
256,192,423363,1,0,0:0:0:45:snare.ogg
402,192,423363,1,0,0:0:0:0:
109,192,423456,1,0,0:0:0:0:
329,192,423456,1,0,0:0:0:45:snare.ogg
475,192,423456,1,0,0:0:0:0:
182,192,423549,1,0,0:0:0:70:snare.ogg
36,192,423549,1,0,0:0:0:0:
109,192,423642,1,0,0:0:0:0:
329,192,423642,1,0,0:0:0:0:
256,192,423642,1,0,0:0:0:45:snare.ogg
402,192,423736,1,0,0:0:0:0:
182,192,423736,1,0,0:0:0:45:snare.ogg
36,192,423829,1,0,0:0:0:45:snare.ogg
256,192,423829,1,0,0:0:0:0:
475,192,423829,1,0,0:0:0:0:
329,192,423922,1,0,0:0:0:45:snare.ogg
109,192,423922,1,0,0:0:0:0:
475,192,424015,1,0,0:0:0:0:
256,192,424015,1,0,0:0:0:45:snare.ogg
182,192,424015,1,0,0:0:0:0:
109,192,424108,1,0,0:0:0:45:snare.ogg
402,192,424108,1,0,0:0:0:0:
36,192,424201,1,0,0:0:0:0:
329,192,424201,1,0,0:0:0:0:
182,192,424201,1,0,0:0:0:45:snare.ogg
256,192,424295,1,0,0:0:0:0:
109,192,424295,1,0,0:0:0:45:snare.ogg
329,192,424388,1,0,0:0:0:0:
475,192,424388,1,0,0:0:0:0:
182,192,424388,1,0,0:0:0:45:snare.ogg
402,192,424481,1,0,0:0:0:45:snare.ogg
256,192,424481,1,0,0:0:0:0:
475,192,424574,1,0,0:0:0:0:
329,192,424574,1,0,0:0:0:45:snare.ogg
36,192,424574,1,0,0:0:0:45:kick.ogg
109,192,424574,1,0,0:0:0:0:
182,192,424667,1,0,0:0:0:0:
256,192,424667,1,0,0:0:0:45:snare.ogg
36,192,424760,1,0,0:0:0:0:
402,192,424760,1,0,0:0:0:45:snare.ogg
329,192,424760,1,0,0:0:0:0:
109,192,424854,1,0,0:0:0:0:
475,192,424854,1,0,0:0:0:45:snare.ogg
402,192,424947,1,0,0:0:0:0:
329,192,424947,1,0,0:0:0:45:snare.ogg
182,192,424947,1,0,0:0:0:0:
256,192,425040,1,0,0:0:0:45:snare.ogg
109,192,425040,1,0,0:0:0:0:
402,192,425133,1,0,0:0:0:0:
475,192,425133,1,0,0:0:0:0:
36,192,425133,1,0,0:0:0:45:snare.ogg
329,192,425226,1,0,0:0:0:0:
109,192,425226,1,0,0:0:0:45:snare.ogg
182,192,425319,1,0,0:0:0:45:kick.ogg
256,192,425319,1,0,0:0:0:0:
475,192,425319,1,0,0:0:0:45:snare.ogg
36,192,425413,1,0,0:0:0:0:
329,192,425413,1,0,0:0:0:45:snare.ogg
402,192,425506,1,0,0:0:0:45:snare.ogg
109,192,425506,1,0,0:0:0:0:
475,192,425506,1,0,0:0:0:0:
182,192,425599,1,0,0:0:0:0:
329,192,425599,1,0,0:0:0:45:snare.ogg
256,192,425692,1,0,0:0:0:0:
475,192,425692,1,0,0:0:0:0:
36,192,425692,1,0,0:0:0:45:snare.ogg
109,192,425785,1,0,0:0:0:0:
402,192,425785,1,0,0:0:0:45:snare.ogg
475,192,425878,1,0,0:0:0:0:
182,192,425878,1,0,0:0:0:45:snare.ogg
36,192,425878,1,0,0:0:0:0:
329,192,425972,1,0,0:0:0:45:snare.ogg
402,192,426065,1,0,0:0:0:0:
475,192,426065,1,0,0:0:0:45:snare.ogg
36,192,426065,1,0,0:0:0:0:
256,192,426065,1,0,0:0:0:45:kick.ogg
109,192,426065,1,0,0:0:0:0:
329,192,426437,1,0,0:0:0:0:
182,192,426437,1,0,0:0:0:0:
256,192,426810,1,0,0:0:0:0:
256,192,427183,1,0,0:0:0:0:
475,192,427183,1,0,0:0:0:65:claprev.ogg
36,192,427183,1,0,0:0:0:0:
475,192,427555,1,0,0:0:0:0:
256,192,427555,1,0,0:0:0:45:kick.ogg
329,192,427555,1,0,0:0:0:0:
36,192,427555,1,0,0:0:0:0:
182,192,427555,1,0,0:0:0:0:
109,192,427649,1,0,0:0:0:0:
402,192,427742,1,0,0:0:0:0:
256,192,427742,1,0,0:0:0:0:
182,192,427742,1,0,0:0:0:0:
182,192,427928,1,0,0:0:0:0:
402,192,427928,1,0,0:0:0:0:
329,192,427928,1,0,0:0:0:45:kick.ogg
109,192,428021,1,0,0:0:0:0:
475,192,428114,1,0,0:0:0:0:
402,192,428114,1,0,0:0:0:0:
182,192,428114,1,0,0:0:0:0:
109,192,428208,1,0,0:0:0:0:
402,192,428301,1,0,0:0:0:0:
329,192,428301,1,0,0:0:0:45:kick.ogg
36,192,428301,1,0,0:0:0:0:
109,192,428394,1,0,0:0:0:0:
402,192,428487,1,0,0:0:0:0:
36,192,428487,1,0,0:0:0:0:
329,192,428534,1,0,0:0:0:0:
256,192,428580,1,0,0:0:0:0:
182,192,428627,1,0,0:0:0:0:
402,192,428673,1,0,0:0:0:0:
36,192,428673,1,0,0:0:0:0:
109,192,428673,1,0,0:0:0:0:
329,192,428767,1,0,0:0:0:0:
256,192,428860,1,0,0:0:0:0:
109,192,428860,1,0,0:0:0:0:
329,192,428953,1,0,0:0:0:0:
182,192,428953,1,0,0:0:0:0:
475,192,429046,1,0,0:0:0:0:
256,192,429046,1,0,0:0:0:45:kick.ogg
36,192,429046,1,0,0:0:0:0:
402,192,429046,1,0,0:0:0:0:
109,192,429139,1,0,0:0:0:0:
475,192,429232,1,0,0:0:0:0:
402,192,429232,1,0,0:0:0:0:
182,192,429232,1,0,0:0:0:0:
109,192,429326,1,0,0:0:0:0:
402,192,429419,1,0,0:0:0:0:
256,192,429419,1,0,0:0:0:45:kick.ogg
36,192,429419,1,0,0:0:0:0:
109,192,429512,1,0,0:0:0:0:
402,192,429605,1,0,0:0:0:0:
329,192,429605,1,0,0:0:0:0:
182,192,429605,1,0,0:0:0:0:
36,192,429791,1,0,0:0:0:0:
402,192,429791,1,0,0:0:0:0:
256,192,429791,1,0,0:0:0:45:kick.ogg
109,192,429885,1,0,0:0:0:0:
329,192,429885,1,0,0:0:0:0:
475,192,429978,1,0,0:0:0:0:
182,192,429978,1,0,0:0:0:0:
402,192,429978,1,0,0:0:0:0:
109,192,430071,1,0,0:0:0:0:
329,192,430071,1,0,0:0:0:0:
182,192,430164,1,0,0:0:0:0:
475,192,430164,1,0,0:0:0:0:
256,192,430164,1,0,0:0:0:45:kick.ogg
329,192,430350,1,0,0:0:0:0:
475,192,430350,1,0,0:0:0:0:
182,192,430350,1,0,0:0:0:0:
182,192,430444,1,0,0:0:0:0:
475,192,430444,1,0,0:0:0:0:
256,192,430537,1,0,0:0:0:45:kick.ogg
402,192,430537,1,0,0:0:0:0:
329,192,430537,1,0,0:0:0:0:
36,192,430537,1,0,0:0:0:0:
109,192,430537,1,0,0:0:0:0:
182,192,430630,1,0,0:0:0:0:
109,192,430723,1,0,0:0:0:0:
402,192,430723,1,0,0:0:0:0:
256,192,430723,1,0,0:0:0:0:
109,192,430909,1,0,0:0:0:0:
475,192,430909,1,0,0:0:0:0:
329,192,430909,1,0,0:0:0:45:kick.ogg
36,192,431003,1,0,0:0:0:0:
182,192,431096,1,0,0:0:0:0:
475,192,431096,1,0,0:0:0:0:
402,192,431096,1,0,0:0:0:0:
109,192,431189,1,0,0:0:0:0:
182,192,431282,1,0,0:0:0:0:
402,192,431282,1,0,0:0:0:0:
329,192,431282,1,0,0:0:0:45:kick.ogg
109,192,431375,1,0,0:0:0:0:
475,192,431468,1,0,0:0:0:0:
182,192,431468,1,0,0:0:0:0:
36,192,431468,1,0,0:0:0:0:
256,192,431515,1,0,0:0:0:0:
329,192,431562,1,0,0:0:0:0:
402,192,431608,1,0,0:0:0:0:
182,192,431655,1,0,0:0:0:0:
475,192,431655,1,0,0:0:0:0:
109,192,431655,1,0,0:0:0:0:
36,192,431748,1,0,0:0:0:0:
402,192,431841,1,0,0:0:0:0:
329,192,431841,1,0,0:0:0:0:
182,192,431841,1,0,0:0:0:0:
109,192,431934,1,0,0:0:0:0:
36,192,432027,1,0,0:0:0:0:
182,192,432027,1,0,0:0:0:0:
329,192,432027,1,0,0:0:0:45:kick.ogg
402,192,432027,1,0,0:0:0:0:
109,192,432121,1,0,0:0:0:0:
182,192,432214,1,0,0:0:0:0:
475,192,432214,1,0,0:0:0:0:
402,192,432214,1,0,0:0:0:0:
109,192,432307,1,0,0:0:0:0:
36,192,432400,1,0,0:0:0:0:
402,192,432400,1,0,0:0:0:0:
329,192,432400,1,0,0:0:0:45:kick.ogg
109,192,432493,1,0,0:0:0:0:
182,192,432586,1,0,0:0:0:0:
402,192,432586,1,0,0:0:0:0:
256,192,432586,1,0,0:0:0:0:
109,192,432773,1,0,0:0:0:0:
329,192,432773,1,0,0:0:0:45:kick.ogg
402,192,432773,1,0,0:0:0:0:
36,192,432866,1,0,0:0:0:0:
475,192,432866,1,0,0:0:0:0:
256,192,432959,1,0,0:0:0:0:
182,192,432959,1,0,0:0:0:0:
329,192,432959,1,0,0:0:0:0:
109,192,433052,1,0,0:0:0:0:
402,192,433052,1,0,0:0:0:0:
256,192,433145,1,0,0:0:0:45:kick.ogg
36,192,433145,1,0,0:0:0:0:
329,192,433145,1,0,0:0:0:0:
109,192,433239,1,0,0:0:0:0:
402,192,433332,1,0,0:0:0:45:kick.ogg
182,192,433332,1,0,0:0:0:0:
475,192,433332,1,0,0:0:0:0:
402,192,433425,1,0,0:0:0:0:
109,192,433425,1,0,0:0:0:0:
36,192,433518,1,0,0:0:0:0:
256,192,433518,1,0,0:0:0:45:kick.ogg
182,192,433518,1,0,0:0:0:0:
329,192,433518,1,0,0:0:0:0:
475,192,433518,1,0,0:0:0:0:
109,192,433611,1,0,0:0:0:0:
329,192,433705,1,0,0:0:0:0:
256,192,433705,1,0,0:0:0:0:
182,192,433705,1,0,0:0:0:0:
329,192,433891,1,0,0:0:0:45:kick.ogg
182,192,433891,1,0,0:0:0:0:
109,192,433891,1,0,0:0:0:0:
36,192,433984,1,0,0:0:0:0:
402,192,434077,1,0,0:0:0:0:
182,192,434077,1,0,0:0:0:0:
475,192,434077,1,0,0:0:0:0:
109,192,434170,1,0,0:0:0:0:
182,192,434264,1,0,0:0:0:0:
402,192,434264,1,0,0:0:0:0:
256,192,434264,1,0,0:0:0:45:kick.ogg
109,192,434357,1,0,0:0:0:0:
36,192,434450,1,0,0:0:0:0:
402,192,434450,1,0,0:0:0:0:
329,192,434496,1,0,0:0:0:0:
256,192,434543,1,0,0:0:0:0:
182,192,434590,1,0,0:0:0:0:
475,192,434636,1,0,0:0:0:0:
402,192,434636,1,0,0:0:0:45:kick.ogg
109,192,434636,1,0,0:0:0:0:
182,192,434729,1,0,0:0:0:0:
109,192,434823,1,0,0:0:0:0:
402,192,434823,1,0,0:0:0:0:
329,192,434823,1,0,0:0:0:0:
182,192,434916,1,0,0:0:0:0:
36,192,435009,1,0,0:0:0:0:
256,192,435009,1,0,0:0:0:45:kick.ogg
329,192,435009,1,0,0:0:0:0:
475,192,435009,1,0,0:0:0:0:
109,192,435102,1,0,0:0:0:0:
402,192,435195,1,0,0:0:0:0:
256,192,435195,1,0,0:0:0:0:
182,192,435195,1,0,0:0:0:0:
109,192,435288,1,0,0:0:0:0:
182,192,435382,1,0,0:0:0:0:
475,192,435382,1,0,0:0:0:0:
329,192,435382,1,0,0:0:0:45:kick.ogg
109,192,435475,1,0,0:0:0:0:
36,192,435568,1,0,0:0:0:0:
402,192,435568,1,0,0:0:0:0:
256,192,435568,1,0,0:0:0:0:
329,192,435754,1,0,0:0:0:0:
256,192,435754,1,0,0:0:0:45:kick.ogg
109,192,435754,1,0,0:0:0:0:
402,192,435847,1,0,0:0:0:0:
182,192,435847,1,0,0:0:0:0:
36,192,435941,1,0,0:0:0:0:
109,192,435941,1,0,0:0:0:0:
329,192,435941,1,0,0:0:0:0:
256,192,436034,1,0,0:0:0:0:
402,192,436034,1,0,0:0:0:0:
329,192,436127,1,0,0:0:0:45:kick.ogg
182,192,436127,1,0,0:0:0:0:
475,192,436127,1,0,0:0:0:0:
402,192,436313,1,0,0:0:0:0:
109,192,436313,1,0,0:0:0:0:
256,192,436313,1,0,0:0:0:0:
256,192,436500,1,0,0:0:0:45:kick.ogg
475,192,436500,1,0,0:0:0:0:
402,192,436500,1,0,0:0:0:0:
36,192,436500,1,0,0:0:0:0:
182,192,436500,1,0,0:0:0:0:
109,192,436593,1,0,0:0:0:0:
329,192,436686,1,0,0:0:0:0:
402,192,436686,1,0,0:0:0:0:
182,192,436686,1,0,0:0:0:0:
182,192,436872,1,0,0:0:0:0:
475,192,436872,1,0,0:0:0:0:
329,192,436872,1,0,0:0:0:45:kick.ogg
109,192,436965,1,0,0:0:0:0:
182,192,437059,1,0,0:0:0:0:
402,192,437059,1,0,0:0:0:0:
256,192,437059,1,0,0:0:0:0:
109,192,437152,1,0,0:0:0:0:
329,192,437245,1,0,0:0:0:0:
256,192,437245,1,0,0:0:0:45:kick.ogg
36,192,437245,1,0,0:0:0:0:
182,192,437338,1,0,0:0:0:0:
475,192,437431,1,0,0:0:0:0:
402,192,437431,1,0,0:0:0:0:
109,192,437431,1,0,0:0:0:0:
182,192,437478,1,0,0:0:0:0:
256,192,437524,1,0,0:0:0:0:
329,192,437571,1,0,0:0:0:0:
36,192,437618,1,0,0:0:0:0:
402,192,437618,1,0,0:0:0:45:kick.ogg
182,192,437618,1,0,0:0:0:0:
109,192,437711,1,0,0:0:0:0:
402,192,437804,1,0,0:0:0:0:
329,192,437804,1,0,0:0:0:0:
182,192,437804,1,0,0:0:0:0:
109,192,437897,1,0,0:0:0:0:
329,192,437990,1,0,0:0:0:45:kick.ogg
475,192,437990,1,0,0:0:0:0:
182,192,437990,1,0,0:0:0:0:
36,192,437990,1,0,0:0:0:0:
109,192,438083,1,0,0:0:0:0:
329,192,438177,1,0,0:0:0:0:
402,192,438177,1,0,0:0:0:0:
182,192,438177,1,0,0:0:0:0:
109,192,438270,1,0,0:0:0:0:
475,192,438363,1,0,0:0:0:0:
402,192,438363,1,0,0:0:0:45:kick.ogg
36,192,438363,1,0,0:0:0:0:
109,192,438456,1,0,0:0:0:0:
402,192,438549,1,0,0:0:0:0:
329,192,438549,1,0,0:0:0:0:
182,192,438549,1,0,0:0:0:0:
402,192,438736,1,0,0:0:0:0:
256,192,438736,1,0,0:0:0:45:snare.ogg
109,192,438736,1,0,0:0:0:0:
475,192,438829,1,0,0:0:0:0:
329,192,438829,1,0,0:0:0:45:snare.ogg
182,192,438829,1,0,0:0:0:0:
402,192,438922,1,0,0:0:0:0:
256,192,438922,1,0,0:0:0:45:snare.ogg
109,192,438922,1,0,0:0:0:0:
329,192,439015,1,0,0:0:0:0:
182,192,439015,1,0,0:0:0:45:snare.ogg
36,192,439015,1,0,0:0:0:0:
402,192,439108,1,0,0:0:0:0:
256,192,439108,1,0,0:0:0:45:snare.ogg
109,192,439108,1,0,0:0:0:0:
329,192,439295,1,0,0:0:0:0:
256,192,439295,1,0,0:0:0:45:snare.ogg
182,192,439295,1,0,0:0:0:0:
36,192,439481,1,0,0:0:0:0:
475,192,439481,1,0,0:0:0:0:
402,192,439481,1,0,0:0:0:0:
109,192,439481,1,0,0:0:0:0:
256,192,439481,1,0,0:0:0:45:kick.ogg
329,192,439574,1,0,0:0:0:0:
109,192,439667,1,0,0:0:0:0:
182,192,439667,1,0,0:0:0:0:
402,192,439667,1,0,0:0:0:0:
256,192,439854,1,0,0:0:0:70:soft-hitclap.ogg
182,192,439854,1,0,0:0:0:0:
402,192,439854,1,0,0:0:0:0:
329,192,439947,1,0,0:0:0:0:
182,192,440040,1,0,0:0:0:0:
109,192,440040,1,0,0:0:0:0:
402,192,440040,1,0,0:0:0:0:
475,192,440133,1,0,0:0:0:0:
402,192,440226,1,0,0:0:0:0:
182,192,440226,1,0,0:0:0:45:kick.ogg
36,192,440226,1,0,0:0:0:0:
329,192,440319,1,0,0:0:0:0:
402,192,440413,1,0,0:0:0:0:
109,192,440413,1,0,0:0:0:0:
475,192,440413,1,0,0:0:0:0:
182,192,440459,1,0,0:0:0:0:
256,192,440506,1,0,0:0:0:0:
329,192,440552,1,0,0:0:0:0:
36,192,440599,1,0,0:0:0:0:
402,192,440599,1,0,0:0:0:0:
109,192,440599,1,0,0:0:0:70:soft-hitclap.ogg
329,192,440692,1,0,0:0:0:0:
402,192,440785,1,0,0:0:0:0:
256,192,440785,1,0,0:0:0:0:
109,192,440785,1,0,0:0:0:0:
475,192,440878,1,0,0:0:0:0:
36,192,440972,1,0,0:0:0:0:
182,192,440972,1,0,0:0:0:45:kick.ogg
402,192,440972,1,0,0:0:0:0:
329,192,440972,1,0,0:0:0:0:
475,192,441065,1,0,0:0:0:0:
402,192,441158,1,0,0:0:0:0:
256,192,441158,1,0,0:0:0:0:
109,192,441158,1,0,0:0:0:0:
329,192,441251,1,0,0:0:0:0:
256,192,441344,1,0,0:0:0:70:soft-hitclap.ogg
182,192,441344,1,0,0:0:0:0:
475,192,441344,1,0,0:0:0:0:
402,192,441437,1,0,0:0:0:0:
182,192,441531,1,0,0:0:0:0:
109,192,441531,1,0,0:0:0:0:
329,192,441531,1,0,0:0:0:0:
109,192,441717,1,0,0:0:0:45:kick.ogg
36,192,441717,1,0,0:0:0:0:
329,192,441717,1,0,0:0:0:0:
475,192,441810,1,0,0:0:0:0:
182,192,441810,1,0,0:0:0:0:
36,192,441903,1,0,0:0:0:0:
329,192,441903,1,0,0:0:0:0:
256,192,441903,1,0,0:0:0:0:
109,192,441996,1,0,0:0:0:0:
402,192,441996,1,0,0:0:0:0:
329,192,442090,1,0,0:0:0:0:
182,192,442090,1,0,0:0:0:70:soft-hitclap.ogg
475,192,442090,1,0,0:0:0:0:
256,192,442183,1,0,0:0:0:0:
329,192,442276,1,0,0:0:0:0:
182,192,442276,1,0,0:0:0:0:
109,192,442276,1,0,0:0:0:0:
402,192,442369,1,0,0:0:0:0:
256,192,442369,1,0,0:0:0:0:
182,192,442462,1,0,0:0:0:45:kick.ogg
109,192,442462,1,0,0:0:0:0:
36,192,442462,1,0,0:0:0:0:
329,192,442462,1,0,0:0:0:0:
475,192,442462,1,0,0:0:0:0:
402,192,442555,1,0,0:0:0:0:
329,192,442649,1,0,0:0:0:0:
109,192,442649,1,0,0:0:0:0:
182,192,442649,1,0,0:0:0:0:
329,192,442835,1,0,0:0:0:0:
256,192,442835,1,0,0:0:0:70:soft-hitclap.ogg
182,192,442835,1,0,0:0:0:0:
402,192,442928,1,0,0:0:0:0:
475,192,443021,1,0,0:0:0:0:
256,192,443021,1,0,0:0:0:0:
109,192,443021,1,0,0:0:0:0:
402,192,443114,1,0,0:0:0:0:
36,192,443208,1,0,0:0:0:0:
329,192,443208,1,0,0:0:0:0:
182,192,443208,1,0,0:0:0:45:kick.ogg
475,192,443301,1,0,0:0:0:0:
182,192,443394,1,0,0:0:0:0:
402,192,443394,1,0,0:0:0:0:
109,192,443394,1,0,0:0:0:0:
329,192,443441,1,0,0:0:0:0:
256,192,443487,1,0,0:0:0:0:
182,192,443534,1,0,0:0:0:0:
402,192,443580,1,0,0:0:0:0:
36,192,443580,1,0,0:0:0:0:
109,192,443580,1,0,0:0:0:0:
329,192,443673,1,0,0:0:0:0:
182,192,443767,1,0,0:0:0:0:
256,192,443767,1,0,0:0:0:0:
402,192,443767,1,0,0:0:0:0:
475,192,443860,1,0,0:0:0:0:
109,192,443953,1,0,0:0:0:0:
182,192,443953,1,0,0:0:0:0:
402,192,443953,1,0,0:0:0:0:
256,192,443953,1,0,0:0:0:45:kick.ogg
329,192,444046,1,0,0:0:0:0:
36,192,444139,1,0,0:0:0:0:
182,192,444139,1,0,0:0:0:0:
402,192,444139,1,0,0:0:0:0:
329,192,444232,1,0,0:0:0:0:
109,192,444326,1,0,0:0:0:0:
256,192,444326,1,0,0:0:0:70:soft-hitclap.ogg
475,192,444326,1,0,0:0:0:0:
402,192,444419,1,0,0:0:0:0:
475,192,444512,1,0,0:0:0:0:
256,192,444512,1,0,0:0:0:0:
182,192,444512,1,0,0:0:0:0:
402,192,444605,1,0,0:0:0:0:
256,192,444698,1,0,0:0:0:45:kick.ogg
109,192,444698,1,0,0:0:0:0:
36,192,444698,1,0,0:0:0:0:
475,192,444791,1,0,0:0:0:0:
182,192,444791,1,0,0:0:0:0:
402,192,444885,1,0,0:0:0:0:
329,192,444885,1,0,0:0:0:0:
109,192,444885,1,0,0:0:0:0:
256,192,444978,1,0,0:0:0:0:
182,192,444978,1,0,0:0:0:0:
329,192,445071,1,0,0:0:0:0:
109,192,445071,1,0,0:0:0:70:soft-hitclap.ogg
475,192,445071,1,0,0:0:0:0:
36,192,445257,1,0,0:0:0:0:
182,192,445257,1,0,0:0:0:45:kick.ogg
402,192,445257,1,0,0:0:0:0:
402,192,445350,1,0,0:0:0:0:
109,192,445350,1,0,0:0:0:0:
182,192,445444,1,0,0:0:0:0:
475,192,445444,1,0,0:0:0:0:
36,192,445444,1,0,0:0:0:0:
329,192,445444,1,0,0:0:0:0:
256,192,445444,1,0,0:0:0:45:kick.ogg
402,192,445537,1,0,0:0:0:0:
475,192,445630,1,0,0:0:0:0:
182,192,445630,1,0,0:0:0:0:
109,192,445630,1,0,0:0:0:0:
329,192,445816,1,0,0:0:0:0:
256,192,445816,1,0,0:0:0:70:soft-hitclap.ogg
182,192,445816,1,0,0:0:0:0:
402,192,445909,1,0,0:0:0:0:
475,192,446003,1,0,0:0:0:0:
256,192,446003,1,0,0:0:0:0:
109,192,446003,1,0,0:0:0:0:
402,192,446096,1,0,0:0:0:0:
329,192,446189,1,0,0:0:0:0:
182,192,446189,1,0,0:0:0:45:kick.ogg
36,192,446189,1,0,0:0:0:0:
475,192,446282,1,0,0:0:0:0:
402,192,446375,1,0,0:0:0:0:
329,192,446375,1,0,0:0:0:0:
109,192,446375,1,0,0:0:0:0:
182,192,446422,1,0,0:0:0:0:
256,192,446468,1,0,0:0:0:0:
329,192,446515,1,0,0:0:0:0:
36,192,446562,1,0,0:0:0:0:
109,192,446562,1,0,0:0:0:0:
402,192,446562,1,0,0:0:0:0:
475,192,446655,1,0,0:0:0:0:
256,192,446748,1,0,0:0:0:0:
329,192,446748,1,0,0:0:0:0:
109,192,446748,1,0,0:0:0:0:
402,192,446841,1,0,0:0:0:0:
109,192,446934,1,0,0:0:0:0:
329,192,446934,1,0,0:0:0:0:
475,192,446934,1,0,0:0:0:0:
182,192,446934,1,0,0:0:0:45:kick.ogg
402,192,447027,1,0,0:0:0:0:
329,192,447121,1,0,0:0:0:0:
182,192,447121,1,0,0:0:0:0:
36,192,447121,1,0,0:0:0:0:
402,192,447214,1,0,0:0:0:0:
329,192,447307,1,0,0:0:0:0:
182,192,447307,1,0,0:0:0:70:soft-hitclap.ogg
109,192,447307,1,0,0:0:0:0:
402,192,447400,1,0,0:0:0:0:
475,192,447493,1,0,0:0:0:0:
256,192,447493,1,0,0:0:0:0:
109,192,447493,1,0,0:0:0:0:
475,192,447680,1,0,0:0:0:0:
36,192,447680,1,0,0:0:0:0:
182,192,447680,1,0,0:0:0:45:kick.ogg
329,192,447773,1,0,0:0:0:0:
109,192,447773,1,0,0:0:0:0:
475,192,447866,1,0,0:0:0:0:
402,192,447866,1,0,0:0:0:0:
182,192,447866,1,0,0:0:0:0:
329,192,447959,1,0,0:0:0:0:
109,192,447959,1,0,0:0:0:0:
36,192,448052,1,0,0:0:0:0:
475,192,448052,1,0,0:0:0:0:
256,192,448052,1,0,0:0:0:70:soft-hitclap.ogg
256,192,448239,1,0,0:0:0:0:
109,192,448239,1,0,0:0:0:0:
402,192,448239,1,0,0:0:0:0:
182,192,448332,1,0,0:0:0:0:
329,192,448332,1,0,0:0:0:0:
109,192,448425,1,0,0:0:0:45:kick.ogg
36,192,448425,1,0,0:0:0:0:
402,192,448425,1,0,0:0:0:45:snare.ogg
475,192,448425,1,0,0:0:0:0:
256,192,448518,1,0,0:0:0:45:snare.ogg
329,192,448518,1,0,0:0:0:0:
475,192,448611,1,0,0:0:0:0:
109,192,448611,1,0,0:0:0:0:
182,192,448611,1,0,0:0:0:45:snare.ogg
402,192,448705,1,0,0:0:0:0:
329,192,448705,1,0,0:0:0:45:snare.ogg
475,192,448798,1,0,0:0:0:0:
182,192,448798,1,0,0:0:0:0:
36,192,448798,1,0,0:0:0:0:
109,192,448798,1,0,0:0:0:45:snare.ogg
329,192,448891,1,0,0:0:0:0:
256,192,448891,1,0,0:0:0:45:snare.ogg
402,192,448984,1,0,0:0:0:0:
475,192,448984,1,0,0:0:0:0:
36,192,448984,1,0,0:0:0:45:snare.ogg
256,192,449077,1,0,0:0:0:45:snare.ogg
182,192,449077,1,0,0:0:0:0:
475,192,449170,1,0,0:0:0:0:
36,192,449170,1,0,0:0:0:0:
109,192,449170,1,0,0:0:0:45:snare.ogg
402,192,449170,1,0,0:0:0:0:
256,192,449264,1,0,0:0:0:45:snare.ogg
329,192,449264,1,0,0:0:0:0:
109,192,449357,1,0,0:0:0:0:
475,192,449357,1,0,0:0:0:0:
182,192,449357,1,0,0:0:0:45:snare.ogg
402,192,449450,1,0,0:0:0:0:
329,192,449450,1,0,0:0:0:45:snare.ogg
109,192,449543,1,0,0:0:0:0:
36,192,449543,1,0,0:0:0:0:
475,192,449543,1,0,0:0:0:0:
182,192,449543,1,0,0:0:0:45:snare.ogg
256,192,449636,1,0,0:0:0:0:
402,192,449636,1,0,0:0:0:45:snare.ogg
36,192,449729,1,0,0:0:0:0:
182,192,449729,1,0,0:0:0:45:snare.ogg
329,192,449729,1,0,0:0:0:0:
256,192,449823,1,0,0:0:0:45:snare.ogg
109,192,449823,1,0,0:0:0:0:
182,192,449916,1,0,0:0:0:0:
36,192,449916,1,0,0:0:0:0:
329,192,449916,1,0,0:0:0:45:kick.ogg
402,192,449916,1,0,0:0:0:0:
475,192,450009,1,0,0:0:0:0:
256,192,450009,1,0,0:0:0:45:kick.ogg
109,192,450009,1,0,0:0:0:0:
402,192,450195,1,0,0:0:0:0:
329,192,450195,1,0,0:0:0:45:kick.ogg
36,192,450195,1,0,0:0:0:0:
182,192,450195,1,0,0:0:0:0:
475,192,450288,1,0,0:0:0:0:
256,192,450288,1,0,0:0:0:45:kick.ogg
109,192,450288,1,0,0:0:0:0:
402,192,450475,1,0,0:0:0:45:kick.ogg
475,192,450475,1,0,0:0:0:0:
36,192,450475,1,0,0:0:0:0:
182,192,450475,1,0,0:0:0:0:
109,192,450568,1,0,0:0:0:0:
256,192,450568,1,0,0:0:0:0:
402,192,450568,1,0,0:0:0:0:
329,192,450568,1,0,0:0:0:45:kick.ogg
109,192,450847,1,0,0:0:0:0:
182,192,450847,1,0,0:0:0:45:kick.ogg
402,192,450941,1,0,0:0:0:0:
329,192,450941,1,0,0:0:0:45:kick.ogg
109,192,451034,1,0,0:0:0:0:
182,192,451034,1,0,0:0:0:45:kick.ogg
329,192,451220,1,0,0:0:0:45:kick.ogg
36,192,451406,1,0,0:0:0:35:kick.ogg
182,192,451406,1,0,0:0:0:0:
329,192,451406,1,0,0:0:0:0:
475,192,451406,1,0,0:0:0:0:
109,192,451593,1,0,0:0:0:0:
256,192,451686,1,0,0:0:0:0:
329,192,451686,1,0,0:0:0:0:
36,192,451779,1,0,0:0:0:0:
182,192,451779,1,0,0:0:0:0:
402,192,451779,1,0,0:0:0:35:kick.ogg
475,192,451779,1,0,0:0:0:0:
329,192,451965,1,0,0:0:0:0:
182,192,451965,1,0,0:0:0:0:
109,192,452059,1,0,0:0:0:0:
402,192,452152,1,0,0:0:0:35:kick.ogg
475,192,452152,1,0,0:0:0:0:
36,192,452152,1,0,0:0:0:0:
182,192,452152,1,0,0:0:0:0:
329,192,452338,1,0,0:0:0:0:
402,192,452431,1,0,0:0:0:0:
256,192,452431,1,0,0:0:0:0:
109,192,452524,1,0,0:0:0:0:
182,192,452524,1,0,0:0:0:35:kick.ogg
329,192,452524,1,0,0:0:0:0:
329,192,452711,1,0,0:0:0:0:
256,192,452711,1,0,0:0:0:0:
182,192,452804,1,0,0:0:0:0:
402,192,452897,1,0,0:0:0:0:
256,192,452897,1,0,0:0:0:0:
475,192,452897,1,0,0:0:0:0:
109,192,452897,1,0,0:0:0:35:kick.ogg
36,192,452897,1,0,0:0:0:0:
182,192,453083,1,0,0:0:0:0:
329,192,453177,1,0,0:0:0:0:
109,192,453177,1,0,0:0:0:0:
402,192,453270,1,0,0:0:0:0:
36,192,453270,1,0,0:0:0:0:
182,192,453270,1,0,0:0:0:35:kick.ogg
256,192,453456,1,0,0:0:0:0:
182,192,453456,1,0,0:0:0:0:
475,192,453549,1,0,0:0:0:0:
109,192,453642,1,0,0:0:0:0:
182,192,453642,1,0,0:0:0:0:
402,192,453642,1,0,0:0:0:0:
329,192,453642,1,0,0:0:0:35:kick.ogg
256,192,453829,1,0,0:0:0:0:
36,192,453829,1,0,0:0:0:0:
109,192,453922,1,0,0:0:0:0:
329,192,453922,1,0,0:0:0:0:
475,192,454015,1,0,0:0:0:0:
402,192,454015,1,0,0:0:0:35:kick.ogg
182,192,454015,1,0,0:0:0:0:
36,192,454201,1,0,0:0:0:0:
402,192,454201,1,0,0:0:0:0:
329,192,454295,1,0,0:0:0:0:
402,192,454388,1,0,0:0:0:35:kick.ogg
182,192,454388,1,0,0:0:0:0:
256,192,454388,1,0,0:0:0:0:
109,192,454388,1,0,0:0:0:0:
329,192,454574,1,0,0:0:0:0:
402,192,454667,1,0,0:0:0:0:
256,192,454667,1,0,0:0:0:0:
36,192,454760,1,0,0:0:0:0:
109,192,454760,1,0,0:0:0:35:kick.ogg
329,192,454760,1,0,0:0:0:0:
329,192,454947,1,0,0:0:0:0:
182,192,454947,1,0,0:0:0:0:
475,192,454947,1,0,0:0:0:0:
402,192,455040,1,0,0:0:0:0:
182,192,455133,1,0,0:0:0:0:
256,192,455133,1,0,0:0:0:0:
109,192,455133,1,0,0:0:0:35:kick.ogg
475,192,455133,1,0,0:0:0:0:
402,192,455319,1,0,0:0:0:0:
182,192,455413,1,0,0:0:0:0:
329,192,455413,1,0,0:0:0:0:
109,192,455506,1,0,0:0:0:0:
475,192,455506,1,0,0:0:0:0:
402,192,455506,1,0,0:0:0:35:kick.ogg
109,192,455692,1,0,0:0:0:0:
329,192,455692,1,0,0:0:0:0:
256,192,455785,1,0,0:0:0:0:
329,192,455878,1,0,0:0:0:0:
36,192,455878,1,0,0:0:0:0:
182,192,455878,1,0,0:0:0:0:
402,192,455878,1,0,0:0:0:35:kick.ogg
182,192,456065,1,0,0:0:0:0:
256,192,456158,1,0,0:0:0:0:
329,192,456251,1,0,0:0:0:35:kick.ogg
182,192,456251,1,0,0:0:0:0:
475,192,456251,1,0,0:0:0:0:
36,192,456437,1,0,0:0:0:0:
109,192,456437,1,0,0:0:0:0:
402,192,456437,1,0,0:0:0:0:
329,192,456531,1,0,0:0:0:0:
182,192,456624,1,0,0:0:0:0:
475,192,456624,1,0,0:0:0:0:
256,192,456624,1,0,0:0:0:35:kick.ogg
402,192,456810,1,0,0:0:0:0:
256,192,456903,1,0,0:0:0:0:
36,192,456996,1,0,0:0:0:0:
475,192,456996,1,0,0:0:0:0:
402,192,456996,1,0,0:0:0:35:kick.ogg
329,192,457090,1,0,0:0:0:0:
182,192,457090,1,0,0:0:0:0:
402,192,457183,1,0,0:0:0:0:
475,192,457183,1,0,0:0:0:0:
36,192,457183,1,0,0:0:0:0:
329,192,457276,1,0,0:0:0:0:
182,192,457276,1,0,0:0:0:0:
402,192,457369,1,0,0:0:0:35:kick.ogg
36,192,457369,1,0,0:0:0:0:
475,192,457369,1,0,0:0:0:0:
109,192,457369,1,0,0:0:0:0:
329,192,457555,1,0,0:0:0:0:
109,192,457649,1,0,0:0:0:0:
402,192,457649,1,0,0:0:0:0:
182,192,457742,1,0,0:0:0:0:
329,192,457742,1,0,0:0:0:35:kick.ogg
475,192,457742,1,0,0:0:0:0:
182,192,457928,1,0,0:0:0:0:
329,192,457928,1,0,0:0:0:0:
256,192,458021,1,0,0:0:0:0:
109,192,458114,1,0,0:0:0:35:kick.ogg
329,192,458114,1,0,0:0:0:0:
402,192,458114,1,0,0:0:0:0:
475,192,458114,1,0,0:0:0:0:
182,192,458301,1,0,0:0:0:0:
256,192,458394,1,0,0:0:0:0:
109,192,458487,1,0,0:0:0:35:kick.ogg
475,192,458487,1,0,0:0:0:0:
402,192,458487,1,0,0:0:0:0:
329,192,458673,1,0,0:0:0:0:
256,192,458767,1,0,0:0:0:0:
36,192,458860,1,0,0:0:0:0:
109,192,458860,1,0,0:0:0:0:
329,192,458860,1,0,0:0:0:0:
402,192,458860,1,0,0:0:0:35:kick.ogg
329,192,459046,1,0,0:0:0:0:
182,192,459139,1,0,0:0:0:0:
475,192,459139,1,0,0:0:0:0:
109,192,459232,1,0,0:0:0:0:
329,192,459232,1,0,0:0:0:0:
402,192,459232,1,0,0:0:0:35:kick.ogg
256,192,459419,1,0,0:0:0:0:
329,192,459419,1,0,0:0:0:0:
182,192,459512,1,0,0:0:0:0:
475,192,459605,1,0,0:0:0:0:
402,192,459605,1,0,0:0:0:0:
109,192,459605,1,0,0:0:0:35:kick.ogg
329,192,459605,1,0,0:0:0:0:
182,192,459791,1,0,0:0:0:0:
329,192,459885,1,0,0:0:0:0:
109,192,459885,1,0,0:0:0:0:
475,192,459978,1,0,0:0:0:0:
182,192,459978,1,0,0:0:0:35:kick.ogg
36,192,459978,1,0,0:0:0:0:
402,192,460164,1,0,0:0:0:0:
256,192,460164,1,0,0:0:0:0:
109,192,460257,1,0,0:0:0:0:
182,192,460350,1,0,0:0:0:0:
329,192,460350,1,0,0:0:0:0:
256,192,460350,1,0,0:0:0:0:
475,192,460350,1,0,0:0:0:65:kick.ogg
36,192,460350,1,0,0:0:0:35:kick.ogg
475,192,460537,1,0,0:0:0:0:
329,192,460630,1,0,0:0:0:0:
36,192,460630,1,0,0:0:0:0:
475,192,460723,1,0,0:0:0:0:
182,192,460909,1,0,0:0:0:0:
36,192,460909,1,0,0:0:0:0:
475,192,461003,1,0,0:0:0:0:
329,192,461096,1,0,0:0:0:0:
109,192,461096,1,0,0:0:0:65:kick.ogg
402,192,461096,1,0,0:0:0:0:
109,192,461282,1,0,0:0:0:35:kick.ogg
402,192,461282,1,0,0:0:0:0:
182,192,461375,1,0,0:0:0:0:
402,192,461468,1,0,0:0:0:35:kick.ogg
109,192,461468,1,0,0:0:0:0:
329,192,461655,1,0,0:0:0:0:
109,192,461655,1,0,0:0:0:0:
402,192,461655,1,0,0:0:0:35:kick.ogg
475,192,461748,1,0,0:0:0:0:
36,192,461748,1,0,0:0:0:0:
256,192,461841,1,0,0:0:0:0:
109,192,461841,1,0,0:0:0:0:
402,192,461841,1,0,0:0:0:35:kick.ogg
182,192,462027,1,0,0:0:0:0:
329,192,462121,1,0,0:0:0:0:
402,192,462121,1,0,0:0:0:0:
182,192,462214,1,0,0:0:0:0:
475,192,462214,1,0,0:0:0:70:soft-hitclap.ogg
402,192,462400,1,0,0:0:0:0:
182,192,462400,1,0,0:0:0:0:
256,192,462400,1,0,0:0:0:0:
109,192,462493,1,0,0:0:0:0:
329,192,462586,1,0,0:0:0:0:
475,192,462586,1,0,0:0:0:0:
36,192,462586,1,0,0:0:0:35:kick.ogg
256,192,462586,1,0,0:0:0:0:
182,192,462773,1,0,0:0:0:0:
402,192,462866,1,0,0:0:0:0:
256,192,462866,1,0,0:0:0:0:
109,192,462866,1,0,0:0:0:0:
475,192,462959,1,0,0:0:0:0:
36,192,462959,1,0,0:0:0:70:soft-hitclap.ogg
182,192,463145,1,0,0:0:0:0:
329,192,463145,1,0,0:0:0:0:
109,192,463145,1,0,0:0:0:0:
402,192,463239,1,0,0:0:0:0:
109,192,463332,1,0,0:0:0:0:
256,192,463332,1,0,0:0:0:0:
475,192,463332,1,0,0:0:0:0:
36,192,463332,1,0,0:0:0:35:kick.ogg
402,192,463518,1,0,0:0:0:0:
329,192,463611,1,0,0:0:0:0:
182,192,463611,1,0,0:0:0:0:
475,192,463705,1,0,0:0:0:0:
36,192,463705,1,0,0:0:0:70:soft-hitclap.ogg
256,192,463891,1,0,0:0:0:0:
402,192,463891,1,0,0:0:0:0:
475,192,463984,1,0,0:0:0:0:
182,192,464077,1,0,0:0:0:0:
329,192,464077,1,0,0:0:0:0:
402,192,464077,1,0,0:0:0:35:kick.ogg
36,192,464077,1,0,0:0:0:0:
402,192,464264,1,0,0:0:0:0:
256,192,464357,1,0,0:0:0:0:
109,192,464357,1,0,0:0:0:0:
475,192,464357,1,0,0:0:0:0:
36,192,464450,1,0,0:0:0:0:
329,192,464450,1,0,0:0:0:70:soft-hitclap.ogg
36,192,464636,1,0,0:0:0:0:
182,192,464636,1,0,0:0:0:0:
402,192,464636,1,0,0:0:0:0:
475,192,464729,1,0,0:0:0:0:
109,192,464823,1,0,0:0:0:0:
256,192,464823,1,0,0:0:0:0:
402,192,464823,1,0,0:0:0:0:
329,192,464823,1,0,0:0:0:35:kick.ogg
475,192,465009,1,0,0:0:0:0:
402,192,465102,1,0,0:0:0:0:
182,192,465102,1,0,0:0:0:0:
329,192,465102,1,0,0:0:0:0:
36,192,465195,1,0,0:0:0:70:soft-hitclap.ogg
256,192,465195,1,0,0:0:0:0:
182,192,465382,1,0,0:0:0:0:
329,192,465382,1,0,0:0:0:0:
109,192,465382,1,0,0:0:0:0:
402,192,465475,1,0,0:0:0:0:
256,192,465568,1,0,0:0:0:0:
36,192,465568,1,0,0:0:0:0:
475,192,465568,1,0,0:0:0:0:
109,192,465568,1,0,0:0:0:35:kick.ogg
402,192,465754,1,0,0:0:0:0:
475,192,465847,1,0,0:0:0:0:
182,192,465847,1,0,0:0:0:0:
329,192,465847,1,0,0:0:0:0:
402,192,465941,1,0,0:0:0:70:soft-hitclap.ogg
36,192,465941,1,0,0:0:0:0:
36,192,466127,1,0,0:0:0:0:
402,192,466127,1,0,0:0:0:0:
109,192,466127,1,0,0:0:0:0:
329,192,466220,1,0,0:0:0:0:
182,192,466220,1,0,0:0:0:0:
109,192,466313,1,0,0:0:0:0:
402,192,466313,1,0,0:0:0:0:
256,192,466313,1,0,0:0:0:35:kick.ogg
475,192,466313,1,0,0:0:0:0:
329,192,466500,1,0,0:0:0:0:
182,192,466593,1,0,0:0:0:0:
36,192,466686,1,0,0:0:0:0:
475,192,466686,1,0,0:0:0:70:soft-hitclap.ogg
475,192,466872,1,0,0:0:0:0:
182,192,466872,1,0,0:0:0:0:
329,192,466872,1,0,0:0:0:0:
256,192,466965,1,0,0:0:0:0:
109,192,467059,1,0,0:0:0:0:
402,192,467059,1,0,0:0:0:35:kick.ogg
109,192,467245,1,0,0:0:0:0:
256,192,467338,1,0,0:0:0:0:
36,192,467431,1,0,0:0:0:0:
402,192,467431,1,0,0:0:0:70:soft-hitclap.ogg
256,192,467524,1,0,0:0:0:0:
402,192,467618,1,0,0:0:0:0:
109,192,467618,1,0,0:0:0:0:
256,192,467711,1,0,0:0:0:0:
36,192,467804,1,0,0:0:0:0:
329,192,467804,1,0,0:0:0:0:
475,192,467804,1,0,0:0:0:0:
182,192,467804,1,0,0:0:0:35:kick.ogg
182,192,467990,1,0,0:0:0:0:
402,192,468083,1,0,0:0:0:0:
109,192,468083,1,0,0:0:0:0:
256,192,468083,1,0,0:0:0:0:
475,192,468177,1,0,0:0:0:0:
329,192,468177,1,0,0:0:0:70:soft-hitclap.ogg
475,192,468363,1,0,0:0:0:0:
182,192,468363,1,0,0:0:0:0:
329,192,468363,1,0,0:0:0:0:
109,192,468456,1,0,0:0:0:0:
256,192,468549,1,0,0:0:0:0:
402,192,468549,1,0,0:0:0:0:
36,192,468549,1,0,0:0:0:0:
329,192,468549,1,0,0:0:0:35:kick.ogg
109,192,468736,1,0,0:0:0:0:
182,192,468829,1,0,0:0:0:0:
329,192,468922,1,0,0:0:0:0:
36,192,468922,1,0,0:0:0:70:soft-hitclap.ogg
475,192,468922,1,0,0:0:0:0:
182,192,469108,1,0,0:0:0:0:
182,192,469201,1,0,0:0:0:0:
109,192,469295,1,0,0:0:0:0:
329,192,469295,1,0,0:0:0:0:
36,192,469295,1,0,0:0:0:0:
475,192,469295,1,0,0:0:0:35:kick.ogg
402,192,469481,1,0,0:0:0:0:
256,192,469574,1,0,0:0:0:0:
182,192,469574,1,0,0:0:0:0:
475,192,469574,1,0,0:0:0:0:
109,192,469667,1,0,0:0:0:0:
402,192,469667,1,0,0:0:0:70:soft-hitclap.ogg
109,192,469854,1,0,0:0:0:0:
329,192,469854,1,0,0:0:0:0:
36,192,469854,1,0,0:0:0:0:
256,192,469947,1,0,0:0:0:0:
182,192,470040,1,0,0:0:0:0:
402,192,470040,1,0,0:0:0:0:
36,192,470040,1,0,0:0:0:0:
475,192,470040,1,0,0:0:0:35:kick.ogg
109,192,470226,1,0,0:0:0:0:
329,192,470319,1,0,0:0:0:0:
256,192,470319,1,0,0:0:0:0:
475,192,470319,1,0,0:0:0:0:
182,192,470413,1,0,0:0:0:0:
36,192,470413,1,0,0:0:0:70:soft-hitclap.ogg
402,192,470413,1,0,0:0:0:0:
402,192,470599,1,0,0:0:0:0:
182,192,470599,1,0,0:0:0:0:
109,192,470599,1,0,0:0:0:0:
402,192,470692,1,0,0:0:0:0:
475,192,470785,1,0,0:0:0:0:
36,192,470785,1,0,0:0:0:0:
329,192,470785,1,0,0:0:0:0:
109,192,470785,1,0,0:0:0:0:
256,192,470785,1,0,0:0:0:0:
329,192,470972,1,0,0:0:0:35:kick.ogg
256,192,470972,1,0,0:0:0:0:
109,192,470972,1,0,0:0:0:0:
402,192,471158,1,0,0:0:0:35:kick.ogg
329,192,471158,1,0,0:0:0:0:
182,192,471158,1,0,0:0:0:0:
402,192,471344,1,0,0:0:0:35:kick.ogg
329,192,471344,1,0,0:0:0:0:
182,192,471344,1,0,0:0:0:0:
182,192,471531,1,0,0:0:0:0:
256,192,471531,1,0,0:0:0:50:snare.ogg
109,192,471531,1,0,0:0:0:35:kick.ogg
402,192,471624,1,0,0:0:0:50:snare.ogg
109,192,471717,1,0,0:0:0:35:kick.ogg
329,192,471717,1,0,0:0:0:35:kick.ogg
182,192,471717,1,0,0:0:0:0:
256,192,471810,1,0,0:0:0:50:snare.ogg
182,192,471903,1,0,0:0:0:35:kick.ogg
402,192,471903,1,0,0:0:0:50:snare.ogg
329,192,471903,1,0,0:0:0:0:
109,192,471996,1,0,0:0:0:0:
256,192,471996,1,0,0:0:0:50:snare.ogg
182,192,472090,1,0,0:0:0:35:kick.ogg
329,192,472090,1,0,0:0:0:50:snare.ogg
256,192,472183,1,0,0:0:0:0:
402,192,472183,1,0,0:0:0:50:snare.ogg
329,192,472276,1,0,0:0:0:35:kick.ogg
182,192,472276,1,0,0:0:0:0:
109,192,472276,1,0,0:0:0:0:
36,192,472369,1,0,0:0:0:0:
402,192,472369,1,0,0:0:0:0:
182,192,472462,1,0,0:0:0:0:
475,192,472462,1,0,0:0:0:0:
109,192,472555,1,0,0:0:0:0:
402,192,472555,1,0,0:0:0:0:
36,192,472649,1,0,0:0:0:0:
182,192,472649,1,0,0:0:0:0:
329,192,472649,1,0,0:0:0:35:kick.ogg
402,192,472742,1,0,0:0:0:0:
109,192,472742,1,0,0:0:0:0:
329,192,472835,1,0,0:0:0:0:
36,192,472835,1,0,0:0:0:0:
402,192,472928,1,0,0:0:0:0:
109,192,472928,1,0,0:0:0:0:
182,192,473021,1,0,0:0:0:0:
475,192,473021,1,0,0:0:0:0:
329,192,473021,1,0,0:0:0:35:kick.ogg
402,192,473114,1,0,0:0:0:0:
109,192,473114,1,0,0:0:0:0:
475,192,473208,1,0,0:0:0:0:
182,192,473208,1,0,0:0:0:0:
402,192,473301,1,0,0:0:0:0:
109,192,473301,1,0,0:0:0:0:
182,192,473394,1,0,0:0:0:0:
36,192,473394,1,0,0:0:0:0:
475,192,473394,1,0,0:0:0:35:kick.ogg
329,192,473394,1,0,0:0:0:55:hit.ogg
402,192,473767,1,0,0:0:0:0:
475,192,473767,1,0,0:0:0:0:
36,192,473767,1,0,0:0:0:35:kick.ogg
182,192,473860,1,0,0:0:0:0:
329,192,473860,1,0,0:0:0:0:
402,192,473953,1,0,0:0:0:0:
109,192,473953,1,0,0:0:0:0:
475,192,474046,1,0,0:0:0:0:
182,192,474046,1,0,0:0:0:0:
36,192,474139,1,0,0:0:0:35:kick.ogg
109,192,474139,1,0,0:0:0:0:
402,192,474139,1,0,0:0:0:0:
329,192,474232,1,0,0:0:0:0:
182,192,474232,1,0,0:0:0:0:
402,192,474326,1,0,0:0:0:0:
109,192,474326,1,0,0:0:0:0:
329,192,474419,1,0,0:0:0:0:
36,192,474419,1,0,0:0:0:0:
182,192,474512,1,0,0:0:0:35:kick.ogg
109,192,474512,1,0,0:0:0:0:
475,192,474512,1,0,0:0:0:0:
36,192,474605,1,0,0:0:0:0:
402,192,474605,1,0,0:0:0:0:
109,192,474698,1,0,0:0:0:0:
329,192,474698,1,0,0:0:0:0:
402,192,474791,1,0,0:0:0:0:
182,192,474791,1,0,0:0:0:0:
109,192,474885,1,0,0:0:0:0:
36,192,474885,1,0,0:0:0:35:kick.ogg
475,192,474885,1,0,0:0:0:0:
329,192,474885,1,0,0:0:0:55:hit.ogg
475,192,475257,1,0,0:0:0:0:
256,192,475257,1,0,0:0:0:0:
36,192,475257,1,0,0:0:0:35:kick.ogg
109,192,475350,1,0,0:0:0:0:
329,192,475350,1,0,0:0:0:0:
402,192,475444,1,0,0:0:0:0:
182,192,475444,1,0,0:0:0:0:
475,192,475537,1,0,0:0:0:0:
256,192,475537,1,0,0:0:0:0:
109,192,475630,1,0,0:0:0:0:
402,192,475630,1,0,0:0:0:0:
36,192,475630,1,0,0:0:0:35:kick.ogg
182,192,475723,1,0,0:0:0:0:
329,192,475723,1,0,0:0:0:0:
256,192,475816,1,0,0:0:0:0:
36,192,475816,1,0,0:0:0:0:
329,192,475909,1,0,0:0:0:0:
109,192,475909,1,0,0:0:0:0:
402,192,476003,1,0,0:0:0:35:kick.ogg
475,192,476003,1,0,0:0:0:0:
182,192,476003,1,0,0:0:0:0:
256,192,476096,1,0,0:0:0:0:
36,192,476096,1,0,0:0:0:0:
109,192,476189,1,0,0:0:0:0:
475,192,476189,1,0,0:0:0:0:
402,192,476282,1,0,0:0:0:0:
182,192,476282,1,0,0:0:0:0:
329,192,476375,1,0,0:0:0:0:
36,192,476375,1,0,0:0:0:35:kick.ogg
256,192,476375,1,0,0:0:0:0:
475,192,476468,1,0,0:0:0:0:
182,192,476468,1,0,0:0:0:0:
402,192,476562,1,0,0:0:0:0:
109,192,476562,1,0,0:0:0:0:
329,192,476655,1,0,0:0:0:0:
36,192,476655,1,0,0:0:0:0:
475,192,476748,1,0,0:0:0:35:kick.ogg
256,192,476748,1,0,0:0:0:0:
109,192,476748,1,0,0:0:0:0:
182,192,476841,1,0,0:0:0:0:
402,192,476841,1,0,0:0:0:0:
329,192,476934,1,0,0:0:0:0:
36,192,476934,1,0,0:0:0:0:
256,192,477027,1,0,0:0:0:0:
109,192,477027,1,0,0:0:0:0:
182,192,477121,1,0,0:0:0:35:kick.ogg
475,192,477121,1,0,0:0:0:0:
402,192,477121,1,0,0:0:0:0:
329,192,477214,1,0,0:0:0:0:
256,192,477214,1,0,0:0:0:0:
36,192,477214,1,0,0:0:0:0:
109,192,477307,1,0,0:0:0:0:
475,192,477307,1,0,0:0:0:0:
182,192,477400,1,0,0:0:0:0:
402,192,477400,1,0,0:0:0:0:
36,192,477493,1,0,0:0:0:35:kick.ogg
256,192,477493,1,0,0:0:0:0:
329,192,477493,1,0,0:0:0:0:
475,192,477586,1,0,0:0:0:0:
109,192,477586,1,0,0:0:0:0:
182,192,477680,1,0,0:0:0:0:
402,192,477680,1,0,0:0:0:0:
329,192,477773,1,0,0:0:0:0:
109,192,477773,1,0,0:0:0:0:
36,192,477866,1,0,0:0:0:35:kick.ogg
475,192,477866,1,0,0:0:0:55:hit2.ogg
402,192,477866,1,0,0:0:0:0:
256,192,477866,1,0,0:0:0:0:
475,192,478239,1,0,0:0:0:0:
256,192,478239,1,0,0:0:0:0:
36,192,478239,1,0,0:0:0:35:kick.ogg
402,192,478332,1,0,0:0:0:0:
109,192,478332,1,0,0:0:0:0:
329,192,478425,1,0,0:0:0:0:
182,192,478425,1,0,0:0:0:0:
475,192,478518,1,0,0:0:0:0:
256,192,478518,1,0,0:0:0:0:
402,192,478611,1,0,0:0:0:0:
109,192,478611,1,0,0:0:0:35:kick.ogg
36,192,478611,1,0,0:0:0:0:
256,192,478705,1,0,0:0:0:0:
182,192,478705,1,0,0:0:0:0:
475,192,478798,1,0,0:0:0:0:
329,192,478798,1,0,0:0:0:0:
402,192,478891,1,0,0:0:0:0:
109,192,478891,1,0,0:0:0:0:
256,192,478984,1,0,0:0:0:0:
36,192,478984,1,0,0:0:0:35:kick.ogg
475,192,478984,1,0,0:0:0:0:
402,192,479077,1,0,0:0:0:0:
109,192,479077,1,0,0:0:0:0:
182,192,479170,1,0,0:0:0:0:
329,192,479170,1,0,0:0:0:0:
109,192,479264,1,0,0:0:0:0:
256,192,479264,1,0,0:0:0:0:
36,192,479357,1,0,0:0:0:35:kick.ogg
182,192,479357,1,0,0:0:0:0:
402,192,479357,1,0,0:0:0:0:
475,192,479357,1,0,0:0:0:55:hit.ogg
329,192,479729,1,0,0:0:0:0:
256,192,479729,1,0,0:0:0:0:
36,192,479729,1,0,0:0:0:35:kick.ogg
402,192,479823,1,0,0:0:0:0:
109,192,479823,1,0,0:0:0:0:
475,192,479916,1,0,0:0:0:0:
182,192,479916,1,0,0:0:0:0:
256,192,480009,1,0,0:0:0:0:
402,192,480009,1,0,0:0:0:0:
36,192,480102,1,0,0:0:0:0:
329,192,480102,1,0,0:0:0:0:
182,192,480102,1,0,0:0:0:35:kick.ogg
402,192,480195,1,0,0:0:0:0:
109,192,480195,1,0,0:0:0:0:
329,192,480288,1,0,0:0:0:0:
256,192,480288,1,0,0:0:0:0:
475,192,480382,1,0,0:0:0:0:
36,192,480382,1,0,0:0:0:0:
182,192,480475,1,0,0:0:0:0:
402,192,480475,1,0,0:0:0:0:
109,192,480475,1,0,0:0:0:35:kick.ogg
256,192,480568,1,0,0:0:0:0:
329,192,480568,1,0,0:0:0:0:
475,192,480661,1,0,0:0:0:0:
182,192,480661,1,0,0:0:0:0:
109,192,480754,1,0,0:0:0:0:
402,192,480754,1,0,0:0:0:0:
36,192,480847,1,0,0:0:0:35:kick.ogg
182,192,480847,1,0,0:0:0:0:
329,192,480847,1,0,0:0:0:0:
475,192,480847,1,0,0:0:0:55:hit.ogg
402,192,481220,1,0,0:0:0:0:
182,192,481220,1,0,0:0:0:0:
36,192,481220,1,0,0:0:0:35:kick.ogg
109,192,481313,1,0,0:0:0:0:
256,192,481313,1,0,0:0:0:0:
329,192,481406,1,0,0:0:0:0:
182,192,481406,1,0,0:0:0:0:
475,192,481500,1,0,0:0:0:0:
109,192,481500,1,0,0:0:0:0:
402,192,481593,1,0,0:0:0:0:
182,192,481593,1,0,0:0:0:0:
36,192,481593,1,0,0:0:0:35:kick.ogg
329,192,481686,1,0,0:0:0:0:
109,192,481686,1,0,0:0:0:0:
402,192,481779,1,0,0:0:0:0:
256,192,481779,1,0,0:0:0:0:
182,192,481872,1,0,0:0:0:0:
329,192,481872,1,0,0:0:0:0:
475,192,481965,1,0,0:0:0:0:
256,192,481965,1,0,0:0:0:0:
36,192,481965,1,0,0:0:0:35:kick.ogg
329,192,482059,1,0,0:0:0:0:
109,192,482059,1,0,0:0:0:0:
402,192,482152,1,0,0:0:0:0:
256,192,482152,1,0,0:0:0:0:
182,192,482245,1,0,0:0:0:0:
329,192,482245,1,0,0:0:0:0:
109,192,482338,1,0,0:0:0:35:kick.ogg
402,192,482338,1,0,0:0:0:0:
475,192,482338,1,0,0:0:0:0:
182,192,482431,1,0,0:0:0:0:
256,192,482431,1,0,0:0:0:0:
402,192,482524,1,0,0:0:0:0:
329,192,482524,1,0,0:0:0:0:
36,192,482524,1,0,0:0:0:0:
109,192,482618,1,0,0:0:0:0:
256,192,482618,1,0,0:0:0:0:
36,192,482711,1,0,0:0:0:0:
475,192,482711,1,0,0:0:0:0:
182,192,482711,1,0,0:0:0:0:
329,192,482711,1,0,0:0:0:0:
402,192,482711,1,0,0:0:0:50:snare.ogg
109,192,482804,1,0,0:0:0:0:
256,192,482804,1,0,0:0:0:0:
402,192,482897,1,0,0:0:0:0:
329,192,482897,1,0,0:0:0:0:
182,192,482990,1,0,0:0:0:0:
109,192,482990,1,0,0:0:0:0:
402,192,483083,1,0,0:0:0:0:
256,192,483083,1,0,0:0:0:0:
329,192,483177,1,0,0:0:0:0:
109,192,483177,1,0,0:0:0:0:
402,192,483270,1,0,0:0:0:0:
182,192,483270,1,0,0:0:0:0:
109,192,483363,1,0,0:0:0:0:
329,192,483363,1,0,0:0:0:0:
475,192,483456,1,0,0:0:0:0:
36,192,483456,1,0,0:0:0:0:
182,192,483456,1,0,0:0:0:0:
256,192,483456,1,0,0:0:0:0:
402,192,483549,1,0,0:0:0:0:
109,192,483549,1,0,0:0:0:0:
256,192,483642,1,0,0:0:0:0:
182,192,483642,1,0,0:0:0:0:
329,192,483736,1,0,0:0:0:65:snare.ogg
109,192,483736,1,0,0:0:0:0:
256,192,483829,1,0,0:0:0:65:snare.ogg
36,192,483829,1,0,0:0:0:0:
109,192,483922,1,0,0:0:0:0:
329,192,483922,1,0,0:0:0:0:
402,192,484015,1,0,0:0:0:65:snare.ogg
182,192,484015,1,0,0:0:0:0:
109,192,484108,1,0,0:0:0:0:
475,192,484108,1,0,0:0:0:0:
182,192,484201,1,0,0:0:0:0:
256,192,484201,1,0,0:0:0:0:
402,192,484201,1,0,0:0:0:0:
36,192,484201,1,0,0:0:0:40:kick.ogg
329,192,484295,1,0,0:0:0:0:
109,192,484295,1,0,0:0:0:0:
402,192,484388,1,0,0:0:0:0:
475,192,484388,1,0,0:0:0:0:
182,192,484388,1,0,0:0:0:0:
329,192,484481,1,0,0:0:0:0:
256,192,484481,1,0,0:0:0:0:
182,192,484574,1,0,0:0:0:0:
475,192,484574,1,0,0:0:0:0:
36,192,484574,1,0,0:0:0:40:kick.ogg
109,192,484667,1,0,0:0:0:0:
402,192,484667,1,0,0:0:0:0:
256,192,484667,1,0,0:0:0:0:
329,192,484760,1,0,0:0:0:0:
182,192,484760,1,0,0:0:0:0:
475,192,484854,1,0,0:0:0:0:
256,192,484854,1,0,0:0:0:0:
402,192,484947,1,0,0:0:0:0:
109,192,484947,1,0,0:0:0:40:kick.ogg
182,192,484947,1,0,0:0:0:0:
36,192,485040,1,0,0:0:0:0:
329,192,485040,1,0,0:0:0:0:
256,192,485133,1,0,0:0:0:0:
182,192,485133,1,0,0:0:0:0:
475,192,485133,1,0,0:0:0:0:
402,192,485226,1,0,0:0:0:0:
109,192,485226,1,0,0:0:0:0:
329,192,485319,1,0,0:0:0:55:hit.ogg
256,192,485319,1,0,0:0:0:0:
36,192,485319,1,0,0:0:0:40:kick.ogg
182,192,485413,1,0,0:0:0:0:
475,192,485413,1,0,0:0:0:0:
402,192,485413,1,0,0:0:0:0:
36,192,485506,1,0,0:0:0:0:
109,192,485506,1,0,0:0:0:0:
329,192,485506,1,0,0:0:0:0:
402,192,485599,1,0,0:0:0:0:
256,192,485599,1,0,0:0:0:0:
475,192,485692,1,0,0:0:0:0:
329,192,485692,1,0,0:0:0:0:
36,192,485692,1,0,0:0:0:40:kick.ogg
256,192,485785,1,0,0:0:0:0:
109,192,485785,1,0,0:0:0:0:
402,192,485878,1,0,0:0:0:0:
182,192,485878,1,0,0:0:0:0:
475,192,485878,1,0,0:0:0:0:
256,192,485972,1,0,0:0:0:0:
329,192,485972,1,0,0:0:0:0:
182,192,486065,1,0,0:0:0:40:kick.ogg
402,192,486065,1,0,0:0:0:0:
475,192,486065,1,0,0:0:0:0:
109,192,486158,1,0,0:0:0:0:
256,192,486158,1,0,0:0:0:0:
36,192,486158,1,0,0:0:0:0:
475,192,486251,1,0,0:0:0:0:
329,192,486251,1,0,0:0:0:0:
256,192,486344,1,0,0:0:0:0:
402,192,486344,1,0,0:0:0:0:
182,192,486437,1,0,0:0:0:0:
36,192,486437,1,0,0:0:0:40:kick.ogg
329,192,486437,1,0,0:0:0:0:
256,192,486531,1,0,0:0:0:0:
109,192,486531,1,0,0:0:0:0:
329,192,486624,1,0,0:0:0:0:
402,192,486624,1,0,0:0:0:0:
182,192,486624,1,0,0:0:0:0:
475,192,486717,1,0,0:0:0:0:
256,192,486717,1,0,0:0:0:0:
182,192,486810,1,0,0:0:0:40:kick.ogg
36,192,486810,1,0,0:0:0:55:hit.ogg
402,192,486810,1,0,0:0:0:0:
329,192,486903,1,0,0:0:0:0:
109,192,486903,1,0,0:0:0:0:
402,192,486996,1,0,0:0:0:0:
182,192,486996,1,0,0:0:0:0:
256,192,486996,1,0,0:0:0:0:
109,192,487090,1,0,0:0:0:0:
329,192,487090,1,0,0:0:0:0:
256,192,487183,1,0,0:0:0:0:
36,192,487183,1,0,0:0:0:40:kick.ogg
475,192,487183,1,0,0:0:0:0:
109,192,487276,1,0,0:0:0:0:
402,192,487276,1,0,0:0:0:0:
182,192,487369,1,0,0:0:0:0:
329,192,487369,1,0,0:0:0:0:
475,192,487462,1,0,0:0:0:0:
256,192,487462,1,0,0:0:0:0:
182,192,487555,1,0,0:0:0:0:
36,192,487555,1,0,0:0:0:40:kick.ogg
402,192,487555,1,0,0:0:0:0:
109,192,487649,1,0,0:0:0:0:
329,192,487649,1,0,0:0:0:0:
36,192,487742,1,0,0:0:0:0:
402,192,487742,1,0,0:0:0:0:
256,192,487742,1,0,0:0:0:0:
182,192,487835,1,0,0:0:0:0:
329,192,487835,1,0,0:0:0:0:
36,192,487928,1,0,0:0:0:40:kick.ogg
256,192,487928,1,0,0:0:0:0:
475,192,487928,1,0,0:0:0:0:
402,192,488021,1,0,0:0:0:0:
109,192,488021,1,0,0:0:0:0:
329,192,488114,1,0,0:0:0:0:
475,192,488114,1,0,0:0:0:0:
182,192,488114,1,0,0:0:0:0:
256,192,488208,1,0,0:0:0:0:
109,192,488208,1,0,0:0:0:0:
182,192,488301,1,0,0:0:0:55:hit.ogg
36,192,488301,1,0,0:0:0:40:kick.ogg
475,192,488301,1,0,0:0:0:0:
402,192,488394,1,0,0:0:0:0:
329,192,488394,1,0,0:0:0:0:
182,192,488487,1,0,0:0:0:0:
109,192,488487,1,0,0:0:0:0:
256,192,488487,1,0,0:0:0:0:
329,192,488580,1,0,0:0:0:0:
402,192,488580,1,0,0:0:0:0:
182,192,488673,1,0,0:0:0:0:
109,192,488673,1,0,0:0:0:40:kick.ogg
36,192,488673,1,0,0:0:0:0:
256,192,488767,1,0,0:0:0:0:
475,192,488767,1,0,0:0:0:0:
36,192,488860,1,0,0:0:0:0:
329,192,488860,1,0,0:0:0:0:
402,192,488860,1,0,0:0:0:0:
109,192,488953,1,0,0:0:0:0:
182,192,488953,1,0,0:0:0:0:
329,192,489046,1,0,0:0:0:40:kick.ogg
256,192,489046,1,0,0:0:0:0:
475,192,489046,1,0,0:0:0:0:
109,192,489139,1,0,0:0:0:0:
36,192,489139,1,0,0:0:0:0:
402,192,489139,1,0,0:0:0:0:
182,192,489232,1,0,0:0:0:0:
256,192,489232,1,0,0:0:0:0:
475,192,489232,1,0,0:0:0:0:
36,192,489326,1,0,0:0:0:0:
329,192,489326,1,0,0:0:0:0:
402,192,489419,1,0,0:0:0:0:
475,192,489419,1,0,0:0:0:0:
256,192,489419,1,0,0:0:0:40:kick.ogg
182,192,489512,1,0,0:0:0:0:
109,192,489512,1,0,0:0:0:0:
36,192,489605,1,0,0:0:0:0:
329,192,489605,1,0,0:0:0:0:
402,192,489605,1,0,0:0:0:0:
475,192,489698,1,0,0:0:0:0:
109,192,489698,1,0,0:0:0:0:
402,192,489791,1,0,0:0:0:55:hit2.ogg
182,192,489791,1,0,0:0:0:40:kick.ogg
256,192,489791,1,0,0:0:0:0:
109,192,489885,1,0,0:0:0:0:
36,192,489885,1,0,0:0:0:0:
329,192,489885,1,0,0:0:0:0:
182,192,489978,1,0,0:0:0:0:
475,192,489978,1,0,0:0:0:0:
402,192,489978,1,0,0:0:0:0:
329,192,490071,1,0,0:0:0:0:
256,192,490071,1,0,0:0:0:0:
475,192,490164,1,0,0:0:0:0:
36,192,490164,1,0,0:0:0:40:kick.ogg
109,192,490164,1,0,0:0:0:0:
402,192,490257,1,0,0:0:0:0:
182,192,490257,1,0,0:0:0:0:
36,192,490350,1,0,0:0:0:0:
256,192,490350,1,0,0:0:0:0:
329,192,490350,1,0,0:0:0:0:
109,192,490444,1,0,0:0:0:0:
475,192,490444,1,0,0:0:0:0:
182,192,490537,1,0,0:0:0:40:kick.ogg
402,192,490537,1,0,0:0:0:0:
329,192,490537,1,0,0:0:0:0:
36,192,490630,1,0,0:0:0:0:
109,192,490630,1,0,0:0:0:0:
256,192,490630,1,0,0:0:0:0:
182,192,490723,1,0,0:0:0:0:
329,192,490723,1,0,0:0:0:0:
256,192,490816,1,0,0:0:0:0:
402,192,490816,1,0,0:0:0:0:
36,192,490909,1,0,0:0:0:40:kick.ogg
329,192,490909,1,0,0:0:0:0:
475,192,490909,1,0,0:0:0:0:
256,192,491003,1,0,0:0:0:0:
109,192,491003,1,0,0:0:0:0:
329,192,491096,1,0,0:0:0:0:
182,192,491096,1,0,0:0:0:0:
402,192,491096,1,0,0:0:0:0:
475,192,491189,1,0,0:0:0:0:
256,192,491189,1,0,0:0:0:0:
36,192,491282,1,0,0:0:0:55:hit.ogg
109,192,491282,1,0,0:0:0:40:kick.ogg
402,192,491282,1,0,0:0:0:0:
256,192,491375,1,0,0:0:0:0:
182,192,491375,1,0,0:0:0:0:
329,192,491375,1,0,0:0:0:0:
475,192,491468,1,0,0:0:0:0:
402,192,491468,1,0,0:0:0:0:
36,192,491468,1,0,0:0:0:0:
109,192,491562,1,0,0:0:0:0:
256,192,491562,1,0,0:0:0:0:
329,192,491655,1,0,0:0:0:0:
36,192,491655,1,0,0:0:0:40:kick.ogg
182,192,491655,1,0,0:0:0:0:
256,192,491748,1,0,0:0:0:0:
475,192,491748,1,0,0:0:0:0:
329,192,491841,1,0,0:0:0:0:
402,192,491841,1,0,0:0:0:0:
109,192,491841,1,0,0:0:0:0:
182,192,491934,1,0,0:0:0:0:
475,192,491934,1,0,0:0:0:0:
36,192,492027,1,0,0:0:0:40:kick.ogg
256,192,492027,1,0,0:0:0:0:
329,192,492027,1,0,0:0:0:0:
109,192,492121,1,0,0:0:0:0:
402,192,492121,1,0,0:0:0:0:
256,192,492214,1,0,0:0:0:0:
182,192,492214,1,0,0:0:0:0:
329,192,492214,1,0,0:0:0:0:
36,192,492307,1,0,0:0:0:0:
475,192,492307,1,0,0:0:0:0:
109,192,492400,1,0,0:0:0:40:kick.ogg
256,192,492400,1,0,0:0:0:0:
402,192,492400,1,0,0:0:0:0:
182,192,492493,1,0,0:0:0:0:
329,192,492493,1,0,0:0:0:0:
256,192,492586,1,0,0:0:0:0:
36,192,492586,1,0,0:0:0:0:
475,192,492586,1,0,0:0:0:0:
402,192,492680,1,0,0:0:0:0:
109,192,492680,1,0,0:0:0:0:
182,192,492773,1,0,0:0:0:40:kick.ogg
256,192,492773,1,0,0:0:0:55:hit.ogg
329,192,492773,1,0,0:0:0:0:
402,192,492866,1,0,0:0:0:0:
36,192,492866,1,0,0:0:0:0:
475,192,492959,1,0,0:0:0:0:
256,192,492959,1,0,0:0:0:0:
109,192,492959,1,0,0:0:0:0:
329,192,493052,1,0,0:0:0:0:
182,192,493052,1,0,0:0:0:0:
402,192,493145,1,0,0:0:0:0:
36,192,493145,1,0,0:0:0:40:kick.ogg
109,192,493145,1,0,0:0:0:0:
256,192,493239,1,0,0:0:0:0:
475,192,493239,1,0,0:0:0:0:
182,192,493332,1,0,0:0:0:0:
402,192,493332,1,0,0:0:0:0:
36,192,493332,1,0,0:0:0:0:
109,192,493425,1,0,0:0:0:0:
329,192,493425,1,0,0:0:0:0:
182,192,493518,1,0,0:0:0:40:kick.ogg
256,192,493518,1,0,0:0:0:0:
475,192,493518,1,0,0:0:0:0:
109,192,493611,1,0,0:0:0:0:
36,192,493611,1,0,0:0:0:0:
402,192,493611,1,0,0:0:0:0:
256,192,493704,1,0,0:0:0:0:
329,192,493704,1,0,0:0:0:0:
109,192,493798,1,0,0:0:0:0:
182,192,493798,1,0,0:0:0:0:
402,192,493891,1,0,0:0:0:0:
329,192,493891,1,0,0:0:0:40:kick.ogg
36,192,493891,1,0,0:0:0:0:
475,192,493984,1,0,0:0:0:0:
256,192,493984,1,0,0:0:0:0:
36,192,494077,1,0,0:0:0:0:
182,192,494077,1,0,0:0:0:0:
402,192,494077,1,0,0:0:0:0:
109,192,494170,1,0,0:0:0:0:
329,192,494170,1,0,0:0:0:0:
475,192,494264,1,0,0:0:0:0:
182,192,494264,1,0,0:0:0:40:kick.ogg
256,192,494264,1,0,0:0:0:55:hit.ogg
329,192,494357,1,0,0:0:0:0:
36,192,494357,1,0,0:0:0:0:
109,192,494450,1,0,0:0:0:0:
402,192,494450,1,0,0:0:0:0:
475,192,494450,1,0,0:0:0:0:
36,192,494543,1,0,0:0:0:0:
256,192,494543,1,0,0:0:0:0:
182,192,494543,1,0,0:0:0:0:
109,192,494636,1,0,0:0:0:40:kick.ogg
329,192,494636,1,0,0:0:0:0:
475,192,494636,1,0,0:0:0:0:
256,192,494729,1,0,0:0:0:0:
402,192,494729,1,0,0:0:0:0:
182,192,494823,1,0,0:0:0:0:
329,192,494823,1,0,0:0:0:0:
256,192,494916,1,0,0:0:0:0:
109,192,494916,1,0,0:0:0:0:
36,192,495009,1,0,0:0:0:40:kick.ogg
182,192,495009,1,0,0:0:0:0:
402,192,495009,1,0,0:0:0:0:
329,192,495102,1,0,0:0:0:0:
109,192,495102,1,0,0:0:0:0:
182,192,495195,1,0,0:0:0:0:
256,192,495195,1,0,0:0:0:0:
475,192,495195,1,0,0:0:0:0:
402,192,495288,1,0,0:0:0:0:
329,192,495288,1,0,0:0:0:0:
36,192,495288,1,0,0:0:0:0:
256,192,495382,1,0,0:0:0:0:
475,192,495382,1,0,0:0:0:0:
109,192,495382,1,0,0:0:0:40:kick.ogg
402,192,495475,1,0,0:0:0:0:
182,192,495475,1,0,0:0:0:0:
256,192,495568,1,0,0:0:0:0:
329,192,495568,1,0,0:0:0:0:
36,192,495568,1,0,0:0:0:0:
109,192,495661,1,0,0:0:0:0:
182,192,495661,1,0,0:0:0:0:
402,192,495754,1,0,0:0:0:55:hit2.ogg
475,192,495754,1,0,0:0:0:0:
36,192,495754,1,0,0:0:0:40:kick.ogg
256,192,495847,1,0,0:0:0:0:
329,192,495847,1,0,0:0:0:0:
109,192,495847,1,0,0:0:0:0:
182,192,495941,1,0,0:0:0:0:
402,192,495941,1,0,0:0:0:0:
329,192,496034,1,0,0:0:0:0:
475,192,496034,1,0,0:0:0:0:
36,192,496127,1,0,0:0:0:40:kick.ogg
182,192,496127,1,0,0:0:0:0:
256,192,496127,1,0,0:0:0:0:
329,192,496220,1,0,0:0:0:0:
475,192,496220,1,0,0:0:0:0:
402,192,496313,1,0,0:0:0:0:
36,192,496313,1,0,0:0:0:0:
182,192,496313,1,0,0:0:0:0:
329,192,496406,1,0,0:0:0:0:
256,192,496406,1,0,0:0:0:0:
475,192,496500,1,0,0:0:0:0:
109,192,496500,1,0,0:0:0:0:
36,192,496500,1,0,0:0:0:40:kick.ogg
182,192,496593,1,0,0:0:0:0:
402,192,496593,1,0,0:0:0:0:
256,192,496593,1,0,0:0:0:0:
36,192,496686,1,0,0:0:0:0:
475,192,496686,1,0,0:0:0:0:
109,192,496686,1,0,0:0:0:0:
182,192,496779,1,0,0:0:0:0:
402,192,496779,1,0,0:0:0:0:
256,192,496872,1,0,0:0:0:0:
329,192,496872,1,0,0:0:0:0:
36,192,496872,1,0,0:0:0:40:kick.ogg
475,192,496965,1,0,0:0:0:0:
182,192,496965,1,0,0:0:0:0:
402,192,497059,1,0,0:0:0:0:
36,192,497059,1,0,0:0:0:0:
109,192,497059,1,0,0:0:0:0:
182,192,497152,1,0,0:0:0:0:
329,192,497152,1,0,0:0:0:0:
402,192,497245,1,0,0:0:0:0:
256,192,497245,1,0,0:0:0:55:hit.ogg
36,192,497245,1,0,0:0:0:40:kick.ogg
475,192,497338,1,0,0:0:0:0:
182,192,497338,1,0,0:0:0:0:
329,192,497338,1,0,0:0:0:0:
402,192,497431,1,0,0:0:0:0:
109,192,497431,1,0,0:0:0:0:
36,192,497431,1,0,0:0:0:0:
256,192,497524,1,0,0:0:0:0:
182,192,497618,1,0,0:0:0:0:
36,192,497618,1,0,0:0:0:0:
402,192,497618,1,0,0:0:0:40:kick.ogg
329,192,497711,1,0,0:0:0:0:
109,192,497711,1,0,0:0:0:0:
182,192,497804,1,0,0:0:0:0:
402,192,497804,1,0,0:0:0:0:
475,192,497804,1,0,0:0:0:0:
109,192,497897,1,0,0:0:0:0:
329,192,497897,1,0,0:0:0:0:
256,192,497990,1,0,0:0:0:0:
36,192,497990,1,0,0:0:0:0:
475,192,497990,1,0,0:0:0:40:kick.ogg
329,192,498083,1,0,0:0:0:0:
402,192,498083,1,0,0:0:0:0:
182,192,498083,1,0,0:0:0:0:
36,192,498177,1,0,0:0:0:0:
109,192,498177,1,0,0:0:0:0:
256,192,498177,1,0,0:0:0:0:
329,192,498270,1,0,0:0:0:0:
182,192,498270,1,0,0:0:0:0:
109,192,498363,1,0,0:0:0:0:
402,192,498363,1,0,0:0:0:0:
475,192,498363,1,0,0:0:0:40:kick.ogg
329,192,498456,1,0,0:0:0:0:
256,192,498456,1,0,0:0:0:0:
182,192,498549,1,0,0:0:0:0:
36,192,498549,1,0,0:0:0:0:
475,192,498549,1,0,0:0:0:0:
402,192,498642,1,0,0:0:0:0:
109,192,498642,1,0,0:0:0:0:
182,192,498736,1,0,0:0:0:0:
475,192,498736,1,0,0:0:0:40:kick.ogg
329,192,498736,1,0,0:0:0:55:hit.ogg
256,192,498829,1,0,0:0:0:0:
402,192,498829,1,0,0:0:0:0:
109,192,498829,1,0,0:0:0:0:
182,192,498922,1,0,0:0:0:0:
36,192,498922,1,0,0:0:0:0:
329,192,498922,1,0,0:0:0:0:
256,192,499015,1,0,0:0:0:0:
109,192,499015,1,0,0:0:0:0:
182,192,499108,1,0,0:0:0:0:
402,192,499108,1,0,0:0:0:0:
475,192,499108,1,0,0:0:0:40:kick.ogg
109,192,499201,1,0,0:0:0:0:
329,192,499201,1,0,0:0:0:0:
256,192,499295,1,0,0:0:0:0:
36,192,499295,1,0,0:0:0:0:
475,192,499295,1,0,0:0:0:0:
182,192,499388,1,0,0:0:0:0:
329,192,499388,1,0,0:0:0:0:
109,192,499481,1,0,0:0:0:0:
402,192,499481,1,0,0:0:0:0:
475,192,499481,1,0,0:0:0:40:kick.ogg
256,192,499574,1,0,0:0:0:0:
36,192,499574,1,0,0:0:0:0:
329,192,499574,1,0,0:0:0:0:
109,192,499667,1,0,0:0:0:0:
182,192,499667,1,0,0:0:0:0:
402,192,499667,1,0,0:0:0:0:
475,192,499760,1,0,0:0:0:0:
256,192,499760,1,0,0:0:0:0:
402,192,499854,1,0,0:0:0:0:
182,192,499854,1,0,0:0:0:0:
36,192,499854,1,0,0:0:0:40:kick.ogg
329,192,499947,1,0,0:0:0:0:
109,192,499947,1,0,0:0:0:0:
402,192,500040,1,0,0:0:0:0:
182,192,500040,1,0,0:0:0:0:
475,192,500040,1,0,0:0:0:0:
329,192,500133,1,0,0:0:0:0:
109,192,500133,1,0,0:0:0:0:
475,192,500226,1,0,0:0:0:0:
256,192,500226,1,0,0:0:0:55:hit.ogg
36,192,500226,1,0,0:0:0:40:kick.ogg
109,192,500319,1,0,0:0:0:0:
402,192,500319,1,0,0:0:0:0:
182,192,500319,1,0,0:0:0:0:
329,192,500413,1,0,0:0:0:0:
36,192,500413,1,0,0:0:0:0:
475,192,500413,1,0,0:0:0:0:
256,192,500506,1,0,0:0:0:0:
109,192,500506,1,0,0:0:0:0:
182,192,500599,1,0,0:0:0:0:
36,192,500599,1,0,0:0:0:0:
402,192,500599,1,0,0:0:0:0:
109,192,500692,1,0,0:0:0:0:
329,192,500692,1,0,0:0:0:0:
475,192,500785,1,0,0:0:0:0:
182,192,500785,1,0,0:0:0:0:
402,192,500785,1,0,0:0:0:0:
329,192,500878,1,0,0:0:0:0:
256,192,500878,1,0,0:0:0:0:
109,192,500972,1,0,0:0:0:0:
36,192,500972,1,0,0:0:0:0:
475,192,500972,1,0,0:0:0:0:
256,192,501065,1,0,0:0:0:0:
182,192,501065,1,0,0:0:0:0:
402,192,501065,1,0,0:0:0:0:
109,192,501158,1,0,0:0:0:0:
36,192,501158,1,0,0:0:0:0:
329,192,501158,1,0,0:0:0:0:
402,192,501251,1,0,0:0:0:0:
256,192,501251,1,0,0:0:0:0:
182,192,501344,1,0,0:0:0:0:
36,192,501344,1,0,0:0:0:40:kick.ogg
329,192,501344,1,0,0:0:0:0:
109,192,501437,1,0,0:0:0:0:
402,192,501437,1,0,0:0:0:0:
475,192,501531,1,0,0:0:0:0:
256,192,501531,1,0,0:0:0:0:
329,192,501531,1,0,0:0:0:0:
402,192,501624,1,0,0:0:0:0:
182,192,501624,1,0,0:0:0:0:
109,192,501717,1,0,0:0:0:40:kick.ogg
475,192,501717,1,0,0:0:0:0:
329,192,501717,1,0,0:0:0:55:hit2.ogg
256,192,501810,1,0,0:0:0:0:
182,192,501810,1,0,0:0:0:0:
402,192,501810,1,0,0:0:0:0:
109,192,501903,1,0,0:0:0:0:
329,192,501903,1,0,0:0:0:45:kick.ogg
36,192,501903,1,0,0:0:0:0:
475,192,501996,1,0,0:0:0:0:
256,192,501996,1,0,0:0:0:0:
109,192,502090,1,0,0:0:0:0:
36,192,502090,1,0,0:0:0:40:kick.ogg
329,192,502090,1,0,0:0:0:0:
402,192,502183,1,0,0:0:0:0:
182,192,502183,1,0,0:0:0:0:
109,192,502276,1,0,0:0:0:0:
256,192,502276,1,0,0:0:0:0:
475,192,502276,1,0,0:0:0:0:
182,192,502369,1,0,0:0:0:0:
402,192,502369,1,0,0:0:0:0:
36,192,502462,1,0,0:0:0:40:kick.ogg
475,192,502462,1,0,0:0:0:0:
329,192,502462,1,0,0:0:0:0:
109,192,502555,1,0,0:0:0:0:
402,192,502555,1,0,0:0:0:0:
256,192,502555,1,0,0:0:0:0:
329,192,502649,1,0,0:0:0:0:
182,192,502649,1,0,0:0:0:0:
402,192,502742,1,0,0:0:0:0:
256,192,502742,1,0,0:0:0:0:
36,192,502835,1,0,0:0:0:40:kick.ogg
475,192,502835,1,0,0:0:0:0:
329,192,502835,1,0,0:0:0:0:
182,192,502928,1,0,0:0:0:0:
402,192,502928,1,0,0:0:0:0:
256,192,503021,1,0,0:0:0:0:
109,192,503021,1,0,0:0:0:0:
329,192,503021,1,0,0:0:0:0:
402,192,503114,1,0,0:0:0:0:
182,192,503114,1,0,0:0:0:0:
109,192,503208,1,0,0:0:0:40:kick.ogg
475,192,503208,1,0,0:0:0:0:
329,192,503208,1,0,0:0:0:55:hit.ogg
256,192,503301,1,0,0:0:0:0:
402,192,503301,1,0,0:0:0:0:
36,192,503301,1,0,0:0:0:0:
329,192,503394,1,0,0:0:0:0:
109,192,503394,1,0,0:0:0:0:
256,192,503487,1,0,0:0:0:0:
182,192,503487,1,0,0:0:0:0:
109,192,503580,1,0,0:0:0:40:kick.ogg
402,192,503580,1,0,0:0:0:0:
475,192,503580,1,0,0:0:0:0:
329,192,503673,1,0,0:0:0:0:
36,192,503673,1,0,0:0:0:0:
182,192,503767,1,0,0:0:0:0:
256,192,503767,1,0,0:0:0:0:
109,192,503767,1,0,0:0:0:0:
475,192,503860,1,0,0:0:0:0:
402,192,503860,1,0,0:0:0:0:
36,192,503953,1,0,0:0:0:40:kick.ogg
329,192,503953,1,0,0:0:0:0:
256,192,503953,1,0,0:0:0:0:
109,192,504046,1,0,0:0:0:0:
475,192,504046,1,0,0:0:0:0:
182,192,504046,1,0,0:0:0:0:
256,192,504139,1,0,0:0:0:0:
402,192,504139,1,0,0:0:0:0:
329,192,504139,1,0,0:0:0:0:
36,192,504232,1,0,0:0:0:0:
182,192,504232,1,0,0:0:0:0:
109,192,504326,1,0,0:0:0:40:kick.ogg
329,192,504326,1,0,0:0:0:0:
475,192,504326,1,0,0:0:0:0:
182,192,504419,1,0,0:0:0:0:
402,192,504419,1,0,0:0:0:0:
109,192,504512,1,0,0:0:0:0:
256,192,504512,1,0,0:0:0:0:
329,192,504512,1,0,0:0:0:55:hit.ogg
475,192,504605,1,0,0:0:0:0:
36,192,504605,1,0,0:0:0:0:
402,192,504698,1,0,0:0:0:0:
182,192,504698,1,0,0:0:0:0:
109,192,504698,1,0,0:0:0:40:kick.ogg
256,192,504791,1,0,0:0:0:0:
329,192,504791,1,0,0:0:0:0:
109,192,504885,1,0,0:0:0:0:
182,192,504885,1,0,0:0:0:0:
36,192,504885,1,0,0:0:0:0:
402,192,504978,1,0,0:0:0:0:
475,192,504978,1,0,0:0:0:0:
329,192,505071,1,0,0:0:0:0:
182,192,505071,1,0,0:0:0:0:
36,192,505071,1,0,0:0:0:40:kick.ogg
109,192,505164,1,0,0:0:0:0:
475,192,505164,1,0,0:0:0:0:
329,192,505257,1,0,0:0:0:0:
402,192,505257,1,0,0:0:0:0:
182,192,505257,1,0,0:0:0:40:kick.ogg
256,192,505350,1,0,0:0:0:0:
36,192,505350,1,0,0:0:0:0:
182,192,505444,1,0,0:0:0:40:kick.ogg
329,192,505444,1,0,0:0:0:0:
475,192,505444,1,0,0:0:0:0:
109,192,505537,1,0,0:0:0:0:
402,192,505537,1,0,0:0:0:0:
256,192,505537,1,0,0:0:0:0:
36,192,505630,1,0,0:0:0:0:
182,192,505630,1,0,0:0:0:40:kick.ogg
475,192,505630,1,0,0:0:0:0:
329,192,505723,1,0,0:0:0:0:
402,192,505723,1,0,0:0:0:0:
256,192,505816,1,0,0:0:0:0:
109,192,505816,1,0,0:0:0:30:kick.ogg
36,192,505816,1,0,0:0:0:0:
329,192,505909,1,0,0:0:0:40:snare.ogg
475,192,505909,1,0,0:0:0:0:
402,192,505909,1,0,0:0:0:30:kick.ogg
182,192,506003,1,0,0:0:0:40:snare.ogg
109,192,506003,1,0,0:0:0:30:kick.ogg
36,192,506003,1,0,0:0:0:0:
256,192,506096,1,0,0:0:0:0:
402,192,506096,1,0,0:0:0:30:kick.ogg
475,192,506096,1,0,0:0:0:0:
36,192,506189,1,0,0:0:0:0:
109,192,506189,1,0,0:0:0:30:kick.ogg
182,192,506189,1,0,0:0:0:40:snare.ogg
475,192,506282,1,0,0:0:0:0:
402,192,506282,1,0,0:0:0:30:kick.ogg
329,192,506282,1,0,0:0:0:40:snare.ogg
256,192,506375,1,0,0:0:0:0:
36,192,506375,1,0,0:0:0:0:
109,192,506375,1,0,0:0:0:30:kick.ogg
475,192,506468,1,0,0:0:0:0:
402,192,506468,1,0,0:0:0:30:kick.ogg
329,192,506468,1,0,0:0:0:40:snare.ogg
109,192,506562,1,0,0:0:0:30:kick.ogg
36,192,506562,1,0,0:0:0:0:
256,192,506562,1,0,0:0:0:0:
182,192,506562,1,0,0:0:0:40:snare.ogg
36,192,507680,1,0,0:0:0:0:
475,192,507680,1,0,0:0:0:0:
256,192,507680,1,0,0:0:0:0:
182,192,507680,1,0,0:0:0:0:
329,192,507680,1,0,0:0:0:35:claprev.ogg
329,192,508052,1,0,0:0:0:45:kick.ogg
475,192,508052,1,0,0:0:0:0:
36,192,508052,1,0,0:0:0:0:
182,192,508052,1,0,0:0:0:0:
109,192,508145,1,0,0:0:0:0:
402,192,508239,1,0,0:0:0:0:
329,192,508239,1,0,0:0:0:0:
182,192,508239,1,0,0:0:0:0:
402,192,508425,1,0,0:0:0:0:
36,192,508425,1,0,0:0:0:0:
256,192,508425,1,0,0:0:0:45:kick.ogg
109,192,508518,1,0,0:0:0:0:
402,192,508611,1,0,0:0:0:0:
475,192,508611,1,0,0:0:0:0:
182,192,508611,1,0,0:0:0:0:
109,192,508704,1,0,0:0:0:0:
329,192,508798,1,0,0:0:0:45:kick.ogg
402,192,508798,1,0,0:0:0:0:
36,192,508798,1,0,0:0:0:0:
182,192,508891,1,0,0:0:0:0:
256,192,508891,1,0,0:0:0:0:
329,192,508984,1,0,0:0:0:0:
109,192,508984,1,0,0:0:0:0:
36,192,508984,1,0,0:0:0:0:
402,192,509031,1,0,0:0:0:0:
182,192,509077,1,0,0:0:0:0:
475,192,509077,1,0,0:0:0:0:
109,192,509124,1,0,0:0:0:0:
402,192,509170,1,0,0:0:0:0:
329,192,509170,1,0,0:0:0:45:kick.ogg
36,192,509170,1,0,0:0:0:0:
109,192,509264,1,0,0:0:0:0:
329,192,509357,1,0,0:0:0:0:
402,192,509357,1,0,0:0:0:0:
182,192,509357,1,0,0:0:0:0:
109,192,509450,1,0,0:0:0:0:
182,192,509543,1,0,0:0:0:45:kick.ogg
36,192,509543,1,0,0:0:0:0:
329,192,509543,1,0,0:0:0:0:
475,192,509543,1,0,0:0:0:0:
402,192,509636,1,0,0:0:0:0:
256,192,509729,1,0,0:0:0:0:
109,192,509729,1,0,0:0:0:0:
475,192,509729,1,0,0:0:0:0:
402,192,509823,1,0,0:0:0:0:
182,192,509916,1,0,0:0:0:0:
256,192,509916,1,0,0:0:0:45:kick.ogg
329,192,509916,1,0,0:0:0:0:
402,192,510009,1,0,0:0:0:0:
182,192,510102,1,0,0:0:0:0:
109,192,510102,1,0,0:0:0:0:
329,192,510102,1,0,0:0:0:0:
256,192,510288,1,0,0:0:0:45:kick.ogg
109,192,510288,1,0,0:0:0:0:
475,192,510288,1,0,0:0:0:0:
182,192,510382,1,0,0:0:0:0:
402,192,510382,1,0,0:0:0:0:
36,192,510475,1,0,0:0:0:0:
109,192,510475,1,0,0:0:0:0:
329,192,510475,1,0,0:0:0:0:
182,192,510568,1,0,0:0:0:0:
402,192,510568,1,0,0:0:0:0:
329,192,510661,1,0,0:0:0:0:
36,192,510661,1,0,0:0:0:45:kick.ogg
475,192,510661,1,0,0:0:0:0:
256,192,510847,1,0,0:0:0:0:
402,192,510847,1,0,0:0:0:0:
109,192,510847,1,0,0:0:0:0:
329,192,511034,1,0,0:0:0:45:kick.ogg
402,192,511034,1,0,0:0:0:0:
36,192,511034,1,0,0:0:0:0:
182,192,511034,1,0,0:0:0:0:
109,192,511127,1,0,0:0:0:0:
402,192,511220,1,0,0:0:0:0:
256,192,511220,1,0,0:0:0:0:
182,192,511220,1,0,0:0:0:0:
402,192,511406,1,0,0:0:0:0:
329,192,511406,1,0,0:0:0:45:kick.ogg
182,192,511406,1,0,0:0:0:0:
109,192,511500,1,0,0:0:0:0:
475,192,511593,1,0,0:0:0:0:
256,192,511593,1,0,0:0:0:0:
36,192,511593,1,0,0:0:0:0:
109,192,511686,1,0,0:0:0:0:
182,192,511779,1,0,0:0:0:0:
475,192,511779,1,0,0:0:0:0:
402,192,511779,1,0,0:0:0:45:kick.ogg
109,192,511872,1,0,0:0:0:0:
256,192,511965,1,0,0:0:0:0:
402,192,511965,1,0,0:0:0:0:
475,192,511965,1,0,0:0:0:0:
182,192,512012,1,0,0:0:0:0:
109,192,512059,1,0,0:0:0:0:
329,192,512059,1,0,0:0:0:0:
402,192,512105,1,0,0:0:0:0:
36,192,512152,1,0,0:0:0:0:
475,192,512152,1,0,0:0:0:0:
256,192,512152,1,0,0:0:0:45:kick.ogg
109,192,512245,1,0,0:0:0:0:
402,192,512338,1,0,0:0:0:0:
256,192,512338,1,0,0:0:0:0:
36,192,512338,1,0,0:0:0:0:
109,192,512431,1,0,0:0:0:0:
256,192,512524,1,0,0:0:0:45:kick.ogg
182,192,512524,1,0,0:0:0:0:
329,192,512524,1,0,0:0:0:0:
475,192,512524,1,0,0:0:0:0:
402,192,512618,1,0,0:0:0:0:
182,192,512711,1,0,0:0:0:0:
36,192,512711,1,0,0:0:0:0:
329,192,512711,1,0,0:0:0:0:
402,192,512804,1,0,0:0:0:0:
256,192,512897,1,0,0:0:0:45:kick.ogg
109,192,512897,1,0,0:0:0:0:
329,192,512897,1,0,0:0:0:0:
402,192,512990,1,0,0:0:0:0:
109,192,513083,1,0,0:0:0:0:
182,192,513083,1,0,0:0:0:0:
475,192,513083,1,0,0:0:0:0:
109,192,513270,1,0,0:0:0:0:
256,192,513270,1,0,0:0:0:45:kick.ogg
475,192,513270,1,0,0:0:0:0:
182,192,513363,1,0,0:0:0:0:
402,192,513363,1,0,0:0:0:0:
36,192,513456,1,0,0:0:0:0:
109,192,513456,1,0,0:0:0:0:
329,192,513456,1,0,0:0:0:0:
182,192,513549,1,0,0:0:0:0:
402,192,513549,1,0,0:0:0:0:
36,192,513642,1,0,0:0:0:0:
256,192,513642,1,0,0:0:0:45:kick.ogg
475,192,513642,1,0,0:0:0:0:
329,192,513736,1,0,0:0:0:0:
402,192,513829,1,0,0:0:0:0:
36,192,513829,1,0,0:0:0:0:
109,192,513829,1,0,0:0:0:0:
182,192,513922,1,0,0:0:0:0:
475,192,513922,1,0,0:0:0:0:
36,192,514015,1,0,0:0:0:0:
329,192,514015,1,0,0:0:0:0:
256,192,514015,1,0,0:0:0:45:kick.ogg
109,192,514108,1,0,0:0:0:0:
402,192,514201,1,0,0:0:0:0:
329,192,514201,1,0,0:0:0:0:
182,192,514201,1,0,0:0:0:0:
475,192,514388,1,0,0:0:0:0:
329,192,514388,1,0,0:0:0:45:kick.ogg
182,192,514388,1,0,0:0:0:0:
109,192,514481,1,0,0:0:0:0:
402,192,514574,1,0,0:0:0:0:
256,192,514574,1,0,0:0:0:0:
36,192,514574,1,0,0:0:0:0:
109,192,514667,1,0,0:0:0:0:
36,192,514760,1,0,0:0:0:0:
475,192,514760,1,0,0:0:0:0:
329,192,514760,1,0,0:0:0:45:kick.ogg
109,192,514854,1,0,0:0:0:0:
329,192,514947,1,0,0:0:0:0:
36,192,514947,1,0,0:0:0:0:
182,192,514947,1,0,0:0:0:0:
402,192,514993,1,0,0:0:0:0:
109,192,515040,1,0,0:0:0:0:
475,192,515040,1,0,0:0:0:0:
182,192,515086,1,0,0:0:0:0:
256,192,515133,1,0,0:0:0:0:
36,192,515133,1,0,0:0:0:0:
402,192,515133,1,0,0:0:0:45:kick.ogg
182,192,515226,1,0,0:0:0:0:
36,192,515319,1,0,0:0:0:0:
402,192,515319,1,0,0:0:0:0:
329,192,515319,1,0,0:0:0:0:
109,192,515413,1,0,0:0:0:0:
36,192,515506,1,0,0:0:0:0:
256,192,515506,1,0,0:0:0:45:kick.ogg
329,192,515506,1,0,0:0:0:0:
475,192,515506,1,0,0:0:0:0:
402,192,515599,1,0,0:0:0:0:
109,192,515692,1,0,0:0:0:0:
475,192,515692,1,0,0:0:0:0:
256,192,515692,1,0,0:0:0:0:
402,192,515785,1,0,0:0:0:0:
182,192,515878,1,0,0:0:0:45:kick.ogg
36,192,515878,1,0,0:0:0:0:
329,192,515878,1,0,0:0:0:0:
402,192,515972,1,0,0:0:0:0:
109,192,516065,1,0,0:0:0:0:
182,192,516065,1,0,0:0:0:0:
329,192,516065,1,0,0:0:0:0:
256,192,516251,1,0,0:0:0:45:kick.ogg
36,192,516251,1,0,0:0:0:0:
475,192,516251,1,0,0:0:0:0:
109,192,516344,1,0,0:0:0:0:
402,192,516344,1,0,0:0:0:0:
182,192,516437,1,0,0:0:0:0:
36,192,516437,1,0,0:0:0:0:
329,192,516437,1,0,0:0:0:0:
109,192,516531,1,0,0:0:0:0:
402,192,516531,1,0,0:0:0:0:
182,192,516624,1,0,0:0:0:0:
256,192,516624,1,0,0:0:0:45:kick.ogg
475,192,516624,1,0,0:0:0:0:
402,192,516717,1,0,0:0:0:0:
109,192,516810,1,0,0:0:0:0:
182,192,516810,1,0,0:0:0:0:
329,192,516810,1,0,0:0:0:0:
36,192,516996,1,0,0:0:0:0:
109,192,516996,1,0,0:0:0:0:
402,192,516996,1,0,0:0:0:45:kick.ogg
475,192,516996,1,0,0:0:0:0:
182,192,517090,1,0,0:0:0:0:
402,192,517183,1,0,0:0:0:0:
256,192,517183,1,0,0:0:0:0:
109,192,517183,1,0,0:0:0:0:
36,192,517369,1,0,0:0:0:0:
402,192,517369,1,0,0:0:0:0:
329,192,517369,1,0,0:0:0:45:kick.ogg
182,192,517462,1,0,0:0:0:0:
402,192,517555,1,0,0:0:0:0:
475,192,517555,1,0,0:0:0:0:
109,192,517555,1,0,0:0:0:0:
36,192,517649,1,0,0:0:0:0:
109,192,517742,1,0,0:0:0:0:
402,192,517742,1,0,0:0:0:0:
329,192,517742,1,0,0:0:0:45:kick.ogg
182,192,517835,1,0,0:0:0:0:
475,192,517928,1,0,0:0:0:0:
36,192,517928,1,0,0:0:0:0:
256,192,517928,1,0,0:0:0:0:
109,192,517975,1,0,0:0:0:0:
402,192,518021,1,0,0:0:0:0:
182,192,518021,1,0,0:0:0:0:
329,192,518068,1,0,0:0:0:0:
256,192,518114,1,0,0:0:0:0:
475,192,518114,1,0,0:0:0:0:
36,192,518114,1,0,0:0:0:0:
109,192,518208,1,0,0:0:0:0:
256,192,518301,1,0,0:0:0:0:
402,192,518301,1,0,0:0:0:0:
182,192,518301,1,0,0:0:0:0:
109,192,518394,1,0,0:0:0:0:
182,192,518487,1,0,0:0:0:0:
36,192,518487,1,0,0:0:0:0:
329,192,518487,1,0,0:0:0:45:kick.ogg
475,192,518487,1,0,0:0:0:0:
402,192,518580,1,0,0:0:0:0:
256,192,518673,1,0,0:0:0:0:
109,192,518673,1,0,0:0:0:0:
329,192,518673,1,0,0:0:0:0:
402,192,518767,1,0,0:0:0:0:
182,192,518860,1,0,0:0:0:0:
256,192,518860,1,0,0:0:0:45:kick.ogg
329,192,518860,1,0,0:0:0:0:
402,192,518953,1,0,0:0:0:0:
182,192,519046,1,0,0:0:0:0:
36,192,519046,1,0,0:0:0:0:
475,192,519046,1,0,0:0:0:0:
256,192,519232,1,0,0:0:0:45:snare.ogg
329,192,519232,1,0,0:0:0:0:
475,192,519232,1,0,0:0:0:0:
109,192,519232,1,0,0:0:0:0:
36,192,519326,1,0,0:0:0:0:
402,192,519326,1,0,0:0:0:45:snare.ogg
256,192,519419,1,0,0:0:0:45:snare.ogg
182,192,519419,1,0,0:0:0:0:
329,192,519419,1,0,0:0:0:0:
109,192,519512,1,0,0:0:0:45:snare.ogg
402,192,519512,1,0,0:0:0:0:
256,192,519605,1,0,0:0:0:45:snare.ogg
182,192,519605,1,0,0:0:0:0:
36,192,519605,1,0,0:0:0:0:
475,192,519698,1,0,0:0:0:0:
402,192,519698,1,0,0:0:0:0:
329,192,519698,1,0,0:0:0:45:snare.ogg
36,192,519791,1,0,0:0:0:0:
109,192,519791,1,0,0:0:0:0:
182,192,519791,1,0,0:0:0:45:snare.ogg
475,192,519885,1,0,0:0:0:0:
402,192,519885,1,0,0:0:0:0:
256,192,519885,1,0,0:0:0:45:snare.ogg
329,192,519978,1,0,0:0:0:45:kick.ogg
182,192,519978,1,0,0:0:0:0:
36,192,519978,1,0,0:0:0:0:
475,192,520071,1,0,0:0:0:0:
256,192,520071,1,0,0:0:0:0:
329,192,520164,1,0,0:0:0:0:
36,192,520164,1,0,0:0:0:0:
402,192,520164,1,0,0:0:0:0:
475,192,520257,1,0,0:0:0:0:
182,192,520257,1,0,0:0:0:0:
109,192,520257,1,0,0:0:0:0:
256,192,520350,1,0,0:0:0:0:
402,192,520350,1,0,0:0:0:70:soft-hitclap.ogg
329,192,520350,1,0,0:0:0:0:
36,192,520444,1,0,0:0:0:0:
475,192,520444,1,0,0:0:0:0:
109,192,520444,1,0,0:0:0:0:
182,192,520537,1,0,0:0:0:0:
256,192,520537,1,0,0:0:0:0:
402,192,520537,1,0,0:0:0:0:
36,192,520630,1,0,0:0:0:0:
329,192,520630,1,0,0:0:0:0:
109,192,520723,1,0,0:0:0:0:
402,192,520723,1,0,0:0:0:45:kick.ogg
475,192,520723,1,0,0:0:0:0:
182,192,520816,1,0,0:0:0:0:
329,192,520816,1,0,0:0:0:0:
256,192,520909,1,0,0:0:0:0:
36,192,520909,1,0,0:0:0:0:
329,192,520956,1,0,0:0:0:0:
109,192,520956,1,0,0:0:0:0:
402,192,521003,1,0,0:0:0:0:
475,192,521049,1,0,0:0:0:0:
182,192,521096,1,0,0:0:0:0:
36,192,521096,1,0,0:0:0:0:
256,192,521189,1,0,0:0:0:0:
475,192,521189,1,0,0:0:0:0:
109,192,521189,1,0,0:0:0:0:
182,192,521282,1,0,0:0:0:0:
402,192,521282,1,0,0:0:0:0:
329,192,521282,1,0,0:0:0:0:
36,192,521375,1,0,0:0:0:0:
256,192,521375,1,0,0:0:0:0:
109,192,521468,1,0,0:0:0:0:
402,192,521468,1,0,0:0:0:45:kick.ogg
475,192,521468,1,0,0:0:0:0:
329,192,521562,1,0,0:0:0:0:
182,192,521562,1,0,0:0:0:0:
36,192,521655,1,0,0:0:0:0:
256,192,521655,1,0,0:0:0:0:
475,192,521655,1,0,0:0:0:0:
109,192,521748,1,0,0:0:0:0:
329,192,521748,1,0,0:0:0:0:
402,192,521748,1,0,0:0:0:0:
475,192,521841,1,0,0:0:0:0:
182,192,521841,1,0,0:0:0:70:soft-hitclap.ogg
256,192,521841,1,0,0:0:0:0:
36,192,521934,1,0,0:0:0:0:
109,192,521934,1,0,0:0:0:0:
402,192,521934,1,0,0:0:0:0:
256,192,522027,1,0,0:0:0:0:
182,192,522027,1,0,0:0:0:0:
329,192,522027,1,0,0:0:0:0:
109,192,522121,1,0,0:0:0:0:
402,192,522121,1,0,0:0:0:0:
475,192,522214,1,0,0:0:0:0:
36,192,522214,1,0,0:0:0:0:
256,192,522214,1,0,0:0:0:45:kick.ogg
402,192,522307,1,0,0:0:0:0:
182,192,522307,1,0,0:0:0:0:
329,192,522400,1,0,0:0:0:0:
109,192,522400,1,0,0:0:0:0:
475,192,522493,1,0,0:0:0:0:
402,192,522493,1,0,0:0:0:0:
256,192,522493,1,0,0:0:0:0:
36,192,522586,1,0,0:0:0:0:
182,192,522586,1,0,0:0:0:70:soft-hitclap.ogg
109,192,522586,1,0,0:0:0:0:
329,192,522680,1,0,0:0:0:0:
402,192,522680,1,0,0:0:0:0:
475,192,522680,1,0,0:0:0:0:
256,192,522773,1,0,0:0:0:0:
36,192,522773,1,0,0:0:0:0:
109,192,522773,1,0,0:0:0:0:
402,192,522866,1,0,0:0:0:0:
475,192,522866,1,0,0:0:0:0:
256,192,522959,1,0,0:0:0:45:kick.ogg
182,192,522959,1,0,0:0:0:0:
36,192,522959,1,0,0:0:0:0:
109,192,523052,1,0,0:0:0:0:
329,192,523052,1,0,0:0:0:0:
402,192,523145,1,0,0:0:0:0:
475,192,523145,1,0,0:0:0:0:
182,192,523145,1,0,0:0:0:0:
329,192,523239,1,0,0:0:0:0:
256,192,523239,1,0,0:0:0:0:
36,192,523239,1,0,0:0:0:0:
475,192,523332,1,0,0:0:0:0:
182,192,523332,1,0,0:0:0:70:soft-hitclap.ogg
109,192,523332,1,0,0:0:0:0:
329,192,523425,1,0,0:0:0:0:
402,192,523425,1,0,0:0:0:0:
256,192,523425,1,0,0:0:0:0:
36,192,523518,1,0,0:0:0:0:
182,192,523518,1,0,0:0:0:0:
109,192,523518,1,0,0:0:0:0:
256,192,523611,1,0,0:0:0:0:
329,192,523611,1,0,0:0:0:0:
182,192,523704,1,0,0:0:0:0:
402,192,523704,1,0,0:0:0:45:kick.ogg
475,192,523704,1,0,0:0:0:0:
256,192,523798,1,0,0:0:0:0:
36,192,523798,1,0,0:0:0:0:
182,192,523891,1,0,0:0:0:0:
475,192,523891,1,0,0:0:0:0:
109,192,523937,1,0,0:0:0:0:
402,192,523937,1,0,0:0:0:0:
36,192,523984,1,0,0:0:0:0:
329,192,523984,1,0,0:0:0:0:
256,192,524031,1,0,0:0:0:0:
475,192,524077,1,0,0:0:0:0:
182,192,524077,1,0,0:0:0:70:soft-hitclap.ogg
36,192,524170,1,0,0:0:0:0:
109,192,524170,1,0,0:0:0:0:
329,192,524170,1,0,0:0:0:0:
182,192,524264,1,0,0:0:0:0:
256,192,524264,1,0,0:0:0:0:
402,192,524264,1,0,0:0:0:0:
475,192,524357,1,0,0:0:0:0:
36,192,524357,1,0,0:0:0:0:
329,192,524450,1,0,0:0:0:0:
182,192,524450,1,0,0:0:0:45:kick.ogg
109,192,524450,1,0,0:0:0:0:
402,192,524543,1,0,0:0:0:0:
256,192,524543,1,0,0:0:0:0:
475,192,524636,1,0,0:0:0:0:
329,192,524636,1,0,0:0:0:0:
36,192,524636,1,0,0:0:0:0:
182,192,524729,1,0,0:0:0:0:
109,192,524729,1,0,0:0:0:0:
475,192,524823,1,0,0:0:0:0:
402,192,524823,1,0,0:0:0:0:
256,192,524823,1,0,0:0:0:70:soft-hitclap.ogg
36,192,524916,1,0,0:0:0:0:
182,192,524916,1,0,0:0:0:0:
109,192,524916,1,0,0:0:0:0:
329,192,525009,1,0,0:0:0:0:
256,192,525009,1,0,0:0:0:0:
402,192,525009,1,0,0:0:0:0:
475,192,525102,1,0,0:0:0:0:
36,192,525102,1,0,0:0:0:0:
109,192,525195,1,0,0:0:0:0:
256,192,525195,1,0,0:0:0:45:kick.ogg
182,192,525195,1,0,0:0:0:0:
329,192,525195,1,0,0:0:0:0:
402,192,525288,1,0,0:0:0:0:
475,192,525288,1,0,0:0:0:0:
182,192,525382,1,0,0:0:0:0:
256,192,525382,1,0,0:0:0:0:
36,192,525382,1,0,0:0:0:0:
329,192,525475,1,0,0:0:0:0:
402,192,525475,1,0,0:0:0:0:
182,192,525568,1,0,0:0:0:70:soft-hitclap.ogg
109,192,525568,1,0,0:0:0:0:
36,192,525568,1,0,0:0:0:0:
475,192,525661,1,0,0:0:0:0:
402,192,525661,1,0,0:0:0:0:
109,192,525754,1,0,0:0:0:0:
329,192,525754,1,0,0:0:0:0:
36,192,525754,1,0,0:0:0:0:
256,192,525847,1,0,0:0:0:0:
182,192,525847,1,0,0:0:0:0:
475,192,525941,1,0,0:0:0:0:
36,192,525941,1,0,0:0:0:0:
402,192,525941,1,0,0:0:0:45:kick.ogg
109,192,526034,1,0,0:0:0:0:
329,192,526034,1,0,0:0:0:0:
475,192,526127,1,0,0:0:0:0:
256,192,526127,1,0,0:0:0:0:
182,192,526127,1,0,0:0:0:0:
402,192,526220,1,0,0:0:0:0:
36,192,526220,1,0,0:0:0:0:
329,192,526220,1,0,0:0:0:0:
256,192,526313,1,0,0:0:0:0:
182,192,526313,1,0,0:0:0:70:soft-hitclap.ogg
109,192,526313,1,0,0:0:0:0:
475,192,526406,1,0,0:0:0:0:
329,192,526406,1,0,0:0:0:0:
402,192,526406,1,0,0:0:0:0:
256,192,526500,1,0,0:0:0:0:
36,192,526500,1,0,0:0:0:0:
109,192,526500,1,0,0:0:0:0:
475,192,526593,1,0,0:0:0:0:
329,192,526593,1,0,0:0:0:0:
402,192,526686,1,0,0:0:0:0:
36,192,526686,1,0,0:0:0:0:
182,192,526686,1,0,0:0:0:45:kick.ogg
109,192,526779,1,0,0:0:0:0:
256,192,526779,1,0,0:0:0:0:
36,192,526872,1,0,0:0:0:0:
329,192,526872,1,0,0:0:0:0:
109,192,526919,1,0,0:0:0:0:
402,192,526919,1,0,0:0:0:0:
182,192,526965,1,0,0:0:0:0:
475,192,526965,1,0,0:0:0:0:
256,192,527012,1,0,0:0:0:0:
36,192,527059,1,0,0:0:0:0:
329,192,527059,1,0,0:0:0:0:
475,192,527152,1,0,0:0:0:0:
256,192,527152,1,0,0:0:0:0:
182,192,527152,1,0,0:0:0:0:
402,192,527245,1,0,0:0:0:0:
329,192,527245,1,0,0:0:0:0:
36,192,527245,1,0,0:0:0:0:
182,192,527338,1,0,0:0:0:0:
109,192,527338,1,0,0:0:0:0:
36,192,527431,1,0,0:0:0:0:
256,192,527431,1,0,0:0:0:45:kick.ogg
329,192,527431,1,0,0:0:0:0:
475,192,527524,1,0,0:0:0:0:
109,192,527524,1,0,0:0:0:0:
182,192,527618,1,0,0:0:0:0:
402,192,527618,1,0,0:0:0:0:
329,192,527618,1,0,0:0:0:0:
109,192,527711,1,0,0:0:0:0:
256,192,527711,1,0,0:0:0:0:
36,192,527711,1,0,0:0:0:0:
329,192,527804,1,0,0:0:0:0:
475,192,527804,1,0,0:0:0:0:
402,192,527804,1,0,0:0:0:70:soft-hitclap.ogg
182,192,527897,1,0,0:0:0:0:
256,192,527897,1,0,0:0:0:0:
109,192,527897,1,0,0:0:0:0:
475,192,527990,1,0,0:0:0:0:
36,192,527990,1,0,0:0:0:0:
402,192,527990,1,0,0:0:0:0:
329,192,528083,1,0,0:0:0:0:
256,192,528083,1,0,0:0:0:0:
109,192,528177,1,0,0:0:0:45:kick.ogg
36,192,528177,1,0,0:0:0:0:
182,192,528177,1,0,0:0:0:0:
402,192,528270,1,0,0:0:0:0:
475,192,528270,1,0,0:0:0:0:
329,192,528363,1,0,0:0:0:0:
109,192,528363,1,0,0:0:0:0:
256,192,528363,1,0,0:0:0:0:
182,192,528456,1,0,0:0:0:0:
36,192,528456,1,0,0:0:0:0:
475,192,528549,1,0,0:0:0:0:
256,192,528549,1,0,0:0:0:70:soft-hitclap.ogg
402,192,528549,1,0,0:0:0:0:
36,192,528642,1,0,0:0:0:0:
109,192,528642,1,0,0:0:0:0:
329,192,528642,1,0,0:0:0:0:
256,192,528736,1,0,0:0:0:0:
475,192,528736,1,0,0:0:0:0:
182,192,528736,1,0,0:0:0:0:
109,192,528829,1,0,0:0:0:0:
329,192,528829,1,0,0:0:0:0:
182,192,528922,1,0,0:0:0:45:snare.ogg
256,192,528922,1,0,0:0:0:0:
402,192,528922,1,0,0:0:0:0:
36,192,528922,1,0,0:0:0:0:
475,192,529015,1,0,0:0:0:45:snare.ogg
109,192,529015,1,0,0:0:0:0:
36,192,529108,1,0,0:0:0:45:snare.ogg
402,192,529108,1,0,0:0:0:0:
475,192,529201,1,0,0:0:0:45:snare.ogg
182,192,529201,1,0,0:0:0:0:
402,192,529295,1,0,0:0:0:0:
109,192,529295,1,0,0:0:0:45:snare.ogg
329,192,529388,1,0,0:0:0:45:snare.ogg
36,192,529388,1,0,0:0:0:0:
402,192,529481,1,0,0:0:0:0:
109,192,529481,1,0,0:0:0:45:snare.ogg
329,192,529574,1,0,0:0:0:45:snare.ogg
182,192,529574,1,0,0:0:0:0:
475,192,529667,1,0,0:0:0:0:
402,192,529667,1,0,0:0:0:0:
36,192,529667,1,0,0:0:0:0:
109,192,529667,1,0,0:0:0:45:snare.ogg
329,192,529760,1,0,0:0:0:45:snare.ogg
182,192,529760,1,0,0:0:0:0:
475,192,529854,1,0,0:0:0:0:
402,192,529854,1,0,0:0:0:0:
109,192,529854,1,0,0:0:0:45:snare.ogg
36,192,529854,1,0,0:0:0:0:
329,192,529947,1,0,0:0:0:45:snare.ogg
182,192,529947,1,0,0:0:0:0:
402,192,530040,1,0,0:0:0:0:
475,192,530040,1,0,0:0:0:0:
36,192,530040,1,0,0:0:0:0:
109,192,530040,1,0,0:0:0:45:snare.ogg
329,192,530133,1,0,0:0:0:45:snare.ogg
182,192,530133,1,0,0:0:0:0:
475,192,530226,1,0,0:0:0:0:
402,192,530226,1,0,0:0:0:0:
36,192,530226,1,0,0:0:0:0:
109,192,530226,1,0,0:0:0:45:snare.ogg
329,192,530319,1,0,0:0:0:45:snare.ogg
182,192,530319,1,0,0:0:0:0:
256,192,530413,1,0,0:0:0:0:
402,192,530413,1,0,0:0:0:45:kick.ogg
109,192,530413,1,0,0:0:0:0:
182,192,530506,1,0,0:0:0:0:
329,192,530506,1,0,0:0:0:0:
475,192,530506,1,0,0:0:0:0:
36,192,530506,1,0,0:0:0:0:
256,192,530692,1,0,0:0:0:0:
109,192,530692,1,0,0:0:0:0:
36,192,530785,1,0,0:0:0:0:
475,192,530785,1,0,0:0:0:0:
329,192,530785,1,0,0:0:0:0:
182,192,530785,1,0,0:0:0:0:
402,192,530972,1,0,0:0:0:0:
109,192,530972,1,0,0:0:0:0:
182,192,530972,1,0,0:0:0:0:
329,192,530972,1,0,0:0:0:45:kick.ogg
109,192,531065,1,0,0:0:0:0:
36,192,531065,1,0,0:0:0:0:
256,192,531065,1,0,0:0:0:45:kick.ogg
402,192,531065,1,0,0:0:0:0:
475,192,531065,1,0,0:0:0:0:
