osu file format v14

[General]
AudioFilename: Dan_5.mp3
AudioLeadIn: 0
PreviewTime: 845
Countdown: 0
SampleSet: Soft
StackLeniency: 0.7
Mode: 3
LetterboxInBreaks: 0
SpecialStyle: 0
WidescreenStoryboard: 0

[Editor]
DistanceSpacing: 1
BeatDivisor: 4
GridSize: 8
TimelineZoom: 1.5

[Metadata]
Title:Regular Dan Phase II
TitleUnicode:Regular Dan Phase II
Artist:osu!mania 7K Dan Course
ArtistUnicode:osu!mania 7K Dan Course
Creator:Jinjin
Version:5th Dan (Marathon)
Source:
Tags:kaneko chiharu aciculignosa the flashbulb passage d antiplur speed of link izayoi sak blue planet
BeatmapID:969188
BeatmapSetID:451788

[Difficulty]
HPDrainRate:8
CircleSize:7
OverallDifficulty:8.5
ApproachRate:5
SliderMultiplier:1.4
SliderTickRate:1

[Events]
//Background and Video events
0,0,"Dan_5.png",0,0
//Break Periods
2,113295,124033
2,241474,252330
2,364476,375177
//Storyboard Layer 0 (Background)
//Storyboard Layer 1 (Fail)
//Storyboard Layer 2 (Pass)
//Storyboard Layer 3 (Foreground)
//Storyboard Sound Samples

[TimingPoints]
845,416.666666666667,4,2,0,0,1,0
845,-80,4,2,0,0,0,0
7511,405.405405405405,4,2,0,0,1,0
7511,-81.9672131147541,4,2,0,0,0,0
86970,416.666666666667,4,2,0,0,1,0
86970,-80,4,2,0,0,0,0
93636,405.405405405405,4,2,0,0,1,0
93636,-81.9672131147541,4,2,0,0,0,0
125233,333.333333333333,4,2,0,0,1,0
253530,228.07010875143,4,2,0,0,1,0
253530,-147.058823529412,4,2,0,0,0,0
334722,227.272727272727,4,2,0,0,1,0
334722,-147.058823529412,4,2,0,0,0,0
335176,224.719101123595,4,2,0,0,1,0
335176,-149.253731343284,4,2,0,0,0,0
335625,218.978102189781,4,2,0,0,1,0
335625,-151.515151515152,4,2,0,0,0,0
336062,211.267605633803,4,2,0,0,1,0
336062,-158.730158730159,4,2,0,0,0,0
337329,210.526315789474,4,2,0,0,1,0
337329,-158.730158730159,4,2,0,0,0,0
376377,408.163265306122,4,2,0,0,1,0
376381,-81.9672131147541,4,2,0,0,0,0

[HitObjects]
109,192,845,5,0,0:0:0:0:
36,192,845,1,0,0:0:0:0:
256,192,845,1,0,0:0:0:0:
475,192,845,1,0,0:0:0:0:
109,192,1261,1,0,0:0:0:0:
182,192,1365,1,0,0:0:0:0:
329,192,1470,1,0,0:0:0:0:
402,192,1574,1,0,0:0:0:0:
475,192,1678,1,0,0:0:0:0:
256,192,1886,1,0,0:0:0:0:
402,192,1990,1,0,0:0:0:0:
182,192,2199,1,0,0:0:0:0:
329,192,2407,1,0,0:0:0:0:
109,192,2615,1,0,0:0:0:0:
402,192,2824,1,0,0:0:0:0:
329,192,2928,1,0,0:0:0:0:
256,192,3032,1,0,0:0:0:0:
182,192,3136,1,0,0:0:0:0:
109,192,3240,1,0,0:0:0:0:
36,192,3345,1,0,0:0:0:0:
329,192,3345,1,0,0:0:0:0:
475,192,3345,1,0,0:0:0:0:
402,192,3657,1,0,0:0:0:0:
182,192,3865,1,0,0:0:0:0:
36,192,4178,1,0,0:0:0:0:
402,192,4178,1,0,0:0:0:0:
256,192,4204,1,0,0:0:0:0:
109,192,4230,1,0,0:0:0:0:
182,192,4595,1,0,0:0:0:0:
329,192,4699,1,0,0:0:0:0:
256,192,4733,1,0,0:0:0:0:
109,192,4803,1,0,0:0:0:0:
402,192,4907,1,0,0:0:0:0:
329,192,5011,1,0,0:0:0:0:
182,192,5220,1,0,0:0:0:0:
475,192,5324,1,0,0:0:0:0:
402,192,5532,1,0,0:0:0:0:
256,192,5740,1,0,0:0:0:0:
109,192,5949,1,0,0:0:0:0:
329,192,6157,1,0,0:0:0:0:
256,192,6261,1,0,0:0:0:0:
36,192,6261,1,0,0:0:0:0:
475,192,6261,1,0,0:0:0:0:
329,192,6574,1,0,0:0:0:0:
182,192,6574,1,0,0:0:0:0:
402,192,6643,1,0,0:0:0:0:
109,192,6643,1,0,0:0:0:0:
475,192,6678,1,0,0:0:0:0:
36,192,6678,1,0,0:0:0:0:
402,192,6808,1,0,0:0:0:0:
329,192,6808,1,0,0:0:0:0:
182,192,6808,1,0,0:0:0:0:
109,192,6808,1,0,0:0:0:0:
256,192,7016,1,0,0:0:0:0:
329,192,7016,1,0,0:0:0:0:
109,192,7016,1,0,0:0:0:0:
36,192,7016,1,0,0:0:0:0:
402,192,7225,1,0,0:0:0:0:
475,192,7225,1,0,0:0:0:0:
182,192,7225,1,0,0:0:0:0:
109,192,7303,1,0,0:0:0:0:
36,192,7303,1,0,0:0:0:0:
329,192,7303,1,0,0:0:0:0:
36,192,7511,1,0,0:0:0:0:
256,192,7511,1,0,0:0:0:0:
475,192,7511,1,0,0:0:0:0:
329,192,7544,1,0,0:0:0:0:
182,192,7713,1,0,0:0:0:0:
109,192,7713,1,0,0:0:0:0:
475,192,7713,1,0,0:0:0:0:
402,192,7815,1,0,0:0:0:0:
329,192,7815,1,0,0:0:0:0:
256,192,7916,1,0,0:0:0:0:
36,192,7916,1,0,0:0:0:0:
182,192,8017,1,0,0:0:0:0:
329,192,8017,1,0,0:0:0:0:
182,192,8119,1,0,0:0:0:0:
329,192,8119,1,0,0:0:0:0:
36,192,8220,1,0,0:0:0:0:
256,192,8220,1,0,0:0:0:0:
109,192,8321,1,0,0:0:0:0:
475,192,8321,1,0,0:0:0:0:
182,192,8423,1,0,0:0:0:0:
329,192,8423,1,0,0:0:0:0:
329,192,8524,1,0,0:0:0:0:
182,192,8524,1,0,0:0:0:0:
402,192,8625,1,0,0:0:0:0:
475,192,8625,1,0,0:0:0:0:
182,192,8727,1,0,0:0:0:0:
109,192,8727,1,0,0:0:0:0:
109,192,8828,1,0,0:0:0:0:
182,192,8828,1,0,0:0:0:0:
475,192,8929,1,0,0:0:0:0:
256,192,8929,1,0,0:0:0:0:
402,192,8929,1,0,0:0:0:0:
256,192,9132,1,0,0:0:0:0:
475,192,9132,1,0,0:0:0:0:
36,192,9132,1,0,0:0:0:0:
182,192,9166,1,0,0:0:0:0:
109,192,9233,1,0,0:0:0:0:
329,192,9335,1,0,0:0:0:0:
402,192,9335,1,0,0:0:0:0:
109,192,9335,1,0,0:0:0:0:
182,192,9436,1,0,0:0:0:0:
256,192,9436,1,0,0:0:0:0:
329,192,9538,1,0,0:0:0:0:
36,192,9538,1,0,0:0:0:0:
402,192,9639,1,0,0:0:0:0:
475,192,9639,1,0,0:0:0:0:
182,192,9740,1,0,0:0:0:0:
402,192,9740,1,0,0:0:0:0:
475,192,9842,1,0,0:0:0:0:
329,192,9875,1,0,0:0:0:0:
256,192,9943,1,0,0:0:0:0:
109,192,9943,1,0,0:0:0:0:
109,192,10146,1,0,0:0:0:0:
329,192,10146,1,0,0:0:0:0:
402,192,10146,1,0,0:0:0:0:
256,192,10247,1,0,0:0:0:0:
402,192,10348,1,0,0:0:0:0:
475,192,10348,1,0,0:0:0:0:
182,192,10348,1,0,0:0:0:0:
182,192,10450,1,0,0:0:0:0:
402,192,10450,1,0,0:0:0:0:
475,192,10450,1,0,0:0:0:0:
256,192,10551,1,0,0:0:0:0:
329,192,10551,1,0,0:0:0:0:
36,192,10551,1,0,0:0:0:0:
256,192,10754,1,0,0:0:0:0:
475,192,10754,1,0,0:0:0:0:
36,192,10754,1,0,0:0:0:0:
329,192,10788,1,0,0:0:0:0:
475,192,10956,1,0,0:0:0:0:
182,192,10956,1,0,0:0:0:0:
109,192,10956,1,0,0:0:0:0:
402,192,11058,1,0,0:0:0:0:
329,192,11058,1,0,0:0:0:0:
256,192,11159,1,0,0:0:0:0:
36,192,11159,1,0,0:0:0:0:
329,192,11260,1,0,0:0:0:0:
182,192,11260,1,0,0:0:0:0:
329,192,11362,1,0,0:0:0:0:
182,192,11362,1,0,0:0:0:0:
36,192,11463,1,0,0:0:0:0:
256,192,11463,1,0,0:0:0:0:
109,192,11565,1,0,0:0:0:0:
475,192,11565,1,0,0:0:0:0:
182,192,11666,1,0,0:0:0:0:
329,192,11666,1,0,0:0:0:0:
329,192,11767,1,0,0:0:0:0:
182,192,11767,1,0,0:0:0:0:
475,192,11869,1,0,0:0:0:0:
402,192,11869,1,0,0:0:0:0:
256,192,11970,1,0,0:0:0:0:
109,192,11970,1,0,0:0:0:0:
109,192,12071,1,0,0:0:0:0:
256,192,12071,1,0,0:0:0:0:
475,192,12173,1,0,0:0:0:0:
329,192,12173,1,0,0:0:0:0:
402,192,12173,1,0,0:0:0:0:
256,192,12375,1,0,0:0:0:0:
475,192,12375,1,0,0:0:0:0:
36,192,12375,1,0,0:0:0:0:
182,192,12409,1,0,0:0:0:0:
109,192,12477,1,0,0:0:0:0:
475,192,12578,1,0,0:0:0:0:
402,192,12578,1,0,0:0:0:0:
109,192,12679,1,0,0:0:0:0:
36,192,12679,1,0,0:0:0:0:
402,192,12679,1,0,0:0:0:0:
182,192,12781,1,0,0:0:0:0:
329,192,12781,1,0,0:0:0:0:
256,192,12882,1,0,0:0:0:0:
109,192,12882,1,0,0:0:0:0:
475,192,12983,1,0,0:0:0:0:
109,192,12983,1,0,0:0:0:0:
256,192,13085,1,0,0:0:0:0:
329,192,13119,1,0,0:0:0:0:
402,192,13152,1,0,0:0:0:0:
475,192,13186,1,0,0:0:0:0:
182,192,13186,1,0,0:0:0:0:
36,192,13186,1,0,0:0:0:0:
329,192,13389,1,0,0:0:0:0:
402,192,13389,1,0,0:0:0:0:
256,192,13490,1,0,0:0:0:0:
36,192,13490,1,0,0:0:0:0:
402,192,13592,1,0,0:0:0:0:
475,192,13592,1,0,0:0:0:0:
109,192,13592,1,0,0:0:0:0:
182,192,13693,1,0,0:0:0:0:
402,192,13693,1,0,0:0:0:0:
475,192,13693,1,0,0:0:0:0:
109,192,13794,1,0,0:0:0:0:
329,192,13794,1,0,0:0:0:0:
36,192,13794,1,0,0:0:0:0:
36,192,13896,1,0,0:0:0:0:
109,192,13896,1,0,0:0:0:0:
256,192,13896,1,0,0:0:0:0:
475,192,13997,1,0,0:0:0:0:
402,192,13997,1,0,0:0:0:0:
182,192,13997,1,0,0:0:0:0:
109,192,14200,1,0,0:0:0:0:
402,192,14200,1,0,0:0:0:0:
329,192,14200,1,0,0:0:0:0:
182,192,14301,1,0,0:0:0:0:
256,192,14301,1,0,0:0:0:0:
402,192,14402,1,0,0:0:0:0:
475,192,14402,1,0,0:0:0:0:
36,192,14402,1,0,0:0:0:0:
182,192,14504,1,0,0:0:0:0:
329,192,14504,1,0,0:0:0:0:
475,192,14605,1,0,0:0:0:0:
329,192,14605,1,0,0:0:0:0:
256,192,14706,1,0,0:0:0:0:
182,192,14706,1,0,0:0:0:0:
475,192,14808,1,0,0:0:0:0:
36,192,14808,1,0,0:0:0:0:
109,192,14808,1,0,0:0:0:0:
182,192,14909,1,0,0:0:0:0:
329,192,14909,1,0,0:0:0:0:
402,192,14909,1,0,0:0:0:0:
182,192,15010,1,0,0:0:0:0:
256,192,15112,1,0,0:0:0:0:
329,192,15112,1,0,0:0:0:0:
109,192,15213,1,0,0:0:0:0:
475,192,15213,1,0,0:0:0:0:
36,192,15213,1,0,0:0:0:0:
329,192,15315,1,0,0:0:0:0:
402,192,15315,1,0,0:0:0:0:
182,192,15315,1,0,0:0:0:0:
402,192,15416,1,0,0:0:0:0:
329,192,15416,1,0,0:0:0:0:
182,192,15416,1,0,0:0:0:0:
329,192,15517,1,0,0:0:0:0:
402,192,15517,1,0,0:0:0:0:
402,192,15619,1,0,0:0:0:0:
329,192,15619,1,0,0:0:0:0:
256,192,15720,1,0,0:0:0:0:
182,192,15720,1,0,0:0:0:0:
475,192,15821,1,0,0:0:0:0:
402,192,15821,1,0,0:0:0:0:
36,192,15821,1,0,0:0:0:0:
109,192,15923,1,0,0:0:0:0:
182,192,16024,1,0,0:0:0:0:
475,192,16024,1,0,0:0:0:0:
36,192,16125,1,0,0:0:0:0:
402,192,16125,1,0,0:0:0:0:
329,192,16227,1,0,0:0:0:0:
109,192,16227,1,0,0:0:0:0:
256,192,16328,1,0,0:0:0:0:
402,192,16328,1,0,0:0:0:0:
256,192,16429,1,0,0:0:0:0:
36,192,16429,1,0,0:0:0:0:
475,192,16429,1,0,0:0:0:0:
36,192,16632,1,0,0:0:0:0:
182,192,16632,1,0,0:0:0:0:
329,192,16632,1,0,0:0:0:0:
256,192,16733,1,0,0:0:0:0:
475,192,16733,1,0,0:0:0:0:
402,192,16835,1,0,0:0:0:0:
109,192,16835,1,0,0:0:0:0:
402,192,16936,1,0,0:0:0:0:
109,192,16936,1,0,0:0:0:0:
256,192,17038,1,0,0:0:0:0:
402,192,17139,1,0,0:0:0:0:
109,192,17139,1,0,0:0:0:0:
475,192,17240,1,0,0:0:0:0:
36,192,17240,1,0,0:0:0:0:
256,192,17240,1,0,0:0:0:0:
182,192,17240,1,0,0:0:0:0:
109,192,17443,1,0,0:0:0:0:
182,192,17443,1,0,0:0:0:0:
329,192,17443,1,0,0:0:0:0:
256,192,17544,1,0,0:0:0:0:
475,192,17646,1,0,0:0:0:0:
329,192,17646,1,0,0:0:0:0:
36,192,17646,1,0,0:0:0:0:
256,192,17747,1,0,0:0:0:0:
402,192,17747,1,0,0:0:0:0:
256,192,17848,1,0,0:0:0:0:
402,192,17848,1,0,0:0:0:0:
36,192,17950,1,0,0:0:0:0:
109,192,17950,1,0,0:0:0:0:
475,192,18051,1,0,0:0:0:0:
182,192,18051,1,0,0:0:0:0:
329,192,18051,1,0,0:0:0:0:
182,192,18152,1,0,0:0:0:0:
329,192,18152,1,0,0:0:0:0:
475,192,18254,1,0,0:0:0:0:
109,192,18254,1,0,0:0:0:0:
36,192,18254,1,0,0:0:0:0:
256,192,18355,1,0,0:0:0:0:
182,192,18355,1,0,0:0:0:0:
402,192,18456,1,0,0:0:0:0:
36,192,18456,1,0,0:0:0:0:
475,192,18456,1,0,0:0:0:0:
182,192,18558,1,0,0:0:0:0:
109,192,18558,1,0,0:0:0:0:
329,192,18558,1,0,0:0:0:0:
109,192,18659,1,0,0:0:0:0:
182,192,18659,1,0,0:0:0:0:
329,192,18659,1,0,0:0:0:0:
182,192,18760,1,0,0:0:0:0:
109,192,18760,1,0,0:0:0:0:
109,192,18862,1,0,0:0:0:0:
182,192,18862,1,0,0:0:0:0:
256,192,18963,1,0,0:0:0:0:
329,192,18963,1,0,0:0:0:0:
402,192,19065,1,0,0:0:0:0:
182,192,19166,1,0,0:0:0:0:
475,192,19166,1,0,0:0:0:0:
109,192,19166,1,0,0:0:0:0:
256,192,19267,1,0,0:0:0:0:
109,192,19369,1,0,0:0:0:0:
329,192,19369,1,0,0:0:0:0:
475,192,19470,1,0,0:0:0:0:
182,192,19470,1,0,0:0:0:0:
402,192,19470,1,0,0:0:0:0:
109,192,19571,1,0,0:0:0:0:
329,192,19571,1,0,0:0:0:0:
36,192,19673,1,0,0:0:0:0:
182,192,19673,1,0,0:0:0:0:
475,192,19673,1,0,0:0:0:0:
402,192,19673,1,0,0:0:0:0:
256,192,19673,1,0,0:0:0:0:
109,192,19875,1,0,0:0:0:0:
182,192,19977,1,0,0:0:0:0:
256,192,19977,1,0,0:0:0:0:
402,192,20078,1,0,0:0:0:0:
329,192,20078,1,0,0:0:0:0:
36,192,20078,1,0,0:0:0:0:
402,192,20179,1,0,0:0:0:0:
329,192,20179,1,0,0:0:0:0:
182,192,20281,1,0,0:0:0:0:
109,192,20281,1,0,0:0:0:0:
475,192,20281,1,0,0:0:0:0:
182,192,20382,1,0,0:0:0:0:
109,192,20382,1,0,0:0:0:0:
402,192,20483,1,0,0:0:0:0:
475,192,20483,1,0,0:0:0:0:
256,192,20483,1,0,0:0:0:0:
36,192,20483,1,0,0:0:0:0:
329,192,20483,1,0,0:0:0:0:
256,192,20686,1,0,0:0:0:0:
329,192,20788,1,0,0:0:0:0:
182,192,20889,1,0,0:0:0:0:
109,192,20889,1,0,0:0:0:0:
402,192,20889,1,0,0:0:0:0:
109,192,21092,1,0,0:0:0:0:
182,192,21092,1,0,0:0:0:0:
256,192,21092,1,0,0:0:0:0:
402,192,21193,1,0,0:0:0:0:
329,192,21294,1,0,0:0:0:0:
475,192,21294,1,0,0:0:0:0:
109,192,21294,1,0,0:0:0:0:
36,192,21294,1,0,0:0:0:0:
256,192,21497,1,0,0:0:0:0:
329,192,21598,1,0,0:0:0:0:
182,192,21700,1,0,0:0:0:0:
109,192,21700,1,0,0:0:0:0:
402,192,21700,1,0,0:0:0:0:
182,192,21801,1,0,0:0:0:0:
109,192,21902,1,0,0:0:0:0:
36,192,21902,1,0,0:0:0:0:
256,192,21902,1,0,0:0:0:0:
475,192,21902,1,0,0:0:0:0:
182,192,22038,1,0,0:0:0:0:
402,192,22105,1,0,0:0:0:0:
329,192,22105,1,0,0:0:0:0:
109,192,22105,1,0,0:0:0:0:
36,192,22105,1,0,0:0:0:0:
329,192,22308,1,0,0:0:0:0:
402,192,22308,1,0,0:0:0:0:
475,192,22409,1,0,0:0:0:0:
256,192,22409,1,0,0:0:0:0:
109,192,22409,1,0,0:0:0:0:
36,192,22409,1,0,0:0:0:0:
182,192,22612,1,0,0:0:0:0:
109,192,22612,1,0,0:0:0:0:
36,192,22713,1,0,0:0:0:0:
256,192,22713,1,0,0:0:0:0:
402,192,22713,1,0,0:0:0:0:
475,192,22713,1,0,0:0:0:0:
475,192,22916,1,0,0:0:0:0:
329,192,22916,1,0,0:0:0:0:
182,192,23119,1,0,0:0:0:0:
36,192,23119,1,0,0:0:0:0:
256,192,23119,1,0,0:0:0:0:
109,192,23321,1,0,0:0:0:0:
36,192,23321,1,0,0:0:0:0:
475,192,23321,1,0,0:0:0:0:
402,192,23321,1,0,0:0:0:0:
256,192,23321,1,0,0:0:0:0:
109,192,23423,1,0,0:0:0:0:
36,192,23423,1,0,0:0:0:0:
182,192,23625,1,0,0:0:0:0:
36,192,23625,1,0,0:0:0:0:
475,192,23727,1,0,0:0:0:0:
402,192,23727,1,0,0:0:0:0:
36,192,23727,1,0,0:0:0:0:
182,192,23727,1,0,0:0:0:0:
329,192,23929,1,0,0:0:0:0:
109,192,23929,1,0,0:0:0:0:
182,192,23963,1,0,0:0:0:0:
402,192,24132,1,0,0:0:0:0:
475,192,24132,1,0,0:0:0:0:
109,192,24132,1,0,0:0:0:0:
256,192,24233,1,0,0:0:0:0:
182,192,24335,1,0,0:0:0:0:
36,192,24335,1,0,0:0:0:0:
402,192,24335,1,0,0:0:0:0:
475,192,24335,1,0,0:0:0:0:
256,192,24436,1,0,0:0:0:0:
182,192,24538,1,0,0:0:0:0:
36,192,24538,1,0,0:0:0:0:
329,192,24538,1,0,0:0:0:0:
475,192,24538,1,0,0:0:0:0:
475,192,24639,1,0,0:0:0:0:
329,192,24639,1,0,0:0:0:0:
109,192,24740,1,0,0:0:0:0:
256,192,24740,1,0,0:0:0:0:
109,192,24943,1,0,0:0:0:0:
182,192,24943,1,0,0:0:0:0:
402,192,24943,1,0,0:0:0:0:
475,192,24943,1,0,0:0:0:0:
182,192,25044,1,0,0:0:0:0:
109,192,25044,1,0,0:0:0:0:
329,192,25146,1,0,0:0:0:0:
256,192,25146,1,0,0:0:0:0:
329,192,25247,1,0,0:0:0:0:
182,192,25348,1,0,0:0:0:0:
36,192,25348,1,0,0:0:0:0:
475,192,25348,1,0,0:0:0:0:
402,192,25348,1,0,0:0:0:0:
182,192,25551,1,0,0:0:0:0:
109,192,25551,1,0,0:0:0:0:
36,192,25652,1,0,0:0:0:0:
256,192,25652,1,0,0:0:0:0:
402,192,25652,1,0,0:0:0:0:
475,192,25652,1,0,0:0:0:0:
402,192,25855,1,0,0:0:0:0:
475,192,25855,1,0,0:0:0:0:
256,192,25956,1,0,0:0:0:0:
109,192,25956,1,0,0:0:0:0:
36,192,25956,1,0,0:0:0:0:
329,192,25956,1,0,0:0:0:0:
182,192,26159,1,0,0:0:0:0:
402,192,26159,1,0,0:0:0:0:
182,192,26260,1,0,0:0:0:0:
329,192,26260,1,0,0:0:0:0:
36,192,26362,1,0,0:0:0:0:
256,192,26362,1,0,0:0:0:0:
475,192,26362,1,0,0:0:0:0:
329,192,26463,1,0,0:0:0:0:
109,192,26463,1,0,0:0:0:0:
182,192,26565,1,0,0:0:0:0:
402,192,26565,1,0,0:0:0:0:
402,192,26666,1,0,0:0:0:0:
182,192,26666,1,0,0:0:0:0:
329,192,26767,1,0,0:0:0:0:
109,192,26767,1,0,0:0:0:0:
109,192,26869,1,0,0:0:0:0:
329,192,26869,1,0,0:0:0:0:
475,192,26970,1,0,0:0:0:0:
256,192,26970,1,0,0:0:0:0:
36,192,26970,1,0,0:0:0:0:
182,192,26970,1,0,0:0:0:0:
402,192,26970,1,0,0:0:0:0:
256,192,27173,1,0,0:0:0:0:
182,192,27274,1,0,0:0:0:0:
329,192,27375,1,0,0:0:0:0:
475,192,27375,1,0,0:0:0:0:
109,192,27375,1,0,0:0:0:0:
402,192,27578,1,0,0:0:0:0:
329,192,27578,1,0,0:0:0:0:
256,192,27578,1,0,0:0:0:0:
109,192,27679,1,0,0:0:0:0:
182,192,27781,1,0,0:0:0:0:
36,192,27781,1,0,0:0:0:0:
402,192,27781,1,0,0:0:0:0:
475,192,27781,1,0,0:0:0:0:
256,192,27983,1,0,0:0:0:0:
182,192,28085,1,0,0:0:0:0:
329,192,28186,1,0,0:0:0:0:
109,192,28186,1,0,0:0:0:0:
329,192,28288,1,0,0:0:0:0:
402,192,28389,1,0,0:0:0:0:
475,192,28389,1,0,0:0:0:0:
182,192,28389,1,0,0:0:0:0:
36,192,28389,1,0,0:0:0:0:
256,192,28524,1,0,0:0:0:0:
109,192,28592,1,0,0:0:0:0:
182,192,28592,1,0,0:0:0:0:
402,192,28592,1,0,0:0:0:0:
475,192,28592,1,0,0:0:0:0:
182,192,28794,1,0,0:0:0:0:
109,192,28794,1,0,0:0:0:0:
36,192,28896,1,0,0:0:0:0:
256,192,28896,1,0,0:0:0:0:
402,192,28896,1,0,0:0:0:0:
475,192,28896,1,0,0:0:0:0:
475,192,29098,1,0,0:0:0:0:
402,192,29098,1,0,0:0:0:0:
329,192,29200,1,0,0:0:0:0:
256,192,29200,1,0,0:0:0:0:
109,192,29200,1,0,0:0:0:0:
36,192,29200,1,0,0:0:0:0:
36,192,29402,1,0,0:0:0:0:
182,192,29402,1,0,0:0:0:0:
329,192,29605,1,0,0:0:0:0:
475,192,29605,1,0,0:0:0:0:
256,192,29605,1,0,0:0:0:0:
402,192,29808,1,0,0:0:0:0:
475,192,29808,1,0,0:0:0:0:
36,192,29808,1,0,0:0:0:0:
109,192,29808,1,0,0:0:0:0:
256,192,29808,1,0,0:0:0:0:
182,192,29943,1,0,0:0:0:0:
109,192,29943,1,0,0:0:0:0:
402,192,29943,1,0,0:0:0:0:
36,192,30078,1,0,0:0:0:0:
182,192,30078,1,0,0:0:0:0:
329,192,30078,1,0,0:0:0:0:
475,192,30213,1,0,0:0:0:0:
329,192,30213,1,0,0:0:0:0:
109,192,30213,1,0,0:0:0:0:
36,192,30213,1,0,0:0:0:0:
182,192,30213,1,0,0:0:0:0:
182,192,30416,1,0,0:0:0:0:
402,192,30416,1,0,0:0:0:0:
475,192,30450,1,0,0:0:0:0:
109,192,30619,1,0,0:0:0:0:
36,192,30619,1,0,0:0:0:0:
402,192,30619,1,0,0:0:0:0:
329,192,30720,1,0,0:0:0:0:
182,192,30821,1,0,0:0:0:0:
36,192,30821,1,0,0:0:0:0:
402,192,30821,1,0,0:0:0:0:
475,192,30923,1,0,0:0:0:0:
256,192,30923,1,0,0:0:0:0:
36,192,31024,1,0,0:0:0:0:
329,192,31024,1,0,0:0:0:0:
109,192,31024,1,0,0:0:0:0:
182,192,31125,1,0,0:0:0:0:
475,192,31125,1,0,0:0:0:0:
109,192,31227,1,0,0:0:0:0:
402,192,31227,1,0,0:0:0:0:
402,192,31429,1,0,0:0:0:0:
329,192,31429,1,0,0:0:0:0:
109,192,31429,1,0,0:0:0:0:
36,192,31429,1,0,0:0:0:0:
329,192,31531,1,0,0:0:0:0:
402,192,31531,1,0,0:0:0:0:
182,192,31632,1,0,0:0:0:0:
475,192,31632,1,0,0:0:0:0:
109,192,31632,1,0,0:0:0:0:
256,192,31733,1,0,0:0:0:0:
182,192,31733,1,0,0:0:0:0:
329,192,31835,1,0,0:0:0:0:
109,192,31835,1,0,0:0:0:0:
475,192,31835,1,0,0:0:0:0:
36,192,31835,1,0,0:0:0:0:
329,192,31936,1,0,0:0:0:0:
256,192,32038,1,0,0:0:0:0:
182,192,32038,1,0,0:0:0:0:
109,192,32139,1,0,0:0:0:0:
475,192,32139,1,0,0:0:0:0:
402,192,32139,1,0,0:0:0:0:
329,192,32173,1,0,0:0:0:0:
402,192,32342,1,0,0:0:0:0:
475,192,32342,1,0,0:0:0:0:
256,192,32443,1,0,0:0:0:0:
109,192,32443,1,0,0:0:0:0:
36,192,32443,1,0,0:0:0:0:
329,192,32443,1,0,0:0:0:0:
329,192,32646,1,0,0:0:0:0:
36,192,32646,1,0,0:0:0:0:
402,192,32646,1,0,0:0:0:0:
182,192,32747,1,0,0:0:0:0:
475,192,32848,1,0,0:0:0:0:
256,192,32848,1,0,0:0:0:0:
36,192,32848,1,0,0:0:0:0:
402,192,32950,1,0,0:0:0:0:
329,192,32950,1,0,0:0:0:0:
109,192,33051,1,0,0:0:0:0:
182,192,33051,1,0,0:0:0:0:
475,192,33051,1,0,0:0:0:0:
182,192,33152,1,0,0:0:0:0:
402,192,33152,1,0,0:0:0:0:
329,192,33254,1,0,0:0:0:0:
36,192,33254,1,0,0:0:0:0:
256,192,33254,1,0,0:0:0:0:
182,192,33355,1,0,0:0:0:0:
329,192,33355,1,0,0:0:0:0:
109,192,33456,1,0,0:0:0:0:
36,192,33456,1,0,0:0:0:0:
256,192,33456,1,0,0:0:0:0:
402,192,33456,1,0,0:0:0:0:
475,192,33456,1,0,0:0:0:0:
182,192,33659,1,0,0:0:0:0:
329,192,33659,1,0,0:0:0:0:
182,192,33760,1,0,0:0:0:0:
329,192,33760,1,0,0:0:0:0:
36,192,33862,1,0,0:0:0:0:
475,192,33862,1,0,0:0:0:0:
256,192,33862,1,0,0:0:0:0:
256,192,33963,1,0,0:0:0:0:
402,192,34065,1,0,0:0:0:0:
329,192,34065,1,0,0:0:0:0:
109,192,34065,1,0,0:0:0:0:
36,192,34267,1,0,0:0:0:0:
475,192,34267,1,0,0:0:0:0:
182,192,34369,1,0,0:0:0:0:
329,192,34369,1,0,0:0:0:0:
402,192,34470,1,0,0:0:0:0:
256,192,34470,1,0,0:0:0:0:
475,192,34470,1,0,0:0:0:0:
182,192,34571,1,0,0:0:0:0:
109,192,34571,1,0,0:0:0:0:
36,192,34673,1,0,0:0:0:0:
475,192,34673,1,0,0:0:0:0:
329,192,34673,1,0,0:0:0:0:
402,192,34673,1,0,0:0:0:0:
402,192,34774,1,0,0:0:0:0:
329,192,34774,1,0,0:0:0:0:
182,192,34875,1,0,0:0:0:0:
36,192,34875,1,0,0:0:0:0:
182,192,34977,1,0,0:0:0:0:
475,192,35078,1,0,0:0:0:0:
256,192,35078,1,0,0:0:0:0:
109,192,35078,1,0,0:0:0:0:
475,192,35179,1,0,0:0:0:0:
256,192,35179,1,0,0:0:0:0:
182,192,35281,1,0,0:0:0:0:
402,192,35382,1,0,0:0:0:0:
182,192,35382,1,0,0:0:0:0:
36,192,35483,1,0,0:0:0:0:
475,192,35483,1,0,0:0:0:0:
256,192,35483,1,0,0:0:0:0:
402,192,35686,1,0,0:0:0:0:
329,192,35686,1,0,0:0:0:0:
182,192,35686,1,0,0:0:0:0:
36,192,35686,1,0,0:0:0:0:
182,192,35788,1,0,0:0:0:0:
475,192,35889,1,0,0:0:0:0:
329,192,35889,1,0,0:0:0:0:
256,192,36092,1,0,0:0:0:0:
402,192,36092,1,0,0:0:0:0:
109,192,36092,1,0,0:0:0:0:
36,192,36092,1,0,0:0:0:0:
475,192,36294,1,0,0:0:0:0:
329,192,36294,1,0,0:0:0:0:
182,192,36294,1,0,0:0:0:0:
329,192,36396,1,0,0:0:0:0:
475,192,36396,1,0,0:0:0:0:
182,192,36497,1,0,0:0:0:0:
109,192,36497,1,0,0:0:0:0:
329,192,36598,1,0,0:0:0:0:
182,192,36598,1,0,0:0:0:0:
256,192,36700,1,0,0:0:0:0:
36,192,36700,1,0,0:0:0:0:
109,192,36700,1,0,0:0:0:0:
402,192,36700,1,0,0:0:0:0:
475,192,36700,1,0,0:0:0:0:
329,192,36902,1,0,0:0:0:0:
329,192,37004,1,0,0:0:0:0:
36,192,37105,1,0,0:0:0:0:
475,192,37105,1,0,0:0:0:0:
402,192,37105,1,0,0:0:0:0:
256,192,37206,1,0,0:0:0:0:
402,192,37308,1,0,0:0:0:0:
329,192,37308,1,0,0:0:0:0:
109,192,37308,1,0,0:0:0:0:
36,192,37510,1,0,0:0:0:0:
475,192,37510,1,0,0:0:0:0:
109,192,37612,1,0,0:0:0:0:
329,192,37612,1,0,0:0:0:0:
402,192,37713,1,0,0:0:0:0:
182,192,37713,1,0,0:0:0:0:
475,192,37713,1,0,0:0:0:0:
256,192,37815,1,0,0:0:0:0:
109,192,37815,1,0,0:0:0:0:
36,192,37916,1,0,0:0:0:0:
475,192,37916,1,0,0:0:0:0:
329,192,37916,1,0,0:0:0:0:
402,192,37916,1,0,0:0:0:0:
402,192,38017,1,0,0:0:0:0:
329,192,38017,1,0,0:0:0:0:
182,192,38119,1,0,0:0:0:0:
36,192,38119,1,0,0:0:0:0:
182,192,38220,1,0,0:0:0:0:
475,192,38321,1,0,0:0:0:0:
329,192,38321,1,0,0:0:0:0:
256,192,38321,1,0,0:0:0:0:
36,192,38423,1,0,0:0:0:0:
329,192,38423,1,0,0:0:0:0:
475,192,38423,1,0,0:0:0:0:
109,192,38524,1,0,0:0:0:0:
182,192,38524,1,0,0:0:0:0:
329,192,38625,1,0,0:0:0:0:
402,192,38625,1,0,0:0:0:0:
36,192,38727,1,0,0:0:0:0:
475,192,38727,1,0,0:0:0:0:
182,192,38727,1,0,0:0:0:0:
402,192,38929,1,0,0:0:0:0:
329,192,38929,1,0,0:0:0:0:
182,192,38929,1,0,0:0:0:0:
36,192,38929,1,0,0:0:0:0:
329,192,39031,1,0,0:0:0:0:
402,192,39031,1,0,0:0:0:0:
256,192,39132,1,0,0:0:0:0:
329,192,39335,1,0,0:0:0:0:
109,192,39335,1,0,0:0:0:0:
402,192,39335,1,0,0:0:0:0:
475,192,39335,1,0,0:0:0:0:
109,192,39436,1,0,0:0:0:0:
329,192,39538,1,0,0:0:0:0:
402,192,39538,1,0,0:0:0:0:
329,192,39639,1,0,0:0:0:0:
402,192,39639,1,0,0:0:0:0:
36,192,39740,1,0,0:0:0:0:
182,192,39740,1,0,0:0:0:0:
256,192,39842,1,0,0:0:0:0:
402,192,39842,1,0,0:0:0:0:
256,192,39943,1,0,0:0:0:0:
475,192,39943,1,0,0:0:0:0:
402,192,39943,1,0,0:0:0:0:
182,192,39943,1,0,0:0:0:0:
36,192,39943,1,0,0:0:0:0:
182,192,40146,1,0,0:0:0:0:
109,192,40146,1,0,0:0:0:0:
36,192,40247,1,0,0:0:0:0:
402,192,40247,1,0,0:0:0:0:
475,192,40247,1,0,0:0:0:0:
329,192,40247,1,0,0:0:0:0:
329,192,40450,1,0,0:0:0:0:
475,192,40450,1,0,0:0:0:0:
109,192,40551,1,0,0:0:0:0:
36,192,40551,1,0,0:0:0:0:
402,192,40551,1,0,0:0:0:0:
256,192,40551,1,0,0:0:0:0:
182,192,40754,1,0,0:0:0:0:
329,192,40855,1,0,0:0:0:0:
402,192,40855,1,0,0:0:0:0:
182,192,40956,1,0,0:0:0:0:
109,192,40956,1,0,0:0:0:0:
329,192,41058,1,0,0:0:0:0:
109,192,41159,1,0,0:0:0:0:
36,192,41159,1,0,0:0:0:0:
256,192,41159,1,0,0:0:0:0:
475,192,41159,1,0,0:0:0:0:
329,192,41260,1,0,0:0:0:0:
109,192,41260,1,0,0:0:0:0:
36,192,41260,1,0,0:0:0:0:
402,192,41362,1,0,0:0:0:0:
182,192,41362,1,0,0:0:0:0:
36,192,41463,1,0,0:0:0:0:
402,192,41565,1,0,0:0:0:0:
475,192,41565,1,0,0:0:0:0:
109,192,41565,1,0,0:0:0:0:
256,192,41565,1,0,0:0:0:0:
182,192,41666,1,0,0:0:0:0:
182,192,41767,1,0,0:0:0:0:
402,192,41869,1,0,0:0:0:0:
256,192,41869,1,0,0:0:0:0:
475,192,41970,1,0,0:0:0:0:
329,192,41970,1,0,0:0:0:0:
109,192,41970,1,0,0:0:0:0:
36,192,41970,1,0,0:0:0:0:
182,192,42173,1,0,0:0:0:0:
36,192,42173,1,0,0:0:0:0:
402,192,42173,1,0,0:0:0:0:
475,192,42173,1,0,0:0:0:0:
329,192,42223,1,0,0:0:0:0:
109,192,42477,1,0,0:0:0:0:
182,192,42578,1,0,0:0:0:0:
402,192,42578,1,0,0:0:0:0:
329,192,42578,1,0,0:0:0:0:
256,192,42679,1,0,0:0:0:0:
109,192,42781,1,0,0:0:0:0:
475,192,42781,1,0,0:0:0:0:
329,192,42781,1,0,0:0:0:0:
36,192,42781,1,0,0:0:0:0:
329,192,42882,1,0,0:0:0:0:
475,192,42882,1,0,0:0:0:0:
109,192,42983,1,0,0:0:0:0:
182,192,42983,1,0,0:0:0:0:
182,192,43085,1,0,0:0:0:0:
256,192,43085,1,0,0:0:0:0:
256,192,43186,1,0,0:0:0:0:
402,192,43186,1,0,0:0:0:0:
475,192,43186,1,0,0:0:0:0:
36,192,43186,1,0,0:0:0:0:
329,192,43389,1,0,0:0:0:0:
402,192,43389,1,0,0:0:0:0:
475,192,43490,1,0,0:0:0:0:
109,192,43490,1,0,0:0:0:0:
36,192,43490,1,0,0:0:0:0:
182,192,43490,1,0,0:0:0:0:
182,192,43693,1,0,0:0:0:0:
329,192,43693,1,0,0:0:0:0:
109,192,43794,1,0,0:0:0:0:
36,192,43794,1,0,0:0:0:0:
402,192,43794,1,0,0:0:0:0:
475,192,43794,1,0,0:0:0:0:
329,192,44098,1,0,0:0:0:0:
402,192,44200,1,0,0:0:0:0:
182,192,44200,1,0,0:0:0:0:
256,192,44301,1,0,0:0:0:0:
36,192,44301,1,0,0:0:0:0:
182,192,44402,1,0,0:0:0:0:
109,192,44402,1,0,0:0:0:0:
329,192,44402,1,0,0:0:0:0:
182,192,44504,1,0,0:0:0:0:
109,192,44504,1,0,0:0:0:0:
475,192,44605,1,0,0:0:0:0:
329,192,44605,1,0,0:0:0:0:
256,192,44706,1,0,0:0:0:0:
402,192,44706,1,0,0:0:0:0:
182,192,44808,1,0,0:0:0:0:
36,192,44808,1,0,0:0:0:0:
329,192,44808,1,0,0:0:0:0:
329,192,44909,1,0,0:0:0:0:
109,192,45112,1,0,0:0:0:0:
256,192,45112,1,0,0:0:0:0:
402,192,45112,1,0,0:0:0:0:
109,192,45213,1,0,0:0:0:0:
402,192,45213,1,0,0:0:0:0:
475,192,45213,1,0,0:0:0:0:
256,192,45213,1,0,0:0:0:0:
182,192,45416,1,0,0:0:0:0:
36,192,45416,1,0,0:0:0:0:
402,192,45416,1,0,0:0:0:0:
475,192,45416,1,0,0:0:0:0:
256,192,45619,1,0,0:0:0:0:
36,192,45619,1,0,0:0:0:0:
182,192,45821,1,0,0:0:0:0:
402,192,45821,1,0,0:0:0:0:
329,192,45821,1,0,0:0:0:0:
182,192,46024,1,0,0:0:0:0:
475,192,46024,1,0,0:0:0:0:
402,192,46024,1,0,0:0:0:0:
36,192,46024,1,0,0:0:0:0:
256,192,46024,1,0,0:0:0:0:
402,192,46125,1,0,0:0:0:0:
475,192,46125,1,0,0:0:0:0:
36,192,46125,1,0,0:0:0:0:
182,192,46328,1,0,0:0:0:0:
475,192,46429,1,0,0:0:0:0:
256,192,46429,1,0,0:0:0:0:
109,192,46429,1,0,0:0:0:0:
36,192,46429,1,0,0:0:0:0:
329,192,46565,1,0,0:0:0:0:
402,192,46632,1,0,0:0:0:0:
329,192,46767,1,0,0:0:0:0:
402,192,46835,1,0,0:0:0:0:
329,192,46970,1,0,0:0:0:0:
256,192,47038,1,0,0:0:0:0:
182,192,47173,1,0,0:0:0:0:
256,192,47375,1,0,0:0:0:0:
329,192,47578,1,0,0:0:0:0:
402,192,47781,1,0,0:0:0:0:
475,192,47848,1,0,0:0:0:0:
329,192,48017,1,0,0:0:0:0:
256,192,48051,1,0,0:0:0:0:
182,192,48085,1,0,0:0:0:0:
109,192,48186,1,0,0:0:0:0:
182,192,48254,1,0,0:0:0:0:
109,192,48389,1,0,0:0:0:0:
182,192,48456,1,0,0:0:0:0:
329,192,48592,1,0,0:0:0:0:
182,192,48659,1,0,0:0:0:0:
256,192,48794,1,0,0:0:0:0:
329,192,48997,1,0,0:0:0:0:
402,192,49200,1,0,0:0:0:0:
475,192,49402,1,0,0:0:0:0:
182,192,49673,1,0,0:0:0:0:
36,192,49673,1,0,0:0:0:0:
256,192,49706,1,0,0:0:0:0:
329,192,49808,1,0,0:0:0:0:
402,192,49875,1,0,0:0:0:0:
329,192,50010,1,0,0:0:0:0:
402,192,50078,1,0,0:0:0:0:
329,192,50213,1,0,0:0:0:0:
256,192,50281,1,0,0:0:0:0:
475,192,50416,1,0,0:0:0:0:
402,192,50619,1,0,0:0:0:0:
329,192,50821,1,0,0:0:0:0:
402,192,50923,1,0,0:0:0:0:
475,192,50956,1,0,0:0:0:0:
329,192,51024,1,0,0:0:0:0:
256,192,51092,1,0,0:0:0:0:
329,192,51227,1,0,0:0:0:0:
475,192,51294,1,0,0:0:0:0:
182,192,51294,1,0,0:0:0:0:
36,192,51328,1,0,0:0:0:0:
109,192,51429,1,0,0:0:0:0:
182,192,51497,1,0,0:0:0:0:
109,192,51632,1,0,0:0:0:0:
182,192,51700,1,0,0:0:0:0:
109,192,51835,1,0,0:0:0:0:
36,192,51902,1,0,0:0:0:0:
109,192,52038,1,0,0:0:0:0:
402,192,52105,1,0,0:0:0:0:
475,192,52105,1,0,0:0:0:0:
182,192,52240,1,0,0:0:0:0:
256,192,52443,1,0,0:0:0:0:
109,192,52510,1,0,0:0:0:0:
36,192,52510,1,0,0:0:0:0:
329,192,52646,1,0,0:0:0:0:
36,192,52916,1,0,0:0:0:0:
109,192,52916,1,0,0:0:0:0:
402,192,52916,1,0,0:0:0:0:
475,192,52916,1,0,0:0:0:0:
256,192,52916,1,0,0:0:0:0:
402,192,53119,1,0,0:0:0:0:
329,192,53220,1,0,0:0:0:0:
109,192,53220,1,0,0:0:0:0:
182,192,53321,1,0,0:0:0:0:
402,192,53321,1,0,0:0:0:0:
329,192,53423,1,0,0:0:0:0:
182,192,53423,1,0,0:0:0:0:
36,192,53524,1,0,0:0:0:0:
329,192,53524,1,0,0:0:0:0:
109,192,53524,1,0,0:0:0:0:
256,192,53625,1,0,0:0:0:0:
475,192,53625,1,0,0:0:0:0:
402,192,53625,1,0,0:0:0:0:
182,192,53727,1,0,0:0:0:0:
329,192,53828,1,0,0:0:0:0:
182,192,53828,1,0,0:0:0:0:
109,192,53929,1,0,0:0:0:0:
329,192,53929,1,0,0:0:0:0:
36,192,54031,1,0,0:0:0:0:
256,192,54031,1,0,0:0:0:0:
256,192,54132,1,0,0:0:0:0:
402,192,54132,1,0,0:0:0:0:
109,192,54233,1,0,0:0:0:0:
182,192,54233,1,0,0:0:0:0:
329,192,54335,1,0,0:0:0:0:
182,192,54436,1,0,0:0:0:0:
402,192,54436,1,0,0:0:0:0:
36,192,54538,1,0,0:0:0:0:
256,192,54538,1,0,0:0:0:0:
109,192,54538,1,0,0:0:0:0:
329,192,54538,1,0,0:0:0:0:
402,192,54639,1,0,0:0:0:0:
182,192,54740,1,0,0:0:0:0:
329,192,54740,1,0,0:0:0:0:
109,192,54740,1,0,0:0:0:0:
182,192,54842,1,0,0:0:0:0:
109,192,54842,1,0,0:0:0:0:
256,192,54943,1,0,0:0:0:0:
36,192,54943,1,0,0:0:0:0:
329,192,54943,1,0,0:0:0:0:
182,192,55044,1,0,0:0:0:0:
329,192,55146,1,0,0:0:0:0:
109,192,55146,1,0,0:0:0:0:
402,192,55247,1,0,0:0:0:0:
109,192,55247,1,0,0:0:0:0:
256,192,55247,1,0,0:0:0:0:
329,192,55450,1,0,0:0:0:0:
182,192,55551,1,0,0:0:0:0:
36,192,55551,1,0,0:0:0:0:
329,192,55551,1,0,0:0:0:0:
182,192,55652,1,0,0:0:0:0:
402,192,55754,1,0,0:0:0:0:
329,192,55754,1,0,0:0:0:0:
109,192,55754,1,0,0:0:0:0:
329,192,55855,1,0,0:0:0:0:
402,192,55855,1,0,0:0:0:0:
256,192,55956,1,0,0:0:0:0:
182,192,56058,1,0,0:0:0:0:
329,192,56092,1,0,0:0:0:0:
402,192,56125,1,0,0:0:0:0:
475,192,56159,1,0,0:0:0:0:
109,192,56159,1,0,0:0:0:0:
36,192,56159,1,0,0:0:0:0:
182,192,56260,1,0,0:0:0:0:
256,192,56260,1,0,0:0:0:0:
402,192,56362,1,0,0:0:0:0:
475,192,56362,1,0,0:0:0:0:
109,192,56362,1,0,0:0:0:0:
182,192,56463,1,0,0:0:0:0:
329,192,56463,1,0,0:0:0:0:
256,192,56565,1,0,0:0:0:0:
402,192,56565,1,0,0:0:0:0:
36,192,56666,1,0,0:0:0:0:
402,192,56666,1,0,0:0:0:0:
182,192,56666,1,0,0:0:0:0:
182,192,56767,1,0,0:0:0:0:
256,192,56869,1,0,0:0:0:0:
329,192,56869,1,0,0:0:0:0:
475,192,56869,1,0,0:0:0:0:
109,192,56869,1,0,0:0:0:0:
256,192,57071,1,0,0:0:0:0:
402,192,57071,1,0,0:0:0:0:
109,192,57173,1,0,0:0:0:0:
402,192,57173,1,0,0:0:0:0:
182,192,57173,1,0,0:0:0:0:
256,192,57274,1,0,0:0:0:0:
329,192,57274,1,0,0:0:0:0:
475,192,57375,1,0,0:0:0:0:
182,192,57375,1,0,0:0:0:0:
109,192,57375,1,0,0:0:0:0:
109,192,57477,1,0,0:0:0:0:
182,192,57477,1,0,0:0:0:0:
256,192,57578,1,0,0:0:0:0:
475,192,57578,1,0,0:0:0:0:
256,192,57679,1,0,0:0:0:0:
402,192,57781,1,0,0:0:0:0:
36,192,57781,1,0,0:0:0:0:
475,192,57781,1,0,0:0:0:0:
182,192,57781,1,0,0:0:0:0:
329,192,57916,1,0,0:0:0:0:
182,192,57983,1,0,0:0:0:0:
109,192,57983,1,0,0:0:0:0:
475,192,57983,1,0,0:0:0:0:
402,192,58119,1,0,0:0:0:0:
475,192,58186,1,0,0:0:0:0:
182,192,58186,1,0,0:0:0:0:
36,192,58186,1,0,0:0:0:0:
256,192,58321,1,0,0:0:0:0:
109,192,58389,1,0,0:0:0:0:
402,192,58389,1,0,0:0:0:0:
475,192,58389,1,0,0:0:0:0:
329,192,58524,1,0,0:0:0:0:
256,192,58524,1,0,0:0:0:0:
109,192,58592,1,0,0:0:0:0:
402,192,58592,1,0,0:0:0:0:
475,192,58693,1,0,0:0:0:0:
182,192,58693,1,0,0:0:0:0:
402,192,58744,1,0,0:0:0:0:
329,192,58794,1,0,0:0:0:0:
256,192,58794,1,0,0:0:0:0:
182,192,58896,1,0,0:0:0:0:
109,192,58896,1,0,0:0:0:0:
475,192,58997,1,0,0:0:0:0:
36,192,58997,1,0,0:0:0:0:
256,192,58997,1,0,0:0:0:0:
256,192,59098,1,0,0:0:0:0:
475,192,59098,1,0,0:0:0:0:
36,192,59098,1,0,0:0:0:0:
109,192,59301,1,0,0:0:0:0:
36,192,59301,1,0,0:0:0:0:
475,192,59301,1,0,0:0:0:0:
402,192,59301,1,0,0:0:0:0:
109,192,59402,1,0,0:0:0:0:
475,192,59402,1,0,0:0:0:0:
402,192,59402,1,0,0:0:0:0:
36,192,59402,1,0,0:0:0:0:
329,192,59504,1,0,0:0:0:0:
256,192,59554,1,0,0:0:0:0:
182,192,59605,1,0,0:0:0:0:
256,192,59706,1,0,0:0:0:0:
329,192,59909,1,0,0:0:0:0:
256,192,59960,1,0,0:0:0:0:
182,192,60010,1,0,0:0:0:0:
109,192,60010,1,0,0:0:0:0:
256,192,60112,1,0,0:0:0:0:
402,192,60213,1,0,0:0:0:0:
36,192,60213,1,0,0:0:0:0:
475,192,60213,1,0,0:0:0:0:
36,192,61024,1,0,0:0:0:0:
182,192,61024,1,0,0:0:0:0:
256,192,61024,1,0,0:0:0:0:
402,192,61024,1,0,0:0:0:0:
109,192,61227,1,0,0:0:0:0:
36,192,61227,1,0,0:0:0:0:
256,192,61328,1,0,0:0:0:0:
402,192,61429,1,0,0:0:0:0:
475,192,61429,1,0,0:0:0:0:
182,192,61429,1,0,0:0:0:0:
402,192,61531,1,0,0:0:0:0:
109,192,61632,1,0,0:0:0:0:
36,192,61632,1,0,0:0:0:0:
109,192,61733,1,0,0:0:0:0:
329,192,61835,1,0,0:0:0:0:
182,192,61936,1,0,0:0:0:0:
36,192,62038,1,0,0:0:0:0:
182,192,62038,1,0,0:0:0:0:
329,192,62139,1,0,0:0:0:0:
475,192,62240,1,0,0:0:0:0:
329,192,62240,1,0,0:0:0:0:
109,192,62240,1,0,0:0:0:0:
182,192,62240,1,0,0:0:0:0:
256,192,62342,1,0,0:0:0:0:
36,192,62443,1,0,0:0:0:0:
109,192,62443,1,0,0:0:0:0:
182,192,62443,1,0,0:0:0:0:
329,192,62443,1,0,0:0:0:0:
256,192,62544,1,0,0:0:0:0:
475,192,62646,1,0,0:0:0:0:
402,192,62646,1,0,0:0:0:0:
182,192,62646,1,0,0:0:0:0:
329,192,62646,1,0,0:0:0:0:
182,192,62747,1,0,0:0:0:0:
329,192,62848,1,0,0:0:0:0:
402,192,62848,1,0,0:0:0:0:
182,192,62950,1,0,0:0:0:0:
402,192,62950,1,0,0:0:0:0:
256,192,63051,1,0,0:0:0:0:
109,192,63051,1,0,0:0:0:0:
109,192,63152,1,0,0:0:0:0:
329,192,63254,1,0,0:0:0:0:
256,192,63254,1,0,0:0:0:0:
329,192,63355,1,0,0:0:0:0:
182,192,63558,1,0,0:0:0:0:
36,192,63558,1,0,0:0:0:0:
329,192,63659,1,0,0:0:0:0:
36,192,63659,1,0,0:0:0:0:
256,192,63760,1,0,0:0:0:0:
402,192,63862,1,0,0:0:0:0:
475,192,63862,1,0,0:0:0:0:
109,192,63862,1,0,0:0:0:0:
182,192,63862,1,0,0:0:0:0:
402,192,63963,1,0,0:0:0:0:
475,192,63963,1,0,0:0:0:0:
256,192,64065,1,0,0:0:0:0:
329,192,64065,1,0,0:0:0:0:
109,192,64065,1,0,0:0:0:0:
36,192,64065,1,0,0:0:0:0:
329,192,64166,1,0,0:0:0:0:
256,192,64166,1,0,0:0:0:0:
182,192,64267,1,0,0:0:0:0:
402,192,64267,1,0,0:0:0:0:
475,192,64267,1,0,0:0:0:0:
182,192,64369,1,0,0:0:0:0:
109,192,64470,1,0,0:0:0:0:
36,192,64470,1,0,0:0:0:0:
402,192,64571,1,0,0:0:0:0:
256,192,64673,1,0,0:0:0:0:
182,192,64673,1,0,0:0:0:0:
475,192,64673,1,0,0:0:0:0:
109,192,64875,1,0,0:0:0:0:
36,192,64875,1,0,0:0:0:0:
329,192,64875,1,0,0:0:0:0:
256,192,64977,1,0,0:0:0:0:
402,192,65078,1,0,0:0:0:0:
475,192,65078,1,0,0:0:0:0:
182,192,65179,1,0,0:0:0:0:
109,192,65281,1,0,0:0:0:0:
36,192,65281,1,0,0:0:0:0:
329,192,65281,1,0,0:0:0:0:
402,192,65382,1,0,0:0:0:0:
182,192,65483,1,0,0:0:0:0:
256,192,65483,1,0,0:0:0:0:
475,192,65483,1,0,0:0:0:0:
182,192,65585,1,0,0:0:0:0:
329,192,65686,1,0,0:0:0:0:
402,192,65686,1,0,0:0:0:0:
329,192,65788,1,0,0:0:0:0:
36,192,65889,1,0,0:0:0:0:
109,192,65889,1,0,0:0:0:0:
256,192,65889,1,0,0:0:0:0:
402,192,66092,1,0,0:0:0:0:
475,192,66092,1,0,0:0:0:0:
182,192,66092,1,0,0:0:0:0:
329,192,66294,1,0,0:0:0:0:
256,192,66294,1,0,0:0:0:0:
402,192,66497,1,0,0:0:0:0:
475,192,66497,1,0,0:0:0:0:
182,192,66497,1,0,0:0:0:0:
182,192,66598,1,0,0:0:0:0:
109,192,66700,1,0,0:0:0:0:
36,192,66700,1,0,0:0:0:0:
109,192,66801,1,0,0:0:0:0:
402,192,66902,1,0,0:0:0:0:
475,192,66902,1,0,0:0:0:0:
256,192,66902,1,0,0:0:0:0:
402,192,67004,1,0,0:0:0:0:
36,192,67105,1,0,0:0:0:0:
329,192,67105,1,0,0:0:0:0:
109,192,67105,1,0,0:0:0:0:
36,192,67206,1,0,0:0:0:0:
109,192,67206,1,0,0:0:0:0:
256,192,67206,1,0,0:0:0:0:
182,192,67308,1,0,0:0:0:0:
402,192,67308,1,0,0:0:0:0:
475,192,67308,1,0,0:0:0:0:
475,192,67409,1,0,0:0:0:0:
256,192,67409,1,0,0:0:0:0:
402,192,67409,1,0,0:0:0:0:
36,192,67510,1,0,0:0:0:0:
329,192,67510,1,0,0:0:0:0:
109,192,67510,1,0,0:0:0:0:
182,192,67510,1,0,0:0:0:0:
329,192,67815,1,0,0:0:0:0:
109,192,67916,1,0,0:0:0:0:
329,192,67916,1,0,0:0:0:0:
182,192,67916,1,0,0:0:0:0:
402,192,67916,1,0,0:0:0:0:
475,192,67916,1,0,0:0:0:0:
256,192,68017,1,0,0:0:0:0:
329,192,68119,1,0,0:0:0:0:
36,192,68119,1,0,0:0:0:0:
182,192,68220,1,0,0:0:0:0:
402,192,68321,1,0,0:0:0:0:
329,192,68321,1,0,0:0:0:0:
182,192,68321,1,0,0:0:0:0:
109,192,68321,1,0,0:0:0:0:
36,192,68321,1,0,0:0:0:0:
329,192,68423,1,0,0:0:0:0:
402,192,68524,1,0,0:0:0:0:
182,192,68524,1,0,0:0:0:0:
109,192,68625,1,0,0:0:0:0:
402,192,68727,1,0,0:0:0:0:
475,192,68727,1,0,0:0:0:0:
36,192,68727,1,0,0:0:0:0:
256,192,68727,1,0,0:0:0:0:
109,192,68727,1,0,0:0:0:0:
402,192,68828,1,0,0:0:0:0:
182,192,68929,1,0,0:0:0:0:
109,192,68929,1,0,0:0:0:0:
182,192,69031,1,0,0:0:0:0:
109,192,69031,1,0,0:0:0:0:
475,192,69132,1,0,0:0:0:0:
402,192,69132,1,0,0:0:0:0:
36,192,69132,1,0,0:0:0:0:
256,192,69132,1,0,0:0:0:0:
329,192,69132,1,0,0:0:0:0:
256,192,69233,1,0,0:0:0:0:
109,192,69335,1,0,0:0:0:0:
329,192,69335,1,0,0:0:0:0:
402,192,69436,1,0,0:0:0:0:
329,192,69538,1,0,0:0:0:0:
402,192,69538,1,0,0:0:0:0:
36,192,69538,1,0,0:0:0:0:
182,192,69538,1,0,0:0:0:0:
475,192,69538,1,0,0:0:0:0:
182,192,69639,1,0,0:0:0:0:
109,192,69740,1,0,0:0:0:0:
329,192,69740,1,0,0:0:0:0:
182,192,69842,1,0,0:0:0:0:
329,192,69943,1,0,0:0:0:0:
36,192,69943,1,0,0:0:0:0:
475,192,69943,1,0,0:0:0:0:
402,192,69943,1,0,0:0:0:0:
182,192,69943,1,0,0:0:0:0:
329,192,70044,1,0,0:0:0:0:
402,192,70044,1,0,0:0:0:0:
182,192,70146,1,0,0:0:0:0:
182,192,70247,1,0,0:0:0:0:
402,192,70348,1,0,0:0:0:0:
475,192,70348,1,0,0:0:0:0:
36,192,70348,1,0,0:0:0:0:
109,192,70348,1,0,0:0:0:0:
329,192,70348,1,0,0:0:0:0:
402,192,70450,1,0,0:0:0:0:
475,192,70450,1,0,0:0:0:0:
329,192,70551,1,0,0:0:0:0:
36,192,70551,1,0,0:0:0:0:
182,192,70551,1,0,0:0:0:0:
329,192,70652,1,0,0:0:0:0:
182,192,70652,1,0,0:0:0:0:
402,192,70754,1,0,0:0:0:0:
475,192,70754,1,0,0:0:0:0:
256,192,70754,1,0,0:0:0:0:
329,192,70855,1,0,0:0:0:0:
109,192,70956,1,0,0:0:0:0:
36,192,70956,1,0,0:0:0:0:
256,192,70956,1,0,0:0:0:0:
402,192,71058,1,0,0:0:0:0:
182,192,71058,1,0,0:0:0:0:
182,192,71159,1,0,0:0:0:0:
475,192,71159,1,0,0:0:0:0:
329,192,71159,1,0,0:0:0:0:
109,192,71362,1,0,0:0:0:0:
36,192,71362,1,0,0:0:0:0:
329,192,71362,1,0,0:0:0:0:
402,192,71463,1,0,0:0:0:0:
182,192,71463,1,0,0:0:0:0:
329,192,71565,1,0,0:0:0:0:
475,192,71565,1,0,0:0:0:0:
36,192,71565,1,0,0:0:0:0:
182,192,71666,1,0,0:0:0:0:
329,192,71666,1,0,0:0:0:0:
109,192,71767,1,0,0:0:0:0:
256,192,71767,1,0,0:0:0:0:
402,192,71869,1,0,0:0:0:0:
329,192,71869,1,0,0:0:0:0:
109,192,71970,1,0,0:0:0:0:
182,192,71970,1,0,0:0:0:0:
475,192,71970,1,0,0:0:0:0:
109,192,72071,1,0,0:0:0:0:
182,192,72071,1,0,0:0:0:0:
329,192,72173,1,0,0:0:0:0:
402,192,72173,1,0,0:0:0:0:
475,192,72173,1,0,0:0:0:0:
329,192,72274,1,0,0:0:0:0:
402,192,72274,1,0,0:0:0:0:
36,192,72375,1,0,0:0:0:0:
109,192,72375,1,0,0:0:0:0:
256,192,72375,1,0,0:0:0:0:
329,192,72578,1,0,0:0:0:0:
402,192,72578,1,0,0:0:0:0:
36,192,72578,1,0,0:0:0:0:
329,192,72679,1,0,0:0:0:0:
402,192,72679,1,0,0:0:0:0:
182,192,72781,1,0,0:0:0:0:
256,192,72781,1,0,0:0:0:0:
109,192,72781,1,0,0:0:0:0:
109,192,72983,1,0,0:0:0:0:
475,192,72983,1,0,0:0:0:0:
182,192,72983,1,0,0:0:0:0:
109,192,73085,1,0,0:0:0:0:
182,192,73085,1,0,0:0:0:0:
402,192,73186,1,0,0:0:0:0:
329,192,73186,1,0,0:0:0:0:
256,192,73186,1,0,0:0:0:0:
109,192,73288,1,0,0:0:0:0:
182,192,73288,1,0,0:0:0:0:
36,192,73288,1,0,0:0:0:0:
475,192,73288,1,0,0:0:0:0:
402,192,73389,1,0,0:0:0:0:
329,192,73389,1,0,0:0:0:0:
329,192,73490,1,0,0:0:0:0:
402,192,73490,1,0,0:0:0:0:
36,192,73592,1,0,0:0:0:0:
182,192,73592,1,0,0:0:0:0:
109,192,73592,1,0,0:0:0:0:
475,192,73625,1,0,0:0:0:0:
402,192,73659,1,0,0:0:0:0:
329,192,73693,1,0,0:0:0:0:
256,192,73727,1,0,0:0:0:0:
182,192,73760,1,0,0:0:0:0:
109,192,73794,1,0,0:0:0:0:
402,192,73828,1,0,0:0:0:0:
329,192,73862,1,0,0:0:0:0:
256,192,73896,1,0,0:0:0:0:
182,192,73929,1,0,0:0:0:0:
109,192,73963,1,0,0:0:0:0:
475,192,73997,1,0,0:0:0:0:
329,192,73997,1,0,0:0:0:0:
402,192,73997,1,0,0:0:0:0:
36,192,73997,1,0,0:0:0:0:
329,192,74200,1,0,0:0:0:0:
256,192,74301,1,0,0:0:0:0:
109,192,74301,1,0,0:0:0:0:
329,192,74402,1,0,0:0:0:0:
182,192,74402,1,0,0:0:0:0:
109,192,74504,1,0,0:0:0:0:
402,192,74504,1,0,0:0:0:0:
182,192,74605,1,0,0:0:0:0:
256,192,74605,1,0,0:0:0:0:
329,192,74706,1,0,0:0:0:0:
109,192,74706,1,0,0:0:0:0:
36,192,74808,1,0,0:0:0:0:
402,192,74808,1,0,0:0:0:0:
475,192,74808,1,0,0:0:0:0:
182,192,74808,1,0,0:0:0:0:
402,192,74909,1,0,0:0:0:0:
475,192,74909,1,0,0:0:0:0:
329,192,75112,1,0,0:0:0:0:
256,192,75112,1,0,0:0:0:0:
109,192,75112,1,0,0:0:0:0:
36,192,75112,1,0,0:0:0:0:
256,192,75315,1,0,0:0:0:0:
329,192,75315,1,0,0:0:0:0:
109,192,75416,1,0,0:0:0:0:
36,192,75416,1,0,0:0:0:0:
475,192,75416,1,0,0:0:0:0:
402,192,75416,1,0,0:0:0:0:
256,192,75517,1,0,0:0:0:0:
182,192,75517,1,0,0:0:0:0:
109,192,75619,1,0,0:0:0:0:
36,192,75619,1,0,0:0:0:0:
402,192,75619,1,0,0:0:0:0:
475,192,75619,1,0,0:0:0:0:
329,192,75821,1,0,0:0:0:0:
256,192,75821,1,0,0:0:0:0:
109,192,75923,1,0,0:0:0:0:
256,192,75923,1,0,0:0:0:0:
329,192,75923,1,0,0:0:0:0:
402,192,76125,1,0,0:0:0:0:
475,192,76125,1,0,0:0:0:0:
402,192,76227,1,0,0:0:0:0:
475,192,76227,1,0,0:0:0:0:
329,192,76328,1,0,0:0:0:0:
182,192,76328,1,0,0:0:0:0:
36,192,76429,1,0,0:0:0:0:
256,192,76429,1,0,0:0:0:0:
109,192,76531,1,0,0:0:0:0:
182,192,76531,1,0,0:0:0:0:
182,192,76632,1,0,0:0:0:0:
109,192,76632,1,0,0:0:0:0:
329,192,76733,1,0,0:0:0:0:
182,192,76835,1,0,0:0:0:0:
36,192,76835,1,0,0:0:0:0:
475,192,76835,1,0,0:0:0:0:
402,192,76835,1,0,0:0:0:0:
402,192,76936,1,0,0:0:0:0:
475,192,76936,1,0,0:0:0:0:
256,192,77038,1,0,0:0:0:0:
109,192,77038,1,0,0:0:0:0:
402,192,77139,1,0,0:0:0:0:
182,192,77139,1,0,0:0:0:0:
475,192,77139,1,0,0:0:0:0:
36,192,77240,1,0,0:0:0:0:
109,192,77240,1,0,0:0:0:0:
402,192,77240,1,0,0:0:0:0:
475,192,77240,1,0,0:0:0:0:
256,192,77240,1,0,0:0:0:0:
182,192,77443,1,0,0:0:0:0:
329,192,77443,1,0,0:0:0:0:
182,192,77544,1,0,0:0:0:0:
256,192,77544,1,0,0:0:0:0:
329,192,77646,1,0,0:0:0:0:
36,192,77646,1,0,0:0:0:0:
109,192,77747,1,0,0:0:0:0:
402,192,77747,1,0,0:0:0:0:
475,192,77848,1,0,0:0:0:0:
182,192,77848,1,0,0:0:0:0:
109,192,77950,1,0,0:0:0:0:
329,192,77950,1,0,0:0:0:0:
36,192,78051,1,0,0:0:0:0:
256,192,78051,1,0,0:0:0:0:
402,192,78051,1,0,0:0:0:0:
475,192,78051,1,0,0:0:0:0:
402,192,78152,1,0,0:0:0:0:
475,192,78152,1,0,0:0:0:0:
329,192,78355,1,0,0:0:0:0:
256,192,78355,1,0,0:0:0:0:
109,192,78355,1,0,0:0:0:0:
36,192,78355,1,0,0:0:0:0:
256,192,78558,1,0,0:0:0:0:
329,192,78558,1,0,0:0:0:0:
109,192,78659,1,0,0:0:0:0:
36,192,78659,1,0,0:0:0:0:
402,192,78659,1,0,0:0:0:0:
475,192,78659,1,0,0:0:0:0:
256,192,78760,1,0,0:0:0:0:
182,192,78760,1,0,0:0:0:0:
109,192,78862,1,0,0:0:0:0:
36,192,78862,1,0,0:0:0:0:
402,192,78862,1,0,0:0:0:0:
475,192,78862,1,0,0:0:0:0:
329,192,79065,1,0,0:0:0:0:
256,192,79065,1,0,0:0:0:0:
109,192,79166,1,0,0:0:0:0:
329,192,79166,1,0,0:0:0:0:
256,192,79166,1,0,0:0:0:0:
402,192,79369,1,0,0:0:0:0:
475,192,79369,1,0,0:0:0:0:
109,192,79470,1,0,0:0:0:0:
36,192,79470,1,0,0:0:0:0:
402,192,79470,1,0,0:0:0:0:
475,192,79470,1,0,0:0:0:0:
329,192,79571,1,0,0:0:0:0:
182,192,79571,1,0,0:0:0:0:
36,192,79673,1,0,0:0:0:0:
256,192,79673,1,0,0:0:0:0:
109,192,79774,1,0,0:0:0:0:
475,192,79774,1,0,0:0:0:0:
182,192,79774,1,0,0:0:0:0:
109,192,79875,1,0,0:0:0:0:
182,192,79875,1,0,0:0:0:0:
256,192,79977,1,0,0:0:0:0:
329,192,79977,1,0,0:0:0:0:
475,192,80078,1,0,0:0:0:0:
402,192,80078,1,0,0:0:0:0:
182,192,80078,1,0,0:0:0:0:
402,192,80179,1,0,0:0:0:0:
475,192,80179,1,0,0:0:0:0:
36,192,80281,1,0,0:0:0:0:
109,192,80281,1,0,0:0:0:0:
329,192,80281,1,0,0:0:0:0:
109,192,80382,1,0,0:0:0:0:
36,192,80382,1,0,0:0:0:0:
256,192,80382,1,0,0:0:0:0:
402,192,80483,1,0,0:0:0:0:
475,192,80483,1,0,0:0:0:0:
182,192,80483,1,0,0:0:0:0:
329,192,80483,1,0,0:0:0:0:
256,192,80686,1,0,0:0:0:0:
182,192,80788,1,0,0:0:0:0:
475,192,80889,1,0,0:0:0:0:
109,192,80889,1,0,0:0:0:0:
402,192,80990,1,0,0:0:0:0:
256,192,80990,1,0,0:0:0:0:
182,192,81092,1,0,0:0:0:0:
36,192,81092,1,0,0:0:0:0:
182,192,81193,1,0,0:0:0:0:
402,192,81193,1,0,0:0:0:0:
36,192,81193,1,0,0:0:0:0:
475,192,81294,1,0,0:0:0:0:
256,192,81294,1,0,0:0:0:0:
182,192,81497,1,0,0:0:0:0:
256,192,81497,1,0,0:0:0:0:
475,192,81598,1,0,0:0:0:0:
402,192,81598,1,0,0:0:0:0:
109,192,81598,1,0,0:0:0:0:
36,192,81598,1,0,0:0:0:0:
402,192,81801,1,0,0:0:0:0:
475,192,81801,1,0,0:0:0:0:
109,192,81902,1,0,0:0:0:0:
36,192,81902,1,0,0:0:0:0:
256,192,81902,1,0,0:0:0:0:
402,192,82004,1,0,0:0:0:0:
182,192,82004,1,0,0:0:0:0:
256,192,82105,1,0,0:0:0:0:
475,192,82105,1,0,0:0:0:0:
109,192,82105,1,0,0:0:0:0:
36,192,82105,1,0,0:0:0:0:
182,192,82308,1,0,0:0:0:0:
256,192,82308,1,0,0:0:0:0:
402,192,82308,1,0,0:0:0:0:
402,192,82409,1,0,0:0:0:0:
182,192,82409,1,0,0:0:0:0:
256,192,82409,1,0,0:0:0:0:
109,192,82612,1,0,0:0:0:0:
36,192,82612,1,0,0:0:0:0:
402,192,82713,1,0,0:0:0:0:
475,192,82713,1,0,0:0:0:0:
109,192,82713,1,0,0:0:0:0:
36,192,82713,1,0,0:0:0:0:
182,192,82815,1,0,0:0:0:0:
329,192,82815,1,0,0:0:0:0:
475,192,82916,1,0,0:0:0:0:
256,192,82916,1,0,0:0:0:0:
109,192,83017,1,0,0:0:0:0:
402,192,83017,1,0,0:0:0:0:
182,192,83017,1,0,0:0:0:0:
182,192,83119,1,0,0:0:0:0:
109,192,83119,1,0,0:0:0:0:
256,192,83220,1,0,0:0:0:0:
475,192,83220,1,0,0:0:0:0:
182,192,83321,1,0,0:0:0:0:
36,192,83321,1,0,0:0:0:0:
402,192,83321,1,0,0:0:0:0:
329,192,83321,1,0,0:0:0:0:
329,192,83423,1,0,0:0:0:0:
402,192,83423,1,0,0:0:0:0:
182,192,83524,1,0,0:0:0:0:
109,192,83524,1,0,0:0:0:0:
402,192,83625,1,0,0:0:0:0:
182,192,83625,1,0,0:0:0:0:
329,192,83625,1,0,0:0:0:0:
36,192,83727,1,0,0:0:0:0:
109,192,83727,1,0,0:0:0:0:
329,192,83727,1,0,0:0:0:0:
402,192,83727,1,0,0:0:0:0:
475,192,83727,1,0,0:0:0:0:
109,192,83929,1,0,0:0:0:0:
402,192,83929,1,0,0:0:0:0:
329,192,84031,1,0,0:0:0:0:
182,192,84031,1,0,0:0:0:0:
402,192,84132,1,0,0:0:0:0:
109,192,84132,1,0,0:0:0:0:
182,192,84233,1,0,0:0:0:0:
329,192,84233,1,0,0:0:0:0:
329,192,84335,1,0,0:0:0:0:
182,192,84335,1,0,0:0:0:0:
109,192,84436,1,0,0:0:0:0:
402,192,84436,1,0,0:0:0:0:
36,192,84538,1,0,0:0:0:0:
182,192,84538,1,0,0:0:0:0:
256,192,84538,1,0,0:0:0:0:
475,192,84538,1,0,0:0:0:0:
182,192,84740,1,0,0:0:0:0:
256,192,84740,1,0,0:0:0:0:
475,192,84842,1,0,0:0:0:0:
402,192,84842,1,0,0:0:0:0:
109,192,84842,1,0,0:0:0:0:
36,192,84842,1,0,0:0:0:0:
402,192,85044,1,0,0:0:0:0:
475,192,85044,1,0,0:0:0:0:
109,192,85146,1,0,0:0:0:0:
36,192,85146,1,0,0:0:0:0:
256,192,85146,1,0,0:0:0:0:
329,192,85146,1,0,0:0:0:0:
36,192,85247,1,0,0:0:0:0:
109,192,85247,1,0,0:0:0:0:
329,192,85348,1,0,0:0:0:0:
256,192,85348,1,0,0:0:0:0:
475,192,85348,1,0,0:0:0:0:
36,192,85551,1,0,0:0:0:0:
109,192,85551,1,0,0:0:0:0:
256,192,85551,1,0,0:0:0:0:
329,192,85551,1,0,0:0:0:0:
402,192,85551,1,0,0:0:0:0:
109,192,85754,1,0,0:0:0:0:
36,192,85754,1,0,0:0:0:0:
402,192,85855,1,0,0:0:0:0:
329,192,85855,1,0,0:0:0:0:
182,192,85855,1,0,0:0:0:0:
109,192,85855,1,0,0:0:0:0:
36,192,85855,1,0,0:0:0:0:
329,192,86058,1,0,0:0:0:0:
402,192,86058,1,0,0:0:0:0:
109,192,86159,1,0,0:0:0:0:
182,192,86159,1,0,0:0:0:0:
329,192,86159,1,0,0:0:0:0:
402,192,86159,1,0,0:0:0:0:
475,192,86159,1,0,0:0:0:0:
36,192,86362,1,0,0:0:0:0:
182,192,86362,1,0,0:0:0:0:
109,192,86362,1,0,0:0:0:0:
402,192,86463,1,0,0:0:0:0:
329,192,86463,1,0,0:0:0:0:
475,192,86463,1,0,0:0:0:0:
256,192,86565,1,0,0:0:0:0:
36,192,86565,1,0,0:0:0:0:
109,192,86565,1,0,0:0:0:0:
475,192,86666,1,0,0:0:0:0:
402,192,86666,1,0,0:0:0:0:
182,192,86666,1,0,0:0:0:0:
475,192,86767,1,0,0:0:0:0:
402,192,86767,1,0,0:0:0:0:
182,192,86767,1,0,0:0:0:0:
109,192,86869,1,0,0:0:0:0:
36,192,86869,1,0,0:0:0:0:
329,192,86869,1,0,0:0:0:0:
36,192,86970,1,0,0:0:0:0:
109,192,86970,1,0,0:0:0:0:
402,192,86970,1,0,0:0:0:0:
475,192,86970,1,0,0:0:0:0:
256,192,86970,1,0,0:0:0:0:
182,192,87386,1,0,0:0:0:0:
256,192,87490,1,0,0:0:0:0:
329,192,87595,1,0,0:0:0:0:
402,192,87699,1,0,0:0:0:0:
475,192,87803,1,0,0:0:0:0:
256,192,88011,1,0,0:0:0:0:
402,192,88115,1,0,0:0:0:0:
182,192,88324,1,0,0:0:0:0:
329,192,88532,1,0,0:0:0:0:
36,192,88740,1,0,0:0:0:0:
402,192,88949,1,0,0:0:0:0:
329,192,89053,1,0,0:0:0:0:
256,192,89157,1,0,0:0:0:0:
182,192,89261,1,0,0:0:0:0:
109,192,89365,1,0,0:0:0:0:
36,192,89470,1,0,0:0:0:0:
475,192,89470,1,0,0:0:0:0:
256,192,89782,1,0,0:0:0:0:
109,192,89990,1,0,0:0:0:0:
256,192,90303,1,0,0:0:0:0:
329,192,90338,1,0,0:0:0:0:
182,192,90720,1,0,0:0:0:0:
329,192,90824,1,0,0:0:0:0:
256,192,90858,1,0,0:0:0:0:
36,192,90928,1,0,0:0:0:0:
402,192,90997,1,0,0:0:0:0:
329,192,91136,1,0,0:0:0:0:
109,192,91345,1,0,0:0:0:0:
475,192,91449,1,0,0:0:0:0:
402,192,91657,1,0,0:0:0:0:
256,192,91865,1,0,0:0:0:0:
36,192,91970,1,0,0:0:0:0:
182,192,92074,1,0,0:0:0:0:
402,192,92282,1,0,0:0:0:0:
329,192,92386,1,0,0:0:0:0:
475,192,92386,1,0,0:0:0:0:
329,192,92699,1,0,0:0:0:0:
182,192,92699,1,0,0:0:0:0:
402,192,92751,1,0,0:0:0:0:
109,192,92751,1,0,0:0:0:0:
475,192,92803,1,0,0:0:0:0:
36,192,92803,1,0,0:0:0:0:
329,192,92907,1,0,0:0:0:0:
182,192,92907,1,0,0:0:0:0:
109,192,92907,1,0,0:0:0:0:
402,192,92907,1,0,0:0:0:0:
402,192,93115,1,0,0:0:0:0:
109,192,93115,1,0,0:0:0:0:
475,192,93115,1,0,0:0:0:0:
36,192,93115,1,0,0:0:0:0:
475,192,93324,1,0,0:0:0:0:
402,192,93324,1,0,0:0:0:0:
182,192,93324,1,0,0:0:0:0:
109,192,93428,1,0,0:0:0:0:
36,192,93428,1,0,0:0:0:0:
329,192,93428,1,0,0:0:0:0:
36,192,93636,1,0,0:0:0:0:
256,192,93636,1,0,0:0:0:0:
475,192,93636,1,0,0:0:0:0:
329,192,93669,1,0,0:0:0:0:
182,192,93838,1,0,0:0:0:0:
109,192,93838,1,0,0:0:0:0:
475,192,93838,1,0,0:0:0:0:
402,192,93940,1,0,0:0:0:0:
329,192,93940,1,0,0:0:0:0:
256,192,94041,1,0,0:0:0:0:
36,192,94041,1,0,0:0:0:0:
182,192,94142,1,0,0:0:0:0:
402,192,94142,1,0,0:0:0:0:
182,192,94244,1,0,0:0:0:0:
402,192,94244,1,0,0:0:0:0:
36,192,94345,1,0,0:0:0:0:
256,192,94345,1,0,0:0:0:0:
475,192,94446,1,0,0:0:0:0:
182,192,94446,1,0,0:0:0:0:
329,192,94548,1,0,0:0:0:0:
109,192,94548,1,0,0:0:0:0:
329,192,94649,1,0,0:0:0:0:
109,192,94649,1,0,0:0:0:0:
402,192,94750,1,0,0:0:0:0:
475,192,94750,1,0,0:0:0:0:
182,192,94852,1,0,0:0:0:0:
36,192,94852,1,0,0:0:0:0:
182,192,94953,1,0,0:0:0:0:
36,192,94953,1,0,0:0:0:0:
475,192,95054,1,0,0:0:0:0:
329,192,95054,1,0,0:0:0:0:
402,192,95054,1,0,0:0:0:0:
256,192,95257,1,0,0:0:0:0:
475,192,95257,1,0,0:0:0:0:
36,192,95257,1,0,0:0:0:0:
182,192,95291,1,0,0:0:0:0:
109,192,95358,1,0,0:0:0:0:
329,192,95460,1,0,0:0:0:0:
402,192,95460,1,0,0:0:0:0:
109,192,95460,1,0,0:0:0:0:
182,192,95561,1,0,0:0:0:0:
256,192,95561,1,0,0:0:0:0:
329,192,95663,1,0,0:0:0:0:
36,192,95663,1,0,0:0:0:0:
402,192,95764,1,0,0:0:0:0:
475,192,95764,1,0,0:0:0:0:
182,192,95865,1,0,0:0:0:0:
402,192,95865,1,0,0:0:0:0:
109,192,95865,1,0,0:0:0:0:
475,192,95967,1,0,0:0:0:0:
329,192,96000,1,0,0:0:0:0:
256,192,96068,1,0,0:0:0:0:
109,192,96068,1,0,0:0:0:0:
109,192,96271,1,0,0:0:0:0:
329,192,96271,1,0,0:0:0:0:
402,192,96271,1,0,0:0:0:0:
256,192,96372,1,0,0:0:0:0:
36,192,96372,1,0,0:0:0:0:
402,192,96473,1,0,0:0:0:0:
475,192,96473,1,0,0:0:0:0:
182,192,96473,1,0,0:0:0:0:
182,192,96575,1,0,0:0:0:0:
402,192,96575,1,0,0:0:0:0:
475,192,96575,1,0,0:0:0:0:
329,192,96676,1,0,0:0:0:0:
256,192,96676,1,0,0:0:0:0:
109,192,96777,1,0,0:0:0:0:
402,192,96777,1,0,0:0:0:0:
475,192,96777,1,0,0:0:0:0:
256,192,96879,1,0,0:0:0:0:
182,192,96879,1,0,0:0:0:0:
36,192,96879,1,0,0:0:0:0:
329,192,96913,1,0,0:0:0:0:
475,192,97081,1,0,0:0:0:0:
182,192,97081,1,0,0:0:0:0:
109,192,97081,1,0,0:0:0:0:
402,192,97183,1,0,0:0:0:0:
329,192,97183,1,0,0:0:0:0:
256,192,97284,1,0,0:0:0:0:
36,192,97284,1,0,0:0:0:0:
182,192,97386,1,0,0:0:0:0:
329,192,97386,1,0,0:0:0:0:
182,192,97487,1,0,0:0:0:0:
329,192,97487,1,0,0:0:0:0:
36,192,97588,1,0,0:0:0:0:
256,192,97588,1,0,0:0:0:0:
109,192,97690,1,0,0:0:0:0:
475,192,97690,1,0,0:0:0:0:
182,192,97791,1,0,0:0:0:0:
329,192,97791,1,0,0:0:0:0:
329,192,97892,1,0,0:0:0:0:
182,192,97892,1,0,0:0:0:0:
475,192,97994,1,0,0:0:0:0:
402,192,97994,1,0,0:0:0:0:
182,192,98095,1,0,0:0:0:0:
109,192,98095,1,0,0:0:0:0:
109,192,98196,1,0,0:0:0:0:
182,192,98196,1,0,0:0:0:0:
475,192,98298,1,0,0:0:0:0:
329,192,98298,1,0,0:0:0:0:
402,192,98298,1,0,0:0:0:0:
256,192,98500,1,0,0:0:0:0:
475,192,98500,1,0,0:0:0:0:
36,192,98500,1,0,0:0:0:0:
182,192,98534,1,0,0:0:0:0:
109,192,98602,1,0,0:0:0:0:
475,192,98703,1,0,0:0:0:0:
402,192,98703,1,0,0:0:0:0:
256,192,98703,1,0,0:0:0:0:
36,192,98804,1,0,0:0:0:0:
402,192,98804,1,0,0:0:0:0:
182,192,98906,1,0,0:0:0:0:
329,192,98906,1,0,0:0:0:0:
256,192,99007,1,0,0:0:0:0:
109,192,99007,1,0,0:0:0:0:
475,192,99108,1,0,0:0:0:0:
109,192,99108,1,0,0:0:0:0:
256,192,99210,1,0,0:0:0:0:
329,192,99244,1,0,0:0:0:0:
402,192,99277,1,0,0:0:0:0:
475,192,99311,1,0,0:0:0:0:
182,192,99311,1,0,0:0:0:0:
36,192,99311,1,0,0:0:0:0:
329,192,99514,1,0,0:0:0:0:
402,192,99514,1,0,0:0:0:0:
182,192,99615,1,0,0:0:0:0:
109,192,99615,1,0,0:0:0:0:
475,192,99615,1,0,0:0:0:0:
182,192,99717,1,0,0:0:0:0:
329,192,99717,1,0,0:0:0:0:
109,192,99717,1,0,0:0:0:0:
329,192,99818,1,0,0:0:0:0:
109,192,99919,1,0,0:0:0:0:
256,192,99919,1,0,0:0:0:0:
36,192,99919,1,0,0:0:0:0:
36,192,100021,1,0,0:0:0:0:
109,192,100021,1,0,0:0:0:0:
256,192,100021,1,0,0:0:0:0:
475,192,100122,1,0,0:0:0:0:
402,192,100122,1,0,0:0:0:0:
182,192,100122,1,0,0:0:0:0:
329,192,100122,1,0,0:0:0:0:
109,192,100325,1,0,0:0:0:0:
329,192,100325,1,0,0:0:0:0:
182,192,100426,1,0,0:0:0:0:
256,192,100426,1,0,0:0:0:0:
402,192,100527,1,0,0:0:0:0:
475,192,100527,1,0,0:0:0:0:
182,192,100629,1,0,0:0:0:0:
329,192,100629,1,0,0:0:0:0:
109,192,100730,1,0,0:0:0:0:
475,192,100730,1,0,0:0:0:0:
329,192,100730,1,0,0:0:0:0:
256,192,100831,1,0,0:0:0:0:
182,192,100831,1,0,0:0:0:0:
402,192,100933,1,0,0:0:0:0:
36,192,100933,1,0,0:0:0:0:
182,192,101034,1,0,0:0:0:0:
329,192,101034,1,0,0:0:0:0:
475,192,101136,1,0,0:0:0:0:
182,192,101136,1,0,0:0:0:0:
256,192,101237,1,0,0:0:0:0:
329,192,101237,1,0,0:0:0:0:
109,192,101338,1,0,0:0:0:0:
475,192,101338,1,0,0:0:0:0:
36,192,101338,1,0,0:0:0:0:
329,192,101440,1,0,0:0:0:0:
402,192,101440,1,0,0:0:0:0:
182,192,101440,1,0,0:0:0:0:
402,192,101541,1,0,0:0:0:0:
329,192,101541,1,0,0:0:0:0:
182,192,101541,1,0,0:0:0:0:
329,192,101642,1,0,0:0:0:0:
402,192,101642,1,0,0:0:0:0:
402,192,101744,1,0,0:0:0:0:
329,192,101744,1,0,0:0:0:0:
109,192,101845,1,0,0:0:0:0:
109,192,101946,1,0,0:0:0:0:
329,192,102048,1,0,0:0:0:0:
475,192,102048,1,0,0:0:0:0:
182,192,102149,1,0,0:0:0:0:
182,192,102250,1,0,0:0:0:0:
329,192,102250,1,0,0:0:0:0:
402,192,102352,1,0,0:0:0:0:
109,192,102352,1,0,0:0:0:0:
182,192,102453,1,0,0:0:0:0:
329,192,102453,1,0,0:0:0:0:
36,192,102554,1,0,0:0:0:0:
475,192,102554,1,0,0:0:0:0:
256,192,102554,1,0,0:0:0:0:
402,192,102554,1,0,0:0:0:0:
36,192,102757,1,0,0:0:0:0:
182,192,102757,1,0,0:0:0:0:
329,192,102757,1,0,0:0:0:0:
256,192,102858,1,0,0:0:0:0:
475,192,102858,1,0,0:0:0:0:
402,192,102960,1,0,0:0:0:0:
109,192,102960,1,0,0:0:0:0:
402,192,103061,1,0,0:0:0:0:
109,192,103061,1,0,0:0:0:0:
256,192,103163,1,0,0:0:0:0:
329,192,103264,1,0,0:0:0:0:
109,192,103264,1,0,0:0:0:0:
475,192,103365,1,0,0:0:0:0:
182,192,103365,1,0,0:0:0:0:
256,192,103365,1,0,0:0:0:0:
402,192,103365,1,0,0:0:0:0:
36,192,103365,1,0,0:0:0:0:
329,192,103568,1,0,0:0:0:0:
182,192,103669,1,0,0:0:0:0:
329,192,103771,1,0,0:0:0:0:
36,192,103771,1,0,0:0:0:0:
475,192,103771,1,0,0:0:0:0:
182,192,103872,1,0,0:0:0:0:
329,192,103872,1,0,0:0:0:0:
256,192,103973,1,0,0:0:0:0:
402,192,103973,1,0,0:0:0:0:
36,192,104075,1,0,0:0:0:0:
109,192,104075,1,0,0:0:0:0:
182,192,104176,1,0,0:0:0:0:
329,192,104176,1,0,0:0:0:0:
182,192,104277,1,0,0:0:0:0:
329,192,104277,1,0,0:0:0:0:
475,192,104379,1,0,0:0:0:0:
109,192,104379,1,0,0:0:0:0:
256,192,104480,1,0,0:0:0:0:
329,192,104480,1,0,0:0:0:0:
402,192,104581,1,0,0:0:0:0:
36,192,104581,1,0,0:0:0:0:
475,192,104581,1,0,0:0:0:0:
182,192,104683,1,0,0:0:0:0:
109,192,104683,1,0,0:0:0:0:
329,192,104683,1,0,0:0:0:0:
109,192,104784,1,0,0:0:0:0:
182,192,104784,1,0,0:0:0:0:
329,192,104784,1,0,0:0:0:0:
182,192,104885,1,0,0:0:0:0:
109,192,104885,1,0,0:0:0:0:
109,192,104987,1,0,0:0:0:0:
182,192,104987,1,0,0:0:0:0:
402,192,105088,1,0,0:0:0:0:
402,192,105190,1,0,0:0:0:0:
256,192,105291,1,0,0:0:0:0:
109,192,105291,1,0,0:0:0:0:
329,192,105392,1,0,0:0:0:0:
182,192,105392,1,0,0:0:0:0:
109,192,105494,1,0,0:0:0:0:
329,192,105494,1,0,0:0:0:0:
475,192,105595,1,0,0:0:0:0:
182,192,105595,1,0,0:0:0:0:
402,192,105595,1,0,0:0:0:0:
109,192,105696,1,0,0:0:0:0:
36,192,105798,1,0,0:0:0:0:
256,192,105798,1,0,0:0:0:0:
475,192,105798,1,0,0:0:0:0:
329,192,105798,1,0,0:0:0:0:
402,192,105798,1,0,0:0:0:0:
109,192,106000,1,0,0:0:0:0:
182,192,106102,1,0,0:0:0:0:
256,192,106102,1,0,0:0:0:0:
402,192,106203,1,0,0:0:0:0:
329,192,106203,1,0,0:0:0:0:
402,192,106304,1,0,0:0:0:0:
329,192,106304,1,0,0:0:0:0:
256,192,106406,1,0,0:0:0:0:
182,192,106507,1,0,0:0:0:0:
109,192,106507,1,0,0:0:0:0:
329,192,106507,1,0,0:0:0:0:
329,192,106608,1,0,0:0:0:0:
475,192,106608,1,0,0:0:0:0:
109,192,106608,1,0,0:0:0:0:
36,192,106608,1,0,0:0:0:0:
182,192,106608,1,0,0:0:0:0:
109,192,106811,1,0,0:0:0:0:
256,192,106811,1,0,0:0:0:0:
182,192,106913,1,0,0:0:0:0:
329,192,106913,1,0,0:0:0:0:
256,192,107014,1,0,0:0:0:0:
109,192,107115,1,0,0:0:0:0:
402,192,107115,1,0,0:0:0:0:
109,192,107217,1,0,0:0:0:0:
402,192,107217,1,0,0:0:0:0:
256,192,107318,1,0,0:0:0:0:
182,192,107318,1,0,0:0:0:0:
475,192,107419,1,0,0:0:0:0:
36,192,107419,1,0,0:0:0:0:
109,192,107419,1,0,0:0:0:0:
182,192,107521,1,0,0:0:0:0:
329,192,107521,1,0,0:0:0:0:
182,192,107622,1,0,0:0:0:0:
329,192,107622,1,0,0:0:0:0:
256,192,107723,1,0,0:0:0:0:
109,192,107723,1,0,0:0:0:0:
36,192,107825,1,0,0:0:0:0:
329,192,107926,1,0,0:0:0:0:
475,192,107926,1,0,0:0:0:0:
182,192,107926,1,0,0:0:0:0:
329,192,108027,1,0,0:0:0:0:
475,192,108027,1,0,0:0:0:0:
182,192,108027,1,0,0:0:0:0:
475,192,108129,1,0,0:0:0:0:
329,192,108129,1,0,0:0:0:0:
329,192,108230,1,0,0:0:0:0:
475,192,108230,1,0,0:0:0:0:
182,192,108331,1,0,0:0:0:0:
36,192,108331,1,0,0:0:0:0:
475,192,108433,1,0,0:0:0:0:
36,192,108433,1,0,0:0:0:0:
182,192,108433,1,0,0:0:0:0:
402,192,108534,1,0,0:0:0:0:
256,192,108534,1,0,0:0:0:0:
109,192,108635,1,0,0:0:0:0:
36,192,108635,1,0,0:0:0:0:
329,192,108635,1,0,0:0:0:0:
475,192,108737,1,0,0:0:0:0:
402,192,108737,1,0,0:0:0:0:
36,192,108838,1,0,0:0:0:0:
182,192,108838,1,0,0:0:0:0:
256,192,108838,1,0,0:0:0:0:
329,192,108940,1,0,0:0:0:0:
256,192,108940,1,0,0:0:0:0:
402,192,109041,1,0,0:0:0:0:
475,192,109041,1,0,0:0:0:0:
109,192,109041,1,0,0:0:0:0:
36,192,109041,1,0,0:0:0:0:
475,192,109244,1,0,0:0:0:0:
329,192,109244,1,0,0:0:0:0:
182,192,109244,1,0,0:0:0:0:
256,192,109345,1,0,0:0:0:0:
36,192,109345,1,0,0:0:0:0:
109,192,109446,1,0,0:0:0:0:
182,192,109446,1,0,0:0:0:0:
109,192,109548,1,0,0:0:0:0:
182,192,109548,1,0,0:0:0:0:
329,192,109649,1,0,0:0:0:0:
402,192,109649,1,0,0:0:0:0:
182,192,109750,1,0,0:0:0:0:
109,192,109750,1,0,0:0:0:0:
329,192,109750,1,0,0:0:0:0:
402,192,109852,1,0,0:0:0:0:
109,192,109852,1,0,0:0:0:0:
182,192,109852,1,0,0:0:0:0:
475,192,109852,1,0,0:0:0:0:
182,192,110054,1,0,0:0:0:0:
402,192,110156,1,0,0:0:0:0:
256,192,110156,1,0,0:0:0:0:
109,192,110257,1,0,0:0:0:0:
329,192,110257,1,0,0:0:0:0:
36,192,110257,1,0,0:0:0:0:
182,192,110358,1,0,0:0:0:0:
109,192,110460,1,0,0:0:0:0:
256,192,110460,1,0,0:0:0:0:
36,192,110561,1,0,0:0:0:0:
256,192,110561,1,0,0:0:0:0:
475,192,110663,1,0,0:0:0:0:
182,192,110663,1,0,0:0:0:0:
402,192,110663,1,0,0:0:0:0:
109,192,110764,1,0,0:0:0:0:
256,192,110764,1,0,0:0:0:0:
475,192,110865,1,0,0:0:0:0:
109,192,110865,1,0,0:0:0:0:
256,192,110865,1,0,0:0:0:0:
182,192,110967,1,0,0:0:0:0:
329,192,110967,1,0,0:0:0:0:
402,192,111068,1,0,0:0:0:0:
475,192,111068,1,0,0:0:0:0:
256,192,111068,1,0,0:0:0:0:
182,192,111169,1,0,0:0:0:0:
36,192,111169,1,0,0:0:0:0:
329,192,111169,1,0,0:0:0:0:
36,192,111271,1,0,0:0:0:0:
182,192,111271,1,0,0:0:0:0:
329,192,111271,1,0,0:0:0:0:
182,192,111372,1,0,0:0:0:0:
36,192,111372,1,0,0:0:0:0:
36,192,111473,1,0,0:0:0:0:
182,192,111473,1,0,0:0:0:0:
402,192,111473,1,0,0:0:0:0:
402,192,111575,1,0,0:0:0:0:
36,192,111676,1,0,0:0:0:0:
109,192,111676,1,0,0:0:0:0:
329,192,111676,1,0,0:0:0:0:
182,192,111777,1,0,0:0:0:0:
329,192,111777,1,0,0:0:0:0:
475,192,111879,1,0,0:0:0:0:
182,192,111879,1,0,0:0:0:0:
329,192,111980,1,0,0:0:0:0:
109,192,111980,1,0,0:0:0:0:
109,192,112081,1,0,0:0:0:0:
329,192,112081,1,0,0:0:0:0:
109,192,112284,1,0,0:0:0:0:
256,192,112284,1,0,0:0:0:0:
402,192,112284,1,0,0:0:0:0:
36,192,112284,1,0,0:0:0:0:
475,192,112284,1,0,0:0:0:0:
256,192,112487,1,0,0:0:0:0:
256,192,112588,1,0,0:0:0:0:
109,192,112588,1,0,0:0:0:0:
402,192,112690,1,0,0:0:0:0:
475,192,112690,1,0,0:0:0:0:
109,192,112690,1,0,0:0:0:0:
402,192,112791,1,0,0:0:0:0:
329,192,112791,1,0,0:0:0:0:
256,192,112892,1,0,0:0:0:0:
329,192,112892,1,0,0:0:0:0:
182,192,112994,1,0,0:0:0:0:
256,192,112994,1,0,0:0:0:0:
402,192,113095,1,0,0:0:0:0:
475,192,113095,1,0,0:0:0:0:
109,192,113095,1,0,0:0:0:0:
36,192,113095,1,0,0:0:0:0:
329,192,113095,1,0,0:0:0:0:
182,192,113095,1,0,0:0:0:0:
182,192,125233,5,0,0:0:0:0:
475,192,125399,1,0,0:0:0:0:
109,192,125566,1,0,0:0:0:0:
475,192,125733,1,0,0:0:0:0:
182,192,125899,1,0,0:0:0:0:
475,192,126066,1,0,0:0:0:0:
109,192,126233,1,0,0:0:0:0:
475,192,126399,1,0,0:0:0:0:
182,192,126566,1,0,0:0:0:0:
475,192,126733,1,0,0:0:0:0:
109,192,126899,1,0,0:0:0:0:
475,192,127066,1,0,0:0:0:0:
36,192,127233,1,0,0:0:0:0:
329,192,127399,1,0,0:0:0:0:
109,192,127566,1,0,0:0:0:0:
475,192,127733,1,0,0:0:0:0:
182,192,127899,1,0,0:0:0:0:
475,192,128066,1,0,0:0:0:0:
109,192,128233,1,0,0:0:0:0:
475,192,128399,1,0,0:0:0:0:
182,192,128566,1,0,0:0:0:0:
475,192,128733,1,0,0:0:0:0:
109,192,128899,1,0,0:0:0:0:
475,192,129066,1,0,0:0:0:0:
182,192,129233,1,0,0:0:0:0:
475,192,129399,1,0,0:0:0:0:
109,192,129566,1,0,0:0:0:0:
475,192,129733,1,0,0:0:0:0:
182,192,129899,1,0,0:0:0:0:
475,192,130066,1,0,0:0:0:0:
109,192,130233,1,0,0:0:0:0:
475,192,130399,1,0,0:0:0:0:
182,192,130566,1,0,0:0:0:0:
256,192,130566,1,0,0:0:0:0:
36,192,130566,1,0,0:0:0:0:
329,192,130733,1,0,0:0:0:0:
36,192,130816,1,0,0:0:0:0:
402,192,130816,1,0,0:0:0:0:
109,192,130899,1,0,0:0:0:0:
475,192,130899,1,0,0:0:0:0:
182,192,130899,1,0,0:0:0:0:
329,192,130983,1,0,0:0:0:0:
182,192,131066,1,0,0:0:0:0:
256,192,131066,1,0,0:0:0:0:
475,192,131233,1,0,0:0:0:0:
402,192,131233,1,0,0:0:0:0:
256,192,131399,1,0,0:0:0:0:
36,192,131399,1,0,0:0:0:0:
329,192,131483,1,0,0:0:0:0:
475,192,131566,1,0,0:0:0:0:
402,192,131566,1,0,0:0:0:0:
109,192,131566,1,0,0:0:0:0:
182,192,131649,1,0,0:0:0:0:
329,192,131733,1,0,0:0:0:0:
256,192,131774,1,0,0:0:0:0:
182,192,131816,1,0,0:0:0:0:
109,192,131858,1,0,0:0:0:0:
475,192,131899,1,0,0:0:0:0:
402,192,131899,1,0,0:0:0:0:
36,192,131899,1,0,0:0:0:0:
329,192,131983,1,0,0:0:0:0:
182,192,132066,1,0,0:0:0:0:
109,192,132066,1,0,0:0:0:0:
402,192,132149,1,0,0:0:0:0:
109,192,132233,1,0,0:0:0:0:
182,192,132233,1,0,0:0:0:0:
329,192,132233,1,0,0:0:0:0:
36,192,132399,1,0,0:0:0:0:
402,192,132399,1,0,0:0:0:0:
329,192,132399,1,0,0:0:0:0:
182,192,132566,1,0,0:0:0:0:
402,192,132733,1,0,0:0:0:0:
256,192,132733,1,0,0:0:0:0:
329,192,132899,1,0,0:0:0:0:
475,192,132899,1,0,0:0:0:0:
109,192,132899,1,0,0:0:0:0:
475,192,133233,1,0,0:0:0:0:
182,192,133233,1,0,0:0:0:0:
256,192,133233,1,0,0:0:0:0:
329,192,133316,1,0,0:0:0:0:
402,192,133399,1,0,0:0:0:0:
109,192,133483,1,0,0:0:0:0:
256,192,133483,1,0,0:0:0:0:
475,192,133566,1,0,0:0:0:0:
402,192,133566,1,0,0:0:0:0:
36,192,133566,1,0,0:0:0:0:
329,192,133649,1,0,0:0:0:0:
109,192,133733,1,0,0:0:0:0:
256,192,133733,1,0,0:0:0:0:
36,192,133816,1,0,0:0:0:0:
402,192,133816,1,0,0:0:0:0:
475,192,133816,1,0,0:0:0:0:
329,192,133899,1,0,0:0:0:0:
182,192,133899,1,0,0:0:0:0:
109,192,133983,1,0,0:0:0:0:
402,192,134066,1,0,0:0:0:0:
256,192,134066,1,0,0:0:0:0:
36,192,134149,1,0,0:0:0:0:
109,192,134170,1,0,0:0:0:0:
182,192,134191,1,0,0:0:0:0:
256,192,134212,1,0,0:0:0:0:
475,192,134233,1,0,0:0:0:0:
402,192,134233,1,0,0:0:0:0:
329,192,134233,1,0,0:0:0:0:
182,192,134316,1,0,0:0:0:0:
36,192,134316,1,0,0:0:0:0:
475,192,134399,1,0,0:0:0:0:
329,192,134399,1,0,0:0:0:0:
256,192,134441,1,0,0:0:0:0:
182,192,134483,1,0,0:0:0:0:
109,192,134524,1,0,0:0:0:0:
475,192,134566,1,0,0:0:0:0:
402,192,134566,1,0,0:0:0:0:
36,192,134566,1,0,0:0:0:0:
329,192,134649,1,0,0:0:0:0:
182,192,134733,1,0,0:0:0:0:
109,192,134733,1,0,0:0:0:0:
329,192,134816,1,0,0:0:0:0:
109,192,134899,1,0,0:0:0:0:
182,192,134899,1,0,0:0:0:0:
402,192,134899,1,0,0:0:0:0:
36,192,135066,1,0,0:0:0:0:
329,192,135066,1,0,0:0:0:0:
256,192,135066,1,0,0:0:0:0:
109,192,135233,1,0,0:0:0:0:
182,192,135260,1,0,0:0:0:0:
256,192,135288,1,0,0:0:0:0:
329,192,135316,1,0,0:0:0:0:
402,192,135344,1,0,0:0:0:0:
475,192,135371,1,0,0:0:0:0:
109,192,135399,1,0,0:0:0:0:
329,192,135441,1,0,0:0:0:0:
182,192,135483,1,0,0:0:0:0:
402,192,135524,1,0,0:0:0:0:
109,192,135566,1,0,0:0:0:0:
475,192,135566,1,0,0:0:0:0:
256,192,135566,1,0,0:0:0:0:
329,192,135649,1,0,0:0:0:0:
182,192,135649,1,0,0:0:0:0:
402,192,135733,1,0,0:0:0:0:
109,192,135816,1,0,0:0:0:0:
475,192,135899,1,0,0:0:0:0:
402,192,135899,1,0,0:0:0:0:
109,192,135983,1,0,0:0:0:0:
182,192,136003,1,0,0:0:0:0:
256,192,136024,1,0,0:0:0:0:
329,192,136045,1,0,0:0:0:0:
402,192,136066,1,0,0:0:0:0:
182,192,136149,1,0,0:0:0:0:
36,192,136149,1,0,0:0:0:0:
475,192,136233,1,0,0:0:0:0:
402,192,136233,1,0,0:0:0:0:
256,192,136233,1,0,0:0:0:0:
109,192,136316,1,0,0:0:0:0:
475,192,136399,1,0,0:0:0:0:
402,192,136420,1,0,0:0:0:0:
329,192,136441,1,0,0:0:0:0:
36,192,136483,1,0,0:0:0:0:
109,192,136503,1,0,0:0:0:0:
182,192,136524,1,0,0:0:0:0:
256,192,136545,1,0,0:0:0:0:
475,192,136566,1,0,0:0:0:0:
329,192,136566,1,0,0:0:0:0:
36,192,136733,1,0,0:0:0:0:
109,192,136753,1,0,0:0:0:0:
182,192,136774,1,0,0:0:0:0:
475,192,136816,1,0,0:0:0:0:
402,192,136837,1,0,0:0:0:0:
329,192,136858,1,0,0:0:0:0:
36,192,136899,1,0,0:0:0:0:
109,192,136920,1,0,0:0:0:0:
182,192,136941,1,0,0:0:0:0:
475,192,136983,1,0,0:0:0:0:
402,192,137003,1,0,0:0:0:0:
329,192,137024,1,0,0:0:0:0:
256,192,137045,1,0,0:0:0:0:
475,192,137149,1,0,0:0:0:0:
402,192,137170,1,0,0:0:0:0:
329,192,137191,1,0,0:0:0:0:
256,192,137212,1,0,0:0:0:0:
36,192,137233,1,0,0:0:0:0:
182,192,137233,1,0,0:0:0:0:
475,192,137316,1,0,0:0:0:0:
402,192,137316,1,0,0:0:0:0:
36,192,137399,1,0,0:0:0:0:
182,192,137399,1,0,0:0:0:0:
475,192,137483,1,0,0:0:0:0:
402,192,137483,1,0,0:0:0:0:
36,192,137566,1,0,0:0:0:0:
109,192,137566,1,0,0:0:0:0:
329,192,137566,1,0,0:0:0:0:
402,192,137733,1,0,0:0:0:0:
182,192,137733,1,0,0:0:0:0:
475,192,137899,1,0,0:0:0:0:
256,192,137899,1,0,0:0:0:0:
182,192,137941,1,0,0:0:0:0:
109,192,137983,1,0,0:0:0:0:
475,192,138066,1,0,0:0:0:0:
402,192,138094,1,0,0:0:0:0:
329,192,138121,1,0,0:0:0:0:
256,192,138149,1,0,0:0:0:0:
182,192,138177,1,0,0:0:0:0:
109,192,138205,1,0,0:0:0:0:
475,192,138233,1,0,0:0:0:0:
402,192,138233,1,0,0:0:0:0:
36,192,138233,1,0,0:0:0:0:
256,192,138399,1,0,0:0:0:0:
109,192,138399,1,0,0:0:0:0:
402,192,138483,1,0,0:0:0:0:
109,192,138566,1,0,0:0:0:0:
256,192,138566,1,0,0:0:0:0:
475,192,138649,1,0,0:0:0:0:
36,192,138733,1,0,0:0:0:0:
182,192,138733,1,0,0:0:0:0:
329,192,138816,1,0,0:0:0:0:
475,192,138816,1,0,0:0:0:0:
402,192,138816,1,0,0:0:0:0:
182,192,138899,1,0,0:0:0:0:
475,192,138983,1,0,0:0:0:0:
402,192,139024,1,0,0:0:0:0:
329,192,139024,1,0,0:0:0:0:
256,192,139024,1,0,0:0:0:0:
36,192,139066,1,0,0:0:0:0:
109,192,139066,1,0,0:0:0:0:
182,192,139066,1,0,0:0:0:0:
475,192,139149,1,0,0:0:0:0:
329,192,139232,1,0,0:0:0:0:
182,192,139232,1,0,0:0:0:0:
36,192,139232,1,0,0:0:0:0:
475,192,139399,1,0,0:0:0:0:
329,192,139399,1,0,0:0:0:0:
109,192,139482,1,0,0:0:0:0:
475,192,139566,1,0,0:0:0:0:
329,192,139566,1,0,0:0:0:0:
36,192,139649,1,0,0:0:0:0:
109,192,139691,1,0,0:0:0:0:
329,192,139732,1,0,0:0:0:0:
475,192,139732,1,0,0:0:0:0:
182,192,139732,1,0,0:0:0:0:
109,192,139899,1,0,0:0:0:0:
36,192,139899,1,0,0:0:0:0:
329,192,139982,1,0,0:0:0:0:
402,192,140010,1,0,0:0:0:0:
475,192,140038,1,0,0:0:0:0:
109,192,140066,1,0,0:0:0:0:
36,192,140066,1,0,0:0:0:0:
329,192,140149,1,0,0:0:0:0:
402,192,140177,1,0,0:0:0:0:
475,192,140205,1,0,0:0:0:0:
36,192,140232,1,0,0:0:0:0:
109,192,140232,1,0,0:0:0:0:
182,192,140232,1,0,0:0:0:0:
475,192,140399,1,0,0:0:0:0:
256,192,140399,1,0,0:0:0:0:
182,192,140482,1,0,0:0:0:0:
36,192,140566,1,0,0:0:0:0:
109,192,140566,1,0,0:0:0:0:
329,192,140649,1,0,0:0:0:0:
36,192,140732,1,0,0:0:0:0:
109,192,140732,1,0,0:0:0:0:
402,192,140816,1,0,0:0:0:0:
36,192,140899,1,0,0:0:0:0:
109,192,140899,1,0,0:0:0:0:
475,192,140899,1,0,0:0:0:0:
256,192,140982,1,0,0:0:0:0:
182,192,140982,1,0,0:0:0:0:
36,192,141066,1,0,0:0:0:0:
109,192,141066,1,0,0:0:0:0:
402,192,141149,1,0,0:0:0:0:
329,192,141149,1,0,0:0:0:0:
109,192,141232,1,0,0:0:0:0:
182,192,141232,1,0,0:0:0:0:
475,192,141316,1,0,0:0:0:0:
182,192,141399,1,0,0:0:0:0:
475,192,141482,1,0,0:0:0:0:
36,192,141566,1,0,0:0:0:0:
109,192,141566,1,0,0:0:0:0:
402,192,141649,1,0,0:0:0:0:
36,192,141732,1,0,0:0:0:0:
402,192,141816,1,0,0:0:0:0:
182,192,141899,1,0,0:0:0:0:
109,192,141899,1,0,0:0:0:0:
475,192,141982,1,0,0:0:0:0:
109,192,142066,1,0,0:0:0:0:
182,192,142087,1,0,0:0:0:0:
256,192,142107,1,0,0:0:0:0:
475,192,142149,1,0,0:0:0:0:
36,192,142232,1,0,0:0:0:0:
109,192,142253,1,0,0:0:0:0:
182,192,142274,1,0,0:0:0:0:
402,192,142316,1,0,0:0:0:0:
36,192,142399,1,0,0:0:0:0:
109,192,142441,1,0,0:0:0:0:
182,192,142482,1,0,0:0:0:0:
256,192,142524,1,0,0:0:0:0:
475,192,142566,1,0,0:0:0:0:
329,192,142566,1,0,0:0:0:0:
109,192,142649,1,0,0:0:0:0:
402,192,142732,1,0,0:0:0:0:
109,192,142816,1,0,0:0:0:0:
36,192,142816,1,0,0:0:0:0:
182,192,142899,1,0,0:0:0:0:
475,192,142899,1,0,0:0:0:0:
402,192,142899,1,0,0:0:0:0:
36,192,143066,1,0,0:0:0:0:
109,192,143066,1,0,0:0:0:0:
182,192,143149,1,0,0:0:0:0:
402,192,143232,1,0,0:0:0:0:
475,192,143232,1,0,0:0:0:0:
256,192,143316,1,0,0:0:0:0:
36,192,143399,1,0,0:0:0:0:
109,192,143441,1,0,0:0:0:0:
182,192,143482,1,0,0:0:0:0:
256,192,143524,1,0,0:0:0:0:
475,192,143566,1,0,0:0:0:0:
402,192,143566,1,0,0:0:0:0:
329,192,143566,1,0,0:0:0:0:
182,192,143649,1,0,0:0:0:0:
109,192,143649,1,0,0:0:0:0:
402,192,143732,1,0,0:0:0:0:
256,192,143732,1,0,0:0:0:0:
36,192,143816,1,0,0:0:0:0:
109,192,143816,1,0,0:0:0:0:
329,192,143899,1,0,0:0:0:0:
182,192,143899,1,0,0:0:0:0:
475,192,143982,1,0,0:0:0:0:
256,192,144066,1,0,0:0:0:0:
402,192,144149,1,0,0:0:0:0:
182,192,144232,1,0,0:0:0:0:
36,192,144232,1,0,0:0:0:0:
109,192,144232,1,0,0:0:0:0:
256,192,144399,1,0,0:0:0:0:
402,192,144482,1,0,0:0:0:0:
36,192,144566,1,0,0:0:0:0:
109,192,144566,1,0,0:0:0:0:
475,192,144649,1,0,0:0:0:0:
329,192,144732,1,0,0:0:0:0:
182,192,144816,1,0,0:0:0:0:
36,192,144899,1,0,0:0:0:0:
109,192,144920,1,0,0:0:0:0:
182,192,144941,1,0,0:0:0:0:
475,192,144982,1,0,0:0:0:0:
402,192,145003,1,0,0:0:0:0:
329,192,145024,1,0,0:0:0:0:
182,192,145066,1,0,0:0:0:0:
109,192,145066,1,0,0:0:0:0:
402,192,145149,1,0,0:0:0:0:
329,192,145149,1,0,0:0:0:0:
256,192,145232,1,0,0:0:0:0:
36,192,145232,1,0,0:0:0:0:
182,192,145232,1,0,0:0:0:0:
329,192,145399,1,0,0:0:0:0:
475,192,145482,1,0,0:0:0:0:
402,192,145482,1,0,0:0:0:0:
36,192,145566,1,0,0:0:0:0:
109,192,145566,1,0,0:0:0:0:
256,192,145566,1,0,0:0:0:0:
329,192,145732,1,0,0:0:0:0:
109,192,145816,1,0,0:0:0:0:
475,192,145899,1,0,0:0:0:0:
402,192,145899,1,0,0:0:0:0:
182,192,145982,1,0,0:0:0:0:
329,192,146066,1,0,0:0:0:0:
109,192,146149,1,0,0:0:0:0:
475,192,146232,1,0,0:0:0:0:
402,192,146232,1,0,0:0:0:0:
256,192,146232,1,0,0:0:0:0:
36,192,146399,1,0,0:0:0:0:
109,192,146427,1,0,0:0:0:0:
182,192,146455,1,0,0:0:0:0:
256,192,146482,1,0,0:0:0:0:
329,192,146510,1,0,0:0:0:0:
402,192,146538,1,0,0:0:0:0:
36,192,146566,1,0,0:0:0:0:
109,192,146566,1,0,0:0:0:0:
475,192,146566,1,0,0:0:0:0:
329,192,146732,1,0,0:0:0:0:
182,192,146816,1,0,0:0:0:0:
475,192,146899,1,0,0:0:0:0:
36,192,146899,1,0,0:0:0:0:
256,192,146899,1,0,0:0:0:0:
329,192,146982,1,0,0:0:0:0:
182,192,147066,1,0,0:0:0:0:
109,192,147066,1,0,0:0:0:0:
329,192,147149,1,0,0:0:0:0:
256,192,147149,1,0,0:0:0:0:
36,192,147232,1,0,0:0:0:0:
109,192,147232,1,0,0:0:0:0:
329,192,147316,1,0,0:0:0:0:
36,192,147399,1,0,0:0:0:0:
475,192,147482,1,0,0:0:0:0:
329,192,147566,1,0,0:0:0:0:
256,192,147566,1,0,0:0:0:0:
182,192,147566,1,0,0:0:0:0:
402,192,147649,1,0,0:0:0:0:
36,192,147732,1,0,0:0:0:0:
109,192,147753,1,0,0:0:0:0:
182,192,147774,1,0,0:0:0:0:
329,192,147816,1,0,0:0:0:0:
402,192,147857,1,0,0:0:0:0:
475,192,147899,1,0,0:0:0:0:
256,192,147899,1,0,0:0:0:0:
402,192,148066,1,0,0:0:0:0:
182,192,148066,1,0,0:0:0:0:
329,192,148149,1,0,0:0:0:0:
36,192,148232,1,0,0:0:0:0:
475,192,148232,1,0,0:0:0:0:
256,192,148232,1,0,0:0:0:0:
182,192,148316,1,0,0:0:0:0:
36,192,148399,1,0,0:0:0:0:
109,192,148399,1,0,0:0:0:0:
329,192,148482,1,0,0:0:0:0:
256,192,148482,1,0,0:0:0:0:
109,192,148566,1,0,0:0:0:0:
182,192,148566,1,0,0:0:0:0:
182,192,148649,1,0,0:0:0:0:
109,192,148649,1,0,0:0:0:0:
329,192,148732,1,0,0:0:0:0:
402,192,148732,1,0,0:0:0:0:
402,192,148816,1,0,0:0:0:0:
329,192,148816,1,0,0:0:0:0:
109,192,148899,1,0,0:0:0:0:
36,192,148899,1,0,0:0:0:0:
475,192,149066,1,0,0:0:0:0:
402,192,149107,1,0,0:0:0:0:
329,192,149149,1,0,0:0:0:0:
256,192,149191,1,0,0:0:0:0:
36,192,149232,1,0,0:0:0:0:
182,192,149232,1,0,0:0:0:0:
475,192,149288,1,0,0:0:0:0:
329,192,149288,1,0,0:0:0:0:
182,192,149344,1,0,0:0:0:0:
329,192,149399,1,0,0:0:0:0:
182,192,149455,1,0,0:0:0:0:
329,192,149510,1,0,0:0:0:0:
109,192,149566,1,0,0:0:0:0:
402,192,149621,1,0,0:0:0:0:
109,192,149677,1,0,0:0:0:0:
402,192,149732,1,0,0:0:0:0:
109,192,149788,1,0,0:0:0:0:
402,192,149844,1,0,0:0:0:0:
182,192,149899,1,0,0:0:0:0:
256,192,150232,1,0,0:0:0:0:
329,192,150566,1,0,0:0:0:0:
256,192,150899,1,0,0:0:0:0:
109,192,151232,1,0,0:0:0:0:
182,192,151274,1,0,0:0:0:0:
329,192,151316,1,0,0:0:0:0:
402,192,151357,1,0,0:0:0:0:
109,192,151399,1,0,0:0:0:0:
182,192,151441,1,0,0:0:0:0:
329,192,151482,1,0,0:0:0:0:
402,192,151524,1,0,0:0:0:0:
182,192,151566,1,0,0:0:0:0:
256,192,151621,1,0,0:0:0:0:
329,192,151677,1,0,0:0:0:0:
109,192,151732,1,0,0:0:0:0:
402,192,151732,1,0,0:0:0:0:
329,192,151816,1,0,0:0:0:0:
182,192,151816,1,0,0:0:0:0:
256,192,151899,1,0,0:0:0:0:
402,192,151899,1,0,0:0:0:0:
109,192,151899,1,0,0:0:0:0:
329,192,152010,1,0,0:0:0:0:
182,192,152010,1,0,0:0:0:0:
36,192,152149,1,0,0:0:0:0:
109,192,152149,1,0,0:0:0:0:
475,192,152232,1,0,0:0:0:0:
402,192,152232,1,0,0:0:0:0:
256,192,152232,1,0,0:0:0:0:
36,192,152399,1,0,0:0:0:0:
109,192,152399,1,0,0:0:0:0:
402,192,152482,1,0,0:0:0:0:
36,192,152566,1,0,0:0:0:0:
109,192,152566,1,0,0:0:0:0:
256,192,152732,1,0,0:0:0:0:
475,192,152816,1,0,0:0:0:0:
329,192,152899,1,0,0:0:0:0:
182,192,152899,1,0,0:0:0:0:
256,192,152899,1,0,0:0:0:0:
36,192,153066,1,0,0:0:0:0:
109,192,153107,1,0,0:0:0:0:
182,192,153149,1,0,0:0:0:0:
256,192,153191,1,0,0:0:0:0:
475,192,153232,1,0,0:0:0:0:
329,192,153232,1,0,0:0:0:0:
402,192,153399,1,0,0:0:0:0:
256,192,153482,1,0,0:0:0:0:
475,192,153566,1,0,0:0:0:0:
329,192,153566,1,0,0:0:0:0:
109,192,153566,1,0,0:0:0:0:
256,192,153649,1,0,0:0:0:0:
182,192,153649,1,0,0:0:0:0:
402,192,153732,1,0,0:0:0:0:
36,192,153732,1,0,0:0:0:0:
329,192,153816,1,0,0:0:0:0:
109,192,153816,1,0,0:0:0:0:
256,192,153899,1,0,0:0:0:0:
182,192,153899,1,0,0:0:0:0:
475,192,153982,1,0,0:0:0:0:
402,192,153982,1,0,0:0:0:0:
36,192,154066,1,0,0:0:0:0:
182,192,154149,1,0,0:0:0:0:
475,192,154232,1,0,0:0:0:0:
402,192,154232,1,0,0:0:0:0:
256,192,154232,1,0,0:0:0:0:
256,192,154399,1,0,0:0:0:0:
402,192,154566,1,0,0:0:0:0:
109,192,154566,1,0,0:0:0:0:
329,192,154677,1,0,0:0:0:0:
182,192,154677,1,0,0:0:0:0:
475,192,154788,1,0,0:0:0:0:
36,192,154788,1,0,0:0:0:0:
329,192,154899,1,0,0:0:0:0:
256,192,154899,1,0,0:0:0:0:
182,192,154899,1,0,0:0:0:0:
36,192,155066,1,0,0:0:0:0:
109,192,155066,1,0,0:0:0:0:
402,192,155149,1,0,0:0:0:0:
109,192,155232,1,0,0:0:0:0:
36,192,155232,1,0,0:0:0:0:
329,192,155399,1,0,0:0:0:0:
475,192,155482,1,0,0:0:0:0:
329,192,155566,1,0,0:0:0:0:
182,192,155566,1,0,0:0:0:0:
36,192,155566,1,0,0:0:0:0:
475,192,155732,1,0,0:0:0:0:
402,192,155774,1,0,0:0:0:0:
329,192,155816,1,0,0:0:0:0:
256,192,155857,1,0,0:0:0:0:
36,192,155899,1,0,0:0:0:0:
182,192,155899,1,0,0:0:0:0:
256,192,156066,1,0,0:0:0:0:
182,192,156149,1,0,0:0:0:0:
329,192,156232,1,0,0:0:0:0:
109,192,156232,1,0,0:0:0:0:
36,192,156232,1,0,0:0:0:0:
402,192,156316,1,0,0:0:0:0:
475,192,156316,1,0,0:0:0:0:
256,192,156399,1,0,0:0:0:0:
329,192,156482,1,0,0:0:0:0:
36,192,156566,1,0,0:0:0:0:
109,192,156587,1,0,0:0:0:0:
182,192,156607,1,0,0:0:0:0:
256,192,156628,1,0,0:0:0:0:
475,192,156649,1,0,0:0:0:0:
402,192,156670,1,0,0:0:0:0:
329,192,156691,1,0,0:0:0:0:
36,192,156816,1,0,0:0:0:0:
182,192,156816,1,0,0:0:0:0:
475,192,156899,1,0,0:0:0:0:
402,192,156899,1,0,0:0:0:0:
329,192,156899,1,0,0:0:0:0:
109,192,157066,1,0,0:0:0:0:
329,192,157107,1,0,0:0:0:0:
182,192,157149,1,0,0:0:0:0:
402,192,157191,1,0,0:0:0:0:
36,192,157232,1,0,0:0:0:0:
256,192,157232,1,0,0:0:0:0:
475,192,157344,1,0,0:0:0:0:
109,192,157455,1,0,0:0:0:0:
329,192,157455,1,0,0:0:0:0:
402,192,157455,1,0,0:0:0:0:
182,192,157649,1,0,0:0:0:0:
402,192,157732,1,0,0:0:0:0:
329,192,157732,1,0,0:0:0:0:
109,192,157816,1,0,0:0:0:0:
402,192,157899,1,0,0:0:0:0:
329,192,157899,1,0,0:0:0:0:
109,192,157982,1,0,0:0:0:0:
402,192,158066,1,0,0:0:0:0:
329,192,158066,1,0,0:0:0:0:
182,192,158149,1,0,0:0:0:0:
475,192,158232,1,0,0:0:0:0:
36,192,158232,1,0,0:0:0:0:
109,192,158232,1,0,0:0:0:0:
402,192,158399,1,0,0:0:0:0:
329,192,158399,1,0,0:0:0:0:
109,192,158482,1,0,0:0:0:0:
182,192,158482,1,0,0:0:0:0:
475,192,158566,1,0,0:0:0:0:
402,192,158566,1,0,0:0:0:0:
36,192,158649,1,0,0:0:0:0:
182,192,158732,1,0,0:0:0:0:
36,192,158816,1,0,0:0:0:0:
402,192,158899,1,0,0:0:0:0:
475,192,158899,1,0,0:0:0:0:
256,192,158899,1,0,0:0:0:0:
109,192,159066,1,0,0:0:0:0:
402,192,159149,1,0,0:0:0:0:
182,192,159232,1,0,0:0:0:0:
109,192,159232,1,0,0:0:0:0:
402,192,159316,1,0,0:0:0:0:
329,192,159316,1,0,0:0:0:0:
109,192,159399,1,0,0:0:0:0:
182,192,159399,1,0,0:0:0:0:
329,192,159482,1,0,0:0:0:0:
402,192,159482,1,0,0:0:0:0:
36,192,159566,1,0,0:0:0:0:
109,192,159607,1,0,0:0:0:0:
182,192,159649,1,0,0:0:0:0:
256,192,159691,1,0,0:0:0:0:
402,192,159732,1,0,0:0:0:0:
109,192,159816,1,0,0:0:0:0:
475,192,159899,1,0,0:0:0:0:
402,192,159899,1,0,0:0:0:0:
182,192,159982,1,0,0:0:0:0:
475,192,160066,1,0,0:0:0:0:
402,192,160066,1,0,0:0:0:0:
182,192,160149,1,0,0:0:0:0:
109,192,160170,1,0,0:0:0:0:
36,192,160191,1,0,0:0:0:0:
475,192,160232,1,0,0:0:0:0:
402,192,160232,1,0,0:0:0:0:
329,192,160232,1,0,0:0:0:0:
109,192,160316,1,0,0:0:0:0:
182,192,160316,1,0,0:0:0:0:
256,192,160399,1,0,0:0:0:0:
475,192,160399,1,0,0:0:0:0:
36,192,160482,1,0,0:0:0:0:
329,192,160482,1,0,0:0:0:0:
402,192,160566,1,0,0:0:0:0:
109,192,160566,1,0,0:0:0:0:
329,192,160677,1,0,0:0:0:0:
182,192,160677,1,0,0:0:0:0:
402,192,160788,1,0,0:0:0:0:
109,192,160788,1,0,0:0:0:0:
475,192,160899,1,0,0:0:0:0:
256,192,160899,1,0,0:0:0:0:
36,192,160899,1,0,0:0:0:0:
402,192,160982,1,0,0:0:0:0:
109,192,160982,1,0,0:0:0:0:
182,192,161066,1,0,0:0:0:0:
256,192,161094,1,0,0:0:0:0:
329,192,161121,1,0,0:0:0:0:
36,192,161149,1,0,0:0:0:0:
109,192,161177,1,0,0:0:0:0:
182,192,161205,1,0,0:0:0:0:
475,192,161232,1,0,0:0:0:0:
402,192,161253,1,0,0:0:0:0:
329,192,161274,1,0,0:0:0:0:
256,192,161295,1,0,0:0:0:0:
36,192,161316,1,0,0:0:0:0:
475,192,161399,1,0,0:0:0:0:
402,192,161399,1,0,0:0:0:0:
182,192,161566,1,0,0:0:0:0:
109,192,161566,1,0,0:0:0:0:
36,192,161566,1,0,0:0:0:0:
256,192,161607,1,0,0:0:0:0:
329,192,161649,1,0,0:0:0:0:
475,192,161732,1,0,0:0:0:0:
109,192,161732,1,0,0:0:0:0:
402,192,161774,1,0,0:0:0:0:
329,192,161816,1,0,0:0:0:0:
256,192,161857,1,0,0:0:0:0:
36,192,161899,1,0,0:0:0:0:
182,192,161899,1,0,0:0:0:0:
475,192,161982,1,0,0:0:0:0:
329,192,161982,1,0,0:0:0:0:
36,192,162066,1,0,0:0:0:0:
182,192,162066,1,0,0:0:0:0:
475,192,162149,1,0,0:0:0:0:
329,192,162149,1,0,0:0:0:0:
182,192,162232,1,0,0:0:0:0:
36,192,162232,1,0,0:0:0:0:
182,192,162316,1,0,0:0:0:0:
36,192,162316,1,0,0:0:0:0:
475,192,162399,1,0,0:0:0:0:
329,192,162399,1,0,0:0:0:0:
475,192,162482,1,0,0:0:0:0:
329,192,162482,1,0,0:0:0:0:
109,192,162566,1,0,0:0:0:0:
182,192,162566,1,0,0:0:0:0:
402,192,162649,1,0,0:0:0:0:
182,192,162732,1,0,0:0:0:0:
109,192,162732,1,0,0:0:0:0:
402,192,162816,1,0,0:0:0:0:
475,192,162899,1,0,0:0:0:0:
256,192,162899,1,0,0:0:0:0:
36,192,162899,1,0,0:0:0:0:
109,192,163066,1,0,0:0:0:0:
182,192,163066,1,0,0:0:0:0:
402,192,163232,1,0,0:0:0:0:
329,192,163232,1,0,0:0:0:0:
182,192,163316,1,0,0:0:0:0:
329,192,163399,1,0,0:0:0:0:
182,192,163482,1,0,0:0:0:0:
475,192,163566,1,0,0:0:0:0:
402,192,163566,1,0,0:0:0:0:
36,192,163566,1,0,0:0:0:0:
329,192,163649,1,0,0:0:0:0:
109,192,163732,1,0,0:0:0:0:
182,192,163732,1,0,0:0:0:0:
402,192,163816,1,0,0:0:0:0:
329,192,163816,1,0,0:0:0:0:
109,192,163899,1,0,0:0:0:0:
36,192,163899,1,0,0:0:0:0:
256,192,163982,1,0,0:0:0:0:
475,192,164066,1,0,0:0:0:0:
329,192,164149,1,0,0:0:0:0:
36,192,164232,1,0,0:0:0:0:
182,192,164288,1,0,0:0:0:0:
329,192,164344,1,0,0:0:0:0:
475,192,164399,1,0,0:0:0:0:
402,192,164455,1,0,0:0:0:0:
329,192,164510,1,0,0:0:0:0:
36,192,164566,1,0,0:0:0:0:
109,192,164607,1,0,0:0:0:0:
182,192,164649,1,0,0:0:0:0:
256,192,164691,1,0,0:0:0:0:
329,192,164732,1,0,0:0:0:0:
402,192,164774,1,0,0:0:0:0:
475,192,164816,1,0,0:0:0:0:
36,192,164857,1,0,0:0:0:0:
109,192,164899,1,0,0:0:0:0:
182,192,164941,1,0,0:0:0:0:
256,192,164982,1,0,0:0:0:0:
329,192,165024,1,0,0:0:0:0:
402,192,165066,1,0,0:0:0:0:
475,192,165107,1,0,0:0:0:0:
36,192,165149,1,0,0:0:0:0:
109,192,165191,1,0,0:0:0:0:
182,192,165232,1,0,0:0:0:0:
402,192,165232,1,0,0:0:0:0:
402,192,165399,1,0,0:0:0:0:
182,192,165566,1,0,0:0:0:0:
402,192,165566,1,0,0:0:0:0:
402,192,165732,1,0,0:0:0:0:
329,192,165816,1,0,0:0:0:0:
182,192,165899,1,0,0:0:0:0:
402,192,165899,1,0,0:0:0:0:
109,192,165982,1,0,0:0:0:0:
402,192,166066,1,0,0:0:0:0:
329,192,166149,1,0,0:0:0:0:
36,192,166232,1,0,0:0:0:0:
109,192,166232,1,0,0:0:0:0:
402,192,166316,1,0,0:0:0:0:
475,192,166399,1,0,0:0:0:0:
109,192,166482,1,0,0:0:0:0:
182,192,166503,1,0,0:0:0:0:
402,192,166566,1,0,0:0:0:0:
329,192,166566,1,0,0:0:0:0:
402,192,166732,1,0,0:0:0:0:
329,192,166732,1,0,0:0:0:0:
36,192,166899,1,0,0:0:0:0:
109,192,166899,1,0,0:0:0:0:
182,192,166899,1,0,0:0:0:0:
402,192,167066,1,0,0:0:0:0:
36,192,167149,1,0,0:0:0:0:
475,192,167232,1,0,0:0:0:0:
256,192,167232,1,0,0:0:0:0:
36,192,167316,1,0,0:0:0:0:
182,192,167316,1,0,0:0:0:0:
475,192,167399,1,0,0:0:0:0:
329,192,167399,1,0,0:0:0:0:
36,192,167482,1,0,0:0:0:0:
256,192,167482,1,0,0:0:0:0:
475,192,167566,1,0,0:0:0:0:
402,192,167566,1,0,0:0:0:0:
329,192,167566,1,0,0:0:0:0:
109,192,167732,1,0,0:0:0:0:
182,192,167760,1,0,0:0:0:0:
256,192,167788,1,0,0:0:0:0:
329,192,167816,1,0,0:0:0:0:
402,192,167844,1,0,0:0:0:0:
475,192,167871,1,0,0:0:0:0:
36,192,167899,1,0,0:0:0:0:
109,192,167899,1,0,0:0:0:0:
36,192,168066,1,0,0:0:0:0:
36,192,168232,1,0,0:0:0:0:
36,192,168399,1,0,0:0:0:0:
36,192,168566,1,0,0:0:0:0:
36,192,168732,1,0,0:0:0:0:
329,192,168899,1,0,0:0:0:0:
36,192,168899,1,0,0:0:0:0:
36,192,169066,1,0,0:0:0:0:
475,192,169232,1,0,0:0:0:0:
402,192,169232,1,0,0:0:0:0:
36,192,169232,1,0,0:0:0:0:
36,192,169399,1,0,0:0:0:0:
36,192,169566,1,0,0:0:0:0:
36,192,169732,1,0,0:0:0:0:
36,192,169899,1,0,0:0:0:0:
329,192,170066,1,0,0:0:0:0:
36,192,170066,1,0,0:0:0:0:
36,192,170232,1,0,0:0:0:0:
36,192,170399,1,0,0:0:0:0:
329,192,170399,1,0,0:0:0:0:
109,192,170482,1,0,0:0:0:0:
402,192,170482,1,0,0:0:0:0:
475,192,170566,1,0,0:0:0:0:
182,192,170566,1,0,0:0:0:0:
475,192,170732,1,0,0:0:0:0:
475,192,170899,1,0,0:0:0:0:
475,192,171066,1,0,0:0:0:0:
475,192,171232,1,0,0:0:0:0:
475,192,171399,1,0,0:0:0:0:
475,192,171566,1,0,0:0:0:0:
475,192,171732,1,0,0:0:0:0:
475,192,171899,1,0,0:0:0:0:
475,192,172066,1,0,0:0:0:0:
475,192,172232,1,0,0:0:0:0:
475,192,172399,1,0,0:0:0:0:
475,192,172566,1,0,0:0:0:0:
329,192,172649,1,0,0:0:0:0:
36,192,172732,1,0,0:0:0:0:
182,192,172816,1,0,0:0:0:0:
475,192,172899,1,0,0:0:0:0:
402,192,172927,1,0,0:0:0:0:
329,192,172955,1,0,0:0:0:0:
36,192,172982,1,0,0:0:0:0:
109,192,173010,1,0,0:0:0:0:
182,192,173038,1,0,0:0:0:0:
475,192,173066,1,0,0:0:0:0:
402,192,173094,1,0,0:0:0:0:
329,192,173121,1,0,0:0:0:0:
36,192,173149,1,0,0:0:0:0:
109,192,173149,1,0,0:0:0:0:
475,192,173232,1,0,0:0:0:0:
402,192,173232,1,0,0:0:0:0:
182,192,173232,1,0,0:0:0:0:
256,192,173232,1,0,0:0:0:0:
109,192,173399,1,0,0:0:0:0:
402,192,173482,1,0,0:0:0:0:
329,192,173566,1,0,0:0:0:0:
182,192,173566,1,0,0:0:0:0:
36,192,173566,1,0,0:0:0:0:
475,192,173649,1,0,0:0:0:0:
182,192,173732,1,0,0:0:0:0:
36,192,173732,1,0,0:0:0:0:
36,192,173899,1,0,0:0:0:0:
182,192,173899,1,0,0:0:0:0:
402,192,174066,1,0,0:0:0:0:
256,192,174149,1,0,0:0:0:0:
475,192,174232,1,0,0:0:0:0:
182,192,174232,1,0,0:0:0:0:
36,192,174232,1,0,0:0:0:0:
329,192,174316,1,0,0:0:0:0:
109,192,174399,1,0,0:0:0:0:
182,192,174441,1,0,0:0:0:0:
256,192,174482,1,0,0:0:0:0:
329,192,174524,1,0,0:0:0:0:
109,192,174566,1,0,0:0:0:0:
36,192,174566,1,0,0:0:0:0:
402,192,174566,1,0,0:0:0:0:
475,192,174566,1,0,0:0:0:0:
256,192,174649,1,0,0:0:0:0:
475,192,174732,1,0,0:0:0:0:
182,192,174732,1,0,0:0:0:0:
109,192,174732,1,0,0:0:0:0:
36,192,174732,1,0,0:0:0:0:
329,192,174816,1,0,0:0:0:0:
256,192,174899,1,0,0:0:0:0:
402,192,174899,1,0,0:0:0:0:
109,192,174899,1,0,0:0:0:0:
36,192,174899,1,0,0:0:0:0:
402,192,175066,1,0,0:0:0:0:
475,192,175066,1,0,0:0:0:0:
109,192,175066,1,0,0:0:0:0:
182,192,175066,1,0,0:0:0:0:
256,192,175149,1,0,0:0:0:0:
109,192,175232,1,0,0:0:0:0:
402,192,175232,1,0,0:0:0:0:
329,192,175232,1,0,0:0:0:0:
36,192,175232,1,0,0:0:0:0:
182,192,175316,1,0,0:0:0:0:
475,192,175399,1,0,0:0:0:0:
36,192,175399,1,0,0:0:0:0:
256,192,175399,1,0,0:0:0:0:
402,192,175399,1,0,0:0:0:0:
402,192,175566,1,0,0:0:0:0:
475,192,175566,1,0,0:0:0:0:
109,192,175566,1,0,0:0:0:0:
256,192,175566,1,0,0:0:0:0:
329,192,175899,1,0,0:0:0:0:
475,192,175899,1,0,0:0:0:0:
36,192,175899,1,0,0:0:0:0:
182,192,175899,1,0,0:0:0:0:
256,192,175982,1,0,0:0:0:0:
109,192,176066,1,0,0:0:0:0:
256,192,176149,1,0,0:0:0:0:
475,192,176232,1,0,0:0:0:0:
402,192,176232,1,0,0:0:0:0:
329,192,176232,1,0,0:0:0:0:
109,192,176316,1,0,0:0:0:0:
256,192,176399,1,0,0:0:0:0:
109,192,176482,1,0,0:0:0:0:
36,192,176482,1,0,0:0:0:0:
182,192,176482,1,0,0:0:0:0:
475,192,176566,1,0,0:0:0:0:
402,192,176566,1,0,0:0:0:0:
256,192,176649,1,0,0:0:0:0:
402,192,176732,1,0,0:0:0:0:
36,192,176816,1,0,0:0:0:0:
109,192,176837,1,0,0:0:0:0:
182,192,176857,1,0,0:0:0:0:
475,192,176899,1,0,0:0:0:0:
402,192,176899,1,0,0:0:0:0:
329,192,176899,1,0,0:0:0:0:
36,192,176982,1,0,0:0:0:0:
109,192,176982,1,0,0:0:0:0:
475,192,177066,1,0,0:0:0:0:
402,192,177107,1,0,0:0:0:0:
329,192,177149,1,0,0:0:0:0:
256,192,177191,1,0,0:0:0:0:
36,192,177232,1,0,0:0:0:0:
182,192,177232,1,0,0:0:0:0:
402,192,177316,1,0,0:0:0:0:
36,192,177399,1,0,0:0:0:0:
182,192,177399,1,0,0:0:0:0:
402,192,177482,1,0,0:0:0:0:
475,192,177566,1,0,0:0:0:0:
109,192,177566,1,0,0:0:0:0:
256,192,177566,1,0,0:0:0:0:
329,192,177732,1,0,0:0:0:0:
182,192,177732,1,0,0:0:0:0:
402,192,177899,1,0,0:0:0:0:
329,192,177927,1,0,0:0:0:0:
256,192,177955,1,0,0:0:0:0:
182,192,177982,1,0,0:0:0:0:
109,192,178010,1,0,0:0:0:0:
36,192,178038,1,0,0:0:0:0:
475,192,178066,1,0,0:0:0:0:
402,192,178149,1,0,0:0:0:0:
329,192,178191,1,0,0:0:0:0:
256,192,178232,1,0,0:0:0:0:
36,192,178232,1,0,0:0:0:0:
109,192,178232,1,0,0:0:0:0:
475,192,178316,1,0,0:0:0:0:
182,192,178399,1,0,0:0:0:0:
182,192,178482,1,0,0:0:0:0:
36,192,178566,1,0,0:0:0:0:
109,192,178566,1,0,0:0:0:0:
329,192,178566,1,0,0:0:0:0:
475,192,178566,1,0,0:0:0:0:
256,192,178649,1,0,0:0:0:0:
256,192,178816,1,0,0:0:0:0:
36,192,178899,1,0,0:0:0:0:
475,192,178899,1,0,0:0:0:0:
329,192,178899,1,0,0:0:0:0:
182,192,178982,1,0,0:0:0:0:
402,192,179087,1,0,0:0:0:0:
329,192,179107,1,0,0:0:0:0:
109,192,179191,1,0,0:0:0:0:
475,192,179232,1,0,0:0:0:0:
182,192,179232,1,0,0:0:0:0:
329,192,179399,1,0,0:0:0:0:
402,192,179420,1,0,0:0:0:0:
182,192,179482,1,0,0:0:0:0:
109,192,179503,1,0,0:0:0:0:
329,192,179587,1,0,0:0:0:0:
402,192,179607,1,0,0:0:0:0:
109,192,179649,1,0,0:0:0:0:
182,192,179670,1,0,0:0:0:0:
256,192,179816,1,0,0:0:0:0:
329,192,179857,1,0,0:0:0:0:
402,192,179899,1,0,0:0:0:0:
475,192,179899,1,0,0:0:0:0:
109,192,179920,1,0,0:0:0:0:
182,192,179941,1,0,0:0:0:0:
475,192,180066,1,0,0:0:0:0:
402,192,180066,1,0,0:0:0:0:
109,192,180087,1,0,0:0:0:0:
182,192,180107,1,0,0:0:0:0:
402,192,180232,1,0,0:0:0:0:
475,192,180232,1,0,0:0:0:0:
182,192,180316,1,0,0:0:0:0:
109,192,180337,1,0,0:0:0:0:
36,192,180357,1,0,0:0:0:0:
402,192,180399,1,0,0:0:0:0:
475,192,180399,1,0,0:0:0:0:
329,192,180441,1,0,0:0:0:0:
256,192,180482,1,0,0:0:0:0:
182,192,180524,1,0,0:0:0:0:
402,192,180566,1,0,0:0:0:0:
36,192,180566,1,0,0:0:0:0:
109,192,180566,1,0,0:0:0:0:
256,192,180649,1,0,0:0:0:0:
475,192,180732,1,0,0:0:0:0:
402,192,180760,1,0,0:0:0:0:
329,192,180788,1,0,0:0:0:0:
182,192,180844,1,0,0:0:0:0:
109,192,180871,1,0,0:0:0:0:
36,192,180899,1,0,0:0:0:0:
475,192,180899,1,0,0:0:0:0:
402,192,180920,1,0,0:0:0:0:
329,192,180941,1,0,0:0:0:0:
182,192,180982,1,0,0:0:0:0:
109,192,181003,1,0,0:0:0:0:
36,192,181024,1,0,0:0:0:0:
329,192,181066,1,0,0:0:0:0:
402,192,181087,1,0,0:0:0:0:
109,192,181149,1,0,0:0:0:0:
182,192,181170,1,0,0:0:0:0:
402,192,181232,1,0,0:0:0:0:
329,192,181232,1,0,0:0:0:0:
182,192,181316,1,0,0:0:0:0:
402,192,181399,1,0,0:0:0:0:
329,192,181399,1,0,0:0:0:0:
109,192,181482,1,0,0:0:0:0:
475,192,181566,1,0,0:0:0:0:
402,192,181566,1,0,0:0:0:0:
182,192,181566,1,0,0:0:0:0:
329,192,181649,1,0,0:0:0:0:
36,192,181649,1,0,0:0:0:0:
182,192,181732,1,0,0:0:0:0:
109,192,181732,1,0,0:0:0:0:
329,192,181816,1,0,0:0:0:0:
402,192,181816,1,0,0:0:0:0:
109,192,181899,1,0,0:0:0:0:
36,192,181899,1,0,0:0:0:0:
329,192,181982,1,0,0:0:0:0:
109,192,182066,1,0,0:0:0:0:
329,192,182149,1,0,0:0:0:0:
475,192,182232,1,0,0:0:0:0:
182,192,182232,1,0,0:0:0:0:
36,192,182316,1,0,0:0:0:0:
109,192,182337,1,0,0:0:0:0:
475,192,182399,1,0,0:0:0:0:
402,192,182399,1,0,0:0:0:0:
329,192,182399,1,0,0:0:0:0:
256,192,182566,1,0,0:0:0:0:
109,192,182566,1,0,0:0:0:0:
36,192,182566,1,0,0:0:0:0:
475,192,182649,1,0,0:0:0:0:
402,192,182677,1,0,0:0:0:0:
329,192,182705,1,0,0:0:0:0:
36,192,182732,1,0,0:0:0:0:
109,192,182732,1,0,0:0:0:0:
475,192,182816,1,0,0:0:0:0:
402,192,182837,1,0,0:0:0:0:
329,192,182857,1,0,0:0:0:0:
256,192,182878,1,0,0:0:0:0:
36,192,182899,1,0,0:0:0:0:
109,192,182899,1,0,0:0:0:0:
182,192,182899,1,0,0:0:0:0:
329,192,183066,1,0,0:0:0:0:
475,192,183066,1,0,0:0:0:0:
402,192,183066,1,0,0:0:0:0:
182,192,183149,1,0,0:0:0:0:
475,192,183232,1,0,0:0:0:0:
402,192,183232,1,0,0:0:0:0:
256,192,183316,1,0,0:0:0:0:
36,192,183316,1,0,0:0:0:0:
109,192,183316,1,0,0:0:0:0:
475,192,183399,1,0,0:0:0:0:
402,192,183399,1,0,0:0:0:0:
36,192,183482,1,0,0:0:0:0:
109,192,183482,1,0,0:0:0:0:
329,192,183566,1,0,0:0:0:0:
475,192,183566,1,0,0:0:0:0:
402,192,183566,1,0,0:0:0:0:
182,192,183649,1,0,0:0:0:0:
109,192,183649,1,0,0:0:0:0:
36,192,183732,1,0,0:0:0:0:
475,192,183732,1,0,0:0:0:0:
402,192,183774,1,0,0:0:0:0:
329,192,183816,1,0,0:0:0:0:
256,192,183857,1,0,0:0:0:0:
475,192,183899,1,0,0:0:0:0:
36,192,183899,1,0,0:0:0:0:
182,192,183899,1,0,0:0:0:0:
402,192,183982,1,0,0:0:0:0:
109,192,184066,1,0,0:0:0:0:
329,192,184149,1,0,0:0:0:0:
475,192,184232,1,0,0:0:0:0:
182,192,184232,1,0,0:0:0:0:
36,192,184232,1,0,0:0:0:0:
256,192,184316,1,0,0:0:0:0:
402,192,184399,1,0,0:0:0:0:
329,192,184399,1,0,0:0:0:0:
109,192,184566,1,0,0:0:0:0:
182,192,184566,1,0,0:0:0:0:
329,192,184649,1,0,0:0:0:0:
109,192,184732,1,0,0:0:0:0:
329,192,184816,1,0,0:0:0:0:
402,192,184857,1,0,0:0:0:0:
36,192,184899,1,0,0:0:0:0:
182,192,184899,1,0,0:0:0:0:
475,192,184899,1,0,0:0:0:0:
329,192,185066,1,0,0:0:0:0:
109,192,185149,1,0,0:0:0:0:
402,192,185232,1,0,0:0:0:0:
182,192,185232,1,0,0:0:0:0:
256,192,185232,1,0,0:0:0:0:
475,192,185232,1,0,0:0:0:0:
36,192,185316,1,0,0:0:0:0:
329,192,185399,1,0,0:0:0:0:
109,192,185482,1,0,0:0:0:0:
475,192,185566,1,0,0:0:0:0:
256,192,185566,1,0,0:0:0:0:
36,192,185649,1,0,0:0:0:0:
182,192,185732,1,0,0:0:0:0:
109,192,185816,1,0,0:0:0:0:
475,192,185899,1,0,0:0:0:0:
402,192,185899,1,0,0:0:0:0:
329,192,185899,1,0,0:0:0:0:
182,192,186066,1,0,0:0:0:0:
36,192,186149,1,0,0:0:0:0:
475,192,186232,1,0,0:0:0:0:
109,192,186316,1,0,0:0:0:0:
182,192,186316,1,0,0:0:0:0:
475,192,186399,1,0,0:0:0:0:
402,192,186399,1,0,0:0:0:0:
329,192,186399,1,0,0:0:0:0:
256,192,186566,1,0,0:0:0:0:
182,192,186566,1,0,0:0:0:0:
36,192,186566,1,0,0:0:0:0:
109,192,186566,1,0,0:0:0:0:
475,192,186732,1,0,0:0:0:0:
329,192,186816,1,0,0:0:0:0:
36,192,186899,1,0,0:0:0:0:
182,192,186899,1,0,0:0:0:0:
475,192,186899,1,0,0:0:0:0:
256,192,187066,1,0,0:0:0:0:
36,192,187149,1,0,0:0:0:0:
109,192,187170,1,0,0:0:0:0:
182,192,187191,1,0,0:0:0:0:
475,192,187232,1,0,0:0:0:0:
329,192,187232,1,0,0:0:0:0:
256,192,187316,1,0,0:0:0:0:
475,192,187399,1,0,0:0:0:0:
329,192,187399,1,0,0:0:0:0:
36,192,187482,1,0,0:0:0:0:
109,192,187482,1,0,0:0:0:0:
475,192,187566,1,0,0:0:0:0:
402,192,187566,1,0,0:0:0:0:
256,192,187566,1,0,0:0:0:0:
182,192,187649,1,0,0:0:0:0:
109,192,187732,1,0,0:0:0:0:
329,192,187816,1,0,0:0:0:0:
182,192,187899,1,0,0:0:0:0:
402,192,187899,1,0,0:0:0:0:
36,192,187899,1,0,0:0:0:0:
475,192,187899,1,0,0:0:0:0:
256,192,187982,1,0,0:0:0:0:
182,192,188066,1,0,0:0:0:0:
256,192,188149,1,0,0:0:0:0:
36,192,188232,1,0,0:0:0:0:
475,192,188232,1,0,0:0:0:0:
329,192,188232,1,0,0:0:0:0:
109,192,188274,1,0,0:0:0:0:
182,192,188316,1,0,0:0:0:0:
475,192,188399,1,0,0:0:0:0:
402,192,188399,1,0,0:0:0:0:
329,192,188482,1,0,0:0:0:0:
475,192,188566,1,0,0:0:0:0:
402,192,188566,1,0,0:0:0:0:
109,192,188732,1,0,0:0:0:0:
36,192,188732,1,0,0:0:0:0:
256,192,188816,1,0,0:0:0:0:
182,192,188816,1,0,0:0:0:0:
329,192,188899,1,0,0:0:0:0:
475,192,188899,1,0,0:0:0:0:
402,192,188899,1,0,0:0:0:0:
36,192,189066,1,0,0:0:0:0:
109,192,189107,1,0,0:0:0:0:
182,192,189149,1,0,0:0:0:0:
256,192,189191,1,0,0:0:0:0:
36,192,189232,1,0,0:0:0:0:
402,192,189232,1,0,0:0:0:0:
475,192,189232,1,0,0:0:0:0:
329,192,189232,1,0,0:0:0:0:
109,192,189316,1,0,0:0:0:0:
475,192,189399,1,0,0:0:0:0:
36,192,189399,1,0,0:0:0:0:
402,192,189482,1,0,0:0:0:0:
109,192,189566,1,0,0:0:0:0:
182,192,189566,1,0,0:0:0:0:
475,192,189566,1,0,0:0:0:0:
329,192,189649,1,0,0:0:0:0:
36,192,189732,1,0,0:0:0:0:
109,192,189732,1,0,0:0:0:0:
402,192,189816,1,0,0:0:0:0:
182,192,189899,1,0,0:0:0:0:
256,192,189899,1,0,0:0:0:0:
475,192,189982,1,0,0:0:0:0:
109,192,190066,1,0,0:0:0:0:
182,192,190066,1,0,0:0:0:0:
402,192,190149,1,0,0:0:0:0:
329,192,190232,1,0,0:0:0:0:
109,192,190232,1,0,0:0:0:0:
36,192,190232,1,0,0:0:0:0:
256,192,190399,1,0,0:0:0:0:
329,192,190566,1,0,0:0:0:0:
475,192,190566,1,0,0:0:0:0:
36,192,190566,1,0,0:0:0:0:
182,192,190566,1,0,0:0:0:0:
475,192,191899,1,0,0:0:0:0:
182,192,191899,1,0,0:0:0:0:
36,192,191899,1,0,0:0:0:0:
329,192,191982,1,0,0:0:0:0:
475,192,192066,1,0,0:0:0:0:
329,192,192149,1,0,0:0:0:0:
36,192,192232,1,0,0:0:0:0:
109,192,192232,1,0,0:0:0:0:
182,192,192232,1,0,0:0:0:0:
256,192,192316,1,0,0:0:0:0:
475,192,192399,1,0,0:0:0:0:
329,192,192482,1,0,0:0:0:0:
475,192,192566,1,0,0:0:0:0:
36,192,192566,1,0,0:0:0:0:
182,192,192649,1,0,0:0:0:0:
36,192,192732,1,0,0:0:0:0:
182,192,192816,1,0,0:0:0:0:
475,192,192899,1,0,0:0:0:0:
402,192,192899,1,0,0:0:0:0:
329,192,192899,1,0,0:0:0:0:
109,192,193066,1,0,0:0:0:0:
182,192,193094,1,0,0:0:0:0:
256,192,193121,1,0,0:0:0:0:
329,192,193149,1,0,0:0:0:0:
402,192,193177,1,0,0:0:0:0:
475,192,193205,1,0,0:0:0:0:
36,192,193232,1,0,0:0:0:0:
109,192,193232,1,0,0:0:0:0:
329,192,193316,1,0,0:0:0:0:
182,192,193399,1,0,0:0:0:0:
402,192,193482,1,0,0:0:0:0:
475,192,193566,1,0,0:0:0:0:
256,192,193566,1,0,0:0:0:0:
36,192,193566,1,0,0:0:0:0:
182,192,193732,1,0,0:0:0:0:
402,192,193816,1,0,0:0:0:0:
329,192,193816,1,0,0:0:0:0:
109,192,193899,1,0,0:0:0:0:
182,192,193899,1,0,0:0:0:0:
475,192,193982,1,0,0:0:0:0:
256,192,194066,1,0,0:0:0:0:
475,192,194149,1,0,0:0:0:0:
402,192,194149,1,0,0:0:0:0:
36,192,194232,1,0,0:0:0:0:
109,192,194232,1,0,0:0:0:0:
182,192,194232,1,0,0:0:0:0:
256,192,194316,1,0,0:0:0:0:
329,192,194399,1,0,0:0:0:0:
475,192,194441,1,0,0:0:0:0:
36,192,194482,1,0,0:0:0:0:
182,192,194524,1,0,0:0:0:0:
402,192,194566,1,0,0:0:0:0:
329,192,194566,1,0,0:0:0:0:
475,192,194649,1,0,0:0:0:0:
109,192,194732,1,0,0:0:0:0:
256,192,194816,1,0,0:0:0:0:
402,192,194899,1,0,0:0:0:0:
475,192,194899,1,0,0:0:0:0:
329,192,194899,1,0,0:0:0:0:
109,192,194982,1,0,0:0:0:0:
36,192,195066,1,0,0:0:0:0:
402,192,195149,1,0,0:0:0:0:
109,192,195232,1,0,0:0:0:0:
182,192,195232,1,0,0:0:0:0:
256,192,195316,1,0,0:0:0:0:
475,192,195399,1,0,0:0:0:0:
329,192,195482,1,0,0:0:0:0:
182,192,195566,1,0,0:0:0:0:
109,192,195566,1,0,0:0:0:0:
36,192,195566,1,0,0:0:0:0:
475,192,195732,1,0,0:0:0:0:
402,192,195774,1,0,0:0:0:0:
182,192,195816,1,0,0:0:0:0:
109,192,195857,1,0,0:0:0:0:
475,192,195899,1,0,0:0:0:0:
256,192,195899,1,0,0:0:0:0:
36,192,195899,1,0,0:0:0:0:
329,192,195982,1,0,0:0:0:0:
182,192,196066,1,0,0:0:0:0:
109,192,196149,1,0,0:0:0:0:
329,192,196232,1,0,0:0:0:0:
475,192,196232,1,0,0:0:0:0:
36,192,196232,1,0,0:0:0:0:
402,192,196399,1,0,0:0:0:0:
475,192,196399,1,0,0:0:0:0:
256,192,196399,1,0,0:0:0:0:
182,192,196482,1,0,0:0:0:0:
36,192,196566,1,0,0:0:0:0:
109,192,196566,1,0,0:0:0:0:
475,192,196649,1,0,0:0:0:0:
402,192,196649,1,0,0:0:0:0:
256,192,196649,1,0,0:0:0:0:
182,192,196732,1,0,0:0:0:0:
36,192,196816,1,0,0:0:0:0:
109,192,196816,1,0,0:0:0:0:
256,192,196899,1,0,0:0:0:0:
475,192,196899,1,0,0:0:0:0:
402,192,196899,1,0,0:0:0:0:
109,192,197066,1,0,0:0:0:0:
36,192,197066,1,0,0:0:0:0:
402,192,197232,1,0,0:0:0:0:
109,192,197232,1,0,0:0:0:0:
36,192,197232,1,0,0:0:0:0:
182,192,197399,1,0,0:0:0:0:
256,192,197482,1,0,0:0:0:0:
475,192,197566,1,0,0:0:0:0:
329,192,197566,1,0,0:0:0:0:
36,192,197566,1,0,0:0:0:0:
256,192,197732,1,0,0:0:0:0:
182,192,197732,1,0,0:0:0:0:
402,192,197816,1,0,0:0:0:0:
329,192,197816,1,0,0:0:0:0:
182,192,197899,1,0,0:0:0:0:
475,192,197899,1,0,0:0:0:0:
36,192,197899,1,0,0:0:0:0:
329,192,198066,1,0,0:0:0:0:
256,192,198149,1,0,0:0:0:0:
475,192,198232,1,0,0:0:0:0:
109,192,198232,1,0,0:0:0:0:
182,192,198232,1,0,0:0:0:0:
402,192,198399,1,0,0:0:0:0:
329,192,198399,1,0,0:0:0:0:
36,192,198482,1,0,0:0:0:0:
109,192,198482,1,0,0:0:0:0:
182,192,198566,1,0,0:0:0:0:
402,192,198566,1,0,0:0:0:0:
329,192,198566,1,0,0:0:0:0:
475,192,198649,1,0,0:0:0:0:
182,192,198732,1,0,0:0:0:0:
109,192,198816,1,0,0:0:0:0:
475,192,198899,1,0,0:0:0:0:
402,192,198899,1,0,0:0:0:0:
329,192,198899,1,0,0:0:0:0:
109,192,199066,1,0,0:0:0:0:
36,192,199066,1,0,0:0:0:0:
182,192,199149,1,0,0:0:0:0:
475,192,199232,1,0,0:0:0:0:
329,192,199232,1,0,0:0:0:0:
109,192,199316,1,0,0:0:0:0:
402,192,199399,1,0,0:0:0:0:
36,192,199482,1,0,0:0:0:0:
109,192,199482,1,0,0:0:0:0:
475,192,199566,1,0,0:0:0:0:
402,192,199566,1,0,0:0:0:0:
329,192,199566,1,0,0:0:0:0:
109,192,199732,1,0,0:0:0:0:
256,192,199732,1,0,0:0:0:0:
256,192,199899,1,0,0:0:0:0:
109,192,199899,1,0,0:0:0:0:
256,192,200066,1,0,0:0:0:0:
109,192,200232,1,0,0:0:0:0:
256,192,200232,1,0,0:0:0:0:
256,192,200399,1,0,0:0:0:0:
256,192,200566,1,0,0:0:0:0:
109,192,200566,1,0,0:0:0:0:
256,192,200732,1,0,0:0:0:0:
256,192,200899,1,0,0:0:0:0:
329,192,200941,1,0,0:0:0:0:
402,192,200982,1,0,0:0:0:0:
475,192,201024,1,0,0:0:0:0:
36,192,201066,1,0,0:0:0:0:
109,192,201107,1,0,0:0:0:0:
182,192,201149,1,0,0:0:0:0:
256,192,201191,1,0,0:0:0:0:
36,192,201232,1,0,0:0:0:0:
475,192,201232,1,0,0:0:0:0:
329,192,201232,1,0,0:0:0:0:
475,192,201482,1,0,0:0:0:0:
329,192,201482,1,0,0:0:0:0:
109,192,201482,1,0,0:0:0:0:
109,192,201566,1,0,0:0:0:0:
475,192,201566,1,0,0:0:0:0:
329,192,201566,1,0,0:0:0:0:
475,192,201732,1,0,0:0:0:0:
402,192,201732,1,0,0:0:0:0:
182,192,201732,1,0,0:0:0:0:
475,192,201982,1,0,0:0:0:0:
256,192,201982,1,0,0:0:0:0:
109,192,202024,1,0,0:0:0:0:
36,192,202024,1,0,0:0:0:0:
475,192,202232,1,0,0:0:0:0:
402,192,202232,1,0,0:0:0:0:
182,192,202232,1,0,0:0:0:0:
329,192,202482,1,0,0:0:0:0:
402,192,202482,1,0,0:0:0:0:
109,192,202482,1,0,0:0:0:0:
329,192,202732,1,0,0:0:0:0:
256,192,202732,1,0,0:0:0:0:
36,192,202732,1,0,0:0:0:0:
36,192,202982,1,0,0:0:0:0:
329,192,202982,1,0,0:0:0:0:
256,192,202982,1,0,0:0:0:0:
475,192,203121,1,0,0:0:0:0:
402,192,203121,1,0,0:0:0:0:
256,192,203232,1,0,0:0:0:0:
109,192,203232,1,0,0:0:0:0:
36,192,203232,1,0,0:0:0:0:
329,192,203482,1,0,0:0:0:0:
182,192,203482,1,0,0:0:0:0:
109,192,203482,1,0,0:0:0:0:
475,192,203621,1,0,0:0:0:0:
402,192,203621,1,0,0:0:0:0:
182,192,203732,1,0,0:0:0:0:
109,192,203732,1,0,0:0:0:0:
36,192,203732,1,0,0:0:0:0:
402,192,203844,1,0,0:0:0:0:
475,192,203844,1,0,0:0:0:0:
329,192,203844,1,0,0:0:0:0:
36,192,203982,1,0,0:0:0:0:
109,192,203982,1,0,0:0:0:0:
256,192,203982,1,0,0:0:0:0:
475,192,204232,1,0,0:0:0:0:
329,192,204232,1,0,0:0:0:0:
182,192,204232,1,0,0:0:0:0:
36,192,204399,1,0,0:0:0:0:
109,192,204399,1,0,0:0:0:0:
36,192,204566,1,0,0:0:0:0:
109,192,204566,1,0,0:0:0:0:
402,192,204649,1,0,0:0:0:0:
256,192,204732,1,0,0:0:0:0:
475,192,204816,1,0,0:0:0:0:
329,192,204899,1,0,0:0:0:0:
182,192,204899,1,0,0:0:0:0:
36,192,204899,1,0,0:0:0:0:
475,192,205066,1,0,0:0:0:0:
402,192,205066,1,0,0:0:0:0:
36,192,205149,1,0,0:0:0:0:
182,192,205149,1,0,0:0:0:0:
475,192,205232,1,0,0:0:0:0:
329,192,205232,1,0,0:0:0:0:
475,192,205399,1,0,0:0:0:0:
329,192,205399,1,0,0:0:0:0:
256,192,205566,1,0,0:0:0:0:
109,192,205566,1,0,0:0:0:0:
36,192,205566,1,0,0:0:0:0:
402,192,205649,1,0,0:0:0:0:
182,192,205732,1,0,0:0:0:0:
329,192,205816,1,0,0:0:0:0:
256,192,205899,1,0,0:0:0:0:
402,192,205982,1,0,0:0:0:0:
182,192,206066,1,0,0:0:0:0:
329,192,206149,1,0,0:0:0:0:
36,192,206232,1,0,0:0:0:0:
109,192,206274,1,0,0:0:0:0:
182,192,206316,1,0,0:0:0:0:
402,192,206399,1,0,0:0:0:0:
329,192,206399,1,0,0:0:0:0:
256,192,206566,1,0,0:0:0:0:
36,192,206566,1,0,0:0:0:0:
109,192,206566,1,0,0:0:0:0:
402,192,206732,1,0,0:0:0:0:
182,192,206816,1,0,0:0:0:0:
109,192,206899,1,0,0:0:0:0:
36,192,206899,1,0,0:0:0:0:
402,192,206899,1,0,0:0:0:0:
329,192,207066,1,0,0:0:0:0:
402,192,207149,1,0,0:0:0:0:
36,192,207232,1,0,0:0:0:0:
182,192,207232,1,0,0:0:0:0:
329,192,207316,1,0,0:0:0:0:
256,192,207399,1,0,0:0:0:0:
36,192,207399,1,0,0:0:0:0:
475,192,207482,1,0,0:0:0:0:
329,192,207482,1,0,0:0:0:0:
36,192,207566,1,0,0:0:0:0:
109,192,207566,1,0,0:0:0:0:
182,192,207566,1,0,0:0:0:0:
256,192,207632,1,0,0:0:0:0:
329,192,207699,1,0,0:0:0:0:
402,192,207766,1,0,0:0:0:0:
475,192,207832,1,0,0:0:0:0:
182,192,207899,1,0,0:0:0:0:
36,192,207899,1,0,0:0:0:0:
475,192,208066,1,0,0:0:0:0:
329,192,208066,1,0,0:0:0:0:
182,192,208149,1,0,0:0:0:0:
402,192,208232,1,0,0:0:0:0:
36,192,208232,1,0,0:0:0:0:
109,192,208232,1,0,0:0:0:0:
329,192,208316,1,0,0:0:0:0:
182,192,208399,1,0,0:0:0:0:
36,192,208482,1,0,0:0:0:0:
109,192,208482,1,0,0:0:0:0:
402,192,208566,1,0,0:0:0:0:
475,192,208566,1,0,0:0:0:0:
182,192,208649,1,0,0:0:0:0:
329,192,208649,1,0,0:0:0:0:
109,192,208732,1,0,0:0:0:0:
36,192,208732,1,0,0:0:0:0:
475,192,208816,1,0,0:0:0:0:
402,192,208816,1,0,0:0:0:0:
36,192,208899,1,0,0:0:0:0:
109,192,208899,1,0,0:0:0:0:
256,192,208899,1,0,0:0:0:0:
182,192,209066,1,0,0:0:0:0:
256,192,209107,1,0,0:0:0:0:
329,192,209149,1,0,0:0:0:0:
402,192,209191,1,0,0:0:0:0:
109,192,209232,1,0,0:0:0:0:
475,192,209232,1,0,0:0:0:0:
256,192,209316,1,0,0:0:0:0:
36,192,209399,1,0,0:0:0:0:
109,192,209399,1,0,0:0:0:0:
402,192,209482,1,0,0:0:0:0:
329,192,209482,1,0,0:0:0:0:
475,192,209566,1,0,0:0:0:0:
109,192,209566,1,0,0:0:0:0:
182,192,209566,1,0,0:0:0:0:
256,192,209649,1,0,0:0:0:0:
36,192,209732,1,0,0:0:0:0:
329,192,209816,1,0,0:0:0:0:
109,192,209899,1,0,0:0:0:0:
182,192,209899,1,0,0:0:0:0:
402,192,209982,1,0,0:0:0:0:
109,192,210066,1,0,0:0:0:0:
402,192,210149,1,0,0:0:0:0:
475,192,210232,1,0,0:0:0:0:
36,192,210232,1,0,0:0:0:0:
256,192,210232,1,0,0:0:0:0:
182,192,210399,1,0,0:0:0:0:
182,192,210482,1,0,0:0:0:0:
36,192,210566,1,0,0:0:0:0:
475,192,210566,1,0,0:0:0:0:
329,192,210566,1,0,0:0:0:0:
109,192,210649,1,0,0:0:0:0:
402,192,210732,1,0,0:0:0:0:
182,192,210816,1,0,0:0:0:0:
36,192,210899,1,0,0:0:0:0:
475,192,210899,1,0,0:0:0:0:
256,192,210899,1,0,0:0:0:0:
109,192,210982,1,0,0:0:0:0:
402,192,211066,1,0,0:0:0:0:
182,192,211149,1,0,0:0:0:0:
36,192,211232,1,0,0:0:0:0:
109,192,211232,1,0,0:0:0:0:
402,192,211316,1,0,0:0:0:0:
182,192,211399,1,0,0:0:0:0:
329,192,211482,1,0,0:0:0:0:
475,192,211566,1,0,0:0:0:0:
256,192,211566,1,0,0:0:0:0:
36,192,211566,1,0,0:0:0:0:
109,192,211732,1,0,0:0:0:0:
182,192,211774,1,0,0:0:0:0:
256,192,211816,1,0,0:0:0:0:
329,192,211857,1,0,0:0:0:0:
36,192,211899,1,0,0:0:0:0:
475,192,211899,1,0,0:0:0:0:
402,192,211899,1,0,0:0:0:0:
182,192,211982,1,0,0:0:0:0:
329,192,212066,1,0,0:0:0:0:
256,192,212149,1,0,0:0:0:0:
402,192,212232,1,0,0:0:0:0:
36,192,212232,1,0,0:0:0:0:
182,192,212232,1,0,0:0:0:0:
329,192,212316,1,0,0:0:0:0:
109,192,212399,1,0,0:0:0:0:
475,192,212399,1,0,0:0:0:0:
256,192,212399,1,0,0:0:0:0:
36,192,212482,1,0,0:0:0:0:
182,192,212482,1,0,0:0:0:0:
475,192,212566,1,0,0:0:0:0:
329,192,212566,1,0,0:0:0:0:
256,192,212649,1,0,0:0:0:0:
182,192,212732,1,0,0:0:0:0:
36,192,212816,1,0,0:0:0:0:
329,192,212816,1,0,0:0:0:0:
109,192,212899,1,0,0:0:0:0:
475,192,212899,1,0,0:0:0:0:
402,192,212899,1,0,0:0:0:0:
256,192,212982,1,0,0:0:0:0:
182,192,213024,1,0,0:0:0:0:
36,192,213066,1,0,0:0:0:0:
109,192,213066,1,0,0:0:0:0:
329,192,213107,1,0,0:0:0:0:
402,192,213149,1,0,0:0:0:0:
475,192,213191,1,0,0:0:0:0:
256,192,213232,1,0,0:0:0:0:
36,192,213232,1,0,0:0:0:0:
109,192,213232,1,0,0:0:0:0:
329,192,213316,1,0,0:0:0:0:
182,192,213399,1,0,0:0:0:0:
109,192,213482,1,0,0:0:0:0:
475,192,213566,1,0,0:0:0:0:
402,192,213566,1,0,0:0:0:0:
256,192,213566,1,0,0:0:0:0:
182,192,213649,1,0,0:0:0:0:
329,192,213732,1,0,0:0:0:0:
402,192,213816,1,0,0:0:0:0:
182,192,213899,1,0,0:0:0:0:
36,192,213899,1,0,0:0:0:0:
256,192,213982,1,0,0:0:0:0:
402,192,214066,1,0,0:0:0:0:
182,192,214149,1,0,0:0:0:0:
475,192,214149,1,0,0:0:0:0:
329,192,214232,1,0,0:0:0:0:
36,192,214232,1,0,0:0:0:0:
109,192,214232,1,0,0:0:0:0:
109,192,214399,1,0,0:0:0:0:
475,192,214399,1,0,0:0:0:0:
402,192,214441,1,0,0:0:0:0:
329,192,214482,1,0,0:0:0:0:
256,192,214524,1,0,0:0:0:0:
475,192,214566,1,0,0:0:0:0:
36,192,214566,1,0,0:0:0:0:
182,192,214566,1,0,0:0:0:0:
402,192,214649,1,0,0:0:0:0:
182,192,214732,1,0,0:0:0:0:
109,192,214816,1,0,0:0:0:0:
402,192,214899,1,0,0:0:0:0:
256,192,214899,1,0,0:0:0:0:
36,192,214899,1,0,0:0:0:0:
402,192,215066,1,0,0:0:0:0:
256,192,215066,1,0,0:0:0:0:
36,192,215066,1,0,0:0:0:0:
475,192,215149,1,0,0:0:0:0:
329,192,215149,1,0,0:0:0:0:
36,192,215232,1,0,0:0:0:0:
109,192,215232,1,0,0:0:0:0:
475,192,215316,1,0,0:0:0:0:
402,192,215316,1,0,0:0:0:0:
182,192,215316,1,0,0:0:0:0:
329,192,215399,1,0,0:0:0:0:
36,192,215482,1,0,0:0:0:0:
109,192,215482,1,0,0:0:0:0:
475,192,215566,1,0,0:0:0:0:
402,192,215566,1,0,0:0:0:0:
182,192,215566,1,0,0:0:0:0:
402,192,215732,1,0,0:0:0:0:
36,192,215732,1,0,0:0:0:0:
182,192,215899,1,0,0:0:0:0:
329,192,215899,1,0,0:0:0:0:
36,192,215899,1,0,0:0:0:0:
402,192,215982,1,0,0:0:0:0:
182,192,216066,1,0,0:0:0:0:
36,192,216087,1,0,0:0:0:0:
329,192,216149,1,0,0:0:0:0:
475,192,216170,1,0,0:0:0:0:
36,192,216232,1,0,0:0:0:0:
182,192,216232,1,0,0:0:0:0:
109,192,216232,1,0,0:0:0:0:
329,192,216399,1,0,0:0:0:0:
402,192,216420,1,0,0:0:0:0:
182,192,216482,1,0,0:0:0:0:
109,192,216503,1,0,0:0:0:0:
475,192,216566,1,0,0:0:0:0:
329,192,216566,1,0,0:0:0:0:
36,192,216649,1,0,0:0:0:0:
402,192,216732,1,0,0:0:0:0:
329,192,216753,1,0,0:0:0:0:
109,192,216816,1,0,0:0:0:0:
182,192,216837,1,0,0:0:0:0:
475,192,216899,1,0,0:0:0:0:
402,192,216899,1,0,0:0:0:0:
329,192,216899,1,0,0:0:0:0:
109,192,216982,1,0,0:0:0:0:
36,192,216982,1,0,0:0:0:0:
256,192,217066,1,0,0:0:0:0:
475,192,217066,1,0,0:0:0:0:
36,192,217149,1,0,0:0:0:0:
109,192,217191,1,0,0:0:0:0:
475,192,217232,1,0,0:0:0:0:
402,192,217232,1,0,0:0:0:0:
182,192,217232,1,0,0:0:0:0:
329,192,217316,1,0,0:0:0:0:
36,192,217399,1,0,0:0:0:0:
182,192,217420,1,0,0:0:0:0:
475,192,217482,1,0,0:0:0:0:
329,192,217503,1,0,0:0:0:0:
36,192,217566,1,0,0:0:0:0:
109,192,217566,1,0,0:0:0:0:
182,192,217566,1,0,0:0:0:0:
402,192,217649,1,0,0:0:0:0:
475,192,217732,1,0,0:0:0:0:
256,192,217732,1,0,0:0:0:0:
36,192,217732,1,0,0:0:0:0:
329,192,217816,1,0,0:0:0:0:
109,192,217816,1,0,0:0:0:0:
402,192,217899,1,0,0:0:0:0:
182,192,217899,1,0,0:0:0:0:
36,192,217982,1,0,0:0:0:0:
475,192,217982,1,0,0:0:0:0:
256,192,217982,1,0,0:0:0:0:
182,192,218066,1,0,0:0:0:0:
402,192,218149,1,0,0:0:0:0:
329,192,218149,1,0,0:0:0:0:
109,192,218232,1,0,0:0:0:0:
475,192,218232,1,0,0:0:0:0:
36,192,218232,1,0,0:0:0:0:
182,192,218253,1,0,0:0:0:0:
256,192,218274,1,0,0:0:0:0:
329,192,218295,1,0,0:0:0:0:
402,192,218316,1,0,0:0:0:0:
182,192,218399,1,0,0:0:0:0:
36,192,218420,1,0,0:0:0:0:
475,192,218566,1,0,0:0:0:0:
402,192,218566,1,0,0:0:0:0:
256,192,218566,1,0,0:0:0:0:
109,192,218649,1,0,0:0:0:0:
329,192,218732,1,0,0:0:0:0:
182,192,218816,1,0,0:0:0:0:
36,192,218899,1,0,0:0:0:0:
475,192,218899,1,0,0:0:0:0:
402,192,218899,1,0,0:0:0:0:
109,192,218982,1,0,0:0:0:0:
329,192,219066,1,0,0:0:0:0:
182,192,219149,1,0,0:0:0:0:
256,192,219232,1,0,0:0:0:0:
36,192,219232,1,0,0:0:0:0:
402,192,219316,1,0,0:0:0:0:
182,192,219399,1,0,0:0:0:0:
402,192,219482,1,0,0:0:0:0:
475,192,219482,1,0,0:0:0:0:
329,192,219482,1,0,0:0:0:0:
475,192,219566,1,0,0:0:0:0:
402,192,219566,1,0,0:0:0:0:
329,192,219566,1,0,0:0:0:0:
36,192,219732,1,0,0:0:0:0:
109,192,219774,1,0,0:0:0:0:
182,192,219816,1,0,0:0:0:0:
256,192,219857,1,0,0:0:0:0:
36,192,219899,1,0,0:0:0:0:
475,192,219899,1,0,0:0:0:0:
329,192,219899,1,0,0:0:0:0:
475,192,220066,1,0,0:0:0:0:
182,192,220232,1,0,0:0:0:0:
475,192,220232,1,0,0:0:0:0:
475,192,220399,1,0,0:0:0:0:
475,192,220566,1,0,0:0:0:0:
182,192,220566,1,0,0:0:0:0:
36,192,220732,1,0,0:0:0:0:
475,192,220732,1,0,0:0:0:0:
109,192,220753,1,0,0:0:0:0:
182,192,220774,1,0,0:0:0:0:
256,192,220795,1,0,0:0:0:0:
329,192,220816,1,0,0:0:0:0:
36,192,220899,1,0,0:0:0:0:
475,192,220899,1,0,0:0:0:0:
182,192,221149,1,0,0:0:0:0:
109,192,221149,1,0,0:0:0:0:
402,192,221232,1,0,0:0:0:0:
475,192,221232,1,0,0:0:0:0:
256,192,221232,1,0,0:0:0:0:
109,192,221399,1,0,0:0:0:0:
182,192,221482,1,0,0:0:0:0:
475,192,221566,1,0,0:0:0:0:
36,192,221566,1,0,0:0:0:0:
256,192,221566,1,0,0:0:0:0:
402,192,221649,1,0,0:0:0:0:
109,192,221732,1,0,0:0:0:0:
182,192,221732,1,0,0:0:0:0:
109,192,221899,1,0,0:0:0:0:
182,192,221899,1,0,0:0:0:0:
329,192,222066,1,0,0:0:0:0:
182,192,222149,1,0,0:0:0:0:
475,192,222232,1,0,0:0:0:0:
402,192,222232,1,0,0:0:0:0:
329,192,222232,1,0,0:0:0:0:
36,192,222316,1,0,0:0:0:0:
109,192,222316,1,0,0:0:0:0:
402,192,222399,1,0,0:0:0:0:
329,192,222441,1,0,0:0:0:0:
256,192,222482,1,0,0:0:0:0:
182,192,222524,1,0,0:0:0:0:
402,192,222566,1,0,0:0:0:0:
36,192,222566,1,0,0:0:0:0:
109,192,222566,1,0,0:0:0:0:
256,192,222649,1,0,0:0:0:0:
329,192,222649,1,0,0:0:0:0:
475,192,222732,1,0,0:0:0:0:
109,192,222732,1,0,0:0:0:0:
182,192,222732,1,0,0:0:0:0:
402,192,222816,1,0,0:0:0:0:
329,192,222816,1,0,0:0:0:0:
109,192,222899,1,0,0:0:0:0:
36,192,222899,1,0,0:0:0:0:
256,192,222899,1,0,0:0:0:0:
329,192,223066,1,0,0:0:0:0:
182,192,223066,1,0,0:0:0:0:
109,192,223066,1,0,0:0:0:0:
475,192,223232,1,0,0:0:0:0:
256,192,223232,1,0,0:0:0:0:
329,192,223399,1,0,0:0:0:0:
182,192,223399,1,0,0:0:0:0:
36,192,223399,1,0,0:0:0:0:
475,192,223566,1,0,0:0:0:0:
402,192,223566,1,0,0:0:0:0:
109,192,223566,1,0,0:0:0:0:
182,192,223732,1,0,0:0:0:0:
36,192,223899,1,0,0:0:0:0:
475,192,223899,1,0,0:0:0:0:
256,192,223899,1,0,0:0:0:0:
329,192,223982,1,0,0:0:0:0:
109,192,224066,1,0,0:0:0:0:
182,192,224066,1,0,0:0:0:0:
329,192,224149,1,0,0:0:0:0:
36,192,224232,1,0,0:0:0:0:
109,192,224232,1,0,0:0:0:0:
475,192,224232,1,0,0:0:0:0:
329,192,224316,1,0,0:0:0:0:
109,192,224399,1,0,0:0:0:0:
182,192,224399,1,0,0:0:0:0:
475,192,224482,1,0,0:0:0:0:
402,192,224482,1,0,0:0:0:0:
329,192,224482,1,0,0:0:0:0:
109,192,224566,1,0,0:0:0:0:
182,192,224566,1,0,0:0:0:0:
256,192,224649,1,0,0:0:0:0:
402,192,224732,1,0,0:0:0:0:
109,192,224816,1,0,0:0:0:0:
182,192,224899,1,0,0:0:0:0:
329,192,224899,1,0,0:0:0:0:
256,192,224899,1,0,0:0:0:0:
475,192,224982,1,0,0:0:0:0:
402,192,224982,1,0,0:0:0:0:
36,192,225066,1,0,0:0:0:0:
109,192,225107,1,0,0:0:0:0:
182,192,225149,1,0,0:0:0:0:
256,192,225191,1,0,0:0:0:0:
36,192,225232,1,0,0:0:0:0:
402,192,225232,1,0,0:0:0:0:
329,192,225232,1,0,0:0:0:0:
109,192,225316,1,0,0:0:0:0:
475,192,225316,1,0,0:0:0:0:
402,192,225399,1,0,0:0:0:0:
329,192,225399,1,0,0:0:0:0:
109,192,225482,1,0,0:0:0:0:
475,192,225482,1,0,0:0:0:0:
329,192,225566,1,0,0:0:0:0:
256,192,225566,1,0,0:0:0:0:
182,192,225566,1,0,0:0:0:0:
36,192,225732,1,0,0:0:0:0:
109,192,225732,1,0,0:0:0:0:
475,192,225899,1,0,0:0:0:0:
402,192,225927,1,0,0:0:0:0:
329,192,225955,1,0,0:0:0:0:
256,192,225982,1,0,0:0:0:0:
182,192,226010,1,0,0:0:0:0:
109,192,226038,1,0,0:0:0:0:
475,192,226066,1,0,0:0:0:0:
36,192,226066,1,0,0:0:0:0:
256,192,226107,1,0,0:0:0:0:
402,192,226149,1,0,0:0:0:0:
182,192,226191,1,0,0:0:0:0:
329,192,226232,1,0,0:0:0:0:
36,192,226232,1,0,0:0:0:0:
109,192,226232,1,0,0:0:0:0:
475,192,226316,1,0,0:0:0:0:
402,192,226316,1,0,0:0:0:0:
182,192,226399,1,0,0:0:0:0:
256,192,226482,1,0,0:0:0:0:
36,192,226566,1,0,0:0:0:0:
475,192,226566,1,0,0:0:0:0:
329,192,226566,1,0,0:0:0:0:
109,192,226649,1,0,0:0:0:0:
182,192,226677,1,0,0:0:0:0:
256,192,226705,1,0,0:0:0:0:
329,192,226732,1,0,0:0:0:0:
475,192,226816,1,0,0:0:0:0:
182,192,226899,1,0,0:0:0:0:
109,192,226899,1,0,0:0:0:0:
36,192,226899,1,0,0:0:0:0:
402,192,226982,1,0,0:0:0:0:
182,192,227066,1,0,0:0:0:0:
109,192,227087,1,0,0:0:0:0:
36,192,227107,1,0,0:0:0:0:
475,192,227191,1,0,0:0:0:0:
402,192,227232,1,0,0:0:0:0:
182,192,227274,1,0,0:0:0:0:
329,192,227274,1,0,0:0:0:0:
36,192,227399,1,0,0:0:0:0:
109,192,227420,1,0,0:0:0:0:
475,192,227482,1,0,0:0:0:0:
402,192,227503,1,0,0:0:0:0:
36,192,227566,1,0,0:0:0:0:
109,192,227587,1,0,0:0:0:0:
182,192,227607,1,0,0:0:0:0:
475,192,227649,1,0,0:0:0:0:
402,192,227670,1,0,0:0:0:0:
329,192,227691,1,0,0:0:0:0:
36,192,227732,1,0,0:0:0:0:
109,192,227774,1,0,0:0:0:0:
182,192,227816,1,0,0:0:0:0:
256,192,227857,1,0,0:0:0:0:
36,192,227899,1,0,0:0:0:0:
475,192,227899,1,0,0:0:0:0:
329,192,227899,1,0,0:0:0:0:
182,192,227982,1,0,0:0:0:0:
109,192,227982,1,0,0:0:0:0:
475,192,228066,1,0,0:0:0:0:
402,192,228066,1,0,0:0:0:0:
256,192,228149,1,0,0:0:0:0:
329,192,228149,1,0,0:0:0:0:
182,192,228232,1,0,0:0:0:0:
109,192,228232,1,0,0:0:0:0:
36,192,228232,1,0,0:0:0:0:
475,192,228399,1,0,0:0:0:0:
329,192,228399,1,0,0:0:0:0:
475,192,228566,1,0,0:0:0:0:
329,192,228566,1,0,0:0:0:0:
182,192,228607,1,0,0:0:0:0:
256,192,228607,1,0,0:0:0:0:
36,192,228649,1,0,0:0:0:0:
109,192,228649,1,0,0:0:0:0:
475,192,228732,1,0,0:0:0:0:
402,192,228760,1,0,0:0:0:0:
329,192,228788,1,0,0:0:0:0:
256,192,228816,1,0,0:0:0:0:
182,192,228844,1,0,0:0:0:0:
109,192,228871,1,0,0:0:0:0:
402,192,228899,1,0,0:0:0:0:
475,192,228899,1,0,0:0:0:0:
36,192,228899,1,0,0:0:0:0:
109,192,229066,1,0,0:0:0:0:
182,192,229066,1,0,0:0:0:0:
402,192,229149,1,0,0:0:0:0:
182,192,229232,1,0,0:0:0:0:
109,192,229232,1,0,0:0:0:0:
329,192,229316,1,0,0:0:0:0:
109,192,229399,1,0,0:0:0:0:
182,192,229399,1,0,0:0:0:0:
36,192,229482,1,0,0:0:0:0:
475,192,229482,1,0,0:0:0:0:
402,192,229482,1,0,0:0:0:0:
329,192,229607,1,0,0:0:0:0:
182,192,229691,1,0,0:0:0:0:
109,192,229691,1,0,0:0:0:0:
36,192,229691,1,0,0:0:0:0:
475,192,229732,1,0,0:0:0:0:
402,192,229732,1,0,0:0:0:0:
329,192,229732,1,0,0:0:0:0:
256,192,229816,1,0,0:0:0:0:
36,192,229899,1,0,0:0:0:0:
109,192,229899,1,0,0:0:0:0:
182,192,229899,1,0,0:0:0:0:
475,192,230066,1,0,0:0:0:0:
329,192,230066,1,0,0:0:0:0:
182,192,230149,1,0,0:0:0:0:
475,192,230232,1,0,0:0:0:0:
329,192,230232,1,0,0:0:0:0:
36,192,230316,1,0,0:0:0:0:
182,192,230337,1,0,0:0:0:0:
475,192,230399,1,0,0:0:0:0:
402,192,230399,1,0,0:0:0:0:
329,192,230399,1,0,0:0:0:0:
109,192,230566,1,0,0:0:0:0:
36,192,230566,1,0,0:0:0:0:
329,192,230649,1,0,0:0:0:0:
402,192,230677,1,0,0:0:0:0:
475,192,230705,1,0,0:0:0:0:
36,192,230732,1,0,0:0:0:0:
109,192,230732,1,0,0:0:0:0:
256,192,230816,1,0,0:0:0:0:
329,192,230837,1,0,0:0:0:0:
402,192,230857,1,0,0:0:0:0:
475,192,230878,1,0,0:0:0:0:
182,192,230899,1,0,0:0:0:0:
36,192,230899,1,0,0:0:0:0:
109,192,230899,1,0,0:0:0:0:
402,192,231066,1,0,0:0:0:0:
329,192,231066,1,0,0:0:0:0:
109,192,231149,1,0,0:0:0:0:
402,192,231232,1,0,0:0:0:0:
329,192,231232,1,0,0:0:0:0:
475,192,231316,1,0,0:0:0:0:
109,192,231399,1,0,0:0:0:0:
182,192,231399,1,0,0:0:0:0:
36,192,231482,1,0,0:0:0:0:
475,192,231566,1,0,0:0:0:0:
402,192,231566,1,0,0:0:0:0:
329,192,231566,1,0,0:0:0:0:
256,192,231649,1,0,0:0:0:0:
182,192,231649,1,0,0:0:0:0:
36,192,231732,1,0,0:0:0:0:
109,192,231732,1,0,0:0:0:0:
402,192,231816,1,0,0:0:0:0:
329,192,231816,1,0,0:0:0:0:
36,192,231899,1,0,0:0:0:0:
182,192,231899,1,0,0:0:0:0:
475,192,231982,1,0,0:0:0:0:
182,192,232066,1,0,0:0:0:0:
475,192,232149,1,0,0:0:0:0:
329,192,232149,1,0,0:0:0:0:
36,192,232232,1,0,0:0:0:0:
109,192,232232,1,0,0:0:0:0:
182,192,232232,1,0,0:0:0:0:
329,192,232399,1,0,0:0:0:0:
256,192,232399,1,0,0:0:0:0:
475,192,232482,1,0,0:0:0:0:
36,192,232566,1,0,0:0:0:0:
182,192,232566,1,0,0:0:0:0:
475,192,232649,1,0,0:0:0:0:
402,192,232649,1,0,0:0:0:0:
329,192,232649,1,0,0:0:0:0:
36,192,232732,1,0,0:0:0:0:
182,192,232732,1,0,0:0:0:0:
402,192,232816,1,0,0:0:0:0:
329,192,232816,1,0,0:0:0:0:
256,192,232899,1,0,0:0:0:0:
109,192,232899,1,0,0:0:0:0:
36,192,232899,1,0,0:0:0:0:
256,192,233066,1,0,0:0:0:0:
402,192,233232,1,0,0:0:0:0:
329,192,233232,1,0,0:0:0:0:
109,192,233232,1,0,0:0:0:0:
109,192,233399,1,0,0:0:0:0:
402,192,233399,1,0,0:0:0:0:
329,192,233399,1,0,0:0:0:0:
36,192,233566,1,0,0:0:0:0:
475,192,233566,1,0,0:0:0:0:
182,192,233566,1,0,0:0:0:0:
402,192,233732,1,0,0:0:0:0:
329,192,233732,1,0,0:0:0:0:
182,192,233816,1,0,0:0:0:0:
109,192,233816,1,0,0:0:0:0:
402,192,233899,1,0,0:0:0:0:
329,192,233899,1,0,0:0:0:0:
256,192,233982,1,0,0:0:0:0:
402,192,234066,1,0,0:0:0:0:
329,192,234066,1,0,0:0:0:0:
36,192,234107,1,0,0:0:0:0:
109,192,234149,1,0,0:0:0:0:
182,192,234191,1,0,0:0:0:0:
475,192,234232,1,0,0:0:0:0:
402,192,234232,1,0,0:0:0:0:
256,192,234232,1,0,0:0:0:0:
182,192,234399,1,0,0:0:0:0:
329,192,234566,1,0,0:0:0:0:
109,192,234566,1,0,0:0:0:0:
329,192,234649,1,0,0:0:0:0:
182,192,234732,1,0,0:0:0:0:
182,192,234816,1,0,0:0:0:0:
36,192,234899,1,0,0:0:0:0:
475,192,234899,1,0,0:0:0:0:
329,192,234899,1,0,0:0:0:0:
329,192,234982,1,0,0:0:0:0:
182,192,235066,1,0,0:0:0:0:
182,192,235149,1,0,0:0:0:0:
475,192,235232,1,0,0:0:0:0:
402,192,235232,1,0,0:0:0:0:
329,192,235316,1,0,0:0:0:0:
36,192,235399,1,0,0:0:0:0:
109,192,235420,1,0,0:0:0:0:
402,192,235482,1,0,0:0:0:0:
475,192,235503,1,0,0:0:0:0:
36,192,235566,1,0,0:0:0:0:
109,192,235566,1,0,0:0:0:0:
182,192,235566,1,0,0:0:0:0:
475,192,235732,1,0,0:0:0:0:
402,192,235774,1,0,0:0:0:0:
329,192,235816,1,0,0:0:0:0:
256,192,235857,1,0,0:0:0:0:
109,192,235899,1,0,0:0:0:0:
36,192,235899,1,0,0:0:0:0:
182,192,235899,1,0,0:0:0:0:
475,192,235982,1,0,0:0:0:0:
402,192,235982,1,0,0:0:0:0:
109,192,236066,1,0,0:0:0:0:
256,192,236066,1,0,0:0:0:0:
402,192,236149,1,0,0:0:0:0:
329,192,236149,1,0,0:0:0:0:
182,192,236232,1,0,0:0:0:0:
109,192,236232,1,0,0:0:0:0:
36,192,236232,1,0,0:0:0:0:
475,192,236316,1,0,0:0:0:0:
402,192,236316,1,0,0:0:0:0:
256,192,236399,1,0,0:0:0:0:
36,192,236399,1,0,0:0:0:0:
475,192,236482,1,0,0:0:0:0:
402,192,236482,1,0,0:0:0:0:
329,192,236482,1,0,0:0:0:0:
36,192,236566,1,0,0:0:0:0:
109,192,236566,1,0,0:0:0:0:
475,192,236649,1,0,0:0:0:0:
329,192,236649,1,0,0:0:0:0:
36,192,236732,1,0,0:0:0:0:
109,192,236732,1,0,0:0:0:0:
256,192,236732,1,0,0:0:0:0:
475,192,236816,1,0,0:0:0:0:
402,192,236816,1,0,0:0:0:0:
36,192,236899,1,0,0:0:0:0:
109,192,236927,1,0,0:0:0:0:
182,192,236955,1,0,0:0:0:0:
256,192,236982,1,0,0:0:0:0:
475,192,237024,1,0,0:0:0:0:
402,192,237066,1,0,0:0:0:0:
329,192,237107,1,0,0:0:0:0:
256,192,237149,1,0,0:0:0:0:
182,192,237191,1,0,0:0:0:0:
402,192,237232,1,0,0:0:0:0:
36,192,237232,1,0,0:0:0:0:
109,192,237232,1,0,0:0:0:0:
329,192,237316,1,0,0:0:0:0:
475,192,237399,1,0,0:0:0:0:
182,192,237399,1,0,0:0:0:0:
109,192,237482,1,0,0:0:0:0:
475,192,237566,1,0,0:0:0:0:
256,192,237566,1,0,0:0:0:0:
36,192,237566,1,0,0:0:0:0:
329,192,237649,1,0,0:0:0:0:
109,192,237691,1,0,0:0:0:0:
36,192,237691,1,0,0:0:0:0:
182,192,237691,1,0,0:0:0:0:
256,192,237774,1,0,0:0:0:0:
475,192,237816,1,0,0:0:0:0:
402,192,237816,1,0,0:0:0:0:
329,192,237816,1,0,0:0:0:0:
36,192,237899,1,0,0:0:0:0:
109,192,237920,1,0,0:0:0:0:
182,192,237941,1,0,0:0:0:0:
475,192,237982,1,0,0:0:0:0:
402,192,238003,1,0,0:0:0:0:
329,192,238024,1,0,0:0:0:0:
36,192,238045,1,0,0:0:0:0:
109,192,238066,1,0,0:0:0:0:
182,192,238087,1,0,0:0:0:0:
475,192,238107,1,0,0:0:0:0:
402,192,238128,1,0,0:0:0:0:
329,192,238149,1,0,0:0:0:0:
36,192,238170,1,0,0:0:0:0:
109,192,238191,1,0,0:0:0:0:
182,192,238212,1,0,0:0:0:0:
475,192,238232,1,0,0:0:0:0:
402,192,238232,1,0,0:0:0:0:
256,192,238274,1,0,0:0:0:0:
329,192,238316,1,0,0:0:0:0:
109,192,238399,1,0,0:0:0:0:
36,192,238399,1,0,0:0:0:0:
475,192,238482,1,0,0:0:0:0:
402,192,238482,1,0,0:0:0:0:
36,192,238566,1,0,0:0:0:0:
109,192,238566,1,0,0:0:0:0:
256,192,238566,1,0,0:0:0:0:
182,192,238649,1,0,0:0:0:0:
329,192,238732,1,0,0:0:0:0:
182,192,238816,1,0,0:0:0:0:
402,192,238899,1,0,0:0:0:0:
109,192,238982,1,0,0:0:0:0:
475,192,239066,1,0,0:0:0:0:
329,192,239066,1,0,0:0:0:0:
182,192,239149,1,0,0:0:0:0:
402,192,239232,1,0,0:0:0:0:
475,192,239232,1,0,0:0:0:0:
36,192,239232,1,0,0:0:0:0:
256,192,239232,1,0,0:0:0:0:
402,192,239566,1,0,0:0:0:0:
182,192,239566,1,0,0:0:0:0:
36,192,239566,1,0,0:0:0:0:
402,192,239732,1,0,0:0:0:0:
182,192,239732,1,0,0:0:0:0:
36,192,239732,1,0,0:0:0:0:
329,192,239816,1,0,0:0:0:0:
182,192,239899,1,0,0:0:0:0:
402,192,239899,1,0,0:0:0:0:
36,192,239899,1,0,0:0:0:0:
475,192,240066,1,0,0:0:0:0:
329,192,240087,1,0,0:0:0:0:
182,192,240149,1,0,0:0:0:0:
109,192,240232,1,0,0:0:0:0:
36,192,240232,1,0,0:0:0:0:
475,192,240316,1,0,0:0:0:0:
402,192,240337,1,0,0:0:0:0:
182,192,240399,1,0,0:0:0:0:
402,192,240482,1,0,0:0:0:0:
329,192,240503,1,0,0:0:0:0:
36,192,240566,1,0,0:0:0:0:
109,192,240594,1,0,0:0:0:0:
182,192,240621,1,0,0:0:0:0:
256,192,240649,1,0,0:0:0:0:
329,192,240677,1,0,0:0:0:0:
402,192,240705,1,0,0:0:0:0:
475,192,240732,1,0,0:0:0:0:
256,192,240899,1,0,0:0:0:0:
109,192,240899,1,0,0:0:0:0:
36,192,240899,1,0,0:0:0:0:
402,192,241066,1,0,0:0:0:0:
402,192,241149,1,0,0:0:0:0:
36,192,241232,1,0,0:0:0:0:
109,192,241253,1,0,0:0:0:0:
182,192,241274,1,0,0:0:0:0:
182,192,253530,5,0,0:0:0:0:
329,192,254214,1,0,0:0:0:0:
402,192,254328,1,0,0:0:0:0:
475,192,254442,1,0,0:0:0:0:
402,192,254670,1,0,0:0:0:0:
182,192,254784,1,0,0:0:0:0:
329,192,255012,1,0,0:0:0:0:
109,192,255126,1,0,0:0:0:0:
36,192,255354,1,0,0:0:0:0:
329,192,256038,1,0,0:0:0:0:
402,192,256152,1,0,0:0:0:0:
182,192,256266,1,0,0:0:0:0:
329,192,256951,1,0,0:0:0:0:
402,192,257065,1,0,0:0:0:0:
36,192,257179,1,0,0:0:0:0:
182,192,257749,1,0,0:0:0:0:
329,192,257977,1,0,0:0:0:0:
402,192,258091,1,0,0:0:0:0:
329,192,258205,1,0,0:0:0:0:
182,192,258319,1,0,0:0:0:0:
475,192,258433,1,0,0:0:0:0:
402,192,258661,1,0,0:0:0:0:
329,192,258775,1,0,0:0:0:0:
36,192,259003,1,0,0:0:0:0:
109,192,259231,1,0,0:0:0:0:
182,192,259345,1,0,0:0:0:0:
329,192,259573,1,0,0:0:0:0:
402,192,259687,1,0,0:0:0:0:
329,192,259801,1,0,0:0:0:0:
475,192,259915,1,0,0:0:0:0:
402,192,260029,1,0,0:0:0:0:
329,192,260144,1,0,0:0:0:0:
256,192,260258,1,0,0:0:0:0:
36,192,260372,1,0,0:0:0:0:
109,192,260486,1,0,0:0:0:0:
182,192,260600,1,0,0:0:0:0:
256,192,260714,1,0,0:0:0:0:
320,0,260828,5,0,1:0:0:0:
402,0,260828,1,0,0:0:0:0:
36,192,260942,1,0,0:0:0:0:
192,0,260942,1,0,0:0:0:0:
475,192,261056,1,0,0:0:0:0:
329,192,261056,1,0,0:0:0:0:
256,192,261170,1,0,0:0:0:0:
109,192,261170,1,0,0:0:0:0:
182,192,261284,1,0,0:0:0:0:
402,192,261284,1,0,0:0:0:0:
475,192,261398,1,0,0:0:0:0:
256,192,261398,1,0,0:0:0:0:
402,192,261512,1,0,0:0:0:0:
182,192,261512,1,0,0:0:0:0:
329,192,261626,1,0,0:0:0:0:
109,192,261626,1,0,0:0:0:0:
182,192,261740,1,0,0:0:0:0:
36,192,261740,1,0,0:0:0:0:
402,192,261854,1,0,0:0:0:0:
256,192,261854,1,0,0:0:0:0:
182,192,261968,1,0,0:0:0:0:
109,192,261968,1,0,0:0:0:0:
329,192,262082,1,0,0:0:0:0:
448,0,262082,1,0,0:0:0:0:
256,192,262196,1,0,0:0:0:0:
64,0,262196,1,0,0:0:0:0:
402,192,262310,1,0,0:0:0:0:
182,192,262310,1,0,0:0:0:0:
109,192,262424,1,0,0:0:0:0:
320,0,262424,1,0,0:0:0:0:
256,192,262538,1,0,0:0:0:0:
36,192,262538,1,0,0:0:0:0:
109,192,262652,1,0,0:0:0:0:
182,192,262652,1,0,0:0:0:0:
402,192,262766,1,0,0:0:0:0:
256,192,262766,1,0,0:0:0:0:
329,192,262880,1,0,0:0:0:0:
448,0,262880,1,0,0:0:0:0:
109,192,262994,1,0,0:0:0:0:
182,192,262994,1,0,0:0:0:0:
402,192,263108,1,0,0:0:0:0:
256,192,263108,1,0,0:0:0:0:
475,192,263222,1,0,0:0:0:0:
192,0,263222,1,0,0:0:0:0:
109,192,263337,1,0,0:0:0:0:
320,0,263337,1,0,0:0:0:0:
256,192,263451,1,0,0:0:0:0:
64,0,263451,1,0,0:0:0:0:
109,192,263565,1,0,0:0:0:0:
192,0,263565,1,0,0:0:0:0:
329,192,263679,1,0,0:0:0:0:
256,192,263679,1,0,0:0:0:0:
402,192,263793,1,0,0:0:0:0:
109,192,263793,1,0,0:0:0:0:
36,192,263907,1,0,0:0:0:0:
329,192,263907,1,0,0:0:0:0:
256,192,264021,1,0,0:0:0:0:
182,192,264021,1,0,0:0:0:0:
475,192,264135,1,0,0:0:0:0:
320,0,264135,1,0,0:0:0:0:
256,192,264249,1,0,0:0:0:0:
109,192,264249,1,0,0:0:0:0:
36,192,264363,1,0,0:0:0:0:
192,0,264363,1,0,0:0:0:0:
109,192,264477,1,0,0:0:0:0:
320,0,264477,1,0,0:0:0:0:
320,0,264591,1,0,0:0:0:0:
36,192,264705,1,0,0:0:0:0:
192,0,264705,1,0,0:0:0:0:
36,192,264819,1,0,0:0:0:0:
256,192,264933,1,0,0:0:0:0:
402,192,264933,1,0,0:0:0:0:
256,192,265047,1,0,0:0:0:0:
402,192,265161,1,0,0:0:0:0:
109,192,265161,1,0,0:0:0:0:
402,192,265275,1,0,0:0:0:0:
329,192,265389,1,0,0:0:0:0:
192,0,265389,1,0,0:0:0:0:
182,192,265503,1,0,0:0:0:0:
402,192,265617,1,0,0:0:0:0:
64,0,265617,1,0,0:0:0:0:
402,192,265731,1,0,0:0:0:0:
109,192,265845,1,0,0:0:0:0:
320,0,265845,1,0,0:0:0:0:
109,192,265959,1,0,0:0:0:0:
448,0,266073,1,0,0:0:0:0:
192,0,266073,1,0,0:0:0:0:
402,192,266187,1,0,0:0:0:0:
256,192,266187,1,0,0:0:0:0:
329,192,266301,1,0,0:0:0:0:
64,0,266301,1,0,0:0:0:0:
256,192,266415,1,0,0:0:0:0:
109,192,266415,1,0,0:0:0:0:
182,192,266529,1,0,0:0:0:0:
448,0,266529,1,0,0:0:0:0:
402,192,266644,1,0,0:0:0:0:
256,192,266644,1,0,0:0:0:0:
329,192,266758,1,0,0:0:0:0:
109,192,266758,1,0,0:0:0:0:
402,192,266872,1,0,0:0:0:0:
192,0,266872,1,0,0:0:0:0:
448,0,266986,1,0,0:0:0:0:
64,0,266986,1,0,0:0:0:0:
448,0,267100,1,0,0:0:0:0:
64,0,267100,1,0,0:0:0:0:
320,0,267214,1,0,0:0:0:0:
192,0,267214,1,0,0:0:0:0:
109,192,267328,1,0,0:0:0:0:
329,192,267328,1,0,0:0:0:0:
402,192,267442,1,0,0:0:0:0:
192,0,267442,1,0,0:0:0:0:
329,192,267556,1,0,0:0:0:0:
192,0,267556,1,0,0:0:0:0:
402,192,267670,1,0,0:0:0:0:
64,0,267670,1,0,0:0:0:0:
109,192,267784,1,0,0:0:0:0:
402,192,267784,1,0,0:0:0:0:
192,0,267898,1,0,0:0:0:0:
64,0,267898,1,0,0:0:0:0:
320,0,267955,1,0,0:0:0:0:
182,192,268012,1,0,0:0:0:0:
320,0,268069,1,0,0:0:0:0:
109,192,268126,1,0,0:0:0:0:
448,0,268126,1,0,0:0:0:0:
64,0,268126,1,0,0:0:0:0:
256,192,268183,1,0,0:0:0:0:
402,192,268240,1,0,0:0:0:0:
182,192,268297,1,0,0:0:0:0:
320,0,268354,1,0,0:0:0:0:
64,0,268354,1,0,0:0:0:0:
475,192,268411,1,0,0:0:0:0:
256,192,268468,1,0,0:0:0:0:
402,192,268525,1,0,0:0:0:0:
109,192,268582,1,0,0:0:0:0:
36,192,268582,1,0,0:0:0:0:
256,192,268639,1,0,0:0:0:0:
109,192,268696,1,0,0:0:0:0:
182,192,268753,1,0,0:0:0:0:
448,0,268810,1,0,0:0:0:0:
320,0,268810,1,0,0:0:0:0:
109,192,268867,1,0,0:0:0:0:
256,192,268924,1,0,0:0:0:0:
64,0,268981,1,0,0:0:0:0:
329,192,269038,1,0,0:0:0:0:
182,192,269038,1,0,0:0:0:0:
475,192,269095,1,0,0:0:0:0:
256,192,269152,1,0,0:0:0:0:
109,192,269209,1,0,0:0:0:0:
475,192,269266,1,0,0:0:0:0:
329,192,269266,1,0,0:0:0:0:
182,192,269323,1,0,0:0:0:0:
36,192,269380,1,0,0:0:0:0:
256,192,269437,1,0,0:0:0:0:
182,192,269494,1,0,0:0:0:0:
109,192,269494,1,0,0:0:0:0:
402,192,269551,1,0,0:0:0:0:
182,192,269608,1,0,0:0:0:0:
329,192,269665,1,0,0:0:0:0:
36,192,269722,1,0,0:0:0:0:
448,0,269722,1,0,0:0:0:0:
256,192,269779,1,0,0:0:0:0:
109,192,269837,1,0,0:0:0:0:
182,192,269894,1,0,0:0:0:0:
329,192,269951,1,0,0:0:0:0:
448,0,269951,1,0,0:0:0:0:
256,192,270008,1,0,0:0:0:0:
109,192,270065,1,0,0:0:0:0:
402,192,270122,1,0,0:0:0:0:
182,192,270179,1,0,0:0:0:0:
64,0,270179,1,0,0:0:0:0:
329,192,270236,1,0,0:0:0:0:
448,0,270293,1,0,0:0:0:0:
256,192,270350,1,0,0:0:0:0:
109,192,270407,1,0,0:0:0:0:
182,192,270464,1,0,0:0:0:0:
329,192,270521,1,0,0:0:0:0:
256,192,270578,1,0,0:0:0:0:
402,192,270635,1,0,0:0:0:0:
448,0,270635,1,0,0:0:0:0:
109,192,270692,1,0,0:0:0:0:
182,192,270749,1,0,0:0:0:0:
329,192,270806,1,0,0:0:0:0:
402,192,270863,1,0,0:0:0:0:
448,0,270863,1,0,0:0:0:0:
36,192,270920,1,0,0:0:0:0:
182,192,270977,1,0,0:0:0:0:
329,192,271034,1,0,0:0:0:0:
475,192,271091,1,0,0:0:0:0:
109,192,271091,1,0,0:0:0:0:
256,192,271148,1,0,0:0:0:0:
36,192,271205,1,0,0:0:0:0:
402,192,271262,1,0,0:0:0:0:
109,192,271319,1,0,0:0:0:0:
192,0,271319,1,0,0:0:0:0:
329,192,271376,1,0,0:0:0:0:
192,0,271433,1,0,0:0:0:0:
256,192,271490,1,0,0:0:0:0:
475,192,271547,1,0,0:0:0:0:
329,192,271547,1,0,0:0:0:0:
36,192,271604,1,0,0:0:0:0:
109,192,271661,1,0,0:0:0:0:
182,192,271718,1,0,0:0:0:0:
402,192,271775,1,0,0:0:0:0:
256,192,271775,1,0,0:0:0:0:
448,0,271775,1,0,0:0:0:0:
192,0,271889,1,0,0:0:0:0:
448,0,271946,1,0,0:0:0:0:
256,192,272003,1,0,0:0:0:0:
36,192,272003,1,0,0:0:0:0:
402,192,272060,1,0,0:0:0:0:
109,192,272117,1,0,0:0:0:0:
182,192,272174,1,0,0:0:0:0:
329,192,272231,1,0,0:0:0:0:
36,192,272288,1,0,0:0:0:0:
256,192,272345,1,0,0:0:0:0:
109,192,272345,1,0,0:0:0:0:
402,192,272402,1,0,0:0:0:0:
329,192,272459,1,0,0:0:0:0:
182,192,272459,1,0,0:0:0:0:
475,192,272516,1,0,0:0:0:0:
109,192,272573,1,0,0:0:0:0:
36,192,272630,1,0,0:0:0:0:
402,192,272687,1,0,0:0:0:0:
256,192,272687,1,0,0:0:0:0:
182,192,272744,1,0,0:0:0:0:
329,192,272801,1,0,0:0:0:0:
109,192,272858,1,0,0:0:0:0:
475,192,272915,1,0,0:0:0:0:
256,192,272915,1,0,0:0:0:0:
36,192,272972,1,0,0:0:0:0:
182,192,273029,1,0,0:0:0:0:
329,192,273087,1,0,0:0:0:0:
109,192,273144,1,0,0:0:0:0:
475,192,273144,1,0,0:0:0:0:
256,192,273201,1,0,0:0:0:0:
109,192,273258,1,0,0:0:0:0:
402,192,273315,1,0,0:0:0:0:
182,192,273372,1,0,0:0:0:0:
329,192,273372,1,0,0:0:0:0:
36,192,273429,1,0,0:0:0:0:
256,192,273486,1,0,0:0:0:0:
109,192,273543,1,0,0:0:0:0:
475,192,273600,1,0,0:0:0:0:
329,192,273600,1,0,0:0:0:0:
182,192,273657,1,0,0:0:0:0:
329,192,273714,1,0,0:0:0:0:
36,192,273714,1,0,0:0:0:0:
256,192,273828,1,0,0:0:0:0:
402,192,273828,1,0,0:0:0:0:
109,192,273885,1,0,0:0:0:0:
329,192,273942,1,0,0:0:0:0:
182,192,273999,1,0,0:0:0:0:
475,192,274056,1,0,0:0:0:0:
256,192,274113,1,0,0:0:0:0:
109,192,274170,1,0,0:0:0:0:
36,192,274170,1,0,0:0:0:0:
329,192,274227,1,0,0:0:0:0:
475,192,274284,1,0,0:0:0:0:
182,192,274284,1,0,0:0:0:0:
36,192,274341,1,0,0:0:0:0:
109,192,274398,1,0,0:0:0:0:
256,192,274455,1,0,0:0:0:0:
475,192,274512,1,0,0:0:0:0:
402,192,274512,1,0,0:0:0:0:
182,192,274569,1,0,0:0:0:0:
36,192,274626,1,0,0:0:0:0:
256,192,274683,1,0,0:0:0:0:
475,192,274740,1,0,0:0:0:0:
329,192,274740,1,0,0:0:0:0:
109,192,274797,1,0,0:0:0:0:
182,192,274854,1,0,0:0:0:0:
402,192,274911,1,0,0:0:0:0:
36,192,274968,1,0,0:0:0:0:
256,192,274968,1,0,0:0:0:0:
475,192,275025,1,0,0:0:0:0:
36,192,275082,1,0,0:0:0:0:
182,192,275139,1,0,0:0:0:0:
475,192,275196,1,0,0:0:0:0:
329,192,275196,1,0,0:0:0:0:
109,192,275253,1,0,0:0:0:0:
402,192,275310,1,0,0:0:0:0:
256,192,275310,1,0,0:0:0:0:
182,192,275367,1,0,0:0:0:0:
329,192,275424,1,0,0:0:0:0:
36,192,275424,1,0,0:0:0:0:
475,192,275481,1,0,0:0:0:0:
109,192,275538,1,0,0:0:0:0:
256,192,275595,1,0,0:0:0:0:
329,192,275652,1,0,0:0:0:0:
402,192,275652,1,0,0:0:0:0:
182,192,275709,1,0,0:0:0:0:
36,192,275766,1,0,0:0:0:0:
256,192,275823,1,0,0:0:0:0:
402,192,275880,1,0,0:0:0:0:
109,192,275937,1,0,0:0:0:0:
329,192,275994,1,0,0:0:0:0:
182,192,275994,1,0,0:0:0:0:
36,192,276051,1,0,0:0:0:0:
475,192,276108,1,0,0:0:0:0:
256,192,276108,1,0,0:0:0:0:
109,192,276165,1,0,0:0:0:0:
329,192,276222,1,0,0:0:0:0:
182,192,276279,1,0,0:0:0:0:
109,192,276337,1,0,0:0:0:0:
36,192,276337,1,0,0:0:0:0:
256,192,276394,1,0,0:0:0:0:
402,192,276451,1,0,0:0:0:0:
182,192,276508,1,0,0:0:0:0:
329,192,276565,1,0,0:0:0:0:
36,192,276565,1,0,0:0:0:0:
475,192,276622,1,0,0:0:0:0:
256,192,276679,1,0,0:0:0:0:
109,192,276736,1,0,0:0:0:0:
402,192,276793,1,0,0:0:0:0:
36,192,276793,1,0,0:0:0:0:
182,192,276850,1,0,0:0:0:0:
402,192,276907,1,0,0:0:0:0:
109,192,276964,1,0,0:0:0:0:
475,192,277021,1,0,0:0:0:0:
256,192,277021,1,0,0:0:0:0:
182,192,277078,1,0,0:0:0:0:
36,192,277135,1,0,0:0:0:0:
329,192,277192,1,0,0:0:0:0:
402,192,277249,1,0,0:0:0:0:
109,192,277249,1,0,0:0:0:0:
256,192,277306,1,0,0:0:0:0:
36,192,277363,1,0,0:0:0:0:
182,192,277363,1,0,0:0:0:0:
329,192,277420,1,0,0:0:0:0:
109,192,277477,1,0,0:0:0:0:
475,192,277477,1,0,0:0:0:0:
256,192,277534,1,0,0:0:0:0:
36,192,277591,1,0,0:0:0:0:
182,192,277648,1,0,0:0:0:0:
329,192,277705,1,0,0:0:0:0:
109,192,277762,1,0,0:0:0:0:
475,192,277819,1,0,0:0:0:0:
402,192,277819,1,0,0:0:0:0:
256,192,277876,1,0,0:0:0:0:
182,192,277933,1,0,0:0:0:0:
36,192,277933,1,0,0:0:0:0:
329,192,277990,1,0,0:0:0:0:
475,192,278047,1,0,0:0:0:0:
109,192,278104,1,0,0:0:0:0:
402,192,278161,1,0,0:0:0:0:
256,192,278161,1,0,0:0:0:0:
36,192,278218,1,0,0:0:0:0:
182,192,278275,1,0,0:0:0:0:
329,192,278332,1,0,0:0:0:0:
475,192,278389,1,0,0:0:0:0:
109,192,278389,1,0,0:0:0:0:
256,192,278446,1,0,0:0:0:0:
36,192,278503,1,0,0:0:0:0:
182,192,278560,1,0,0:0:0:0:
329,192,278617,1,0,0:0:0:0:
402,192,278617,1,0,0:0:0:0:
109,192,278674,1,0,0:0:0:0:
329,192,278731,1,0,0:0:0:0:
182,192,278788,1,0,0:0:0:0:
475,192,278845,1,0,0:0:0:0:
36,192,278845,1,0,0:0:0:0:
256,192,278902,1,0,0:0:0:0:
402,192,278959,1,0,0:0:0:0:
182,192,279016,1,0,0:0:0:0:
329,192,279073,1,0,0:0:0:0:
109,192,279073,1,0,0:0:0:0:
475,192,279130,1,0,0:0:0:0:
256,192,279187,1,0,0:0:0:0:
36,192,279244,1,0,0:0:0:0:
402,192,279301,1,0,0:0:0:0:
182,192,279301,1,0,0:0:0:0:
329,192,279358,1,0,0:0:0:0:
109,192,279415,1,0,0:0:0:0:
36,192,279472,1,0,0:0:0:0:
256,192,279529,1,0,0:0:0:0:
402,192,279587,1,0,0:0:0:0:
182,192,279644,1,0,0:0:0:0:
475,192,279644,1,0,0:0:0:0:
109,192,279701,1,0,0:0:0:0:
329,192,279758,1,0,0:0:0:0:
36,192,279758,1,0,0:0:0:0:
256,192,279815,1,0,0:0:0:0:
402,192,279872,1,0,0:0:0:0:
182,192,279929,1,0,0:0:0:0:
329,192,279986,1,0,0:0:0:0:
36,192,279986,1,0,0:0:0:0:
475,192,280043,1,0,0:0:0:0:
182,192,280100,1,0,0:0:0:0:
256,192,280157,1,0,0:0:0:0:
109,192,280214,1,0,0:0:0:0:
402,192,280214,1,0,0:0:0:0:
329,192,280271,1,0,0:0:0:0:
182,192,280328,1,0,0:0:0:0:
36,192,280385,1,0,0:0:0:0:
475,192,280442,1,0,0:0:0:0:
256,192,280442,1,0,0:0:0:0:
109,192,280499,1,0,0:0:0:0:
475,192,280556,1,0,0:0:0:0:
182,192,280613,1,0,0:0:0:0:
36,192,280670,1,0,0:0:0:0:
329,192,280670,1,0,0:0:0:0:
402,192,280727,1,0,0:0:0:0:
109,192,280784,1,0,0:0:0:0:
256,192,280841,1,0,0:0:0:0:
475,192,280898,1,0,0:0:0:0:
182,192,280898,1,0,0:0:0:0:
36,192,280955,1,0,0:0:0:0:
475,192,281012,1,0,0:0:0:0:
256,192,281069,1,0,0:0:0:0:
109,192,281126,1,0,0:0:0:0:
182,192,281126,1,0,0:0:0:0:
402,192,281183,1,0,0:0:0:0:
329,192,281240,1,0,0:0:0:0:
109,192,281297,1,0,0:0:0:0:
256,192,281354,1,0,0:0:0:0:
36,192,281411,1,0,0:0:0:0:
329,192,281468,1,0,0:0:0:0:
182,192,281468,1,0,0:0:0:0:
402,192,281525,1,0,0:0:0:0:
475,192,281582,1,0,0:0:0:0:
256,192,281582,1,0,0:0:0:0:
109,192,281639,1,0,0:0:0:0:
329,192,281696,1,0,0:0:0:0:
182,192,281753,1,0,0:0:0:0:
402,192,281810,1,0,0:0:0:0:
36,192,281810,1,0,0:0:0:0:
256,192,281867,1,0,0:0:0:0:
109,192,281924,1,0,0:0:0:0:
329,192,281981,1,0,0:0:0:0:
402,192,282038,1,0,0:0:0:0:
475,192,282038,1,0,0:0:0:0:
182,192,282095,1,0,0:0:0:0:
36,192,282152,1,0,0:0:0:0:
256,192,282209,1,0,0:0:0:0:
402,192,282266,1,0,0:0:0:0:
329,192,282266,1,0,0:0:0:0:
109,192,282323,1,0,0:0:0:0:
329,192,282380,1,0,0:0:0:0:
182,192,282437,1,0,0:0:0:0:
475,192,282494,1,0,0:0:0:0:
36,192,282494,1,0,0:0:0:0:
402,192,282551,1,0,0:0:0:0:
256,192,282608,1,0,0:0:0:0:
109,192,282665,1,0,0:0:0:0:
475,192,282722,1,0,0:0:0:0:
329,192,282722,1,0,0:0:0:0:
36,192,282722,1,0,0:0:0:0:
182,192,282779,1,0,0:0:0:0:
402,192,282837,1,0,0:0:0:0:
109,192,282894,1,0,0:0:0:0:
256,192,282951,1,0,0:0:0:0:
402,192,283008,1,0,0:0:0:0:
329,192,283065,1,0,0:0:0:0:
36,192,283065,1,0,0:0:0:0:
475,192,283122,1,0,0:0:0:0:
109,192,283122,1,0,0:0:0:0:
402,192,283179,1,0,0:0:0:0:
182,192,283179,1,0,0:0:0:0:
329,192,283236,1,0,0:0:0:0:
256,192,283293,1,0,0:0:0:0:
182,192,283350,1,0,0:0:0:0:
36,192,283407,1,0,0:0:0:0:
329,192,283464,1,0,0:0:0:0:
109,192,283521,1,0,0:0:0:0:
256,192,283578,1,0,0:0:0:0:
402,192,283635,1,0,0:0:0:0:
182,192,283692,1,0,0:0:0:0:
329,192,283749,1,0,0:0:0:0:
36,192,283806,1,0,0:0:0:0:
109,192,283863,1,0,0:0:0:0:
256,192,283920,1,0,0:0:0:0:
182,192,283977,1,0,0:0:0:0:
475,192,283977,1,0,0:0:0:0:
36,192,284034,1,0,0:0:0:0:
402,192,284034,1,0,0:0:0:0:
109,192,284091,1,0,0:0:0:0:
329,192,284091,1,0,0:0:0:0:
182,192,284148,1,0,0:0:0:0:
256,192,284205,1,0,0:0:0:0:
329,192,284262,1,0,0:0:0:0:
36,192,284319,1,0,0:0:0:0:
182,192,284376,1,0,0:0:0:0:
256,192,284433,1,0,0:0:0:0:
402,192,284490,1,0,0:0:0:0:
475,192,284547,1,0,0:0:0:0:
109,192,284604,1,0,0:0:0:0:
182,192,284661,1,0,0:0:0:0:
329,192,284718,1,0,0:0:0:0:
256,192,284775,1,0,0:0:0:0:
182,192,284832,1,0,0:0:0:0:
109,192,284889,1,0,0:0:0:0:
256,192,284946,1,0,0:0:0:0:
36,192,284946,1,0,0:0:0:0:
329,192,285003,1,0,0:0:0:0:
402,192,285060,1,0,0:0:0:0:
475,192,285117,1,0,0:0:0:0:
182,192,285174,1,0,0:0:0:0:
36,192,285231,1,0,0:0:0:0:
256,192,285288,1,0,0:0:0:0:
402,192,285345,1,0,0:0:0:0:
109,192,285402,1,0,0:0:0:0:
182,192,285459,1,0,0:0:0:0:
329,192,285516,1,0,0:0:0:0:
475,192,285573,1,0,0:0:0:0:
256,192,285630,1,0,0:0:0:0:
36,192,285687,1,0,0:0:0:0:
182,192,285744,1,0,0:0:0:0:
329,192,285801,1,0,0:0:0:0:
36,192,285858,1,0,0:0:0:0:
402,192,285858,1,0,0:0:0:0:
109,192,285915,1,0,0:0:0:0:
475,192,285915,1,0,0:0:0:0:
182,192,285972,1,0,0:0:0:0:
256,192,286029,1,0,0:0:0:0:
109,192,286087,1,0,0:0:0:0:
329,192,286144,1,0,0:0:0:0:
36,192,286144,1,0,0:0:0:0:
182,192,286201,1,0,0:0:0:0:
402,192,286258,1,0,0:0:0:0:
256,192,286315,1,0,0:0:0:0:
109,192,286372,1,0,0:0:0:0:
36,192,286429,1,0,0:0:0:0:
402,192,286486,1,0,0:0:0:0:
182,192,286543,1,0,0:0:0:0:
329,192,286600,1,0,0:0:0:0:
109,192,286657,1,0,0:0:0:0:
475,192,286657,1,0,0:0:0:0:
182,192,286714,1,0,0:0:0:0:
402,192,286771,1,0,0:0:0:0:
256,192,286771,1,0,0:0:0:0:
36,192,286828,1,0,0:0:0:0:
329,192,286828,1,0,0:0:0:0:
109,192,286885,1,0,0:0:0:0:
182,192,286942,1,0,0:0:0:0:
402,192,286999,1,0,0:0:0:0:
329,192,287056,1,0,0:0:0:0:
182,192,287113,1,0,0:0:0:0:
36,192,287170,1,0,0:0:0:0:
256,192,287227,1,0,0:0:0:0:
402,192,287284,1,0,0:0:0:0:
109,192,287341,1,0,0:0:0:0:
182,192,287398,1,0,0:0:0:0:
329,192,287455,1,0,0:0:0:0:
475,192,287512,1,0,0:0:0:0:
256,192,287569,1,0,0:0:0:0:
36,192,287569,1,0,0:0:0:0:
329,192,287626,1,0,0:0:0:0:
109,192,287626,1,0,0:0:0:0:
182,192,287683,1,0,0:0:0:0:
402,192,287683,1,0,0:0:0:0:
256,192,287740,1,0,0:0:0:0:
475,192,287797,1,0,0:0:0:0:
109,192,287854,1,0,0:0:0:0:
329,192,287911,1,0,0:0:0:0:
182,192,287968,1,0,0:0:0:0:
36,192,288025,1,0,0:0:0:0:
256,192,288082,1,0,0:0:0:0:
475,192,288139,1,0,0:0:0:0:
329,192,288196,1,0,0:0:0:0:
182,192,288253,1,0,0:0:0:0:
109,192,288310,1,0,0:0:0:0:
256,192,288367,1,0,0:0:0:0:
402,192,288424,1,0,0:0:0:0:
36,192,288481,1,0,0:0:0:0:
475,192,288481,1,0,0:0:0:0:
329,192,288538,1,0,0:0:0:0:
109,192,288538,1,0,0:0:0:0:
402,192,288595,1,0,0:0:0:0:
182,192,288595,1,0,0:0:0:0:
256,192,288652,1,0,0:0:0:0:
109,192,288709,1,0,0:0:0:0:
182,192,288766,1,0,0:0:0:0:
329,192,288823,1,0,0:0:0:0:
475,192,288880,1,0,0:0:0:0:
256,192,288937,1,0,0:0:0:0:
109,192,288994,1,0,0:0:0:0:
402,192,289051,1,0,0:0:0:0:
36,192,289108,1,0,0:0:0:0:
182,192,289165,1,0,0:0:0:0:
329,192,289222,1,0,0:0:0:0:
109,192,289279,1,0,0:0:0:0:
256,192,289337,1,0,0:0:0:0:
402,192,289394,1,0,0:0:0:0:
182,192,289451,1,0,0:0:0:0:
329,192,289508,1,0,0:0:0:0:
475,192,289565,1,0,0:0:0:0:
329,192,289622,1,0,0:0:0:0:
182,192,289679,1,0,0:0:0:0:
402,192,289736,1,0,0:0:0:0:
256,192,289793,1,0,0:0:0:0:
109,192,289850,1,0,0:0:0:0:
329,192,289907,1,0,0:0:0:0:
182,192,289964,1,0,0:0:0:0:
475,192,290021,1,0,0:0:0:0:
36,192,290021,1,0,0:0:0:0:
329,192,290078,1,0,0:0:0:0:
109,192,290135,1,0,0:0:0:0:
402,192,290192,1,0,0:0:0:0:
256,192,290249,1,0,0:0:0:0:
109,192,290306,1,0,0:0:0:0:
182,192,290363,1,0,0:0:0:0:
475,192,290363,1,0,0:0:0:0:
36,192,290420,1,0,0:0:0:0:
402,192,290420,1,0,0:0:0:0:
109,192,290477,1,0,0:0:0:0:
329,192,290477,1,0,0:0:0:0:
182,192,290534,1,0,0:0:0:0:
256,192,290591,1,0,0:0:0:0:
329,192,290648,1,0,0:0:0:0:
475,192,290705,1,0,0:0:0:0:
182,192,290762,1,0,0:0:0:0:
402,192,290819,1,0,0:0:0:0:
256,192,290876,1,0,0:0:0:0:
109,192,290933,1,0,0:0:0:0:
329,192,290990,1,0,0:0:0:0:
182,192,291047,1,0,0:0:0:0:
475,192,291104,1,0,0:0:0:0:
402,192,291161,1,0,0:0:0:0:
256,192,291218,1,0,0:0:0:0:
329,192,291275,1,0,0:0:0:0:
36,192,291275,1,0,0:0:0:0:
475,192,291332,1,0,0:0:0:0:
109,192,291332,1,0,0:0:0:0:
402,192,291389,1,0,0:0:0:0:
182,192,291389,1,0,0:0:0:0:
329,192,291446,1,0,0:0:0:0:
256,192,291503,1,0,0:0:0:0:
182,192,291560,1,0,0:0:0:0:
475,192,291617,1,0,0:0:0:0:
329,192,291674,1,0,0:0:0:0:
256,192,291731,1,0,0:0:0:0:
109,192,291788,1,0,0:0:0:0:
36,192,291845,1,0,0:0:0:0:
402,192,291902,1,0,0:0:0:0:
329,192,291959,1,0,0:0:0:0:
182,192,292016,1,0,0:0:0:0:
256,192,292073,1,0,0:0:0:0:
329,192,292130,1,0,0:0:0:0:
402,192,292187,1,0,0:0:0:0:
256,192,292244,1,0,0:0:0:0:
475,192,292244,1,0,0:0:0:0:
182,192,292301,1,0,0:0:0:0:
109,192,292358,1,0,0:0:0:0:
36,192,292415,1,0,0:0:0:0:
329,192,292472,1,0,0:0:0:0:
475,192,292529,1,0,0:0:0:0:
256,192,292587,1,0,0:0:0:0:
109,192,292644,1,0,0:0:0:0:
402,192,292701,1,0,0:0:0:0:
329,192,292758,1,0,0:0:0:0:
182,192,292815,1,0,0:0:0:0:
36,192,292872,1,0,0:0:0:0:
256,192,292929,1,0,0:0:0:0:
475,192,292986,1,0,0:0:0:0:
329,192,293043,1,0,0:0:0:0:
182,192,293100,1,0,0:0:0:0:
475,192,293157,1,0,0:0:0:0:
109,192,293157,1,0,0:0:0:0:
402,192,293214,1,0,0:0:0:0:
36,192,293214,1,0,0:0:0:0:
329,192,293271,1,0,0:0:0:0:
256,192,293328,1,0,0:0:0:0:
402,192,293385,1,0,0:0:0:0:
182,192,293442,1,0,0:0:0:0:
475,192,293442,1,0,0:0:0:0:
329,192,293499,1,0,0:0:0:0:
109,192,293556,1,0,0:0:0:0:
256,192,293613,1,0,0:0:0:0:
402,192,293670,1,0,0:0:0:0:
475,192,293727,1,0,0:0:0:0:
109,192,293784,1,0,0:0:0:0:
329,192,293841,1,0,0:0:0:0:
182,192,293898,1,0,0:0:0:0:
402,192,293955,1,0,0:0:0:0:
36,192,293955,1,0,0:0:0:0:
329,192,294012,1,0,0:0:0:0:
109,192,294069,1,0,0:0:0:0:
256,192,294069,1,0,0:0:0:0:
475,192,294126,1,0,0:0:0:0:
182,192,294126,1,0,0:0:0:0:
402,192,294183,1,0,0:0:0:0:
329,192,294240,1,0,0:0:0:0:
109,192,294297,1,0,0:0:0:0:
182,192,294354,1,0,0:0:0:0:
329,192,294411,1,0,0:0:0:0:
475,192,294468,1,0,0:0:0:0:
256,192,294525,1,0,0:0:0:0:
109,192,294582,1,0,0:0:0:0:
402,192,294639,1,0,0:0:0:0:
329,192,294696,1,0,0:0:0:0:
182,192,294753,1,0,0:0:0:0:
36,192,294810,1,0,0:0:0:0:
256,192,294867,1,0,0:0:0:0:
475,192,294867,1,0,0:0:0:0:
182,192,294924,1,0,0:0:0:0:
402,192,294924,1,0,0:0:0:0:
329,192,294981,1,0,0:0:0:0:
109,192,294981,1,0,0:0:0:0:
256,192,295038,1,0,0:0:0:0:
36,192,295095,1,0,0:0:0:0:
402,192,295152,1,0,0:0:0:0:
182,192,295209,1,0,0:0:0:0:
329,192,295266,1,0,0:0:0:0:
475,192,295323,1,0,0:0:0:0:
256,192,295380,1,0,0:0:0:0:
36,192,295437,1,0,0:0:0:0:
182,192,295494,1,0,0:0:0:0:
329,192,295551,1,0,0:0:0:0:
402,192,295608,1,0,0:0:0:0:
256,192,295665,1,0,0:0:0:0:
109,192,295722,1,0,0:0:0:0:
475,192,295779,1,0,0:0:0:0:
36,192,295779,1,0,0:0:0:0:
182,192,295837,1,0,0:0:0:0:
402,192,295837,1,0,0:0:0:0:
109,192,295894,1,0,0:0:0:0:
329,192,295894,1,0,0:0:0:0:
256,192,295951,1,0,0:0:0:0:
402,192,296008,1,0,0:0:0:0:
329,192,296065,1,0,0:0:0:0:
182,192,296122,1,0,0:0:0:0:
36,192,296179,1,0,0:0:0:0:
256,192,296236,1,0,0:0:0:0:
402,192,296293,1,0,0:0:0:0:
109,192,296350,1,0,0:0:0:0:
256,192,296407,1,0,0:0:0:0:
329,192,296445,1,0,0:0:0:0:
402,192,296483,1,0,0:0:0:0:
36,192,296521,1,0,0:0:0:0:
475,192,296521,1,0,0:0:0:0:
109,192,296559,1,0,0:0:0:0:
182,192,296597,1,0,0:0:0:0:
329,192,296635,1,0,0:0:0:0:
402,192,296673,1,0,0:0:0:0:
475,192,296711,1,0,0:0:0:0:
256,192,296749,1,0,0:0:0:0:
182,192,296787,1,0,0:0:0:0:
109,192,296825,1,0,0:0:0:0:
36,192,296863,1,0,0:0:0:0:
402,192,296901,1,0,0:0:0:0:
329,192,296939,1,0,0:0:0:0:
256,192,296977,1,0,0:0:0:0:
182,192,297015,1,0,0:0:0:0:
36,192,297053,1,0,0:0:0:0:
109,192,297091,1,0,0:0:0:0:
329,192,297129,1,0,0:0:0:0:
402,192,297167,1,0,0:0:0:0:
36,192,297205,1,0,0:0:0:0:
475,192,297205,1,0,0:0:0:0:
109,192,297243,1,0,0:0:0:0:
182,192,297281,1,0,0:0:0:0:
329,192,297319,1,0,0:0:0:0:
256,192,297319,1,0,0:0:0:0:
182,192,297433,1,0,0:0:0:0:
329,192,297547,1,0,0:0:0:0:
182,192,297661,1,0,0:0:0:0:
475,192,297775,1,0,0:0:0:0:
329,192,297775,1,0,0:0:0:0:
182,192,297889,1,0,0:0:0:0:
329,192,298003,1,0,0:0:0:0:
256,192,298117,1,0,0:0:0:0:
182,192,298231,1,0,0:0:0:0:
64,0,298231,1,0,0:0:0:0:
320,0,298345,1,0,0:0:0:0:
192,0,298459,1,0,0:0:0:0:
64,0,298459,1,0,0:0:0:0:
256,192,298573,1,0,0:0:0:0:
329,192,298687,1,0,0:0:0:0:
448,0,298687,1,0,0:0:0:0:
182,192,298801,1,0,0:0:0:0:
329,192,298915,1,0,0:0:0:0:
182,192,299029,1,0,0:0:0:0:
329,192,299144,1,0,0:0:0:0:
475,192,299201,1,0,0:0:0:0:
256,192,299258,1,0,0:0:0:0:
402,192,299315,1,0,0:0:0:0:
182,192,299372,1,0,0:0:0:0:
329,192,299429,1,0,0:0:0:0:
109,192,299486,1,0,0:0:0:0:
256,192,299543,1,0,0:0:0:0:
64,0,299600,1,0,0:0:0:0:
182,192,299657,1,0,0:0:0:0:
475,192,299714,1,0,0:0:0:0:
329,192,299714,1,0,0:0:0:0:
109,192,299771,1,0,0:0:0:0:
402,192,299828,1,0,0:0:0:0:
256,192,299828,1,0,0:0:0:0:
182,192,299885,1,0,0:0:0:0:
329,192,299942,1,0,0:0:0:0:
182,192,300056,1,0,0:0:0:0:
36,192,300056,1,0,0:0:0:0:
329,192,300170,1,0,0:0:0:0:
36,192,300284,1,0,0:0:0:0:
182,192,300284,1,0,0:0:0:0:
256,192,300398,1,0,0:0:0:0:
329,192,300512,1,0,0:0:0:0:
448,0,300512,1,0,0:0:0:0:
182,192,300626,1,0,0:0:0:0:
320,0,300740,1,0,0:0:0:0:
256,192,300854,1,0,0:0:0:0:
36,192,300968,1,0,0:0:0:0:
182,192,300968,1,0,0:0:0:0:
329,192,301082,1,0,0:0:0:0:
182,192,301196,1,0,0:0:0:0:
256,192,301310,1,0,0:0:0:0:
448,0,301424,1,0,0:0:0:0:
320,0,301424,1,0,0:0:0:0:
192,0,301538,1,0,0:0:0:0:
320,0,301652,1,0,0:0:0:0:
256,192,301766,1,0,0:0:0:0:
36,192,301880,1,0,0:0:0:0:
182,192,301880,1,0,0:0:0:0:
329,192,301994,1,0,0:0:0:0:
36,192,302108,1,0,0:0:0:0:
182,192,302108,1,0,0:0:0:0:
256,192,302222,1,0,0:0:0:0:
475,192,302337,1,0,0:0:0:0:
320,0,302337,1,0,0:0:0:0:
192,0,302451,1,0,0:0:0:0:
320,0,302565,1,0,0:0:0:0:
402,192,302622,1,0,0:0:0:0:
109,192,302679,1,0,0:0:0:0:
192,0,302736,1,0,0:0:0:0:
256,192,302793,1,0,0:0:0:0:
448,0,302793,1,0,0:0:0:0:
329,192,302850,1,0,0:0:0:0:
109,192,302907,1,0,0:0:0:0:
182,192,302964,1,0,0:0:0:0:
402,192,303021,1,0,0:0:0:0:
320,0,303078,1,0,0:0:0:0:
256,192,303135,1,0,0:0:0:0:
109,192,303192,1,0,0:0:0:0:
182,192,303249,1,0,0:0:0:0:
329,192,303306,1,0,0:0:0:0:
475,192,303363,1,0,0:0:0:0:
64,0,303363,1,0,0:0:0:0:
192,0,303420,1,0,0:0:0:0:
320,0,303477,1,0,0:0:0:0:
256,192,303591,1,0,0:0:0:0:
182,192,303705,1,0,0:0:0:0:
64,0,303705,1,0,0:0:0:0:
329,192,303819,1,0,0:0:0:0:
192,0,303933,1,0,0:0:0:0:
64,0,303933,1,0,0:0:0:0:
256,192,304047,1,0,0:0:0:0:
475,192,304161,1,0,0:0:0:0:
329,192,304161,1,0,0:0:0:0:
256,192,304275,1,0,0:0:0:0:
192,0,304389,1,0,0:0:0:0:
64,0,304389,1,0,0:0:0:0:
329,192,304503,1,0,0:0:0:0:
192,0,304617,1,0,0:0:0:0:
64,0,304617,1,0,0:0:0:0:
320,0,304731,1,0,0:0:0:0:
182,192,304845,1,0,0:0:0:0:
256,192,304959,1,0,0:0:0:0:
329,192,305073,1,0,0:0:0:0:
448,0,305073,1,0,0:0:0:0:
182,192,305187,1,0,0:0:0:0:
329,192,305301,1,0,0:0:0:0:
256,192,305415,1,0,0:0:0:0:
192,0,305529,1,0,0:0:0:0:
64,0,305529,1,0,0:0:0:0:
320,0,305644,1,0,0:0:0:0:
192,0,305758,1,0,0:0:0:0:
64,0,305758,1,0,0:0:0:0:
256,192,305872,1,0,0:0:0:0:
329,192,305986,1,0,0:0:0:0:
448,0,305986,1,0,0:0:0:0:
182,192,306100,1,0,0:0:0:0:
329,192,306214,1,0,0:0:0:0:
256,192,306328,1,0,0:0:0:0:
192,0,306442,1,0,0:0:0:0:
64,0,306442,1,0,0:0:0:0:
320,0,306499,1,0,0:0:0:0:
475,0,306556,1,0,0:0:0:0:
109,0,306613,1,0,0:0:0:0:
256,0,306670,1,0,0:0:0:0:
182,0,306727,1,0,0:0:0:0:
402,0,306784,1,0,0:0:0:0:
320,0,306841,1,0,0:0:0:0:
109,0,306898,1,0,0:0:0:0:
256,0,306955,1,0,0:0:0:0:
475,0,307012,1,0,0:0:0:0:
320,0,307069,1,0,0:0:0:0:
192,0,307126,1,0,0:0:0:0:
109,0,307183,1,0,0:0:0:0:
402,0,307240,1,0,0:0:0:0:
256,0,307297,1,0,0:0:0:0:
182,0,307354,1,0,0:0:0:0:
36,0,307354,1,0,0:0:0:0:
329,0,307468,1,0,0:0:0:0:
192,0,307582,1,0,0:0:0:0:
64,0,307582,1,0,0:0:0:0:
256,0,307696,1,0,0:0:0:0:
320,0,307810,1,0,0:0:0:0:
475,0,307810,1,0,0:0:0:0:
256,0,307924,1,0,0:0:0:0:
182,0,308038,1,0,0:0:0:0:
64,0,308038,1,0,0:0:0:0:
329,0,308152,1,0,0:0:0:0:
182,0,308266,1,0,0:0:0:0:
64,0,308266,1,0,0:0:0:0:
329,0,308380,1,0,0:0:0:0:
182,0,308494,1,0,0:0:0:0:
256,0,308608,1,0,0:0:0:0:
448,0,308722,1,0,0:0:0:0:
320,0,308722,1,0,0:0:0:0:
192,0,308837,1,0,0:0:0:0:
320,0,308951,1,0,0:0:0:0:
256,0,309065,1,0,0:0:0:0:
182,0,309179,1,0,0:0:0:0:
36,0,309179,1,0,0:0:0:0:
329,0,309293,1,0,0:0:0:0:
36,0,309407,1,0,0:0:0:0:
182,0,309407,1,0,0:0:0:0:
256,0,309521,1,0,0:0:0:0:
320,0,309635,1,0,0:0:0:0:
475,0,309635,1,0,0:0:0:0:
192,0,309692,1,0,0:0:0:0:
36,0,309749,1,0,0:0:0:0:
256,0,309806,1,0,0:0:0:0:
109,0,309863,1,0,0:0:0:0:
402,0,309920,1,0,0:0:0:0:
182,0,309977,1,0,0:0:0:0:
320,0,310034,1,0,0:0:0:0:
448,0,310091,1,0,0:0:0:0:
36,0,310091,1,0,0:0:0:0:
182,0,310148,1,0,0:0:0:0:
402,0,310205,1,0,0:0:0:0:
256,0,310262,1,0,0:0:0:0:
109,0,310319,1,0,0:0:0:0:
320,0,310376,1,0,0:0:0:0:
182,0,310433,1,0,0:0:0:0:
402,0,310490,1,0,0:0:0:0:
448,0,310547,1,0,0:0:0:0:
256,0,310547,1,0,0:0:0:0:
64,0,310604,1,0,0:0:0:0:
192,0,310661,1,0,0:0:0:0:
402,0,310718,1,0,0:0:0:0:
256,0,310775,1,0,0:0:0:0:
109,0,310832,1,0,0:0:0:0:
475,0,310889,1,0,0:0:0:0:
329,0,310946,1,0,0:0:0:0:
36,0,311003,1,0,0:0:0:0:
182,0,311003,1,0,0:0:0:0:
329,0,311117,1,0,0:0:0:0:
36,0,311231,1,0,0:0:0:0:
192,0,311231,1,0,0:0:0:0:
256,0,311345,1,0,0:0:0:0:
448,0,311459,1,0,0:0:0:0:
320,0,311459,1,0,0:0:0:0:
256,0,311573,1,0,0:0:0:0:
36,0,311687,1,0,0:0:0:0:
192,0,311687,1,0,0:0:0:0:
329,0,311801,1,0,0:0:0:0:
256,192,311915,1,0,0:0:0:0:
109,0,311915,1,0,0:0:0:0:
402,0,311915,1,0,0:0:0:0:
402,0,312029,1,0,0:0:0:0:
192,0,312144,1,0,0:0:0:0:
475,192,312258,1,0,0:0:0:0:
320,0,312372,1,0,0:0:0:0:
192,0,312372,1,0,0:0:0:0:
64,0,312372,1,0,0:0:0:0:
182,0,312486,1,0,0:0:0:0:
109,192,312600,1,0,0:0:0:0:
256,192,312714,1,0,0:0:0:0:
182,192,312828,1,0,0:0:0:0:
448,0,312828,1,0,0:0:0:0:
64,0,312828,1,0,0:0:0:0:
475,0,312942,1,0,0:0:0:0:
256,192,313056,1,0,0:0:0:0:
109,0,313056,1,0,0:0:0:0:
320,0,313170,1,0,0:0:0:0:
36,192,313284,1,0,0:0:0:0:
475,0,313284,1,0,0:0:0:0:
192,0,313284,1,0,0:0:0:0:
329,0,313398,1,0,0:0:0:0:
182,192,313512,1,0,0:0:0:0:
329,192,313626,1,0,0:0:0:0:
402,192,313740,1,0,0:0:0:0:
109,0,313740,1,0,0:0:0:0:
109,192,313854,1,0,0:0:0:0:
256,192,313968,1,0,0:0:0:0:
402,192,314082,1,0,0:0:0:0:
182,192,314196,1,0,0:0:0:0:
36,0,314196,1,0,0:0:0:0:
475,0,314196,1,0,0:0:0:0:
329,0,314310,1,0,0:0:0:0:
182,192,314424,1,0,0:0:0:0:
256,192,314538,1,0,0:0:0:0:
36,192,314652,1,0,0:0:0:0:
192,0,314652,1,0,0:0:0:0:
329,192,314766,1,0,0:0:0:0:
36,192,314880,1,0,0:0:0:0:
182,192,314880,1,0,0:0:0:0:
256,0,314994,1,0,0:0:0:0:
448,0,315108,1,0,0:0:0:0:
320,0,315108,1,0,0:0:0:0:
109,0,315108,1,0,0:0:0:0:
256,192,315222,1,0,0:0:0:0:
182,192,315336,1,0,0:0:0:0:
402,192,315336,1,0,0:0:0:0:
402,192,315451,1,0,0:0:0:0:
36,192,315565,1,0,0:0:0:0:
182,192,315565,1,0,0:0:0:0:
329,192,315565,1,0,0:0:0:0:
182,192,315679,1,0,0:0:0:0:
402,192,315793,1,0,0:0:0:0:
109,192,315793,1,0,0:0:0:0:
182,192,315907,1,0,0:0:0:0:
448,0,316021,1,0,0:0:0:0:
320,0,316021,1,0,0:0:0:0:
109,0,316021,1,0,0:0:0:0:
256,0,316135,1,0,0:0:0:0:
109,0,316249,1,0,0:0:0:0:
182,0,316363,1,0,0:0:0:0:
36,192,316477,1,0,0:0:0:0:
402,192,316477,1,0,0:0:0:0:
256,0,316477,1,0,0:0:0:0:
402,192,316591,1,0,0:0:0:0:
329,192,316705,1,0,0:0:0:0:
192,0,316705,1,0,0:0:0:0:
109,192,316819,1,0,0:0:0:0:
182,192,316933,1,0,0:0:0:0:
475,192,316933,1,0,0:0:0:0:
329,0,316933,1,0,0:0:0:0:
109,192,317047,1,0,0:0:0:0:
182,192,317161,1,0,0:0:0:0:
36,192,317275,1,0,0:0:0:0:
256,192,317275,1,0,0:0:0:0:
109,192,317389,1,0,0:0:0:0:
448,0,317389,1,0,0:0:0:0:
329,0,317389,1,0,0:0:0:0:
448,0,317503,1,0,0:0:0:0:
109,192,317617,1,0,0:0:0:0:
256,192,317731,1,0,0:0:0:0:
182,192,317845,1,0,0:0:0:0:
329,0,317845,1,0,0:0:0:0:
64,0,317845,1,0,0:0:0:0:
329,0,317959,1,0,0:0:0:0:
109,192,318073,1,0,0:0:0:0:
256,192,318187,1,0,0:0:0:0:
182,192,318301,1,0,0:0:0:0:
36,0,318301,1,0,0:0:0:0:
402,0,318301,1,0,0:0:0:0:
402,192,318415,1,0,0:0:0:0:
192,0,318529,1,0,0:0:0:0:
64,0,318529,1,0,0:0:0:0:
256,0,318644,1,0,0:0:0:0:
109,192,318758,1,0,0:0:0:0:
448,0,318758,1,0,0:0:0:0:
320,0,318758,1,0,0:0:0:0:
329,0,318872,1,0,0:0:0:0:
182,192,318986,1,0,0:0:0:0:
64,0,318986,1,0,0:0:0:0:
256,192,319100,1,0,0:0:0:0:
109,192,319214,1,0,0:0:0:0:
448,0,319214,1,0,0:0:0:0:
320,0,319214,1,0,0:0:0:0:
329,192,319328,1,0,0:0:0:0:
109,192,319442,1,0,0:0:0:0:
192,0,319442,1,0,0:0:0:0:
329,192,319556,1,0,0:0:0:0:
256,192,319670,1,0,0:0:0:0:
36,0,319670,1,0,0:0:0:0:
475,192,319670,1,0,0:0:0:0:
36,192,319784,1,0,0:0:0:0:
182,192,319898,1,0,0:0:0:0:
329,192,320012,1,0,0:0:0:0:
109,192,320126,1,0,0:0:0:0:
402,192,320126,1,0,0:0:0:0:
402,192,320240,1,0,0:0:0:0:
109,192,320354,1,0,0:0:0:0:
182,192,320354,1,0,0:0:0:0:
329,0,320468,1,0,0:0:0:0:
448,0,320582,1,0,0:0:0:0:
109,0,320582,1,0,0:0:0:0:
64,0,320582,1,0,0:0:0:0:
329,192,320696,1,0,0:0:0:0:
192,0,320810,1,0,0:0:0:0:
329,192,320924,1,0,0:0:0:0:
36,192,321038,1,0,0:0:0:0:
448,0,321038,1,0,0:0:0:0:
192,0,321038,1,0,0:0:0:0:
182,192,321152,1,0,0:0:0:0:
320,0,321266,1,0,0:0:0:0:
182,192,321380,1,0,0:0:0:0:
256,192,321494,1,0,0:0:0:0:
448,0,321494,1,0,0:0:0:0:
402,0,321494,1,0,0:0:0:0:
182,192,321608,1,0,0:0:0:0:
109,192,321722,1,0,0:0:0:0:
329,0,321722,1,0,0:0:0:0:
256,0,321836,1,0,0:0:0:0:
192,0,321951,1,0,0:0:0:0:
64,0,321951,1,0,0:0:0:0:
329,192,322065,1,0,0:0:0:0:
36,192,322179,1,0,0:0:0:0:
182,0,322179,1,0,0:0:0:0:
256,192,322293,1,0,0:0:0:0:
109,192,322407,1,0,0:0:0:0:
402,192,322407,1,0,0:0:0:0:
475,0,322407,1,0,0:0:0:0:
182,192,322521,1,0,0:0:0:0:
402,192,322635,1,0,0:0:0:0:
256,192,322635,1,0,0:0:0:0:
256,192,322749,1,0,0:0:0:0:
329,192,322863,1,0,0:0:0:0:
109,0,322863,1,0,0:0:0:0:
109,0,322977,1,0,0:0:0:0:
36,192,323091,1,0,0:0:0:0:
182,0,323091,1,0,0:0:0:0:
329,192,323205,1,0,0:0:0:0:
448,0,323319,1,0,0:0:0:0:
192,0,323319,1,0,0:0:0:0:
36,192,323319,1,0,0:0:0:0:
329,192,323433,1,0,0:0:0:0:
256,192,323547,1,0,0:0:0:0:
109,0,323547,1,0,0:0:0:0:
402,0,323661,1,0,0:0:0:0:
329,192,323775,1,0,0:0:0:0:
36,192,323775,1,0,0:0:0:0:
329,192,323889,1,0,0:0:0:0:
182,192,324003,1,0,0:0:0:0:
109,192,324003,1,0,0:0:0:0:
329,192,324117,1,0,0:0:0:0:
475,192,324231,1,0,0:0:0:0:
192,0,324231,1,0,0:0:0:0:
64,0,324231,1,0,0:0:0:0:
256,0,324345,1,0,0:0:0:0:
329,192,324459,1,0,0:0:0:0:
109,192,324459,1,0,0:0:0:0:
182,192,324573,1,0,0:0:0:0:
329,192,324687,1,0,0:0:0:0:
448,0,324687,1,0,0:0:0:0:
329,192,324801,1,0,0:0:0:0:
109,192,324915,1,0,0:0:0:0:
182,192,325029,1,0,0:0:0:0:
256,192,325144,1,0,0:0:0:0:
448,0,325144,1,0,0:0:0:0:
64,0,325144,1,0,0:0:0:0:
256,192,325258,1,0,0:0:0:0:
109,192,325372,1,0,0:0:0:0:
402,192,325486,1,0,0:0:0:0:
329,192,325600,1,0,0:0:0:0:
182,0,325600,1,0,0:0:0:0:
329,192,325714,1,0,0:0:0:0:
109,192,325828,1,0,0:0:0:0:
192,0,325828,1,0,0:0:0:0:
182,192,325942,1,0,0:0:0:0:
402,192,326056,1,0,0:0:0:0:
36,192,326056,1,0,0:0:0:0:
320,0,326056,1,0,0:0:0:0:
320,0,326170,1,0,0:0:0:0:
109,192,326284,1,0,0:0:0:0:
182,192,326284,1,0,0:0:0:0:
182,192,326398,1,0,0:0:0:0:
256,192,326398,1,0,0:0:0:0:
36,192,326512,1,0,0:0:0:0:
256,192,326512,1,0,0:0:0:0:
448,0,326512,1,0,0:0:0:0:
329,0,326626,1,0,0:0:0:0:
109,0,326626,1,0,0:0:0:0:
402,0,326740,1,0,0:0:0:0:
182,0,326740,1,0,0:0:0:0:
329,0,326854,1,0,0:0:0:0:
109,0,326854,1,0,0:0:0:0:
256,0,326968,1,0,0:0:0:0:
475,0,326968,1,0,0:0:0:0:
182,0,327082,1,0,0:0:0:0:
109,0,327082,1,0,0:0:0:0:
320,0,327196,1,0,0:0:0:0:
402,0,327196,1,0,0:0:0:0:
109,192,327310,1,0,0:0:0:0:
182,0,327310,1,0,0:0:0:0:
256,192,327424,1,0,0:0:0:0:
64,0,327424,1,0,0:0:0:0:
329,192,327538,1,0,0:0:0:0:
109,192,327538,1,0,0:0:0:0:
402,192,327652,1,0,0:0:0:0:
192,0,327652,1,0,0:0:0:0:
329,192,327766,1,0,0:0:0:0:
109,192,327766,1,0,0:0:0:0:
475,192,327880,1,0,0:0:0:0:
256,192,327880,1,0,0:0:0:0:
36,192,327994,1,0,0:0:0:0:
192,0,327994,1,0,0:0:0:0:
448,0,328108,1,0,0:0:0:0:
320,0,328108,1,0,0:0:0:0:
256,192,328222,1,0,0:0:0:0:
109,192,328222,1,0,0:0:0:0:
192,0,328336,1,0,0:0:0:0:
64,0,328336,1,0,0:0:0:0:
402,192,328451,1,0,0:0:0:0:
256,192,328451,1,0,0:0:0:0:
329,192,328565,1,0,0:0:0:0:
475,192,328565,1,0,0:0:0:0:
402,192,328679,1,0,0:0:0:0:
256,192,328679,1,0,0:0:0:0:
64,0,328793,1,0,0:0:0:0:
109,192,328850,1,0,0:0:0:0:
182,192,328907,1,0,0:0:0:0:
64,0,328964,1,0,0:0:0:0:
329,192,329021,1,0,0:0:0:0:
109,192,329021,1,0,0:0:0:0:
182,192,329078,1,0,0:0:0:0:
329,192,329135,1,0,0:0:0:0:
192,0,329192,1,0,0:0:0:0:
36,192,329249,1,0,0:0:0:0:
402,192,329249,1,0,0:0:0:0:
256,192,329363,1,0,0:0:0:0:
109,192,329363,1,0,0:0:0:0:
329,192,329477,1,0,0:0:0:0:
192,0,329477,1,0,0:0:0:0:
256,192,329591,1,0,0:0:0:0:
109,192,329591,1,0,0:0:0:0:
448,0,329705,1,0,0:0:0:0:
320,0,329705,1,0,0:0:0:0:
182,192,329819,1,0,0:0:0:0:
402,192,329819,1,0,0:0:0:0:
109,192,329933,1,0,0:0:0:0:
320,0,329933,1,0,0:0:0:0:
182,192,330047,1,0,0:0:0:0:
402,192,330047,1,0,0:0:0:0:
256,192,330161,1,0,0:0:0:0:
448,0,330161,1,0,0:0:0:0:
109,192,330275,1,0,0:0:0:0:
320,0,330275,1,0,0:0:0:0:
402,192,330389,1,0,0:0:0:0:
192,0,330389,1,0,0:0:0:0:
109,192,330503,1,0,0:0:0:0:
320,0,330503,1,0,0:0:0:0:
448,0,330617,1,0,0:0:0:0:
64,0,330617,1,0,0:0:0:0:
329,192,330731,1,0,0:0:0:0:
182,192,330731,1,0,0:0:0:0:
402,192,330845,1,0,0:0:0:0:
109,192,330845,1,0,0:0:0:0:
329,192,330959,1,0,0:0:0:0:
192,0,330959,1,0,0:0:0:0:
256,192,331073,1,0,0:0:0:0:
64,0,331073,1,0,0:0:0:0:
402,192,331187,1,0,0:0:0:0:
192,0,331187,1,0,0:0:0:0:
475,192,331301,1,0,0:0:0:0:
256,192,331301,1,0,0:0:0:0:
109,192,331415,1,0,0:0:0:0:
320,0,331415,1,0,0:0:0:0:
182,192,331529,1,0,0:0:0:0:
402,192,331529,1,0,0:0:0:0:
109,192,331644,1,0,0:0:0:0:
36,192,331644,1,0,0:0:0:0:
329,192,331758,1,0,0:0:0:0:
448,0,331758,1,0,0:0:0:0:
109,192,331872,1,0,0:0:0:0:
64,0,331872,1,0,0:0:0:0:
256,192,331986,1,0,0:0:0:0:
320,0,331986,1,0,0:0:0:0:
448,0,332043,1,0,0:0:0:0:
192,0,332100,1,0,0:0:0:0:
320,0,332157,1,0,0:0:0:0:
64,0,332214,1,0,0:0:0:0:
256,192,332271,1,0,0:0:0:0:
109,192,332328,1,0,0:0:0:0:
329,192,332385,1,0,0:0:0:0:
192,0,332442,1,0,0:0:0:0:
402,192,332499,1,0,0:0:0:0:
109,192,332556,1,0,0:0:0:0:
256,192,332613,1,0,0:0:0:0:
448,0,332670,1,0,0:0:0:0:
36,192,332727,1,0,0:0:0:0:
320,0,332784,1,0,0:0:0:0:
182,192,332841,1,0,0:0:0:0:
109,192,332898,1,0,0:0:0:0:
402,192,332898,1,0,0:0:0:0:
256,192,333012,1,0,0:0:0:0:
402,192,333126,1,0,0:0:0:0:
109,192,333126,1,0,0:0:0:0:
192,0,333240,1,0,0:0:0:0:
64,0,333240,1,0,0:0:0:0:
448,0,333354,1,0,0:0:0:0:
320,0,333354,1,0,0:0:0:0:
109,192,333468,1,0,0:0:0:0:
256,192,333468,1,0,0:0:0:0:
475,192,333582,1,0,0:0:0:0:
320,0,333582,1,0,0:0:0:0:
36,192,333696,1,0,0:0:0:0:
182,192,333696,1,0,0:0:0:0:
402,192,333810,1,0,0:0:0:0:
256,192,333810,1,0,0:0:0:0:
329,192,333924,1,0,0:0:0:0:
109,192,334038,1,0,0:0:0:0:
256,192,334038,1,0,0:0:0:0:
192,0,334152,1,0,0:0:0:0:
64,0,334152,1,0,0:0:0:0:
109,192,334266,1,0,0:0:0:0:
402,192,334380,1,0,0:0:0:0:
182,192,334380,1,0,0:0:0:0:
475,192,334494,1,0,0:0:0:0:
256,192,334494,1,0,0:0:0:0:
402,192,334608,1,0,0:0:0:0:
192,0,334608,1,0,0:0:0:0:
448,0,334722,1,0,0:0:0:0:
320,0,334722,1,0,0:0:0:0:
256,192,334835,1,0,0:0:0:0:
402,192,334949,1,0,0:0:0:0:
192,0,334949,1,0,0:0:0:0:
329,192,335062,1,0,0:0:0:0:
109,192,335062,1,0,0:0:0:0:
256,192,335176,1,0,0:0:0:0:
64,0,335176,1,0,0:0:0:0:
402,192,335288,1,0,0:0:0:0:
109,192,335288,1,0,0:0:0:0:
182,192,335400,1,0,0:0:0:0:
448,0,335400,1,0,0:0:0:0:
402,192,335513,1,0,0:0:0:0:
109,192,335513,1,0,0:0:0:0:
475,192,335625,1,0,0:0:0:0:
329,192,335625,1,0,0:0:0:0:
402,192,335734,1,0,0:0:0:0:
256,192,335734,1,0,0:0:0:0:
182,192,335843,1,0,0:0:0:0:
320,0,335843,1,0,0:0:0:0:
256,192,335953,1,0,0:0:0:0:
109,192,335953,1,0,0:0:0:0:
182,192,336064,1,0,0:0:0:0:
36,192,336064,1,0,0:0:0:0:
329,192,336170,1,0,0:0:0:0:
402,192,336276,1,0,0:0:0:0:
109,192,336276,1,0,0:0:0:0:
329,192,336381,1,0,0:0:0:0:
192,0,336381,1,0,0:0:0:0:
256,192,336434,1,0,0:0:0:0:
109,192,336487,1,0,0:0:0:0:
402,192,336487,1,0,0:0:0:0:
475,192,336540,1,0,0:0:0:0:
192,0,336593,1,0,0:0:0:0:
320,0,336645,1,0,0:0:0:0:
448,0,336698,1,0,0:0:0:0:
109,192,336751,1,0,0:0:0:0:
256,192,336804,1,0,0:0:0:0:
402,192,336857,1,0,0:0:0:0:
182,192,336909,1,0,0:0:0:0:
64,0,336909,1,0,0:0:0:0:
329,192,336962,1,0,0:0:0:0:
402,192,337015,1,0,0:0:0:0:
475,192,337068,1,0,0:0:0:0:
36,192,337121,1,0,0:0:0:0:
109,192,337174,1,0,0:0:0:0:
192,0,337226,1,0,0:0:0:0:
256,192,337279,1,0,0:0:0:0:
475,192,337329,1,0,0:0:0:0:
329,192,337329,1,0,0:0:0:0:
36,192,337381,1,0,0:0:0:0:
182,192,337434,1,0,0:0:0:0:
256,192,337486,1,0,0:0:0:0:
402,192,337539,1,0,0:0:0:0:
109,192,337592,1,0,0:0:0:0:
329,192,337644,1,0,0:0:0:0:
182,192,337697,1,0,0:0:0:0:
475,192,337750,1,0,0:0:0:0:
36,192,337750,1,0,0:0:0:0:
256,192,337802,1,0,0:0:0:0:
402,192,337855,1,0,0:0:0:0:
182,192,337907,1,0,0:0:0:0:
36,192,337960,1,0,0:0:0:0:
329,192,338013,1,0,0:0:0:0:
109,192,338065,1,0,0:0:0:0:
256,192,338118,1,0,0:0:0:0:
475,192,338171,1,0,0:0:0:0:
402,192,338171,1,0,0:0:0:0:
182,192,338223,1,0,0:0:0:0:
36,192,338276,1,0,0:0:0:0:
329,192,338329,1,0,0:0:0:0:
109,192,338381,1,0,0:0:0:0:
256,192,338434,1,0,0:0:0:0:
402,192,338486,1,0,0:0:0:0:
182,192,338539,1,0,0:0:0:0:
475,192,338592,1,0,0:0:0:0:
329,192,338644,1,0,0:0:0:0:
36,192,338697,1,0,0:0:0:0:
109,192,338750,1,0,0:0:0:0:
402,192,338802,1,0,0:0:0:0:
256,192,338802,1,0,0:0:0:0:
182,192,338907,1,0,0:0:0:0:
475,192,339013,1,0,0:0:0:0:
109,192,339013,1,0,0:0:0:0:
36,192,339013,1,0,0:0:0:0:
329,192,339065,1,0,0:0:0:0:
182,192,339118,1,0,0:0:0:0:
402,192,339171,1,0,0:0:0:0:
256,192,339223,1,0,0:0:0:0:
36,192,339276,1,0,0:0:0:0:
182,192,339329,1,0,0:0:0:0:
329,192,339381,1,0,0:0:0:0:
475,192,339434,1,0,0:0:0:0:
109,192,339486,1,0,0:0:0:0:
256,192,339539,1,0,0:0:0:0:
182,192,339592,1,0,0:0:0:0:
36,192,339644,1,0,0:0:0:0:
329,192,339697,1,0,0:0:0:0:
109,192,339750,1,0,0:0:0:0:
256,192,339802,1,0,0:0:0:0:
402,192,339855,1,0,0:0:0:0:
475,192,339907,1,0,0:0:0:0:
182,192,339960,1,0,0:0:0:0:
329,192,340013,1,0,0:0:0:0:
256,192,340065,1,0,0:0:0:0:
109,192,340118,1,0,0:0:0:0:
36,192,340171,1,0,0:0:0:0:
182,192,340223,1,0,0:0:0:0:
402,192,340276,1,0,0:0:0:0:
329,192,340329,1,0,0:0:0:0:
109,192,340381,1,0,0:0:0:0:
475,192,340434,1,0,0:0:0:0:
402,192,340486,1,0,0:0:0:0:
256,192,340486,1,0,0:0:0:0:
182,192,340539,1,0,0:0:0:0:
36,192,340592,1,0,0:0:0:0:
109,192,340644,1,0,0:0:0:0:
475,192,340697,1,0,0:0:0:0:
329,192,340697,1,0,0:0:0:0:
182,192,340750,1,0,0:0:0:0:
36,192,340802,1,0,0:0:0:0:
256,192,340855,1,0,0:0:0:0:
402,192,340907,1,0,0:0:0:0:
109,192,340960,1,0,0:0:0:0:
182,192,341013,1,0,0:0:0:0:
329,192,341065,1,0,0:0:0:0:
475,192,341118,1,0,0:0:0:0:
256,192,341171,1,0,0:0:0:0:
36,192,341223,1,0,0:0:0:0:
109,192,341276,1,0,0:0:0:0:
182,192,341329,1,0,0:0:0:0:
329,192,341381,1,0,0:0:0:0:
402,192,341434,1,0,0:0:0:0:
256,192,341486,1,0,0:0:0:0:
182,192,341539,1,0,0:0:0:0:
36,192,341539,1,0,0:0:0:0:
329,192,341592,1,0,0:0:0:0:
475,192,341644,1,0,0:0:0:0:
256,192,341697,1,0,0:0:0:0:
109,192,341750,1,0,0:0:0:0:
402,192,341802,1,0,0:0:0:0:
182,192,341855,1,0,0:0:0:0:
329,192,341907,1,0,0:0:0:0:
36,192,341960,1,0,0:0:0:0:
109,192,342013,1,0,0:0:0:0:
256,192,342065,1,0,0:0:0:0:
475,192,342118,1,0,0:0:0:0:
329,192,342171,1,0,0:0:0:0:
182,192,342223,1,0,0:0:0:0:
36,192,342276,1,0,0:0:0:0:
256,192,342329,1,0,0:0:0:0:
475,192,342381,1,0,0:0:0:0:
402,192,342381,1,0,0:0:0:0:
109,192,342434,1,0,0:0:0:0:
329,192,342486,1,0,0:0:0:0:
182,192,342539,1,0,0:0:0:0:
36,192,342592,1,0,0:0:0:0:
256,192,342644,1,0,0:0:0:0:
402,192,342697,1,0,0:0:0:0:
109,192,342750,1,0,0:0:0:0:
329,192,342802,1,0,0:0:0:0:
182,192,342802,1,0,0:0:0:0:
475,192,342855,1,0,0:0:0:0:
36,192,342907,1,0,0:0:0:0:
256,192,342960,1,0,0:0:0:0:
109,192,343013,1,0,0:0:0:0:
402,192,343065,1,0,0:0:0:0:
182,192,343118,1,0,0:0:0:0:
36,192,343223,1,0,0:0:0:0:
109,192,343223,1,0,0:0:0:0:
256,192,343258,1,0,0:0:0:0:
329,192,343293,1,0,0:0:0:0:
402,192,343329,1,0,0:0:0:0:
475,192,343364,1,0,0:0:0:0:
36,192,343399,1,0,0:0:0:0:
109,192,343434,1,0,0:0:0:0:
182,192,343469,1,0,0:0:0:0:
256,192,343504,1,0,0:0:0:0:
475,192,343539,1,0,0:0:0:0:
402,192,343574,1,0,0:0:0:0:
329,192,343609,1,0,0:0:0:0:
182,192,343644,1,0,0:0:0:0:
109,192,343679,1,0,0:0:0:0:
36,192,343714,1,0,0:0:0:0:
475,192,343750,1,0,0:0:0:0:
402,192,343785,1,0,0:0:0:0:
329,192,343820,1,0,0:0:0:0:
36,192,343855,1,0,0:0:0:0:
109,192,343890,1,0,0:0:0:0:
182,192,343925,1,0,0:0:0:0:
256,192,343960,1,0,0:0:0:0:
329,192,343995,1,0,0:0:0:0:
402,192,344030,1,0,0:0:0:0:
36,192,344065,1,0,0:0:0:0:
475,192,344065,1,0,0:0:0:0:
109,192,344118,1,0,0:0:0:0:
256,192,344171,1,0,0:0:0:0:
402,192,344223,1,0,0:0:0:0:
182,192,344276,1,0,0:0:0:0:
36,192,344329,1,0,0:0:0:0:
256,192,344381,1,0,0:0:0:0:
109,192,344434,1,0,0:0:0:0:
475,192,344486,1,0,0:0:0:0:
329,192,344486,1,0,0:0:0:0:
182,192,344539,1,0,0:0:0:0:
36,192,344592,1,0,0:0:0:0:
256,192,344644,1,0,0:0:0:0:
402,192,344697,1,0,0:0:0:0:
109,192,344750,1,0,0:0:0:0:
182,192,344802,1,0,0:0:0:0:
329,192,344855,1,0,0:0:0:0:
36,192,344907,1,0,0:0:0:0:
475,192,344907,1,0,0:0:0:0:
256,192,344960,1,0,0:0:0:0:
109,192,345013,1,0,0:0:0:0:
182,192,345065,1,0,0:0:0:0:
329,192,345118,1,0,0:0:0:0:
402,192,345171,1,0,0:0:0:0:
256,192,345223,1,0,0:0:0:0:
109,192,345276,1,0,0:0:0:0:
36,192,345329,1,0,0:0:0:0:
329,192,345381,1,0,0:0:0:0:
182,192,345434,1,0,0:0:0:0:
256,192,345486,1,0,0:0:0:0:
402,192,345539,1,0,0:0:0:0:
475,192,345592,1,0,0:0:0:0:
109,192,345644,1,0,0:0:0:0:
182,192,345697,1,0,0:0:0:0:
402,192,345750,1,0,0:0:0:0:
256,192,345750,1,0,0:0:0:0:
36,192,345802,1,0,0:0:0:0:
109,192,345855,1,0,0:0:0:0:
329,192,345907,1,0,0:0:0:0:
182,192,345960,1,0,0:0:0:0:
475,192,346013,1,0,0:0:0:0:
402,192,346065,1,0,0:0:0:0:
256,192,346118,1,0,0:0:0:0:
36,192,346171,1,0,0:0:0:0:
109,192,346223,1,0,0:0:0:0:
329,192,346276,1,0,0:0:0:0:
182,192,346329,1,0,0:0:0:0:
402,192,346381,1,0,0:0:0:0:
256,192,346434,1,0,0:0:0:0:
36,192,346486,1,0,0:0:0:0:
109,192,346539,1,0,0:0:0:0:
182,192,346592,1,0,0:0:0:0:
329,192,346644,1,0,0:0:0:0:
475,192,346697,1,0,0:0:0:0:
256,192,346750,1,0,0:0:0:0:
109,192,346802,1,0,0:0:0:0:
402,192,346855,1,0,0:0:0:0:
182,192,346907,1,0,0:0:0:0:
329,192,346960,1,0,0:0:0:0:
36,192,347013,1,0,0:0:0:0:
109,192,347065,1,0,0:0:0:0:
256,192,347118,1,0,0:0:0:0:
402,192,347171,1,0,0:0:0:0:
182,192,347223,1,0,0:0:0:0:
475,192,347223,1,0,0:0:0:0:
36,192,347276,1,0,0:0:0:0:
256,192,347329,1,0,0:0:0:0:
109,192,347381,1,0,0:0:0:0:
475,192,347434,1,0,0:0:0:0:
329,192,347434,1,0,0:0:0:0:
182,192,347486,1,0,0:0:0:0:
402,192,347539,1,0,0:0:0:0:
256,192,347592,1,0,0:0:0:0:
36,192,347644,1,0,0:0:0:0:
109,192,347697,1,0,0:0:0:0:
329,192,347750,1,0,0:0:0:0:
475,192,347802,1,0,0:0:0:0:
182,192,347855,1,0,0:0:0:0:
36,192,347907,1,0,0:0:0:0:
256,192,347960,1,0,0:0:0:0:
402,192,348013,1,0,0:0:0:0:
109,192,348065,1,0,0:0:0:0:
329,192,348118,1,0,0:0:0:0:
182,192,348171,1,0,0:0:0:0:
36,192,348223,1,0,0:0:0:0:
109,192,348276,1,0,0:0:0:0:
256,192,348276,1,0,0:0:0:0:
402,192,348329,1,0,0:0:0:0:
475,192,348381,1,0,0:0:0:0:
109,192,348434,1,0,0:0:0:0:
182,192,348486,1,0,0:0:0:0:
329,192,348539,1,0,0:0:0:0:
36,192,348592,1,0,0:0:0:0:
109,192,348644,1,0,0:0:0:0:
256,192,348697,1,0,0:0:0:0:
402,192,348750,1,0,0:0:0:0:
182,192,348802,1,0,0:0:0:0:
36,192,348855,1,0,0:0:0:0:
329,192,348907,1,0,0:0:0:0:
256,192,348960,1,0,0:0:0:0:
109,192,349013,1,0,0:0:0:0:
402,192,349065,1,0,0:0:0:0:
475,192,349118,1,0,0:0:0:0:
182,192,349118,1,0,0:0:0:0:
329,192,349171,1,0,0:0:0:0:
36,192,349223,1,0,0:0:0:0:
109,192,349276,1,0,0:0:0:0:
256,192,349329,1,0,0:0:0:0:
402,192,349381,1,0,0:0:0:0:
182,192,349434,1,0,0:0:0:0:
36,192,349486,1,0,0:0:0:0:
475,192,349539,1,0,0:0:0:0:
329,192,349539,1,0,0:0:0:0:
256,192,349592,1,0,0:0:0:0:
109,192,349644,1,0,0:0:0:0:
402,192,349697,1,0,0:0:0:0:
182,192,349750,1,0,0:0:0:0:
329,192,349802,1,0,0:0:0:0:
36,192,349855,1,0,0:0:0:0:
109,192,349907,1,0,0:0:0:0:
402,192,349960,1,0,0:0:0:0:
475,192,349960,1,0,0:0:0:0:
329,192,349995,1,0,0:0:0:0:
256,192,350030,1,0,0:0:0:0:
182,192,350065,1,0,0:0:0:0:
109,192,350100,1,0,0:0:0:0:
36,192,350136,1,0,0:0:0:0:
475,192,350171,1,0,0:0:0:0:
402,192,350206,1,0,0:0:0:0:
329,192,350241,1,0,0:0:0:0:
256,192,350276,1,0,0:0:0:0:
36,192,350311,1,0,0:0:0:0:
109,192,350346,1,0,0:0:0:0:
182,192,350381,1,0,0:0:0:0:
329,192,350416,1,0,0:0:0:0:
402,192,350451,1,0,0:0:0:0:
475,192,350486,1,0,0:0:0:0:
36,192,350521,1,0,0:0:0:0:
109,192,350557,1,0,0:0:0:0:
182,192,350592,1,0,0:0:0:0:
256,192,350627,1,0,0:0:0:0:
475,192,350662,1,0,0:0:0:0:
402,192,350697,1,0,0:0:0:0:
329,192,350732,1,0,0:0:0:0:
256,192,350767,1,0,0:0:0:0:
36,192,350802,1,0,0:0:0:0:
182,192,350802,1,0,0:0:0:0:
475,192,350855,1,0,0:0:0:0:
329,192,350907,1,0,0:0:0:0:
256,192,350960,1,0,0:0:0:0:
109,192,351013,1,0,0:0:0:0:
402,192,351065,1,0,0:0:0:0:
182,192,351118,1,0,0:0:0:0:
329,192,351171,1,0,0:0:0:0:
36,192,351223,1,0,0:0:0:0:
475,192,351223,1,0,0:0:0:0:
256,192,351276,1,0,0:0:0:0:
109,192,351329,1,0,0:0:0:0:
329,192,351381,1,0,0:0:0:0:
475,192,351434,1,0,0:0:0:0:
182,192,351486,1,0,0:0:0:0:
402,192,351539,1,0,0:0:0:0:
256,192,351592,1,0,0:0:0:0:
36,192,351644,1,0,0:0:0:0:
109,192,351644,1,0,0:0:0:0:
329,192,351697,1,0,0:0:0:0:
475,192,351750,1,0,0:0:0:0:
182,192,351802,1,0,0:0:0:0:
402,192,351855,1,0,0:0:0:0:
256,192,351907,1,0,0:0:0:0:
109,192,351960,1,0,0:0:0:0:
329,192,352013,1,0,0:0:0:0:
36,192,352065,1,0,0:0:0:0:
182,192,352118,1,0,0:0:0:0:
475,192,352171,1,0,0:0:0:0:
402,192,352223,1,0,0:0:0:0:
109,192,352276,1,0,0:0:0:0:
256,192,352276,1,0,0:0:0:0:
329,192,352381,1,0,0:0:0:0:
36,192,352486,1,0,0:0:0:0:
402,192,352486,1,0,0:0:0:0:
475,192,352486,1,0,0:0:0:0:
182,192,352539,1,0,0:0:0:0:
329,192,352592,1,0,0:0:0:0:
109,192,352644,1,0,0:0:0:0:
256,192,352697,1,0,0:0:0:0:
475,192,352750,1,0,0:0:0:0:
329,192,352802,1,0,0:0:0:0:
182,192,352855,1,0,0:0:0:0:
36,192,352907,1,0,0:0:0:0:
402,192,352960,1,0,0:0:0:0:
256,192,353013,1,0,0:0:0:0:
329,192,353065,1,0,0:0:0:0:
475,192,353118,1,0,0:0:0:0:
182,192,353171,1,0,0:0:0:0:
402,192,353223,1,0,0:0:0:0:
256,192,353276,1,0,0:0:0:0:
109,192,353329,1,0,0:0:0:0:
36,192,353381,1,0,0:0:0:0:
329,192,353434,1,0,0:0:0:0:
182,192,353486,1,0,0:0:0:0:
256,192,353539,1,0,0:0:0:0:
402,192,353592,1,0,0:0:0:0:
475,192,353644,1,0,0:0:0:0:
329,192,353697,1,0,0:0:0:0:
109,192,353750,1,0,0:0:0:0:
182,192,353802,1,0,0:0:0:0:
402,192,353855,1,0,0:0:0:0:
36,192,353907,1,0,0:0:0:0:
109,192,353960,1,0,0:0:0:0:
256,192,353960,1,0,0:0:0:0:
329,192,354013,1,0,0:0:0:0:
475,192,354065,1,0,0:0:0:0:
402,192,354118,1,0,0:0:0:0:
36,192,354171,1,0,0:0:0:0:
182,192,354171,1,0,0:0:0:0:
329,192,354223,1,0,0:0:0:0:
475,192,354276,1,0,0:0:0:0:
256,192,354329,1,0,0:0:0:0:
109,192,354381,1,0,0:0:0:0:
402,192,354434,1,0,0:0:0:0:
329,192,354486,1,0,0:0:0:0:
182,192,354539,1,0,0:0:0:0:
36,192,354592,1,0,0:0:0:0:
256,192,354644,1,0,0:0:0:0:
475,192,354697,1,0,0:0:0:0:
402,192,354750,1,0,0:0:0:0:
329,192,354802,1,0,0:0:0:0:
182,192,354855,1,0,0:0:0:0:
109,192,354907,1,0,0:0:0:0:
256,192,354960,1,0,0:0:0:0:
329,192,355013,1,0,0:0:0:0:
475,192,355013,1,0,0:0:0:0:
182,192,355065,1,0,0:0:0:0:
36,192,355118,1,0,0:0:0:0:
256,192,355171,1,0,0:0:0:0:
402,192,355223,1,0,0:0:0:0:
109,192,355276,1,0,0:0:0:0:
329,192,355329,1,0,0:0:0:0:
182,192,355381,1,0,0:0:0:0:
475,192,355434,1,0,0:0:0:0:
402,192,355486,1,0,0:0:0:0:
256,192,355539,1,0,0:0:0:0:
36,192,355592,1,0,0:0:0:0:
182,192,355644,1,0,0:0:0:0:
329,192,355697,1,0,0:0:0:0:
475,192,355750,1,0,0:0:0:0:
256,192,355802,1,0,0:0:0:0:
36,192,355855,1,0,0:0:0:0:
109,192,355855,1,0,0:0:0:0:
402,192,355907,1,0,0:0:0:0:
182,192,355960,1,0,0:0:0:0:
329,192,356013,1,0,0:0:0:0:
475,192,356065,1,0,0:0:0:0:
256,192,356118,1,0,0:0:0:0:
109,192,356171,1,0,0:0:0:0:
402,192,356223,1,0,0:0:0:0:
182,192,356276,1,0,0:0:0:0:
329,192,356276,1,0,0:0:0:0:
36,192,356329,1,0,0:0:0:0:
475,192,356381,1,0,0:0:0:0:
256,192,356434,1,0,0:0:0:0:
402,192,356486,1,0,0:0:0:0:
109,192,356539,1,0,0:0:0:0:
329,192,356592,1,0,0:0:0:0:
475,192,356697,1,0,0:0:0:0:
402,192,356697,1,0,0:0:0:0:
256,192,356732,1,0,0:0:0:0:
182,192,356767,1,0,0:0:0:0:
109,192,356802,1,0,0:0:0:0:
36,192,356837,1,0,0:0:0:0:
475,192,356872,1,0,0:0:0:0:
402,192,356907,1,0,0:0:0:0:
329,192,356943,1,0,0:0:0:0:
256,192,356978,1,0,0:0:0:0:
36,192,357013,1,0,0:0:0:0:
109,192,357048,1,0,0:0:0:0:
182,192,357083,1,0,0:0:0:0:
329,192,357118,1,0,0:0:0:0:
402,192,357153,1,0,0:0:0:0:
475,192,357188,1,0,0:0:0:0:
36,192,357223,1,0,0:0:0:0:
109,192,357258,1,0,0:0:0:0:
182,192,357293,1,0,0:0:0:0:
475,192,357329,1,0,0:0:0:0:
402,192,357364,1,0,0:0:0:0:
329,192,357399,1,0,0:0:0:0:
256,192,357434,1,0,0:0:0:0:
182,192,357469,1,0,0:0:0:0:
109,192,357504,1,0,0:0:0:0:
475,192,357539,1,0,0:0:0:0:
36,192,357539,1,0,0:0:0:0:
402,192,357592,1,0,0:0:0:0:
256,192,357644,1,0,0:0:0:0:
109,192,357697,1,0,0:0:0:0:
329,192,357750,1,0,0:0:0:0:
475,192,357802,1,0,0:0:0:0:
256,192,357855,1,0,0:0:0:0:
402,192,357907,1,0,0:0:0:0:
36,192,357960,1,0,0:0:0:0:
182,192,357960,1,0,0:0:0:0:
329,192,358013,1,0,0:0:0:0:
475,192,358065,1,0,0:0:0:0:
256,192,358118,1,0,0:0:0:0:
109,192,358171,1,0,0:0:0:0:
402,192,358223,1,0,0:0:0:0:
329,192,358276,1,0,0:0:0:0:
182,192,358329,1,0,0:0:0:0:
475,192,358381,1,0,0:0:0:0:
36,192,358381,1,0,0:0:0:0:
256,192,358434,1,0,0:0:0:0:
402,192,358486,1,0,0:0:0:0:
329,192,358539,1,0,0:0:0:0:
182,192,358592,1,0,0:0:0:0:
109,192,358644,1,0,0:0:0:0:
256,192,358697,1,0,0:0:0:0:
402,192,358750,1,0,0:0:0:0:
475,192,358802,1,0,0:0:0:0:
182,192,358855,1,0,0:0:0:0:
329,192,358907,1,0,0:0:0:0:
256,192,358960,1,0,0:0:0:0:
109,192,359013,1,0,0:0:0:0:
36,192,359065,1,0,0:0:0:0:
402,192,359118,1,0,0:0:0:0:
329,192,359171,1,0,0:0:0:0:
109,192,359223,1,0,0:0:0:0:
256,192,359223,1,0,0:0:0:0:
475,192,359276,1,0,0:0:0:0:
402,192,359329,1,0,0:0:0:0:
182,192,359381,1,0,0:0:0:0:
329,192,359434,1,0,0:0:0:0:
36,192,359486,1,0,0:0:0:0:
109,192,359539,1,0,0:0:0:0:
256,192,359592,1,0,0:0:0:0:
475,192,359644,1,0,0:0:0:0:
402,192,359697,1,0,0:0:0:0:
182,192,359750,1,0,0:0:0:0:
329,192,359802,1,0,0:0:0:0:
109,192,359855,1,0,0:0:0:0:
256,192,359907,1,0,0:0:0:0:
475,192,359960,1,0,0:0:0:0:
402,192,360013,1,0,0:0:0:0:
329,192,360065,1,0,0:0:0:0:
182,192,360118,1,0,0:0:0:0:
36,192,360171,1,0,0:0:0:0:
256,192,360223,1,0,0:0:0:0:
402,192,360276,1,0,0:0:0:0:
109,192,360329,1,0,0:0:0:0:
329,192,360381,1,0,0:0:0:0:
182,192,360434,1,0,0:0:0:0:
475,192,360486,1,0,0:0:0:0:
402,192,360539,1,0,0:0:0:0:
256,192,360592,1,0,0:0:0:0:
109,192,360644,1,0,0:0:0:0:
329,192,360697,1,0,0:0:0:0:
36,192,360697,1,0,0:0:0:0:
475,192,360750,1,0,0:0:0:0:
256,192,360802,1,0,0:0:0:0:
402,192,360855,1,0,0:0:0:0:
36,192,360907,1,0,0:0:0:0:
182,192,360907,1,0,0:0:0:0:
329,192,360960,1,0,0:0:0:0:
109,192,361013,1,0,0:0:0:0:
256,192,361065,1,0,0:0:0:0:
475,192,361118,1,0,0:0:0:0:
402,192,361171,1,0,0:0:0:0:
182,192,361223,1,0,0:0:0:0:
36,192,361276,1,0,0:0:0:0:
329,192,361329,1,0,0:0:0:0:
475,192,361381,1,0,0:0:0:0:
256,192,361434,1,0,0:0:0:0:
109,192,361486,1,0,0:0:0:0:
402,192,361539,1,0,0:0:0:0:
182,192,361592,1,0,0:0:0:0:
329,192,361644,1,0,0:0:0:0:
475,192,361697,1,0,0:0:0:0:
402,192,361750,1,0,0:0:0:0:
256,192,361750,1,0,0:0:0:0:
109,192,361802,1,0,0:0:0:0:
36,192,361855,1,0,0:0:0:0:
402,192,361907,1,0,0:0:0:0:
329,192,361960,1,0,0:0:0:0:
182,192,362013,1,0,0:0:0:0:
475,192,362065,1,0,0:0:0:0:
402,192,362118,1,0,0:0:0:0:
256,192,362171,1,0,0:0:0:0:
109,192,362223,1,0,0:0:0:0:
329,192,362276,1,0,0:0:0:0:
475,192,362329,1,0,0:0:0:0:
182,192,362381,1,0,0:0:0:0:
256,192,362434,1,0,0:0:0:0:
402,192,362486,1,0,0:0:0:0:
109,192,362539,1,0,0:0:0:0:
36,192,362592,1,0,0:0:0:0:
329,192,362592,1,0,0:0:0:0:
182,192,362644,1,0,0:0:0:0:
475,192,362697,1,0,0:0:0:0:
402,192,362750,1,0,0:0:0:0:
256,192,362802,1,0,0:0:0:0:
109,192,362855,1,0,0:0:0:0:
329,192,362907,1,0,0:0:0:0:
475,192,362960,1,0,0:0:0:0:
36,192,363013,1,0,0:0:0:0:
182,192,363013,1,0,0:0:0:0:
256,192,363065,1,0,0:0:0:0:
402,192,363118,1,0,0:0:0:0:
109,192,363171,1,0,0:0:0:0:
329,192,363223,1,0,0:0:0:0:
182,192,363276,1,0,0:0:0:0:
475,192,363329,1,0,0:0:0:0:
402,192,363381,1,0,0:0:0:0:
109,192,363434,1,0,0:0:0:0:
36,192,363434,1,0,0:0:0:0:
182,192,363469,1,0,0:0:0:0:
256,192,363504,1,0,0:0:0:0:
329,192,363539,1,0,0:0:0:0:
402,192,363574,1,0,0:0:0:0:
475,192,363609,1,0,0:0:0:0:
36,192,363644,1,0,0:0:0:0:
109,192,363679,1,0,0:0:0:0:
182,192,363714,1,0,0:0:0:0:
256,192,363750,1,0,0:0:0:0:
475,192,363785,1,0,0:0:0:0:
402,192,363820,1,0,0:0:0:0:
329,192,363855,1,0,0:0:0:0:
182,192,363890,1,0,0:0:0:0:
109,192,363925,1,0,0:0:0:0:
36,192,363960,1,0,0:0:0:0:
475,192,363995,1,0,0:0:0:0:
402,192,364030,1,0,0:0:0:0:
329,192,364065,1,0,0:0:0:0:
256,192,364100,1,0,0:0:0:0:
36,192,364136,1,0,0:0:0:0:
109,192,364171,1,0,0:0:0:0:
182,192,364206,1,0,0:0:0:0:
256,192,364241,1,0,0:0:0:0:
329,192,364276,1,0,0:0:0:0:
402,192,364276,1,0,0:0:0:0:
475,192,364276,1,0,0:0:0:0:
182,192,376377,5,0,0:0:0:0:
475,192,376377,1,0,0:0:0:0:
36,192,376377,1,0,0:0:0:0:
329,192,376377,1,0,0:0:0:0:
109,192,376479,1,0,0:0:0:0:
329,192,376581,1,0,0:0:0:0:
402,192,376632,1,0,0:0:0:0:
109,192,376683,1,0,0:0:0:0:
182,192,376734,1,0,0:0:0:0:
329,192,376785,1,0,0:0:0:0:
475,192,376785,1,0,0:0:0:0:
36,192,376887,1,0,0:0:0:0:
402,192,376989,1,0,0:0:0:0:
329,192,377040,1,0,0:0:0:0:
256,192,377091,1,0,0:0:0:0:
182,192,377142,1,0,0:0:0:0:
402,192,377193,1,0,0:0:0:0:
109,192,377193,1,0,0:0:0:0:
329,192,377295,1,0,0:0:0:0:
256,192,377397,1,0,0:0:0:0:
182,192,377448,1,0,0:0:0:0:
402,192,377499,1,0,0:0:0:0:
329,192,377550,1,0,0:0:0:0:
256,192,377601,1,0,0:0:0:0:
36,192,377601,1,0,0:0:0:0:
109,192,377703,1,0,0:0:0:0:
182,192,377805,1,0,0:0:0:0:
256,192,377856,1,0,0:0:0:0:
329,192,377907,1,0,0:0:0:0:
402,192,377958,1,0,0:0:0:0:
475,192,378009,1,0,0:0:0:0:
36,192,378009,1,0,0:0:0:0:
182,192,378111,1,0,0:0:0:0:
402,192,378213,1,0,0:0:0:0:
256,192,378213,1,0,0:0:0:0:
109,192,378264,1,0,0:0:0:0:
182,192,378315,1,0,0:0:0:0:
329,192,378366,1,0,0:0:0:0:
36,192,378417,1,0,0:0:0:0:
402,192,378417,1,0,0:0:0:0:
109,192,378519,1,0,0:0:0:0:
329,192,378621,1,0,0:0:0:0:
402,192,378672,1,0,0:0:0:0:
182,192,378723,1,0,0:0:0:0:
109,192,378774,1,0,0:0:0:0:
475,192,378825,1,0,0:0:0:0:
36,192,378825,1,0,0:0:0:0:
256,192,378928,1,0,0:0:0:0:
402,192,379030,1,0,0:0:0:0:
329,192,379081,1,0,0:0:0:0:
109,192,379132,1,0,0:0:0:0:
182,192,379183,1,0,0:0:0:0:
402,192,379234,1,0,0:0:0:0:
475,192,379234,1,0,0:0:0:0:
256,192,379234,1,0,0:0:0:0:
109,192,379336,1,0,0:0:0:0:
36,192,379438,1,0,0:0:0:0:
402,192,379438,1,0,0:0:0:0:
256,192,379438,1,0,0:0:0:0:
109,192,379540,1,0,0:0:0:0:
475,192,379642,1,0,0:0:0:0:
402,192,379642,1,0,0:0:0:0:
256,192,379642,1,0,0:0:0:0:
182,192,379744,1,0,0:0:0:0:
109,192,379846,1,0,0:0:0:0:
182,192,379897,1,0,0:0:0:0:
256,192,379948,1,0,0:0:0:0:
402,192,379999,1,0,0:0:0:0:
36,192,380050,1,0,0:0:0:0:
475,192,380050,1,0,0:0:0:0:
182,192,380152,1,0,0:0:0:0:
402,192,380254,1,0,0:0:0:0:
256,192,380254,1,0,0:0:0:0:
109,192,380305,1,0,0:0:0:0:
182,192,380356,1,0,0:0:0:0:
329,192,380407,1,0,0:0:0:0:
36,192,380458,1,0,0:0:0:0:
475,192,380458,1,0,0:0:0:0:
256,192,380560,1,0,0:0:0:0:
329,192,380662,1,0,0:0:0:0:
402,192,380713,1,0,0:0:0:0:
182,192,380764,1,0,0:0:0:0:
109,192,380815,1,0,0:0:0:0:
36,192,380866,1,0,0:0:0:0:
475,192,380866,1,0,0:0:0:0:
329,192,380866,1,0,0:0:0:0:
182,192,380968,1,0,0:0:0:0:
109,192,381070,1,0,0:0:0:0:
402,192,381121,1,0,0:0:0:0:
329,192,381172,1,0,0:0:0:0:
256,192,381223,1,0,0:0:0:0:
182,192,381274,1,0,0:0:0:0:
36,192,381274,1,0,0:0:0:0:
329,192,381377,1,0,0:0:0:0:
256,192,381479,1,0,0:0:0:0:
109,192,381479,1,0,0:0:0:0:
475,192,381530,1,0,0:0:0:0:
402,192,381581,1,0,0:0:0:0:
329,192,381632,1,0,0:0:0:0:
256,192,381683,1,0,0:0:0:0:
36,192,381683,1,0,0:0:0:0:
402,192,381785,1,0,0:0:0:0:
109,192,381887,1,0,0:0:0:0:
182,192,381938,1,0,0:0:0:0:
402,192,381989,1,0,0:0:0:0:
329,192,382040,1,0,0:0:0:0:
36,192,382091,1,0,0:0:0:0:
256,192,382091,1,0,0:0:0:0:
475,192,382193,1,0,0:0:0:0:
182,192,382295,1,0,0:0:0:0:
256,192,382346,1,0,0:0:0:0:
329,192,382397,1,0,0:0:0:0:
109,192,382448,1,0,0:0:0:0:
182,192,382499,1,0,0:0:0:0:
475,192,382499,1,0,0:0:0:0:
402,192,382499,1,0,0:0:0:0:
36,192,382601,1,0,0:0:0:0:
402,192,382703,1,0,0:0:0:0:
109,192,382703,1,0,0:0:0:0:
329,192,382703,1,0,0:0:0:0:
182,192,382805,1,0,0:0:0:0:
402,192,382907,1,0,0:0:0:0:
475,192,382907,1,0,0:0:0:0:
36,192,382907,1,0,0:0:0:0:
256,192,382907,1,0,0:0:0:0:
109,192,383009,1,0,0:0:0:0:
182,192,383111,1,0,0:0:0:0:
256,192,383162,1,0,0:0:0:0:
329,192,383213,1,0,0:0:0:0:
402,192,383264,1,0,0:0:0:0:
36,192,383315,1,0,0:0:0:0:
475,192,383315,1,0,0:0:0:0:
182,192,383417,1,0,0:0:0:0:
109,192,383519,1,0,0:0:0:0:
256,192,383519,1,0,0:0:0:0:
475,192,383570,1,0,0:0:0:0:
402,192,383621,1,0,0:0:0:0:
329,192,383672,1,0,0:0:0:0:
182,192,383723,1,0,0:0:0:0:
36,192,383723,1,0,0:0:0:0:
402,192,383825,1,0,0:0:0:0:
182,192,383928,1,0,0:0:0:0:
109,192,383979,1,0,0:0:0:0:
329,192,384030,1,0,0:0:0:0:
256,192,384081,1,0,0:0:0:0:
36,192,384132,1,0,0:0:0:0:
475,192,384132,1,0,0:0:0:0:
182,192,384234,1,0,0:0:0:0:
329,192,384336,1,0,0:0:0:0:
256,192,384387,1,0,0:0:0:0:
109,192,384438,1,0,0:0:0:0:
182,192,384489,1,0,0:0:0:0:
475,192,384540,1,0,0:0:0:0:
36,192,384540,1,0,0:0:0:0:
329,192,384642,1,0,0:0:0:0:
402,192,384744,1,0,0:0:0:0:
256,192,384744,1,0,0:0:0:0:
36,192,384795,1,0,0:0:0:0:
182,192,384846,1,0,0:0:0:0:
329,192,384897,1,0,0:0:0:0:
109,192,384948,1,0,0:0:0:0:
475,192,384948,1,0,0:0:0:0:
182,192,385050,1,0,0:0:0:0:
109,192,385152,1,0,0:0:0:0:
256,192,385203,1,0,0:0:0:0:
402,192,385254,1,0,0:0:0:0:
329,192,385305,1,0,0:0:0:0:
182,192,385356,1,0,0:0:0:0:
36,192,385356,1,0,0:0:0:0:
256,192,385458,1,0,0:0:0:0:
109,192,385560,1,0,0:0:0:0:
182,192,385611,1,0,0:0:0:0:
402,192,385662,1,0,0:0:0:0:
329,192,385713,1,0,0:0:0:0:
475,192,385764,1,0,0:0:0:0:
36,192,385764,1,0,0:0:0:0:
256,192,385764,1,0,0:0:0:0:
182,192,385866,1,0,0:0:0:0:
402,192,385968,1,0,0:0:0:0:
256,192,385968,1,0,0:0:0:0:
182,192,386070,1,0,0:0:0:0:
475,192,386172,1,0,0:0:0:0:
36,192,386172,1,0,0:0:0:0:
256,192,386172,1,0,0:0:0:0:
329,192,386274,1,0,0:0:0:0:
402,192,386377,1,0,0:0:0:0:
182,192,386428,1,0,0:0:0:0:
256,192,386479,1,0,0:0:0:0:
329,192,386530,1,0,0:0:0:0:
475,192,386581,1,0,0:0:0:0:
36,192,386581,1,0,0:0:0:0:
182,192,386683,1,0,0:0:0:0:
109,192,386785,1,0,0:0:0:0:
256,192,386785,1,0,0:0:0:0:
475,192,386836,1,0,0:0:0:0:
402,192,386887,1,0,0:0:0:0:
329,192,386938,1,0,0:0:0:0:
36,192,386989,1,0,0:0:0:0:
182,192,386989,1,0,0:0:0:0:
256,192,387091,1,0,0:0:0:0:
329,192,387193,1,0,0:0:0:0:
182,192,387244,1,0,0:0:0:0:
402,192,387295,1,0,0:0:0:0:
256,192,387346,1,0,0:0:0:0:
475,192,387397,1,0,0:0:0:0:
36,192,387397,1,0,0:0:0:0:
109,192,387499,1,0,0:0:0:0:
256,192,387601,1,0,0:0:0:0:
402,192,387601,1,0,0:0:0:0:
329,192,387652,1,0,0:0:0:0:
109,192,387703,1,0,0:0:0:0:
182,192,387754,1,0,0:0:0:0:
256,192,387805,1,0,0:0:0:0:
475,192,387805,1,0,0:0:0:0:
402,192,387805,1,0,0:0:0:0:
182,192,387907,1,0,0:0:0:0:
36,192,387907,1,0,0:0:0:0:
475,192,388009,1,0,0:0:0:0:
329,192,388009,1,0,0:0:0:0:
36,192,388111,1,0,0:0:0:0:
182,192,388111,1,0,0:0:0:0:
109,192,388213,1,0,0:0:0:0:
256,192,388213,1,0,0:0:0:0:
402,192,388213,1,0,0:0:0:0:
182,192,388417,1,0,0:0:0:0:
109,192,388417,1,0,0:0:0:0:
402,192,388519,1,0,0:0:0:0:
329,192,388519,1,0,0:0:0:0:
256,192,388621,1,0,0:0:0:0:
109,192,388621,1,0,0:0:0:0:
36,192,388621,1,0,0:0:0:0:
475,192,388723,1,0,0:0:0:0:
402,192,388723,1,0,0:0:0:0:
329,192,388825,1,0,0:0:0:0:
182,192,388825,1,0,0:0:0:0:
256,192,388928,1,0,0:0:0:0:
109,192,388928,1,0,0:0:0:0:
36,192,388928,1,0,0:0:0:0:
36,192,389030,1,0,0:0:0:0:
475,192,389030,1,0,0:0:0:0:
256,192,389030,1,0,0:0:0:0:
109,192,389030,1,0,0:0:0:0:
402,192,389132,1,0,0:0:0:0:
36,192,389234,1,0,0:0:0:0:
329,192,389234,1,0,0:0:0:0:
182,192,389234,1,0,0:0:0:0:
256,192,389336,1,0,0:0:0:0:
475,192,389438,1,0,0:0:0:0:
182,192,389438,1,0,0:0:0:0:
36,192,389438,1,0,0:0:0:0:
402,192,389438,1,0,0:0:0:0:
329,192,389540,1,0,0:0:0:0:
109,192,389540,1,0,0:0:0:0:
402,192,389642,1,0,0:0:0:0:
256,192,389642,1,0,0:0:0:0:
329,192,389744,1,0,0:0:0:0:
182,192,389744,1,0,0:0:0:0:
256,192,389846,1,0,0:0:0:0:
475,192,389846,1,0,0:0:0:0:
109,192,389846,1,0,0:0:0:0:
36,192,389846,1,0,0:0:0:0:
402,192,389948,1,0,0:0:0:0:
182,192,389948,1,0,0:0:0:0:
109,192,390050,1,0,0:0:0:0:
329,192,390050,1,0,0:0:0:0:
402,192,390152,1,0,0:0:0:0:
182,192,390152,1,0,0:0:0:0:
36,192,390254,1,0,0:0:0:0:
109,192,390254,1,0,0:0:0:0:
475,192,390254,1,0,0:0:0:0:
256,192,390254,1,0,0:0:0:0:
402,192,390356,1,0,0:0:0:0:
182,192,390356,1,0,0:0:0:0:
256,192,390458,1,0,0:0:0:0:
329,192,390458,1,0,0:0:0:0:
182,192,390560,1,0,0:0:0:0:
36,192,390560,1,0,0:0:0:0:
402,192,390662,1,0,0:0:0:0:
475,192,390662,1,0,0:0:0:0:
109,192,390662,1,0,0:0:0:0:
329,192,390662,1,0,0:0:0:0:
36,192,390764,1,0,0:0:0:0:
256,192,390764,1,0,0:0:0:0:
402,192,390866,1,0,0:0:0:0:
182,192,390866,1,0,0:0:0:0:
36,192,390968,1,0,0:0:0:0:
256,192,390968,1,0,0:0:0:0:
475,192,391070,1,0,0:0:0:0:
402,192,391070,1,0,0:0:0:0:
109,192,391070,1,0,0:0:0:0:
329,192,391070,1,0,0:0:0:0:
36,192,391172,1,0,0:0:0:0:
182,192,391172,1,0,0:0:0:0:
402,192,391274,1,0,0:0:0:0:
256,192,391274,1,0,0:0:0:0:
109,192,391377,1,0,0:0:0:0:
329,192,391377,1,0,0:0:0:0:
475,192,391479,1,0,0:0:0:0:
402,192,391479,1,0,0:0:0:0:
36,192,391479,1,0,0:0:0:0:
182,192,391479,1,0,0:0:0:0:
109,192,391581,1,0,0:0:0:0:
329,192,391581,1,0,0:0:0:0:
402,192,391683,1,0,0:0:0:0:
182,192,391683,1,0,0:0:0:0:
475,192,391785,1,0,0:0:0:0:
256,192,391785,1,0,0:0:0:0:
36,192,391887,1,0,0:0:0:0:
182,192,391887,1,0,0:0:0:0:
329,192,391887,1,0,0:0:0:0:
109,192,391887,1,0,0:0:0:0:
256,192,391989,1,0,0:0:0:0:
402,192,391989,1,0,0:0:0:0:
182,192,392091,1,0,0:0:0:0:
109,192,392091,1,0,0:0:0:0:
475,192,392193,1,0,0:0:0:0:
329,192,392193,1,0,0:0:0:0:
36,192,392295,1,0,0:0:0:0:
109,192,392295,1,0,0:0:0:0:
402,192,392295,1,0,0:0:0:0:
256,192,392295,1,0,0:0:0:0:
329,192,392397,1,0,0:0:0:0:
182,192,392397,1,0,0:0:0:0:
36,192,392499,1,0,0:0:0:0:
402,192,392499,1,0,0:0:0:0:
256,192,392499,1,0,0:0:0:0:
109,192,392499,1,0,0:0:0:0:
329,192,392601,1,0,0:0:0:0:
182,192,392601,1,0,0:0:0:0:
475,192,392703,1,0,0:0:0:0:
109,192,392703,1,0,0:0:0:0:
256,192,392703,1,0,0:0:0:0:
402,192,392703,1,0,0:0:0:0:
36,192,392805,1,0,0:0:0:0:
182,192,392805,1,0,0:0:0:0:
475,192,392907,1,0,0:0:0:0:
329,192,392907,1,0,0:0:0:0:
109,192,393009,1,0,0:0:0:0:
256,192,393009,1,0,0:0:0:0:
402,192,393111,1,0,0:0:0:0:
475,192,393111,1,0,0:0:0:0:
36,192,393111,1,0,0:0:0:0:
182,192,393111,1,0,0:0:0:0:
109,192,393213,1,0,0:0:0:0:
329,192,393213,1,0,0:0:0:0:
402,192,393315,1,0,0:0:0:0:
182,192,393315,1,0,0:0:0:0:
256,192,393417,1,0,0:0:0:0:
475,192,393417,1,0,0:0:0:0:
109,192,393519,1,0,0:0:0:0:
36,192,393519,1,0,0:0:0:0:
329,192,393519,1,0,0:0:0:0:
182,192,393519,1,0,0:0:0:0:
402,192,393621,1,0,0:0:0:0:
256,192,393621,1,0,0:0:0:0:
109,192,393723,1,0,0:0:0:0:
329,192,393723,1,0,0:0:0:0:
256,192,393825,1,0,0:0:0:0:
36,192,393825,1,0,0:0:0:0:
402,192,393928,1,0,0:0:0:0:
475,192,393928,1,0,0:0:0:0:
182,192,393928,1,0,0:0:0:0:
329,192,393928,1,0,0:0:0:0:
256,192,394030,1,0,0:0:0:0:
109,192,394030,1,0,0:0:0:0:
182,192,394132,1,0,0:0:0:0:
402,192,394132,1,0,0:0:0:0:
36,192,394234,1,0,0:0:0:0:
256,192,394234,1,0,0:0:0:0:
475,192,394336,1,0,0:0:0:0:
182,192,394336,1,0,0:0:0:0:
109,192,394336,1,0,0:0:0:0:
329,192,394336,1,0,0:0:0:0:
402,192,394438,1,0,0:0:0:0:
256,192,394438,1,0,0:0:0:0:
36,192,394540,1,0,0:0:0:0:
109,192,394540,1,0,0:0:0:0:
329,192,394642,1,0,0:0:0:0:
182,192,394642,1,0,0:0:0:0:
36,192,394744,1,0,0:0:0:0:
256,192,394744,1,0,0:0:0:0:
402,192,394744,1,0,0:0:0:0:
475,192,394744,1,0,0:0:0:0:
329,192,394846,1,0,0:0:0:0:
109,192,394846,1,0,0:0:0:0:
182,192,394948,1,0,0:0:0:0:
402,192,394948,1,0,0:0:0:0:
329,192,395050,1,0,0:0:0:0:
109,192,395050,1,0,0:0:0:0:
182,192,395152,1,0,0:0:0:0:
475,192,395152,1,0,0:0:0:0:
256,192,395152,1,0,0:0:0:0:
36,192,395152,1,0,0:0:0:0:
329,192,395254,1,0,0:0:0:0:
402,192,395254,1,0,0:0:0:0:
36,192,395356,1,0,0:0:0:0:
182,192,395356,1,0,0:0:0:0:
256,192,395458,1,0,0:0:0:0:
109,192,395458,1,0,0:0:0:0:
402,192,395560,1,0,0:0:0:0:
182,192,395560,1,0,0:0:0:0:
329,192,395560,1,0,0:0:0:0:
475,192,395560,1,0,0:0:0:0:
109,192,395662,1,0,0:0:0:0:
256,192,395662,1,0,0:0:0:0:
329,192,395764,1,0,0:0:0:0:
475,192,395764,1,0,0:0:0:0:
402,192,395764,1,0,0:0:0:0:
182,192,395764,1,0,0:0:0:0:
109,192,395866,1,0,0:0:0:0:
256,192,395866,1,0,0:0:0:0:
402,192,395968,1,0,0:0:0:0:
475,192,395968,1,0,0:0:0:0:
182,192,395968,1,0,0:0:0:0:
36,192,395968,1,0,0:0:0:0:
109,192,396070,1,0,0:0:0:0:
329,192,396070,1,0,0:0:0:0:
402,192,396172,1,0,0:0:0:0:
182,192,396172,1,0,0:0:0:0:
36,192,396274,1,0,0:0:0:0:
256,192,396274,1,0,0:0:0:0:
475,192,396377,1,0,0:0:0:0:
182,192,396377,1,0,0:0:0:0:
109,192,396377,1,0,0:0:0:0:
329,192,396377,1,0,0:0:0:0:
402,192,396479,1,0,0:0:0:0:
36,192,396479,1,0,0:0:0:0:
256,192,396581,1,0,0:0:0:0:
109,192,396581,1,0,0:0:0:0:
329,192,396683,1,0,0:0:0:0:
182,192,396683,1,0,0:0:0:0:
475,192,396785,1,0,0:0:0:0:
36,192,396785,1,0,0:0:0:0:
256,192,396785,1,0,0:0:0:0:
402,192,396785,1,0,0:0:0:0:
329,192,396887,1,0,0:0:0:0:
182,192,396887,1,0,0:0:0:0:
36,192,396989,1,0,0:0:0:0:
256,192,396989,1,0,0:0:0:0:
329,192,397091,1,0,0:0:0:0:
109,192,397091,1,0,0:0:0:0:
475,192,397193,1,0,0:0:0:0:
36,192,397193,1,0,0:0:0:0:
182,192,397193,1,0,0:0:0:0:
402,192,397193,1,0,0:0:0:0:
256,192,397295,1,0,0:0:0:0:
329,192,397295,1,0,0:0:0:0:
182,192,397397,1,0,0:0:0:0:
36,192,397397,1,0,0:0:0:0:
256,192,397499,1,0,0:0:0:0:
109,192,397499,1,0,0:0:0:0:
402,192,397601,1,0,0:0:0:0:
182,192,397601,1,0,0:0:0:0:
329,192,397601,1,0,0:0:0:0:
475,192,397601,1,0,0:0:0:0:
256,192,397703,1,0,0:0:0:0:
36,192,397703,1,0,0:0:0:0:
182,192,397805,1,0,0:0:0:0:
402,192,397805,1,0,0:0:0:0:
329,192,397907,1,0,0:0:0:0:
109,192,397907,1,0,0:0:0:0:
402,192,398009,1,0,0:0:0:0:
475,192,398009,1,0,0:0:0:0:
256,192,398009,1,0,0:0:0:0:
36,192,398009,1,0,0:0:0:0:
329,192,398111,1,0,0:0:0:0:
182,192,398111,1,0,0:0:0:0:
402,192,398213,1,0,0:0:0:0:
256,192,398213,1,0,0:0:0:0:
329,192,398315,1,0,0:0:0:0:
109,192,398315,1,0,0:0:0:0:
402,192,398417,1,0,0:0:0:0:
475,192,398417,1,0,0:0:0:0:
182,192,398417,1,0,0:0:0:0:
36,192,398417,1,0,0:0:0:0:
109,192,398519,1,0,0:0:0:0:
256,192,398519,1,0,0:0:0:0:
329,192,398621,1,0,0:0:0:0:
182,192,398621,1,0,0:0:0:0:
402,192,398723,1,0,0:0:0:0:
256,192,398723,1,0,0:0:0:0:
109,192,398825,1,0,0:0:0:0:
36,192,398825,1,0,0:0:0:0:
329,192,398825,1,0,0:0:0:0:
475,192,398825,1,0,0:0:0:0:
256,192,398928,1,0,0:0:0:0:
182,192,398928,1,0,0:0:0:0:
329,192,399030,1,0,0:0:0:0:
475,192,399030,1,0,0:0:0:0:
109,192,399030,1,0,0:0:0:0:
36,192,399030,1,0,0:0:0:0:
256,192,399132,1,0,0:0:0:0:
182,192,399132,1,0,0:0:0:0:
109,192,399234,1,0,0:0:0:0:
36,192,399234,1,0,0:0:0:0:
329,192,399234,1,0,0:0:0:0:
475,192,399234,1,0,0:0:0:0:
402,192,399336,1,0,0:0:0:0:
256,192,399336,1,0,0:0:0:0:
329,192,399438,1,0,0:0:0:0:
182,192,399438,1,0,0:0:0:0:
402,192,399540,1,0,0:0:0:0:
109,192,399540,1,0,0:0:0:0:
36,192,399642,1,0,0:0:0:0:
182,192,399642,1,0,0:0:0:0:
256,192,399642,1,0,0:0:0:0:
475,192,399642,1,0,0:0:0:0:
109,192,399744,1,0,0:0:0:0:
329,192,399744,1,0,0:0:0:0:
402,192,399846,1,0,0:0:0:0:
182,192,399846,1,0,0:0:0:0:
36,192,399948,1,0,0:0:0:0:
256,192,399948,1,0,0:0:0:0:
402,192,400050,1,0,0:0:0:0:
475,192,400050,1,0,0:0:0:0:
109,192,400050,1,0,0:0:0:0:
329,192,400050,1,0,0:0:0:0:
182,192,400152,1,0,0:0:0:0:
256,192,400152,1,0,0:0:0:0:
109,192,400254,1,0,0:0:0:0:
36,192,400254,1,0,0:0:0:0:
329,192,400356,1,0,0:0:0:0:
256,192,400356,1,0,0:0:0:0:
182,192,400458,1,0,0:0:0:0:
36,192,400458,1,0,0:0:0:0:
402,192,400458,1,0,0:0:0:0:
475,192,400458,1,0,0:0:0:0:
109,192,400560,1,0,0:0:0:0:
256,192,400560,1,0,0:0:0:0:
475,192,400662,1,0,0:0:0:0:
329,192,400662,1,0,0:0:0:0:
256,192,400764,1,0,0:0:0:0:
402,192,400764,1,0,0:0:0:0:
109,192,400866,1,0,0:0:0:0:
329,192,400866,1,0,0:0:0:0:
182,192,400866,1,0,0:0:0:0:
36,192,400866,1,0,0:0:0:0:
475,192,400968,1,0,0:0:0:0:
402,192,400968,1,0,0:0:0:0:
256,192,400968,1,0,0:0:0:0:
182,192,401070,1,0,0:0:0:0:
36,192,401070,1,0,0:0:0:0:
109,192,401070,1,0,0:0:0:0:
475,192,401172,1,0,0:0:0:0:
402,192,401172,1,0,0:0:0:0:
329,192,401172,1,0,0:0:0:0:
36,192,401274,1,0,0:0:0:0:
109,192,401274,1,0,0:0:0:0:
256,192,401274,1,0,0:0:0:0:
182,192,401274,1,0,0:0:0:0:
475,192,401377,1,0,0:0:0:0:
402,192,401377,1,0,0:0:0:0:
329,192,401479,1,0,0:0:0:0:
109,192,401479,1,0,0:0:0:0:
256,192,401479,1,0,0:0:0:0:
475,192,401581,1,0,0:0:0:0:
402,192,401581,1,0,0:0:0:0:
182,192,401581,1,0,0:0:0:0:
109,192,401683,1,0,0:0:0:0:
256,192,401683,1,0,0:0:0:0:
329,192,401683,1,0,0:0:0:0:
402,192,401785,1,0,0:0:0:0:
182,192,401785,1,0,0:0:0:0:
256,192,401887,1,0,0:0:0:0:
36,192,401887,1,0,0:0:0:0:
475,192,401887,1,0,0:0:0:0:
329,192,401989,1,0,0:0:0:0:
182,192,401989,1,0,0:0:0:0:
109,192,401989,1,0,0:0:0:0:
402,192,402091,1,0,0:0:0:0:
36,192,402091,1,0,0:0:0:0:
256,192,402091,1,0,0:0:0:0:
329,192,402193,1,0,0:0:0:0:
182,192,402193,1,0,0:0:0:0:
402,192,402295,1,0,0:0:0:0:
109,192,402295,1,0,0:0:0:0:
329,192,402397,1,0,0:0:0:0:
182,192,402397,1,0,0:0:0:0:
402,192,402499,1,0,0:0:0:0:
475,192,402499,1,0,0:0:0:0:
256,192,402499,1,0,0:0:0:0:
36,192,402499,1,0,0:0:0:0:
109,192,402499,1,0,0:0:0:0:
329,192,402601,1,0,0:0:0:0:
182,192,402601,1,0,0:0:0:0:
475,192,402703,1,0,0:0:0:0:
256,192,402703,1,0,0:0:0:0:
329,192,402805,1,0,0:0:0:0:
109,192,402805,1,0,0:0:0:0:
475,192,402907,1,0,0:0:0:0:
402,192,402907,1,0,0:0:0:0:
182,192,402907,1,0,0:0:0:0:
36,192,403009,1,0,0:0:0:0:
256,192,403009,1,0,0:0:0:0:
402,192,403111,1,0,0:0:0:0:
475,192,403111,1,0,0:0:0:0:
109,192,403111,1,0,0:0:0:0:
329,192,403111,1,0,0:0:0:0:
36,192,403213,1,0,0:0:0:0:
256,192,403213,1,0,0:0:0:0:
402,192,403315,1,0,0:0:0:0:
182,192,403315,1,0,0:0:0:0:
109,192,403417,1,0,0:0:0:0:
329,192,403417,1,0,0:0:0:0:
36,192,403519,1,0,0:0:0:0:
402,192,403519,1,0,0:0:0:0:
182,192,403519,1,0,0:0:0:0:
475,192,403621,1,0,0:0:0:0:
256,192,403621,1,0,0:0:0:0:
329,192,403723,1,0,0:0:0:0:
402,192,403723,1,0,0:0:0:0:
109,192,403723,1,0,0:0:0:0:
36,192,403723,1,0,0:0:0:0:
182,192,403825,1,0,0:0:0:0:
256,192,403825,1,0,0:0:0:0:
475,192,403928,1,0,0:0:0:0:
329,192,403928,1,0,0:0:0:0:
256,192,404030,1,0,0:0:0:0:
109,192,404030,1,0,0:0:0:0:
475,192,404132,1,0,0:0:0:0:
402,192,404132,1,0,0:0:0:0:
182,192,404132,1,0,0:0:0:0:
36,192,404234,1,0,0:0:0:0:
329,192,404234,1,0,0:0:0:0:
402,192,404336,1,0,0:0:0:0:
475,192,404336,1,0,0:0:0:0:
109,192,404336,1,0,0:0:0:0:
182,192,404336,1,0,0:0:0:0:
36,192,404438,1,0,0:0:0:0:
256,192,404438,1,0,0:0:0:0:
329,192,404540,1,0,0:0:0:0:
182,192,404540,1,0,0:0:0:0:
256,192,404642,1,0,0:0:0:0:
109,192,404642,1,0,0:0:0:0:
402,192,404744,1,0,0:0:0:0:
182,192,404744,1,0,0:0:0:0:
36,192,404846,1,0,0:0:0:0:
329,192,404846,1,0,0:0:0:0:
402,192,404948,1,0,0:0:0:0:
475,192,404948,1,0,0:0:0:0:
109,192,404948,1,0,0:0:0:0:
182,192,404948,1,0,0:0:0:0:
256,192,405050,1,0,0:0:0:0:
109,192,405152,1,0,0:0:0:0:
36,192,405152,1,0,0:0:0:0:
256,192,405254,1,0,0:0:0:0:
402,192,405356,1,0,0:0:0:0:
475,192,405356,1,0,0:0:0:0:
182,192,405356,1,0,0:0:0:0:
36,192,405356,1,0,0:0:0:0:
256,192,405458,1,0,0:0:0:0:
36,192,405560,1,0,0:0:0:0:
182,192,405560,1,0,0:0:0:0:
329,192,405560,1,0,0:0:0:0:
402,192,405560,1,0,0:0:0:0:
256,192,405662,1,0,0:0:0:0:
402,192,405764,1,0,0:0:0:0:
475,192,405764,1,0,0:0:0:0:
109,192,405764,1,0,0:0:0:0:
36,192,405764,1,0,0:0:0:0:
329,192,405866,1,0,0:0:0:0:
182,192,405866,1,0,0:0:0:0:
475,192,405968,1,0,0:0:0:0:
256,192,405968,1,0,0:0:0:0:
109,192,406070,1,0,0:0:0:0:
402,192,406070,1,0,0:0:0:0:
329,192,406172,1,0,0:0:0:0:
36,192,406172,1,0,0:0:0:0:
182,192,406172,1,0,0:0:0:0:
402,192,406274,1,0,0:0:0:0:
256,192,406274,1,0,0:0:0:0:
329,192,406376,1,0,0:0:0:0:
475,192,406376,1,0,0:0:0:0:
109,192,406376,1,0,0:0:0:0:
36,192,406376,1,0,0:0:0:0:
256,192,406479,1,0,0:0:0:0:
182,192,406479,1,0,0:0:0:0:
36,192,406581,1,0,0:0:0:0:
475,192,406581,1,0,0:0:0:0:
402,192,406581,1,0,0:0:0:0:
329,192,406683,1,0,0:0:0:0:
109,192,406683,1,0,0:0:0:0:
402,192,406785,1,0,0:0:0:0:
256,192,406785,1,0,0:0:0:0:
36,192,406887,1,0,0:0:0:0:
182,192,406887,1,0,0:0:0:0:
475,192,406989,1,0,0:0:0:0:
256,192,406989,1,0,0:0:0:0:
109,192,406989,1,0,0:0:0:0:
329,192,406989,1,0,0:0:0:0:
36,192,407091,1,0,0:0:0:0:
182,192,407091,1,0,0:0:0:0:
402,192,407193,1,0,0:0:0:0:
329,192,407193,1,0,0:0:0:0:
256,192,407295,1,0,0:0:0:0:
109,192,407295,1,0,0:0:0:0:
475,192,407397,1,0,0:0:0:0:
36,192,407397,1,0,0:0:0:0:
182,192,407397,1,0,0:0:0:0:
329,192,407499,1,0,0:0:0:0:
402,192,407499,1,0,0:0:0:0:
256,192,407601,1,0,0:0:0:0:
475,192,407601,1,0,0:0:0:0:
36,192,407601,1,0,0:0:0:0:
109,192,407601,1,0,0:0:0:0:
402,192,407703,1,0,0:0:0:0:
329,192,407703,1,0,0:0:0:0:
256,192,407805,1,0,0:0:0:0:
109,192,407805,1,0,0:0:0:0:
329,192,407907,1,0,0:0:0:0:
182,192,407907,1,0,0:0:0:0:
402,192,408009,1,0,0:0:0:0:
256,192,408009,1,0,0:0:0:0:
329,192,408111,1,0,0:0:0:0:
182,192,408111,1,0,0:0:0:0:
256,192,408213,1,0,0:0:0:0:
475,192,408213,1,0,0:0:0:0:
109,192,408213,1,0,0:0:0:0:
36,192,408213,1,0,0:0:0:0:
329,192,408315,1,0,0:0:0:0:
109,192,408417,1,0,0:0:0:0:
182,192,408417,1,0,0:0:0:0:
402,192,408519,1,0,0:0:0:0:
475,192,408519,1,0,0:0:0:0:
475,192,408621,1,0,0:0:0:0:
402,192,408621,1,0,0:0:0:0:
36,192,408621,1,0,0:0:0:0:
182,192,408621,1,0,0:0:0:0:
256,192,408723,1,0,0:0:0:0:
402,192,408825,1,0,0:0:0:0:
475,192,408825,1,0,0:0:0:0:
182,192,408825,1,0,0:0:0:0:
36,192,408825,1,0,0:0:0:0:
329,192,408928,1,0,0:0:0:0:
256,192,409030,1,0,0:0:0:0:
475,192,409030,1,0,0:0:0:0:
109,192,409030,1,0,0:0:0:0:
36,192,409030,1,0,0:0:0:0:
329,192,409132,1,0,0:0:0:0:
182,192,409132,1,0,0:0:0:0:
402,192,409234,1,0,0:0:0:0:
256,192,409234,1,0,0:0:0:0:
182,192,409336,1,0,0:0:0:0:
36,192,409336,1,0,0:0:0:0:
475,192,409438,1,0,0:0:0:0:
329,192,409438,1,0,0:0:0:0:
109,192,409438,1,0,0:0:0:0:
402,192,409540,1,0,0:0:0:0:
256,192,409540,1,0,0:0:0:0:
109,192,409642,1,0,0:0:0:0:
329,192,409642,1,0,0:0:0:0:
182,192,409642,1,0,0:0:0:0:
36,192,409642,1,0,0:0:0:0:
475,192,409744,1,0,0:0:0:0:
256,192,409744,1,0,0:0:0:0:
329,192,409846,1,0,0:0:0:0:
109,192,409846,1,0,0:0:0:0:
402,192,409948,1,0,0:0:0:0:
182,192,409948,1,0,0:0:0:0:
475,192,410050,1,0,0:0:0:0:
256,192,410050,1,0,0:0:0:0:
402,192,410152,1,0,0:0:0:0:
182,192,410152,1,0,0:0:0:0:
256,192,410254,1,0,0:0:0:0:
475,192,410254,1,0,0:0:0:0:
109,192,410254,1,0,0:0:0:0:
36,192,410254,1,0,0:0:0:0:
182,192,410356,1,0,0:0:0:0:
329,192,410356,1,0,0:0:0:0:
475,192,410458,1,0,0:0:0:0:
402,192,410458,1,0,0:0:0:0:
256,192,410560,1,0,0:0:0:0:
109,192,410560,1,0,0:0:0:0:
329,192,410662,1,0,0:0:0:0:
475,192,410662,1,0,0:0:0:0:
182,192,410662,1,0,0:0:0:0:
36,192,410662,1,0,0:0:0:0:
256,192,410764,1,0,0:0:0:0:
109,192,410764,1,0,0:0:0:0:
402,192,410866,1,0,0:0:0:0:
329,192,410866,1,0,0:0:0:0:
36,192,410968,1,0,0:0:0:0:
182,192,410968,1,0,0:0:0:0:
475,192,411070,1,0,0:0:0:0:
329,192,411070,1,0,0:0:0:0:
256,192,411070,1,0,0:0:0:0:
109,192,411172,1,0,0:0:0:0:
182,192,411172,1,0,0:0:0:0:
402,192,411274,1,0,0:0:0:0:
256,192,411274,1,0,0:0:0:0:
182,192,411376,1,0,0:0:0:0:
36,192,411376,1,0,0:0:0:0:
475,192,411479,1,0,0:0:0:0:
109,192,411479,1,0,0:0:0:0:
329,192,411479,1,0,0:0:0:0:
402,192,411479,1,0,0:0:0:0:
182,192,411581,1,0,0:0:0:0:
256,192,411683,1,0,0:0:0:0:
36,192,411683,1,0,0:0:0:0:
329,192,411785,1,0,0:0:0:0:
182,192,411887,1,0,0:0:0:0:
402,192,411887,1,0,0:0:0:0:
109,192,411887,1,0,0:0:0:0:
36,192,411887,1,0,0:0:0:0:
329,192,411989,1,0,0:0:0:0:
36,192,412091,1,0,0:0:0:0:
109,192,412091,1,0,0:0:0:0:
256,192,412091,1,0,0:0:0:0:
475,192,412091,1,0,0:0:0:0:
182,192,412193,1,0,0:0:0:0:
109,192,412295,1,0,0:0:0:0:
256,192,412295,1,0,0:0:0:0:
402,192,412295,1,0,0:0:0:0:
475,192,412295,1,0,0:0:0:0:
329,192,412397,1,0,0:0:0:0:
182,192,412397,1,0,0:0:0:0:
475,192,412499,1,0,0:0:0:0:
256,192,412499,1,0,0:0:0:0:
36,192,412601,1,0,0:0:0:0:
182,192,412601,1,0,0:0:0:0:
402,192,412703,1,0,0:0:0:0:
329,192,412703,1,0,0:0:0:0:
109,192,412703,1,0,0:0:0:0:
256,192,412805,1,0,0:0:0:0:
402,192,412907,1,0,0:0:0:0:
475,192,412907,1,0,0:0:0:0:
182,192,412907,1,0,0:0:0:0:
36,192,412907,1,0,0:0:0:0:
109,192,413009,1,0,0:0:0:0:
329,192,413009,1,0,0:0:0:0:
36,192,413111,1,0,0:0:0:0:
475,192,413111,1,0,0:0:0:0:
182,192,413111,1,0,0:0:0:0:
402,192,413111,1,0,0:0:0:0:
256,192,413213,1,0,0:0:0:0:
475,192,413315,1,0,0:0:0:0:
329,192,413315,1,0,0:0:0:0:
109,192,413315,1,0,0:0:0:0:
402,192,413417,1,0,0:0:0:0:
182,192,413417,1,0,0:0:0:0:
475,192,413519,1,0,0:0:0:0:
36,192,413519,1,0,0:0:0:0:
256,192,413519,1,0,0:0:0:0:
329,192,413621,1,0,0:0:0:0:
109,192,413621,1,0,0:0:0:0:
182,192,413723,1,0,0:0:0:0:
475,192,413723,1,0,0:0:0:0:
402,192,413723,1,0,0:0:0:0:
329,192,413825,1,0,0:0:0:0:
109,192,413825,1,0,0:0:0:0:
475,192,413928,1,0,0:0:0:0:
402,192,413928,1,0,0:0:0:0:
256,192,413928,1,0,0:0:0:0:
182,192,414030,1,0,0:0:0:0:
109,192,414030,1,0,0:0:0:0:
475,192,414132,1,0,0:0:0:0:
402,192,414132,1,0,0:0:0:0:
256,192,414132,1,0,0:0:0:0:
182,192,414234,1,0,0:0:0:0:
109,192,414234,1,0,0:0:0:0:
475,192,414336,1,0,0:0:0:0:
402,192,414336,1,0,0:0:0:0:
329,192,414336,1,0,0:0:0:0:
182,192,414438,1,0,0:0:0:0:
36,192,414438,1,0,0:0:0:0:
475,192,414540,1,0,0:0:0:0:
402,192,414540,1,0,0:0:0:0:
329,192,414540,1,0,0:0:0:0:
36,192,414642,1,0,0:0:0:0:
182,192,414642,1,0,0:0:0:0:
256,192,414744,5,0,0:0:0:0:
402,192,414744,1,0,0:0:0:0:
329,192,414744,1,0,0:0:0:0:
36,192,414846,1,0,0:0:0:0:
109,192,414846,1,0,0:0:0:0:
329,192,414948,1,0,0:0:0:0:
256,192,414948,1,0,0:0:0:0:
182,192,414948,1,0,0:0:0:0:
475,192,415050,1,0,0:0:0:0:
402,192,415050,1,0,0:0:0:0:
182,192,415152,1,0,0:0:0:0:
256,192,415152,1,0,0:0:0:0:
36,192,415152,1,0,0:0:0:0:
109,192,415152,1,0,0:0:0:0:
475,192,415254,1,0,0:0:0:0:
402,192,415254,1,0,0:0:0:0:
329,192,415254,1,0,0:0:0:0:
182,192,415356,1,0,0:0:0:0:
109,192,415356,1,0,0:0:0:0:
36,192,415356,1,0,0:0:0:0:
475,192,415458,1,0,0:0:0:0:
402,192,415458,1,0,0:0:0:0:
329,192,415458,1,0,0:0:0:0:
36,192,415560,1,0,0:0:0:0:
109,192,415560,1,0,0:0:0:0:
182,192,415560,1,0,0:0:0:0:
182,192,415866,1,0,0:0:0:0:
182,192,416172,1,0,0:0:0:0:
182,192,416376,1,0,0:0:0:0:
109,192,416683,1,0,0:0:0:0:
109,192,416785,1,0,0:0:0:0:
109,192,416989,1,0,0:0:0:0:
329,192,417193,1,0,0:0:0:0:
182,192,417193,1,0,0:0:0:0:
109,192,417397,1,0,0:0:0:0:
402,192,417397,1,0,0:0:0:0:
36,192,417397,1,0,0:0:0:0:
475,192,417397,1,0,0:0:0:0:
329,192,417601,1,0,0:0:0:0:
182,192,417601,1,0,0:0:0:0:
109,192,417805,1,0,0:0:0:0:
402,192,417805,1,0,0:0:0:0:
36,192,417805,1,0,0:0:0:0:
475,192,417805,1,0,0:0:0:0:
329,192,418009,1,0,0:0:0:0:
182,192,418009,1,0,0:0:0:0:
475,192,418213,1,0,0:0:0:0:
109,192,418213,1,0,0:0:0:0:
36,192,418213,1,0,0:0:0:0:
402,192,418213,1,0,0:0:0:0:
329,192,418417,1,0,0:0:0:0:
182,192,418417,1,0,0:0:0:0:
402,192,418621,1,0,0:0:0:0:
475,192,418621,1,0,0:0:0:0:
109,192,418621,1,0,0:0:0:0:
36,192,418621,1,0,0:0:0:0:
402,192,418825,1,0,0:0:0:0:
109,192,418825,1,0,0:0:0:0:
182,192,419030,1,0,0:0:0:0:
36,192,419030,1,0,0:0:0:0:
329,192,419030,1,0,0:0:0:0:
475,192,419030,1,0,0:0:0:0:
402,192,419234,1,0,0:0:0:0:
109,192,419234,1,0,0:0:0:0:
329,192,419438,1,0,0:0:0:0:
475,192,419438,1,0,0:0:0:0:
36,192,419438,1,0,0:0:0:0:
182,192,419438,1,0,0:0:0:0:
475,192,419642,1,0,0:0:0:0:
36,192,419642,1,0,0:0:0:0:
182,192,419846,1,0,0:0:0:0:
109,192,419846,1,0,0:0:0:0:
329,192,419846,1,0,0:0:0:0:
402,192,419846,1,0,0:0:0:0:
475,192,420050,1,0,0:0:0:0:
36,192,420050,1,0,0:0:0:0:
329,192,420254,1,0,0:0:0:0:
402,192,420254,1,0,0:0:0:0:
109,192,420254,1,0,0:0:0:0:
182,192,420254,1,0,0:0:0:0:
475,192,420458,1,0,0:0:0:0:
256,192,420458,1,0,0:0:0:0:
36,192,420458,1,0,0:0:0:0:
109,192,420662,1,0,0:0:0:0:
475,192,420662,1,0,0:0:0:0:
36,192,420662,1,0,0:0:0:0:
402,192,420662,1,0,0:0:0:0:
329,192,420866,1,0,0:0:0:0:
182,192,420866,1,0,0:0:0:0:
402,192,421070,1,0,0:0:0:0:
475,192,421070,1,0,0:0:0:0:
36,192,421070,1,0,0:0:0:0:
109,192,421070,1,0,0:0:0:0:
329,192,421274,1,0,0:0:0:0:
182,192,421274,1,0,0:0:0:0:
402,192,421479,1,0,0:0:0:0:
475,192,421479,1,0,0:0:0:0:
109,192,421479,1,0,0:0:0:0:
36,192,421479,1,0,0:0:0:0:
329,192,421683,1,0,0:0:0:0:
182,192,421683,1,0,0:0:0:0:
109,192,421887,1,0,0:0:0:0:
36,192,421887,1,0,0:0:0:0:
402,192,421887,1,0,0:0:0:0:
475,192,421887,1,0,0:0:0:0:
402,192,422091,1,0,0:0:0:0:
109,192,422091,1,0,0:0:0:0:
329,192,422295,1,0,0:0:0:0:
475,192,422295,1,0,0:0:0:0:
36,192,422295,1,0,0:0:0:0:
182,192,422295,1,0,0:0:0:0:
402,192,422499,1,0,0:0:0:0:
109,192,422499,1,0,0:0:0:0:
329,192,422703,1,0,0:0:0:0:
475,192,422703,1,0,0:0:0:0:
36,192,422703,1,0,0:0:0:0:
182,192,422703,1,0,0:0:0:0:
475,192,422907,1,0,0:0:0:0:
36,192,422907,1,0,0:0:0:0:
329,192,423111,1,0,0:0:0:0:
402,192,423111,1,0,0:0:0:0:
109,192,423111,1,0,0:0:0:0:
182,192,423111,1,0,0:0:0:0:
475,192,423315,1,0,0:0:0:0:
36,192,423315,1,0,0:0:0:0:
36,192,423519,1,0,0:0:0:0:
475,192,423519,1,0,0:0:0:0:
329,192,423519,1,0,0:0:0:0:
182,192,423519,1,0,0:0:0:0:
402,192,423723,1,0,0:0:0:0:
475,192,423723,1,0,0:0:0:0:
109,192,423723,1,0,0:0:0:0:
36,192,423723,1,0,0:0:0:0:
182,192,423825,1,0,0:0:0:0:
475,192,423928,1,0,0:0:0:0:
36,192,423928,1,0,0:0:0:0:
256,192,423928,1,0,0:0:0:0:
329,192,423928,1,0,0:0:0:0:
182,192,424030,1,0,0:0:0:0:
475,192,424132,1,0,0:0:0:0:
329,192,424132,1,0,0:0:0:0:
109,192,424132,1,0,0:0:0:0:
256,192,424234,1,0,0:0:0:0:
475,192,424336,1,0,0:0:0:0:
402,192,424336,1,0,0:0:0:0:
36,192,424336,1,0,0:0:0:0:
182,192,424336,1,0,0:0:0:0:
329,192,424438,1,0,0:0:0:0:
475,192,424540,1,0,0:0:0:0:
256,192,424540,1,0,0:0:0:0:
109,192,424540,1,0,0:0:0:0:
182,192,424642,1,0,0:0:0:0:
36,192,424744,1,0,0:0:0:0:
109,192,424744,1,0,0:0:0:0:
329,192,424744,1,0,0:0:0:0:
402,192,424744,1,0,0:0:0:0:
256,192,424846,1,0,0:0:0:0:
109,192,424948,1,0,0:0:0:0:
475,192,424948,1,0,0:0:0:0:
329,192,424948,1,0,0:0:0:0:
182,192,425050,1,0,0:0:0:0:
36,192,425152,1,0,0:0:0:0:
475,192,425152,1,0,0:0:0:0:
256,192,425152,1,0,0:0:0:0:
402,192,425152,1,0,0:0:0:0:
109,192,425254,1,0,0:0:0:0:
402,192,425356,1,0,0:0:0:0:
329,192,425356,1,0,0:0:0:0:
182,192,425356,1,0,0:0:0:0:
36,192,425458,1,0,0:0:0:0:
475,192,425560,1,0,0:0:0:0:
109,192,425560,1,0,0:0:0:0:
256,192,425560,1,0,0:0:0:0:
402,192,425560,1,0,0:0:0:0:
36,192,425662,1,0,0:0:0:0:
475,192,425764,1,0,0:0:0:0:
329,192,425764,1,0,0:0:0:0:
182,192,425764,1,0,0:0:0:0:
36,192,425866,1,0,0:0:0:0:
402,192,425968,1,0,0:0:0:0:
475,192,425968,1,0,0:0:0:0:
109,192,425968,1,0,0:0:0:0:
256,192,425968,1,0,0:0:0:0:
182,192,426070,1,0,0:0:0:0:
475,192,426172,1,0,0:0:0:0:
329,192,426172,1,0,0:0:0:0:
36,192,426172,1,0,0:0:0:0:
256,192,426274,1,0,0:0:0:0:
402,192,426376,1,0,0:0:0:0:
475,192,426376,1,0,0:0:0:0:
182,192,426376,1,0,0:0:0:0:
109,192,426376,1,0,0:0:0:0:
256,192,426479,1,0,0:0:0:0:
475,192,426581,1,0,0:0:0:0:
182,192,426581,1,0,0:0:0:0:
36,192,426581,1,0,0:0:0:0:
329,192,426683,1,0,0:0:0:0:
402,192,426785,1,0,0:0:0:0:
475,192,426785,1,0,0:0:0:0:
109,192,426785,1,0,0:0:0:0:
182,192,426785,1,0,0:0:0:0:
256,192,426887,1,0,0:0:0:0:
475,192,426989,1,0,0:0:0:0:
329,192,426989,1,0,0:0:0:0:
36,192,426989,1,0,0:0:0:0:
182,192,427091,1,0,0:0:0:0:
402,192,427193,1,0,0:0:0:0:
475,192,427193,1,0,0:0:0:0:
109,192,427193,1,0,0:0:0:0:
36,192,427193,1,0,0:0:0:0:
256,192,427295,1,0,0:0:0:0:
475,192,427397,1,0,0:0:0:0:
329,192,427397,1,0,0:0:0:0:
182,192,427397,1,0,0:0:0:0:
36,192,427499,5,0,0:0:0:0:
402,192,427601,1,0,0:0:0:0:
475,192,427601,1,0,0:0:0:0:
109,192,427601,1,0,0:0:0:0:
256,192,427601,1,0,0:0:0:0:
182,192,427703,1,0,0:0:0:0:
475,192,427805,1,0,0:0:0:0:
329,192,427805,1,0,0:0:0:0:
36,192,427805,1,0,0:0:0:0:
256,192,427907,1,0,0:0:0:0:
402,192,428009,1,0,0:0:0:0:
475,192,428009,1,0,0:0:0:0:
36,192,428009,1,0,0:0:0:0:
182,192,428009,1,0,0:0:0:0:
329,192,428111,1,0,0:0:0:0:
475,192,428213,1,0,0:0:0:0:
256,192,428213,1,0,0:0:0:0:
109,192,428213,1,0,0:0:0:0:
402,192,428315,1,0,0:0:0:0:
329,192,428417,1,0,0:0:0:0:
36,192,428417,1,0,0:0:0:0:
182,192,428417,1,0,0:0:0:0:
256,192,428417,1,0,0:0:0:0:
402,192,428519,1,0,0:0:0:0:
36,192,428621,5,0,0:0:0:0:
475,192,428621,1,0,0:0:0:0:
182,192,428621,1,0,0:0:0:0:
36,192,428723,1,0,0:0:0:0:
182,192,428723,1,0,0:0:0:0:
475,192,428723,1,0,0:0:0:0:
256,192,428825,1,0,0:0:0:0:
36,192,428928,1,0,0:0:0:0:
475,192,428928,1,0,0:0:0:0:
329,192,428928,1,0,0:0:0:0:
36,192,429030,1,0,0:0:0:0:
329,192,429030,1,0,0:0:0:0:
475,192,429030,1,0,0:0:0:0:
109,192,429132,1,0,0:0:0:0:
402,192,429234,1,0,0:0:0:0:
256,192,429234,1,0,0:0:0:0:
182,192,429234,1,0,0:0:0:0:
182,192,429336,1,0,0:0:0:0:
256,192,429336,1,0,0:0:0:0:
402,192,429336,1,0,0:0:0:0:
475,192,429438,1,0,0:0:0:0:
329,192,429540,1,0,0:0:0:0:
182,192,429540,1,0,0:0:0:0:
109,192,429540,1,0,0:0:0:0:
329,192,429642,1,0,0:0:0:0:
109,192,429642,1,0,0:0:0:0:
182,192,429642,1,0,0:0:0:0:
109,192,429846,1,0,0:0:0:0:
256,192,429846,1,0,0:0:0:0:
36,192,429846,1,0,0:0:0:0:
256,192,430050,1,0,0:0:0:0:
109,192,430050,1,0,0:0:0:0:
36,192,430050,1,0,0:0:0:0:
329,192,430254,1,0,0:0:0:0:
475,192,430254,1,0,0:0:0:0:
36,192,430254,1,0,0:0:0:0:
109,192,430254,1,0,0:0:0:0:
182,192,430356,1,0,0:0:0:0:
329,192,430458,1,0,0:0:0:0:
182,192,430560,1,0,0:0:0:0:
329,192,430662,1,0,0:0:0:0:
256,192,430764,1,0,0:0:0:0:
182,192,430866,1,0,0:0:0:0:
256,192,430968,1,0,0:0:0:0:
329,192,431070,1,0,0:0:0:0:
182,192,431172,1,0,0:0:0:0:
329,192,431274,1,0,0:0:0:0:
182,192,431376,1,0,0:0:0:0:
329,192,431479,1,0,0:0:0:0:
256,192,431581,1,0,0:0:0:0:
182,192,431683,1,0,0:0:0:0:
256,192,431785,1,0,0:0:0:0:
329,192,431887,1,0,0:0:0:0:
109,192,431989,1,0,0:0:0:0:
402,192,432091,1,0,0:0:0:0:
182,192,432193,1,0,0:0:0:0:
329,192,432295,1,0,0:0:0:0:
109,192,432397,1,0,0:0:0:0:
402,192,432499,1,0,0:0:0:0:
182,192,432601,1,0,0:0:0:0:
329,192,432703,1,0,0:0:0:0:
256,192,432805,1,0,0:0:0:0:
402,192,432907,1,0,0:0:0:0:
475,192,432958,1,0,0:0:0:0:
109,192,433009,1,0,0:0:0:0:
36,192,433060,1,0,0:0:0:0:
256,192,433111,1,0,0:0:0:0:
182,192,433213,1,0,0:0:0:0:
36,192,433315,1,0,0:0:0:0:
109,192,433366,1,0,0:0:0:0:
475,192,433417,1,0,0:0:0:0:
402,192,433468,1,0,0:0:0:0:
329,192,433519,1,0,0:0:0:0:
182,192,433621,1,0,0:0:0:0:
329,192,433723,1,0,0:0:0:0:
182,192,433825,1,0,0:0:0:0:
329,192,433928,1,0,0:0:0:0:
256,192,434030,1,0,0:0:0:0:
182,192,434132,1,0,0:0:0:0:
256,192,434234,1,0,0:0:0:0:
329,192,434336,1,0,0:0:0:0:
182,192,434438,1,0,0:0:0:0:
329,192,434540,1,0,0:0:0:0:
182,192,434642,1,0,0:0:0:0:
329,192,434744,1,0,0:0:0:0:
256,192,434846,1,0,0:0:0:0:
182,192,434948,1,0,0:0:0:0:
256,192,435050,1,0,0:0:0:0:
329,192,435152,1,0,0:0:0:0:
109,192,435254,1,0,0:0:0:0:
402,192,435356,1,0,0:0:0:0:
182,192,435458,1,0,0:0:0:0:
329,192,435560,1,0,0:0:0:0:
109,192,435662,1,0,0:0:0:0:
402,192,435764,1,0,0:0:0:0:
182,192,435866,1,0,0:0:0:0:
329,192,435968,1,0,0:0:0:0:
256,192,436070,1,0,0:0:0:0:
475,192,436172,1,0,0:0:0:0:
402,192,436223,1,0,0:0:0:0:
329,192,436274,1,0,0:0:0:0:
256,192,436325,1,0,0:0:0:0:
109,192,436376,1,0,0:0:0:0:
402,192,436479,1,0,0:0:0:0:
329,192,436581,1,0,0:0:0:0:
256,192,436632,1,0,0:0:0:0:
182,192,436683,1,0,0:0:0:0:
109,192,436734,1,0,0:0:0:0:
36,192,436785,1,0,0:0:0:0:
475,192,436785,1,0,0:0:0:0:
329,192,436887,1,0,0:0:0:0:
182,192,436989,1,0,0:0:0:0:
329,192,437091,1,0,0:0:0:0:
36,192,437193,1,0,0:0:0:0:
182,192,437295,1,0,0:0:0:0:
329,192,437397,1,0,0:0:0:0:
182,192,437499,1,0,0:0:0:0:
475,192,437601,1,0,0:0:0:0:
329,192,437703,1,0,0:0:0:0:
182,192,437805,1,0,0:0:0:0:
329,192,437907,1,0,0:0:0:0:
36,192,438009,1,0,0:0:0:0:
182,192,438111,1,0,0:0:0:0:
329,192,438213,1,0,0:0:0:0:
182,192,438315,1,0,0:0:0:0:
109,192,438417,1,0,0:0:0:0:
402,192,438519,1,0,0:0:0:0:
109,192,438621,1,0,0:0:0:0:
402,192,438723,1,0,0:0:0:0:
109,192,438825,1,0,0:0:0:0:
402,192,438928,1,0,0:0:0:0:
109,192,439030,1,0,0:0:0:0:
402,192,439132,1,0,0:0:0:0:
182,192,439234,1,0,0:0:0:0:
36,192,439336,1,0,0:0:0:0:
402,192,439438,1,0,0:0:0:0:
256,192,439489,1,0,0:0:0:0:
109,192,439540,1,0,0:0:0:0:
475,192,439591,1,0,0:0:0:0:
329,192,439642,1,0,0:0:0:0:
182,192,439744,1,0,0:0:0:0:
36,192,439846,1,0,0:0:0:0:
256,192,439897,1,0,0:0:0:0:
475,192,439948,1,0,0:0:0:0:
109,192,439999,1,0,0:0:0:0:
329,192,440050,1,0,0:0:0:0:
182,192,440152,1,0,0:0:0:0:
402,192,440254,1,0,0:0:0:0:
182,192,440356,1,0,0:0:0:0:
329,192,440458,1,0,0:0:0:0:
182,192,440560,1,0,0:0:0:0:
402,192,440662,1,0,0:0:0:0:
182,192,440764,1,0,0:0:0:0:
329,192,440866,1,0,0:0:0:0:
109,192,440968,1,0,0:0:0:0:
329,192,441070,1,0,0:0:0:0:
182,192,441172,1,0,0:0:0:0:
329,192,441274,1,0,0:0:0:0:
109,192,441376,1,0,0:0:0:0:
329,192,441479,1,0,0:0:0:0:
182,192,441581,1,0,0:0:0:0:
402,192,441683,1,0,0:0:0:0:
109,192,441683,1,0,0:0:0:0:
36,192,441683,1,0,0:0:0:0:
402,192,441785,1,0,0:0:0:0:
109,192,441785,1,0,0:0:0:0:
36,192,441785,1,0,0:0:0:0:
256,192,441887,1,0,0:0:0:0:
475,192,441989,1,0,0:0:0:0:
109,192,441989,1,0,0:0:0:0:
329,192,441989,1,0,0:0:0:0:
475,192,442091,1,0,0:0:0:0:
329,192,442091,1,0,0:0:0:0:
109,192,442091,1,0,0:0:0:0:
256,192,442193,1,0,0:0:0:0:
182,192,442295,1,0,0:0:0:0:
329,192,442295,1,0,0:0:0:0:
36,192,442295,1,0,0:0:0:0:
182,192,442397,1,0,0:0:0:0:
329,192,442397,1,0,0:0:0:0:
36,192,442397,1,0,0:0:0:0:
256,192,442499,1,0,0:0:0:0:
475,192,442601,1,0,0:0:0:0:
402,192,442601,1,0,0:0:0:0:
109,192,442601,1,0,0:0:0:0:
475,192,442703,1,0,0:0:0:0:
402,192,442703,1,0,0:0:0:0:
109,192,442703,1,0,0:0:0:0:
329,192,442907,1,0,0:0:0:0:
182,192,442907,1,0,0:0:0:0:
329,192,443111,1,0,0:0:0:0:
182,192,443111,1,0,0:0:0:0:
256,192,443315,1,0,0:0:0:0:
475,192,443315,1,0,0:0:0:0:
36,192,443315,1,0,0:0:0:0:
256,192,443928,1,0,0:0:0:0:
402,192,444540,1,0,0:0:0:0:
109,192,444948,1,0,0:0:0:0:
36,192,444948,1,0,0:0:0:0:
329,192,445152,1,0,0:0:0:0:
402,192,445764,1,0,0:0:0:0:
475,192,446172,1,0,0:0:0:0:
109,192,446376,1,0,0:0:0:0:
36,192,446376,1,0,0:0:0:0:
256,192,446581,1,0,0:0:0:0:
109,192,446581,1,0,0:0:0:0:
36,192,446581,1,0,0:0:0:0:
182,192,447193,1,0,0:0:0:0:
402,192,447805,1,0,0:0:0:0:
36,192,447907,1,0,0:0:0:0:
109,192,447907,1,0,0:0:0:0:
36,192,448213,1,0,0:0:0:0:
109,192,448213,1,0,0:0:0:0:
329,192,448417,1,0,0:0:0:0:
402,192,449030,1,0,0:0:0:0:
475,192,449438,1,0,0:0:0:0:
402,192,449642,1,0,0:0:0:0:
256,192,449846,1,0,0:0:0:0:
329,192,449846,1,0,0:0:0:0:
36,192,449846,1,0,0:0:0:0:
109,192,449846,1,0,0:0:0:0:
256,192,450458,1,0,0:0:0:0:
36,192,450662,1,0,0:0:0:0:
109,192,450662,1,0,0:0:0:0:
402,192,451070,1,0,0:0:0:0:
36,192,451274,1,0,0:0:0:0:
109,192,451274,1,0,0:0:0:0:
36,192,451479,1,0,0:0:0:0:
109,192,451479,1,0,0:0:0:0:
329,192,451683,1,0,0:0:0:0:
36,192,451989,1,0,0:0:0:0:
109,192,451989,1,0,0:0:0:0:
36,192,452295,1,0,0:0:0:0:
109,192,452295,1,0,0:0:0:0:
402,192,452295,1,0,0:0:0:0:
475,192,452703,1,0,0:0:0:0:
36,192,452907,1,0,0:0:0:0:
109,192,452907,1,0,0:0:0:0:
256,192,453111,1,0,0:0:0:0:
402,192,453111,1,0,0:0:0:0:
36,192,453111,1,0,0:0:0:0:
109,192,453111,1,0,0:0:0:0:
36,192,453519,1,0,0:0:0:0:
109,192,453519,1,0,0:0:0:0:
329,192,453723,1,0,0:0:0:0:
182,192,453928,1,0,0:0:0:0:
36,192,453928,1,0,0:0:0:0:
109,192,453928,1,0,0:0:0:0:
475,192,454336,1,0,0:0:0:0:
36,192,454336,1,0,0:0:0:0:
109,192,454336,1,0,0:0:0:0:
329,192,454744,1,0,0:0:0:0:
475,192,454744,1,0,0:0:0:0:
36,192,454744,1,0,0:0:0:0:
182,192,454744,1,0,0:0:0:0:
109,192,454744,1,0,0:0:0:0:
475,192,454948,1,0,0:0:0:0:
109,192,454948,1,0,0:0:0:0:
256,192,454948,1,0,0:0:0:0:
402,192,454948,1,0,0:0:0:0:
329,192,455152,1,0,0:0:0:0:
36,192,455152,1,0,0:0:0:0:
109,192,455152,1,0,0:0:0:0:
182,192,455152,1,0,0:0:0:0:
182,192,455356,5,0,0:0:0:0:
475,192,455356,1,0,0:0:0:0:
36,192,455356,1,0,0:0:0:0:
329,192,455356,1,0,0:0:0:0:
402,192,455356,1,0,0:0:0:0:
475,192,455560,1,0,0:0:0:0:
402,192,455560,1,0,0:0:0:0:
256,192,455560,1,0,0:0:0:0:
182,192,455628,1,0,0:0:0:0:
109,192,455696,1,0,0:0:0:0:
402,192,455764,1,0,0:0:0:0:
329,192,455764,1,0,0:0:0:0:
36,192,455764,1,0,0:0:0:0:
182,192,455866,1,0,0:0:0:0:
256,192,455866,1,0,0:0:0:0:
475,192,455968,1,0,0:0:0:0:
402,192,455968,1,0,0:0:0:0:
329,192,456070,1,0,0:0:0:0:
256,192,456070,1,0,0:0:0:0:
109,192,456172,1,0,0:0:0:0:
36,192,456172,1,0,0:0:0:0:
256,192,456274,1,0,0:0:0:0:
182,192,456274,1,0,0:0:0:0:
475,192,456376,1,0,0:0:0:0:
36,192,456376,1,0,0:0:0:0:
329,192,456376,1,0,0:0:0:0:
402,192,456376,1,0,0:0:0:0:
109,192,456479,1,0,0:0:0:0:
329,192,456581,1,0,0:0:0:0:
182,192,456581,1,0,0:0:0:0:
109,192,456683,1,0,0:0:0:0:
475,192,456785,1,0,0:0:0:0:
182,192,456785,1,0,0:0:0:0:
402,192,456785,1,0,0:0:0:0:
36,192,456785,1,0,0:0:0:0:
256,192,456785,1,0,0:0:0:0:
329,192,456887,1,0,0:0:0:0:
36,192,456989,1,0,0:0:0:0:
256,192,456989,1,0,0:0:0:0:
109,192,456989,1,0,0:0:0:0:
402,192,457091,1,0,0:0:0:0:
329,192,457193,1,0,0:0:0:0:
475,192,457193,1,0,0:0:0:0:
109,192,457193,1,0,0:0:0:0:
182,192,457193,1,0,0:0:0:0:
36,192,457193,1,0,0:0:0:0:
256,192,457295,1,0,0:0:0:0:
329,192,457397,1,0,0:0:0:0:
36,192,457397,1,0,0:0:0:0:
182,192,457499,1,0,0:0:0:0:
402,192,457601,1,0,0:0:0:0:
475,192,457601,1,0,0:0:0:0:
256,192,457601,1,0,0:0:0:0:
109,192,457601,1,0,0:0:0:0:
36,192,457601,1,0,0:0:0:0:
329,192,457703,1,0,0:0:0:0:
109,192,457805,1,0,0:0:0:0:
182,192,457805,1,0,0:0:0:0:
256,192,457907,1,0,0:0:0:0:
109,192,458009,1,0,0:0:0:0:
36,192,458009,1,0,0:0:0:0:
402,192,458009,1,0,0:0:0:0:
329,192,458009,1,0,0:0:0:0:
475,192,458009,1,0,0:0:0:0:
182,192,458111,1,0,0:0:0:0:
36,192,458213,1,0,0:0:0:0:
475,192,458213,1,0,0:0:0:0:
256,192,458213,1,0,0:0:0:0:
329,192,458315,1,0,0:0:0:0:
402,192,458417,1,0,0:0:0:0:
475,192,458417,1,0,0:0:0:0:
36,192,458417,1,0,0:0:0:0:
182,192,458417,1,0,0:0:0:0:
109,192,458417,1,0,0:0:0:0:
256,192,458519,1,0,0:0:0:0:
329,192,458621,1,0,0:0:0:0:
109,192,458621,1,0,0:0:0:0:
182,192,458723,1,0,0:0:0:0:
402,192,458825,1,0,0:0:0:0:
475,192,458825,1,0,0:0:0:0:
109,192,458825,1,0,0:0:0:0:
256,192,458825,1,0,0:0:0:0:
36,192,458825,1,0,0:0:0:0:
329,192,458928,1,0,0:0:0:0:
36,192,459030,1,0,0:0:0:0:
182,192,459030,1,0,0:0:0:0:
256,192,459132,1,0,0:0:0:0:
475,192,459234,1,0,0:0:0:0:
329,192,459234,1,0,0:0:0:0:
402,192,459234,1,0,0:0:0:0:
109,192,459234,1,0,0:0:0:0:
36,192,459234,1,0,0:0:0:0:
256,192,459336,1,0,0:0:0:0:
402,192,459438,1,0,0:0:0:0:
182,192,459438,1,0,0:0:0:0:
329,192,459540,1,0,0:0:0:0:
402,192,459642,1,0,0:0:0:0:
475,192,459642,1,0,0:0:0:0:
256,192,459642,1,0,0:0:0:0:
109,192,459642,1,0,0:0:0:0:
36,192,459642,1,0,0:0:0:0:
182,192,459744,1,0,0:0:0:0:
475,192,459846,1,0,0:0:0:0:
329,192,459846,1,0,0:0:0:0:
109,192,459948,1,0,0:0:0:0:
402,192,460050,1,0,0:0:0:0:
475,192,460050,1,0,0:0:0:0:
256,192,460050,1,0,0:0:0:0:
182,192,460050,1,0,0:0:0:0:
36,192,460050,1,0,0:0:0:0:
329,192,460152,1,0,0:0:0:0:
402,192,460254,1,0,0:0:0:0:
182,192,460254,1,0,0:0:0:0:
36,192,460254,1,0,0:0:0:0:
256,192,460356,1,0,0:0:0:0:
109,192,460458,1,0,0:0:0:0:
36,192,460458,1,0,0:0:0:0:
329,192,460458,1,0,0:0:0:0:
402,192,460458,1,0,0:0:0:0:
475,192,460458,1,0,0:0:0:0:
182,192,460560,1,0,0:0:0:0:
475,192,460662,1,0,0:0:0:0:
256,192,460662,1,0,0:0:0:0:
329,192,460764,1,0,0:0:0:0:
475,192,460866,1,0,0:0:0:0:
256,192,460866,1,0,0:0:0:0:
402,192,460866,1,0,0:0:0:0:
36,192,460866,1,0,0:0:0:0:
182,192,460866,1,0,0:0:0:0:
109,192,460968,1,0,0:0:0:0:
402,192,461070,1,0,0:0:0:0:
256,192,461070,1,0,0:0:0:0:
182,192,461172,1,0,0:0:0:0:
475,192,461274,1,0,0:0:0:0:
109,192,461274,1,0,0:0:0:0:
329,192,461274,1,0,0:0:0:0:
36,192,461274,1,0,0:0:0:0:
256,192,461274,1,0,0:0:0:0:
182,192,461376,1,0,0:0:0:0:
256,192,461479,1,0,0:0:0:0:
36,192,461479,1,0,0:0:0:0:
402,192,461479,1,0,0:0:0:0:
109,192,461581,1,0,0:0:0:0:
475,192,461683,1,0,0:0:0:0:
402,192,461683,1,0,0:0:0:0:
329,192,461683,1,0,0:0:0:0:
182,192,461683,1,0,0:0:0:0:
36,192,461683,1,0,0:0:0:0:
256,192,461785,1,0,0:0:0:0:
402,192,461887,1,0,0:0:0:0:
109,192,461887,1,0,0:0:0:0:
329,192,461989,1,0,0:0:0:0:
402,192,462091,1,0,0:0:0:0:
36,192,462091,1,0,0:0:0:0:
475,192,462091,1,0,0:0:0:0:
182,192,462091,1,0,0:0:0:0:
256,192,462091,1,0,0:0:0:0:
109,192,462193,1,0,0:0:0:0:
402,192,462295,1,0,0:0:0:0:
329,192,462295,1,0,0:0:0:0:
256,192,462397,1,0,0:0:0:0:
402,192,462499,1,0,0:0:0:0:
475,192,462499,1,0,0:0:0:0:
329,192,462499,1,0,0:0:0:0:
109,192,462499,1,0,0:0:0:0:
36,192,462499,1,0,0:0:0:0:
182,192,462601,1,0,0:0:0:0:
36,192,462703,1,0,0:0:0:0:
402,192,462703,1,0,0:0:0:0:
256,192,462703,1,0,0:0:0:0:
109,192,462805,1,0,0:0:0:0:
475,192,462907,1,0,0:0:0:0:
36,192,462907,1,0,0:0:0:0:
402,192,462907,1,0,0:0:0:0:
182,192,462907,1,0,0:0:0:0:
329,192,462907,1,0,0:0:0:0:
256,192,463009,1,0,0:0:0:0:
402,192,463111,1,0,0:0:0:0:
109,192,463111,1,0,0:0:0:0:
329,192,463213,1,0,0:0:0:0:
475,192,463315,1,0,0:0:0:0:
402,192,463315,1,0,0:0:0:0:
256,192,463315,1,0,0:0:0:0:
182,192,463315,1,0,0:0:0:0:
36,192,463315,1,0,0:0:0:0:
109,192,463417,1,0,0:0:0:0:
36,192,463519,1,0,0:0:0:0:
402,192,463519,1,0,0:0:0:0:
182,192,463519,1,0,0:0:0:0:
329,192,463621,1,0,0:0:0:0:
402,192,463723,1,0,0:0:0:0:
475,192,463723,1,0,0:0:0:0:
256,192,463723,1,0,0:0:0:0:
109,192,463723,1,0,0:0:0:0:
36,192,463723,1,0,0:0:0:0:
182,192,463825,1,0,0:0:0:0:
109,192,463928,1,0,0:0:0:0:
329,192,463928,1,0,0:0:0:0:
256,192,464030,1,0,0:0:0:0:
475,192,464132,1,0,0:0:0:0:
329,192,464132,1,0,0:0:0:0:
402,192,464132,1,0,0:0:0:0:
182,192,464132,1,0,0:0:0:0:
36,192,464132,1,0,0:0:0:0:
109,192,464234,1,0,0:0:0:0:
402,192,464336,1,0,0:0:0:0:
256,192,464336,1,0,0:0:0:0:
182,192,464438,1,0,0:0:0:0:
402,192,464540,1,0,0:0:0:0:
109,192,464540,1,0,0:0:0:0:
475,192,464540,1,0,0:0:0:0:
36,192,464540,1,0,0:0:0:0:
329,192,464540,1,0,0:0:0:0:
256,192,464642,1,0,0:0:0:0:
402,192,464744,1,0,0:0:0:0:
475,192,464744,1,0,0:0:0:0:
182,192,464744,1,0,0:0:0:0:
329,192,464846,1,0,0:0:0:0:
402,192,464948,1,0,0:0:0:0:
475,192,464948,1,0,0:0:0:0:
256,192,464948,1,0,0:0:0:0:
36,192,464948,1,0,0:0:0:0:
109,192,464948,1,0,0:0:0:0:
182,192,465050,1,0,0:0:0:0:
109,192,465152,1,0,0:0:0:0:
329,192,465152,1,0,0:0:0:0:
402,192,465254,1,0,0:0:0:0:
182,192,465356,1,0,0:0:0:0:
36,192,465356,1,0,0:0:0:0:
109,192,465356,1,0,0:0:0:0:
475,192,465356,1,0,0:0:0:0:
256,192,465356,1,0,0:0:0:0:
329,192,465458,1,0,0:0:0:0:
182,192,465560,1,0,0:0:0:0:
109,192,465560,1,0,0:0:0:0:
256,192,465662,1,0,0:0:0:0:
109,192,465764,1,0,0:0:0:0:
36,192,465764,1,0,0:0:0:0:
475,192,465764,1,0,0:0:0:0:
329,192,465764,1,0,0:0:0:0:
402,192,465764,1,0,0:0:0:0:
182,192,465866,1,0,0:0:0:0:
36,192,465968,1,0,0:0:0:0:
402,192,465968,1,0,0:0:0:0:
256,192,465968,1,0,0:0:0:0:
109,192,466070,1,0,0:0:0:0:
402,192,466172,1,0,0:0:0:0:
475,192,466172,1,0,0:0:0:0:
329,192,466172,1,0,0:0:0:0:
36,192,466172,1,0,0:0:0:0:
182,192,466172,1,0,0:0:0:0:
256,192,466274,1,0,0:0:0:0:
36,192,466376,1,0,0:0:0:0:
109,192,466376,1,0,0:0:0:0:
182,192,466479,1,0,0:0:0:0:
329,192,466581,1,0,0:0:0:0:
36,192,466581,1,0,0:0:0:0:
256,192,466581,1,0,0:0:0:0:
402,192,466581,1,0,0:0:0:0:
475,192,466581,1,0,0:0:0:0:
182,192,466683,1,0,0:0:0:0:
36,192,466785,1,0,0:0:0:0:
402,192,466785,1,0,0:0:0:0:
109,192,466785,1,0,0:0:0:0:
329,192,466887,1,0,0:0:0:0:
475,192,466989,1,0,0:0:0:0:
402,192,466989,1,0,0:0:0:0:
36,192,466989,1,0,0:0:0:0:
256,192,466989,1,0,0:0:0:0:
182,192,466989,1,0,0:0:0:0:
329,192,467091,1,0,0:0:0:0:
256,192,467193,1,0,0:0:0:0:
109,192,467193,1,0,0:0:0:0:
402,192,467295,1,0,0:0:0:0:
475,192,467397,1,0,0:0:0:0:
256,192,467397,1,0,0:0:0:0:
36,192,467397,1,0,0:0:0:0:
329,192,467397,1,0,0:0:0:0:
182,192,467397,1,0,0:0:0:0:
109,192,467499,1,0,0:0:0:0:
402,192,467601,1,0,0:0:0:0:
256,192,467601,1,0,0:0:0:0:
182,192,467703,1,0,0:0:0:0:
329,192,467805,1,0,0:0:0:0:
475,192,467805,1,0,0:0:0:0:
36,192,467805,1,0,0:0:0:0:
109,192,467805,1,0,0:0:0:0:
256,192,467907,1,0,0:0:0:0:
402,192,467907,1,0,0:0:0:0:
182,192,468009,1,0,0:0:0:0:
329,192,468009,1,0,0:0:0:0:
256,192,468111,1,0,0:0:0:0:
109,192,468111,1,0,0:0:0:0:
475,192,468213,1,0,0:0:0:0:
182,192,468213,1,0,0:0:0:0:
36,192,468213,1,0,0:0:0:0:
402,192,468213,1,0,0:0:0:0:
256,192,468315,1,0,0:0:0:0:
329,192,468417,1,0,0:0:0:0:
109,192,468417,1,0,0:0:0:0:
182,192,468519,1,0,0:0:0:0:
402,192,468519,1,0,0:0:0:0:
36,192,468621,1,0,0:0:0:0:
475,192,468621,1,0,0:0:0:0:
109,192,468621,1,0,0:0:0:0:
329,192,468621,1,0,0:0:0:0:
256,192,468723,1,0,0:0:0:0:
182,192,468723,1,0,0:0:0:0:
402,192,468825,1,0,0:0:0:0:
329,192,468825,1,0,0:0:0:0:
109,192,468928,1,0,0:0:0:0:
182,192,468928,1,0,0:0:0:0:
475,192,469030,1,0,0:0:0:0:
36,192,469030,1,0,0:0:0:0:
256,192,469030,1,0,0:0:0:0:
402,192,469030,1,0,0:0:0:0:
182,192,469132,1,0,0:0:0:0:
109,192,469132,1,0,0:0:0:0:
402,192,469234,1,0,0:0:0:0:
329,192,469234,1,0,0:0:0:0:
182,192,469336,1,0,0:0:0:0:
256,192,469336,1,0,0:0:0:0:
475,192,469438,1,0,0:0:0:0:
36,192,469438,1,0,0:0:0:0:
182,192,469846,1,0,0:0:0:0:
256,192,469846,1,0,0:0:0:0:
475,192,469846,1,0,0:0:0:0:
36,192,469846,1,0,0:0:0:0:
402,192,469846,1,0,0:0:0:0:
329,192,469948,1,0,0:0:0:0:
109,192,469948,1,0,0:0:0:0:
402,192,470050,1,0,0:0:0:0:
182,192,470050,1,0,0:0:0:0:
329,192,470152,1,0,0:0:0:0:
109,192,470152,1,0,0:0:0:0:
256,192,470254,1,0,0:0:0:0:
475,192,470254,1,0,0:0:0:0:
402,192,470254,1,0,0:0:0:0:
36,192,470254,1,0,0:0:0:0:
329,192,470356,1,0,0:0:0:0:
182,192,470356,1,0,0:0:0:0:
109,192,470458,1,0,0:0:0:0:
256,192,470458,1,0,0:0:0:0:
329,192,470560,1,0,0:0:0:0:
182,192,470560,1,0,0:0:0:0:
36,192,470662,1,0,0:0:0:0:
109,192,470662,1,0,0:0:0:0:
475,192,470662,1,0,0:0:0:0:
256,192,470662,1,0,0:0:0:0:
402,192,470764,1,0,0:0:0:0:
329,192,470764,1,0,0:0:0:0:
256,192,470866,1,0,0:0:0:0:
109,192,470866,1,0,0:0:0:0:
329,192,470968,1,0,0:0:0:0:
182,192,470968,1,0,0:0:0:0:
402,192,471070,1,0,0:0:0:0:
475,192,471070,1,0,0:0:0:0:
109,192,471070,1,0,0:0:0:0:
36,192,471070,1,0,0:0:0:0:
329,192,471172,1,0,0:0:0:0:
256,192,471172,1,0,0:0:0:0:
36,192,471274,1,0,0:0:0:0:
182,192,471274,1,0,0:0:0:0:
109,192,471376,1,0,0:0:0:0:
256,192,471376,1,0,0:0:0:0:
475,192,471479,1,0,0:0:0:0:
402,192,471479,1,0,0:0:0:0:
182,192,471479,1,0,0:0:0:0:
329,192,471479,1,0,0:0:0:0:
36,192,471581,1,0,0:0:0:0:
256,192,471581,1,0,0:0:0:0:
402,192,471683,1,0,0:0:0:0:
182,192,471683,1,0,0:0:0:0:
109,192,471785,1,0,0:0:0:0:
329,192,471785,1,0,0:0:0:0:
475,192,471887,1,0,0:0:0:0:
402,192,471887,1,0,0:0:0:0:
36,192,471887,1,0,0:0:0:0:
256,192,471887,1,0,0:0:0:0:
109,192,471989,1,0,0:0:0:0:
329,192,471989,1,0,0:0:0:0:
402,192,472091,1,0,0:0:0:0:
182,192,472091,1,0,0:0:0:0:
475,192,472193,1,0,0:0:0:0:
256,192,472193,1,0,0:0:0:0:
36,192,472295,1,0,0:0:0:0:
402,192,472295,1,0,0:0:0:0:
329,192,472295,1,0,0:0:0:0:
109,192,472295,1,0,0:0:0:0:
256,192,472397,1,0,0:0:0:0:
182,192,472397,1,0,0:0:0:0:
36,192,472499,1,0,0:0:0:0:
329,192,472499,1,0,0:0:0:0:
109,192,472499,1,0,0:0:0:0:
402,192,472499,1,0,0:0:0:0:
256,192,472601,1,0,0:0:0:0:
182,192,472601,1,0,0:0:0:0:
109,192,472703,1,0,0:0:0:0:
402,192,472703,1,0,0:0:0:0:
475,192,472703,1,0,0:0:0:0:
36,192,472703,1,0,0:0:0:0:
329,192,472805,1,0,0:0:0:0:
256,192,472805,1,0,0:0:0:0:
109,192,472907,1,0,0:0:0:0:
182,192,472907,1,0,0:0:0:0:
329,192,473009,1,0,0:0:0:0:
256,192,473009,1,0,0:0:0:0:
475,192,473111,1,0,0:0:0:0:
109,192,473111,1,0,0:0:0:0:
36,192,473111,1,0,0:0:0:0:
402,192,473111,1,0,0:0:0:0:
329,192,473213,1,0,0:0:0:0:
182,192,473213,1,0,0:0:0:0:
475,192,473315,1,0,0:0:0:0:
256,192,473315,1,0,0:0:0:0:
109,192,473417,1,0,0:0:0:0:
329,192,473417,1,0,0:0:0:0:
402,192,473519,1,0,0:0:0:0:
475,192,473519,1,0,0:0:0:0:
36,192,473519,1,0,0:0:0:0:
182,192,473519,1,0,0:0:0:0:
109,192,473621,1,0,0:0:0:0:
329,192,473621,1,0,0:0:0:0:
256,192,473723,1,0,0:0:0:0:
182,192,473723,1,0,0:0:0:0:
36,192,473825,1,0,0:0:0:0:
402,192,473825,1,0,0:0:0:0:
475,192,473928,1,0,0:0:0:0:
109,192,473928,1,0,0:0:0:0:
329,192,473928,1,0,0:0:0:0:
182,192,473928,1,0,0:0:0:0:
36,192,474030,1,0,0:0:0:0:
256,192,474030,1,0,0:0:0:0:
109,192,474132,1,0,0:0:0:0:
329,192,474132,1,0,0:0:0:0:
256,192,474234,1,0,0:0:0:0:
182,192,474234,1,0,0:0:0:0:
402,192,474336,1,0,0:0:0:0:
475,192,474336,1,0,0:0:0:0:
36,192,474336,1,0,0:0:0:0:
329,192,474336,1,0,0:0:0:0:
256,192,474438,1,0,0:0:0:0:
109,192,474438,1,0,0:0:0:0:
182,192,474540,1,0,0:0:0:0:
329,192,474540,1,0,0:0:0:0:
402,192,474642,1,0,0:0:0:0:
256,192,474642,1,0,0:0:0:0:
475,192,474744,1,0,0:0:0:0:
36,192,474744,1,0,0:0:0:0:
109,192,474744,1,0,0:0:0:0:
329,192,474744,1,0,0:0:0:0:
402,192,474846,1,0,0:0:0:0:
256,192,474846,1,0,0:0:0:0:
36,192,474948,1,0,0:0:0:0:
109,192,474948,1,0,0:0:0:0:
329,192,475050,1,0,0:0:0:0:
182,192,475050,1,0,0:0:0:0:
36,192,475152,1,0,0:0:0:0:
256,192,475152,1,0,0:0:0:0:
402,192,475152,1,0,0:0:0:0:
475,192,475152,1,0,0:0:0:0:
329,192,475254,1,0,0:0:0:0:
109,192,475254,1,0,0:0:0:0:
475,192,475356,1,0,0:0:0:0:
182,192,475356,1,0,0:0:0:0:
402,192,475458,1,0,0:0:0:0:
329,192,475458,1,0,0:0:0:0:
109,192,475458,1,0,0:0:0:0:
182,192,475560,1,0,0:0:0:0:
475,192,475560,1,0,0:0:0:0:
256,192,475560,1,0,0:0:0:0:
36,192,475560,1,0,0:0:0:0:
329,192,475662,1,0,0:0:0:0:
402,192,475662,1,0,0:0:0:0:
256,192,475764,1,0,0:0:0:0:
475,192,475764,1,0,0:0:0:0:
182,192,475764,1,0,0:0:0:0:
36,192,475764,1,0,0:0:0:0:
402,192,475866,1,0,0:0:0:0:
329,192,475866,1,0,0:0:0:0:
256,192,475968,1,0,0:0:0:0:
475,192,475968,1,0,0:0:0:0:
36,192,475968,1,0,0:0:0:0:
182,192,475968,1,0,0:0:0:0:
109,192,476070,1,0,0:0:0:0:
329,192,476070,1,0,0:0:0:0:
182,192,476172,1,0,0:0:0:0:
402,192,476172,1,0,0:0:0:0:
109,192,476274,1,0,0:0:0:0:
329,192,476274,1,0,0:0:0:0:
402,192,476376,1,0,0:0:0:0:
36,192,476376,1,0,0:0:0:0:
256,192,476376,1,0,0:0:0:0:
475,192,476376,1,0,0:0:0:0:
109,192,476479,1,0,0:0:0:0:
329,192,476479,1,0,0:0:0:0:
402,192,476581,1,0,0:0:0:0:
182,192,476581,1,0,0:0:0:0:
36,192,476683,1,0,0:0:0:0:
256,192,476683,1,0,0:0:0:0:
329,192,476785,1,0,0:0:0:0:
182,192,476785,1,0,0:0:0:0:
109,192,476785,1,0,0:0:0:0:
475,192,476785,1,0,0:0:0:0:
402,192,476887,1,0,0:0:0:0:
256,192,476887,1,0,0:0:0:0:
36,192,476989,1,0,0:0:0:0:
109,192,476989,1,0,0:0:0:0:
182,192,477091,1,0,0:0:0:0:
329,192,477091,1,0,0:0:0:0:
109,192,477193,1,0,0:0:0:0:
36,192,477193,1,0,0:0:0:0:
402,192,477193,1,0,0:0:0:0:
475,192,477193,1,0,0:0:0:0:
182,192,477295,1,0,0:0:0:0:
256,192,477295,1,0,0:0:0:0:
402,192,477397,1,0,0:0:0:0:
329,192,477397,1,0,0:0:0:0:
256,192,477499,1,0,0:0:0:0:
109,192,477499,1,0,0:0:0:0:
182,192,477601,1,0,0:0:0:0:
329,192,477601,1,0,0:0:0:0:
475,192,477601,1,0,0:0:0:0:
402,192,477601,1,0,0:0:0:0:
256,192,477703,1,0,0:0:0:0:
36,192,477703,1,0,0:0:0:0:
182,192,477805,1,0,0:0:0:0:
402,192,477805,1,0,0:0:0:0:
329,192,477907,1,0,0:0:0:0:
109,192,477907,1,0,0:0:0:0:
256,192,478009,1,0,0:0:0:0:
182,192,478009,1,0,0:0:0:0:
475,192,478009,1,0,0:0:0:0:
36,192,478009,1,0,0:0:0:0:
402,192,478111,1,0,0:0:0:0:
109,192,478111,1,0,0:0:0:0:
182,192,478213,1,0,0:0:0:0:
329,192,478213,1,0,0:0:0:0:
402,192,478315,1,0,0:0:0:0:
109,192,478315,1,0,0:0:0:0:
475,192,478417,1,0,0:0:0:0:
256,192,478417,1,0,0:0:0:0:
36,192,478417,1,0,0:0:0:0:
182,192,478417,1,0,0:0:0:0:
109,192,478519,1,0,0:0:0:0:
329,192,478519,1,0,0:0:0:0:
182,192,478621,1,0,0:0:0:0:
402,192,478621,1,0,0:0:0:0:
36,192,478723,1,0,0:0:0:0:
256,192,478723,1,0,0:0:0:0:
475,192,478825,1,0,0:0:0:0:
182,192,478825,1,0,0:0:0:0:
109,192,478825,1,0,0:0:0:0:
402,192,478825,1,0,0:0:0:0:
256,192,478928,1,0,0:0:0:0:
329,192,478928,1,0,0:0:0:0:
402,192,479030,1,0,0:0:0:0:
475,192,479030,1,0,0:0:0:0:
109,192,479030,1,0,0:0:0:0:
182,192,479030,1,0,0:0:0:0:
256,192,479132,1,0,0:0:0:0:
329,192,479132,1,0,0:0:0:0:
36,192,479234,1,0,0:0:0:0:
109,192,479234,1,0,0:0:0:0:
402,192,479234,1,0,0:0:0:0:
475,192,479234,1,0,0:0:0:0:
329,192,479336,1,0,0:0:0:0:
182,192,479336,1,0,0:0:0:0:
475,192,479438,1,0,0:0:0:0:
256,192,479438,1,0,0:0:0:0:
182,192,479540,1,0,0:0:0:0:
36,192,479540,1,0,0:0:0:0:
402,192,479642,1,0,0:0:0:0:
475,192,479642,1,0,0:0:0:0:
109,192,479642,1,0,0:0:0:0:
329,192,479642,1,0,0:0:0:0:
36,192,479744,1,0,0:0:0:0:
256,192,479744,1,0,0:0:0:0:
329,192,479846,1,0,0:0:0:0:
402,192,479846,1,0,0:0:0:0:
109,192,479948,1,0,0:0:0:0:
182,192,479948,1,0,0:0:0:0:
475,192,480050,1,0,0:0:0:0:
36,192,480050,1,0,0:0:0:0:
256,192,480050,1,0,0:0:0:0:
402,192,480050,1,0,0:0:0:0:
329,192,480152,1,0,0:0:0:0:
109,192,480152,1,0,0:0:0:0:
402,192,480254,1,0,0:0:0:0:
182,192,480254,1,0,0:0:0:0:
36,192,480356,1,0,0:0:0:0:
256,192,480356,1,0,0:0:0:0:
475,192,480458,1,0,0:0:0:0:
182,192,480458,1,0,0:0:0:0:
109,192,480458,1,0,0:0:0:0:
329,192,480458,1,0,0:0:0:0:
402,192,480560,1,0,0:0:0:0:
256,192,480560,1,0,0:0:0:0:
36,192,480662,1,0,0:0:0:0:
109,192,480662,1,0,0:0:0:0:
329,192,480764,1,0,0:0:0:0:
182,192,480764,1,0,0:0:0:0:
475,192,480866,1,0,0:0:0:0:
36,192,480866,1,0,0:0:0:0:
256,192,480866,1,0,0:0:0:0:
402,192,480866,1,0,0:0:0:0:
329,192,480968,1,0,0:0:0:0:
182,192,480968,1,0,0:0:0:0:
109,192,480968,1,0,0:0:0:0:
402,192,481070,1,0,0:0:0:0:
256,192,481070,1,0,0:0:0:0:
36,192,481172,1,0,0:0:0:0:
329,192,481172,1,0,0:0:0:0:
182,192,481172,1,0,0:0:0:0:
475,192,481274,1,0,0:0:0:0:
402,192,481274,1,0,0:0:0:0:
109,192,481274,1,0,0:0:0:0:
256,192,481274,1,0,0:0:0:0:
329,192,481376,1,0,0:0:0:0:
182,192,481376,1,0,0:0:0:0:
402,192,481479,1,0,0:0:0:0:
475,192,481479,1,0,0:0:0:0:
256,192,481479,1,0,0:0:0:0:
36,192,481581,1,0,0:0:0:0:
109,192,481581,1,0,0:0:0:0:
475,192,481683,1,0,0:0:0:0:
182,192,481683,1,0,0:0:0:0:
256,192,481683,1,0,0:0:0:0:
402,192,481683,1,0,0:0:0:0:
329,192,481785,1,0,0:0:0:0:
36,192,481785,1,0,0:0:0:0:
109,192,481785,1,0,0:0:0:0:
475,192,481887,1,0,0:0:0:0:
402,192,481887,1,0,0:0:0:0:
182,192,481887,1,0,0:0:0:0:
256,192,481989,1,0,0:0:0:0:
329,192,482091,1,0,0:0:0:0:
402,192,482091,1,0,0:0:0:0:
36,192,482091,1,0,0:0:0:0:
109,192,482091,1,0,0:0:0:0:
182,192,482193,1,0,0:0:0:0:
329,192,482295,1,0,0:0:0:0:
402,192,482295,1,0,0:0:0:0:
109,192,482295,1,0,0:0:0:0:
36,192,482295,1,0,0:0:0:0:
256,192,482397,1,0,0:0:0:0:
402,192,482499,1,0,0:0:0:0:
475,192,482499,1,0,0:0:0:0:
36,192,482499,1,0,0:0:0:0:
182,192,482499,1,0,0:0:0:0:
109,192,482499,1,0,0:0:0:0:
329,192,482601,1,0,0:0:0:0:
256,192,482601,1,0,0:0:0:0:
402,192,482703,1,0,0:0:0:0:
109,192,482703,1,0,0:0:0:0:
36,192,482703,1,0,0:0:0:0:
256,192,482805,1,0,0:0:0:0:
475,192,482805,1,0,0:0:0:0:
182,192,482805,1,0,0:0:0:0:
36,192,482907,1,0,0:0:0:0:
329,192,482907,1,0,0:0:0:0:
402,192,483009,1,0,0:0:0:0:
182,192,483009,1,0,0:0:0:0:
256,192,483111,1,0,0:0:0:0:
36,192,483111,1,0,0:0:0:0:
109,192,483111,1,0,0:0:0:0:
475,192,483213,1,0,0:0:0:0:
329,192,483213,1,0,0:0:0:0:
36,192,483315,1,0,0:0:0:0:
402,192,483315,1,0,0:0:0:0:
182,192,483315,1,0,0:0:0:0:
329,192,483417,1,0,0:0:0:0:
256,192,483417,1,0,0:0:0:0:
475,192,483519,1,0,0:0:0:0:
36,192,483519,1,0,0:0:0:0:
109,192,483519,1,0,0:0:0:0:
182,192,483621,1,0,0:0:0:0:
329,192,483621,1,0,0:0:0:0:
402,192,483621,1,0,0:0:0:0:
475,192,483723,1,0,0:0:0:0:
36,192,483723,1,0,0:0:0:0:
109,192,483723,1,0,0:0:0:0:
402,192,483825,1,0,0:0:0:0:
256,192,483825,1,0,0:0:0:0:
329,192,483928,1,0,0:0:0:0:
182,192,483928,1,0,0:0:0:0:
475,192,484030,1,0,0:0:0:0:
256,192,484030,1,0,0:0:0:0:
329,192,484132,1,0,0:0:0:0:
36,192,484132,1,0,0:0:0:0:
109,192,484132,1,0,0:0:0:0:
182,192,484234,1,0,0:0:0:0:
402,192,484234,1,0,0:0:0:0:
36,192,484336,1,0,0:0:0:0:
475,192,484336,1,0,0:0:0:0:
256,192,484336,1,0,0:0:0:0:
182,192,484438,1,0,0:0:0:0:
329,192,484438,1,0,0:0:0:0:
109,192,484438,1,0,0:0:0:0:
475,192,484540,1,0,0:0:0:0:
256,192,484540,1,0,0:0:0:0:
36,192,484540,1,0,0:0:0:0:
329,192,484642,1,0,0:0:0:0:
402,192,484642,1,0,0:0:0:0:
36,192,484744,1,0,0:0:0:0:
182,192,484744,1,0,0:0:0:0:
475,192,484846,1,0,0:0:0:0:
402,192,484846,1,0,0:0:0:0:
256,192,484846,1,0,0:0:0:0:
329,192,484948,1,0,0:0:0:0:
182,192,484948,1,0,0:0:0:0:
109,192,484948,1,0,0:0:0:0:
475,192,485050,1,0,0:0:0:0:
402,192,485050,1,0,0:0:0:0:
256,192,485050,1,0,0:0:0:0:
109,192,485152,1,0,0:0:0:0:
182,192,485152,1,0,0:0:0:0:
36,192,485152,1,0,0:0:0:0:
402,192,485254,1,0,0:0:0:0:
256,192,485254,1,0,0:0:0:0:
36,192,485356,1,0,0:0:0:0:
182,192,485356,1,0,0:0:0:0:
329,192,485356,1,0,0:0:0:0:
475,192,485356,1,0,0:0:0:0:
109,192,485458,1,0,0:0:0:0:
475,192,485560,1,0,0:0:0:0:
329,192,485560,1,0,0:0:0:0:
182,192,485560,1,0,0:0:0:0:
402,192,485560,1,0,0:0:0:0:
109,192,485662,1,0,0:0:0:0:
182,192,485764,1,0,0:0:0:0:
256,192,485764,1,0,0:0:0:0:
475,192,485764,1,0,0:0:0:0:
36,192,485764,1,0,0:0:0:0:
402,192,485866,1,0,0:0:0:0:
329,192,485866,1,0,0:0:0:0:
36,192,485968,1,0,0:0:0:0:
109,192,485968,1,0,0:0:0:0:
256,192,485968,1,0,0:0:0:0:
475,192,486070,1,0,0:0:0:0:
402,192,486070,1,0,0:0:0:0:
182,192,486070,1,0,0:0:0:0:
329,192,486172,1,0,0:0:0:0:
36,192,486172,1,0,0:0:0:0:
109,192,486172,1,0,0:0:0:0:
475,192,486274,1,0,0:0:0:0:
256,192,486274,1,0,0:0:0:0:
109,192,486376,1,0,0:0:0:0:
182,192,486376,1,0,0:0:0:0:
402,192,486376,1,0,0:0:0:0:
329,192,486479,1,0,0:0:0:0:
256,192,486479,1,0,0:0:0:0:
402,192,486581,1,0,0:0:0:0:
109,192,486581,1,0,0:0:0:0:
182,192,486581,1,0,0:0:0:0:
329,192,486683,1,0,0:0:0:0:
475,192,486683,1,0,0:0:0:0:
256,192,486785,1,0,0:0:0:0:
109,192,486785,1,0,0:0:0:0:
36,192,486785,1,0,0:0:0:0:
182,192,486887,1,0,0:0:0:0:
475,192,486887,1,0,0:0:0:0:
329,192,486887,1,0,0:0:0:0:
36,192,486989,1,0,0:0:0:0:
109,192,486989,1,0,0:0:0:0:
256,192,486989,1,0,0:0:0:0:
475,192,487091,1,0,0:0:0:0:
402,192,487091,1,0,0:0:0:0:
182,192,487193,1,0,0:0:0:0:
329,192,487193,1,0,0:0:0:0:
256,192,487295,1,0,0:0:0:0:
109,192,487295,1,0,0:0:0:0:
475,192,487397,1,0,0:0:0:0:
36,192,487397,1,0,0:0:0:0:
182,192,487397,1,0,0:0:0:0:
329,192,487499,1,0,0:0:0:0:
402,192,487499,1,0,0:0:0:0:
256,192,487499,1,0,0:0:0:0:
475,192,487601,1,0,0:0:0:0:
36,192,487601,1,0,0:0:0:0:
182,192,487601,1,0,0:0:0:0:
109,192,487703,1,0,0:0:0:0:
256,192,487703,1,0,0:0:0:0:
475,192,487805,1,0,0:0:0:0:
329,192,487805,1,0,0:0:0:0:
182,192,487805,1,0,0:0:0:0:
256,192,487907,1,0,0:0:0:0:
36,192,487907,1,0,0:0:0:0:
402,192,488009,1,0,0:0:0:0:
109,192,488009,1,0,0:0:0:0:
182,192,488111,1,0,0:0:0:0:
329,192,488111,1,0,0:0:0:0:
402,192,488213,1,0,0:0:0:0:
475,192,488213,1,0,0:0:0:0:
256,192,488213,1,0,0:0:0:0:
36,192,488315,1,0,0:0:0:0:
109,192,488315,1,0,0:0:0:0:
182,192,488315,1,0,0:0:0:0:
475,192,488417,1,0,0:0:0:0:
402,192,488417,1,0,0:0:0:0:
256,192,488417,1,0,0:0:0:0:
182,192,488519,1,0,0:0:0:0:
329,192,488519,1,0,0:0:0:0:
256,192,488621,1,0,0:0:0:0:
475,192,488621,1,0,0:0:0:0:
109,192,488621,1,0,0:0:0:0:
36,192,488621,1,0,0:0:0:0:
182,192,488723,1,0,0:0:0:0:
402,192,488723,1,0,0:0:0:0:
475,192,488825,1,0,0:0:0:0:
256,192,488825,1,0,0:0:0:0:
109,192,488825,1,0,0:0:0:0:
36,192,488825,1,0,0:0:0:0:
329,192,488928,1,0,0:0:0:0:
182,192,488928,1,0,0:0:0:0:
256,192,489030,1,0,0:0:0:0:
402,192,489030,1,0,0:0:0:0:
475,192,489030,1,0,0:0:0:0:
36,192,489030,1,0,0:0:0:0:
329,192,489132,1,0,0:0:0:0:
182,192,489132,1,0,0:0:0:0:
256,192,489234,1,0,0:0:0:0:
109,192,489234,1,0,0:0:0:0:
182,192,489336,1,0,0:0:0:0:
402,192,489336,1,0,0:0:0:0:
36,192,489438,1,0,0:0:0:0:
475,192,489438,1,0,0:0:0:0:
329,192,489438,1,0,0:0:0:0:
182,192,489540,1,0,0:0:0:0:
256,192,489540,1,0,0:0:0:0:
109,192,489540,1,0,0:0:0:0:
36,192,489642,1,0,0:0:0:0:
475,192,489642,1,0,0:0:0:0:
329,192,489642,1,0,0:0:0:0:
182,192,489744,1,0,0:0:0:0:
256,192,489744,1,0,0:0:0:0:
475,192,489846,1,0,0:0:0:0:
402,192,489846,1,0,0:0:0:0:
109,192,489846,1,0,0:0:0:0:
182,192,489948,1,0,0:0:0:0:
329,192,489948,1,0,0:0:0:0:
402,192,490050,1,0,0:0:0:0:
475,192,490050,1,0,0:0:0:0:
109,192,490050,1,0,0:0:0:0:
256,192,490152,1,0,0:0:0:0:
36,192,490152,1,0,0:0:0:0:
182,192,490152,1,0,0:0:0:0:
475,192,490254,1,0,0:0:0:0:
109,192,490254,1,0,0:0:0:0:
329,192,490254,1,0,0:0:0:0:
402,192,490356,1,0,0:0:0:0:
182,192,490356,1,0,0:0:0:0:
36,192,490458,1,0,0:0:0:0:
329,192,490458,1,0,0:0:0:0:
256,192,490560,1,0,0:0:0:0:
109,192,490560,1,0,0:0:0:0:
182,192,490662,1,0,0:0:0:0:
36,192,490662,1,0,0:0:0:0:
475,192,490662,1,0,0:0:0:0:
329,192,490662,1,0,0:0:0:0:
402,192,490662,1,0,0:0:0:0:
109,192,490764,1,0,0:0:0:0:
256,192,490764,1,0,0:0:0:0:
475,192,490866,1,0,0:0:0:0:
402,192,490866,1,0,0:0:0:0:
329,192,490866,1,0,0:0:0:0:
256,192,490968,1,0,0:0:0:0:
109,192,490968,1,0,0:0:0:0:
329,192,491070,1,0,0:0:0:0:
182,192,491070,1,0,0:0:0:0:
36,192,491172,1,0,0:0:0:0:
256,192,491172,1,0,0:0:0:0:
182,192,491274,1,0,0:0:0:0:
475,192,491274,1,0,0:0:0:0:
402,192,491274,1,0,0:0:0:0:
329,192,491376,1,0,0:0:0:0:
109,192,491376,1,0,0:0:0:0:
475,192,491479,1,0,0:0:0:0:
36,192,491479,1,0,0:0:0:0:
182,192,491479,1,0,0:0:0:0:
402,192,491479,1,0,0:0:0:0:
109,192,491581,1,0,0:0:0:0:
256,192,491581,1,0,0:0:0:0:
402,192,491683,1,0,0:0:0:0:
182,192,491683,1,0,0:0:0:0:
329,192,491785,1,0,0:0:0:0:
109,192,491785,1,0,0:0:0:0:
182,192,491887,1,0,0:0:0:0:
402,192,491887,1,0,0:0:0:0:
36,192,491887,1,0,0:0:0:0:
475,192,491887,1,0,0:0:0:0:
256,192,491989,1,0,0:0:0:0:
329,192,491989,1,0,0:0:0:0:
182,192,492091,1,0,0:0:0:0:
36,192,492091,1,0,0:0:0:0:
402,192,492091,1,0,0:0:0:0:
475,192,492091,1,0,0:0:0:0:
109,192,492193,1,0,0:0:0:0:
256,192,492193,1,0,0:0:0:0:
402,192,492295,1,0,0:0:0:0:
475,192,492295,1,0,0:0:0:0:
182,192,492295,1,0,0:0:0:0:
329,192,492295,1,0,0:0:0:0:
256,192,492397,1,0,0:0:0:0:
109,192,492397,1,0,0:0:0:0:
402,192,492499,1,0,0:0:0:0:
36,192,492499,1,0,0:0:0:0:
109,192,492601,1,0,0:0:0:0:
329,192,492601,1,0,0:0:0:0:
402,192,492703,1,0,0:0:0:0:
475,192,492703,1,0,0:0:0:0:
182,192,492703,1,0,0:0:0:0:
256,192,492703,1,0,0:0:0:0:
329,192,492805,1,0,0:0:0:0:
36,192,492805,1,0,0:0:0:0:
402,192,492907,1,0,0:0:0:0:
182,192,492907,1,0,0:0:0:0:
329,192,493009,1,0,0:0:0:0:
109,192,493009,1,0,0:0:0:0:
402,192,493111,1,0,0:0:0:0:
475,192,493111,1,0,0:0:0:0:
256,192,493111,1,0,0:0:0:0:
36,192,493111,1,0,0:0:0:0:
329,192,493213,1,0,0:0:0:0:
182,192,493213,1,0,0:0:0:0:
256,192,493315,1,0,0:0:0:0:
109,192,493315,1,0,0:0:0:0:
329,192,493417,1,0,0:0:0:0:
182,192,493417,1,0,0:0:0:0:
36,192,493519,1,0,0:0:0:0:
109,192,493519,1,0,0:0:0:0:
475,192,493519,1,0,0:0:0:0:
256,192,493519,1,0,0:0:0:0:
182,192,493621,1,0,0:0:0:0:
402,192,493621,1,0,0:0:0:0:
256,192,493723,1,0,0:0:0:0:
36,192,493723,1,0,0:0:0:0:
329,192,493825,1,0,0:0:0:0:
109,192,493825,1,0,0:0:0:0:
475,192,493928,1,0,0:0:0:0:
402,192,493928,1,0,0:0:0:0:
256,192,493928,1,0,0:0:0:0:
36,192,494030,1,0,0:0:0:0:
109,192,494030,1,0,0:0:0:0:
182,192,494030,1,0,0:0:0:0:
475,192,494132,1,0,0:0:0:0:
402,192,494132,1,0,0:0:0:0:
329,192,494132,1,0,0:0:0:0:
182,192,494234,1,0,0:0:0:0:
109,192,494234,1,0,0:0:0:0:
402,192,494336,1,0,0:0:0:0:
475,192,494336,1,0,0:0:0:0:
256,192,494336,1,0,0:0:0:0:
329,192,494336,1,0,0:0:0:0:
36,192,494438,5,0,0:0:0:0:
109,192,494438,1,0,0:0:0:0:
182,192,494438,1,0,0:0:0:0:
256,192,494540,1,0,0:0:0:0:
475,192,494540,1,0,0:0:0:0:
329,192,494540,1,0,0:0:0:0:
182,192,494642,1,0,0:0:0:0:
109,192,494642,1,0,0:0:0:0:
475,192,494744,1,0,0:0:0:0:
36,192,494744,1,0,0:0:0:0:
256,192,494744,1,0,0:0:0:0:
402,192,494744,1,0,0:0:0:0:
329,192,494846,1,0,0:0:0:0:
182,192,494846,1,0,0:0:0:0:
109,192,494846,1,0,0:0:0:0:
475,192,494948,1,0,0:0:0:0:
402,192,494948,1,0,0:0:0:0:
256,192,494948,1,0,0:0:0:0:
182,192,495050,1,0,0:0:0:0:
36,192,495050,1,0,0:0:0:0:
402,192,495152,1,0,0:0:0:0:
475,192,495152,1,0,0:0:0:0:
109,192,495152,1,0,0:0:0:0:
256,192,495152,1,0,0:0:0:0:
329,192,495254,1,0,0:0:0:0:
182,192,495254,1,0,0:0:0:0:
256,192,495356,1,0,0:0:0:0:
109,192,495356,1,0,0:0:0:0:
36,192,495356,1,0,0:0:0:0:
329,192,495458,1,0,0:0:0:0:
182,192,495458,1,0,0:0:0:0:
256,192,495560,5,0,0:0:0:0:
475,192,495560,1,0,0:0:0:0:
402,192,495560,1,0,0:0:0:0:
36,192,495560,1,0,0:0:0:0:
109,192,495560,1,0,0:0:0:0:
256,192,495764,5,0,0:0:0:0:
256,192,495968,1,0,0:0:0:0:
256,192,496172,1,0,0:0:0:0:
256,192,496376,1,0,0:0:0:0:
256,192,496581,1,0,0:0:0:0:
256,192,496785,1,0,0:0:0:0:
256,192,496989,1,0,0:0:0:0:
475,192,497193,1,0,0:0:0:0:
402,192,497193,1,0,0:0:0:0:
36,192,497193,1,0,0:0:0:0:
182,192,497193,1,0,0:0:0:0:
36,192,497499,1,0,0:0:0:0:
402,192,497499,1,0,0:0:0:0:
182,192,497499,1,0,0:0:0:0:
475,192,497499,1,0,0:0:0:0:
475,192,497805,1,0,0:0:0:0:
402,192,497805,1,0,0:0:0:0:
182,192,497805,1,0,0:0:0:0:
36,192,497805,1,0,0:0:0:0:
475,192,498009,1,0,0:0:0:0:
402,192,498009,1,0,0:0:0:0:
182,192,498009,1,0,0:0:0:0:
36,192,498009,1,0,0:0:0:0:
329,192,498060,1,0,0:0:0:0:
256,192,498111,1,0,0:0:0:0:
109,192,498213,1,0,0:0:0:0:
256,192,498315,1,0,0:0:0:0:
402,192,498417,1,0,0:0:0:0:
109,192,498417,1,0,0:0:0:0:
