osu file format v14

[General]
AudioFilename: Dan_4.mp3
AudioLeadIn: 0
PreviewTime: 32
Countdown: 0
SampleSet: Soft
StackLeniency: 0.7
Mode: 3
LetterboxInBreaks: 0
SpecialStyle: 0
WidescreenStoryboard: 0

[Editor]
DistanceSpacing: 0.8
BeatDivisor: 4
GridSize: 8
TimelineZoom: 1.9

[Metadata]
Title:Regular Dan Phase II
TitleUnicode:Regular Dan Phase II
Artist:osu!mania 7K Dan Course
ArtistUnicode:osu!mania 7K Dan Course
Creator:Jinjin
Version:4th Dan (Marathon)
Source:
Tags:toby fox megalovania aric improta cameron mclellan my son the leopard colorful sounds port eternal drain mr t electro peaceful 8bit
BeatmapID:969187
BeatmapSetID:451788

[Difficulty]
HPDrainRate:8
CircleSize:7
OverallDifficulty:8.5
ApproachRate:5
SliderMultiplier:1.4
SliderTickRate:1

[Events]
//Background and Video events
0,0,"Dan_4.png",0,0
//Break Periods
2,144107,155007
2,280240,294927
2,409884,423933
//Storyboard Layer 0 (Background)
//Storyboard Layer 1 (Fail)
//Storyboard Layer 2 (Pass)
//Storyboard Layer 3 (Foreground)
//Storyboard Sound Samples

[TimingPoints]
32,250,4,2,0,0,1,0
156207,333.333333333333,4,2,0,0,1,0
156207,-75.187969924812,4,2,0,0,0,0
296127,402.684563758389,4,2,0,0,1,0
296127,-62.111801242236,4,2,0,0,0,0
425133,375,4,2,0,0,1,0
425133,-66.6666666666667,4,2,0,0,0,0

[HitObjects]
329,192,32,5,0,0:0:0:0:
329,192,157,1,0,0:0:0:0:
475,192,282,1,0,0:0:0:0:
402,192,532,1,0,0:0:0:0:
329,192,907,1,0,0:0:0:0:
256,192,1157,1,0,0:0:0:0:
182,192,1407,1,0,0:0:0:0:
109,192,1657,1,0,0:0:0:0:
256,192,1782,1,0,0:0:0:0:
402,192,1907,1,0,0:0:0:0:
256,192,2032,1,0,0:0:0:0:
256,192,2157,1,0,0:0:0:0:
475,192,2282,1,0,0:0:0:0:
402,192,2532,1,0,0:0:0:0:
329,192,2907,1,0,0:0:0:0:
256,192,3157,1,0,0:0:0:0:
182,192,3407,1,0,0:0:0:0:
109,192,3657,1,0,0:0:0:0:
256,192,3782,1,0,0:0:0:0:
402,192,3907,1,0,0:0:0:0:
182,192,4032,1,0,0:0:0:0:
182,192,4157,1,0,0:0:0:0:
475,192,4282,1,0,0:0:0:0:
402,192,4532,1,0,0:0:0:0:
329,192,4907,1,0,0:0:0:0:
256,192,5157,1,0,0:0:0:0:
182,192,5407,1,0,0:0:0:0:
109,192,5657,1,0,0:0:0:0:
256,192,5782,1,0,0:0:0:0:
402,192,5907,1,0,0:0:0:0:
109,192,6032,1,0,0:0:0:0:
109,192,6157,1,0,0:0:0:0:
475,192,6282,1,0,0:0:0:0:
402,192,6532,1,0,0:0:0:0:
329,192,6907,1,0,0:0:0:0:
256,192,7157,1,0,0:0:0:0:
182,192,7407,1,0,0:0:0:0:
109,192,7657,1,0,0:0:0:0:
256,192,7782,1,0,0:0:0:0:
402,192,7907,1,0,0:0:0:0:
36,192,8032,1,0,0:0:0:0:
182,192,8032,1,0,0:0:0:0:
182,192,8157,1,0,0:0:0:0:
36,192,8282,1,0,0:0:0:0:
475,192,8282,1,0,0:0:0:0:
402,192,8532,1,0,0:0:0:0:
36,192,8532,1,0,0:0:0:0:
36,192,8657,1,0,0:0:0:0:
329,192,8907,1,0,0:0:0:0:
36,192,8907,1,0,0:0:0:0:
256,192,9157,1,0,0:0:0:0:
36,192,9157,1,0,0:0:0:0:
182,192,9407,1,0,0:0:0:0:
36,192,9407,1,0,0:0:0:0:
36,192,9532,1,0,0:0:0:0:
109,192,9657,1,0,0:0:0:0:
256,192,9657,1,0,0:0:0:0:
36,192,9782,1,0,0:0:0:0:
329,192,9782,1,0,0:0:0:0:
402,192,9907,1,0,0:0:0:0:
109,192,10032,1,0,0:0:0:0:
256,192,10032,1,0,0:0:0:0:
109,192,10157,1,0,0:0:0:0:
256,192,10282,1,0,0:0:0:0:
475,192,10282,1,0,0:0:0:0:
256,192,10532,1,0,0:0:0:0:
402,192,10532,1,0,0:0:0:0:
256,192,10657,1,0,0:0:0:0:
256,192,10907,1,0,0:0:0:0:
329,192,10907,1,0,0:0:0:0:
256,192,11157,1,0,0:0:0:0:
182,192,11157,1,0,0:0:0:0:
256,192,11407,1,0,0:0:0:0:
109,192,11407,1,0,0:0:0:0:
256,192,11532,1,0,0:0:0:0:
256,192,11657,1,0,0:0:0:0:
36,192,11657,1,0,0:0:0:0:
256,192,11782,1,0,0:0:0:0:
109,192,11782,1,0,0:0:0:0:
182,192,11907,1,0,0:0:0:0:
475,192,12032,1,0,0:0:0:0:
36,192,12032,1,0,0:0:0:0:
475,192,12157,1,0,0:0:0:0:
36,192,12157,1,0,0:0:0:0:
329,192,12282,1,0,0:0:0:0:
475,192,12282,1,0,0:0:0:0:
256,192,12532,1,0,0:0:0:0:
475,192,12532,1,0,0:0:0:0:
475,192,12657,1,0,0:0:0:0:
475,192,12907,1,0,0:0:0:0:
182,192,12907,1,0,0:0:0:0:
109,192,13157,1,0,0:0:0:0:
475,192,13157,1,0,0:0:0:0:
475,192,13407,1,0,0:0:0:0:
36,192,13407,1,0,0:0:0:0:
475,192,13532,1,0,0:0:0:0:
475,192,13657,1,0,0:0:0:0:
36,192,13657,1,0,0:0:0:0:
475,192,13782,1,0,0:0:0:0:
182,192,13782,1,0,0:0:0:0:
329,192,13907,1,0,0:0:0:0:
36,192,14032,1,0,0:0:0:0:
109,192,14032,1,0,0:0:0:0:
109,192,14157,1,0,0:0:0:0:
36,192,14282,1,0,0:0:0:0:
402,192,14282,1,0,0:0:0:0:
36,192,14532,1,0,0:0:0:0:
329,192,14532,1,0,0:0:0:0:
36,192,14657,1,0,0:0:0:0:
109,192,14907,1,0,0:0:0:0:
402,192,14907,1,0,0:0:0:0:
329,192,15157,1,0,0:0:0:0:
109,192,15157,1,0,0:0:0:0:
475,192,15157,1,0,0:0:0:0:
256,192,15407,1,0,0:0:0:0:
109,192,15407,1,0,0:0:0:0:
475,192,15407,1,0,0:0:0:0:
109,192,15657,1,0,0:0:0:0:
182,192,15657,1,0,0:0:0:0:
475,192,15657,1,0,0:0:0:0:
256,192,15782,1,0,0:0:0:0:
109,192,15782,1,0,0:0:0:0:
475,192,15782,1,0,0:0:0:0:
329,192,15907,1,0,0:0:0:0:
109,192,15907,1,0,0:0:0:0:
36,192,16032,1,0,0:0:0:0:
182,192,16032,1,0,0:0:0:0:
329,192,16032,1,0,0:0:0:0:
475,192,16032,1,0,0:0:0:0:
256,192,16032,1,0,0:0:0:0:
36,192,16157,1,0,0:0:0:0:
182,192,16157,1,0,0:0:0:0:
329,192,16282,1,0,0:0:0:0:
475,192,16282,1,0,0:0:0:0:
402,192,16282,1,0,0:0:0:0:
109,192,16282,1,0,0:0:0:0:
256,192,16282,1,0,0:0:0:0:
109,192,16532,1,0,0:0:0:0:
256,192,16532,1,0,0:0:0:0:
402,192,16532,1,0,0:0:0:0:
36,192,16532,1,0,0:0:0:0:
109,192,16657,1,0,0:0:0:0:
256,192,16657,1,0,0:0:0:0:
182,192,16782,1,0,0:0:0:0:
329,192,16782,1,0,0:0:0:0:
475,192,16782,1,0,0:0:0:0:
36,192,16907,1,0,0:0:0:0:
109,192,16907,1,0,0:0:0:0:
256,192,16907,1,0,0:0:0:0:
402,192,16907,1,0,0:0:0:0:
182,192,17032,1,0,0:0:0:0:
36,192,17157,1,0,0:0:0:0:
109,192,17157,1,0,0:0:0:0:
256,192,17157,1,0,0:0:0:0:
329,192,17157,1,0,0:0:0:0:
402,192,17282,1,0,0:0:0:0:
475,192,17282,1,0,0:0:0:0:
329,192,17282,1,0,0:0:0:0:
109,192,17407,1,0,0:0:0:0:
36,192,17407,1,0,0:0:0:0:
256,192,17407,1,0,0:0:0:0:
182,192,17407,1,0,0:0:0:0:
256,192,17532,1,0,0:0:0:0:
109,192,17532,1,0,0:0:0:0:
36,192,17657,1,0,0:0:0:0:
329,192,17657,1,0,0:0:0:0:
182,192,17657,1,0,0:0:0:0:
402,192,17782,1,0,0:0:0:0:
256,192,17782,1,0,0:0:0:0:
109,192,17782,1,0,0:0:0:0:
475,192,17907,1,0,0:0:0:0:
182,192,17907,1,0,0:0:0:0:
329,192,17907,1,0,0:0:0:0:
36,192,18032,1,0,0:0:0:0:
109,192,18032,1,0,0:0:0:0:
256,192,18032,1,0,0:0:0:0:
402,192,18032,1,0,0:0:0:0:
36,192,18157,1,0,0:0:0:0:
109,192,18157,1,0,0:0:0:0:
182,192,18282,1,0,0:0:0:0:
329,192,18282,1,0,0:0:0:0:
475,192,18282,1,0,0:0:0:0:
402,192,18282,1,0,0:0:0:0:
109,192,18532,1,0,0:0:0:0:
256,192,18532,1,0,0:0:0:0:
329,192,18532,1,0,0:0:0:0:
402,192,18532,1,0,0:0:0:0:
109,192,18657,1,0,0:0:0:0:
256,192,18657,1,0,0:0:0:0:
182,192,18782,1,0,0:0:0:0:
329,192,18782,1,0,0:0:0:0:
475,192,18782,1,0,0:0:0:0:
36,192,18907,1,0,0:0:0:0:
109,192,18907,1,0,0:0:0:0:
256,192,18907,1,0,0:0:0:0:
402,192,18907,1,0,0:0:0:0:
182,192,19032,1,0,0:0:0:0:
36,192,19157,1,0,0:0:0:0:
109,192,19157,1,0,0:0:0:0:
256,192,19157,1,0,0:0:0:0:
329,192,19157,1,0,0:0:0:0:
475,192,19282,1,0,0:0:0:0:
256,192,19282,1,0,0:0:0:0:
36,192,19407,1,0,0:0:0:0:
109,192,19407,1,0,0:0:0:0:
182,192,19407,1,0,0:0:0:0:
329,192,19407,1,0,0:0:0:0:
329,192,19532,1,0,0:0:0:0:
36,192,19657,1,0,0:0:0:0:
109,192,19657,1,0,0:0:0:0:
256,192,19657,1,0,0:0:0:0:
182,192,19782,1,0,0:0:0:0:
329,192,19782,1,0,0:0:0:0:
475,192,19782,1,0,0:0:0:0:
256,192,19907,1,0,0:0:0:0:
402,192,19907,1,0,0:0:0:0:
36,192,20032,1,0,0:0:0:0:
109,192,20032,1,0,0:0:0:0:
182,192,20032,1,0,0:0:0:0:
329,192,20032,1,0,0:0:0:0:
109,192,20157,1,0,0:0:0:0:
182,192,20157,1,0,0:0:0:0:
256,192,20282,1,0,0:0:0:0:
402,192,20282,1,0,0:0:0:0:
475,192,20282,1,0,0:0:0:0:
36,192,20282,1,0,0:0:0:0:
36,192,20532,1,0,0:0:0:0:
182,192,20532,1,0,0:0:0:0:
329,192,20532,1,0,0:0:0:0:
402,192,20532,1,0,0:0:0:0:
182,192,20657,1,0,0:0:0:0:
256,192,20782,1,0,0:0:0:0:
402,192,20782,1,0,0:0:0:0:
475,192,20782,1,0,0:0:0:0:
36,192,20907,1,0,0:0:0:0:
182,192,20907,1,0,0:0:0:0:
329,192,20907,1,0,0:0:0:0:
109,192,20907,1,0,0:0:0:0:
256,192,21032,1,0,0:0:0:0:
36,192,21157,1,0,0:0:0:0:
182,192,21157,1,0,0:0:0:0:
402,192,21157,1,0,0:0:0:0:
329,192,21157,1,0,0:0:0:0:
402,192,21282,1,0,0:0:0:0:
475,192,21282,1,0,0:0:0:0:
36,192,21407,1,0,0:0:0:0:
109,192,21407,1,0,0:0:0:0:
256,192,21407,1,0,0:0:0:0:
329,192,21407,1,0,0:0:0:0:
182,192,21532,1,0,0:0:0:0:
182,192,21657,1,0,0:0:0:0:
36,192,21657,1,0,0:0:0:0:
329,192,21657,1,0,0:0:0:0:
109,192,21782,1,0,0:0:0:0:
256,192,21782,1,0,0:0:0:0:
402,192,21782,1,0,0:0:0:0:
182,192,21907,1,0,0:0:0:0:
329,192,21907,1,0,0:0:0:0:
475,192,21907,1,0,0:0:0:0:
36,192,22032,1,0,0:0:0:0:
109,192,22032,1,0,0:0:0:0:
256,192,22032,1,0,0:0:0:0:
402,192,22032,1,0,0:0:0:0:
109,192,22157,1,0,0:0:0:0:
256,192,22157,1,0,0:0:0:0:
182,192,22282,1,0,0:0:0:0:
329,192,22282,1,0,0:0:0:0:
402,192,22282,1,0,0:0:0:0:
475,192,22282,1,0,0:0:0:0:
109,192,22532,1,0,0:0:0:0:
256,192,22532,1,0,0:0:0:0:
329,192,22532,1,0,0:0:0:0:
475,192,22532,1,0,0:0:0:0:
109,192,22657,1,0,0:0:0:0:
256,192,22657,1,0,0:0:0:0:
182,192,22782,1,0,0:0:0:0:
329,192,22782,1,0,0:0:0:0:
402,192,22782,1,0,0:0:0:0:
256,192,22907,1,0,0:0:0:0:
329,192,22907,1,0,0:0:0:0:
36,192,22907,1,0,0:0:0:0:
109,192,22907,1,0,0:0:0:0:
402,192,23032,1,0,0:0:0:0:
475,192,23032,1,0,0:0:0:0:
36,192,23157,1,0,0:0:0:0:
109,192,23157,1,0,0:0:0:0:
182,192,23157,1,0,0:0:0:0:
329,192,23157,1,0,0:0:0:0:
402,192,23282,1,0,0:0:0:0:
475,192,23282,1,0,0:0:0:0:
36,192,23407,1,0,0:0:0:0:
109,192,23407,1,0,0:0:0:0:
256,192,23407,1,0,0:0:0:0:
402,192,23407,1,0,0:0:0:0:
36,192,23657,1,0,0:0:0:0:
109,192,23657,1,0,0:0:0:0:
182,192,23657,1,0,0:0:0:0:
329,192,23657,1,0,0:0:0:0:
256,192,23782,1,0,0:0:0:0:
402,192,23782,1,0,0:0:0:0:
109,192,23782,1,0,0:0:0:0:
36,192,23782,1,0,0:0:0:0:
329,192,23907,1,0,0:0:0:0:
475,192,23907,1,0,0:0:0:0:
36,192,24032,1,0,0:0:0:0:
109,192,24032,1,0,0:0:0:0:
182,192,24032,1,0,0:0:0:0:
256,192,24032,1,0,0:0:0:0:
402,192,24032,1,0,0:0:0:0:
256,192,24157,1,0,0:0:0:0:
402,192,24157,1,0,0:0:0:0:
182,192,24282,1,0,0:0:0:0:
329,192,24282,1,0,0:0:0:0:
475,192,24282,1,0,0:0:0:0:
109,192,24282,1,0,0:0:0:0:
109,192,24532,1,0,0:0:0:0:
256,192,24532,1,0,0:0:0:0:
402,192,24532,1,0,0:0:0:0:
36,192,24532,1,0,0:0:0:0:
256,192,24657,1,0,0:0:0:0:
182,192,24782,1,0,0:0:0:0:
329,192,24782,1,0,0:0:0:0:
475,192,24782,1,0,0:0:0:0:
36,192,24907,1,0,0:0:0:0:
109,192,24907,1,0,0:0:0:0:
256,192,24907,1,0,0:0:0:0:
402,192,24907,1,0,0:0:0:0:
182,192,25032,1,0,0:0:0:0:
36,192,25157,1,0,0:0:0:0:
109,192,25157,1,0,0:0:0:0:
256,192,25157,1,0,0:0:0:0:
329,192,25157,1,0,0:0:0:0:
402,192,25282,1,0,0:0:0:0:
475,192,25282,1,0,0:0:0:0:
36,192,25407,1,0,0:0:0:0:
109,192,25407,1,0,0:0:0:0:
182,192,25407,1,0,0:0:0:0:
329,192,25407,1,0,0:0:0:0:
329,192,25532,1,0,0:0:0:0:
182,192,25532,1,0,0:0:0:0:
109,192,25657,1,0,0:0:0:0:
256,192,25657,1,0,0:0:0:0:
36,192,25657,1,0,0:0:0:0:
182,192,25782,1,0,0:0:0:0:
329,192,25782,1,0,0:0:0:0:
475,192,25782,1,0,0:0:0:0:
36,192,25782,1,0,0:0:0:0:
256,192,25907,1,0,0:0:0:0:
402,192,25907,1,0,0:0:0:0:
36,192,26032,1,0,0:0:0:0:
109,192,26032,1,0,0:0:0:0:
182,192,26032,1,0,0:0:0:0:
329,192,26032,1,0,0:0:0:0:
182,192,26157,1,0,0:0:0:0:
329,192,26157,1,0,0:0:0:0:
256,192,26282,1,0,0:0:0:0:
402,192,26282,1,0,0:0:0:0:
475,192,26282,1,0,0:0:0:0:
109,192,26282,1,0,0:0:0:0:
109,192,26532,1,0,0:0:0:0:
256,192,26532,1,0,0:0:0:0:
329,192,26532,1,0,0:0:0:0:
402,192,26532,1,0,0:0:0:0:
109,192,26657,1,0,0:0:0:0:
182,192,26782,1,0,0:0:0:0:
329,192,26782,1,0,0:0:0:0:
475,192,26782,1,0,0:0:0:0:
36,192,26907,1,0,0:0:0:0:
109,192,26907,1,0,0:0:0:0:
256,192,26907,1,0,0:0:0:0:
402,192,26907,1,0,0:0:0:0:
329,192,27032,1,0,0:0:0:0:
36,192,27157,1,0,0:0:0:0:
109,192,27157,1,0,0:0:0:0:
182,192,27157,1,0,0:0:0:0:
402,192,27157,1,0,0:0:0:0:
256,192,27282,1,0,0:0:0:0:
329,192,27282,1,0,0:0:0:0:
475,192,27282,1,0,0:0:0:0:
36,192,27407,1,0,0:0:0:0:
109,192,27407,1,0,0:0:0:0:
182,192,27407,1,0,0:0:0:0:
329,192,27407,1,0,0:0:0:0:
182,192,27532,1,0,0:0:0:0:
36,192,27532,1,0,0:0:0:0:
256,192,27657,1,0,0:0:0:0:
109,192,27657,1,0,0:0:0:0:
402,192,27657,1,0,0:0:0:0:
182,192,27782,1,0,0:0:0:0:
329,192,27782,1,0,0:0:0:0:
475,192,27782,1,0,0:0:0:0:
256,192,27907,1,0,0:0:0:0:
402,192,27907,1,0,0:0:0:0:
36,192,28032,1,0,0:0:0:0:
109,192,28032,1,0,0:0:0:0:
182,192,28032,1,0,0:0:0:0:
329,192,28032,1,0,0:0:0:0:
109,192,28157,1,0,0:0:0:0:
256,192,28157,1,0,0:0:0:0:
182,192,28282,1,0,0:0:0:0:
329,192,28282,1,0,0:0:0:0:
402,192,28282,1,0,0:0:0:0:
475,192,28282,1,0,0:0:0:0:
109,192,28532,1,0,0:0:0:0:
256,192,28532,1,0,0:0:0:0:
329,192,28532,1,0,0:0:0:0:
402,192,28532,1,0,0:0:0:0:
329,192,28657,1,0,0:0:0:0:
182,192,28782,1,0,0:0:0:0:
402,192,28782,1,0,0:0:0:0:
475,192,28782,1,0,0:0:0:0:
36,192,28907,1,0,0:0:0:0:
109,192,28907,1,0,0:0:0:0:
256,192,28907,1,0,0:0:0:0:
329,192,28907,1,0,0:0:0:0:
182,192,29032,1,0,0:0:0:0:
109,192,29157,1,0,0:0:0:0:
256,192,29157,1,0,0:0:0:0:
329,192,29157,1,0,0:0:0:0:
402,192,29157,1,0,0:0:0:0:
182,192,29282,1,0,0:0:0:0:
36,192,29282,1,0,0:0:0:0:
256,192,29282,1,0,0:0:0:0:
329,192,29407,1,0,0:0:0:0:
402,192,29407,1,0,0:0:0:0:
475,192,29407,1,0,0:0:0:0:
109,192,29407,1,0,0:0:0:0:
329,192,29532,1,0,0:0:0:0:
109,192,29532,1,0,0:0:0:0:
36,192,29657,1,0,0:0:0:0:
182,192,29657,1,0,0:0:0:0:
329,192,29657,1,0,0:0:0:0:
109,192,29782,1,0,0:0:0:0:
256,192,29782,1,0,0:0:0:0:
402,192,29782,1,0,0:0:0:0:
182,192,29907,1,0,0:0:0:0:
329,192,29907,1,0,0:0:0:0:
475,192,29907,1,0,0:0:0:0:
36,192,30032,1,0,0:0:0:0:
109,192,30032,1,0,0:0:0:0:
256,192,30032,1,0,0:0:0:0:
402,192,30032,1,0,0:0:0:0:
36,192,30157,1,0,0:0:0:0:
256,192,30157,1,0,0:0:0:0:
402,192,30157,1,0,0:0:0:0:
182,192,30282,1,0,0:0:0:0:
329,192,30282,1,0,0:0:0:0:
475,192,30282,1,0,0:0:0:0:
109,192,30282,1,0,0:0:0:0:
36,192,30532,1,0,0:0:0:0:
109,192,30532,1,0,0:0:0:0:
256,192,30532,1,0,0:0:0:0:
402,192,30532,1,0,0:0:0:0:
182,192,30657,1,0,0:0:0:0:
329,192,30657,1,0,0:0:0:0:
256,192,30782,1,0,0:0:0:0:
402,192,30782,1,0,0:0:0:0:
475,192,30782,1,0,0:0:0:0:
36,192,30907,1,0,0:0:0:0:
109,192,30907,1,0,0:0:0:0:
182,192,30907,1,0,0:0:0:0:
329,192,30907,1,0,0:0:0:0:
256,192,31032,1,0,0:0:0:0:
402,192,31032,1,0,0:0:0:0:
475,192,31032,1,0,0:0:0:0:
36,192,31157,1,0,0:0:0:0:
109,192,31157,1,0,0:0:0:0:
182,192,31157,1,0,0:0:0:0:
329,192,31157,1,0,0:0:0:0:
256,192,31282,1,0,0:0:0:0:
402,192,31282,1,0,0:0:0:0:
475,192,31282,1,0,0:0:0:0:
329,192,31407,1,0,0:0:0:0:
402,192,31407,1,0,0:0:0:0:
36,192,31407,1,0,0:0:0:0:
475,192,31407,1,0,0:0:0:0:
109,192,31469,1,0,0:0:0:0:
182,192,31532,1,0,0:0:0:0:
256,192,31594,1,0,0:0:0:0:
36,192,31657,1,0,0:0:0:0:
402,192,31657,1,0,0:0:0:0:
109,192,31719,1,0,0:0:0:0:
182,192,31782,1,0,0:0:0:0:
475,192,31782,1,0,0:0:0:0:
256,192,31844,1,0,0:0:0:0:
329,192,31907,1,0,0:0:0:0:
402,192,31969,1,0,0:0:0:0:
475,192,32032,1,0,0:0:0:0:
36,192,32032,1,0,0:0:0:0:
182,192,32032,1,0,0:0:0:0:
475,192,32282,1,0,0:0:0:0:
475,192,32407,1,0,0:0:0:0:
475,192,32657,1,0,0:0:0:0:
475,192,32907,1,0,0:0:0:0:
182,192,33157,1,0,0:0:0:0:
182,192,33407,1,0,0:0:0:0:
329,192,34032,1,0,0:0:0:0:
329,192,34282,1,0,0:0:0:0:
329,192,34407,1,0,0:0:0:0:
402,192,34657,1,0,0:0:0:0:
475,192,34907,1,0,0:0:0:0:
402,192,35157,1,0,0:0:0:0:
475,192,35198,1,0,0:0:0:0:
329,192,35240,1,0,0:0:0:0:
256,192,35282,1,0,0:0:0:0:
109,192,35407,1,0,0:0:0:0:
256,192,35532,1,0,0:0:0:0:
329,192,35657,1,0,0:0:0:0:
182,192,36032,1,0,0:0:0:0:
182,192,36282,1,0,0:0:0:0:
182,192,36407,1,0,0:0:0:0:
256,192,36657,1,0,0:0:0:0:
329,192,36907,1,0,0:0:0:0:
402,192,37157,1,0,0:0:0:0:
475,192,37407,1,0,0:0:0:0:
182,192,37657,1,0,0:0:0:0:
475,192,38032,1,0,0:0:0:0:
329,192,38032,1,0,0:0:0:0:
475,192,38282,1,0,0:0:0:0:
475,192,38532,1,0,0:0:0:0:
329,192,38657,1,0,0:0:0:0:
475,192,38782,1,0,0:0:0:0:
402,192,38907,1,0,0:0:0:0:
36,192,39032,1,0,0:0:0:0:
182,192,39032,1,0,0:0:0:0:
329,192,39157,1,0,0:0:0:0:
36,192,39282,1,0,0:0:0:0:
182,192,39282,1,0,0:0:0:0:
36,192,39407,1,0,0:0:0:0:
182,192,39407,1,0,0:0:0:0:
329,192,39532,1,0,0:0:0:0:
36,192,39657,1,0,0:0:0:0:
182,192,39657,1,0,0:0:0:0:
36,192,39782,1,0,0:0:0:0:
182,192,39782,1,0,0:0:0:0:
256,192,39907,1,0,0:0:0:0:
36,192,40032,1,0,0:0:0:0:
182,192,40032,1,0,0:0:0:0:
329,192,40032,1,0,0:0:0:0:
475,192,40032,1,0,0:0:0:0:
182,192,40157,1,0,0:0:0:0:
36,192,40157,1,0,0:0:0:0:
256,192,40282,1,0,0:0:0:0:
402,192,40282,1,0,0:0:0:0:
475,192,40282,1,0,0:0:0:0:
109,192,40282,1,0,0:0:0:0:
256,192,40407,1,0,0:0:0:0:
36,192,40532,1,0,0:0:0:0:
182,192,40532,1,0,0:0:0:0:
329,192,40532,1,0,0:0:0:0:
402,192,40532,1,0,0:0:0:0:
329,192,40657,1,0,0:0:0:0:
402,192,40657,1,0,0:0:0:0:
109,192,40782,1,0,0:0:0:0:
256,192,40782,1,0,0:0:0:0:
329,192,40907,1,0,0:0:0:0:
402,192,40907,1,0,0:0:0:0:
182,192,40907,1,0,0:0:0:0:
36,192,40907,1,0,0:0:0:0:
36,192,41157,1,0,0:0:0:0:
182,192,41157,1,0,0:0:0:0:
256,192,41157,1,0,0:0:0:0:
329,192,41157,1,0,0:0:0:0:
36,192,41407,1,0,0:0:0:0:
109,192,41407,1,0,0:0:0:0:
256,192,41407,1,0,0:0:0:0:
329,192,41407,1,0,0:0:0:0:
182,192,41532,1,0,0:0:0:0:
329,192,41532,1,0,0:0:0:0:
182,192,41657,1,0,0:0:0:0:
329,192,41657,1,0,0:0:0:0:
109,192,41782,1,0,0:0:0:0:
256,192,41782,1,0,0:0:0:0:
402,192,41782,1,0,0:0:0:0:
475,192,41782,1,0,0:0:0:0:
36,192,42032,1,0,0:0:0:0:
182,192,42032,1,0,0:0:0:0:
329,192,42032,1,0,0:0:0:0:
402,192,42032,1,0,0:0:0:0:
36,192,42157,1,0,0:0:0:0:
182,192,42157,1,0,0:0:0:0:
256,192,42282,1,0,0:0:0:0:
402,192,42282,1,0,0:0:0:0:
475,192,42282,1,0,0:0:0:0:
109,192,42282,1,0,0:0:0:0:
256,192,42407,1,0,0:0:0:0:
475,192,42407,1,0,0:0:0:0:
109,192,42532,1,0,0:0:0:0:
182,192,42532,1,0,0:0:0:0:
329,192,42532,1,0,0:0:0:0:
402,192,42532,1,0,0:0:0:0:
329,192,42657,1,0,0:0:0:0:
402,192,42657,1,0,0:0:0:0:
36,192,42782,1,0,0:0:0:0:
182,192,42782,1,0,0:0:0:0:
402,192,42907,1,0,0:0:0:0:
329,192,42907,1,0,0:0:0:0:
256,192,42907,1,0,0:0:0:0:
109,192,42907,1,0,0:0:0:0:
36,192,43032,1,0,0:0:0:0:
182,192,43032,1,0,0:0:0:0:
109,192,43157,1,0,0:0:0:0:
256,192,43157,1,0,0:0:0:0:
402,192,43157,1,0,0:0:0:0:
475,192,43157,1,0,0:0:0:0:
36,192,43282,1,0,0:0:0:0:
256,192,43282,1,0,0:0:0:0:
182,192,43407,1,0,0:0:0:0:
329,192,43407,1,0,0:0:0:0:
402,192,43407,1,0,0:0:0:0:
475,192,43407,1,0,0:0:0:0:
36,192,43657,1,0,0:0:0:0:
256,192,43657,1,0,0:0:0:0:
182,192,43657,1,0,0:0:0:0:
109,192,43782,1,0,0:0:0:0:
256,192,43782,1,0,0:0:0:0:
329,192,43782,1,0,0:0:0:0:
182,192,43907,1,0,0:0:0:0:
256,192,43907,1,0,0:0:0:0:
402,192,43907,1,0,0:0:0:0:
36,192,44032,1,0,0:0:0:0:
329,192,44032,1,0,0:0:0:0:
475,192,44032,1,0,0:0:0:0:
109,192,44032,1,0,0:0:0:0:
182,192,44157,1,0,0:0:0:0:
402,192,44157,1,0,0:0:0:0:
36,192,44282,1,0,0:0:0:0:
256,192,44282,1,0,0:0:0:0:
329,192,44282,1,0,0:0:0:0:
475,192,44282,1,0,0:0:0:0:
109,192,44407,1,0,0:0:0:0:
329,192,44407,1,0,0:0:0:0:
182,192,44532,1,0,0:0:0:0:
402,192,44532,1,0,0:0:0:0:
475,192,44532,1,0,0:0:0:0:
109,192,44657,1,0,0:0:0:0:
256,192,44657,1,0,0:0:0:0:
329,192,44657,1,0,0:0:0:0:
182,192,44782,1,0,0:0:0:0:
36,192,44782,1,0,0:0:0:0:
402,192,44782,1,0,0:0:0:0:
109,192,44907,1,0,0:0:0:0:
329,192,44907,1,0,0:0:0:0:
182,192,44907,1,0,0:0:0:0:
256,192,45032,1,0,0:0:0:0:
475,192,45032,1,0,0:0:0:0:
402,192,45032,1,0,0:0:0:0:
182,192,45157,1,0,0:0:0:0:
329,192,45157,1,0,0:0:0:0:
36,192,45282,1,0,0:0:0:0:
402,192,45282,1,0,0:0:0:0:
475,192,45282,1,0,0:0:0:0:
182,192,45282,1,0,0:0:0:0:
109,192,45407,1,0,0:0:0:0:
329,192,45407,1,0,0:0:0:0:
182,192,45532,1,0,0:0:0:0:
402,192,45532,1,0,0:0:0:0:
36,192,45657,1,0,0:0:0:0:
256,192,45657,1,0,0:0:0:0:
109,192,45782,1,0,0:0:0:0:
329,192,45782,1,0,0:0:0:0:
475,192,45782,1,0,0:0:0:0:
182,192,45782,1,0,0:0:0:0:
182,192,45907,1,0,0:0:0:0:
402,192,45907,1,0,0:0:0:0:
36,192,46032,1,0,0:0:0:0:
109,192,46032,1,0,0:0:0:0:
256,192,46032,1,0,0:0:0:0:
329,192,46032,1,0,0:0:0:0:
475,192,46032,1,0,0:0:0:0:
36,192,46282,1,0,0:0:0:0:
182,192,46282,1,0,0:0:0:0:
329,192,46282,1,0,0:0:0:0:
109,192,46407,1,0,0:0:0:0:
256,192,46407,1,0,0:0:0:0:
402,192,46407,1,0,0:0:0:0:
182,192,46532,1,0,0:0:0:0:
329,192,46532,1,0,0:0:0:0:
475,192,46532,1,0,0:0:0:0:
256,192,46657,1,0,0:0:0:0:
109,192,46657,1,0,0:0:0:0:
402,192,46657,1,0,0:0:0:0:
475,192,46657,1,0,0:0:0:0:
329,192,46907,1,0,0:0:0:0:
475,192,46907,1,0,0:0:0:0:
402,192,46907,1,0,0:0:0:0:
182,192,46907,1,0,0:0:0:0:
36,192,47032,1,0,0:0:0:0:
256,192,47032,1,0,0:0:0:0:
109,192,47032,1,0,0:0:0:0:
475,192,47157,1,0,0:0:0:0:
402,192,47157,1,0,0:0:0:0:
36,192,47282,1,0,0:0:0:0:
109,192,47282,1,0,0:0:0:0:
36,192,47407,1,0,0:0:0:0:
109,192,47407,1,0,0:0:0:0:
256,192,47407,1,0,0:0:0:0:
402,192,47532,1,0,0:0:0:0:
475,192,47532,1,0,0:0:0:0:
36,192,47657,1,0,0:0:0:0:
109,192,47657,1,0,0:0:0:0:
109,192,47782,1,0,0:0:0:0:
36,192,47782,1,0,0:0:0:0:
256,192,47782,1,0,0:0:0:0:
182,192,47907,1,0,0:0:0:0:
329,192,47907,1,0,0:0:0:0:
36,192,48032,1,0,0:0:0:0:
109,192,48032,1,0,0:0:0:0:
256,192,48032,1,0,0:0:0:0:
182,192,48282,1,0,0:0:0:0:
329,192,48282,1,0,0:0:0:0:
36,192,48532,1,0,0:0:0:0:
36,192,48657,1,0,0:0:0:0:
182,192,48782,1,0,0:0:0:0:
329,192,48782,1,0,0:0:0:0:
329,192,48907,1,0,0:0:0:0:
182,192,49032,1,0,0:0:0:0:
329,192,49032,1,0,0:0:0:0:
475,192,49032,1,0,0:0:0:0:
109,192,49157,1,0,0:0:0:0:
256,192,49157,1,0,0:0:0:0:
182,192,49282,1,0,0:0:0:0:
329,192,49282,1,0,0:0:0:0:
256,192,49407,1,0,0:0:0:0:
402,192,49407,1,0,0:0:0:0:
329,192,49532,1,0,0:0:0:0:
475,192,49532,1,0,0:0:0:0:
256,192,49657,1,0,0:0:0:0:
402,192,49657,1,0,0:0:0:0:
329,192,49782,1,0,0:0:0:0:
182,192,49782,1,0,0:0:0:0:
109,192,49907,1,0,0:0:0:0:
256,192,49907,1,0,0:0:0:0:
329,192,50032,1,0,0:0:0:0:
475,192,50032,1,0,0:0:0:0:
36,192,50032,1,0,0:0:0:0:
256,192,50094,1,0,0:0:0:0:
402,192,50094,1,0,0:0:0:0:
329,192,50157,1,0,0:0:0:0:
182,192,50157,1,0,0:0:0:0:
109,192,50219,1,0,0:0:0:0:
256,192,50219,1,0,0:0:0:0:
182,192,50282,1,0,0:0:0:0:
329,192,50282,1,0,0:0:0:0:
475,192,50282,1,0,0:0:0:0:
256,192,50532,1,0,0:0:0:0:
402,192,50532,1,0,0:0:0:0:
36,192,50532,1,0,0:0:0:0:
109,192,50532,1,0,0:0:0:0:
109,192,50657,1,0,0:0:0:0:
182,192,50782,1,0,0:0:0:0:
329,192,50782,1,0,0:0:0:0:
475,192,50782,1,0,0:0:0:0:
329,192,50907,1,0,0:0:0:0:
36,192,51032,1,0,0:0:0:0:
109,192,51032,1,0,0:0:0:0:
256,192,51032,1,0,0:0:0:0:
109,192,51157,1,0,0:0:0:0:
182,192,51282,1,0,0:0:0:0:
329,192,51282,1,0,0:0:0:0:
475,192,51282,1,0,0:0:0:0:
329,192,51407,1,0,0:0:0:0:
109,192,51532,1,0,0:0:0:0:
36,192,51532,1,0,0:0:0:0:
256,192,51532,1,0,0:0:0:0:
182,192,51657,1,0,0:0:0:0:
329,192,51657,1,0,0:0:0:0:
109,192,51657,1,0,0:0:0:0:
256,192,51907,1,0,0:0:0:0:
402,192,51907,1,0,0:0:0:0:
36,192,52032,1,0,0:0:0:0:
109,192,52032,1,0,0:0:0:0:
329,192,52032,1,0,0:0:0:0:
475,192,52032,1,0,0:0:0:0:
256,192,52282,1,0,0:0:0:0:
402,192,52282,1,0,0:0:0:0:
109,192,52282,1,0,0:0:0:0:
182,192,52407,1,0,0:0:0:0:
329,192,52407,1,0,0:0:0:0:
109,192,52532,1,0,0:0:0:0:
256,192,52532,1,0,0:0:0:0:
36,192,52657,1,0,0:0:0:0:
182,192,52657,1,0,0:0:0:0:
109,192,52782,1,0,0:0:0:0:
256,192,52782,1,0,0:0:0:0:
182,192,52907,1,0,0:0:0:0:
329,192,52907,1,0,0:0:0:0:
256,192,53032,1,0,0:0:0:0:
36,192,53032,1,0,0:0:0:0:
109,192,53032,1,0,0:0:0:0:
402,192,53032,1,0,0:0:0:0:
109,192,53282,1,0,0:0:0:0:
182,192,53282,1,0,0:0:0:0:
329,192,53282,1,0,0:0:0:0:
475,192,53282,1,0,0:0:0:0:
182,192,53532,1,0,0:0:0:0:
256,192,53532,1,0,0:0:0:0:
402,192,53532,1,0,0:0:0:0:
36,192,53532,1,0,0:0:0:0:
109,192,53782,1,0,0:0:0:0:
256,192,53782,1,0,0:0:0:0:
329,192,53782,1,0,0:0:0:0:
475,192,53782,1,0,0:0:0:0:
182,192,54032,1,0,0:0:0:0:
329,192,54032,1,0,0:0:0:0:
402,192,54032,1,0,0:0:0:0:
475,192,54032,1,0,0:0:0:0:
109,192,54282,1,0,0:0:0:0:
256,192,54282,1,0,0:0:0:0:
402,192,54282,1,0,0:0:0:0:
36,192,54282,1,0,0:0:0:0:
182,192,54532,1,0,0:0:0:0:
329,192,54532,1,0,0:0:0:0:
402,192,54532,1,0,0:0:0:0:
109,192,54657,1,0,0:0:0:0:
256,192,54657,1,0,0:0:0:0:
182,192,54782,1,0,0:0:0:0:
36,192,54782,1,0,0:0:0:0:
109,192,54907,1,0,0:0:0:0:
256,192,54907,1,0,0:0:0:0:
329,192,55032,1,0,0:0:0:0:
475,192,55032,1,0,0:0:0:0:
182,192,55032,1,0,0:0:0:0:
36,192,55157,1,0,0:0:0:0:
329,192,55282,1,0,0:0:0:0:
475,192,55282,1,0,0:0:0:0:
329,192,55407,1,0,0:0:0:0:
475,192,55407,1,0,0:0:0:0:
36,192,55532,1,0,0:0:0:0:
329,192,55657,1,0,0:0:0:0:
475,192,55657,1,0,0:0:0:0:
475,192,55782,1,0,0:0:0:0:
329,192,55782,1,0,0:0:0:0:
182,192,55907,1,0,0:0:0:0:
109,192,56032,1,0,0:0:0:0:
402,192,56032,1,0,0:0:0:0:
256,192,56032,1,0,0:0:0:0:
36,192,56032,1,0,0:0:0:0:
109,192,56282,1,0,0:0:0:0:
182,192,56282,1,0,0:0:0:0:
329,192,56282,1,0,0:0:0:0:
402,192,56282,1,0,0:0:0:0:
182,192,56532,1,0,0:0:0:0:
256,192,56532,1,0,0:0:0:0:
329,192,56532,1,0,0:0:0:0:
475,192,56532,1,0,0:0:0:0:
256,192,56782,1,0,0:0:0:0:
329,192,56782,1,0,0:0:0:0:
402,192,56782,1,0,0:0:0:0:
475,192,56782,1,0,0:0:0:0:
109,192,57032,1,0,0:0:0:0:
182,192,57032,1,0,0:0:0:0:
329,192,57032,1,0,0:0:0:0:
475,192,57032,1,0,0:0:0:0:
475,192,57157,1,0,0:0:0:0:
475,192,57282,1,0,0:0:0:0:
475,192,57407,1,0,0:0:0:0:
36,192,57532,1,0,0:0:0:0:
109,192,57532,1,0,0:0:0:0:
256,192,57532,1,0,0:0:0:0:
402,192,57532,1,0,0:0:0:0:
256,192,57657,1,0,0:0:0:0:
256,192,57782,1,0,0:0:0:0:
256,192,57907,1,0,0:0:0:0:
36,192,58032,1,0,0:0:0:0:
109,192,58032,1,0,0:0:0:0:
329,192,58032,1,0,0:0:0:0:
475,192,58032,1,0,0:0:0:0:
36,192,58157,1,0,0:0:0:0:
36,192,58282,1,0,0:0:0:0:
36,192,58407,1,0,0:0:0:0:
109,192,58532,1,0,0:0:0:0:
182,192,58532,1,0,0:0:0:0:
329,192,58532,1,0,0:0:0:0:
475,192,58532,1,0,0:0:0:0:
329,192,58657,1,0,0:0:0:0:
329,192,58782,1,0,0:0:0:0:
329,192,58907,1,0,0:0:0:0:
182,192,59032,1,0,0:0:0:0:
256,192,59032,1,0,0:0:0:0:
402,192,59032,1,0,0:0:0:0:
475,192,59032,1,0,0:0:0:0:
182,192,59157,1,0,0:0:0:0:
182,192,59282,1,0,0:0:0:0:
182,192,59407,1,0,0:0:0:0:
36,192,59532,1,0,0:0:0:0:
329,192,59532,1,0,0:0:0:0:
402,192,59532,1,0,0:0:0:0:
109,192,59532,1,0,0:0:0:0:
402,192,59657,1,0,0:0:0:0:
402,192,59782,1,0,0:0:0:0:
402,192,59907,1,0,0:0:0:0:
182,192,60032,1,0,0:0:0:0:
329,192,60032,1,0,0:0:0:0:
475,192,60032,1,0,0:0:0:0:
36,192,60032,1,0,0:0:0:0:
256,192,60032,1,0,0:0:0:0:
475,192,60157,1,0,0:0:0:0:
36,192,60282,1,0,0:0:0:0:
36,192,60407,1,0,0:0:0:0:
475,192,60532,1,0,0:0:0:0:
475,192,60657,1,0,0:0:0:0:
36,192,60782,1,0,0:0:0:0:
36,192,60907,1,0,0:0:0:0:
475,192,61032,1,0,0:0:0:0:
329,192,61032,1,0,0:0:0:0:
109,192,61157,1,0,0:0:0:0:
329,192,61157,1,0,0:0:0:0:
402,192,61282,1,0,0:0:0:0:
182,192,61282,1,0,0:0:0:0:
329,192,61407,1,0,0:0:0:0:
182,192,61407,1,0,0:0:0:0:
256,192,61532,1,0,0:0:0:0:
402,192,61532,1,0,0:0:0:0:
182,192,61657,1,0,0:0:0:0:
402,192,61657,1,0,0:0:0:0:
329,192,61782,1,0,0:0:0:0:
109,192,61782,1,0,0:0:0:0:
256,192,61907,1,0,0:0:0:0:
109,192,61907,1,0,0:0:0:0:
182,192,62032,1,0,0:0:0:0:
36,192,62032,1,0,0:0:0:0:
329,192,62032,1,0,0:0:0:0:
402,192,62032,1,0,0:0:0:0:
475,192,62032,1,0,0:0:0:0:
182,192,62282,1,0,0:0:0:0:
329,192,62282,1,0,0:0:0:0:
36,192,62532,1,0,0:0:0:0:
109,192,62532,1,0,0:0:0:0:
256,192,62532,1,0,0:0:0:0:
109,192,62657,1,0,0:0:0:0:
256,192,62782,1,0,0:0:0:0:
109,192,62907,1,0,0:0:0:0:
182,192,63032,1,0,0:0:0:0:
329,192,63032,1,0,0:0:0:0:
402,192,63032,1,0,0:0:0:0:
475,192,63032,1,0,0:0:0:0:
256,192,63157,1,0,0:0:0:0:
109,192,63282,1,0,0:0:0:0:
182,192,63282,1,0,0:0:0:0:
329,192,63282,1,0,0:0:0:0:
402,192,63282,1,0,0:0:0:0:
109,192,63407,1,0,0:0:0:0:
182,192,63407,1,0,0:0:0:0:
329,192,63407,1,0,0:0:0:0:
402,192,63407,1,0,0:0:0:0:
256,192,63532,1,0,0:0:0:0:
109,192,63657,1,0,0:0:0:0:
182,192,63657,1,0,0:0:0:0:
329,192,63657,1,0,0:0:0:0:
402,192,63657,1,0,0:0:0:0:
402,192,63782,1,0,0:0:0:0:
329,192,63782,1,0,0:0:0:0:
182,192,63782,1,0,0:0:0:0:
109,192,63782,1,0,0:0:0:0:
256,192,63907,1,0,0:0:0:0:
36,192,64032,1,0,0:0:0:0:
182,192,64032,1,0,0:0:0:0:
329,192,64032,1,0,0:0:0:0:
256,192,64282,1,0,0:0:0:0:
402,192,64282,1,0,0:0:0:0:
36,192,64532,1,0,0:0:0:0:
182,192,64532,1,0,0:0:0:0:
329,192,64532,1,0,0:0:0:0:
182,192,64657,1,0,0:0:0:0:
36,192,64657,1,0,0:0:0:0:
256,192,64782,1,0,0:0:0:0:
402,192,64782,1,0,0:0:0:0:
36,192,65032,1,0,0:0:0:0:
475,192,65032,1,0,0:0:0:0:
182,192,65032,1,0,0:0:0:0:
402,192,65032,1,0,0:0:0:0:
109,192,65157,1,0,0:0:0:0:
329,192,65157,1,0,0:0:0:0:
182,192,65282,1,0,0:0:0:0:
402,192,65282,1,0,0:0:0:0:
256,192,65407,1,0,0:0:0:0:
475,192,65407,1,0,0:0:0:0:
109,192,65532,1,0,0:0:0:0:
329,192,65532,1,0,0:0:0:0:
36,192,65532,1,0,0:0:0:0:
182,192,65657,1,0,0:0:0:0:
402,192,65657,1,0,0:0:0:0:
329,192,65782,1,0,0:0:0:0:
109,192,65782,1,0,0:0:0:0:
36,192,65907,1,0,0:0:0:0:
256,192,65907,1,0,0:0:0:0:
182,192,66032,1,0,0:0:0:0:
402,192,66032,1,0,0:0:0:0:
475,192,66032,1,0,0:0:0:0:
329,192,66094,1,0,0:0:0:0:
109,192,66094,1,0,0:0:0:0:
256,192,66157,1,0,0:0:0:0:
36,192,66157,1,0,0:0:0:0:
182,192,66219,1,0,0:0:0:0:
402,192,66219,1,0,0:0:0:0:
329,192,66282,1,0,0:0:0:0:
475,192,66282,1,0,0:0:0:0:
109,192,66282,1,0,0:0:0:0:
256,192,66532,1,0,0:0:0:0:
36,192,66532,1,0,0:0:0:0:
182,192,66532,1,0,0:0:0:0:
402,192,66532,1,0,0:0:0:0:
182,192,66657,1,0,0:0:0:0:
329,192,66782,1,0,0:0:0:0:
475,192,66782,1,0,0:0:0:0:
36,192,66782,1,0,0:0:0:0:
329,192,66907,1,0,0:0:0:0:
182,192,67032,1,0,0:0:0:0:
475,192,67032,1,0,0:0:0:0:
109,192,67032,1,0,0:0:0:0:
182,192,67157,1,0,0:0:0:0:
329,192,67282,1,0,0:0:0:0:
402,192,67282,1,0,0:0:0:0:
36,192,67282,1,0,0:0:0:0:
329,192,67407,1,0,0:0:0:0:
109,192,67532,1,0,0:0:0:0:
256,192,67532,1,0,0:0:0:0:
36,192,67532,1,0,0:0:0:0:
182,192,67657,1,0,0:0:0:0:
329,192,67657,1,0,0:0:0:0:
475,192,67657,1,0,0:0:0:0:
256,192,67907,1,0,0:0:0:0:
402,192,67907,1,0,0:0:0:0:
329,192,68032,1,0,0:0:0:0:
475,192,68032,1,0,0:0:0:0:
36,192,68032,1,0,0:0:0:0:
109,192,68032,1,0,0:0:0:0:
402,192,68282,1,0,0:0:0:0:
182,192,68282,1,0,0:0:0:0:
109,192,68407,1,0,0:0:0:0:
329,192,68407,1,0,0:0:0:0:
256,192,68532,1,0,0:0:0:0:
475,192,68532,1,0,0:0:0:0:
36,192,68532,1,0,0:0:0:0:
182,192,68657,1,0,0:0:0:0:
402,192,68657,1,0,0:0:0:0:
329,192,68782,1,0,0:0:0:0:
109,192,68782,1,0,0:0:0:0:
182,192,68907,1,0,0:0:0:0:
402,192,68907,1,0,0:0:0:0:
36,192,69032,1,0,0:0:0:0:
256,192,69032,1,0,0:0:0:0:
475,192,69032,1,0,0:0:0:0:
109,192,69032,1,0,0:0:0:0:
109,192,69282,1,0,0:0:0:0:
329,192,69282,1,0,0:0:0:0:
256,192,69282,1,0,0:0:0:0:
475,192,69282,1,0,0:0:0:0:
182,192,69532,1,0,0:0:0:0:
329,192,69532,1,0,0:0:0:0:
402,192,69532,1,0,0:0:0:0:
475,192,69532,1,0,0:0:0:0:
329,192,69782,1,0,0:0:0:0:
256,192,69782,1,0,0:0:0:0:
402,192,69782,1,0,0:0:0:0:
475,192,69782,1,0,0:0:0:0:
36,192,70032,1,0,0:0:0:0:
182,192,70032,1,0,0:0:0:0:
402,192,70032,1,0,0:0:0:0:
475,192,70032,1,0,0:0:0:0:
402,192,70282,1,0,0:0:0:0:
36,192,70282,1,0,0:0:0:0:
182,192,70282,1,0,0:0:0:0:
329,192,70282,1,0,0:0:0:0:
256,192,70532,1,0,0:0:0:0:
475,192,70532,1,0,0:0:0:0:
402,192,70657,1,0,0:0:0:0:
182,192,70657,1,0,0:0:0:0:
109,192,70782,1,0,0:0:0:0:
329,192,70782,1,0,0:0:0:0:
182,192,70907,1,0,0:0:0:0:
402,192,70907,1,0,0:0:0:0:
36,192,71032,1,0,0:0:0:0:
256,192,71032,1,0,0:0:0:0:
475,192,71032,1,0,0:0:0:0:
182,192,71157,1,0,0:0:0:0:
329,192,71157,1,0,0:0:0:0:
36,192,71282,1,0,0:0:0:0:
256,192,71282,1,0,0:0:0:0:
475,192,71282,1,0,0:0:0:0:
36,192,71407,1,0,0:0:0:0:
256,192,71407,1,0,0:0:0:0:
475,192,71407,1,0,0:0:0:0:
182,192,71532,1,0,0:0:0:0:
329,192,71532,1,0,0:0:0:0:
36,192,71657,1,0,0:0:0:0:
256,192,71657,1,0,0:0:0:0:
475,192,71657,1,0,0:0:0:0:
475,192,71782,1,0,0:0:0:0:
256,192,71782,1,0,0:0:0:0:
36,192,71782,1,0,0:0:0:0:
36,192,72032,1,0,0:0:0:0:
182,192,72032,1,0,0:0:0:0:
256,192,72032,1,0,0:0:0:0:
402,192,72032,1,0,0:0:0:0:
475,192,72032,1,0,0:0:0:0:
36,192,72157,1,0,0:0:0:0:
256,192,72157,1,0,0:0:0:0:
109,192,72282,1,0,0:0:0:0:
182,192,72282,1,0,0:0:0:0:
329,192,72282,1,0,0:0:0:0:
402,192,72282,1,0,0:0:0:0:
109,192,72407,1,0,0:0:0:0:
329,192,72407,1,0,0:0:0:0:
182,192,72532,1,0,0:0:0:0:
256,192,72532,1,0,0:0:0:0:
402,192,72532,1,0,0:0:0:0:
475,192,72532,1,0,0:0:0:0:
182,192,72657,1,0,0:0:0:0:
402,192,72657,1,0,0:0:0:0:
109,192,72782,1,0,0:0:0:0:
329,192,72782,1,0,0:0:0:0:
475,192,72782,1,0,0:0:0:0:
256,192,72782,1,0,0:0:0:0:
329,192,72907,1,0,0:0:0:0:
475,192,72907,1,0,0:0:0:0:
36,192,73032,1,0,0:0:0:0:
182,192,73032,1,0,0:0:0:0:
256,192,73032,1,0,0:0:0:0:
402,192,73032,1,0,0:0:0:0:
402,192,73157,1,0,0:0:0:0:
402,192,73282,1,0,0:0:0:0:
402,192,73407,1,0,0:0:0:0:
36,192,73532,1,0,0:0:0:0:
109,192,73532,1,0,0:0:0:0:
256,192,73532,1,0,0:0:0:0:
329,192,73532,1,0,0:0:0:0:
109,192,73657,1,0,0:0:0:0:
109,192,73782,1,0,0:0:0:0:
109,192,73907,1,0,0:0:0:0:
36,192,74032,1,0,0:0:0:0:
182,192,74032,1,0,0:0:0:0:
256,192,74032,1,0,0:0:0:0:
329,192,74032,1,0,0:0:0:0:
182,192,74157,1,0,0:0:0:0:
182,192,74282,1,0,0:0:0:0:
182,192,74407,1,0,0:0:0:0:
109,192,74532,1,0,0:0:0:0:
256,192,74532,1,0,0:0:0:0:
329,192,74532,1,0,0:0:0:0:
402,192,74532,1,0,0:0:0:0:
256,192,74657,1,0,0:0:0:0:
256,192,74782,1,0,0:0:0:0:
256,192,74907,1,0,0:0:0:0:
182,192,75032,1,0,0:0:0:0:
329,192,75032,1,0,0:0:0:0:
402,192,75032,1,0,0:0:0:0:
475,192,75032,1,0,0:0:0:0:
329,192,75157,1,0,0:0:0:0:
329,192,75282,1,0,0:0:0:0:
329,192,75407,1,0,0:0:0:0:
109,192,75532,1,0,0:0:0:0:
182,192,75532,1,0,0:0:0:0:
402,192,75532,1,0,0:0:0:0:
256,192,75532,1,0,0:0:0:0:
402,192,75657,1,0,0:0:0:0:
402,192,75782,1,0,0:0:0:0:
402,192,75907,1,0,0:0:0:0:
182,192,76032,1,0,0:0:0:0:
256,192,76032,1,0,0:0:0:0:
475,192,76032,1,0,0:0:0:0:
36,192,76032,1,0,0:0:0:0:
475,192,76157,1,0,0:0:0:0:
36,192,76282,1,0,0:0:0:0:
36,192,76407,1,0,0:0:0:0:
475,192,76532,1,0,0:0:0:0:
475,192,76657,1,0,0:0:0:0:
36,192,76782,1,0,0:0:0:0:
36,192,76907,1,0,0:0:0:0:
182,192,77032,1,0,0:0:0:0:
329,192,77032,1,0,0:0:0:0:
475,192,77032,1,0,0:0:0:0:
402,192,77157,1,0,0:0:0:0:
256,192,77157,1,0,0:0:0:0:
182,192,77282,1,0,0:0:0:0:
329,192,77282,1,0,0:0:0:0:
36,192,77282,1,0,0:0:0:0:
109,192,77407,1,0,0:0:0:0:
256,192,77407,1,0,0:0:0:0:
182,192,77532,1,0,0:0:0:0:
329,192,77532,1,0,0:0:0:0:
475,192,77532,1,0,0:0:0:0:
256,192,77657,1,0,0:0:0:0:
402,192,77657,1,0,0:0:0:0:
36,192,77782,1,0,0:0:0:0:
182,192,77782,1,0,0:0:0:0:
329,192,77782,1,0,0:0:0:0:
256,192,77907,1,0,0:0:0:0:
109,192,77907,1,0,0:0:0:0:
182,192,78032,1,0,0:0:0:0:
329,192,78032,1,0,0:0:0:0:
475,192,78032,1,0,0:0:0:0:
36,192,78032,1,0,0:0:0:0:
109,192,78282,1,0,0:0:0:0:
256,192,78282,1,0,0:0:0:0:
402,192,78282,1,0,0:0:0:0:
36,192,78532,1,0,0:0:0:0:
182,192,78532,1,0,0:0:0:0:
329,192,78532,1,0,0:0:0:0:
182,192,78657,1,0,0:0:0:0:
329,192,78782,1,0,0:0:0:0:
475,192,78782,1,0,0:0:0:0:
36,192,78782,1,0,0:0:0:0:
256,192,78907,1,0,0:0:0:0:
182,192,79032,1,0,0:0:0:0:
475,192,79032,1,0,0:0:0:0:
36,192,79032,1,0,0:0:0:0:
329,192,79032,1,0,0:0:0:0:
256,192,79157,1,0,0:0:0:0:
36,192,79282,1,0,0:0:0:0:
182,192,79282,1,0,0:0:0:0:
329,192,79282,1,0,0:0:0:0:
475,192,79282,1,0,0:0:0:0:
36,192,79407,1,0,0:0:0:0:
182,192,79407,1,0,0:0:0:0:
329,192,79407,1,0,0:0:0:0:
475,192,79407,1,0,0:0:0:0:
256,192,79532,1,0,0:0:0:0:
182,192,79657,1,0,0:0:0:0:
36,192,79657,1,0,0:0:0:0:
329,192,79657,1,0,0:0:0:0:
475,192,79657,1,0,0:0:0:0:
36,192,79782,1,0,0:0:0:0:
182,192,79782,1,0,0:0:0:0:
329,192,79782,1,0,0:0:0:0:
475,192,79782,1,0,0:0:0:0:
256,192,79907,1,0,0:0:0:0:
36,192,80032,1,0,0:0:0:0:
182,192,80032,1,0,0:0:0:0:
329,192,80032,1,0,0:0:0:0:
182,192,80282,1,0,0:0:0:0:
329,192,80532,1,0,0:0:0:0:
475,192,80532,1,0,0:0:0:0:
182,192,80657,1,0,0:0:0:0:
182,192,80907,1,0,0:0:0:0:
329,192,81157,1,0,0:0:0:0:
475,192,81157,1,0,0:0:0:0:
182,192,81282,1,0,0:0:0:0:
256,192,81407,1,0,0:0:0:0:
182,192,81532,1,0,0:0:0:0:
256,192,81657,1,0,0:0:0:0:
329,192,81782,1,0,0:0:0:0:
475,192,81782,1,0,0:0:0:0:
109,192,82032,1,0,0:0:0:0:
109,192,82282,1,0,0:0:0:0:
329,192,82532,1,0,0:0:0:0:
475,192,82532,1,0,0:0:0:0:
109,192,82657,1,0,0:0:0:0:
109,192,82907,1,0,0:0:0:0:
329,192,83157,1,0,0:0:0:0:
475,192,83157,1,0,0:0:0:0:
109,192,83282,1,0,0:0:0:0:
256,192,83407,1,0,0:0:0:0:
109,192,83532,1,0,0:0:0:0:
256,192,83657,1,0,0:0:0:0:
329,192,83782,1,0,0:0:0:0:
475,192,83782,1,0,0:0:0:0:
109,192,83907,1,0,0:0:0:0:
182,192,84032,1,0,0:0:0:0:
182,192,84282,1,0,0:0:0:0:
329,192,84532,1,0,0:0:0:0:
475,192,84532,1,0,0:0:0:0:
182,192,84657,1,0,0:0:0:0:
182,192,84907,1,0,0:0:0:0:
329,192,85157,1,0,0:0:0:0:
475,192,85157,1,0,0:0:0:0:
182,192,85282,1,0,0:0:0:0:
36,192,85407,1,0,0:0:0:0:
182,192,85532,1,0,0:0:0:0:
109,192,85657,1,0,0:0:0:0:
256,192,85782,1,0,0:0:0:0:
475,192,85782,1,0,0:0:0:0:
36,192,86032,1,0,0:0:0:0:
36,192,86282,1,0,0:0:0:0:
182,192,86532,1,0,0:0:0:0:
329,192,86532,1,0,0:0:0:0:
36,192,86657,1,0,0:0:0:0:
36,192,86907,1,0,0:0:0:0:
182,192,87157,1,0,0:0:0:0:
329,192,87157,1,0,0:0:0:0:
36,192,87282,1,0,0:0:0:0:
256,192,87407,1,0,0:0:0:0:
109,192,87532,1,0,0:0:0:0:
256,192,87657,1,0,0:0:0:0:
182,192,87782,1,0,0:0:0:0:
329,192,87782,1,0,0:0:0:0:
36,192,88032,1,0,0:0:0:0:
256,192,88157,1,0,0:0:0:0:
36,192,88282,1,0,0:0:0:0:
256,192,88407,1,0,0:0:0:0:
329,192,88532,1,0,0:0:0:0:
475,192,88532,1,0,0:0:0:0:
36,192,88657,1,0,0:0:0:0:
36,192,88907,1,0,0:0:0:0:
329,192,89157,1,0,0:0:0:0:
475,192,89157,1,0,0:0:0:0:
36,192,89282,1,0,0:0:0:0:
256,192,89407,1,0,0:0:0:0:
36,192,89532,1,0,0:0:0:0:
182,192,89657,1,0,0:0:0:0:
329,192,89782,1,0,0:0:0:0:
475,192,89782,1,0,0:0:0:0:
109,192,90032,1,0,0:0:0:0:
109,192,90282,1,0,0:0:0:0:
329,192,90532,1,0,0:0:0:0:
475,192,90532,1,0,0:0:0:0:
109,192,90657,1,0,0:0:0:0:
109,192,90907,1,0,0:0:0:0:
329,192,91157,1,0,0:0:0:0:
475,192,91157,1,0,0:0:0:0:
109,192,91282,1,0,0:0:0:0:
256,192,91407,1,0,0:0:0:0:
182,192,91532,1,0,0:0:0:0:
109,192,91657,1,0,0:0:0:0:
329,192,91782,1,0,0:0:0:0:
475,192,91782,1,0,0:0:0:0:
256,192,91907,1,0,0:0:0:0:
182,192,92032,1,0,0:0:0:0:
182,192,92282,1,0,0:0:0:0:
329,192,92532,1,0,0:0:0:0:
475,192,92532,1,0,0:0:0:0:
182,192,92657,1,0,0:0:0:0:
182,192,92907,1,0,0:0:0:0:
329,192,93157,1,0,0:0:0:0:
475,192,93157,1,0,0:0:0:0:
256,192,93282,1,0,0:0:0:0:
182,192,93407,1,0,0:0:0:0:
329,192,93532,1,0,0:0:0:0:
256,192,93657,1,0,0:0:0:0:
329,192,93782,1,0,0:0:0:0:
475,192,93782,1,0,0:0:0:0:
182,192,94032,1,0,0:0:0:0:
182,192,94282,1,0,0:0:0:0:
329,192,94532,1,0,0:0:0:0:
475,192,94532,1,0,0:0:0:0:
182,192,94657,1,0,0:0:0:0:
182,192,94907,1,0,0:0:0:0:
329,192,95157,1,0,0:0:0:0:
475,192,95157,1,0,0:0:0:0:
256,192,95282,1,0,0:0:0:0:
182,192,95407,1,0,0:0:0:0:
329,192,95532,1,0,0:0:0:0:
182,192,95657,1,0,0:0:0:0:
329,192,95782,1,0,0:0:0:0:
475,192,95782,1,0,0:0:0:0:
256,192,96032,1,0,0:0:0:0:
256,192,96157,1,0,0:0:0:0:
475,192,96282,1,0,0:0:0:0:
402,192,96532,1,0,0:0:0:0:
329,192,96907,1,0,0:0:0:0:
256,192,97157,1,0,0:0:0:0:
182,192,97407,1,0,0:0:0:0:
109,192,97657,1,0,0:0:0:0:
256,192,97782,1,0,0:0:0:0:
402,192,97907,1,0,0:0:0:0:
182,192,98032,1,0,0:0:0:0:
182,192,98157,1,0,0:0:0:0:
475,192,98282,1,0,0:0:0:0:
402,192,98532,1,0,0:0:0:0:
329,192,98907,1,0,0:0:0:0:
256,192,99157,1,0,0:0:0:0:
182,192,99407,1,0,0:0:0:0:
109,192,99657,1,0,0:0:0:0:
256,192,99782,1,0,0:0:0:0:
402,192,99907,1,0,0:0:0:0:
109,192,100032,1,0,0:0:0:0:
109,192,100157,1,0,0:0:0:0:
475,192,100282,1,0,0:0:0:0:
402,192,100532,1,0,0:0:0:0:
329,192,100907,1,0,0:0:0:0:
256,192,101157,1,0,0:0:0:0:
182,192,101407,1,0,0:0:0:0:
109,192,101657,1,0,0:0:0:0:
256,192,101782,1,0,0:0:0:0:
402,192,101907,1,0,0:0:0:0:
109,192,102032,1,0,0:0:0:0:
109,192,102157,1,0,0:0:0:0:
329,192,102157,1,0,0:0:0:0:
475,192,102282,1,0,0:0:0:0:
256,192,102282,1,0,0:0:0:0:
182,192,102407,1,0,0:0:0:0:
402,192,102532,1,0,0:0:0:0:
329,192,102532,1,0,0:0:0:0:
182,192,102782,1,0,0:0:0:0:
329,192,102907,1,0,0:0:0:0:
109,192,103032,1,0,0:0:0:0:
256,192,103157,1,0,0:0:0:0:
36,192,103157,1,0,0:0:0:0:
182,192,103407,1,0,0:0:0:0:
402,192,103407,1,0,0:0:0:0:
36,192,103657,1,0,0:0:0:0:
256,192,103657,1,0,0:0:0:0:
109,192,103782,1,0,0:0:0:0:
329,192,103782,1,0,0:0:0:0:
182,192,103907,1,0,0:0:0:0:
402,192,103907,1,0,0:0:0:0:
256,192,104032,1,0,0:0:0:0:
36,192,104032,1,0,0:0:0:0:
256,192,104157,1,0,0:0:0:0:
475,192,104282,1,0,0:0:0:0:
402,192,104532,1,0,0:0:0:0:
256,192,104532,1,0,0:0:0:0:
402,192,104657,1,0,0:0:0:0:
329,192,104907,1,0,0:0:0:0:
256,192,105157,1,0,0:0:0:0:
182,192,105407,1,0,0:0:0:0:
109,192,105657,1,0,0:0:0:0:
256,192,105782,1,0,0:0:0:0:
402,192,105907,1,0,0:0:0:0:
36,192,106032,1,0,0:0:0:0:
182,192,106032,1,0,0:0:0:0:
182,192,106157,1,0,0:0:0:0:
475,192,106282,1,0,0:0:0:0:
256,192,106532,1,0,0:0:0:0:
402,192,106532,1,0,0:0:0:0:
402,192,106657,1,0,0:0:0:0:
329,192,106907,1,0,0:0:0:0:
256,192,107157,1,0,0:0:0:0:
182,192,107407,1,0,0:0:0:0:
109,192,107657,1,0,0:0:0:0:
256,192,107782,1,0,0:0:0:0:
402,192,107907,1,0,0:0:0:0:
182,192,108032,1,0,0:0:0:0:
182,192,108157,1,0,0:0:0:0:
329,192,108282,1,0,0:0:0:0:
475,192,108282,1,0,0:0:0:0:
36,192,108282,1,0,0:0:0:0:
256,192,108282,1,0,0:0:0:0:
36,192,108532,1,0,0:0:0:0:
182,192,108532,1,0,0:0:0:0:
256,192,108532,1,0,0:0:0:0:
402,192,108532,1,0,0:0:0:0:
109,192,108657,1,0,0:0:0:0:
182,192,108782,1,0,0:0:0:0:
36,192,108907,1,0,0:0:0:0:
256,192,108907,1,0,0:0:0:0:
329,192,108907,1,0,0:0:0:0:
402,192,108907,1,0,0:0:0:0:
109,192,109157,1,0,0:0:0:0:
329,192,109157,1,0,0:0:0:0:
402,192,109157,1,0,0:0:0:0:
475,192,109157,1,0,0:0:0:0:
36,192,109407,1,0,0:0:0:0:
256,192,109407,1,0,0:0:0:0:
402,192,109407,1,0,0:0:0:0:
182,192,109407,1,0,0:0:0:0:
36,192,109657,1,0,0:0:0:0:
182,192,109657,1,0,0:0:0:0:
329,192,109657,1,0,0:0:0:0:
109,192,109782,1,0,0:0:0:0:
256,192,109782,1,0,0:0:0:0:
402,192,109782,1,0,0:0:0:0:
182,192,109907,1,0,0:0:0:0:
329,192,109907,1,0,0:0:0:0:
475,192,109907,1,0,0:0:0:0:
36,192,110032,1,0,0:0:0:0:
256,192,110032,1,0,0:0:0:0:
36,192,110157,1,0,0:0:0:0:
256,192,110157,1,0,0:0:0:0:
182,192,110282,1,0,0:0:0:0:
329,192,110282,1,0,0:0:0:0:
402,192,110282,1,0,0:0:0:0:
475,192,110282,1,0,0:0:0:0:
109,192,110532,1,0,0:0:0:0:
256,192,110532,1,0,0:0:0:0:
329,192,110532,1,0,0:0:0:0:
402,192,110532,1,0,0:0:0:0:
36,192,110907,1,0,0:0:0:0:
109,192,110907,1,0,0:0:0:0:
256,192,110907,1,0,0:0:0:0:
329,192,110907,1,0,0:0:0:0:
182,192,111032,1,0,0:0:0:0:
329,192,111032,1,0,0:0:0:0:
256,192,111157,1,0,0:0:0:0:
402,192,111157,1,0,0:0:0:0:
475,192,111157,1,0,0:0:0:0:
109,192,111157,1,0,0:0:0:0:
109,192,111282,1,0,0:0:0:0:
329,192,111282,1,0,0:0:0:0:
36,192,111407,1,0,0:0:0:0:
182,192,111407,1,0,0:0:0:0:
256,192,111407,1,0,0:0:0:0:
402,192,111407,1,0,0:0:0:0:
256,192,111532,1,0,0:0:0:0:
36,192,111657,1,0,0:0:0:0:
182,192,111657,1,0,0:0:0:0:
329,192,111657,1,0,0:0:0:0:
475,192,111657,1,0,0:0:0:0:
109,192,111782,1,0,0:0:0:0:
256,192,111782,1,0,0:0:0:0:
402,192,111782,1,0,0:0:0:0:
182,192,111907,1,0,0:0:0:0:
329,192,111907,1,0,0:0:0:0:
36,192,111907,1,0,0:0:0:0:
475,192,111907,1,0,0:0:0:0:
36,192,112032,1,0,0:0:0:0:
109,192,112032,1,0,0:0:0:0:
256,192,112032,1,0,0:0:0:0:
402,192,112032,1,0,0:0:0:0:
475,192,112032,1,0,0:0:0:0:
256,192,112157,1,0,0:0:0:0:
109,192,112282,1,0,0:0:0:0:
182,192,112282,1,0,0:0:0:0:
329,192,112282,1,0,0:0:0:0:
402,192,112282,1,0,0:0:0:0:
256,192,112407,1,0,0:0:0:0:
36,192,112532,1,0,0:0:0:0:
109,192,112532,1,0,0:0:0:0:
182,192,112532,1,0,0:0:0:0:
329,192,112532,1,0,0:0:0:0:
182,192,112657,1,0,0:0:0:0:
256,192,112782,1,0,0:0:0:0:
402,192,112782,1,0,0:0:0:0:
475,192,112782,1,0,0:0:0:0:
109,192,112782,1,0,0:0:0:0:
182,192,112907,1,0,0:0:0:0:
36,192,113032,1,0,0:0:0:0:
256,192,113032,1,0,0:0:0:0:
329,192,113032,1,0,0:0:0:0:
475,192,113032,1,0,0:0:0:0:
256,192,113157,1,0,0:0:0:0:
109,192,113282,1,0,0:0:0:0:
182,192,113282,1,0,0:0:0:0:
329,192,113282,1,0,0:0:0:0:
402,192,113282,1,0,0:0:0:0:
256,192,113407,1,0,0:0:0:0:
36,192,113532,1,0,0:0:0:0:
109,192,113532,1,0,0:0:0:0:
182,192,113532,1,0,0:0:0:0:
402,192,113532,1,0,0:0:0:0:
182,192,113657,1,0,0:0:0:0:
256,192,113782,1,0,0:0:0:0:
329,192,113782,1,0,0:0:0:0:
475,192,113782,1,0,0:0:0:0:
36,192,113782,1,0,0:0:0:0:
109,192,113782,1,0,0:0:0:0:
36,192,114032,1,0,0:0:0:0:
182,192,114032,1,0,0:0:0:0:
329,192,114032,1,0,0:0:0:0:
475,192,114032,1,0,0:0:0:0:
256,192,114032,1,0,0:0:0:0:
256,192,114157,1,0,0:0:0:0:
109,192,114282,1,0,0:0:0:0:
329,192,114282,1,0,0:0:0:0:
402,192,114282,1,0,0:0:0:0:
475,192,114282,1,0,0:0:0:0:
182,192,114407,1,0,0:0:0:0:
256,192,114532,1,0,0:0:0:0:
402,192,114532,1,0,0:0:0:0:
36,192,114532,1,0,0:0:0:0:
109,192,114532,1,0,0:0:0:0:
256,192,114657,1,0,0:0:0:0:
109,192,114782,1,0,0:0:0:0:
182,192,114782,1,0,0:0:0:0:
329,192,114782,1,0,0:0:0:0:
475,192,114782,1,0,0:0:0:0:
329,192,114907,1,0,0:0:0:0:
256,192,115032,1,0,0:0:0:0:
36,192,115032,1,0,0:0:0:0:
109,192,115032,1,0,0:0:0:0:
402,192,115032,1,0,0:0:0:0:
182,192,115157,1,0,0:0:0:0:
256,192,115282,1,0,0:0:0:0:
402,192,115282,1,0,0:0:0:0:
475,192,115282,1,0,0:0:0:0:
109,192,115282,1,0,0:0:0:0:
256,192,115407,1,0,0:0:0:0:
36,192,115532,1,0,0:0:0:0:
182,192,115532,1,0,0:0:0:0:
329,192,115532,1,0,0:0:0:0:
402,192,115532,1,0,0:0:0:0:
182,192,115657,1,0,0:0:0:0:
256,192,115782,1,0,0:0:0:0:
402,192,115782,1,0,0:0:0:0:
475,192,115782,1,0,0:0:0:0:
109,192,115782,1,0,0:0:0:0:
36,192,115782,1,0,0:0:0:0:
182,192,116032,1,0,0:0:0:0:
329,192,116032,1,0,0:0:0:0:
36,192,116032,1,0,0:0:0:0:
475,192,116032,1,0,0:0:0:0:
256,192,116032,1,0,0:0:0:0:
256,192,116157,1,0,0:0:0:0:
402,192,116282,1,0,0:0:0:0:
109,192,116282,1,0,0:0:0:0:
182,192,116282,1,0,0:0:0:0:
475,192,116282,1,0,0:0:0:0:
329,192,116407,1,0,0:0:0:0:
36,192,116532,1,0,0:0:0:0:
109,192,116532,1,0,0:0:0:0:
256,192,116532,1,0,0:0:0:0:
402,192,116532,1,0,0:0:0:0:
256,192,116657,1,0,0:0:0:0:
182,192,116782,1,0,0:0:0:0:
109,192,116782,1,0,0:0:0:0:
329,192,116782,1,0,0:0:0:0:
475,192,116782,1,0,0:0:0:0:
182,192,116907,1,0,0:0:0:0:
402,192,116907,1,0,0:0:0:0:
256,192,116907,1,0,0:0:0:0:
36,192,117032,1,0,0:0:0:0:
109,192,117032,1,0,0:0:0:0:
329,192,117032,1,0,0:0:0:0:
182,192,117157,1,0,0:0:0:0:
256,192,117282,1,0,0:0:0:0:
402,192,117282,1,0,0:0:0:0:
475,192,117282,1,0,0:0:0:0:
36,192,117282,1,0,0:0:0:0:
182,192,117407,1,0,0:0:0:0:
182,192,117532,1,0,0:0:0:0:
109,192,117532,1,0,0:0:0:0:
329,192,117532,1,0,0:0:0:0:
402,192,117532,1,0,0:0:0:0:
329,192,117657,1,0,0:0:0:0:
109,192,117782,1,0,0:0:0:0:
36,192,117782,1,0,0:0:0:0:
256,192,117782,1,0,0:0:0:0:
402,192,117782,1,0,0:0:0:0:
475,192,117782,1,0,0:0:0:0:
182,192,118032,1,0,0:0:0:0:
329,192,118032,1,0,0:0:0:0:
36,192,118032,1,0,0:0:0:0:
475,192,118032,1,0,0:0:0:0:
256,192,118032,1,0,0:0:0:0:
36,192,118157,1,0,0:0:0:0:
256,192,118282,1,0,0:0:0:0:
109,192,118282,1,0,0:0:0:0:
402,192,118282,1,0,0:0:0:0:
475,192,118282,1,0,0:0:0:0:
182,192,118407,1,0,0:0:0:0:
36,192,118532,1,0,0:0:0:0:
256,192,118532,1,0,0:0:0:0:
329,192,118532,1,0,0:0:0:0:
475,192,118532,1,0,0:0:0:0:
36,192,118657,1,0,0:0:0:0:
182,192,118782,1,0,0:0:0:0:
256,192,118782,1,0,0:0:0:0:
402,192,118782,1,0,0:0:0:0:
475,192,118782,1,0,0:0:0:0:
109,192,118907,1,0,0:0:0:0:
329,192,118907,1,0,0:0:0:0:
36,192,119032,1,0,0:0:0:0:
256,192,119032,1,0,0:0:0:0:
402,192,119032,1,0,0:0:0:0:
475,192,119032,1,0,0:0:0:0:
475,192,119157,1,0,0:0:0:0:
109,192,119282,1,0,0:0:0:0:
182,192,119282,1,0,0:0:0:0:
36,192,119282,1,0,0:0:0:0:
329,192,119282,1,0,0:0:0:0:
256,192,119407,1,0,0:0:0:0:
109,192,119532,1,0,0:0:0:0:
329,192,119532,1,0,0:0:0:0:
402,192,119532,1,0,0:0:0:0:
182,192,119532,1,0,0:0:0:0:
329,192,119657,1,0,0:0:0:0:
36,192,119782,1,0,0:0:0:0:
182,192,119782,1,0,0:0:0:0:
256,192,119782,1,0,0:0:0:0:
402,192,119782,1,0,0:0:0:0:
475,192,119782,1,0,0:0:0:0:
36,192,120032,1,0,0:0:0:0:
109,192,120032,1,0,0:0:0:0:
329,192,120032,1,0,0:0:0:0:
256,192,120032,1,0,0:0:0:0:
475,192,120032,1,0,0:0:0:0:
256,192,120157,1,0,0:0:0:0:
109,192,120282,1,0,0:0:0:0:
182,192,120282,1,0,0:0:0:0:
329,192,120282,1,0,0:0:0:0:
402,192,120282,1,0,0:0:0:0:
256,192,120407,1,0,0:0:0:0:
36,192,120532,1,0,0:0:0:0:
109,192,120532,1,0,0:0:0:0:
329,192,120532,1,0,0:0:0:0:
475,192,120532,1,0,0:0:0:0:
182,192,120657,1,0,0:0:0:0:
256,192,120782,1,0,0:0:0:0:
402,192,120782,1,0,0:0:0:0:
475,192,120782,1,0,0:0:0:0:
36,192,120782,1,0,0:0:0:0:
256,192,120907,1,0,0:0:0:0:
182,192,121032,1,0,0:0:0:0:
109,192,121032,1,0,0:0:0:0:
36,192,121032,1,0,0:0:0:0:
329,192,121032,1,0,0:0:0:0:
256,192,121157,1,0,0:0:0:0:
182,192,121282,1,0,0:0:0:0:
329,192,121282,1,0,0:0:0:0:
402,192,121282,1,0,0:0:0:0:
475,192,121282,1,0,0:0:0:0:
109,192,121407,1,0,0:0:0:0:
256,192,121407,1,0,0:0:0:0:
182,192,121532,1,0,0:0:0:0:
36,192,121532,1,0,0:0:0:0:
329,192,121532,1,0,0:0:0:0:
475,192,121532,1,0,0:0:0:0:
256,192,121657,1,0,0:0:0:0:
402,192,121657,1,0,0:0:0:0:
329,192,121782,1,0,0:0:0:0:
182,192,121782,1,0,0:0:0:0:
36,192,121782,1,0,0:0:0:0:
109,192,121782,1,0,0:0:0:0:
475,192,121782,1,0,0:0:0:0:
329,192,121907,1,0,0:0:0:0:
36,192,122032,1,0,0:0:0:0:
182,192,122032,1,0,0:0:0:0:
256,192,122032,1,0,0:0:0:0:
402,192,122032,1,0,0:0:0:0:
475,192,122032,1,0,0:0:0:0:
256,192,122157,1,0,0:0:0:0:
109,192,122282,1,0,0:0:0:0:
182,192,122282,1,0,0:0:0:0:
329,192,122282,1,0,0:0:0:0:
402,192,122282,1,0,0:0:0:0:
256,192,122407,1,0,0:0:0:0:
36,192,122532,1,0,0:0:0:0:
182,192,122532,1,0,0:0:0:0:
329,192,122532,1,0,0:0:0:0:
475,192,122532,1,0,0:0:0:0:
182,192,122657,1,0,0:0:0:0:
256,192,122782,1,0,0:0:0:0:
402,192,122782,1,0,0:0:0:0:
475,192,122782,1,0,0:0:0:0:
36,192,122782,1,0,0:0:0:0:
36,192,122907,1,0,0:0:0:0:
109,192,123032,1,0,0:0:0:0:
182,192,123032,1,0,0:0:0:0:
329,192,123032,1,0,0:0:0:0:
475,192,123032,1,0,0:0:0:0:
329,192,123157,1,0,0:0:0:0:
36,192,123282,1,0,0:0:0:0:
109,192,123282,1,0,0:0:0:0:
256,192,123282,1,0,0:0:0:0:
402,192,123282,1,0,0:0:0:0:
109,192,123407,1,0,0:0:0:0:
182,192,123532,1,0,0:0:0:0:
475,192,123532,1,0,0:0:0:0:
402,192,123532,1,0,0:0:0:0:
256,192,123532,1,0,0:0:0:0:
402,192,123657,1,0,0:0:0:0:
36,192,123782,1,0,0:0:0:0:
109,192,123782,1,0,0:0:0:0:
182,192,123782,1,0,0:0:0:0:
329,192,123782,1,0,0:0:0:0:
475,192,123782,1,0,0:0:0:0:
36,192,124032,1,0,0:0:0:0:
182,192,124032,1,0,0:0:0:0:
256,192,124032,1,0,0:0:0:0:
402,192,124032,1,0,0:0:0:0:
475,192,124032,1,0,0:0:0:0:
256,192,124157,1,0,0:0:0:0:
329,192,124282,1,0,0:0:0:0:
475,192,124282,1,0,0:0:0:0:
36,192,124282,1,0,0:0:0:0:
182,192,124282,1,0,0:0:0:0:
256,192,124407,1,0,0:0:0:0:
109,192,124532,1,0,0:0:0:0:
36,192,124532,1,0,0:0:0:0:
329,192,124532,1,0,0:0:0:0:
402,192,124532,1,0,0:0:0:0:
109,192,124657,1,0,0:0:0:0:
182,192,124782,1,0,0:0:0:0:
256,192,124782,1,0,0:0:0:0:
402,192,124782,1,0,0:0:0:0:
475,192,124782,1,0,0:0:0:0:
402,192,124907,1,0,0:0:0:0:
36,192,125032,1,0,0:0:0:0:
109,192,125032,1,0,0:0:0:0:
182,192,125032,1,0,0:0:0:0:
329,192,125032,1,0,0:0:0:0:
36,192,125157,1,0,0:0:0:0:
182,192,125282,1,0,0:0:0:0:
256,192,125282,1,0,0:0:0:0:
402,192,125282,1,0,0:0:0:0:
475,192,125282,1,0,0:0:0:0:
475,192,125407,1,0,0:0:0:0:
109,192,125532,1,0,0:0:0:0:
36,192,125532,1,0,0:0:0:0:
256,192,125532,1,0,0:0:0:0:
329,192,125532,1,0,0:0:0:0:
256,192,125657,1,0,0:0:0:0:
36,192,125782,1,0,0:0:0:0:
182,192,125782,1,0,0:0:0:0:
329,192,125782,1,0,0:0:0:0:
402,192,125782,1,0,0:0:0:0:
475,192,125782,1,0,0:0:0:0:
36,192,126032,1,0,0:0:0:0:
475,192,126032,1,0,0:0:0:0:
402,192,126032,1,0,0:0:0:0:
256,192,126032,1,0,0:0:0:0:
109,192,126032,1,0,0:0:0:0:
36,192,126282,1,0,0:0:0:0:
109,192,126282,1,0,0:0:0:0:
256,192,126282,1,0,0:0:0:0:
402,192,126282,1,0,0:0:0:0:
475,192,126282,1,0,0:0:0:0:
109,192,126532,1,0,0:0:0:0:
182,192,126532,1,0,0:0:0:0:
329,192,126532,1,0,0:0:0:0:
402,192,126532,1,0,0:0:0:0:
36,192,126657,1,0,0:0:0:0:
109,192,126657,1,0,0:0:0:0:
256,192,126657,1,0,0:0:0:0:
402,192,126657,1,0,0:0:0:0:
475,192,126657,1,0,0:0:0:0:
36,192,126907,1,0,0:0:0:0:
109,192,126907,1,0,0:0:0:0:
256,192,126907,1,0,0:0:0:0:
402,192,126907,1,0,0:0:0:0:
475,192,126907,1,0,0:0:0:0:
36,192,127157,1,0,0:0:0:0:
182,192,127157,1,0,0:0:0:0:
329,192,127157,1,0,0:0:0:0:
475,192,127157,1,0,0:0:0:0:
109,192,127282,1,0,0:0:0:0:
256,192,127282,1,0,0:0:0:0:
402,192,127282,1,0,0:0:0:0:
182,192,127407,1,0,0:0:0:0:
329,192,127407,1,0,0:0:0:0:
36,192,127532,1,0,0:0:0:0:
109,192,127532,1,0,0:0:0:0:
256,192,127532,1,0,0:0:0:0:
402,192,127532,1,0,0:0:0:0:
475,192,127532,1,0,0:0:0:0:
109,192,127657,1,0,0:0:0:0:
256,192,127657,1,0,0:0:0:0:
182,192,127782,1,0,0:0:0:0:
329,192,127782,1,0,0:0:0:0:
402,192,127782,1,0,0:0:0:0:
475,192,127782,1,0,0:0:0:0:
36,192,127782,1,0,0:0:0:0:
36,192,128032,1,0,0:0:0:0:
109,192,128032,1,0,0:0:0:0:
475,192,128032,1,0,0:0:0:0:
329,192,128032,1,0,0:0:0:0:
182,192,128032,1,0,0:0:0:0:
256,192,128157,1,0,0:0:0:0:
402,192,128157,1,0,0:0:0:0:
36,192,128282,1,0,0:0:0:0:
109,192,128282,1,0,0:0:0:0:
329,192,128282,1,0,0:0:0:0:
475,192,128282,1,0,0:0:0:0:
182,192,128407,1,0,0:0:0:0:
402,192,128407,1,0,0:0:0:0:
109,192,128532,1,0,0:0:0:0:
329,192,128532,1,0,0:0:0:0:
36,192,128532,1,0,0:0:0:0:
109,192,128657,1,0,0:0:0:0:
329,192,128657,1,0,0:0:0:0:
256,192,128782,1,0,0:0:0:0:
402,192,128782,1,0,0:0:0:0:
36,192,128907,1,0,0:0:0:0:
109,192,128907,1,0,0:0:0:0:
329,192,128907,1,0,0:0:0:0:
475,192,128907,1,0,0:0:0:0:
182,192,129032,1,0,0:0:0:0:
256,192,129032,1,0,0:0:0:0:
36,192,129157,1,0,0:0:0:0:
109,192,129157,1,0,0:0:0:0:
329,192,129157,1,0,0:0:0:0:
475,192,129157,1,0,0:0:0:0:
256,192,129282,1,0,0:0:0:0:
402,192,129282,1,0,0:0:0:0:
109,192,129407,1,0,0:0:0:0:
329,192,129407,1,0,0:0:0:0:
475,192,129407,1,0,0:0:0:0:
329,192,129532,1,0,0:0:0:0:
109,192,129532,1,0,0:0:0:0:
109,192,129657,1,0,0:0:0:0:
329,192,129657,1,0,0:0:0:0:
36,192,129782,1,0,0:0:0:0:
109,192,129782,1,0,0:0:0:0:
256,192,129782,1,0,0:0:0:0:
475,192,129782,1,0,0:0:0:0:
329,192,129782,1,0,0:0:0:0:
36,192,130032,1,0,0:0:0:0:
182,192,130032,1,0,0:0:0:0:
329,192,130032,1,0,0:0:0:0:
402,192,130032,1,0,0:0:0:0:
475,192,130032,1,0,0:0:0:0:
109,192,130157,1,0,0:0:0:0:
256,192,130157,1,0,0:0:0:0:
36,192,130282,1,0,0:0:0:0:
182,192,130282,1,0,0:0:0:0:
402,192,130282,1,0,0:0:0:0:
475,192,130282,1,0,0:0:0:0:
329,192,130407,1,0,0:0:0:0:
256,192,130407,1,0,0:0:0:0:
36,192,130532,1,0,0:0:0:0:
182,192,130532,1,0,0:0:0:0:
402,192,130532,1,0,0:0:0:0:
182,192,130657,1,0,0:0:0:0:
402,192,130657,1,0,0:0:0:0:
109,192,130782,1,0,0:0:0:0:
256,192,130782,1,0,0:0:0:0:
182,192,130907,1,0,0:0:0:0:
36,192,130907,1,0,0:0:0:0:
402,192,130907,1,0,0:0:0:0:
475,192,130907,1,0,0:0:0:0:
329,192,131032,1,0,0:0:0:0:
109,192,131032,1,0,0:0:0:0:
182,192,131157,1,0,0:0:0:0:
36,192,131157,1,0,0:0:0:0:
402,192,131157,1,0,0:0:0:0:
475,192,131157,1,0,0:0:0:0:
256,192,131282,1,0,0:0:0:0:
109,192,131282,1,0,0:0:0:0:
36,192,131407,1,0,0:0:0:0:
182,192,131407,1,0,0:0:0:0:
329,192,131407,1,0,0:0:0:0:
475,192,131407,1,0,0:0:0:0:
182,192,131532,1,0,0:0:0:0:
329,192,131532,1,0,0:0:0:0:
182,192,131657,1,0,0:0:0:0:
329,192,131657,1,0,0:0:0:0:
182,192,131782,1,0,0:0:0:0:
36,192,131782,1,0,0:0:0:0:
402,192,131782,1,0,0:0:0:0:
475,192,131782,1,0,0:0:0:0:
329,192,131782,1,0,0:0:0:0:
109,192,132032,1,0,0:0:0:0:
256,192,132032,1,0,0:0:0:0:
402,192,132032,1,0,0:0:0:0:
475,192,132032,1,0,0:0:0:0:
36,192,132032,1,0,0:0:0:0:
182,192,132157,1,0,0:0:0:0:
329,192,132157,1,0,0:0:0:0:
109,192,132282,1,0,0:0:0:0:
256,192,132282,1,0,0:0:0:0:
402,192,132282,1,0,0:0:0:0:
475,192,132282,1,0,0:0:0:0:
182,192,132407,1,0,0:0:0:0:
36,192,132407,1,0,0:0:0:0:
109,192,132532,1,0,0:0:0:0:
256,192,132532,1,0,0:0:0:0:
475,192,132532,1,0,0:0:0:0:
256,192,132657,1,0,0:0:0:0:
475,192,132657,1,0,0:0:0:0:
182,192,132782,1,0,0:0:0:0:
329,192,132782,1,0,0:0:0:0:
36,192,132907,1,0,0:0:0:0:
109,192,132907,1,0,0:0:0:0:
256,192,132907,1,0,0:0:0:0:
402,192,132907,1,0,0:0:0:0:
329,192,133032,1,0,0:0:0:0:
475,192,133032,1,0,0:0:0:0:
36,192,133157,1,0,0:0:0:0:
109,192,133157,1,0,0:0:0:0:
256,192,133157,1,0,0:0:0:0:
402,192,133157,1,0,0:0:0:0:
329,192,133282,1,0,0:0:0:0:
182,192,133282,1,0,0:0:0:0:
109,192,133407,1,0,0:0:0:0:
36,192,133407,1,0,0:0:0:0:
256,192,133407,1,0,0:0:0:0:
402,192,133407,1,0,0:0:0:0:
36,192,133532,1,0,0:0:0:0:
256,192,133532,1,0,0:0:0:0:
256,192,133657,1,0,0:0:0:0:
36,192,133657,1,0,0:0:0:0:
36,192,133782,1,0,0:0:0:0:
109,192,133782,1,0,0:0:0:0:
329,192,133782,1,0,0:0:0:0:
475,192,133782,1,0,0:0:0:0:
182,192,133782,1,0,0:0:0:0:
475,192,134032,1,0,0:0:0:0:
182,192,134032,1,0,0:0:0:0:
329,192,134032,1,0,0:0:0:0:
36,192,134032,1,0,0:0:0:0:
402,192,134032,1,0,0:0:0:0:
109,192,134157,1,0,0:0:0:0:
256,192,134157,1,0,0:0:0:0:
182,192,134282,1,0,0:0:0:0:
36,192,134282,1,0,0:0:0:0:
329,192,134282,1,0,0:0:0:0:
475,192,134282,1,0,0:0:0:0:
256,192,134407,1,0,0:0:0:0:
402,192,134407,1,0,0:0:0:0:
36,192,134532,1,0,0:0:0:0:
182,192,134532,1,0,0:0:0:0:
329,192,134532,1,0,0:0:0:0:
475,192,134532,1,0,0:0:0:0:
182,192,134657,1,0,0:0:0:0:
475,192,134657,1,0,0:0:0:0:
256,192,134782,1,0,0:0:0:0:
109,192,134907,1,0,0:0:0:0:
182,192,134907,1,0,0:0:0:0:
329,192,134907,1,0,0:0:0:0:
402,192,134907,1,0,0:0:0:0:
256,192,135032,1,0,0:0:0:0:
36,192,135157,1,0,0:0:0:0:
182,192,135157,1,0,0:0:0:0:
329,192,135157,1,0,0:0:0:0:
475,192,135157,1,0,0:0:0:0:
109,192,135282,1,0,0:0:0:0:
402,192,135282,1,0,0:0:0:0:
182,192,135407,1,0,0:0:0:0:
36,192,135407,1,0,0:0:0:0:
329,192,135407,1,0,0:0:0:0:
475,192,135407,1,0,0:0:0:0:
329,192,135532,1,0,0:0:0:0:
36,192,135532,1,0,0:0:0:0:
36,192,135657,1,0,0:0:0:0:
329,192,135657,1,0,0:0:0:0:
109,192,135782,1,0,0:0:0:0:
256,192,135782,1,0,0:0:0:0:
36,192,135782,1,0,0:0:0:0:
402,192,135782,1,0,0:0:0:0:
475,192,135782,1,0,0:0:0:0:
36,192,136032,1,0,0:0:0:0:
182,192,136032,1,0,0:0:0:0:
329,192,136032,1,0,0:0:0:0:
402,192,136032,1,0,0:0:0:0:
182,192,136157,1,0,0:0:0:0:
36,192,136157,1,0,0:0:0:0:
329,192,136282,1,0,0:0:0:0:
475,192,136282,1,0,0:0:0:0:
109,192,136282,1,0,0:0:0:0:
329,192,136407,1,0,0:0:0:0:
475,192,136407,1,0,0:0:0:0:
182,192,136532,1,0,0:0:0:0:
36,192,136532,1,0,0:0:0:0:
256,192,136532,1,0,0:0:0:0:
36,192,136657,1,0,0:0:0:0:
256,192,136657,1,0,0:0:0:0:
182,192,136657,1,0,0:0:0:0:
329,192,136782,1,0,0:0:0:0:
475,192,136782,1,0,0:0:0:0:
109,192,136782,1,0,0:0:0:0:
329,192,136907,1,0,0:0:0:0:
36,192,136907,1,0,0:0:0:0:
182,192,136907,1,0,0:0:0:0:
36,192,137032,1,0,0:0:0:0:
109,192,137032,1,0,0:0:0:0:
256,192,137032,1,0,0:0:0:0:
256,192,137157,1,0,0:0:0:0:
402,192,137157,1,0,0:0:0:0:
182,192,137282,1,0,0:0:0:0:
109,192,137282,1,0,0:0:0:0:
329,192,137282,1,0,0:0:0:0:
256,192,137407,1,0,0:0:0:0:
36,192,137407,1,0,0:0:0:0:
402,192,137407,1,0,0:0:0:0:
36,192,137532,1,0,0:0:0:0:
256,192,137532,1,0,0:0:0:0:
402,192,137532,1,0,0:0:0:0:
36,192,137657,1,0,0:0:0:0:
256,192,137657,1,0,0:0:0:0:
402,192,137657,1,0,0:0:0:0:
109,192,137782,1,0,0:0:0:0:
182,192,137782,1,0,0:0:0:0:
329,192,137782,1,0,0:0:0:0:
475,192,137782,1,0,0:0:0:0:
36,192,138032,1,0,0:0:0:0:
109,192,138032,1,0,0:0:0:0:
256,192,138032,1,0,0:0:0:0:
402,192,138032,1,0,0:0:0:0:
109,192,138157,1,0,0:0:0:0:
36,192,138157,1,0,0:0:0:0:
182,192,138282,1,0,0:0:0:0:
329,192,138282,1,0,0:0:0:0:
475,192,138282,1,0,0:0:0:0:
182,192,138407,1,0,0:0:0:0:
329,192,138407,1,0,0:0:0:0:
36,192,138532,1,0,0:0:0:0:
256,192,138532,1,0,0:0:0:0:
402,192,138532,1,0,0:0:0:0:
402,192,138657,1,0,0:0:0:0:
256,192,138657,1,0,0:0:0:0:
36,192,138657,1,0,0:0:0:0:
109,192,138782,1,0,0:0:0:0:
329,192,138782,1,0,0:0:0:0:
475,192,138782,1,0,0:0:0:0:
402,192,138907,1,0,0:0:0:0:
109,192,138907,1,0,0:0:0:0:
256,192,138907,1,0,0:0:0:0:
182,192,139032,1,0,0:0:0:0:
329,192,139032,1,0,0:0:0:0:
36,192,139032,1,0,0:0:0:0:
182,192,139157,1,0,0:0:0:0:
329,192,139157,1,0,0:0:0:0:
256,192,139282,1,0,0:0:0:0:
402,192,139282,1,0,0:0:0:0:
475,192,139282,1,0,0:0:0:0:
109,192,139407,1,0,0:0:0:0:
182,192,139407,1,0,0:0:0:0:
329,192,139407,1,0,0:0:0:0:
109,192,139532,1,0,0:0:0:0:
182,192,139532,1,0,0:0:0:0:
329,192,139532,1,0,0:0:0:0:
182,192,139657,1,0,0:0:0:0:
109,192,139657,1,0,0:0:0:0:
329,192,139657,1,0,0:0:0:0:
256,192,139782,1,0,0:0:0:0:
402,192,139782,1,0,0:0:0:0:
475,192,139782,1,0,0:0:0:0:
36,192,139782,1,0,0:0:0:0:
36,192,140032,1,0,0:0:0:0:
329,192,140032,1,0,0:0:0:0:
475,192,140032,1,0,0:0:0:0:
182,192,140032,1,0,0:0:0:0:
36,192,140157,1,0,0:0:0:0:
182,192,140157,1,0,0:0:0:0:
256,192,140282,1,0,0:0:0:0:
109,192,140282,1,0,0:0:0:0:
402,192,140282,1,0,0:0:0:0:
475,192,140282,1,0,0:0:0:0:
36,192,140532,1,0,0:0:0:0:
182,192,140532,1,0,0:0:0:0:
329,192,140532,1,0,0:0:0:0:
402,192,140532,1,0,0:0:0:0:
182,192,140657,1,0,0:0:0:0:
329,192,140657,1,0,0:0:0:0:
475,192,140782,1,0,0:0:0:0:
402,192,140782,1,0,0:0:0:0:
36,192,140907,1,0,0:0:0:0:
109,192,140907,1,0,0:0:0:0:
256,192,140907,1,0,0:0:0:0:
329,192,140907,1,0,0:0:0:0:
109,192,141032,1,0,0:0:0:0:
36,192,141032,1,0,0:0:0:0:
182,192,141157,1,0,0:0:0:0:
256,192,141157,1,0,0:0:0:0:
402,192,141157,1,0,0:0:0:0:
475,192,141157,1,0,0:0:0:0:
402,192,141282,1,0,0:0:0:0:
475,192,141282,1,0,0:0:0:0:
36,192,141407,1,0,0:0:0:0:
109,192,141407,1,0,0:0:0:0:
182,192,141407,1,0,0:0:0:0:
329,192,141407,1,0,0:0:0:0:
109,192,141532,1,0,0:0:0:0:
182,192,141532,1,0,0:0:0:0:
109,192,141657,1,0,0:0:0:0:
182,192,141657,1,0,0:0:0:0:
329,192,141657,1,0,0:0:0:0:
109,192,141782,1,0,0:0:0:0:
182,192,141782,1,0,0:0:0:0:
402,192,141782,1,0,0:0:0:0:
475,192,141782,1,0,0:0:0:0:
475,192,141907,1,0,0:0:0:0:
36,192,142032,1,0,0:0:0:0:
109,192,142032,1,0,0:0:0:0:
256,192,142032,1,0,0:0:0:0:
402,192,142032,1,0,0:0:0:0:
256,192,142157,1,0,0:0:0:0:
402,192,142157,1,0,0:0:0:0:
329,192,142282,1,0,0:0:0:0:
475,192,142282,1,0,0:0:0:0:
182,192,142282,1,0,0:0:0:0:
36,192,142282,1,0,0:0:0:0:
256,192,142532,1,0,0:0:0:0:
402,192,142532,1,0,0:0:0:0:
109,192,142532,1,0,0:0:0:0:
36,192,142532,1,0,0:0:0:0:
109,192,142657,1,0,0:0:0:0:
256,192,142657,1,0,0:0:0:0:
475,192,142782,1,0,0:0:0:0:
402,192,142782,1,0,0:0:0:0:
329,192,142907,1,0,0:0:0:0:
36,192,142907,1,0,0:0:0:0:
109,192,142907,1,0,0:0:0:0:
256,192,142907,1,0,0:0:0:0:
256,192,143032,1,0,0:0:0:0:
329,192,143032,1,0,0:0:0:0:
182,192,143157,1,0,0:0:0:0:
402,192,143157,1,0,0:0:0:0:
475,192,143157,1,0,0:0:0:0:
36,192,143157,1,0,0:0:0:0:
36,192,143282,1,0,0:0:0:0:
182,192,143282,1,0,0:0:0:0:
109,192,143407,1,0,0:0:0:0:
256,192,143407,1,0,0:0:0:0:
329,192,143407,1,0,0:0:0:0:
402,192,143407,1,0,0:0:0:0:
329,192,143532,1,0,0:0:0:0:
402,192,143532,1,0,0:0:0:0:
402,192,143657,1,0,0:0:0:0:
329,192,143657,1,0,0:0:0:0:
36,192,143657,1,0,0:0:0:0:
109,192,143657,1,0,0:0:0:0:
329,192,143782,1,0,0:0:0:0:
402,192,143782,1,0,0:0:0:0:
109,192,143782,1,0,0:0:0:0:
182,192,143782,1,0,0:0:0:0:
182,192,143907,1,0,0:0:0:0:
256,192,143907,1,0,0:0:0:0:
329,192,156207,5,0,0:0:0:0:
402,192,156207,1,0,0:0:0:0:
109,192,156373,1,0,0:0:0:0:
182,192,156373,1,0,0:0:0:0:
402,192,156457,1,0,0:0:0:0:
329,192,156457,1,0,0:0:0:0:
109,192,156540,1,0,0:0:0:0:
182,192,156540,1,0,0:0:0:0:
329,192,156707,1,0,0:0:0:0:
402,192,156707,1,0,0:0:0:0:
36,192,156873,1,0,0:0:0:0:
109,192,156957,1,0,0:0:0:0:
182,192,157040,1,0,0:0:0:0:
329,192,157186,1,0,0:0:0:0:
256,192,157248,1,0,0:0:0:0:
402,192,157311,1,0,0:0:0:0:
182,192,157373,1,0,0:0:0:0:
36,192,157436,1,0,0:0:0:0:
402,192,157498,1,0,0:0:0:0:
182,192,157561,1,0,0:0:0:0:
475,192,157665,1,0,0:0:0:0:
402,192,157748,1,0,0:0:0:0:
475,192,157790,1,0,0:0:0:0:
402,192,157873,1,0,0:0:0:0:
329,192,157901,1,0,0:0:0:0:
256,192,157929,1,0,0:0:0:0:
182,192,157957,1,0,0:0:0:0:
109,192,157984,1,0,0:0:0:0:
36,192,158012,1,0,0:0:0:0:
36,192,158873,1,0,0:0:0:0:
329,192,158873,1,0,0:0:0:0:
402,192,158873,1,0,0:0:0:0:
109,192,158957,1,0,0:0:0:0:
329,192,159040,1,0,0:0:0:0:
182,192,159040,1,0,0:0:0:0:
475,192,159123,1,0,0:0:0:0:
109,192,159207,1,0,0:0:0:0:
256,192,159207,1,0,0:0:0:0:
329,192,159207,1,0,0:0:0:0:
36,192,159290,1,0,0:0:0:0:
475,192,159373,1,0,0:0:0:0:
182,192,159373,1,0,0:0:0:0:
402,192,159373,1,0,0:0:0:0:
256,192,159457,1,0,0:0:0:0:
475,192,159540,1,0,0:0:0:0:
36,192,159540,1,0,0:0:0:0:
182,192,159623,1,0,0:0:0:0:
402,192,159623,1,0,0:0:0:0:
329,192,159707,1,0,0:0:0:0:
109,192,159707,1,0,0:0:0:0:
402,192,159790,1,0,0:0:0:0:
36,192,159790,1,0,0:0:0:0:
182,192,159873,1,0,0:0:0:0:
475,192,159957,1,0,0:0:0:0:
329,192,159957,1,0,0:0:0:0:
36,192,160040,1,0,0:0:0:0:
109,192,160040,1,0,0:0:0:0:
182,192,160123,1,0,0:0:0:0:
329,192,160123,1,0,0:0:0:0:
475,192,160207,1,0,0:0:0:0:
36,192,160207,1,0,0:0:0:0:
182,192,160290,1,0,0:0:0:0:
402,192,160290,1,0,0:0:0:0:
256,192,160373,1,0,0:0:0:0:
475,192,160373,1,0,0:0:0:0:
329,192,160457,1,0,0:0:0:0:
109,192,160457,1,0,0:0:0:0:
475,192,160540,1,0,0:0:0:0:
36,192,160540,1,0,0:0:0:0:
329,192,160623,1,0,0:0:0:0:
182,192,160623,1,0,0:0:0:0:
256,192,160707,1,0,0:0:0:0:
402,192,160707,1,0,0:0:0:0:
109,192,160707,1,0,0:0:0:0:
329,192,160873,1,0,0:0:0:0:
475,192,160873,1,0,0:0:0:0:
182,192,160873,1,0,0:0:0:0:
36,192,160873,1,0,0:0:0:0:
182,192,161332,1,0,0:0:0:0:
256,192,161415,1,0,0:0:0:0:
329,192,161436,1,0,0:0:0:0:
475,192,161540,1,0,0:0:0:0:
182,192,161540,1,0,0:0:0:0:
36,192,161540,1,0,0:0:0:0:
329,192,161623,1,0,0:0:0:0:
109,192,161623,1,0,0:0:0:0:
402,192,161707,1,0,0:0:0:0:
182,192,161707,1,0,0:0:0:0:
475,192,161790,1,0,0:0:0:0:
36,192,161790,1,0,0:0:0:0:
182,192,161873,1,0,0:0:0:0:
329,192,161873,1,0,0:0:0:0:
182,192,161957,1,0,0:0:0:0:
329,192,161957,1,0,0:0:0:0:
36,192,162040,1,0,0:0:0:0:
475,192,162040,1,0,0:0:0:0:
109,192,162040,1,0,0:0:0:0:
402,192,162123,1,0,0:0:0:0:
182,192,162207,1,0,0:0:0:0:
36,192,162207,1,0,0:0:0:0:
402,192,162290,1,0,0:0:0:0:
329,192,162290,1,0,0:0:0:0:
109,192,162373,1,0,0:0:0:0:
256,192,162457,1,0,0:0:0:0:
36,192,162457,1,0,0:0:0:0:
475,192,162540,1,0,0:0:0:0:
402,192,162540,1,0,0:0:0:0:
182,192,162623,1,0,0:0:0:0:
36,192,162623,1,0,0:0:0:0:
475,192,162707,1,0,0:0:0:0:
329,192,162707,1,0,0:0:0:0:
109,192,162790,1,0,0:0:0:0:
329,192,162873,1,0,0:0:0:0:
36,192,162873,1,0,0:0:0:0:
402,192,162873,1,0,0:0:0:0:
329,192,162957,1,0,0:0:0:0:
402,192,162957,1,0,0:0:0:0:
109,192,163040,1,0,0:0:0:0:
182,192,163040,1,0,0:0:0:0:
329,192,163123,1,0,0:0:0:0:
475,192,163207,1,0,0:0:0:0:
36,192,163207,1,0,0:0:0:0:
256,192,163207,1,0,0:0:0:0:
402,192,163290,1,0,0:0:0:0:
109,192,163290,1,0,0:0:0:0:
475,192,163373,1,0,0:0:0:0:
329,192,163373,1,0,0:0:0:0:
36,192,163457,1,0,0:0:0:0:
182,192,163457,1,0,0:0:0:0:
109,192,163540,1,0,0:0:0:0:
475,192,163540,1,0,0:0:0:0:
402,192,163540,1,0,0:0:0:0:
256,192,163623,1,0,0:0:0:0:
109,192,163707,1,0,0:0:0:0:
475,192,163707,1,0,0:0:0:0:
402,192,163707,1,0,0:0:0:0:
256,192,163790,1,0,0:0:0:0:
475,192,163873,1,0,0:0:0:0:
36,192,163873,1,0,0:0:0:0:
329,192,163957,1,0,0:0:0:0:
182,192,163957,1,0,0:0:0:0:
109,192,164040,1,0,0:0:0:0:
402,192,164040,1,0,0:0:0:0:
256,192,164123,1,0,0:0:0:0:
182,192,164207,1,0,0:0:0:0:
36,192,164207,1,0,0:0:0:0:
475,192,164290,1,0,0:0:0:0:
402,192,164290,1,0,0:0:0:0:
256,192,164373,1,0,0:0:0:0:
109,192,164373,1,0,0:0:0:0:
36,192,164457,1,0,0:0:0:0:
475,192,164540,1,0,0:0:0:0:
329,192,164540,1,0,0:0:0:0:
182,192,164623,1,0,0:0:0:0:
402,192,164707,1,0,0:0:0:0:
256,192,164707,1,0,0:0:0:0:
36,192,164790,1,0,0:0:0:0:
109,192,164790,1,0,0:0:0:0:
329,192,164873,1,0,0:0:0:0:
475,192,164873,1,0,0:0:0:0:
36,192,164957,1,0,0:0:0:0:
182,192,164957,1,0,0:0:0:0:
256,192,165040,1,0,0:0:0:0:
475,192,165040,1,0,0:0:0:0:
109,192,165123,1,0,0:0:0:0:
402,192,165123,1,0,0:0:0:0:
36,192,165207,1,0,0:0:0:0:
256,192,165207,1,0,0:0:0:0:
329,192,165290,1,0,0:0:0:0:
182,192,165373,1,0,0:0:0:0:
475,192,165373,1,0,0:0:0:0:
109,192,165373,1,0,0:0:0:0:
402,192,165457,1,0,0:0:0:0:
256,192,165540,1,0,0:0:0:0:
36,192,165540,1,0,0:0:0:0:
182,192,165623,1,0,0:0:0:0:
402,192,165707,1,0,0:0:0:0:
329,192,165707,1,0,0:0:0:0:
36,192,165790,1,0,0:0:0:0:
182,192,165790,1,0,0:0:0:0:
475,192,165873,1,0,0:0:0:0:
402,192,165873,1,0,0:0:0:0:
256,192,165957,1,0,0:0:0:0:
109,192,165957,1,0,0:0:0:0:
329,192,166040,1,0,0:0:0:0:
36,192,166040,1,0,0:0:0:0:
182,192,166123,1,0,0:0:0:0:
329,192,166207,1,0,0:0:0:0:
475,192,166207,1,0,0:0:0:0:
36,192,166207,1,0,0:0:0:0:
402,192,166373,1,0,0:0:0:0:
256,192,166373,1,0,0:0:0:0:
182,192,166540,1,0,0:0:0:0:
329,192,166540,1,0,0:0:0:0:
109,192,166707,1,0,0:0:0:0:
256,192,166707,1,0,0:0:0:0:
36,192,166873,5,0,0:0:0:0:
256,192,166873,1,0,0:0:0:0:
329,192,166873,1,0,0:0:0:0:
475,192,166873,1,0,0:0:0:0:
182,192,166873,1,0,0:0:0:0:
402,192,167519,1,0,0:0:0:0:
475,192,167519,1,0,0:0:0:0:
109,192,168207,1,0,0:0:0:0:
329,192,168207,1,0,0:0:0:0:
402,192,168207,1,0,0:0:0:0:
329,192,168373,1,0,0:0:0:0:
182,192,168373,1,0,0:0:0:0:
402,192,168457,1,0,0:0:0:0:
256,192,168457,1,0,0:0:0:0:
109,192,168540,1,0,0:0:0:0:
36,192,168540,1,0,0:0:0:0:
329,192,168540,1,0,0:0:0:0:
475,192,168540,1,0,0:0:0:0:
182,192,168707,1,0,0:0:0:0:
329,192,168707,1,0,0:0:0:0:
475,192,168707,1,0,0:0:0:0:
329,192,168873,1,0,0:0:0:0:
182,192,168873,1,0,0:0:0:0:
402,192,168873,1,0,0:0:0:0:
36,192,168873,1,0,0:0:0:0:
256,192,169040,1,0,0:0:0:0:
109,192,169040,1,0,0:0:0:0:
329,192,169123,1,0,0:0:0:0:
182,192,169123,1,0,0:0:0:0:
36,192,169207,1,0,0:0:0:0:
402,192,169207,1,0,0:0:0:0:
256,192,169207,1,0,0:0:0:0:
109,192,169373,1,0,0:0:0:0:
256,192,169373,1,0,0:0:0:0:
402,192,169373,1,0,0:0:0:0:
182,192,169540,1,0,0:0:0:0:
475,192,169540,1,0,0:0:0:0:
36,192,169540,1,0,0:0:0:0:
329,192,169873,1,0,0:0:0:0:
36,192,170040,1,0,0:0:0:0:
402,192,170206,1,0,0:0:0:0:
329,192,170206,1,0,0:0:0:0:
182,192,170206,1,0,0:0:0:0:
475,192,170373,1,0,0:0:0:0:
109,192,170373,1,0,0:0:0:0:
256,192,170540,1,0,0:0:0:0:
402,192,170706,1,0,0:0:0:0:
182,192,170706,1,0,0:0:0:0:
475,192,170790,1,0,0:0:0:0:
36,192,170873,1,0,0:0:0:0:
182,192,170873,1,0,0:0:0:0:
402,192,171040,1,0,0:0:0:0:
109,192,171040,1,0,0:0:0:0:
329,192,171040,1,0,0:0:0:0:
402,192,171206,1,0,0:0:0:0:
36,192,171206,1,0,0:0:0:0:
256,192,171290,1,0,0:0:0:0:
182,192,171373,1,0,0:0:0:0:
402,192,171373,1,0,0:0:0:0:
329,192,171456,1,0,0:0:0:0:
109,192,171540,1,0,0:0:0:0:
182,192,171540,1,0,0:0:0:0:
475,192,171540,1,0,0:0:0:0:
36,192,171706,1,0,0:0:0:0:
182,192,171873,1,0,0:0:0:0:
402,192,172040,1,0,0:0:0:0:
109,192,172040,1,0,0:0:0:0:
182,192,172040,1,0,0:0:0:0:
36,192,172373,1,0,0:0:0:0:
402,192,172540,1,0,0:0:0:0:
256,192,172540,1,0,0:0:0:0:
36,192,172540,1,0,0:0:0:0:
475,192,172873,1,0,0:0:0:0:
256,192,172873,1,0,0:0:0:0:
329,192,172873,1,0,0:0:0:0:
182,192,173040,1,0,0:0:0:0:
109,192,173040,1,0,0:0:0:0:
256,192,173206,1,0,0:0:0:0:
402,192,173206,1,0,0:0:0:0:
329,192,173373,1,0,0:0:0:0:
402,192,173373,1,0,0:0:0:0:
36,192,173373,1,0,0:0:0:0:
36,192,173706,1,0,0:0:0:0:
402,192,173873,1,0,0:0:0:0:
182,192,173873,1,0,0:0:0:0:
36,192,173873,1,0,0:0:0:0:
256,192,174206,1,0,0:0:0:0:
329,192,174206,1,0,0:0:0:0:
475,192,174373,1,0,0:0:0:0:
109,192,174373,1,0,0:0:0:0:
402,192,174540,1,0,0:0:0:0:
329,192,174706,1,0,0:0:0:0:
182,192,174706,1,0,0:0:0:0:
36,192,174706,1,0,0:0:0:0:
329,192,174873,1,0,0:0:0:0:
475,192,174873,1,0,0:0:0:0:
109,192,174873,1,0,0:0:0:0:
36,192,174873,1,0,0:0:0:0:
256,192,175206,1,0,0:0:0:0:
36,192,175373,1,0,0:0:0:0:
182,192,175540,1,0,0:0:0:0:
402,192,175540,1,0,0:0:0:0:
329,192,175540,1,0,0:0:0:0:
109,192,175706,1,0,0:0:0:0:
475,192,175706,1,0,0:0:0:0:
36,192,175873,1,0,0:0:0:0:
182,192,176040,1,0,0:0:0:0:
402,192,176040,1,0,0:0:0:0:
256,192,176123,1,0,0:0:0:0:
402,192,176206,1,0,0:0:0:0:
36,192,176206,1,0,0:0:0:0:
475,192,176373,1,0,0:0:0:0:
182,192,176373,1,0,0:0:0:0:
109,192,176373,1,0,0:0:0:0:
109,192,176540,1,0,0:0:0:0:
256,192,176540,1,0,0:0:0:0:
329,192,176623,1,0,0:0:0:0:
36,192,176706,1,0,0:0:0:0:
402,192,176706,1,0,0:0:0:0:
329,192,176790,1,0,0:0:0:0:
182,192,176873,1,0,0:0:0:0:
475,192,176873,1,0,0:0:0:0:
36,192,177040,1,0,0:0:0:0:
402,192,177206,1,0,0:0:0:0:
109,192,177373,1,0,0:0:0:0:
256,192,177373,1,0,0:0:0:0:
402,192,177373,1,0,0:0:0:0:
36,192,177706,1,0,0:0:0:0:
402,192,177873,1,0,0:0:0:0:
182,192,177873,1,0,0:0:0:0:
36,192,177873,1,0,0:0:0:0:
256,192,178206,1,0,0:0:0:0:
475,192,178206,1,0,0:0:0:0:
329,192,178206,1,0,0:0:0:0:
109,192,178206,1,0,0:0:0:0:
182,192,178373,1,0,0:0:0:0:
36,192,178373,1,0,0:0:0:0:
329,192,178540,1,0,0:0:0:0:
109,192,178706,1,0,0:0:0:0:
402,192,178706,1,0,0:0:0:0:
256,192,178706,1,0,0:0:0:0:
36,192,179040,1,0,0:0:0:0:
109,192,179040,1,0,0:0:0:0:
402,192,179206,1,0,0:0:0:0:
182,192,179206,1,0,0:0:0:0:
36,192,179206,1,0,0:0:0:0:
475,192,179540,1,0,0:0:0:0:
256,192,179540,1,0,0:0:0:0:
329,192,179540,1,0,0:0:0:0:
109,192,179706,1,0,0:0:0:0:
36,192,180040,1,0,0:0:0:0:
329,192,180206,1,0,0:0:0:0:
475,192,180206,1,0,0:0:0:0:
36,192,180206,1,0,0:0:0:0:
182,192,180206,1,0,0:0:0:0:
109,192,180373,1,0,0:0:0:0:
182,192,180456,1,0,0:0:0:0:
36,192,180540,1,0,0:0:0:0:
182,192,180706,1,0,0:0:0:0:
402,192,180873,1,0,0:0:0:0:
329,192,180873,1,0,0:0:0:0:
182,192,180873,1,0,0:0:0:0:
36,192,181040,1,0,0:0:0:0:
475,192,181040,1,0,0:0:0:0:
256,192,181040,1,0,0:0:0:0:
182,192,181206,1,0,0:0:0:0:
182,192,181373,1,0,0:0:0:0:
402,192,181373,1,0,0:0:0:0:
475,192,181706,1,0,0:0:0:0:
256,192,181706,1,0,0:0:0:0:
182,192,181706,1,0,0:0:0:0:
329,192,181873,1,0,0:0:0:0:
36,192,181873,1,0,0:0:0:0:
475,192,181956,1,0,0:0:0:0:
109,192,181956,1,0,0:0:0:0:
182,192,182040,1,0,0:0:0:0:
402,192,182040,1,0,0:0:0:0:
329,192,182123,1,0,0:0:0:0:
36,192,182123,1,0,0:0:0:0:
182,192,182206,1,0,0:0:0:0:
256,192,182206,1,0,0:0:0:0:
475,192,182206,1,0,0:0:0:0:
36,192,182373,1,0,0:0:0:0:
329,192,182540,1,0,0:0:0:0:
109,192,182706,1,0,0:0:0:0:
402,192,182706,1,0,0:0:0:0:
256,192,182706,1,0,0:0:0:0:
475,192,182706,1,0,0:0:0:0:
182,192,183040,1,0,0:0:0:0:
36,192,183040,1,0,0:0:0:0:
109,192,183206,1,0,0:0:0:0:
329,192,183206,1,0,0:0:0:0:
36,192,183206,1,0,0:0:0:0:
256,192,183206,1,0,0:0:0:0:
182,192,183540,1,0,0:0:0:0:
475,192,183540,1,0,0:0:0:0:
402,192,183540,1,0,0:0:0:0:
36,192,183706,1,0,0:0:0:0:
402,192,183873,1,0,0:0:0:0:
109,192,184040,1,0,0:0:0:0:
182,192,184040,1,0,0:0:0:0:
402,192,184040,1,0,0:0:0:0:
256,192,184040,1,0,0:0:0:0:
36,192,184373,1,0,0:0:0:0:
182,192,184540,1,0,0:0:0:0:
402,192,184540,1,0,0:0:0:0:
36,192,184540,1,0,0:0:0:0:
256,192,184540,1,0,0:0:0:0:
475,192,184873,1,0,0:0:0:0:
256,192,184873,1,0,0:0:0:0:
329,192,184873,1,0,0:0:0:0:
109,192,185040,1,0,0:0:0:0:
36,192,185373,1,0,0:0:0:0:
329,192,185540,1,0,0:0:0:0:
475,192,185540,1,0,0:0:0:0:
36,192,185540,1,0,0:0:0:0:
182,192,185540,1,0,0:0:0:0:
109,192,185706,1,0,0:0:0:0:
182,192,185790,1,0,0:0:0:0:
36,192,185873,1,0,0:0:0:0:
182,192,186040,1,0,0:0:0:0:
402,192,186206,1,0,0:0:0:0:
329,192,186206,1,0,0:0:0:0:
182,192,186206,1,0,0:0:0:0:
256,192,186373,1,0,0:0:0:0:
36,192,186373,1,0,0:0:0:0:
475,192,186373,1,0,0:0:0:0:
182,192,186540,1,0,0:0:0:0:
182,192,186706,1,0,0:0:0:0:
402,192,186706,1,0,0:0:0:0:
475,192,187040,1,0,0:0:0:0:
256,192,187040,1,0,0:0:0:0:
182,192,187040,1,0,0:0:0:0:
329,192,187206,1,0,0:0:0:0:
36,192,187206,1,0,0:0:0:0:
475,192,187290,1,0,0:0:0:0:
109,192,187290,1,0,0:0:0:0:
402,192,187373,1,0,0:0:0:0:
182,192,187373,1,0,0:0:0:0:
329,192,187456,1,0,0:0:0:0:
36,192,187456,1,0,0:0:0:0:
475,192,187540,1,0,0:0:0:0:
256,192,187540,1,0,0:0:0:0:
182,192,187540,1,0,0:0:0:0:
36,192,187706,1,0,0:0:0:0:
329,192,187873,1,0,0:0:0:0:
109,192,188040,1,0,0:0:0:0:
402,192,188040,1,0,0:0:0:0:
475,192,188040,1,0,0:0:0:0:
256,192,188040,1,0,0:0:0:0:
36,192,188373,1,0,0:0:0:0:
182,192,188373,1,0,0:0:0:0:
36,192,188540,1,0,0:0:0:0:
329,192,188540,1,0,0:0:0:0:
256,192,188540,1,0,0:0:0:0:
109,192,188540,1,0,0:0:0:0:
182,192,188873,1,0,0:0:0:0:
475,192,188873,1,0,0:0:0:0:
402,192,188873,1,0,0:0:0:0:
36,192,189040,1,0,0:0:0:0:
402,192,189206,1,0,0:0:0:0:
402,192,189373,1,0,0:0:0:0:
182,192,189373,1,0,0:0:0:0:
256,192,189373,1,0,0:0:0:0:
109,192,189373,1,0,0:0:0:0:
36,192,189706,1,0,0:0:0:0:
36,192,189873,1,0,0:0:0:0:
402,192,189873,1,0,0:0:0:0:
256,192,189873,1,0,0:0:0:0:
182,192,189873,1,0,0:0:0:0:
475,192,190206,1,0,0:0:0:0:
256,192,190206,1,0,0:0:0:0:
329,192,190206,1,0,0:0:0:0:
36,192,190373,1,0,0:0:0:0:
402,192,190540,1,0,0:0:0:0:
329,192,190540,1,0,0:0:0:0:
109,192,190623,1,0,0:0:0:0:
182,192,190623,1,0,0:0:0:0:
402,192,190706,1,0,0:0:0:0:
329,192,190706,1,0,0:0:0:0:
109,192,190790,1,0,0:0:0:0:
182,192,190790,1,0,0:0:0:0:
329,192,190873,1,0,0:0:0:0:
475,192,190873,1,0,0:0:0:0:
402,192,191123,1,0,0:0:0:0:
256,192,191206,1,0,0:0:0:0:
402,192,191206,1,0,0:0:0:0:
109,192,191373,1,0,0:0:0:0:
109,192,191456,1,0,0:0:0:0:
475,192,191540,1,0,0:0:0:0:
402,192,191540,1,0,0:0:0:0:
256,192,191706,1,0,0:0:0:0:
475,192,191873,1,0,0:0:0:0:
36,192,191873,1,0,0:0:0:0:
36,192,191956,1,0,0:0:0:0:
475,192,191956,1,0,0:0:0:0:
402,192,192206,1,0,0:0:0:0:
329,192,192206,1,0,0:0:0:0:
402,192,192290,1,0,0:0:0:0:
329,192,192290,1,0,0:0:0:0:
256,192,192540,1,0,0:0:0:0:
109,192,192706,1,0,0:0:0:0:
109,192,192790,1,0,0:0:0:0:
402,192,192873,1,0,0:0:0:0:
475,192,192873,1,0,0:0:0:0:
402,192,193040,1,0,0:0:0:0:
256,192,193040,1,0,0:0:0:0:
182,192,193206,1,0,0:0:0:0:
109,192,193206,1,0,0:0:0:0:
402,192,193290,1,0,0:0:0:0:
329,192,193290,1,0,0:0:0:0:
182,192,193373,1,0,0:0:0:0:
109,192,193373,1,0,0:0:0:0:
402,192,193456,1,0,0:0:0:0:
329,192,193456,1,0,0:0:0:0:
109,192,193540,1,0,0:0:0:0:
36,192,193540,1,0,0:0:0:0:
402,192,193790,1,0,0:0:0:0:
256,192,193873,1,0,0:0:0:0:
402,192,193873,1,0,0:0:0:0:
109,192,194040,1,0,0:0:0:0:
109,192,194123,1,0,0:0:0:0:
402,192,194206,1,0,0:0:0:0:
475,192,194206,1,0,0:0:0:0:
256,192,194373,1,0,0:0:0:0:
475,192,194540,1,0,0:0:0:0:
36,192,194540,1,0,0:0:0:0:
475,192,194623,1,0,0:0:0:0:
36,192,194623,1,0,0:0:0:0:
329,192,194873,1,0,0:0:0:0:
402,192,194873,1,0,0:0:0:0:
329,192,194956,1,0,0:0:0:0:
402,192,194956,1,0,0:0:0:0:
256,192,195206,1,0,0:0:0:0:
402,192,195290,1,0,0:0:0:0:
109,192,195290,1,0,0:0:0:0:
36,192,195373,1,0,0:0:0:0:
475,192,195373,1,0,0:0:0:0:
329,192,195456,1,0,0:0:0:0:
109,192,195456,1,0,0:0:0:0:
182,192,195540,1,0,0:0:0:0:
475,192,195540,1,0,0:0:0:0:
402,192,195540,1,0,0:0:0:0:
402,192,195706,1,0,0:0:0:0:
256,192,195706,1,0,0:0:0:0:
109,192,195873,1,0,0:0:0:0:
182,192,195873,1,0,0:0:0:0:
402,192,195956,1,0,0:0:0:0:
329,192,195956,1,0,0:0:0:0:
109,192,196040,1,0,0:0:0:0:
182,192,196040,1,0,0:0:0:0:
402,192,196123,1,0,0:0:0:0:
329,192,196123,1,0,0:0:0:0:
36,192,196206,1,0,0:0:0:0:
109,192,196206,1,0,0:0:0:0:
402,192,196456,1,0,0:0:0:0:
256,192,196540,1,0,0:0:0:0:
402,192,196540,1,0,0:0:0:0:
109,192,196706,1,0,0:0:0:0:
109,192,196790,1,0,0:0:0:0:
402,192,196873,1,0,0:0:0:0:
475,192,196873,1,0,0:0:0:0:
256,192,197040,1,0,0:0:0:0:
36,192,197206,1,0,0:0:0:0:
475,192,197206,1,0,0:0:0:0:
36,192,197290,1,0,0:0:0:0:
475,192,197290,1,0,0:0:0:0:
329,192,197540,1,0,0:0:0:0:
402,192,197540,1,0,0:0:0:0:
329,192,197623,1,0,0:0:0:0:
402,192,197623,1,0,0:0:0:0:
256,192,197873,1,0,0:0:0:0:
109,192,198040,1,0,0:0:0:0:
109,192,198123,1,0,0:0:0:0:
475,192,198206,1,0,0:0:0:0:
402,192,198206,1,0,0:0:0:0:
402,192,198373,1,0,0:0:0:0:
256,192,198373,1,0,0:0:0:0:
182,192,198540,1,0,0:0:0:0:
109,192,198540,1,0,0:0:0:0:
402,192,198623,1,0,0:0:0:0:
329,192,198623,1,0,0:0:0:0:
182,192,198706,1,0,0:0:0:0:
109,192,198706,1,0,0:0:0:0:
329,192,198790,1,0,0:0:0:0:
402,192,198790,1,0,0:0:0:0:
36,192,198873,1,0,0:0:0:0:
109,192,198873,1,0,0:0:0:0:
109,192,199123,1,0,0:0:0:0:
256,192,199206,1,0,0:0:0:0:
109,192,199206,1,0,0:0:0:0:
475,192,199373,1,0,0:0:0:0:
475,192,199456,1,0,0:0:0:0:
109,192,199540,1,0,0:0:0:0:
36,192,199540,1,0,0:0:0:0:
256,192,199706,1,0,0:0:0:0:
475,192,199873,1,0,0:0:0:0:
329,192,199873,1,0,0:0:0:0:
109,192,199873,1,0,0:0:0:0:
182,192,199956,1,0,0:0:0:0:
109,192,200040,1,0,0:0:0:0:
256,192,200123,1,0,0:0:0:0:
402,192,200123,1,0,0:0:0:0:
36,192,200123,1,0,0:0:0:0:
182,192,200206,1,0,0:0:0:0:
402,192,200373,1,0,0:0:0:0:
329,192,200373,1,0,0:0:0:0:
402,192,200456,1,0,0:0:0:0:
329,192,200456,1,0,0:0:0:0:
182,192,200540,1,0,0:0:0:0:
182,192,200623,1,0,0:0:0:0:
402,192,200873,1,0,0:0:0:0:
329,192,200873,1,0,0:0:0:0:
402,192,200956,1,0,0:0:0:0:
329,192,200956,1,0,0:0:0:0:
109,192,201040,1,0,0:0:0:0:
109,192,201123,1,0,0:0:0:0:
329,192,201206,1,0,0:0:0:0:
402,192,201206,1,0,0:0:0:0:
36,192,201290,1,0,0:0:0:0:
182,192,201290,1,0,0:0:0:0:
475,192,201373,1,0,0:0:0:0:
329,192,201373,1,0,0:0:0:0:
36,192,201456,1,0,0:0:0:0:
182,192,201456,1,0,0:0:0:0:
402,192,201540,1,0,0:0:0:0:
256,192,201540,1,0,0:0:0:0:
475,192,201540,1,0,0:0:0:0:
329,192,201623,1,0,0:0:0:0:
109,192,201623,1,0,0:0:0:0:
182,192,201706,1,0,0:0:0:0:
402,192,201706,1,0,0:0:0:0:
256,192,201790,1,0,0:0:0:0:
475,192,201790,1,0,0:0:0:0:
109,192,201873,1,0,0:0:0:0:
329,192,201873,1,0,0:0:0:0:
36,192,201873,1,0,0:0:0:0:
475,192,201956,1,0,0:0:0:0:
182,192,201956,1,0,0:0:0:0:
402,192,202040,1,0,0:0:0:0:
256,192,202040,1,0,0:0:0:0:
475,192,202123,1,0,0:0:0:0:
109,192,202123,1,0,0:0:0:0:
36,192,202206,1,0,0:0:0:0:
256,192,202206,1,0,0:0:0:0:
329,192,202290,1,0,0:0:0:0:
182,192,202290,1,0,0:0:0:0:
475,192,202373,1,0,0:0:0:0:
36,192,202373,1,0,0:0:0:0:
329,192,202456,1,0,0:0:0:0:
109,192,202456,1,0,0:0:0:0:
182,192,202540,1,0,0:0:0:0:
475,192,202540,1,0,0:0:0:0:
402,192,202540,1,0,0:0:0:0:
36,192,202623,1,0,0:0:0:0:
256,192,202623,1,0,0:0:0:0:
329,192,202706,1,0,0:0:0:0:
475,192,202706,1,0,0:0:0:0:
182,192,202790,1,0,0:0:0:0:
36,192,202790,1,0,0:0:0:0:
402,192,202873,1,0,0:0:0:0:
256,192,202873,1,0,0:0:0:0:
475,192,202956,1,0,0:0:0:0:
329,192,202956,1,0,0:0:0:0:
36,192,203040,1,0,0:0:0:0:
109,192,203040,1,0,0:0:0:0:
182,192,203081,1,0,0:0:0:0:
402,192,203123,1,0,0:0:0:0:
36,192,203206,1,0,0:0:0:0:
256,192,203206,1,0,0:0:0:0:
109,192,203290,1,0,0:0:0:0:
329,192,203290,1,0,0:0:0:0:
402,192,203373,1,0,0:0:0:0:
182,192,203373,1,0,0:0:0:0:
329,192,203456,1,0,0:0:0:0:
36,192,203456,1,0,0:0:0:0:
182,192,203540,1,0,0:0:0:0:
475,192,203540,1,0,0:0:0:0:
256,192,203581,1,0,0:0:0:0:
329,192,203623,1,0,0:0:0:0:
402,192,203706,1,0,0:0:0:0:
36,192,203706,1,0,0:0:0:0:
109,192,203706,1,0,0:0:0:0:
182,192,203873,1,0,0:0:0:0:
182,192,203956,1,0,0:0:0:0:
475,192,204040,1,0,0:0:0:0:
329,192,204040,1,0,0:0:0:0:
109,192,204040,1,0,0:0:0:0:
36,192,204040,1,0,0:0:0:0:
402,192,204206,1,0,0:0:0:0:
36,192,204206,1,0,0:0:0:0:
475,192,204206,1,0,0:0:0:0:
256,192,204206,1,0,0:0:0:0:
182,192,204290,1,0,0:0:0:0:
402,192,204373,1,0,0:0:0:0:
109,192,204373,1,0,0:0:0:0:
475,192,204456,1,0,0:0:0:0:
256,192,204456,1,0,0:0:0:0:
109,192,204540,1,0,0:0:0:0:
329,192,204540,1,0,0:0:0:0:
36,192,204540,1,0,0:0:0:0:
475,192,204623,1,0,0:0:0:0:
182,192,204623,1,0,0:0:0:0:
256,192,204706,1,0,0:0:0:0:
402,192,204706,1,0,0:0:0:0:
475,192,204790,1,0,0:0:0:0:
109,192,204790,1,0,0:0:0:0:
36,192,204873,1,0,0:0:0:0:
256,192,204873,1,0,0:0:0:0:
329,192,204956,1,0,0:0:0:0:
182,192,204956,1,0,0:0:0:0:
475,192,205040,1,0,0:0:0:0:
36,192,205040,1,0,0:0:0:0:
329,192,205123,1,0,0:0:0:0:
109,192,205123,1,0,0:0:0:0:
475,192,205206,1,0,0:0:0:0:
402,192,205206,1,0,0:0:0:0:
182,192,205206,1,0,0:0:0:0:
256,192,205290,1,0,0:0:0:0:
36,192,205290,1,0,0:0:0:0:
329,192,205373,1,0,0:0:0:0:
475,192,205373,1,0,0:0:0:0:
182,192,205456,1,0,0:0:0:0:
36,192,205456,1,0,0:0:0:0:
402,192,205540,1,0,0:0:0:0:
256,192,205540,1,0,0:0:0:0:
475,192,205623,1,0,0:0:0:0:
329,192,205623,1,0,0:0:0:0:
109,192,205706,1,0,0:0:0:0:
36,192,205706,1,0,0:0:0:0:
182,192,205748,1,0,0:0:0:0:
402,192,205790,1,0,0:0:0:0:
36,192,205873,1,0,0:0:0:0:
256,192,205873,1,0,0:0:0:0:
109,192,205956,1,0,0:0:0:0:
329,192,205956,1,0,0:0:0:0:
182,192,206040,1,0,0:0:0:0:
402,192,206040,1,0,0:0:0:0:
36,192,206123,1,0,0:0:0:0:
329,192,206123,1,0,0:0:0:0:
182,192,206206,1,0,0:0:0:0:
475,192,206206,1,0,0:0:0:0:
329,192,206290,1,0,0:0:0:0:
36,192,206373,1,0,0:0:0:0:
109,192,206373,1,0,0:0:0:0:
402,192,206373,1,0,0:0:0:0:
329,192,206540,1,0,0:0:0:0:
329,192,206623,1,0,0:0:0:0:
109,192,206706,1,0,0:0:0:0:
475,192,206706,1,0,0:0:0:0:
36,192,206706,1,0,0:0:0:0:
402,192,206873,1,0,0:0:0:0:
36,192,206873,1,0,0:0:0:0:
256,192,206873,1,0,0:0:0:0:
475,192,206873,1,0,0:0:0:0:
182,192,206956,1,0,0:0:0:0:
402,192,207040,1,0,0:0:0:0:
109,192,207040,1,0,0:0:0:0:
475,192,207123,1,0,0:0:0:0:
256,192,207123,1,0,0:0:0:0:
36,192,207206,1,0,0:0:0:0:
329,192,207206,1,0,0:0:0:0:
109,192,207206,1,0,0:0:0:0:
182,192,207290,1,0,0:0:0:0:
475,192,207290,1,0,0:0:0:0:
402,192,207373,1,0,0:0:0:0:
256,192,207373,1,0,0:0:0:0:
475,192,207456,1,0,0:0:0:0:
109,192,207456,1,0,0:0:0:0:
36,192,207540,1,0,0:0:0:0:
256,192,207540,1,0,0:0:0:0:
182,192,207623,1,0,0:0:0:0:
329,192,207623,1,0,0:0:0:0:
475,192,207706,1,0,0:0:0:0:
36,192,207706,1,0,0:0:0:0:
329,192,207790,1,0,0:0:0:0:
109,192,207790,1,0,0:0:0:0:
475,192,207873,1,0,0:0:0:0:
402,192,207873,1,0,0:0:0:0:
182,192,207873,1,0,0:0:0:0:
256,192,207956,1,0,0:0:0:0:
36,192,207956,1,0,0:0:0:0:
475,192,208040,1,0,0:0:0:0:
329,192,208040,1,0,0:0:0:0:
36,192,208123,1,0,0:0:0:0:
182,192,208123,1,0,0:0:0:0:
402,192,208206,1,0,0:0:0:0:
256,192,208206,1,0,0:0:0:0:
329,192,208290,1,0,0:0:0:0:
475,192,208290,1,0,0:0:0:0:
36,192,208373,1,0,0:0:0:0:
109,192,208373,1,0,0:0:0:0:
182,192,208415,1,0,0:0:0:0:
402,192,208456,1,0,0:0:0:0:
256,192,208540,1,0,0:0:0:0:
36,192,208540,1,0,0:0:0:0:
109,192,208623,1,0,0:0:0:0:
329,192,208623,1,0,0:0:0:0:
402,192,208706,1,0,0:0:0:0:
182,192,208706,1,0,0:0:0:0:
329,192,208790,1,0,0:0:0:0:
36,192,208790,1,0,0:0:0:0:
182,192,208873,1,0,0:0:0:0:
475,192,208873,1,0,0:0:0:0:
256,192,208915,1,0,0:0:0:0:
329,192,208956,1,0,0:0:0:0:
36,192,209040,1,0,0:0:0:0:
402,192,209040,1,0,0:0:0:0:
109,192,209040,1,0,0:0:0:0:
182,192,209206,1,0,0:0:0:0:
182,192,209290,1,0,0:0:0:0:
36,192,209373,1,0,0:0:0:0:
475,192,209373,1,0,0:0:0:0:
329,192,209373,1,0,0:0:0:0:
109,192,209373,1,0,0:0:0:0:
402,192,209540,1,0,0:0:0:0:
36,192,209540,1,0,0:0:0:0:
256,192,209623,1,0,0:0:0:0:
475,192,209706,1,0,0:0:0:0:
182,192,209706,1,0,0:0:0:0:
329,192,209790,1,0,0:0:0:0:
36,192,209790,1,0,0:0:0:0:
182,192,209873,1,0,0:0:0:0:
109,192,209873,1,0,0:0:0:0:
402,192,209873,1,0,0:0:0:0:
475,192,210040,1,0,0:0:0:0:
256,192,210040,1,0,0:0:0:0:
36,192,210040,1,0,0:0:0:0:
182,192,210123,1,0,0:0:0:0:
109,192,210206,1,0,0:0:0:0:
329,192,210206,1,0,0:0:0:0:
182,192,210290,1,0,0:0:0:0:
475,192,210290,1,0,0:0:0:0:
36,192,210373,1,0,0:0:0:0:
329,192,210373,1,0,0:0:0:0:
402,192,210373,1,0,0:0:0:0:
36,192,210540,1,0,0:0:0:0:
256,192,210540,1,0,0:0:0:0:
475,192,210540,1,0,0:0:0:0:
329,192,210623,1,0,0:0:0:0:
182,192,210706,1,0,0:0:0:0:
402,192,210706,1,0,0:0:0:0:
36,192,210790,1,0,0:0:0:0:
329,192,210790,1,0,0:0:0:0:
109,192,210873,1,0,0:0:0:0:
182,192,210873,1,0,0:0:0:0:
475,192,210873,1,0,0:0:0:0:
475,192,211040,1,0,0:0:0:0:
109,192,211040,1,0,0:0:0:0:
256,192,211123,1,0,0:0:0:0:
36,192,211206,1,0,0:0:0:0:
329,192,211206,1,0,0:0:0:0:
475,192,211290,1,0,0:0:0:0:
182,192,211290,1,0,0:0:0:0:
402,192,211373,1,0,0:0:0:0:
109,192,211373,1,0,0:0:0:0:
329,192,211373,1,0,0:0:0:0:
182,192,211540,1,0,0:0:0:0:
475,192,211540,1,0,0:0:0:0:
402,192,211540,1,0,0:0:0:0:
329,192,211581,1,0,0:0:0:0:
256,192,211706,1,0,0:0:0:0:
109,192,211706,1,0,0:0:0:0:
36,192,211873,1,0,0:0:0:0:
256,192,211873,1,0,0:0:0:0:
402,192,211873,1,0,0:0:0:0:
475,192,211873,1,0,0:0:0:0:
36,192,212206,1,0,0:0:0:0:
109,192,212206,1,0,0:0:0:0:
256,192,212206,1,0,0:0:0:0:
329,192,212290,1,0,0:0:0:0:
475,192,212290,1,0,0:0:0:0:
36,192,212373,1,0,0:0:0:0:
182,192,212373,1,0,0:0:0:0:
256,192,212456,1,0,0:0:0:0:
475,192,212456,1,0,0:0:0:0:
402,192,212456,1,0,0:0:0:0:
109,192,212540,1,0,0:0:0:0:
329,192,212540,1,0,0:0:0:0:
256,192,212623,1,0,0:0:0:0:
36,192,212623,1,0,0:0:0:0:
475,192,212706,1,0,0:0:0:0:
182,192,212706,1,0,0:0:0:0:
402,192,212706,1,0,0:0:0:0:
36,192,212790,1,0,0:0:0:0:
329,192,212790,1,0,0:0:0:0:
182,192,212873,1,0,0:0:0:0:
475,192,212873,1,0,0:0:0:0:
109,192,212873,1,0,0:0:0:0:
329,192,212956,1,0,0:0:0:0:
109,192,213040,1,0,0:0:0:0:
36,192,213040,1,0,0:0:0:0:
402,192,213040,1,0,0:0:0:0:
475,192,213123,1,0,0:0:0:0:
182,192,213123,1,0,0:0:0:0:
329,192,213206,1,0,0:0:0:0:
182,192,213290,1,0,0:0:0:0:
475,192,213290,1,0,0:0:0:0:
109,192,213373,1,0,0:0:0:0:
402,192,213373,1,0,0:0:0:0:
36,192,213373,1,0,0:0:0:0:
329,192,213456,1,0,0:0:0:0:
36,192,213540,1,0,0:0:0:0:
256,192,213540,1,0,0:0:0:0:
475,192,213540,1,0,0:0:0:0:
109,192,213623,1,0,0:0:0:0:
402,192,213623,1,0,0:0:0:0:
329,192,213706,1,0,0:0:0:0:
182,192,213706,1,0,0:0:0:0:
475,192,213790,1,0,0:0:0:0:
36,192,213790,1,0,0:0:0:0:
329,192,213873,1,0,0:0:0:0:
182,192,213873,1,0,0:0:0:0:
402,192,213956,1,0,0:0:0:0:
36,192,213956,1,0,0:0:0:0:
182,192,214040,1,0,0:0:0:0:
256,192,214040,1,0,0:0:0:0:
475,192,214040,1,0,0:0:0:0:
109,192,214123,1,0,0:0:0:0:
329,192,214123,1,0,0:0:0:0:
402,192,214206,1,0,0:0:0:0:
36,192,214206,1,0,0:0:0:0:
475,192,214206,1,0,0:0:0:0:
182,192,214290,1,0,0:0:0:0:
475,192,214373,1,0,0:0:0:0:
402,192,214373,1,0,0:0:0:0:
109,192,214373,1,0,0:0:0:0:
329,192,214456,1,0,0:0:0:0:
36,192,214456,1,0,0:0:0:0:
182,192,214540,1,0,0:0:0:0:
329,192,214623,1,0,0:0:0:0:
36,192,214623,1,0,0:0:0:0:
475,192,214706,1,0,0:0:0:0:
402,192,214706,1,0,0:0:0:0:
109,192,214706,1,0,0:0:0:0:
182,192,214790,1,0,0:0:0:0:
256,192,214873,1,0,0:0:0:0:
475,192,214873,1,0,0:0:0:0:
36,192,214873,1,0,0:0:0:0:
109,192,214956,1,0,0:0:0:0:
402,192,214956,1,0,0:0:0:0:
182,192,215040,1,0,0:0:0:0:
329,192,215040,1,0,0:0:0:0:
402,192,215123,1,0,0:0:0:0:
475,192,215123,1,0,0:0:0:0:
109,192,215123,1,0,0:0:0:0:
256,192,215206,1,0,0:0:0:0:
36,192,215206,1,0,0:0:0:0:
329,192,215290,1,0,0:0:0:0:
182,192,215290,1,0,0:0:0:0:
475,192,215373,1,0,0:0:0:0:
36,192,215373,1,0,0:0:0:0:
402,192,215456,1,0,0:0:0:0:
109,192,215456,1,0,0:0:0:0:
182,192,215540,1,0,0:0:0:0:
475,192,215540,1,0,0:0:0:0:
329,192,215623,1,0,0:0:0:0:
36,192,215706,1,0,0:0:0:0:
109,192,215706,1,0,0:0:0:0:
256,192,215706,1,0,0:0:0:0:
475,192,215790,1,0,0:0:0:0:
402,192,215790,1,0,0:0:0:0:
182,192,215790,1,0,0:0:0:0:
329,192,215873,1,0,0:0:0:0:
109,192,215873,1,0,0:0:0:0:
475,192,215956,1,0,0:0:0:0:
402,192,215956,1,0,0:0:0:0:
36,192,215956,1,0,0:0:0:0:
182,192,216040,1,0,0:0:0:0:
256,192,216040,1,0,0:0:0:0:
329,192,216123,1,0,0:0:0:0:
109,192,216206,1,0,0:0:0:0:
475,192,216206,1,0,0:0:0:0:
36,192,216206,1,0,0:0:0:0:
402,192,216290,1,0,0:0:0:0:
182,192,216373,1,0,0:0:0:0:
109,192,216373,1,0,0:0:0:0:
329,192,216373,1,0,0:0:0:0:
182,192,216456,1,0,0:0:0:0:
109,192,216456,1,0,0:0:0:0:
402,192,216540,1,0,0:0:0:0:
329,192,216540,1,0,0:0:0:0:
402,192,216623,1,0,0:0:0:0:
329,192,216623,1,0,0:0:0:0:
182,192,216706,1,0,0:0:0:0:
36,192,216706,1,0,0:0:0:0:
109,192,216790,1,0,0:0:0:0:
329,192,216873,1,0,0:0:0:0:
182,192,216873,1,0,0:0:0:0:
402,192,216956,1,0,0:0:0:0:
182,192,217040,1,0,0:0:0:0:
109,192,217040,1,0,0:0:0:0:
475,192,217040,1,0,0:0:0:0:
109,192,217123,1,0,0:0:0:0:
182,192,217123,1,0,0:0:0:0:
475,192,217206,1,0,0:0:0:0:
402,192,217206,1,0,0:0:0:0:
329,192,217290,1,0,0:0:0:0:
256,192,217373,1,0,0:0:0:0:
109,192,217540,1,0,0:0:0:0:
256,192,217540,1,0,0:0:0:0:
36,192,217540,1,0,0:0:0:0:
475,192,217623,1,0,0:0:0:0:
329,192,217623,1,0,0:0:0:0:
36,192,217706,1,0,0:0:0:0:
182,192,217706,1,0,0:0:0:0:
402,192,217790,1,0,0:0:0:0:
475,192,217790,1,0,0:0:0:0:
256,192,217790,1,0,0:0:0:0:
329,192,217873,1,0,0:0:0:0:
109,192,217873,1,0,0:0:0:0:
36,192,217956,1,0,0:0:0:0:
256,192,217956,1,0,0:0:0:0:
182,192,218040,1,0,0:0:0:0:
475,192,218040,1,0,0:0:0:0:
402,192,218040,1,0,0:0:0:0:
36,192,218123,1,0,0:0:0:0:
329,192,218123,1,0,0:0:0:0:
475,192,218206,1,0,0:0:0:0:
109,192,218206,1,0,0:0:0:0:
182,192,218206,1,0,0:0:0:0:
329,192,218290,1,0,0:0:0:0:
36,192,218373,1,0,0:0:0:0:
109,192,218373,1,0,0:0:0:0:
402,192,218373,1,0,0:0:0:0:
475,192,218456,1,0,0:0:0:0:
182,192,218456,1,0,0:0:0:0:
329,192,218540,1,0,0:0:0:0:
475,192,218623,1,0,0:0:0:0:
182,192,218623,1,0,0:0:0:0:
109,192,218706,1,0,0:0:0:0:
402,192,218706,1,0,0:0:0:0:
36,192,218706,1,0,0:0:0:0:
329,192,218790,1,0,0:0:0:0:
475,192,218873,1,0,0:0:0:0:
36,192,218873,1,0,0:0:0:0:
256,192,218873,1,0,0:0:0:0:
402,192,218956,1,0,0:0:0:0:
109,192,218956,1,0,0:0:0:0:
329,192,219040,1,0,0:0:0:0:
182,192,219040,1,0,0:0:0:0:
36,192,219123,1,0,0:0:0:0:
475,192,219123,1,0,0:0:0:0:
329,192,219206,1,0,0:0:0:0:
182,192,219206,1,0,0:0:0:0:
36,192,219290,1,0,0:0:0:0:
402,192,219290,1,0,0:0:0:0:
256,192,219373,1,0,0:0:0:0:
475,192,219373,1,0,0:0:0:0:
182,192,219373,1,0,0:0:0:0:
109,192,219456,1,0,0:0:0:0:
329,192,219456,1,0,0:0:0:0:
402,192,219540,1,0,0:0:0:0:
36,192,219540,1,0,0:0:0:0:
475,192,219540,1,0,0:0:0:0:
182,192,219623,1,0,0:0:0:0:
402,192,219706,1,0,0:0:0:0:
109,192,219706,1,0,0:0:0:0:
475,192,219706,1,0,0:0:0:0:
36,192,219790,1,0,0:0:0:0:
329,192,219790,1,0,0:0:0:0:
182,192,219873,1,0,0:0:0:0:
329,192,219956,1,0,0:0:0:0:
36,192,219956,1,0,0:0:0:0:
402,192,220040,1,0,0:0:0:0:
109,192,220040,1,0,0:0:0:0:
475,192,220040,1,0,0:0:0:0:
182,192,220123,1,0,0:0:0:0:
256,192,220206,1,0,0:0:0:0:
475,192,220206,1,0,0:0:0:0:
36,192,220206,1,0,0:0:0:0:
402,192,220290,1,0,0:0:0:0:
109,192,220290,1,0,0:0:0:0:
329,192,220373,1,0,0:0:0:0:
182,192,220373,1,0,0:0:0:0:
475,192,220456,1,0,0:0:0:0:
402,192,220456,1,0,0:0:0:0:
109,192,220456,1,0,0:0:0:0:
36,192,220540,1,0,0:0:0:0:
256,192,220540,1,0,0:0:0:0:
182,192,220623,1,0,0:0:0:0:
329,192,220623,1,0,0:0:0:0:
36,192,220706,1,0,0:0:0:0:
475,192,220706,1,0,0:0:0:0:
109,192,220790,1,0,0:0:0:0:
402,192,220790,1,0,0:0:0:0:
182,192,220873,1,0,0:0:0:0:
475,192,220873,1,0,0:0:0:0:
329,192,220956,1,0,0:0:0:0:
109,192,221040,1,0,0:0:0:0:
36,192,221040,1,0,0:0:0:0:
256,192,221040,1,0,0:0:0:0:
402,192,221123,1,0,0:0:0:0:
182,192,221123,1,0,0:0:0:0:
475,192,221123,1,0,0:0:0:0:
109,192,221206,1,0,0:0:0:0:
329,192,221206,1,0,0:0:0:0:
475,192,221290,1,0,0:0:0:0:
36,192,221290,1,0,0:0:0:0:
402,192,221290,1,0,0:0:0:0:
256,192,221373,1,0,0:0:0:0:
182,192,221373,1,0,0:0:0:0:
329,192,221456,1,0,0:0:0:0:
109,192,221540,1,0,0:0:0:0:
36,192,221540,1,0,0:0:0:0:
475,192,221540,1,0,0:0:0:0:
402,192,221623,1,0,0:0:0:0:
109,192,221706,1,0,0:0:0:0:
182,192,221706,1,0,0:0:0:0:
329,192,221706,1,0,0:0:0:0:
36,192,221790,1,0,0:0:0:0:
329,192,221873,1,0,0:0:0:0:
402,192,221873,1,0,0:0:0:0:
182,192,221873,1,0,0:0:0:0:
329,192,221956,1,0,0:0:0:0:
402,192,221956,1,0,0:0:0:0:
36,192,222040,1,0,0:0:0:0:
109,192,222123,1,0,0:0:0:0:
475,192,222206,1,0,0:0:0:0:
182,192,222206,1,0,0:0:0:0:
402,192,222206,1,0,0:0:0:0:
402,192,222373,1,0,0:0:0:0:
329,192,222373,1,0,0:0:0:0:
182,192,222373,1,0,0:0:0:0:
256,192,222540,1,0,0:0:0:0:
402,192,222540,1,0,0:0:0:0:
182,192,222540,1,0,0:0:0:0:
109,192,222706,1,0,0:0:0:0:
182,192,222706,1,0,0:0:0:0:
402,192,222706,1,0,0:0:0:0:
182,192,222873,1,0,0:0:0:0:
256,192,222873,1,0,0:0:0:0:
402,192,222873,1,0,0:0:0:0:
475,192,222873,1,0,0:0:0:0:
36,192,222873,1,0,0:0:0:0:
475,192,223040,1,0,0:0:0:0:
36,192,223206,1,0,0:0:0:0:
182,192,223206,1,0,0:0:0:0:
109,192,223206,1,0,0:0:0:0:
475,192,223540,1,0,0:0:0:0:
182,192,223873,1,0,0:0:0:0:
256,192,223873,1,0,0:0:0:0:
182,192,224123,1,0,0:0:0:0:
36,192,224206,1,0,0:0:0:0:
36,192,224373,1,0,0:0:0:0:
256,192,224540,1,0,0:0:0:0:
182,192,224540,1,0,0:0:0:0:
402,192,224873,1,0,0:0:0:0:
109,192,224873,1,0,0:0:0:0:
475,192,224984,1,0,0:0:0:0:
402,192,225095,1,0,0:0:0:0:
256,192,225206,1,0,0:0:0:0:
182,192,225206,1,0,0:0:0:0:
329,192,225373,1,0,0:0:0:0:
182,192,225456,1,0,0:0:0:0:
36,192,225540,1,0,0:0:0:0:
475,192,225706,1,0,0:0:0:0:
36,192,225706,1,0,0:0:0:0:
182,192,225873,1,0,0:0:0:0:
256,192,225873,1,0,0:0:0:0:
402,192,226040,1,0,0:0:0:0:
109,192,226206,1,0,0:0:0:0:
36,192,226540,1,0,0:0:0:0:
182,192,226540,1,0,0:0:0:0:
256,192,226540,1,0,0:0:0:0:
182,192,226790,1,0,0:0:0:0:
475,192,226873,1,0,0:0:0:0:
475,192,227040,1,0,0:0:0:0:
182,192,227206,1,0,0:0:0:0:
256,192,227206,1,0,0:0:0:0:
402,192,227540,1,0,0:0:0:0:
182,192,227873,1,0,0:0:0:0:
256,192,227873,1,0,0:0:0:0:
475,192,228206,1,0,0:0:0:0:
402,192,228206,1,0,0:0:0:0:
256,192,228206,1,0,0:0:0:0:
109,192,228206,1,0,0:0:0:0:
36,192,228206,1,0,0:0:0:0:
182,192,228373,1,0,0:0:0:0:
256,192,228456,1,0,0:0:0:0:
329,192,228540,1,0,0:0:0:0:
182,192,228540,1,0,0:0:0:0:
36,192,228540,1,0,0:0:0:0:
475,192,228540,1,0,0:0:0:0:
402,192,228706,1,0,0:0:0:0:
109,192,228706,1,0,0:0:0:0:
329,192,229040,1,0,0:0:0:0:
109,192,229040,1,0,0:0:0:0:
182,192,229123,1,0,0:0:0:0:
402,192,229206,1,0,0:0:0:0:
256,192,229206,1,0,0:0:0:0:
36,192,229206,1,0,0:0:0:0:
109,192,229290,1,0,0:0:0:0:
256,192,229373,1,0,0:0:0:0:
182,192,229456,1,0,0:0:0:0:
475,192,229456,1,0,0:0:0:0:
329,192,229456,1,0,0:0:0:0:
109,192,229540,1,0,0:0:0:0:
36,192,229540,1,0,0:0:0:0:
182,192,229706,1,0,0:0:0:0:
329,192,229706,1,0,0:0:0:0:
475,192,229748,1,0,0:0:0:0:
36,192,229790,1,0,0:0:0:0:
402,192,229790,1,0,0:0:0:0:
109,192,229873,1,0,0:0:0:0:
256,192,229873,1,0,0:0:0:0:
402,192,229956,1,0,0:0:0:0:
182,192,229956,1,0,0:0:0:0:
329,192,230040,1,0,0:0:0:0:
475,192,230040,1,0,0:0:0:0:
182,192,230123,1,0,0:0:0:0:
36,192,230123,1,0,0:0:0:0:
475,192,230206,1,0,0:0:0:0:
256,192,230206,1,0,0:0:0:0:
402,192,230248,1,0,0:0:0:0:
36,192,230290,1,0,0:0:0:0:
329,192,230290,1,0,0:0:0:0:
402,192,230373,1,0,0:0:0:0:
109,192,230373,1,0,0:0:0:0:
475,192,230456,1,0,0:0:0:0:
182,192,230456,1,0,0:0:0:0:
36,192,230540,1,0,0:0:0:0:
329,192,230540,1,0,0:0:0:0:
256,192,230623,1,0,0:0:0:0:
182,192,230623,1,0,0:0:0:0:
109,192,230706,1,0,0:0:0:0:
475,192,230706,1,0,0:0:0:0:
256,192,230790,1,0,0:0:0:0:
402,192,230873,1,0,0:0:0:0:
475,192,230873,1,0,0:0:0:0:
182,192,230873,1,0,0:0:0:0:
36,192,230873,1,0,0:0:0:0:
329,192,231040,1,0,0:0:0:0:
256,192,231123,1,0,0:0:0:0:
182,192,231206,1,0,0:0:0:0:
329,192,231206,1,0,0:0:0:0:
36,192,231206,1,0,0:0:0:0:
475,192,231206,1,0,0:0:0:0:
402,192,231373,1,0,0:0:0:0:
109,192,231373,1,0,0:0:0:0:
109,192,231623,1,0,0:0:0:0:
182,192,231706,1,0,0:0:0:0:
109,192,231790,1,0,0:0:0:0:
329,192,231873,1,0,0:0:0:0:
402,192,231873,1,0,0:0:0:0:
182,192,231873,1,0,0:0:0:0:
36,192,231873,1,0,0:0:0:0:
329,192,232040,1,0,0:0:0:0:
109,192,232206,1,0,0:0:0:0:
402,192,232290,1,0,0:0:0:0:
329,192,232373,1,0,0:0:0:0:
402,192,232456,1,0,0:0:0:0:
475,192,232540,1,0,0:0:0:0:
182,192,232540,1,0,0:0:0:0:
109,192,232540,1,0,0:0:0:0:
329,192,232540,1,0,0:0:0:0:
182,192,232706,1,0,0:0:0:0:
402,192,232873,1,0,0:0:0:0:
36,192,232873,1,0,0:0:0:0:
475,192,232956,1,0,0:0:0:0:
402,192,233040,1,0,0:0:0:0:
182,192,233040,1,0,0:0:0:0:
36,192,233123,1,0,0:0:0:0:
329,192,233206,1,0,0:0:0:0:
182,192,233206,1,0,0:0:0:0:
109,192,233206,1,0,0:0:0:0:
109,192,233373,1,0,0:0:0:0:
329,192,233373,1,0,0:0:0:0:
402,192,233373,1,0,0:0:0:0:
329,192,233456,1,0,0:0:0:0:
402,192,233456,1,0,0:0:0:0:
182,192,233540,1,0,0:0:0:0:
36,192,233540,1,0,0:0:0:0:
475,192,233706,1,0,0:0:0:0:
329,192,233706,1,0,0:0:0:0:
36,192,233873,1,0,0:0:0:0:
256,192,233873,1,0,0:0:0:0:
109,192,233873,1,0,0:0:0:0:
475,192,234206,1,0,0:0:0:0:
256,192,234540,1,0,0:0:0:0:
182,192,234540,1,0,0:0:0:0:
182,192,234790,1,0,0:0:0:0:
36,192,234873,1,0,0:0:0:0:
36,192,235040,1,0,0:0:0:0:
182,192,235206,1,0,0:0:0:0:
256,192,235206,1,0,0:0:0:0:
109,192,235540,1,0,0:0:0:0:
402,192,235540,1,0,0:0:0:0:
475,192,235651,1,0,0:0:0:0:
402,192,235762,1,0,0:0:0:0:
182,192,235873,1,0,0:0:0:0:
256,192,235873,1,0,0:0:0:0:
329,192,236040,1,0,0:0:0:0:
182,192,236123,1,0,0:0:0:0:
36,192,236206,1,0,0:0:0:0:
475,192,236373,1,0,0:0:0:0:
36,192,236373,1,0,0:0:0:0:
256,192,236540,1,0,0:0:0:0:
182,192,236540,1,0,0:0:0:0:
402,192,236706,1,0,0:0:0:0:
109,192,236873,1,0,0:0:0:0:
36,192,237206,1,0,0:0:0:0:
182,192,237206,1,0,0:0:0:0:
256,192,237206,1,0,0:0:0:0:
182,192,237456,1,0,0:0:0:0:
475,192,237540,1,0,0:0:0:0:
475,192,237706,1,0,0:0:0:0:
182,192,237873,1,0,0:0:0:0:
256,192,237873,1,0,0:0:0:0:
402,192,238206,1,0,0:0:0:0:
329,192,238540,1,0,0:0:0:0:
256,192,238540,1,0,0:0:0:0:
182,192,238540,1,0,0:0:0:0:
402,192,238873,1,0,0:0:0:0:
109,192,238873,1,0,0:0:0:0:
475,192,238873,1,0,0:0:0:0:
256,192,238873,1,0,0:0:0:0:
36,192,238873,1,0,0:0:0:0:
182,192,239040,1,0,0:0:0:0:
256,192,239123,1,0,0:0:0:0:
182,192,239206,1,0,0:0:0:0:
329,192,239206,1,0,0:0:0:0:
475,192,239206,1,0,0:0:0:0:
36,192,239206,1,0,0:0:0:0:
402,192,239373,1,0,0:0:0:0:
109,192,239373,1,0,0:0:0:0:
329,192,239706,1,0,0:0:0:0:
109,192,239706,1,0,0:0:0:0:
182,192,239790,1,0,0:0:0:0:
402,192,239873,1,0,0:0:0:0:
36,192,239873,1,0,0:0:0:0:
256,192,239873,1,0,0:0:0:0:
109,192,239956,1,0,0:0:0:0:
256,192,240040,1,0,0:0:0:0:
329,192,240123,1,0,0:0:0:0:
182,192,240123,1,0,0:0:0:0:
475,192,240123,1,0,0:0:0:0:
109,192,240206,1,0,0:0:0:0:
36,192,240206,1,0,0:0:0:0:
182,192,240373,1,0,0:0:0:0:
329,192,240373,1,0,0:0:0:0:
475,192,240415,1,0,0:0:0:0:
402,192,240456,1,0,0:0:0:0:
36,192,240456,1,0,0:0:0:0:
109,192,240540,1,0,0:0:0:0:
256,192,240540,1,0,0:0:0:0:
402,192,240623,1,0,0:0:0:0:
182,192,240623,1,0,0:0:0:0:
329,192,240706,1,0,0:0:0:0:
475,192,240706,1,0,0:0:0:0:
36,192,240790,1,0,0:0:0:0:
182,192,240790,1,0,0:0:0:0:
256,192,240873,1,0,0:0:0:0:
475,192,240873,1,0,0:0:0:0:
402,192,240915,1,0,0:0:0:0:
329,192,240956,1,0,0:0:0:0:
36,192,240956,1,0,0:0:0:0:
109,192,241040,1,0,0:0:0:0:
402,192,241040,1,0,0:0:0:0:
182,192,241123,1,0,0:0:0:0:
475,192,241123,1,0,0:0:0:0:
36,192,241206,1,0,0:0:0:0:
329,192,241206,1,0,0:0:0:0:
182,192,241290,1,0,0:0:0:0:
256,192,241290,1,0,0:0:0:0:
109,192,241373,1,0,0:0:0:0:
475,192,241373,1,0,0:0:0:0:
256,192,241456,1,0,0:0:0:0:
36,192,241540,1,0,0:0:0:0:
402,192,241540,1,0,0:0:0:0:
475,192,241540,1,0,0:0:0:0:
182,192,241540,1,0,0:0:0:0:
329,192,241706,1,0,0:0:0:0:
256,192,241790,1,0,0:0:0:0:
182,192,241873,1,0,0:0:0:0:
329,192,241873,1,0,0:0:0:0:
36,192,241873,1,0,0:0:0:0:
475,192,241873,1,0,0:0:0:0:
402,192,242040,1,0,0:0:0:0:
109,192,242040,1,0,0:0:0:0:
109,192,242290,1,0,0:0:0:0:
182,192,242373,1,0,0:0:0:0:
109,192,242456,1,0,0:0:0:0:
36,192,242540,1,0,0:0:0:0:
329,192,242540,1,0,0:0:0:0:
182,192,242540,1,0,0:0:0:0:
402,192,242540,1,0,0:0:0:0:
329,192,242706,1,0,0:0:0:0:
109,192,242873,1,0,0:0:0:0:
402,192,242956,1,0,0:0:0:0:
329,192,243040,1,0,0:0:0:0:
402,192,243123,1,0,0:0:0:0:
475,192,243206,1,0,0:0:0:0:
329,192,243206,1,0,0:0:0:0:
182,192,243206,1,0,0:0:0:0:
109,192,243206,1,0,0:0:0:0:
182,192,243373,1,0,0:0:0:0:
36,192,243540,1,0,0:0:0:0:
329,192,243706,1,0,0:0:0:0:
182,192,243790,1,0,0:0:0:0:
109,192,243873,1,0,0:0:0:0:
402,192,243873,1,0,0:0:0:0:
329,192,243873,1,0,0:0:0:0:
182,192,244040,1,0,0:0:0:0:
475,192,244206,1,0,0:0:0:0:
256,192,244206,1,0,0:0:0:0:
109,192,244206,1,0,0:0:0:0:
36,192,244206,1,0,0:0:0:0:
402,192,244290,1,0,0:0:0:0:
182,192,244373,1,0,0:0:0:0:
329,192,244456,1,0,0:0:0:0:
109,192,244540,1,0,0:0:0:0:
36,192,244540,1,0,0:0:0:0:
402,192,244623,1,0,0:0:0:0:
182,192,244706,1,0,0:0:0:0:
329,192,244790,1,0,0:0:0:0:
109,192,244873,1,0,0:0:0:0:
402,192,244956,1,0,0:0:0:0:
182,192,245040,1,0,0:0:0:0:
329,192,245123,1,0,0:0:0:0:
36,192,245206,1,0,0:0:0:0:
109,192,245206,1,0,0:0:0:0:
402,192,245290,1,0,0:0:0:0:
182,192,245373,1,0,0:0:0:0:
329,192,245456,1,0,0:0:0:0:
109,192,245540,1,0,0:0:0:0:
402,192,245623,1,0,0:0:0:0:
182,192,245706,1,0,0:0:0:0:
329,192,245790,1,0,0:0:0:0:
36,192,245873,1,0,0:0:0:0:
109,192,245873,1,0,0:0:0:0:
402,192,245956,1,0,0:0:0:0:
182,192,246040,1,0,0:0:0:0:
402,192,246123,1,0,0:0:0:0:
109,192,246206,1,0,0:0:0:0:
329,192,246290,1,0,0:0:0:0:
109,192,246373,1,0,0:0:0:0:
402,192,246456,1,0,0:0:0:0:
182,192,246540,1,0,0:0:0:0:
36,192,246540,1,0,0:0:0:0:
329,192,246623,1,0,0:0:0:0:
109,192,246706,1,0,0:0:0:0:
402,192,246790,1,0,0:0:0:0:
182,192,246873,1,0,0:0:0:0:
329,192,246956,1,0,0:0:0:0:
182,192,247040,1,0,0:0:0:0:
402,192,247123,1,0,0:0:0:0:
36,192,247206,1,0,0:0:0:0:
109,192,247206,1,0,0:0:0:0:
329,192,247290,1,0,0:0:0:0:
109,192,247373,1,0,0:0:0:0:
182,192,247373,1,0,0:0:0:0:
402,192,247456,1,0,0:0:0:0:
109,192,247540,1,0,0:0:0:0:
36,192,247540,1,0,0:0:0:0:
329,192,247623,1,0,0:0:0:0:
182,192,247706,1,0,0:0:0:0:
402,192,247790,1,0,0:0:0:0:
109,192,247873,1,0,0:0:0:0:
36,192,247873,1,0,0:0:0:0:
329,192,247956,1,0,0:0:0:0:
182,192,248040,1,0,0:0:0:0:
402,192,248123,1,0,0:0:0:0:
109,192,248206,1,0,0:0:0:0:
329,192,248290,1,0,0:0:0:0:
182,192,248373,1,0,0:0:0:0:
402,192,248456,1,0,0:0:0:0:
109,192,248540,1,0,0:0:0:0:
36,192,248540,1,0,0:0:0:0:
329,192,248623,1,0,0:0:0:0:
182,192,248706,1,0,0:0:0:0:
402,192,248790,1,0,0:0:0:0:
109,192,248873,1,0,0:0:0:0:
329,192,248956,1,0,0:0:0:0:
182,192,249040,1,0,0:0:0:0:
402,192,249123,1,0,0:0:0:0:
36,192,249206,1,0,0:0:0:0:
109,192,249206,1,0,0:0:0:0:
329,192,249290,1,0,0:0:0:0:
182,192,249373,1,0,0:0:0:0:
329,192,249456,1,0,0:0:0:0:
475,192,249540,1,0,0:0:0:0:
256,192,249540,1,0,0:0:0:0:
36,192,249540,1,0,0:0:0:0:
109,192,249540,1,0,0:0:0:0:
402,192,249623,1,0,0:0:0:0:
109,192,249706,1,0,0:0:0:0:
402,192,249790,1,0,0:0:0:0:
109,192,249873,1,0,0:0:0:0:
182,192,249873,1,0,0:0:0:0:
329,192,249956,1,0,0:0:0:0:
109,192,250040,1,0,0:0:0:0:
402,192,250123,1,0,0:0:0:0:
182,192,250206,1,0,0:0:0:0:
329,192,250290,1,0,0:0:0:0:
109,192,250373,1,0,0:0:0:0:
402,192,250456,1,0,0:0:0:0:
182,192,250540,1,0,0:0:0:0:
109,192,250540,1,0,0:0:0:0:
402,192,250623,1,0,0:0:0:0:
109,192,250706,1,0,0:0:0:0:
402,192,250790,1,0,0:0:0:0:
182,192,250873,1,0,0:0:0:0:
329,192,250956,1,0,0:0:0:0:
109,192,251040,1,0,0:0:0:0:
402,192,251123,1,0,0:0:0:0:
182,192,251206,1,0,0:0:0:0:
109,192,251206,1,0,0:0:0:0:
402,192,251290,1,0,0:0:0:0:
109,192,251373,1,0,0:0:0:0:
402,192,251456,1,0,0:0:0:0:
182,192,251540,1,0,0:0:0:0:
329,192,251623,1,0,0:0:0:0:
109,192,251706,1,0,0:0:0:0:
402,192,251790,1,0,0:0:0:0:
109,192,251873,1,0,0:0:0:0:
182,192,251873,1,0,0:0:0:0:
402,192,251956,1,0,0:0:0:0:
109,192,252040,1,0,0:0:0:0:
402,192,252123,1,0,0:0:0:0:
182,192,252206,1,0,0:0:0:0:
329,192,252290,1,0,0:0:0:0:
182,192,252373,1,0,0:0:0:0:
402,192,252456,1,0,0:0:0:0:
36,192,252540,1,0,0:0:0:0:
109,192,252540,1,0,0:0:0:0:
329,192,252623,1,0,0:0:0:0:
182,192,252706,1,0,0:0:0:0:
109,192,252706,1,0,0:0:0:0:
402,192,252790,1,0,0:0:0:0:
36,192,252873,1,0,0:0:0:0:
109,192,252873,1,0,0:0:0:0:
329,192,252956,1,0,0:0:0:0:
182,192,253040,1,0,0:0:0:0:
402,192,253123,1,0,0:0:0:0:
109,192,253206,1,0,0:0:0:0:
36,192,253206,1,0,0:0:0:0:
329,192,253290,1,0,0:0:0:0:
182,192,253373,1,0,0:0:0:0:
402,192,253456,1,0,0:0:0:0:
109,192,253540,1,0,0:0:0:0:
329,192,253623,1,0,0:0:0:0:
182,192,253706,1,0,0:0:0:0:
402,192,253790,1,0,0:0:0:0:
109,192,253873,1,0,0:0:0:0:
36,192,253873,1,0,0:0:0:0:
329,192,253956,1,0,0:0:0:0:
182,192,254040,1,0,0:0:0:0:
402,192,254123,1,0,0:0:0:0:
109,192,254206,1,0,0:0:0:0:
329,192,254290,1,0,0:0:0:0:
182,192,254373,1,0,0:0:0:0:
402,192,254456,1,0,0:0:0:0:
109,192,254540,1,0,0:0:0:0:
256,192,254540,1,0,0:0:0:0:
475,192,254873,1,0,0:0:0:0:
329,192,254873,1,0,0:0:0:0:
256,192,254873,1,0,0:0:0:0:
36,192,254873,1,0,0:0:0:0:
182,192,254873,1,0,0:0:0:0:
402,192,255206,1,0,0:0:0:0:
182,192,255540,1,0,0:0:0:0:
182,192,255706,1,0,0:0:0:0:
182,192,255873,1,0,0:0:0:0:
329,192,256206,1,0,0:0:0:0:
109,192,256540,1,0,0:0:0:0:
109,192,256706,1,0,0:0:0:0:
182,192,256790,1,0,0:0:0:0:
36,192,256873,1,0,0:0:0:0:
182,192,257040,1,0,0:0:0:0:
329,192,257206,1,0,0:0:0:0:
475,192,257206,1,0,0:0:0:0:
36,192,257206,1,0,0:0:0:0:
182,192,257373,1,0,0:0:0:0:
329,192,257373,1,0,0:0:0:0:
109,192,257540,1,0,0:0:0:0:
182,192,257540,1,0,0:0:0:0:
402,192,257540,1,0,0:0:0:0:
329,192,257706,1,0,0:0:0:0:
109,192,257706,1,0,0:0:0:0:
256,192,257873,1,0,0:0:0:0:
109,192,257873,1,0,0:0:0:0:
182,192,258040,1,0,0:0:0:0:
36,192,258040,1,0,0:0:0:0:
329,192,258040,1,0,0:0:0:0:
402,192,258040,1,0,0:0:0:0:
402,192,258206,1,0,0:0:0:0:
182,192,258373,1,0,0:0:0:0:
109,192,258373,1,0,0:0:0:0:
402,192,258373,1,0,0:0:0:0:
182,192,258540,1,0,0:0:0:0:
36,192,258540,1,0,0:0:0:0:
329,192,258540,1,0,0:0:0:0:
475,192,258540,1,0,0:0:0:0:
182,192,258873,1,0,0:0:0:0:
36,192,258873,1,0,0:0:0:0:
402,192,258956,1,0,0:0:0:0:
329,192,258956,1,0,0:0:0:0:
109,192,259040,1,0,0:0:0:0:
182,192,259040,1,0,0:0:0:0:
402,192,259123,1,0,0:0:0:0:
329,192,259123,1,0,0:0:0:0:
36,192,259206,1,0,0:0:0:0:
109,192,259206,1,0,0:0:0:0:
329,192,259373,1,0,0:0:0:0:
256,192,259373,1,0,0:0:0:0:
182,192,259540,1,0,0:0:0:0:
109,192,259540,1,0,0:0:0:0:
329,192,259540,1,0,0:0:0:0:
475,192,259540,1,0,0:0:0:0:
256,192,259706,1,0,0:0:0:0:
182,192,259706,1,0,0:0:0:0:
256,192,259873,1,0,0:0:0:0:
402,192,259873,1,0,0:0:0:0:
109,192,259873,1,0,0:0:0:0:
36,192,259873,1,0,0:0:0:0:
329,192,260040,1,0,0:0:0:0:
36,192,260206,1,0,0:0:0:0:
256,192,260206,1,0,0:0:0:0:
475,192,260206,1,0,0:0:0:0:
109,192,260373,1,0,0:0:0:0:
182,192,260540,1,0,0:0:0:0:
475,192,260706,1,0,0:0:0:0:
109,192,260706,1,0,0:0:0:0:
402,192,260873,1,0,0:0:0:0:
329,192,260873,1,0,0:0:0:0:
109,192,261040,1,0,0:0:0:0:
36,192,261206,1,0,0:0:0:0:
475,192,261206,1,0,0:0:0:0:
256,192,261373,1,0,0:0:0:0:
182,192,261373,1,0,0:0:0:0:
475,192,261373,1,0,0:0:0:0:
36,192,261706,1,0,0:0:0:0:
475,192,261706,1,0,0:0:0:0:
182,192,261873,1,0,0:0:0:0:
475,192,261873,1,0,0:0:0:0:
256,192,262040,1,0,0:0:0:0:
109,192,262206,1,0,0:0:0:0:
182,192,262206,1,0,0:0:0:0:
329,192,262206,1,0,0:0:0:0:
402,192,262373,1,0,0:0:0:0:
256,192,262540,1,0,0:0:0:0:
36,192,262540,1,0,0:0:0:0:
329,192,262706,1,0,0:0:0:0:
182,192,262706,1,0,0:0:0:0:
109,192,262706,1,0,0:0:0:0:
402,192,262873,1,0,0:0:0:0:
36,192,262873,1,0,0:0:0:0:
36,192,263040,1,0,0:0:0:0:
475,192,263040,1,0,0:0:0:0:
329,192,263206,1,0,0:0:0:0:
36,192,263373,1,0,0:0:0:0:
256,192,263373,1,0,0:0:0:0:
402,192,263540,1,0,0:0:0:0:
329,192,263540,1,0,0:0:0:0:
182,192,263540,1,0,0:0:0:0:
109,192,263706,1,0,0:0:0:0:
475,192,263873,1,0,0:0:0:0:
36,192,263873,1,0,0:0:0:0:
329,192,264040,1,0,0:0:0:0:
256,192,264040,1,0,0:0:0:0:
36,192,264040,1,0,0:0:0:0:
36,192,264373,1,0,0:0:0:0:
402,192,264373,1,0,0:0:0:0:
475,192,264415,1,0,0:0:0:0:
36,192,264540,1,0,0:0:0:0:
402,192,264540,1,0,0:0:0:0:
329,192,264706,1,0,0:0:0:0:
402,192,264873,1,0,0:0:0:0:
329,192,264873,1,0,0:0:0:0:
182,192,264873,1,0,0:0:0:0:
109,192,265040,1,0,0:0:0:0:
475,192,265206,1,0,0:0:0:0:
36,192,265206,1,0,0:0:0:0:
109,192,265373,1,0,0:0:0:0:
329,192,265373,1,0,0:0:0:0:
402,192,265373,1,0,0:0:0:0:
329,192,265540,1,0,0:0:0:0:
475,192,265540,1,0,0:0:0:0:
36,192,265540,1,0,0:0:0:0:
182,192,265540,1,0,0:0:0:0:
109,192,265706,1,0,0:0:0:0:
182,192,265873,1,0,0:0:0:0:
475,192,266040,1,0,0:0:0:0:
256,192,266040,1,0,0:0:0:0:
109,192,266206,1,0,0:0:0:0:
182,192,266206,1,0,0:0:0:0:
329,192,266206,1,0,0:0:0:0:
402,192,266373,1,0,0:0:0:0:
36,192,266540,1,0,0:0:0:0:
475,192,266540,1,0,0:0:0:0:
329,192,266706,1,0,0:0:0:0:
256,192,266706,1,0,0:0:0:0:
36,192,266706,1,0,0:0:0:0:
475,192,267040,1,0,0:0:0:0:
36,192,267040,1,0,0:0:0:0:
36,192,267206,1,0,0:0:0:0:
329,192,267206,1,0,0:0:0:0:
256,192,267373,1,0,0:0:0:0:
402,192,267540,1,0,0:0:0:0:
329,192,267540,1,0,0:0:0:0:
182,192,267540,1,0,0:0:0:0:
109,192,267706,1,0,0:0:0:0:
256,192,267873,1,0,0:0:0:0:
475,192,267873,1,0,0:0:0:0:
36,192,267873,1,0,0:0:0:0:
182,192,268040,1,0,0:0:0:0:
329,192,268040,1,0,0:0:0:0:
402,192,268040,1,0,0:0:0:0:
36,192,268206,1,0,0:0:0:0:
329,192,268206,1,0,0:0:0:0:
475,192,268248,1,0,0:0:0:0:
329,192,268373,1,0,0:0:0:0:
36,192,268373,1,0,0:0:0:0:
256,192,268540,1,0,0:0:0:0:
475,192,268706,1,0,0:0:0:0:
182,192,268706,1,0,0:0:0:0:
109,192,268873,1,0,0:0:0:0:
329,192,268873,1,0,0:0:0:0:
402,192,268873,1,0,0:0:0:0:
36,192,269040,1,0,0:0:0:0:
109,192,269206,1,0,0:0:0:0:
475,192,269206,1,0,0:0:0:0:
402,192,269373,1,0,0:0:0:0:
329,192,269373,1,0,0:0:0:0:
109,192,269373,1,0,0:0:0:0:
475,192,269706,1,0,0:0:0:0:
36,192,269706,1,0,0:0:0:0:
182,192,269706,1,0,0:0:0:0:
109,192,269873,1,0,0:0:0:0:
475,192,269873,1,0,0:0:0:0:
182,192,269915,1,0,0:0:0:0:
402,192,270123,1,0,0:0:0:0:
329,192,270123,1,0,0:0:0:0:
109,192,270206,1,0,0:0:0:0:
182,192,270206,1,0,0:0:0:0:
475,192,270206,1,0,0:0:0:0:
182,192,270318,1,0,0:0:0:0:
109,192,270373,1,0,0:0:0:0:
182,192,270540,1,0,0:0:0:0:
475,192,270540,1,0,0:0:0:0:
36,192,270540,1,0,0:0:0:0:
329,192,270623,1,0,0:0:0:0:
109,192,270706,1,0,0:0:0:0:
182,192,270706,1,0,0:0:0:0:
36,192,270873,1,0,0:0:0:0:
256,192,270873,1,0,0:0:0:0:
475,192,270873,1,0,0:0:0:0:
109,192,271040,1,0,0:0:0:0:
182,192,271206,1,0,0:0:0:0:
475,192,271373,1,0,0:0:0:0:
109,192,271373,1,0,0:0:0:0:
402,192,271540,1,0,0:0:0:0:
329,192,271540,1,0,0:0:0:0:
109,192,271706,1,0,0:0:0:0:
36,192,271873,1,0,0:0:0:0:
475,192,271873,1,0,0:0:0:0:
256,192,272040,1,0,0:0:0:0:
182,192,272040,1,0,0:0:0:0:
475,192,272040,1,0,0:0:0:0:
36,192,272373,1,0,0:0:0:0:
475,192,272373,1,0,0:0:0:0:
475,192,272540,1,0,0:0:0:0:
182,192,272540,1,0,0:0:0:0:
256,192,272706,1,0,0:0:0:0:
329,192,272873,1,0,0:0:0:0:
109,192,272873,1,0,0:0:0:0:
182,192,272873,1,0,0:0:0:0:
402,192,273040,1,0,0:0:0:0:
256,192,273206,1,0,0:0:0:0:
36,192,273206,1,0,0:0:0:0:
329,192,273373,1,0,0:0:0:0:
182,192,273373,1,0,0:0:0:0:
109,192,273373,1,0,0:0:0:0:
402,192,273540,1,0,0:0:0:0:
36,192,273540,1,0,0:0:0:0:
36,192,273706,1,0,0:0:0:0:
475,192,273706,1,0,0:0:0:0:
329,192,273873,1,0,0:0:0:0:
36,192,274040,1,0,0:0:0:0:
256,192,274040,1,0,0:0:0:0:
402,192,274206,1,0,0:0:0:0:
182,192,274206,1,0,0:0:0:0:
329,192,274206,1,0,0:0:0:0:
109,192,274373,1,0,0:0:0:0:
475,192,274540,1,0,0:0:0:0:
36,192,274540,1,0,0:0:0:0:
329,192,274706,1,0,0:0:0:0:
256,192,274706,1,0,0:0:0:0:
36,192,274706,1,0,0:0:0:0:
36,192,275040,1,0,0:0:0:0:
402,192,275040,1,0,0:0:0:0:
475,192,275081,1,0,0:0:0:0:
402,192,275206,1,0,0:0:0:0:
36,192,275206,1,0,0:0:0:0:
329,192,275373,1,0,0:0:0:0:
402,192,275540,1,0,0:0:0:0:
329,192,275540,1,0,0:0:0:0:
182,192,275540,1,0,0:0:0:0:
109,192,275706,1,0,0:0:0:0:
36,192,275873,1,0,0:0:0:0:
475,192,275873,1,0,0:0:0:0:
109,192,276040,1,0,0:0:0:0:
402,192,276040,1,0,0:0:0:0:
329,192,276040,1,0,0:0:0:0:
36,192,276206,1,0,0:0:0:0:
475,192,276206,1,0,0:0:0:0:
329,192,276206,1,0,0:0:0:0:
182,192,276206,1,0,0:0:0:0:
109,192,276373,1,0,0:0:0:0:
182,192,276540,1,0,0:0:0:0:
475,192,276706,1,0,0:0:0:0:
256,192,276706,1,0,0:0:0:0:
182,192,276873,1,0,0:0:0:0:
329,192,276873,1,0,0:0:0:0:
109,192,276873,1,0,0:0:0:0:
402,192,277040,1,0,0:0:0:0:
475,192,277206,1,0,0:0:0:0:
36,192,277206,1,0,0:0:0:0:
329,192,277373,1,0,0:0:0:0:
256,192,277373,1,0,0:0:0:0:
36,192,277373,1,0,0:0:0:0:
36,192,277706,1,0,0:0:0:0:
475,192,277706,1,0,0:0:0:0:
36,192,277873,1,0,0:0:0:0:
329,192,277873,1,0,0:0:0:0:
256,192,278040,1,0,0:0:0:0:
182,192,278206,1,0,0:0:0:0:
402,192,278206,1,0,0:0:0:0:
329,192,278206,1,0,0:0:0:0:
109,192,278373,1,0,0:0:0:0:
475,192,278540,1,0,0:0:0:0:
36,192,278540,1,0,0:0:0:0:
256,192,278540,1,0,0:0:0:0:
329,192,278706,1,0,0:0:0:0:
182,192,278706,1,0,0:0:0:0:
402,192,278706,1,0,0:0:0:0:
36,192,278873,1,0,0:0:0:0:
329,192,278873,1,0,0:0:0:0:
475,192,278915,1,0,0:0:0:0:
329,192,279040,1,0,0:0:0:0:
36,192,279040,1,0,0:0:0:0:
256,192,279206,1,0,0:0:0:0:
475,192,279373,1,0,0:0:0:0:
182,192,279373,1,0,0:0:0:0:
329,192,279540,1,0,0:0:0:0:
402,192,279540,1,0,0:0:0:0:
109,192,279540,1,0,0:0:0:0:
402,192,279706,1,0,0:0:0:0:
329,192,279706,1,0,0:0:0:0:
36,192,279706,1,0,0:0:0:0:
109,192,279873,1,0,0:0:0:0:
475,192,279873,1,0,0:0:0:0:
329,192,280040,1,0,0:0:0:0:
402,192,280040,1,0,0:0:0:0:
109,192,280040,1,0,0:0:0:0:
182,192,280040,1,0,0:0:0:0:
109,192,296127,5,0,0:0:0:0:harp05.wav
475,192,296127,1,0,0:0:0:0:bass04.wav
256,192,296127,1,0,0:0:0:0:bell-piano48.wav
36,192,296177,1,0,0:0:0:0:harp05.wav
402,192,296227,1,0,0:0:0:0:harp09.wav
329,192,296278,1,0,0:0:0:0:harp09.wav
182,192,296328,1,0,0:0:0:0:harp11.wav
109,192,296378,1,0,0:0:0:0:harp11.wav
36,192,296429,1,0,0:0:0:0:harp14.wav
329,192,296479,1,0,0:0:0:0:harp14.wav
475,192,296529,1,0,0:0:0:0:harp18.wav
256,192,296630,1,0,0:0:0:0:harp20.wav
182,192,296731,1,0,0:0:0:0:bell-piano59.wav
109,192,296781,1,0,0:0:0:0:harp23.wav
402,192,296831,1,0,0:0:0:0:harp27.wav
329,192,296882,1,0,0:0:0:0:harp27.wav
256,192,296932,1,0,0:0:0:0:harp04.wav
36,192,296932,1,0,0:0:0:0:bass03.wav
475,192,296982,1,0,0:0:0:0:harp04.wav
182,192,297033,1,0,0:0:0:0:harp07.wav
109,192,297133,1,0,0:0:0:0:harp10.wav
182,192,297234,1,0,0:0:0:0:bell-piano48.wav
256,192,297284,1,0,0:0:0:0:harp13.wav
36,192,297335,1,0,0:0:0:0:harp16.wav
109,192,297385,1,0,0:0:0:0:harp16.wav
256,192,297435,1,0,0:0:0:0:harp19.wav
329,192,297486,1,0,0:0:0:0:harp19.wav
475,192,297536,1,0,0:0:0:0:harp22.wav
182,192,297586,1,0,0:0:0:0:bell-piano58.wav
256,192,297687,1,0,0:0:0:0:harp25.wav
329,192,297737,1,0,0:0:0:0:
402,192,297788,1,0,0:0:0:0:harp02.wav
182,192,297838,1,0,0:0:0:0:harp06.wav
109,192,297888,1,0,0:0:0:0:harp06.wav
36,192,297939,1,0,0:0:0:0:harp09.wav
329,192,297989,1,0,0:0:0:0:harp09.wav
256,192,298039,1,0,0:0:0:0:bell-piano48.wav
182,192,298140,1,0,0:0:0:0:harp15.wav
402,192,298241,1,0,0:0:0:0:harp18.wav
256,192,298291,1,0,0:0:0:0:harp18.wav
109,192,298341,1,0,0:0:0:0:harp20.wav
36,192,298392,1,0,0:0:0:0:harp20.wav
182,192,298442,1,0,0:0:0:0:harp24.wav
329,192,298492,1,0,0:0:0:0:harp24.wav
475,192,298543,1,0,0:0:0:0:bell-piano59.wav
109,192,298593,1,0,0:0:0:0:harp04.wav
402,192,298694,1,0,0:0:0:0:harp07.wav
329,192,298794,1,0,0:0:0:0:harp10.wav
256,192,298845,1,0,0:0:0:0:harp13.wav
182,192,298895,1,0,0:0:0:0:harp13.wav
109,192,298945,1,0,0:0:0:0:harp16.wav
36,192,298996,1,0,0:0:0:0:harp16.wav
329,192,299096,1,0,0:0:0:0:harp19.wav
182,192,299197,1,0,0:0:0:0:harp22.wav
475,192,299247,1,0,0:0:0:0:harp25.wav
402,192,299298,1,0,0:0:0:0:harp25.wav
109,192,299348,1,0,0:0:0:0:harp05.wav
36,192,299398,1,0,0:0:0:0:harp05.wav
329,192,299449,1,0,0:0:0:0:harp09.wav
475,192,299499,1,0,0:0:0:0:harp09.wav
182,192,299549,1,0,0:0:0:0:harp11.wav
256,192,299600,1,0,0:0:0:0:harp11.wav
329,192,299650,1,0,0:0:0:0:harp14.wav
402,192,299700,1,0,0:0:0:0:harp14.wav
36,192,299751,1,0,0:0:0:0:
109,192,299801,1,0,0:0:0:0:harp18.wav
182,192,299902,1,0,0:0:0:0:harp20.wav
475,192,299952,1,0,0:0:0:0:harp23.wav
402,192,300002,1,0,0:0:0:0:harp23.wav
329,192,300053,1,0,0:0:0:0:harp27.wav
256,192,300103,1,0,0:0:0:0:harp27.wav
182,192,300153,1,0,0:0:0:0:gt03.wav
36,192,300153,1,0,0:0:0:0:bass03.wav
475,192,300204,1,0,0:0:0:0:harp04.wav
329,192,300304,1,0,0:0:0:0:harp07.wav
109,192,300405,1,0,0:0:0:0:harp10.wav
256,192,300455,1,0,0:0:0:0:bell-piano48.wav
402,192,300506,1,0,0:0:0:0:harp13.wav
36,192,300556,1,0,0:0:0:0:harp16.wav
182,192,300606,1,0,0:0:0:0:harp16.wav
475,192,300657,1,0,0:0:0:0:harp19.wav
402,192,300707,1,0,0:0:0:0:harp19.wav
329,192,300757,1,0,0:0:0:0:harp22.wav
182,192,300808,1,0,0:0:0:0:harp22.wav
109,192,300858,1,0,0:0:0:0:harp25.wav
36,192,300908,1,0,0:0:0:0:harp25.wav
475,192,300959,1,0,0:0:0:0:harp02.wav
329,192,301059,1,0,0:0:0:0:harp06.wav
182,192,301160,1,0,0:0:0:0:harp09.wav
109,192,301210,1,0,0:0:0:0:harp09.wav
475,192,301261,1,0,0:0:0:0:harp11.wav
402,192,301311,1,0,0:0:0:0:harp11.wav
182,192,301361,1,0,0:0:0:0:harp15.wav
256,192,301412,1,0,0:0:0:0:harp15.wav
36,192,301462,1,0,0:0:0:0:harp18.wav
109,192,301512,1,0,0:0:0:0:harp18.wav
402,192,301563,1,0,0:0:0:0:harp20.wav
329,192,301613,1,0,0:0:0:0:harp20.wav
256,192,301663,1,0,0:0:0:0:harp24.wav
182,192,301714,1,0,0:0:0:0:harp24.wav
475,192,301764,1,0,0:0:0:0:
36,192,301764,1,0,0:0:0:0:harp05.wav
402,192,301814,1,0,0:0:0:0:harp05.wav
329,192,301915,1,0,0:0:0:0:harp08.wav
256,192,302016,1,0,0:0:0:0:harp10.wav
182,192,302066,1,0,0:0:0:0:harp14.wav
36,192,302116,1,0,0:0:0:0:harp14.wav
329,192,302167,1,0,0:0:0:0:harp17.wav
402,192,302217,1,0,0:0:0:0:harp17.wav
109,192,302267,1,0,0:0:0:0:harp19.wav
182,192,302318,1,0,0:0:0:0:harp19.wav
329,192,302368,1,0,0:0:0:0:harp23.wav
402,192,302418,1,0,0:0:0:0:harp23.wav
109,192,302469,1,0,0:0:0:0:harp26.wav
182,192,302519,1,0,0:0:0:0:harp26.wav
475,192,302569,1,0,0:0:0:0:
329,192,302569,1,0,0:0:0:0:harp05.wav
36,192,302620,1,0,0:0:0:0:harp05.wav
256,192,302670,1,0,0:0:0:0:harp09.wav
402,192,302720,1,0,0:0:0:0:harp09.wav
329,192,302771,1,0,0:0:0:0:harp11.wav
182,192,302821,1,0,0:0:0:0:harp11.wav
109,192,302922,1,0,0:0:0:0:harp14.wav
475,192,302972,1,0,0:0:0:0:
402,192,302972,1,0,0:0:0:0:
329,192,303022,1,0,0:0:0:0:harp18.wav
182,192,303073,1,0,0:0:0:0:harp20.wav
109,192,303123,1,0,0:0:0:0:harp20.wav
36,192,303173,1,0,0:0:0:0:bell-piano59.wav
475,192,303224,1,0,0:0:0:0:harp23.wav
329,192,303274,1,0,0:0:0:0:harp27.wav
256,192,303324,1,0,0:0:0:0:harp27.wav
36,192,303375,1,0,0:0:0:0:harp04.wav
182,192,303425,1,0,0:0:0:0:harp04.wav
329,192,303526,1,0,0:0:0:0:harp07.wav
475,192,303627,1,0,0:0:0:0:harp10.wav
402,192,303677,1,0,0:0:0:0:harp13.wav
256,192,303727,1,0,0:0:0:0:harp13.wav
36,192,303778,1,0,0:0:0:0:harp16.wav
109,192,303828,1,0,0:0:0:0:harp16.wav
182,192,303878,1,0,0:0:0:0:harp19.wav
329,192,303929,1,0,0:0:0:0:harp19.wav
402,192,303979,1,0,0:0:0:0:harp22.wav
256,192,304080,1,0,0:0:0:0:harp25.wav
475,192,304180,1,0,0:0:0:0:
329,192,304180,1,0,0:0:0:0:
36,192,304180,1,0,0:0:0:0:harp02.wav
109,192,304231,1,0,0:0:0:0:harp02.wav
182,192,304281,1,0,0:0:0:0:harp06.wav
256,192,304331,1,0,0:0:0:0:harp06.wav
329,192,304382,1,0,0:0:0:0:harp09.wav
402,192,304432,1,0,0:0:0:0:harp09.wav
475,192,304482,1,0,0:0:0:0:harp11.wav
182,192,304533,1,0,0:0:0:0:harp11.wav
109,192,304583,1,0,0:0:0:0:
36,192,304633,1,0,0:0:0:0:harp15.wav
329,192,304734,1,0,0:0:0:0:harp18.wav
256,192,304784,1,0,0:0:0:0:bell-piano59.wav
182,192,304835,1,0,0:0:0:0:harp20.wav
475,192,304885,1,0,0:0:0:0:harp24.wav
402,192,304935,1,0,0:0:0:0:harp24.wav
36,192,304986,1,0,0:0:0:0:loop06.wav
109,192,305036,1,0,0:0:0:0:harp01.wav
182,192,305086,1,0,0:0:0:0:harp05.wav
329,192,305137,1,0,0:0:0:0:harp05.wav
475,192,305187,1,0,0:0:0:0:harp07.wav
109,192,305237,1,0,0:0:0:0:harp07.wav
256,192,305288,1,0,0:0:0:0:harp10.wav
329,192,305338,1,0,0:0:0:0:harp10.wav
36,192,305388,1,0,0:0:0:0:harp14.wav
109,192,305439,1,0,0:0:0:0:harp14.wav
182,192,305489,1,0,0:0:0:0:harp16.wav
256,192,305539,1,0,0:0:0:0:harp16.wav
329,192,305590,1,0,0:0:0:0:harp19.wav
402,192,305640,1,0,0:0:0:0:harp19.wav
475,192,305690,1,0,0:0:0:0:harp23.wav
36,192,305791,1,0,0:0:0:0:
182,192,305791,1,0,0:0:0:0:bell-piano76.wav
329,192,305841,1,0,0:0:0:0:harp05.wav
402,192,305892,1,0,0:0:0:0:harp09.wav
475,192,305942,1,0,0:0:0:0:harp09.wav
109,192,305992,1,0,0:0:0:0:harp11.wav
182,192,306043,1,0,0:0:0:0:harp11.wav
329,192,306143,1,0,0:0:0:0:harp14.wav
402,192,306194,1,0,0:0:0:0:
36,192,306244,1,0,0:0:0:0:harp18.wav
182,192,306294,1,0,0:0:0:0:harp20.wav
256,192,306345,1,0,0:0:0:0:harp20.wav
329,192,306395,1,0,0:0:0:0:harp23.wav
402,192,306445,1,0,0:0:0:0:harp23.wav
475,192,306496,1,0,0:0:0:0:harp27.wav
182,192,306546,1,0,0:0:0:0:harp27.wav
109,192,306596,1,0,0:0:0:0:loop06.wav
475,192,306697,1,0,0:0:0:0:harp27.wav
402,192,306747,1,0,0:0:0:0:harp27.wav
329,192,306798,1,0,0:0:0:0:harp23.wav
256,192,306848,1,0,0:0:0:0:harp23.wav
182,192,306898,1,0,0:0:0:0:harp20.wav
109,192,306949,1,0,0:0:0:0:harp20.wav
36,192,306999,1,0,0:0:0:0:loop09.wav
475,192,307049,1,0,0:0:0:0:harp18.wav
402,192,307100,1,0,0:0:0:0:harp14.wav
329,192,307150,1,0,0:0:0:0:harp14.wav
36,192,307200,1,0,0:0:0:0:harp11.wav
109,192,307251,1,0,0:0:0:0:harp11.wav
182,192,307301,1,0,0:0:0:0:harp09.wav
329,192,307351,1,0,0:0:0:0:harp09.wav
475,192,307402,1,0,0:0:0:0:
402,192,307402,1,0,0:0:0:0:
36,192,307452,1,0,0:0:0:0:harp04.wav
109,192,307502,1,0,0:0:0:0:harp07.wav
182,192,307553,1,0,0:0:0:0:harp07.wav
256,192,307603,1,0,0:0:0:0:harp10.wav
329,192,307653,1,0,0:0:0:0:harp10.wav
402,192,307704,1,0,0:0:0:0:harp13.wav
475,192,307754,1,0,0:0:0:0:harp13.wav
36,192,307855,1,0,0:0:0:0:harp16.wav
182,192,307905,1,0,0:0:0:0:harp19.wav
329,192,307955,1,0,0:0:0:0:harp19.wav
475,192,308006,1,0,0:0:0:0:harp22.wav
109,192,308056,1,0,0:0:0:0:harp22.wav
256,192,308106,1,0,0:0:0:0:harp25.wav
402,192,308157,1,0,0:0:0:0:harp25.wav
36,192,308207,1,0,0:0:0:0:harp28.wav
109,192,308257,1,0,0:0:0:0:harp28.wav
182,192,308308,1,0,0:0:0:0:harp25.wav
329,192,308358,1,0,0:0:0:0:harp25.wav
402,192,308408,1,0,0:0:0:0:harp22.wav
475,192,308459,1,0,0:0:0:0:harp22.wav
256,192,308509,1,0,0:0:0:0:
109,192,308559,1,0,0:0:0:0:harp19.wav
36,192,308610,1,0,0:0:0:0:harp16.wav
475,192,308660,1,0,0:0:0:0:harp13.wav
402,192,308710,1,0,0:0:0:0:harp13.wav
329,192,308761,1,0,0:0:0:0:bell-piano79.wav
109,192,308811,1,0,0:0:0:0:harp10.wav
182,192,308861,1,0,0:0:0:0:harp10.wav
256,192,308912,1,0,0:0:0:0:harp07.wav
329,192,308962,1,0,0:0:0:0:harp07.wav
475,192,309012,1,0,0:0:0:0:tom1.wav
36,192,309012,1,0,0:0:0:0:kick.wav
109,192,309080,1,0,0:0:0:0:tom2.wav
182,192,309147,1,0,0:0:0:0:tom3.wav
475,192,309214,1,0,0:0:0:0:tom3.wav
36,192,309314,1,0,0:0:0:0:
109,192,309314,1,0,0:0:0:0:
329,192,309314,1,0,0:0:0:0:tom3.wav
402,192,309415,1,0,0:0:0:0:tom4.wav
256,192,309516,1,0,0:0:0:0:tom4.wav
475,192,309616,1,0,0:0:0:0:
109,192,309616,1,0,0:0:0:0:
329,192,309616,1,0,0:0:0:0:tom5.wav
182,192,309717,1,0,0:0:0:0:tom5.wav
475,192,309818,1,0,0:0:0:0:
402,192,309818,1,0,0:0:0:0:tom6.wav
36,192,309818,1,0,0:0:0:0:kick.wav
329,192,309885,1,0,0:0:0:0:tom6.wav
256,192,309952,1,0,0:0:0:0:tom6.wav
402,192,310019,1,0,0:0:0:0:tom7.wav
109,192,310120,1,0,0:0:0:0:
256,192,310120,1,0,0:0:0:0:tom7.wav
329,192,310220,1,0,0:0:0:0:tom8.wav
182,192,310321,1,0,0:0:0:0:tom8.wav
402,192,310422,1,0,0:0:0:0:
256,192,310422,1,0,0:0:0:0:tom9.wav
182,192,310522,1,0,0:0:0:0:tom9.wav
329,192,310623,1,0,0:0:0:0:
475,192,310623,1,0,0:0:0:0:hit11.wav
36,192,310623,1,0,0:0:0:0:kick.wav
109,192,310673,1,0,0:0:0:0:hit11.wav
182,192,310724,1,0,0:0:0:0:hit11.wav
256,192,310774,1,0,0:0:0:0:hit11.wav
402,192,310824,1,0,0:0:0:0:hit11.wav
475,192,311026,1,0,0:0:0:0:hit11.wav
36,192,311026,1,0,0:0:0:0:kick.wav
109,192,311076,1,0,0:0:0:0:hit11.wav
182,192,311127,1,0,0:0:0:0:hit11.wav
256,192,311177,1,0,0:0:0:0:hit11.wav
402,192,311227,1,0,0:0:0:0:hit11.wav
475,192,311429,1,0,0:0:0:0:hit11.wav
36,192,311429,1,0,0:0:0:0:kick.wav
109,192,311479,1,0,0:0:0:0:hit11.wav
182,192,311529,1,0,0:0:0:0:hit11.wav
329,192,311580,1,0,0:0:0:0:hit11.wav
402,192,311630,1,0,0:0:0:0:hit11.wav
109,192,311680,1,0,0:0:0:0:hit11.wav
182,192,311731,1,0,0:0:0:0:hit11.wav
329,192,311781,1,0,0:0:0:0:hit11.wav
402,192,311831,1,0,0:0:0:0:hit11.wav
36,192,311831,1,0,0:0:0:0:kick.wav
109,192,311882,1,0,0:0:0:0:hit11.wav
182,192,311932,1,0,0:0:0:0:hit11.wav
329,192,311982,1,0,0:0:0:0:hit11.wav
402,192,312033,1,0,0:0:0:0:hit11.wav
109,192,312083,1,0,0:0:0:0:hit11.wav
182,192,312133,1,0,0:0:0:0:hit11.wav
329,192,312234,1,0,0:0:0:0:
475,192,312234,1,0,0:0:0:0:
36,192,312234,1,0,0:0:0:0:kick.wav
109,192,312284,1,0,0:0:0:0:harp05.wav
182,192,312335,1,0,0:0:0:0:harp09.wav
256,192,312385,1,0,0:0:0:0:harp09.wav
402,192,312435,1,0,0:0:0:0:harp11.wav
475,192,312486,1,0,0:0:0:0:harp11.wav
329,192,312536,1,0,0:0:0:0:harp14.wav
182,192,312586,1,0,0:0:0:0:harp18.wav
109,192,312637,1,0,0:0:0:0:
36,192,312637,1,0,0:0:0:0:kick.wav
329,192,312737,1,0,0:0:0:0:
36,192,312838,1,0,0:0:0:0:
182,192,312838,1,0,0:0:0:0:harp23.wav
402,192,312939,1,0,0:0:0:0:
256,192,312939,1,0,0:0:0:0:
36,192,313039,1,0,0:0:0:0:
329,192,313039,1,0,0:0:0:0:
109,192,313090,1,0,0:0:0:0:
256,192,313140,1,0,0:0:0:0:
402,192,313190,1,0,0:0:0:0:
182,192,313241,1,0,0:0:0:0:
329,192,313291,1,0,0:0:0:0:
36,192,313341,1,0,0:0:0:0:
109,192,313392,1,0,0:0:0:0:
256,192,313442,1,0,0:0:0:0:
475,192,313442,1,0,0:0:0:0:harp16.wav
182,192,313543,1,0,0:0:0:0:
329,192,313643,1,0,0:0:0:0:
402,192,313643,1,0,0:0:0:0:harp22.wav
182,192,313744,1,0,0:0:0:0:
109,192,313744,1,0,0:0:0:0:
475,192,313845,1,0,0:0:0:0:
36,192,313845,1,0,0:0:0:0:kick.wav
329,192,313895,1,0,0:0:0:0:
182,192,313945,1,0,0:0:0:0:harp06.wav
109,192,313996,1,0,0:0:0:0:
402,192,314046,1,0,0:0:0:0:
256,192,314096,1,0,0:0:0:0:
36,192,314147,1,0,0:0:0:0:
182,192,314197,1,0,0:0:0:0:
475,192,314247,1,0,0:0:0:0:
402,192,314247,1,0,0:0:0:0:
329,192,314348,1,0,0:0:0:0:
36,192,314449,1,0,0:0:0:0:
182,192,314449,1,0,0:0:0:0:
402,192,314549,1,0,0:0:0:0:
256,192,314549,1,0,0:0:0:0:
475,192,314650,1,0,0:0:0:0:
329,192,314650,1,0,0:0:0:0:
36,192,314700,1,0,0:0:0:0:
109,192,314751,1,0,0:0:0:0:
182,192,314801,1,0,0:0:0:0:
256,192,314851,1,0,0:0:0:0:harp07.wav
475,192,314902,1,0,0:0:0:0:
329,192,314952,1,0,0:0:0:0:
182,192,315002,1,0,0:0:0:0:
36,192,315053,1,0,0:0:0:0:kick.wav
256,192,315103,1,0,0:0:0:0:
402,192,315153,1,0,0:0:0:0:
109,192,315204,1,0,0:0:0:0:harp16.wav
182,192,315254,1,0,0:0:0:0:
329,192,315304,1,0,0:0:0:0:harp20.wav
402,192,315355,1,0,0:0:0:0:harp23.wav
475,192,315405,1,0,0:0:0:0:harp23.wav
256,192,315455,1,0,0:0:0:0:harp04.wav
36,192,315455,1,0,0:0:0:0:kick.wav
329,192,315506,1,0,0:0:0:0:
402,192,315556,1,0,0:0:0:0:
182,192,315606,1,0,0:0:0:0:
256,192,315657,1,0,0:0:0:0:
475,192,315707,1,0,0:0:0:0:
109,192,315757,1,0,0:0:0:0:
329,192,315808,1,0,0:0:0:0:
182,192,315858,1,0,0:0:0:0:
475,192,315858,1,0,0:0:0:0:harp15.wav
36,192,315858,1,0,0:0:0:0:kick.wav
329,192,315959,1,0,0:0:0:0:
182,192,316059,1,0,0:0:0:0:
109,192,316059,1,0,0:0:0:0:
256,192,316160,1,0,0:0:0:0:
329,192,316160,1,0,0:0:0:0:harp24.wav
475,192,316261,1,0,0:0:0:0:
36,192,316261,1,0,0:0:0:0:kick.wav
182,192,316311,1,0,0:0:0:0:
329,192,316361,1,0,0:0:0:0:
109,192,316412,1,0,0:0:0:0:
256,192,316462,1,0,0:0:0:0:
402,192,316512,1,0,0:0:0:0:
182,192,316563,1,0,0:0:0:0:
36,192,316613,1,0,0:0:0:0:
329,192,316663,1,0,0:0:0:0:
475,192,316663,1,0,0:0:0:0:harp16.wav
109,192,316764,1,0,0:0:0:0:harp19.wav
402,192,316865,1,0,0:0:0:0:
256,192,316865,1,0,0:0:0:0:
36,192,316965,1,0,0:0:0:0:
182,192,316965,1,0,0:0:0:0:harp25.wav
475,192,317066,1,0,0:0:0:0:
329,192,317066,1,0,0:0:0:0:
256,192,317116,1,0,0:0:0:0:
109,192,317167,1,0,0:0:0:0:
402,192,317217,1,0,0:0:0:0:
329,192,317267,1,0,0:0:0:0:
182,192,317318,1,0,0:0:0:0:harp07.wav
475,192,317368,1,0,0:0:0:0:harp11.wav
109,192,317418,1,0,0:0:0:0:
256,192,317469,1,0,0:0:0:0:harp14.wav
36,192,317469,1,0,0:0:0:0:kick.wav
402,192,317569,1,0,0:0:0:0:
329,192,317670,1,0,0:0:0:0:
182,192,317670,1,0,0:0:0:0:
402,192,317771,1,0,0:0:0:0:
109,192,317771,1,0,0:0:0:0:
182,192,317871,1,0,0:0:0:0:
329,192,317871,1,0,0:0:0:0:
475,192,317972,1,0,0:0:0:0:
256,192,317972,1,0,0:0:0:0:
36,192,318073,1,0,0:0:0:0:
329,192,318073,1,0,0:0:0:0:
109,192,318140,1,0,0:0:0:0:
402,192,318173,1,0,0:0:0:0:
182,192,318207,1,0,0:0:0:0:
256,192,318274,1,0,0:0:0:0:
475,192,318274,1,0,0:0:0:0:harp14.wav
329,192,318324,1,0,0:0:0:0:
402,192,318375,1,0,0:0:0:0:
109,192,318425,1,0,0:0:0:0:
256,192,318475,1,0,0:0:0:0:
475,192,318526,1,0,0:0:0:0:
329,192,318576,1,0,0:0:0:0:
182,192,318627,1,0,0:0:0:0:
402,192,318677,1,0,0:0:0:0:
36,192,318677,1,0,0:0:0:0:kick.wav
256,192,318727,1,0,0:0:0:0:
109,192,318778,1,0,0:0:0:0:
329,192,318828,1,0,0:0:0:0:
475,192,318878,1,0,0:0:0:0:
182,192,318929,1,0,0:0:0:0:
256,192,318979,1,0,0:0:0:0:
402,192,319029,1,0,0:0:0:0:
109,192,319080,1,0,0:0:0:0:
36,192,319080,1,0,0:0:0:0:kick.wav
256,192,319180,1,0,0:0:0:0:
475,192,319281,1,0,0:0:0:0:
182,192,319281,1,0,0:0:0:0:
109,192,319382,1,0,0:0:0:0:
402,192,319382,1,0,0:0:0:0:
329,192,319482,1,0,0:0:0:0:
36,192,319482,1,0,0:0:0:0:kick.wav
182,192,319533,1,0,0:0:0:0:
475,192,319583,1,0,0:0:0:0:
402,192,319633,1,0,0:0:0:0:harp07.wav
109,192,319684,1,0,0:0:0:0:
256,192,319734,1,0,0:0:0:0:harp10.wav
329,192,319784,1,0,0:0:0:0:
475,192,319835,1,0,0:0:0:0:harp13.wav
182,192,319885,1,0,0:0:0:0:harp16.wav
36,192,319885,1,0,0:0:0:0:kick.wav
402,192,319986,1,0,0:0:0:0:harp19.wav
256,192,320086,1,0,0:0:0:0:
109,192,320086,1,0,0:0:0:0:
329,192,320187,1,0,0:0:0:0:
182,192,320187,1,0,0:0:0:0:bell-piano30.wav
402,192,320288,1,0,0:0:0:0:
36,192,320288,1,0,0:0:0:0:kick.wav
256,192,320338,1,0,0:0:0:0:
109,192,320388,1,0,0:0:0:0:
329,192,320439,1,0,0:0:0:0:
182,192,320489,1,0,0:0:0:0:
475,192,320539,1,0,0:0:0:0:
256,192,320590,1,0,0:0:0:0:
402,192,320640,1,0,0:0:0:0:
109,192,320690,1,0,0:0:0:0:
36,192,320690,1,0,0:0:0:0:kick.wav
182,192,320791,1,0,0:0:0:0:
329,192,320892,1,0,0:0:0:0:
475,192,320892,1,0,0:0:0:0:harp20.wav
36,192,320992,1,0,0:0:0:0:
182,192,320992,1,0,0:0:0:0:
402,192,321093,1,0,0:0:0:0:
475,192,321093,1,0,0:0:0:0:
329,192,321160,1,0,0:0:0:0:
256,192,321227,1,0,0:0:0:0:
182,192,321294,1,0,0:0:0:0:
36,192,321294,1,0,0:0:0:0:
402,192,321361,1,0,0:0:0:0:
329,192,321429,1,0,0:0:0:0:
109,192,321496,1,0,0:0:0:0:
256,192,321496,1,0,0:0:0:0:
475,192,321563,1,0,0:0:0:0:
402,192,321630,1,0,0:0:0:0:
182,192,321697,1,0,0:0:0:0:
329,192,321697,1,0,0:0:0:0:
109,192,321764,1,0,0:0:0:0:
36,192,321831,1,0,0:0:0:0:
475,192,321898,1,0,0:0:0:0:
402,192,321898,1,0,0:0:0:0:
256,192,321898,1,0,0:0:0:0:
182,192,321999,1,0,0:0:0:0:harp06.wav
256,192,322049,1,0,0:0:0:0:harp06.wav
402,192,322100,1,0,0:0:0:0:harp09.wav
475,192,322150,1,0,0:0:0:0:harp09.wav
36,192,322200,1,0,0:0:0:0:harp13.wav
182,192,322251,1,0,0:0:0:0:harp13.wav
329,192,322301,1,0,0:0:0:0:kick.wav
402,192,322351,1,0,0:0:0:0:harp15.wav
256,192,322452,1,0,0:0:0:0:harp18.wav
182,192,322502,1,0,0:0:0:0:harp22.wav
109,192,322553,1,0,0:0:0:0:harp22.wav
402,192,322603,1,0,0:0:0:0:harp24.wav
475,192,322653,1,0,0:0:0:0:harp24.wav
182,192,322704,1,0,0:0:0:0:bell-piano72.wav
36,192,322704,1,0,0:0:0:0:kick.wav
256,192,322754,1,0,0:0:0:0:harp27.wav
402,192,322804,1,0,0:0:0:0:harp24.wav
475,192,322855,1,0,0:0:0:0:harp24.wav
109,192,322905,1,0,0:0:0:0:harp22.wav
182,192,322955,1,0,0:0:0:0:harp22.wav
329,192,323006,1,0,0:0:0:0:harp18.wav
402,192,323106,1,0,0:0:0:0:
475,192,323106,1,0,0:0:0:0:kick.wav
36,192,323207,1,0,0:0:0:0:harp13.wav
109,192,323257,1,0,0:0:0:0:harp13.wav
402,192,323308,1,0,0:0:0:0:harp09.wav
329,192,323358,1,0,0:0:0:0:harp09.wav
256,192,323408,1,0,0:0:0:0:harp06.wav
182,192,323459,1,0,0:0:0:0:harp06.wav
475,192,323509,1,0,0:0:0:0:harp05.wav
109,192,323509,1,0,0:0:0:0:bell-piano86.wav
36,192,323509,1,0,0:0:0:0:kick.wav
329,192,323610,1,0,0:0:0:0:harp08.wav
475,192,323710,1,0,0:0:0:0:
109,192,323710,1,0,0:0:0:0:harp10.wav
182,192,323761,1,0,0:0:0:0:harp10.wav
256,192,323811,1,0,0:0:0:0:bell-piano84.wav
475,192,323912,1,0,0:0:0:0:
36,192,323912,1,0,0:0:0:0:kick.wav
109,192,323962,1,0,0:0:0:0:harp17.wav
329,192,324012,1,0,0:0:0:0:
182,192,324012,1,0,0:0:0:0:harp19.wav
256,192,324063,1,0,0:0:0:0:harp19.wav
475,192,324113,1,0,0:0:0:0:harp23.wav
402,192,324163,1,0,0:0:0:0:harp23.wav
329,192,324214,1,0,0:0:0:0:harp26.wav
182,192,324264,1,0,0:0:0:0:harp26.wav
36,192,324314,1,0,0:0:0:0:kick.wav
475,192,324365,1,0,0:0:0:0:harp28.wav
402,192,324415,1,0,0:0:0:0:harp26.wav
329,192,324465,1,0,0:0:0:0:harp26.wav
256,192,324516,1,0,0:0:0:0:harp23.wav
182,192,324566,1,0,0:0:0:0:harp23.wav
475,192,324616,1,0,0:0:0:0:harp19.wav
329,192,324667,1,0,0:0:0:0:harp19.wav
36,192,324717,1,0,0:0:0:0:kick.wav
182,192,324767,1,0,0:0:0:0:harp17.wav
475,192,324818,1,0,0:0:0:0:harp14.wav
402,192,324868,1,0,0:0:0:0:harp14.wav
329,192,324918,1,0,0:0:0:0:harp10.wav
256,192,324969,1,0,0:0:0:0:harp10.wav
182,192,325019,1,0,0:0:0:0:harp08.wav
109,192,325069,1,0,0:0:0:0:harp08.wav
329,192,325120,1,0,0:0:0:0:bass53.wav
36,192,325120,1,0,0:0:0:0:kick.wav
402,192,325321,1,0,0:0:0:0:bass54.wav
475,192,325422,1,0,0:0:0:0:bass54.wav
329,192,325522,1,0,0:0:0:0:bass53.wav
182,192,325522,1,0,0:0:0:0:sd.wav
36,192,325522,1,0,0:0:0:0:kick.wav
402,192,325724,1,0,0:0:0:0:bass54.wav
109,192,325724,1,0,0:0:0:0:piano004.wav
475,192,325824,1,0,0:0:0:0:bass54.wav
329,192,325925,1,0,0:0:0:0:bass53.wav
36,192,325925,1,0,0:0:0:0:kick.wav
402,192,326127,1,0,0:0:0:0:bass54.wav
182,192,326127,1,0,0:0:0:0:piano003.wav
475,192,326227,1,0,0:0:0:0:bass54.wav
329,192,326328,1,0,0:0:0:0:bass53.wav
256,192,326328,1,0,0:0:0:0:piano005.wav
36,192,326328,1,0,0:0:0:0:kick.wav
402,192,326529,1,0,0:0:0:0:bass54.wav
182,192,326529,1,0,0:0:0:0:piano006.wav
475,192,326630,1,0,0:0:0:0:bass54.wav
256,192,326731,1,0,0:0:0:0:bass57.wav
36,192,326731,1,0,0:0:0:0:kick.wav
329,192,326932,1,0,0:0:0:0:bass58.wav
475,192,327033,1,0,0:0:0:0:bass58.wav
256,192,327133,1,0,0:0:0:0:bass57.wav
182,192,327133,1,0,0:0:0:0:sd.wav
36,192,327133,1,0,0:0:0:0:kick.wav
329,192,327335,1,0,0:0:0:0:bass58.wav
475,192,327435,1,0,0:0:0:0:bass58.wav
182,192,327536,1,0,0:0:0:0:
36,192,327536,1,0,0:0:0:0:kick.wav
475,192,327637,1,0,0:0:0:0:
402,192,327637,1,0,0:0:0:0:
256,192,327637,1,0,0:0:0:0:
109,192,327737,1,0,0:0:0:0:
182,192,327838,1,0,0:0:0:0:
475,192,327939,1,0,0:0:0:0:
402,192,327939,1,0,0:0:0:0:
256,192,327939,1,0,0:0:0:0:
329,192,328140,1,0,0:0:0:0:bass58.wav
329,192,328241,1,0,0:0:0:0:
475,192,328341,1,0,0:0:0:0:
182,192,328341,1,0,0:0:0:0:bass61.wav
36,192,328341,1,0,0:0:0:0:kick.wav
329,192,328543,1,0,0:0:0:0:bass62.wav
402,192,328643,1,0,0:0:0:0:bass62.wav
475,192,328744,1,0,0:0:0:0:sd.wav
182,192,328744,1,0,0:0:0:0:bass61.wav
36,192,328744,1,0,0:0:0:0:kick.wav
329,192,328945,1,0,0:0:0:0:bass62.wav
109,192,328945,1,0,0:0:0:0:piano013.wav
402,192,329046,1,0,0:0:0:0:bass62.wav
182,192,329147,1,0,0:0:0:0:bass61.wav
36,192,329147,1,0,0:0:0:0:kick.wav
329,192,329348,1,0,0:0:0:0:bass62.wav
109,192,329348,1,0,0:0:0:0:piano014.wav
402,192,329449,1,0,0:0:0:0:bass62.wav
475,192,329549,1,0,0:0:0:0:sd.wav
256,192,329549,1,0,0:0:0:0:piano015.wav
36,192,329549,1,0,0:0:0:0:kick.wav
329,192,329751,1,0,0:0:0:0:bass62.wav
109,192,329751,1,0,0:0:0:0:piano016.wav
402,192,329851,1,0,0:0:0:0:bass62.wav
256,192,329952,1,0,0:0:0:0:piano018.wav
36,192,329952,1,0,0:0:0:0:kick.wav
182,192,330153,1,0,0:0:0:0:bass72.wav
329,192,330254,1,0,0:0:0:0:bass72.wav
475,192,330355,1,0,0:0:0:0:sd.wav
109,192,330355,1,0,0:0:0:0:bass71.wav
36,192,330355,1,0,0:0:0:0:kick.wav
182,192,330556,1,0,0:0:0:0:bass72.wav
329,192,330657,1,0,0:0:0:0:bass72.wav
109,192,330757,1,0,0:0:0:0:bass71.wav
36,192,330757,1,0,0:0:0:0:kick.wav
402,192,330858,1,0,0:0:0:0:
256,192,330858,1,0,0:0:0:0:
475,192,330858,1,0,0:0:0:0:sd.wav
182,192,330959,1,0,0:0:0:0:bass72.wav
109,192,331059,1,0,0:0:0:0:
402,192,331160,1,0,0:0:0:0:
256,192,331160,1,0,0:0:0:0:
475,192,331160,1,0,0:0:0:0:sd.wav
329,192,331361,1,0,0:0:0:0:
475,192,331361,1,0,0:0:0:0:
475,192,331462,1,0,0:0:0:0:
329,192,331462,1,0,0:0:0:0:bass72.wav
256,192,331563,1,0,0:0:0:0:bass67.wav
109,192,331563,1,0,0:0:0:0:piano022.wav
36,192,331563,1,0,0:0:0:0:kick.wav
402,192,331764,1,0,0:0:0:0:bass68.wav
475,192,331865,1,0,0:0:0:0:bass68.wav
109,192,331865,1,0,0:0:0:0:piano023.wav
256,192,331965,1,0,0:0:0:0:bass67.wav
182,192,331965,1,0,0:0:0:0:sd.wav
36,192,331965,1,0,0:0:0:0:kick.wav
402,192,332167,1,0,0:0:0:0:bass68.wav
109,192,332167,1,0,0:0:0:0:piano024.wav
475,192,332267,1,0,0:0:0:0:bass68.wav
182,192,332368,1,0,0:0:0:0:
329,192,332368,1,0,0:0:0:0:bass63.wav
402,192,332569,1,0,0:0:0:0:bass64.wav
475,192,332670,1,0,0:0:0:0:bass64.wav
329,192,332771,1,0,0:0:0:0:bass63.wav
182,192,332771,1,0,0:0:0:0:sd.wav
36,192,332771,1,0,0:0:0:0:kick.wav
402,192,332972,1,0,0:0:0:0:bass64.wav
475,192,333073,1,0,0:0:0:0:bass64.wav
256,192,333173,1,0,0:0:0:0:bass55.wav
182,192,333173,1,0,0:0:0:0:piano028.wav
36,192,333173,1,0,0:0:0:0:kick.wav
329,192,333375,1,0,0:0:0:0:bass56.wav
475,192,333475,1,0,0:0:0:0:bass56.wav
109,192,333475,1,0,0:0:0:0:piano029.wav
256,192,333576,1,0,0:0:0:0:bass55.wav
182,192,333576,1,0,0:0:0:0:sd.wav
36,192,333576,1,0,0:0:0:0:kick.wav
329,192,333778,1,0,0:0:0:0:bass56.wav
182,192,333778,1,0,0:0:0:0:piano030.wav
475,192,333878,1,0,0:0:0:0:bass56.wav
109,192,333979,1,0,0:0:0:0:
256,192,333979,1,0,0:0:0:0:bass53.wav
402,192,334180,1,0,0:0:0:0:bass54.wav
256,192,334180,1,0,0:0:0:0:piano033.wav
475,192,334281,1,0,0:0:0:0:bass54.wav
182,192,334382,1,0,0:0:0:0:sd.wav
329,192,334382,1,0,0:0:0:0:
36,192,334382,1,0,0:0:0:0:kick.wav
109,192,334382,1,0,0:0:0:0:piano034.wav
402,192,334583,1,0,0:0:0:0:bass54.wav
329,192,334583,1,0,0:0:0:0:piano035.wav
475,192,334684,1,0,0:0:0:0:bass54.wav
182,192,334684,1,0,0:0:0:0:sd.wav
256,192,334784,1,0,0:0:0:0:bass61.wav
402,192,334784,1,0,0:0:0:0:piano036.wav
36,192,334784,1,0,0:0:0:0:kick.wav
109,192,334784,1,0,0:0:0:0:piano037.wav
402,192,334986,1,0,0:0:0:0:bass62.wav
475,192,335086,1,0,0:0:0:0:bass62.wav
256,192,335187,1,0,0:0:0:0:bass61.wav
182,192,335187,1,0,0:0:0:0:sd.wav
36,192,335187,1,0,0:0:0:0:kick.wav
402,192,335388,1,0,0:0:0:0:bass62.wav
182,192,335388,1,0,0:0:0:0:piano038.wav
475,192,335489,1,0,0:0:0:0:bass62.wav
256,192,335590,1,0,0:0:0:0:bass61.wav
36,192,335590,1,0,0:0:0:0:kick.wav
402,192,335791,1,0,0:0:0:0:bass62.wav
329,192,335791,1,0,0:0:0:0:piano040.wav
475,192,335892,1,0,0:0:0:0:bass62.wav
329,192,335992,1,0,0:0:0:0:
182,192,335992,1,0,0:0:0:0:
36,192,335992,1,0,0:0:0:0:kick.wav
109,192,335992,1,0,0:0:0:0:piano041.wav
256,192,336194,1,0,0:0:0:0:
402,192,336194,1,0,0:0:0:0:bass62.wav
475,192,336294,1,0,0:0:0:0:bass62.wav
256,192,336395,1,0,0:0:0:0:bass57.wav
402,192,336395,1,0,0:0:0:0:piano043.wav
36,192,336395,1,0,0:0:0:0:kick.wav
109,192,336395,1,0,0:0:0:0:piano044.wav
475,192,336596,1,0,0:0:0:0:
329,192,336596,1,0,0:0:0:0:
182,192,336596,1,0,0:0:0:0:
475,192,336798,1,0,0:0:0:0:
329,192,336798,1,0,0:0:0:0:
182,192,336798,1,0,0:0:0:0:sd.wav
109,192,336999,1,0,0:0:0:0:
475,192,337100,1,0,0:0:0:0:
329,192,337100,1,0,0:0:0:0:
182,192,337100,1,0,0:0:0:0:
109,192,337200,1,0,0:0:0:0:
475,192,337301,1,0,0:0:0:0:
329,192,337301,1,0,0:0:0:0:
182,192,337301,1,0,0:0:0:0:
109,192,337402,1,0,0:0:0:0:
36,192,337502,1,0,0:0:0:0:
402,192,337603,1,0,0:0:0:0:piano049.wav
475,192,337603,1,0,0:0:0:0:
182,192,337603,1,0,0:0:0:0:sd.wav
329,192,337603,1,0,0:0:0:0:bass55.wav
402,192,337804,1,0,0:0:0:0:bass56.wav
256,192,337804,1,0,0:0:0:0:piano050.wav
109,192,337804,1,0,0:0:0:0:sd.wav
475,192,337905,1,0,0:0:0:0:bass56.wav
182,192,337905,1,0,0:0:0:0:sd.wav
402,192,338006,1,0,0:0:0:0:piano001.wav
256,192,338006,1,0,0:0:0:0:piano002.wav
36,192,338006,1,0,0:0:0:0:kick.wav
329,192,338207,1,0,0:0:0:0:
402,192,338308,1,0,0:0:0:0:
256,192,338408,1,0,0:0:0:0:
182,192,338408,1,0,0:0:0:0:sd.wav
36,192,338408,1,0,0:0:0:0:kick.wav
402,192,338610,1,0,0:0:0:0:piano004.wav
109,192,338660,1,0,0:0:0:0:
329,192,338710,1,0,0:0:0:0:
182,192,338761,1,0,0:0:0:0:
402,192,338811,1,0,0:0:0:0:synth1_18.wav
36,192,338811,1,0,0:0:0:0:kick.wav
256,192,338861,1,0,0:0:0:0:
475,192,338912,1,0,0:0:0:0:synth1_20.wav
329,192,338962,1,0,0:0:0:0:
182,192,339012,1,0,0:0:0:0:
36,192,339063,1,0,0:0:0:0:
402,192,339113,1,0,0:0:0:0:
256,192,339163,1,0,0:0:0:0:synth1_29.wav
475,192,339214,1,0,0:0:0:0:
109,192,339214,1,0,0:0:0:0:piano005.wav
329,192,339264,1,0,0:0:0:0:
182,192,339314,1,0,0:0:0:0:
36,192,339365,1,0,0:0:0:0:
256,192,339415,1,0,0:0:0:0:
402,192,339465,1,0,0:0:0:0:
109,192,339516,1,0,0:0:0:0:
182,192,339566,1,0,0:0:0:0:
475,192,339616,1,0,0:0:0:0:
329,192,339616,1,0,0:0:0:0:
36,192,339616,1,0,0:0:0:0:kick.wav
256,192,339717,1,0,0:0:0:0:
402,192,339818,1,0,0:0:0:0:
402,192,339918,1,0,0:0:0:0:
256,192,340019,1,0,0:0:0:0:
182,192,340019,1,0,0:0:0:0:
36,192,340019,1,0,0:0:0:0:kick.wav
402,192,340120,1,0,0:0:0:0:
329,192,340220,1,0,0:0:0:0:
329,192,340321,1,0,0:0:0:0:
182,192,340422,1,0,0:0:0:0:
36,192,340422,1,0,0:0:0:0:kick.wav
475,192,340522,1,0,0:0:0:0:
402,192,340522,1,0,0:0:0:0:
256,192,340522,1,0,0:0:0:0:
182,192,340623,1,0,0:0:0:0:
109,192,340724,1,0,0:0:0:0:
475,192,340824,1,0,0:0:0:0:
256,192,340824,1,0,0:0:0:0:
402,192,340824,1,0,0:0:0:0:bass57.wav
182,192,340925,1,0,0:0:0:0:
256,192,341026,1,0,0:0:0:0:
329,192,341127,1,0,0:0:0:0:
402,192,341227,1,0,0:0:0:0:
475,192,341227,1,0,0:0:0:0:
36,192,341227,1,0,0:0:0:0:kick.wav
109,192,341227,1,0,0:0:0:0:piano011.wav
402,192,341429,1,0,0:0:0:0:bass62.wav
402,192,341529,1,0,0:0:0:0:bass62.wav
329,192,341630,1,0,0:0:0:0:bass61.wav
182,192,341630,1,0,0:0:0:0:sd.wav
36,192,341630,1,0,0:0:0:0:kick.wav
475,192,341831,1,0,0:0:0:0:piano013.wav
256,192,341831,1,0,0:0:0:0:synth1_11.wav
109,192,341882,1,0,0:0:0:0:synth1_11.wav
329,192,341932,1,0,0:0:0:0:synth1_16.wav
182,192,341982,1,0,0:0:0:0:synth1_16.wav
402,192,342033,1,0,0:0:0:0:synth1_20.wav
36,192,342033,1,0,0:0:0:0:kick.wav
256,192,342083,1,0,0:0:0:0:synth1_20.wav
475,192,342133,1,0,0:0:0:0:synth1_22.wav
329,192,342184,1,0,0:0:0:0:synth1_22.wav
182,192,342234,1,0,0:0:0:0:synth1_26.wav
36,192,342284,1,0,0:0:0:0:synth1_26.wav
402,192,342335,1,0,0:0:0:0:synth1_29.wav
256,192,342385,1,0,0:0:0:0:synth1_29.wav
475,192,342435,1,0,0:0:0:0:synth1_05.wav
109,192,342435,1,0,0:0:0:0:piano015.wav
329,192,342486,1,0,0:0:0:0:synth1_06.wav
182,192,342536,1,0,0:0:0:0:
36,192,342586,1,0,0:0:0:0:
256,192,342637,1,0,0:0:0:0:
402,192,342687,1,0,0:0:0:0:
475,192,342737,1,0,0:0:0:0:
182,192,342788,1,0,0:0:0:0:
109,192,342838,1,0,0:0:0:0:
329,192,342838,1,0,0:0:0:0:
36,192,342838,1,0,0:0:0:0:kick.wav
329,192,343039,1,0,0:0:0:0:bass72.wav
329,192,343140,1,0,0:0:0:0:
475,192,343241,1,0,0:0:0:0:
182,192,343241,1,0,0:0:0:0:sd.wav
36,192,343241,1,0,0:0:0:0:kick.wav
182,192,343442,1,0,0:0:0:0:
182,192,343543,1,0,0:0:0:0:
402,192,343643,1,0,0:0:0:0:
256,192,343643,1,0,0:0:0:0:bass71.wav
36,192,343643,1,0,0:0:0:0:kick.wav
109,192,343744,1,0,0:0:0:0:
475,192,343744,1,0,0:0:0:0:
329,192,343744,1,0,0:0:0:0:
182,192,343845,1,0,0:0:0:0:
256,192,343945,1,0,0:0:0:0:
475,192,344046,1,0,0:0:0:0:
329,192,344046,1,0,0:0:0:0:
109,192,344046,1,0,0:0:0:0:
402,192,344247,1,0,0:0:0:0:
329,192,344298,1,0,0:0:0:0:synth1_29.wav
256,192,344348,1,0,0:0:0:0:
182,192,344398,1,0,0:0:0:0:
475,192,344449,1,0,0:0:0:0:synth1_26.wav
36,192,344449,1,0,0:0:0:0:piano022.wav
402,192,344499,1,0,0:0:0:0:synth1_26.wav
329,192,344549,1,0,0:0:0:0:synth1_24.wav
256,192,344600,1,0,0:0:0:0:synth1_24.wav
36,192,344650,1,0,0:0:0:0:
109,192,344700,1,0,0:0:0:0:
182,192,344751,1,0,0:0:0:0:
329,192,344801,1,0,0:0:0:0:synth1_18.wav
402,192,344851,1,0,0:0:0:0:synth1_20.wav
475,192,344902,1,0,0:0:0:0:synth1_20.wav
256,192,344952,1,0,0:0:0:0:
182,192,345002,1,0,0:0:0:0:
109,192,345053,1,0,0:0:0:0:synth1_14.wav
36,192,345103,1,0,0:0:0:0:
402,192,345153,1,0,0:0:0:0:
329,192,345204,1,0,0:0:0:0:
256,192,345254,1,0,0:0:0:0:
182,192,345304,1,0,0:0:0:0:
109,192,345355,1,0,0:0:0:0:
329,192,345405,1,0,0:0:0:0:
402,192,345455,1,0,0:0:0:0:
475,192,345506,1,0,0:0:0:0:
36,192,345556,1,0,0:0:0:0:synth1_19.wav
109,192,345606,1,0,0:0:0:0:synth1_19.wav
182,192,345657,1,0,0:0:0:0:synth1_21.wav
402,192,345707,1,0,0:0:0:0:
329,192,345757,1,0,0:0:0:0:
256,192,345808,1,0,0:0:0:0:
182,192,345858,1,0,0:0:0:0:
109,192,345908,1,0,0:0:0:0:
475,192,345959,1,0,0:0:0:0:
402,192,346009,1,0,0:0:0:0:
329,192,346059,1,0,0:0:0:0:
36,192,346110,1,0,0:0:0:0:
109,192,346160,1,0,0:0:0:0:
182,192,346210,1,0,0:0:0:0:
256,192,346261,1,0,0:0:0:0:
329,192,346311,1,0,0:0:0:0:
402,192,346361,1,0,0:0:0:0:
109,192,346412,1,0,0:0:0:0:
182,192,346462,1,0,0:0:0:0:
475,192,346512,1,0,0:0:0:0:
402,192,346563,1,0,0:0:0:0:
329,192,346613,1,0,0:0:0:0:
256,192,346663,1,0,0:0:0:0:synth1_22.wav
36,192,346714,1,0,0:0:0:0:
109,192,346764,1,0,0:0:0:0:
182,192,346814,1,0,0:0:0:0:
329,192,346865,1,0,0:0:0:0:
402,192,346915,1,0,0:0:0:0:
475,192,346965,1,0,0:0:0:0:
256,192,347016,1,0,0:0:0:0:
329,192,347066,1,0,0:0:0:0:
402,192,347116,1,0,0:0:0:0:
182,192,347167,1,0,0:0:0:0:
256,192,347217,1,0,0:0:0:0:
329,192,347267,1,0,0:0:0:0:
109,192,347318,1,0,0:0:0:0:
182,192,347368,1,0,0:0:0:0:
256,192,347418,1,0,0:0:0:0:
475,192,347469,1,0,0:0:0:0:
402,192,347519,1,0,0:0:0:0:
329,192,347569,1,0,0:0:0:0:
256,192,347620,1,0,0:0:0:0:
109,192,347670,1,0,0:0:0:0:
36,192,347670,1,0,0:0:0:0:piano061.wav
475,192,347720,1,0,0:0:0:0:
402,192,347771,1,0,0:0:0:0:
256,192,347821,1,0,0:0:0:0:
182,192,347871,1,0,0:0:0:0:
109,192,347922,1,0,0:0:0:0:
329,192,347972,1,0,0:0:0:0:
402,192,348022,1,0,0:0:0:0:
475,192,348073,1,0,0:0:0:0:
109,192,348123,1,0,0:0:0:0:
182,192,348173,1,0,0:0:0:0:
256,192,348224,1,0,0:0:0:0:synth1_12.wav
329,192,348274,1,0,0:0:0:0:
402,192,348324,1,0,0:0:0:0:
36,192,348375,1,0,0:0:0:0:
109,192,348425,1,0,0:0:0:0:
182,192,348475,1,0,0:0:0:0:
475,192,348526,1,0,0:0:0:0:
402,192,348576,1,0,0:0:0:0:
329,192,348626,1,0,0:0:0:0:
256,192,348677,1,0,0:0:0:0:
109,192,348727,1,0,0:0:0:0:
182,192,348778,1,0,0:0:0:0:
329,192,348828,1,0,0:0:0:0:
402,192,348878,1,0,0:0:0:0:
475,192,348929,1,0,0:0:0:0:
36,192,348979,1,0,0:0:0:0:
109,192,349029,1,0,0:0:0:0:
182,192,349080,1,0,0:0:0:0:
256,192,349130,1,0,0:0:0:0:
329,192,349180,1,0,0:0:0:0:synth1_18.wav
475,192,349231,1,0,0:0:0:0:
402,192,349281,1,0,0:0:0:0:
256,192,349331,1,0,0:0:0:0:
182,192,349382,1,0,0:0:0:0:
109,192,349432,1,0,0:0:0:0:
329,192,349482,1,0,0:0:0:0:
256,192,349533,1,0,0:0:0:0:
182,192,349583,1,0,0:0:0:0:
402,192,349633,1,0,0:0:0:0:synth1_28.wav
329,192,349684,1,0,0:0:0:0:
256,192,349734,1,0,0:0:0:0:
182,192,349784,1,0,0:0:0:0:synth1_25.wav
109,192,349835,1,0,0:0:0:0:synth1_25.wav
36,192,349885,1,0,0:0:0:0:piano077.wav
329,192,349986,1,0,0:0:0:0:
402,192,350036,1,0,0:0:0:0:
109,192,350086,1,0,0:0:0:0:
36,192,350137,1,0,0:0:0:0:synth1_28.wav
256,192,350187,1,0,0:0:0:0:
329,192,350237,1,0,0:0:0:0:
109,192,350288,1,0,0:0:0:0:
182,192,350338,1,0,0:0:0:0:
402,192,350388,1,0,0:0:0:0:
475,192,350439,1,0,0:0:0:0:synth1_24.wav
36,192,350489,1,0,0:0:0:0:
109,192,350539,1,0,0:0:0:0:
402,192,350590,1,0,0:0:0:0:
329,192,350640,1,0,0:0:0:0:
182,192,350690,1,0,0:0:0:0:
109,192,350741,1,0,0:0:0:0:
475,192,350791,1,0,0:0:0:0:
402,192,350841,1,0,0:0:0:0:
329,192,350892,1,0,0:0:0:0:
182,192,350892,1,0,0:0:0:0:
36,192,350892,1,0,0:0:0:0:kick.wav
256,192,350892,1,0,0:0:0:0:piano082.wav
256,192,351093,1,0,0:0:0:0:piano085.wav
109,192,351093,1,0,0:0:0:0:hat3.wav
402,192,351194,1,0,0:0:0:0:piano084.wav
329,192,351294,1,0,0:0:0:0:piano086.wav
182,192,351294,1,0,0:0:0:0:sd.wav
36,192,351294,1,0,0:0:0:0:kick.wav
475,192,351496,1,0,0:0:0:0:piano088.wav
256,192,351496,1,0,0:0:0:0:piano087.wav
109,192,351496,1,0,0:0:0:0:hat3.wav
402,192,351697,1,0,0:0:0:0:piano089.wav
36,192,351697,1,0,0:0:0:0:kick.wav
475,192,351898,1,0,0:0:0:0:piano090.wav
256,192,351898,1,0,0:0:0:0:synth2_02.wav
256,192,351999,1,0,0:0:0:0:
402,192,352100,1,0,0:0:0:0:piano091.wav
182,192,352100,1,0,0:0:0:0:sd.wav
36,192,352100,1,0,0:0:0:0:kick.wav
109,192,352200,1,0,0:0:0:0:synth2_16.wav
402,192,352301,1,0,0:0:0:0:synth2_17.wav
329,192,352301,1,0,0:0:0:0:piano092.wav
475,192,352402,1,0,0:0:0:0:synth2_22.wav
402,192,352502,1,0,0:0:0:0:piano093.wav
182,192,352502,1,0,0:0:0:0:piano094.wav
36,192,352502,1,0,0:0:0:0:kick.wav
256,192,352704,1,0,0:0:0:0:piano095.wav
475,192,352804,1,0,0:0:0:0:piano098.wav
329,192,352905,1,0,0:0:0:0:piano096.wav
182,192,352905,1,0,0:0:0:0:sd.wav
36,192,352905,1,0,0:0:0:0:kick.wav
402,192,353106,1,0,0:0:0:0:piano099.wav
256,192,353106,1,0,0:0:0:0:piano097.wav
475,192,353308,1,0,0:0:0:0:piano100.wav
36,192,353308,1,0,0:0:0:0:kick.wav
475,192,353509,1,0,0:0:0:0:piano101.wav
256,192,353509,1,0,0:0:0:0:synth2_01.wav
256,192,353610,1,0,0:0:0:0:synth2_01.wav
402,192,353710,1,0,0:0:0:0:piano102.wav
182,192,353710,1,0,0:0:0:0:sd.wav
36,192,353710,1,0,0:0:0:0:kick.wav
109,192,353811,1,0,0:0:0:0:synth2_15.wav
402,192,353912,1,0,0:0:0:0:synth2_16.wav
329,192,353912,1,0,0:0:0:0:piano103.wav
475,192,354012,1,0,0:0:0:0:synth2_22.wav
402,192,354113,1,0,0:0:0:0:piano104.wav
182,192,354113,1,0,0:0:0:0:piano105.wav
36,192,354113,1,0,0:0:0:0:kick.wav
256,192,354314,1,0,0:0:0:0:piano106.wav
109,192,354314,1,0,0:0:0:0:hat3.wav
329,192,354516,1,0,0:0:0:0:piano107.wav
182,192,354516,1,0,0:0:0:0:sd.wav
36,192,354516,1,0,0:0:0:0:kick.wav
402,192,354717,1,0,0:0:0:0:piano108.wav
109,192,354717,1,0,0:0:0:0:hat3.wav
475,192,354918,1,0,0:0:0:0:piano109.wav
256,192,354918,1,0,0:0:0:0:piano110.wav
36,192,354918,1,0,0:0:0:0:kick.wav
329,192,355120,1,0,0:0:0:0:piano111.wav
109,192,355120,1,0,0:0:0:0:hat3.wav
402,192,355321,1,0,0:0:0:0:piano112.wav
182,192,355321,1,0,0:0:0:0:sd.wav
36,192,355321,1,0,0:0:0:0:kick.wav
256,192,355522,1,0,0:0:0:0:piano113.wav
109,192,355522,1,0,0:0:0:0:hat3.wav
475,192,355724,1,0,0:0:0:0:piano114.wav
182,192,355724,1,0,0:0:0:0:piano115.wav
36,192,355724,1,0,0:0:0:0:kick.wav
402,192,355925,1,0,0:0:0:0:synth2_28.wav
109,192,355925,1,0,0:0:0:0:piano116.wav
402,192,356026,1,0,0:0:0:0:synth2_28.wav
475,192,356126,1,0,0:0:0:0:sd.wav
182,192,356126,1,0,0:0:0:0:piano117.wav
36,192,356126,1,0,0:0:0:0:kick.wav
475,192,356328,1,0,0:0:0:0:piano118.wav
329,192,356328,1,0,0:0:0:0:synth2_27.wav
402,192,356429,1,0,0:0:0:0:synth2_28.wav
182,192,356429,1,0,0:0:0:0:sd.wav
256,192,356529,1,0,0:0:0:0:synth2_26.wav
36,192,356529,1,0,0:0:0:0:kick.wav
329,192,356630,1,0,0:0:0:0:sd.wav
109,192,356630,1,0,0:0:0:0:synth2_24.wav
402,192,356731,1,0,0:0:0:0:synth2_28.wav
475,192,356831,1,0,0:0:0:0:synth2_29.wav
329,192,356932,1,0,0:0:0:0:sd.wav
402,192,356932,1,0,0:0:0:0:synth2_28.wav
36,192,356932,1,0,0:0:0:0:kick.wav
182,192,356932,1,0,0:0:0:0:piano119.wav
256,192,357033,1,0,0:0:0:0:synth2_26.wav
109,192,357133,1,0,0:0:0:0:sd.wav
182,192,357234,1,0,0:0:0:0:synth2_25.wav
475,192,357335,1,0,0:0:0:0:piano120.wav
256,192,357335,1,0,0:0:0:0:piano121.wav
36,192,357335,1,0,0:0:0:0:kick.wav
329,192,357536,1,0,0:0:0:0:piano123.wav
402,192,357637,1,0,0:0:0:0:piano122.wav
475,192,357737,1,0,0:0:0:0:piano124.wav
182,192,357737,1,0,0:0:0:0:sd.wav
36,192,357737,1,0,0:0:0:0:kick.wav
402,192,357939,1,0,0:0:0:0:piano126.wav
256,192,357939,1,0,0:0:0:0:piano125.wav
329,192,358140,1,0,0:0:0:0:piano127.wav
36,192,358140,1,0,0:0:0:0:kick.wav
475,192,358341,1,0,0:0:0:0:synth2_04.wav
256,192,358341,1,0,0:0:0:0:piano128.wav
475,192,358442,1,0,0:0:0:0:synth2_04.wav
182,192,358543,1,0,0:0:0:0:piano129.wav
36,192,358543,1,0,0:0:0:0:kick.wav
402,192,358643,1,0,0:0:0:0:synth2_19.wav
329,192,358744,1,0,0:0:0:0:synth2_17.wav
109,192,358744,1,0,0:0:0:0:piano130.wav
256,192,358845,1,0,0:0:0:0:synth2_12.wav
475,192,358945,1,0,0:0:0:0:piano131.wav
182,192,358945,1,0,0:0:0:0:piano132.wav
36,192,358945,1,0,0:0:0:0:kick.wav
256,192,359147,1,0,0:0:0:0:piano134.wav
402,192,359247,1,0,0:0:0:0:piano133.wav
475,192,359348,1,0,0:0:0:0:piano135.wav
182,192,359348,1,0,0:0:0:0:sd.wav
36,192,359348,1,0,0:0:0:0:kick.wav
402,192,359549,1,0,0:0:0:0:piano136.wav
256,192,359549,1,0,0:0:0:0:piano137.wav
36,192,359751,1,0,0:0:0:0:kick.wav
475,192,359952,1,0,0:0:0:0:synth2_03.wav
182,192,360002,1,0,0:0:0:0:piano138.wav
475,192,360053,1,0,0:0:0:0:synth2_03.wav
256,192,360153,1,0,0:0:0:0:piano139.wav
36,192,360153,1,0,0:0:0:0:kick.wav
402,192,360254,1,0,0:0:0:0:synth2_18.wav
329,192,360355,1,0,0:0:0:0:piano140.wav
256,192,360355,1,0,0:0:0:0:synth2_17.wav
109,192,360455,1,0,0:0:0:0:synth2_11.wav
475,192,360556,1,0,0:0:0:0:piano141.wav
256,192,360556,1,0,0:0:0:0:piano142.wav
329,192,360757,1,0,0:0:0:0:piano143.wav
182,192,360757,1,0,0:0:0:0:synth2_05.wav
36,192,360808,1,0,0:0:0:0:synth2_05.wav
256,192,360858,1,0,0:0:0:0:synth2_09.wav
109,192,360908,1,0,0:0:0:0:synth2_09.wav
329,192,360959,1,0,0:0:0:0:synth2_12.wav
182,192,361009,1,0,0:0:0:0:synth2_12.wav
402,192,361059,1,0,0:0:0:0:synth2_15.wav
256,192,361110,1,0,0:0:0:0:synth2_15.wav
475,192,361160,1,0,0:0:0:0:synth2_17.wav
109,192,361210,1,0,0:0:0:0:synth2_17.wav
329,192,361261,1,0,0:0:0:0:synth2_20.wav
182,192,361311,1,0,0:0:0:0:synth2_20.wav
475,192,361361,1,0,0:0:0:0:piano146.wav
36,192,361361,1,0,0:0:0:0:piano147.wav
402,192,361412,1,0,0:0:0:0:
329,192,361462,1,0,0:0:0:0:
36,192,361563,1,0,0:0:0:0:synth2_06.wav
109,192,361613,1,0,0:0:0:0:synth2_06.wav
182,192,361663,1,0,0:0:0:0:synth2_10.wav
256,192,361714,1,0,0:0:0:0:synth2_10.wav
329,192,361764,1,0,0:0:0:0:synth2_13.wav
402,192,361814,1,0,0:0:0:0:synth2_13.wav
109,192,361865,1,0,0:0:0:0:synth2_15.wav
182,192,361915,1,0,0:0:0:0:synth2_15.wav
256,192,361965,1,0,0:0:0:0:piano150.wav
329,192,362016,1,0,0:0:0:0:piano150.wav
402,192,362066,1,0,0:0:0:0:synth2_18.wav
475,192,362116,1,0,0:0:0:0:synth2_18.wav
36,192,362167,1,0,0:0:0:0:
182,192,362167,1,0,0:0:0:0:piano152.wav
256,192,362267,1,0,0:0:0:0:
36,192,362368,1,0,0:0:0:0:synth2_07.wav
109,192,362418,1,0,0:0:0:0:synth2_07.wav
182,192,362469,1,0,0:0:0:0:synth2_10.wav
256,192,362519,1,0,0:0:0:0:synth2_10.wav
329,192,362569,1,0,0:0:0:0:synth2_14.wav
402,192,362620,1,0,0:0:0:0:synth2_14.wav
36,192,362670,1,0,0:0:0:0:synth2_16.wav
109,192,362720,1,0,0:0:0:0:synth2_16.wav
182,192,362771,1,0,0:0:0:0:synth2_18.wav
256,192,362821,1,0,0:0:0:0:synth2_18.wav
475,192,362871,1,0,0:0:0:0:synth2_22.wav
402,192,362922,1,0,0:0:0:0:synth2_22.wav
329,192,362972,1,0,0:0:0:0:synth2_22.wav
256,192,363022,1,0,0:0:0:0:synth2_22.wav
36,192,363073,1,0,0:0:0:0:synth2_18.wav
109,192,363123,1,0,0:0:0:0:synth2_18.wav
182,192,363173,1,0,0:0:0:0:synth2_17.wav
329,192,363224,1,0,0:0:0:0:synth2_17.wav
402,192,363274,1,0,0:0:0:0:synth2_16.wav
475,192,363324,1,0,0:0:0:0:synth2_16.wav
36,192,363375,1,0,0:0:0:0:piano157.wav
109,192,363475,1,0,0:0:0:0:piano158.wav
402,192,363576,1,0,0:0:0:0:synth2_09.wav
329,192,363626,1,0,0:0:0:0:synth2_09.wav
256,192,363677,1,0,0:0:0:0:synth2_08.wav
182,192,363727,1,0,0:0:0:0:synth2_08.wav
109,192,363778,1,0,0:0:0:0:harp02.wav
36,192,363828,1,0,0:0:0:0:harp02.wav
256,192,363929,1,0,0:0:0:0:harp06.wav
109,192,364029,1,0,0:0:0:0:harp09.wav
329,192,364080,1,0,0:0:0:0:harp11.wav
256,192,364130,1,0,0:0:0:0:harp11.wav
182,192,364180,1,0,0:0:0:0:harp15.wav
109,192,364231,1,0,0:0:0:0:harp15.wav
402,192,364281,1,0,0:0:0:0:harp18.wav
329,192,364331,1,0,0:0:0:0:harp18.wav
256,192,364382,1,0,0:0:0:0:harp20.wav
182,192,364432,1,0,0:0:0:0:harp20.wav
475,192,364482,1,0,0:0:0:0:harp24.wav
402,192,364533,1,0,0:0:0:0:harp24.wav
329,192,364583,1,0,0:0:0:0:harp04.wav
36,192,364633,1,0,0:0:0:0:harp04.wav
256,192,364684,1,0,0:0:0:0:harp07.wav
109,192,364734,1,0,0:0:0:0:harp07.wav
402,192,364784,1,0,0:0:0:0:harp10.wav
182,192,364835,1,0,0:0:0:0:harp10.wav
475,192,364885,1,0,0:0:0:0:harp13.wav
329,192,364935,1,0,0:0:0:0:harp13.wav
36,192,364986,1,0,0:0:0:0:harp08.wav
109,192,365036,1,0,0:0:0:0:harp10.wav
256,192,365086,1,0,0:0:0:0:
402,192,365137,1,0,0:0:0:0:
182,192,365187,1,0,0:0:0:0:
475,192,365237,1,0,0:0:0:0:
329,192,365288,1,0,0:0:0:0:harp17.wav
109,192,365338,1,0,0:0:0:0:
36,192,365388,1,0,0:0:0:0:kick.wav
256,192,365455,1,0,0:0:0:0:
402,192,365522,1,0,0:0:0:0:
182,192,365590,1,0,0:0:0:0:
36,192,365657,1,0,0:0:0:0:
256,192,365724,1,0,0:0:0:0:
109,192,365791,1,0,0:0:0:0:
475,192,365791,1,0,0:0:0:0:
402,192,365841,1,0,0:0:0:0:
329,192,365892,1,0,0:0:0:0:
182,192,365942,1,0,0:0:0:0:
36,192,365992,1,0,0:0:0:0:
256,192,366043,1,0,0:0:0:0:
329,192,366093,1,0,0:0:0:0:
402,192,366143,1,0,0:0:0:0:
109,192,366194,1,0,0:0:0:0:
475,192,366194,1,0,0:0:0:0:
182,192,366261,1,0,0:0:0:0:
329,192,366328,1,0,0:0:0:0:
36,192,366395,1,0,0:0:0:0:
109,192,366462,1,0,0:0:0:0:
256,192,366529,1,0,0:0:0:0:
475,192,366596,1,0,0:0:0:0:
402,192,366596,1,0,0:0:0:0:
329,192,366647,1,0,0:0:0:0:
182,192,366697,1,0,0:0:0:0:
109,192,366747,1,0,0:0:0:0:
36,192,366798,1,0,0:0:0:0:
402,192,366848,1,0,0:0:0:0:
329,192,366898,1,0,0:0:0:0:
256,192,366949,1,0,0:0:0:0:
182,192,366999,1,0,0:0:0:0:
36,192,366999,1,0,0:0:0:0:
475,192,367066,1,0,0:0:0:0:
256,192,367133,1,0,0:0:0:0:
109,192,367200,1,0,0:0:0:0:
182,192,367267,1,0,0:0:0:0:
329,192,367335,1,0,0:0:0:0:
36,192,367402,1,0,0:0:0:0:
402,192,367402,1,0,0:0:0:0:
109,192,367452,1,0,0:0:0:0:
256,192,367502,1,0,0:0:0:0:
329,192,367553,1,0,0:0:0:0:
475,192,367603,1,0,0:0:0:0:
182,192,367653,1,0,0:0:0:0:
109,192,367704,1,0,0:0:0:0:
36,192,367754,1,0,0:0:0:0:
329,192,367804,1,0,0:0:0:0:
402,192,367804,1,0,0:0:0:0:
256,192,367871,1,0,0:0:0:0:
109,192,367939,1,0,0:0:0:0:
475,192,368006,1,0,0:0:0:0:
402,192,368073,1,0,0:0:0:0:
182,192,368140,1,0,0:0:0:0:
256,192,368207,1,0,0:0:0:0:
36,192,368207,1,0,0:0:0:0:
329,192,368257,1,0,0:0:0:0:
475,192,368308,1,0,0:0:0:0:
109,192,368358,1,0,0:0:0:0:
182,192,368408,1,0,0:0:0:0:
256,192,368459,1,0,0:0:0:0:
402,192,368509,1,0,0:0:0:0:
329,192,368559,1,0,0:0:0:0:
109,192,368610,1,0,0:0:0:0:
36,192,368610,1,0,0:0:0:0:
256,192,368677,1,0,0:0:0:0:
402,192,368744,1,0,0:0:0:0:
182,192,368811,1,0,0:0:0:0:
36,192,368878,1,0,0:0:0:0:
329,192,368945,1,0,0:0:0:0:
475,192,369012,1,0,0:0:0:0:
109,192,369012,1,0,0:0:0:0:
182,192,369063,1,0,0:0:0:0:
256,192,369113,1,0,0:0:0:0:
402,192,369163,1,0,0:0:0:0:
329,192,369214,1,0,0:0:0:0:
182,192,369264,1,0,0:0:0:0:
109,192,369314,1,0,0:0:0:0:
36,192,369365,1,0,0:0:0:0:
475,192,369415,1,0,0:0:0:0:
256,192,369415,1,0,0:0:0:0:
182,192,369482,1,0,0:0:0:0:
329,192,369549,1,0,0:0:0:0:
109,192,369616,1,0,0:0:0:0:
256,192,369684,1,0,0:0:0:0:
402,192,369751,1,0,0:0:0:0:
36,192,369818,1,0,0:0:0:0:
329,192,369818,1,0,0:0:0:0:
109,192,369868,1,0,0:0:0:0:
182,192,369918,1,0,0:0:0:0:
475,192,369969,1,0,0:0:0:0:
402,192,370019,1,0,0:0:0:0:
329,192,370069,1,0,0:0:0:0:
109,192,370120,1,0,0:0:0:0:
182,192,370170,1,0,0:0:0:0:
475,192,370220,1,0,0:0:0:0:
256,192,370220,1,0,0:0:0:0:
402,192,370288,1,0,0:0:0:0:
36,192,370355,1,0,0:0:0:0:
182,192,370422,1,0,0:0:0:0:
329,192,370489,1,0,0:0:0:0:
109,192,370556,1,0,0:0:0:0:
475,192,370623,1,0,0:0:0:0:
256,192,370623,1,0,0:0:0:0:
402,192,370673,1,0,0:0:0:0:
182,192,370724,1,0,0:0:0:0:
109,192,370774,1,0,0:0:0:0:
36,192,370824,1,0,0:0:0:0:
256,192,370875,1,0,0:0:0:0:
329,192,370925,1,0,0:0:0:0:
402,192,370975,1,0,0:0:0:0:
182,192,371026,1,0,0:0:0:0:
36,192,371026,1,0,0:0:0:0:
475,192,371026,1,0,0:0:0:0:
402,192,371126,1,0,0:0:0:0:
256,192,371126,1,0,0:0:0:0:
36,192,371227,1,0,0:0:0:0:
109,192,371278,1,0,0:0:0:0:
182,192,371328,1,0,0:0:0:0:
256,192,371378,1,0,0:0:0:0:
402,192,371429,1,0,0:0:0:0:
329,192,371479,1,0,0:0:0:0:
182,192,371529,1,0,0:0:0:0:
109,192,371580,1,0,0:0:0:0:
36,192,371630,1,0,0:0:0:0:
475,192,371630,1,0,0:0:0:0:
402,192,371680,1,0,0:0:0:0:
256,192,371731,1,0,0:0:0:0:
182,192,371781,1,0,0:0:0:0:
109,192,371831,1,0,0:0:0:0:
36,192,371831,1,0,0:0:0:0:
475,192,371898,1,0,0:0:0:0:
256,192,371965,1,0,0:0:0:0:
109,192,372033,1,0,0:0:0:0:
402,192,372100,1,0,0:0:0:0:
182,192,372167,1,0,0:0:0:0:
475,192,372234,1,0,0:0:0:0:
256,192,372234,1,0,0:0:0:0:
36,192,372284,1,0,0:0:0:0:
109,192,372335,1,0,0:0:0:0:
329,192,372385,1,0,0:0:0:0:
402,192,372435,1,0,0:0:0:0:
182,192,372486,1,0,0:0:0:0:
256,192,372536,1,0,0:0:0:0:
329,192,372586,1,0,0:0:0:0:
36,192,372637,1,0,0:0:0:0:
475,192,372637,1,0,0:0:0:0:
182,192,372704,1,0,0:0:0:0:
402,192,372771,1,0,0:0:0:0:
256,192,372838,1,0,0:0:0:0:
109,192,372905,1,0,0:0:0:0:
329,192,372972,1,0,0:0:0:0:
182,192,373039,1,0,0:0:0:0:
475,192,373039,1,0,0:0:0:0:
36,192,373090,1,0,0:0:0:0:
109,192,373140,1,0,0:0:0:0:
256,192,373190,1,0,0:0:0:0:
329,192,373241,1,0,0:0:0:0:
402,192,373291,1,0,0:0:0:0:
475,192,373341,1,0,0:0:0:0:
36,192,373392,1,0,0:0:0:0:
109,192,373442,1,0,0:0:0:0:
256,192,373442,1,0,0:0:0:0:
402,192,373509,1,0,0:0:0:0:
182,192,373576,1,0,0:0:0:0:
36,192,373643,1,0,0:0:0:0:
256,192,373710,1,0,0:0:0:0:
402,192,373778,1,0,0:0:0:0:
182,192,373845,1,0,0:0:0:0:
109,192,373845,1,0,0:0:0:0:
329,192,373895,1,0,0:0:0:0:
402,192,373945,1,0,0:0:0:0:
475,192,373996,1,0,0:0:0:0:
256,192,374046,1,0,0:0:0:0:
182,192,374096,1,0,0:0:0:0:
109,192,374147,1,0,0:0:0:0:
36,192,374197,1,0,0:0:0:0:
475,192,374247,1,0,0:0:0:0:
329,192,374247,1,0,0:0:0:0:
256,192,374314,1,0,0:0:0:0:
402,192,374382,1,0,0:0:0:0:
182,192,374449,1,0,0:0:0:0:
36,192,374516,1,0,0:0:0:0:
109,192,374583,1,0,0:0:0:0:
329,192,374650,1,0,0:0:0:0:
475,192,374650,1,0,0:0:0:0:
256,192,374700,1,0,0:0:0:0:
182,192,374751,1,0,0:0:0:0:
402,192,374801,1,0,0:0:0:0:
329,192,374851,1,0,0:0:0:0:
36,192,374902,1,0,0:0:0:0:
109,192,374952,1,0,0:0:0:0:
182,192,375002,1,0,0:0:0:0:
475,192,375053,1,0,0:0:0:0:
329,192,375053,1,0,0:0:0:0:
256,192,375120,1,0,0:0:0:0:
109,192,375187,1,0,0:0:0:0:
402,192,375254,1,0,0:0:0:0:
182,192,375321,1,0,0:0:0:0:
329,192,375388,1,0,0:0:0:0:
256,192,375455,1,0,0:0:0:0:
36,192,375455,1,0,0:0:0:0:
475,192,375506,1,0,0:0:0:0:
402,192,375556,1,0,0:0:0:0:
182,192,375606,1,0,0:0:0:0:
109,192,375657,1,0,0:0:0:0:
36,192,375707,1,0,0:0:0:0:
256,192,375757,1,0,0:0:0:0:
329,192,375808,1,0,0:0:0:0:
402,192,375858,1,0,0:0:0:0:
475,192,375858,1,0,0:0:0:0:
182,192,375925,1,0,0:0:0:0:
36,192,375992,1,0,0:0:0:0:
256,192,376059,1,0,0:0:0:0:
109,192,376126,1,0,0:0:0:0:
329,192,376194,1,0,0:0:0:0:
182,192,376261,1,0,0:0:0:0:
475,192,376261,1,0,0:0:0:0:
402,192,376311,1,0,0:0:0:0:
329,192,376361,1,0,0:0:0:0:
36,192,376412,1,0,0:0:0:0:
109,192,376462,1,0,0:0:0:0:
182,192,376512,1,0,0:0:0:0:
329,192,376563,1,0,0:0:0:0:
402,192,376613,1,0,0:0:0:0:
36,192,376663,1,0,0:0:0:0:
256,192,376663,1,0,0:0:0:0:
475,192,376663,1,0,0:0:0:0:
329,192,376764,1,0,0:0:0:0:
109,192,376764,1,0,0:0:0:0:
475,192,376865,1,0,0:0:0:0:
402,192,376865,1,0,0:0:0:0:
182,192,376865,1,0,0:0:0:0:
182,192,377066,1,0,0:0:0:0:
475,192,377066,1,0,0:0:0:0:
402,192,377066,1,0,0:0:0:0:
329,192,377167,1,0,0:0:0:0:
109,192,377167,1,0,0:0:0:0:
475,192,377267,1,0,0:0:0:0:
256,192,377267,1,0,0:0:0:0:
36,192,377267,1,0,0:0:0:0:
475,192,377469,1,0,0:0:0:0:
182,192,377469,1,0,0:0:0:0:
36,192,377469,1,0,0:0:0:0:
256,192,377519,1,0,0:0:0:0:
402,192,377569,1,0,0:0:0:0:
109,192,377620,1,0,0:0:0:0:
329,192,377670,1,0,0:0:0:0:
182,192,377720,1,0,0:0:0:0:
402,192,377771,1,0,0:0:0:0:
256,192,377821,1,0,0:0:0:0:
36,192,377871,1,0,0:0:0:0:
329,192,377922,1,0,0:0:0:0:
109,192,377972,1,0,0:0:0:0:
402,192,378022,1,0,0:0:0:0:
182,192,378073,1,0,0:0:0:0:
329,192,378123,1,0,0:0:0:0:
109,192,378173,1,0,0:0:0:0:
256,192,378224,1,0,0:0:0:0:
36,192,378274,1,0,0:0:0:0:
402,192,378274,1,0,0:0:0:0:
475,192,378274,1,0,0:0:0:0:
182,192,378341,1,0,0:0:0:0:
329,192,378408,1,0,0:0:0:0:
109,192,378475,1,0,0:0:0:0:
256,192,378543,1,0,0:0:0:0:
402,192,378610,1,0,0:0:0:0:
36,192,378677,1,0,0:0:0:0:
475,192,378677,1,0,0:0:0:0:
109,192,378727,1,0,0:0:0:0:
182,192,378778,1,0,0:0:0:0:
329,192,378828,1,0,0:0:0:0:
402,192,378878,1,0,0:0:0:0:
182,192,378929,1,0,0:0:0:0:
109,192,378979,1,0,0:0:0:0:
36,192,379029,1,0,0:0:0:0:
475,192,379080,1,0,0:0:0:0:
329,192,379080,1,0,0:0:0:0:
109,192,379147,1,0,0:0:0:0:
256,192,379214,1,0,0:0:0:0:
402,192,379281,1,0,0:0:0:0:
182,192,379348,1,0,0:0:0:0:
36,192,379415,1,0,0:0:0:0:
475,192,379482,1,0,0:0:0:0:
329,192,379482,1,0,0:0:0:0:
256,192,379533,1,0,0:0:0:0:
182,192,379583,1,0,0:0:0:0:
109,192,379633,1,0,0:0:0:0:
402,192,379684,1,0,0:0:0:0:
329,192,379734,1,0,0:0:0:0:
256,192,379784,1,0,0:0:0:0:
182,192,379835,1,0,0:0:0:0:
475,192,379885,1,0,0:0:0:0:
36,192,379885,1,0,0:0:0:0:
402,192,379952,1,0,0:0:0:0:
256,192,380019,1,0,0:0:0:0:
109,192,380086,1,0,0:0:0:0:
329,192,380153,1,0,0:0:0:0:
475,192,380220,1,0,0:0:0:0:
36,192,380288,1,0,0:0:0:0:
182,192,380288,1,0,0:0:0:0:
256,192,380338,1,0,0:0:0:0:
329,192,380388,1,0,0:0:0:0:
475,192,380439,1,0,0:0:0:0:
109,192,380489,1,0,0:0:0:0:
182,192,380539,1,0,0:0:0:0:
329,192,380590,1,0,0:0:0:0:
402,192,380640,1,0,0:0:0:0:
475,192,380690,1,0,0:0:0:0:
36,192,380690,1,0,0:0:0:0:
182,192,380757,1,0,0:0:0:0:
329,192,380824,1,0,0:0:0:0:
109,192,380892,1,0,0:0:0:0:
256,192,380959,1,0,0:0:0:0:
402,192,381026,1,0,0:0:0:0:
36,192,381093,1,0,0:0:0:0:
475,192,381093,1,0,0:0:0:0:
182,192,381143,1,0,0:0:0:0:
329,192,381194,1,0,0:0:0:0:
36,192,381244,1,0,0:0:0:0:
109,192,381294,1,0,0:0:0:0:
182,192,381345,1,0,0:0:0:0:
329,192,381395,1,0,0:0:0:0:
402,192,381445,1,0,0:0:0:0:harp25.wav
475,192,381496,1,0,0:0:0:0:
36,192,381496,1,0,0:0:0:0:
402,192,381563,1,0,0:0:0:0:
109,192,381630,1,0,0:0:0:0:
256,192,381697,1,0,0:0:0:0:
329,192,381764,1,0,0:0:0:0:
475,192,381831,1,0,0:0:0:0:
36,192,381898,1,0,0:0:0:0:
182,192,381898,1,0,0:0:0:0:
256,192,381949,1,0,0:0:0:0:
402,192,381999,1,0,0:0:0:0:
109,192,382049,1,0,0:0:0:0:
182,192,382100,1,0,0:0:0:0:
329,192,382150,1,0,0:0:0:0:
475,192,382200,1,0,0:0:0:0:
256,192,382251,1,0,0:0:0:0:
36,192,382301,1,0,0:0:0:0:
109,192,382301,1,0,0:0:0:0:
402,192,382368,1,0,0:0:0:0:
329,192,382435,1,0,0:0:0:0:
182,192,382502,1,0,0:0:0:0:
36,192,382569,1,0,0:0:0:0:
256,192,382637,1,0,0:0:0:0:
475,192,382704,1,0,0:0:0:0:
402,192,382704,1,0,0:0:0:0:
109,192,382754,1,0,0:0:0:0:
36,192,382804,1,0,0:0:0:0:
329,192,382855,1,0,0:0:0:0:
402,192,382905,1,0,0:0:0:0:
475,192,382955,1,0,0:0:0:0:
109,192,383006,1,0,0:0:0:0:
182,192,383056,1,0,0:0:0:0:
402,192,383106,1,0,0:0:0:0:
256,192,383106,1,0,0:0:0:0:
36,192,383173,1,0,0:0:0:0:
109,192,383241,1,0,0:0:0:0:
329,192,383308,1,0,0:0:0:0:
182,192,383375,1,0,0:0:0:0:
402,192,383442,1,0,0:0:0:0:
36,192,383509,1,0,0:0:0:0:
475,192,383509,1,0,0:0:0:0:
109,192,383559,1,0,0:0:0:0:
182,192,383610,1,0,0:0:0:0:
329,192,383660,1,0,0:0:0:0:
402,192,383710,1,0,0:0:0:0:
475,192,383761,1,0,0:0:0:0:
182,192,383811,1,0,0:0:0:0:
109,192,383861,1,0,0:0:0:0:
329,192,383912,1,0,0:0:0:0:
36,192,383912,1,0,0:0:0:0:
475,192,383979,1,0,0:0:0:0:
256,192,384046,1,0,0:0:0:0:
182,192,384113,1,0,0:0:0:0:
36,192,384180,1,0,0:0:0:0:
329,192,384247,1,0,0:0:0:0:
109,192,384314,1,0,0:0:0:0:
402,192,384314,1,0,0:0:0:0:
182,192,384365,1,0,0:0:0:0:
475,192,384415,1,0,0:0:0:0:
329,192,384465,1,0,0:0:0:0:
256,192,384516,1,0,0:0:0:0:
36,192,384566,1,0,0:0:0:0:
109,192,384616,1,0,0:0:0:0:
182,192,384667,1,0,0:0:0:0:
475,192,384717,1,0,0:0:0:0:
402,192,384717,1,0,0:0:0:0:
329,192,384767,1,0,0:0:0:0:
256,192,384818,1,0,0:0:0:0:
36,192,384868,1,0,0:0:0:0:
109,192,384918,1,0,0:0:0:0:
182,192,384969,1,0,0:0:0:0:
329,192,385019,1,0,0:0:0:0:
402,192,385069,1,0,0:0:0:0:
36,192,385120,1,0,0:0:0:0:
475,192,385120,1,0,0:0:0:0:
256,192,385170,1,0,0:0:0:0:
109,192,385220,1,0,0:0:0:0:
329,192,385271,1,0,0:0:0:0:
182,192,385321,1,0,0:0:0:0:
402,192,385371,1,0,0:0:0:0:
36,192,385422,1,0,0:0:0:0:
109,192,385472,1,0,0:0:0:0:
329,192,385522,1,0,0:0:0:0:
475,192,385522,1,0,0:0:0:0:
256,192,385573,1,0,0:0:0:0:
182,192,385623,1,0,0:0:0:0:
109,192,385673,1,0,0:0:0:0:
36,192,385724,1,0,0:0:0:0:
256,192,385774,1,0,0:0:0:0:
329,192,385824,1,0,0:0:0:0:
402,192,385875,1,0,0:0:0:0:
109,192,385925,1,0,0:0:0:0:
475,192,385925,1,0,0:0:0:0:
182,192,385975,1,0,0:0:0:0:
329,192,386026,1,0,0:0:0:0:
36,192,386076,1,0,0:0:0:0:
256,192,386126,1,0,0:0:0:0:
402,192,386177,1,0,0:0:0:0:
109,192,386227,1,0,0:0:0:0:
182,192,386278,1,0,0:0:0:0:
475,192,386328,1,0,0:0:0:0:
329,192,386328,1,0,0:0:0:0:
36,192,386378,1,0,0:0:0:0:
109,192,386429,1,0,0:0:0:0:
182,192,386479,1,0,0:0:0:0:
256,192,386529,1,0,0:0:0:0:
329,192,386580,1,0,0:0:0:0:
402,192,386630,1,0,0:0:0:0:
475,192,386680,1,0,0:0:0:0:
109,192,386731,1,0,0:0:0:0:
36,192,386731,1,0,0:0:0:0:
256,192,386781,1,0,0:0:0:0:
402,192,386831,1,0,0:0:0:0:
182,192,386882,1,0,0:0:0:0:
36,192,386932,1,0,0:0:0:0:
256,192,386982,1,0,0:0:0:0:
475,192,387033,1,0,0:0:0:0:
109,192,387083,1,0,0:0:0:0:
402,192,387133,1,0,0:0:0:0:
182,192,387133,1,0,0:0:0:0:
329,192,387184,1,0,0:0:0:0:
256,192,387234,1,0,0:0:0:0:
36,192,387284,1,0,0:0:0:0:
109,192,387335,1,0,0:0:0:0:
182,192,387385,1,0,0:0:0:0:
329,192,387435,1,0,0:0:0:0:
402,192,387486,1,0,0:0:0:0:
36,192,387536,1,0,0:0:0:0:
475,192,387536,1,0,0:0:0:0:
256,192,387586,1,0,0:0:0:0:
109,192,387637,1,0,0:0:0:0:
329,192,387687,1,0,0:0:0:0:
475,192,387737,1,0,0:0:0:0:
182,192,387788,1,0,0:0:0:0:
36,192,387838,1,0,0:0:0:0:
256,192,387888,1,0,0:0:0:0:
475,192,387939,1,0,0:0:0:0:
402,192,387939,1,0,0:0:0:0:
109,192,387989,1,0,0:0:0:0:
182,192,388039,1,0,0:0:0:0:
256,192,388090,1,0,0:0:0:0:
329,192,388140,1,0,0:0:0:0:
402,192,388190,1,0,0:0:0:0:
36,192,388241,1,0,0:0:0:0:
109,192,388291,1,0,0:0:0:0:
475,192,388341,1,0,0:0:0:0:
182,192,388341,1,0,0:0:0:0:
329,192,388392,1,0,0:0:0:0:
36,192,388442,1,0,0:0:0:0:
256,192,388492,1,0,0:0:0:0:
109,192,388543,1,0,0:0:0:0:
402,192,388593,1,0,0:0:0:0:
182,192,388643,1,0,0:0:0:0:
475,192,388694,1,0,0:0:0:0:
36,192,388744,1,0,0:0:0:0:
256,192,388744,1,0,0:0:0:0:
109,192,388845,1,0,0:0:0:0:
329,192,388845,1,0,0:0:0:0:
402,192,388945,1,0,0:0:0:0:
182,192,388945,1,0,0:0:0:0:
109,192,389046,1,0,0:0:0:0:
329,192,389046,1,0,0:0:0:0:
475,192,389147,1,0,0:0:0:0:
256,192,389147,1,0,0:0:0:0:
36,192,389147,1,0,0:0:0:0:
402,192,389247,1,0,0:0:0:0:
109,192,389247,1,0,0:0:0:0:
329,192,389348,1,0,0:0:0:0:
182,192,389348,1,0,0:0:0:0:
329,192,389449,1,0,0:0:0:0:
182,192,389449,1,0,0:0:0:0:
402,192,389549,1,0,0:0:0:0:
475,192,389549,1,0,0:0:0:0:
256,192,389549,1,0,0:0:0:0:
182,192,389650,1,0,0:0:0:0:
109,192,389650,1,0,0:0:0:0:
36,192,389650,1,0,0:0:0:0:
475,192,389751,1,0,0:0:0:0:
402,192,389751,1,0,0:0:0:0:
329,192,389751,1,0,0:0:0:0:
256,192,389952,1,0,0:0:0:0:
109,192,389952,1,0,0:0:0:0:
36,192,389952,1,0,0:0:0:0:
475,192,390053,1,0,0:0:0:0:
402,192,390053,1,0,0:0:0:0:
329,192,390053,1,0,0:0:0:0:
109,192,390153,1,0,0:0:0:0:
36,192,390153,1,0,0:0:0:0:
182,192,390153,1,0,0:0:0:0:
475,192,390355,1,0,0:0:0:0:
402,192,390355,1,0,0:0:0:0:
329,192,390405,1,0,0:0:0:0:
109,192,390455,1,0,0:0:0:0:
36,192,390455,1,0,0:0:0:0:
182,192,390506,1,0,0:0:0:0:
475,192,390556,1,0,0:0:0:0:
402,192,390556,1,0,0:0:0:0:
329,192,390606,1,0,0:0:0:0:
109,192,390657,1,0,0:0:0:0:
36,192,390657,1,0,0:0:0:0:
182,192,390707,1,0,0:0:0:0:
329,192,390757,1,0,0:0:0:0:
256,192,390757,1,0,0:0:0:0:
402,192,390808,1,0,0:0:0:0:
182,192,390858,1,0,0:0:0:0:
109,192,390858,1,0,0:0:0:0:
36,192,390908,1,0,0:0:0:0:
475,192,390959,1,0,0:0:0:0:
402,192,390959,1,0,0:0:0:0:
329,192,391009,1,0,0:0:0:0:
182,192,391059,1,0,0:0:0:0:
109,192,391059,1,0,0:0:0:0:
256,192,391110,1,0,0:0:0:0:
36,192,391160,1,0,0:0:0:0:
475,192,391160,1,0,0:0:0:0:
402,192,391160,1,0,0:0:0:0:
329,192,391210,1,0,0:0:0:0:
109,192,391261,1,0,0:0:0:0:
182,192,391311,1,0,0:0:0:0:
256,192,391361,1,0,0:0:0:0:
402,192,391412,1,0,0:0:0:0:
475,192,391462,1,0,0:0:0:0:
36,192,391512,1,0,0:0:0:0:
256,192,391563,1,0,0:0:0:0:
109,192,391563,1,0,0:0:0:0:
329,192,391613,5,0,0:0:0:0:
402,192,391663,1,0,0:0:0:0:
475,192,391714,1,0,0:0:0:0:
182,192,391764,1,0,0:0:0:0:
256,192,391814,1,0,0:0:0:0:
329,192,391865,1,0,0:0:0:0:
36,192,391915,1,0,0:0:0:0:
475,192,391965,1,0,0:0:0:0:
109,192,391965,1,0,0:0:0:0:
402,192,392016,1,0,0:0:0:0:
329,192,392066,1,0,0:0:0:0:
182,192,392116,1,0,0:0:0:0:
109,192,392167,1,0,0:0:0:0:
36,192,392217,1,0,0:0:0:0:
256,192,392267,1,0,0:0:0:0:
182,192,392318,1,0,0:0:0:0:
475,192,392368,1,0,0:0:0:0:
109,192,392368,1,0,0:0:0:0:
402,192,392418,1,0,0:0:0:0:
329,192,392469,1,0,0:0:0:0:
256,192,392519,1,0,0:0:0:0:
36,192,392569,1,0,0:0:0:0:
109,192,392620,1,0,0:0:0:0:
329,192,392670,1,0,0:0:0:0:
182,192,392670,1,0,0:0:0:0:
402,192,392720,1,0,0:0:0:0:
36,192,392771,5,0,0:0:0:0:bell-piano16.wav
256,192,392771,1,0,0:0:0:0:
475,192,392771,1,0,0:0:0:0:
109,192,392871,1,0,0:0:0:0:bell-piano17.wav
182,192,392972,1,0,0:0:0:0:
329,192,393073,1,0,0:0:0:0:bell-piano19.wav
109,192,393173,1,0,0:0:0:0:
182,192,393274,1,0,0:0:0:0:
329,192,393375,1,0,0:0:0:0:
402,192,393475,1,0,0:0:0:0:
36,192,393576,1,0,0:0:0:0:bell-piano30.wav
182,192,393677,1,0,0:0:0:0:bell-piano32.wav
329,192,393778,1,0,0:0:0:0:bell-piano36.wav
475,192,393878,1,0,0:0:0:0:bell-piano38.wav
36,192,393979,1,0,0:0:0:0:bell-piano39.wav
109,192,394080,1,0,0:0:0:0:bell-piano42.wav
256,192,394180,1,0,0:0:0:0:bell-piano92.wav
402,192,394281,1,0,0:0:0:0:bell-piano91.wav
475,192,394382,1,0,0:0:0:0:synth3_001.wav
36,192,394382,1,0,0:0:0:0:kick.wav
109,192,394432,1,0,0:0:0:0:harp05.wav
256,192,394482,1,0,0:0:0:0:harp09.wav
329,192,394533,1,0,0:0:0:0:harp09.wav
402,192,394583,1,0,0:0:0:0:harp11.wav
36,192,394633,1,0,0:0:0:0:harp11.wav
182,192,394684,1,0,0:0:0:0:harp14.wav
256,192,394734,1,0,0:0:0:0:harp14.wav
475,192,394784,1,0,0:0:0:0:kick.wav
329,192,394885,1,0,0:0:0:0:synth3_004.wav
182,192,394986,1,0,0:0:0:0:harp23.wav
256,192,395036,1,0,0:0:0:0:harp23.wav
329,192,395086,1,0,0:0:0:0:harp27.wav
402,192,395137,1,0,0:0:0:0:harp27.wav
36,192,395187,1,0,0:0:0:0:kick.wav
109,192,395237,1,0,0:0:0:0:harp04.wav
256,192,395288,1,0,0:0:0:0:harp07.wav
402,192,395338,1,0,0:0:0:0:harp07.wav
475,192,395388,1,0,0:0:0:0:harp10.wav
109,192,395439,1,0,0:0:0:0:harp10.wav
182,192,395489,1,0,0:0:0:0:bell-piano82.wav
329,192,395539,1,0,0:0:0:0:harp13.wav
402,192,395590,1,0,0:0:0:0:kick.wav
36,192,395690,1,0,0:0:0:0:harp19.wav
182,192,395791,1,0,0:0:0:0:harp22.wav
402,192,395841,1,0,0:0:0:0:harp22.wav
329,192,395892,1,0,0:0:0:0:harp25.wav
256,192,395942,1,0,0:0:0:0:harp25.wav
36,192,395992,1,0,0:0:0:0:kick.wav
109,192,396043,1,0,0:0:0:0:harp02.wav
182,192,396093,1,0,0:0:0:0:harp06.wav
402,192,396143,1,0,0:0:0:0:harp06.wav
329,192,396194,1,0,0:0:0:0:harp09.wav
256,192,396244,1,0,0:0:0:0:harp09.wav
109,192,396294,1,0,0:0:0:0:harp11.wav
182,192,396345,1,0,0:0:0:0:harp11.wav
402,192,396395,1,0,0:0:0:0:kick.wav
256,192,396496,1,0,0:0:0:0:harp18.wav
182,192,396596,1,0,0:0:0:0:harp20.wav
109,192,396647,1,0,0:0:0:0:harp20.wav
402,192,396697,1,0,0:0:0:0:harp24.wav
36,192,396697,1,0,0:0:0:0:bell-piano29.wav
475,192,396747,1,0,0:0:0:0:harp24.wav
256,192,396798,1,0,0:0:0:0:harp02.wav
329,192,396848,1,0,0:0:0:0:harp02.wav
109,192,396898,1,0,0:0:0:0:harp05.wav
182,192,396949,1,0,0:0:0:0:harp05.wav
402,192,396999,1,0,0:0:0:0:harp07.wav
329,192,397049,1,0,0:0:0:0:harp07.wav
256,192,397100,1,0,0:0:0:0:harp11.wav
109,192,397150,1,0,0:0:0:0:harp11.wav
36,192,397200,1,0,0:0:0:0:kick.wav
402,192,397251,1,0,0:0:0:0:harp14.wav
329,192,397301,1,0,0:0:0:0:harp16.wav
182,192,397351,1,0,0:0:0:0:harp16.wav
109,192,397402,1,0,0:0:0:0:harp20.wav
256,192,397452,1,0,0:0:0:0:harp20.wav
329,192,397502,1,0,0:0:0:0:harp23.wav
402,192,397553,1,0,0:0:0:0:harp23.wav
475,192,397603,1,0,0:0:0:0:harp04.wav
36,192,397603,1,0,0:0:0:0:kick.wav
109,192,397653,1,0,0:0:0:0:harp04.wav
182,192,397754,1,0,0:0:0:0:harp06.wav
402,192,397855,1,0,0:0:0:0:harp09.wav
256,192,397905,1,0,0:0:0:0:harp13.wav
109,192,397955,1,0,0:0:0:0:harp13.wav
475,192,398006,1,0,0:0:0:0:harp15.wav
36,192,398006,1,0,0:0:0:0:kick.wav
402,192,398056,1,0,0:0:0:0:harp15.wav
329,192,398106,1,0,0:0:0:0:synth3_024.wav
256,192,398157,1,0,0:0:0:0:harp18.wav
182,192,398207,1,0,0:0:0:0:bell-piano28.wav
402,192,398257,1,0,0:0:0:0:harp22.wav
329,192,398308,1,0,0:0:0:0:harp24.wav
256,192,398358,1,0,0:0:0:0:harp24.wav
36,192,398408,1,0,0:0:0:0:harp04.wav
109,192,398459,1,0,0:0:0:0:harp04.wav
182,192,398509,1,0,0:0:0:0:harp07.wav
475,192,398559,1,0,0:0:0:0:harp07.wav
402,192,398610,1,0,0:0:0:0:synth3_028.wav
329,192,398660,1,0,0:0:0:0:harp10.wav
256,192,398710,1,0,0:0:0:0:harp13.wav
109,192,398761,1,0,0:0:0:0:harp13.wav
36,192,398811,1,0,0:0:0:0:kick.wav
182,192,398912,1,0,0:0:0:0:harp19.wav
329,192,399012,1,0,0:0:0:0:bell-piano54.wav
402,192,399063,1,0,0:0:0:0:harp22.wav
109,192,399113,1,0,0:0:0:0:harp25.wav
182,192,399163,1,0,0:0:0:0:harp25.wav
256,192,399214,1,0,0:0:0:0:kick.wav
329,192,399264,1,0,0:0:0:0:harp02.wav
36,192,399314,1,0,0:0:0:0:harp05.wav
109,192,399365,1,0,0:0:0:0:harp05.wav
182,192,399415,1,0,0:0:0:0:synth3_032.wav
475,192,399465,1,0,0:0:0:0:harp07.wav
402,192,399516,1,0,0:0:0:0:harp11.wav
329,192,399566,1,0,0:0:0:0:harp11.wav
109,192,399616,1,0,0:0:0:0:bell-piano48.wav
36,192,399616,1,0,0:0:0:0:kick.wav
402,192,399717,1,0,0:0:0:0:harp16.wav
256,192,399818,1,0,0:0:0:0:harp20.wav
182,192,399868,1,0,0:0:0:0:harp20.wav
475,192,399918,1,0,0:0:0:0:harp23.wav
109,192,399918,1,0,0:0:0:0:sd.wav
402,192,399969,1,0,0:0:0:0:harp23.wav
36,192,400019,1,0,0:0:0:0:kick.wav
256,192,400069,1,0,0:0:0:0:harp01.wav
182,192,400120,1,0,0:0:0:0:harp05.wav
109,192,400170,1,0,0:0:0:0:harp05.wav
329,192,400220,1,0,0:0:0:0:harp08.wav
256,192,400271,1,0,0:0:0:0:harp08.wav
182,192,400321,1,0,0:0:0:0:harp10.wav
109,192,400371,1,0,0:0:0:0:harp10.wav
36,192,400422,1,0,0:0:0:0:kick.wav
329,192,400472,1,0,0:0:0:0:harp14.wav
182,192,400573,1,0,0:0:0:0:harp17.wav
109,192,400623,1,0,0:0:0:0:sd.wav
475,192,400673,1,0,0:0:0:0:harp19.wav
256,192,400724,1,0,0:0:0:0:harp23.wav
329,192,400774,1,0,0:0:0:0:harp23.wav
402,192,400824,1,0,0:0:0:0:synth3_042.wav
182,192,400824,1,0,0:0:0:0:harp05.wav
36,192,400824,1,0,0:0:0:0:kick.wav
256,192,400925,1,0,0:0:0:0:harp09.wav
329,192,401026,1,0,0:0:0:0:
109,192,401076,1,0,0:0:0:0:harp11.wav
182,192,401126,1,0,0:0:0:0:harp14.wav
256,192,401177,1,0,0:0:0:0:harp14.wav
475,192,401227,1,0,0:0:0:0:harp18.wav
36,192,401227,1,0,0:0:0:0:kick.wav
109,192,401278,1,0,0:0:0:0:harp18.wav
182,192,401328,1,0,0:0:0:0:synth3_045.wav
329,192,401378,1,0,0:0:0:0:harp20.wav
475,192,401429,1,0,0:0:0:0:synth3_046.wav
109,192,401479,1,0,0:0:0:0:harp23.wav
256,192,401529,1,0,0:0:0:0:
402,192,401580,1,0,0:0:0:0:
36,192,401630,1,0,0:0:0:0:kick.wav
475,192,401731,1,0,0:0:0:0:harp07.wav
329,192,401831,1,0,0:0:0:0:synth3_049.wav
256,192,401882,1,0,0:0:0:0:harp10.wav
182,192,401932,1,0,0:0:0:0:bell-piano82.wav
109,192,401982,1,0,0:0:0:0:harp13.wav
402,192,402033,1,0,0:0:0:0:sd.wav
36,192,402033,1,0,0:0:0:0:kick.wav
329,192,402083,1,0,0:0:0:0:harp16.wav
182,192,402133,1,0,0:0:0:0:harp19.wav
109,192,402184,1,0,0:0:0:0:harp19.wav
475,192,402234,1,0,0:0:0:0:harp22.wav
402,192,402284,1,0,0:0:0:0:harp22.wav
329,192,402335,1,0,0:0:0:0:harp25.wav
256,192,402385,1,0,0:0:0:0:harp25.wav
182,192,402435,1,0,0:0:0:0:bell-piano83.wav
36,192,402435,1,0,0:0:0:0:kick.wav
475,192,402486,1,0,0:0:0:0:harp02.wav
402,192,402536,1,0,0:0:0:0:harp06.wav
329,192,402586,1,0,0:0:0:0:harp06.wav
36,192,402637,1,0,0:0:0:0:harp09.wav
109,192,402737,1,0,0:0:0:0:
182,192,402838,1,0,0:0:0:0:harp15.wav
36,192,402838,1,0,0:0:0:0:kick.wav
256,192,402888,1,0,0:0:0:0:harp15.wav
329,192,402939,1,0,0:0:0:0:synth3_056.wav
402,192,402989,1,0,0:0:0:0:harp18.wav
475,192,403039,1,0,0:0:0:0:synth3_057.wav
109,192,403090,1,0,0:0:0:0:harp20.wav
182,192,403140,1,0,0:0:0:0:
256,192,403190,1,0,0:0:0:0:harp24.wav
329,192,403241,1,0,0:0:0:0:harp01.wav
36,192,403241,1,0,0:0:0:0:kick.wav
402,192,403291,1,0,0:0:0:0:harp01.wav
182,192,403341,1,0,0:0:0:0:harp05.wav
256,192,403392,1,0,0:0:0:0:harp05.wav
329,192,403442,1,0,0:0:0:0:harp07.wav
402,192,403492,1,0,0:0:0:0:harp07.wav
109,192,403543,1,0,0:0:0:0:
182,192,403593,1,0,0:0:0:0:
256,192,403643,1,0,0:0:0:0:kick.wav
402,192,403744,1,0,0:0:0:0:harp16.wav
182,192,403845,1,0,0:0:0:0:synth3_062.wav
109,192,403895,1,0,0:0:0:0:harp19.wav
329,192,403945,1,0,0:0:0:0:harp23.wav
402,192,403996,1,0,0:0:0:0:harp23.wav
36,192,404046,1,0,0:0:0:0:harp05.wav
109,192,404096,1,0,0:0:0:0:harp05.wav
182,192,404147,1,0,0:0:0:0:harp09.wav
256,192,404197,1,0,0:0:0:0:harp09.wav
402,192,404247,1,0,0:0:0:0:tom1.wav
329,192,404298,1,0,0:0:0:0:harp11.wav
182,192,404348,1,0,0:0:0:0:harp14.wav
109,192,404398,1,0,0:0:0:0:harp14.wav
36,192,404449,1,0,0:0:0:0:tom4.wav
256,192,404499,1,0,0:0:0:0:harp18.wav
402,192,404549,1,0,0:0:0:0:harp20.wav
475,192,404600,1,0,0:0:0:0:harp20.wav
109,192,404650,1,0,0:0:0:0:harp23.wav
256,192,404700,1,0,0:0:0:0:harp23.wav
329,192,404751,1,0,0:0:0:0:harp27.wav
36,192,404801,1,0,0:0:0:0:harp27.wav
182,192,404851,1,0,0:0:0:0:harp29.wav
256,192,404902,1,0,0:0:0:0:harp29.wav
402,192,404952,1,0,0:0:0:0:synth3_086.wav
109,192,405002,1,0,0:0:0:0:harp27.wav
182,192,405053,1,0,0:0:0:0:harp23.wav
329,192,405103,1,0,0:0:0:0:harp23.wav
475,192,405153,1,0,0:0:0:0:harp20.wav
36,192,405204,1,0,0:0:0:0:harp20.wav
182,192,405254,1,0,0:0:0:0:synth3_089.wav
329,192,405304,1,0,0:0:0:0:harp18.wav
109,192,405405,1,0,0:0:0:0:harp14.wav
182,192,405506,1,0,0:0:0:0:harp11.wav
329,192,405556,1,0,0:0:0:0:synth3_092.wav
402,192,405606,1,0,0:0:0:0:harp09.wav
36,192,405657,1,0,0:0:0:0:kick.wav
256,192,405707,1,0,0:0:0:0:harp04.wav
182,192,405757,1,0,0:0:0:0:harp07.wav
109,192,405808,1,0,0:0:0:0:harp07.wav
402,192,405858,1,0,0:0:0:0:harp10.wav
329,192,405908,1,0,0:0:0:0:harp10.wav
256,192,405959,1,0,0:0:0:0:harp13.wav
182,192,406009,1,0,0:0:0:0:harp13.wav
36,192,406059,1,0,0:0:0:0:kick.wav
475,192,406110,1,0,0:0:0:0:harp16.wav
109,192,406160,1,0,0:0:0:0:harp19.wav
402,192,406210,1,0,0:0:0:0:bell-piano90.wav
329,192,406261,1,0,0:0:0:0:harp22.wav
256,192,406311,1,0,0:0:0:0:harp22.wav
182,192,406361,1,0,0:0:0:0:harp25.wav
109,192,406412,1,0,0:0:0:0:harp25.wav
475,192,406462,1,0,0:0:0:0:harp28.wav
36,192,406462,1,0,0:0:0:0:kick.wav
402,192,406512,1,0,0:0:0:0:harp28.wav
182,192,406563,1,0,0:0:0:0:harp25.wav
256,192,406613,1,0,0:0:0:0:harp25.wav
329,192,406663,1,0,0:0:0:0:harp22.wav
402,192,406714,1,0,0:0:0:0:harp22.wav
109,192,406764,1,0,0:0:0:0:harp19.wav
182,192,406814,1,0,0:0:0:0:harp19.wav
256,192,406865,1,0,0:0:0:0:harp16.wav
475,192,406865,1,0,0:0:0:0:kick.wav
329,192,406965,1,0,0:0:0:0:harp13.wav
402,192,407066,1,0,0:0:0:0:harp10.wav
475,192,407116,1,0,0:0:0:0:harp10.wav
182,192,407167,1,0,0:0:0:0:harp07.wav
109,192,407217,1,0,0:0:0:0:harp07.wav
36,192,407267,1,0,0:0:0:0:kick.wav
182,192,407318,1,0,0:0:0:0:harp03.wav
256,192,407368,1,0,0:0:0:0:harp05.wav
329,192,407418,1,0,0:0:0:0:harp05.wav
402,192,407469,1,0,0:0:0:0:harp09.wav
475,192,407519,1,0,0:0:0:0:harp09.wav
182,192,407569,1,0,0:0:0:0:harp12.wav
256,192,407620,1,0,0:0:0:0:harp12.wav
329,192,407670,1,0,0:0:0:0:harp14.wav
402,192,407720,1,0,0:0:0:0:harp14.wav
109,192,407771,1,0,0:0:0:0:harp18.wav
182,192,407821,1,0,0:0:0:0:harp18.wav
329,192,407871,1,0,0:0:0:0:harp21.wav
402,192,407922,1,0,0:0:0:0:harp21.wav
109,192,407972,1,0,0:0:0:0:harp23.wav
182,192,408022,1,0,0:0:0:0:harp23.wav
36,192,408073,1,0,0:0:0:0:
256,192,408073,1,0,0:0:0:0:harp27.wav
475,192,408123,1,0,0:0:0:0:harp27.wav
109,192,408173,1,0,0:0:0:0:
329,192,408173,1,0,0:0:0:0:harp23.wav
402,192,408224,1,0,0:0:0:0:harp23.wav
256,192,408274,1,0,0:0:0:0:harp21.wav
182,192,408375,1,0,0:0:0:0:
329,192,408375,1,0,0:0:0:0:harp18.wav
256,192,408475,1,0,0:0:0:0:
36,192,408475,1,0,0:0:0:0:
109,192,408475,1,0,0:0:0:0:
475,192,408576,1,0,0:0:0:0:
402,192,408576,1,0,0:0:0:0:
329,192,408576,1,0,0:0:0:0:
36,192,408677,1,0,0:0:0:0:
109,192,408677,1,0,0:0:0:0:
182,192,408677,1,0,0:0:0:0:
402,192,408778,1,0,0:0:0:0:
475,192,408778,1,0,0:0:0:0:
256,192,408778,1,0,0:0:0:0:
329,192,408778,1,0,0:0:0:0:
182,192,408979,1,0,0:0:0:0:
109,192,408979,1,0,0:0:0:0:
402,192,409029,1,0,0:0:0:0:
256,192,409080,1,0,0:0:0:0:harp09.wav
36,192,409130,1,0,0:0:0:0:harp09.wav
182,192,409180,1,0,0:0:0:0:hit08.wav
329,192,409231,1,0,0:0:0:0:
109,192,409281,1,0,0:0:0:0:
475,192,409281,1,0,0:0:0:0:synth3_100.wav
256,192,409331,1,0,0:0:0:0:
402,192,409382,1,0,0:0:0:0:synth3_101.wav
36,192,409432,1,0,0:0:0:0:harp18.wav
329,192,409482,1,0,0:0:0:0:synth3_102.wav
109,192,409482,1,0,0:0:0:0:hit04.wav
182,192,409533,1,0,0:0:0:0:harp21.wav
256,192,409583,1,0,0:0:0:0:synth3_103.wav
402,192,409633,1,0,0:0:0:0:harp23.wav
109,192,409684,1,0,0:0:0:0:
329,192,409684,1,0,0:0:0:0:
475,192,409684,1,0,0:0:0:0:se2.wav
36,192,409684,1,0,0:0:0:0:
182,192,425133,5,0,0:0:0:0:
475,192,425133,1,0,0:0:0:0:
36,192,425133,1,0,0:0:0:0:
402,192,425320,1,0,0:0:0:0:
109,192,425320,1,0,0:0:0:0:
182,192,425414,1,0,0:0:0:0:
329,192,425508,1,0,0:0:0:0:
256,192,425508,1,0,0:0:0:0:
109,192,425695,1,0,0:0:0:0:
182,192,425789,1,0,0:0:0:0:
475,192,425883,1,0,0:0:0:0:
256,192,425883,1,0,0:0:0:0:
109,192,426070,1,0,0:0:0:0:
329,192,426070,1,0,0:0:0:0:
182,192,426164,1,0,0:0:0:0:
256,192,426258,1,0,0:0:0:0:
402,192,426351,1,0,0:0:0:0:
109,192,426445,1,0,0:0:0:0:
402,192,426539,1,0,0:0:0:0:
182,192,426539,1,0,0:0:0:0:
36,192,426633,1,0,0:0:0:0:
256,192,426633,1,0,0:0:0:0:
109,192,426820,1,0,0:0:0:0:
402,192,426820,1,0,0:0:0:0:
329,192,426914,1,0,0:0:0:0:
182,192,427008,1,0,0:0:0:0:
256,192,427008,1,0,0:0:0:0:
402,192,427195,1,0,0:0:0:0:
329,192,427289,1,0,0:0:0:0:
109,192,427383,1,0,0:0:0:0:
256,192,427383,1,0,0:0:0:0:
182,192,427570,1,0,0:0:0:0:
402,192,427570,1,0,0:0:0:0:
329,192,427664,1,0,0:0:0:0:
256,192,427758,1,0,0:0:0:0:
36,192,427851,1,0,0:0:0:0:
109,192,427945,1,0,0:0:0:0:
402,192,427945,1,0,0:0:0:0:
182,192,428039,1,0,0:0:0:0:
329,192,428039,1,0,0:0:0:0:
475,192,428133,1,0,0:0:0:0:
256,192,428133,1,0,0:0:0:0:
402,192,428320,1,0,0:0:0:0:
109,192,428320,1,0,0:0:0:0:
182,192,428414,1,0,0:0:0:0:
36,192,428508,1,0,0:0:0:0:
256,192,428508,1,0,0:0:0:0:
109,192,428695,1,0,0:0:0:0:
182,192,428789,1,0,0:0:0:0:
402,192,428883,1,0,0:0:0:0:
256,192,428883,1,0,0:0:0:0:
36,192,429070,1,0,0:0:0:0:
109,192,429070,1,0,0:0:0:0:
182,192,429164,1,0,0:0:0:0:
256,192,429258,1,0,0:0:0:0:
475,192,429351,1,0,0:0:0:0:
109,192,429445,1,0,0:0:0:0:
475,192,429539,1,0,0:0:0:0:
182,192,429539,1,0,0:0:0:0:
36,192,429633,1,0,0:0:0:0:
256,192,429633,1,0,0:0:0:0:
182,192,429820,1,0,0:0:0:0:
402,192,429820,1,0,0:0:0:0:
329,192,429914,1,0,0:0:0:0:
109,192,430008,1,0,0:0:0:0:
256,192,430008,1,0,0:0:0:0:
402,192,430195,1,0,0:0:0:0:
182,192,430289,1,0,0:0:0:0:
329,192,430289,1,0,0:0:0:0:
109,192,430383,1,0,0:0:0:0:
256,192,430383,1,0,0:0:0:0:
36,192,430476,1,0,0:0:0:0:
402,192,430570,1,0,0:0:0:0:
182,192,430664,1,0,0:0:0:0:
329,192,430664,1,0,0:0:0:0:
256,192,430758,1,0,0:0:0:0:
36,192,430851,1,0,0:0:0:0:
182,192,430945,1,0,0:0:0:0:
402,192,430945,1,0,0:0:0:0:
329,192,431039,1,0,0:0:0:0:
475,192,431133,1,0,0:0:0:0:
402,192,431133,1,0,0:0:0:0:
256,192,431133,1,0,0:0:0:0:
36,192,431133,1,0,0:0:0:0:
402,192,431320,1,0,0:0:0:0:
36,192,431320,1,0,0:0:0:0:
182,192,431414,1,0,0:0:0:0:
402,192,431508,1,0,0:0:0:0:
475,192,431508,1,0,0:0:0:0:
329,192,431508,1,0,0:0:0:0:
36,192,431695,1,0,0:0:0:0:
182,192,431789,1,0,0:0:0:0:
475,192,431883,1,0,0:0:0:0:
329,192,431883,1,0,0:0:0:0:
402,192,432070,1,0,0:0:0:0:
36,192,432070,1,0,0:0:0:0:
182,192,432164,1,0,0:0:0:0:
475,192,432258,1,0,0:0:0:0:
329,192,432258,1,0,0:0:0:0:
256,192,432351,1,0,0:0:0:0:
36,192,432445,1,0,0:0:0:0:
402,192,432539,1,0,0:0:0:0:
182,192,432539,1,0,0:0:0:0:
329,192,432633,1,0,0:0:0:0:
109,192,432820,1,0,0:0:0:0:
475,192,432820,1,0,0:0:0:0:
329,192,432914,1,0,0:0:0:0:
109,192,433008,1,0,0:0:0:0:
36,192,433008,1,0,0:0:0:0:
182,192,433008,1,0,0:0:0:0:
475,192,433195,1,0,0:0:0:0:
329,192,433289,1,0,0:0:0:0:
36,192,433383,1,0,0:0:0:0:
182,192,433383,1,0,0:0:0:0:
109,192,433570,1,0,0:0:0:0:
475,192,433570,1,0,0:0:0:0:
329,192,433664,1,0,0:0:0:0:
36,192,433758,1,0,0:0:0:0:
182,192,433758,1,0,0:0:0:0:
109,192,433851,1,0,0:0:0:0:
182,192,433945,1,0,0:0:0:0:
475,192,433945,1,0,0:0:0:0:
256,192,434039,1,0,0:0:0:0:
329,192,434039,1,0,0:0:0:0:
182,192,434133,1,0,0:0:0:0:
402,192,434226,1,0,0:0:0:0:
109,192,434320,1,0,0:0:0:0:
329,192,434414,1,0,0:0:0:0:
182,192,434508,1,0,0:0:0:0:
402,192,434601,1,0,0:0:0:0:
109,192,434695,1,0,0:0:0:0:
329,192,434789,1,0,0:0:0:0:
36,192,434883,1,0,0:0:0:0:
182,192,434883,1,0,0:0:0:0:
475,192,434976,1,0,0:0:0:0:
329,192,434976,1,0,0:0:0:0:
109,192,435070,1,0,0:0:0:0:
402,192,435164,1,0,0:0:0:0:
36,192,435258,1,0,0:0:0:0:
182,192,435258,1,0,0:0:0:0:
475,192,435351,1,0,0:0:0:0:
329,192,435351,1,0,0:0:0:0:
109,192,435445,1,0,0:0:0:0:
402,192,435539,1,0,0:0:0:0:
36,192,435633,1,0,0:0:0:0:
182,192,435633,1,0,0:0:0:0:
475,192,435726,1,0,0:0:0:0:
329,192,435726,1,0,0:0:0:0:
109,192,435820,1,0,0:0:0:0:
182,192,435820,1,0,0:0:0:0:
402,192,435914,1,0,0:0:0:0:
329,192,435914,1,0,0:0:0:0:
36,192,436008,1,0,0:0:0:0:
182,192,436008,1,0,0:0:0:0:
475,192,436101,1,0,0:0:0:0:
329,192,436101,1,0,0:0:0:0:
109,192,436195,1,0,0:0:0:0:
182,192,436195,1,0,0:0:0:0:
402,192,436289,1,0,0:0:0:0:
329,192,436289,1,0,0:0:0:0:
36,192,436383,1,0,0:0:0:0:
182,192,436383,1,0,0:0:0:0:
475,192,436476,1,0,0:0:0:0:
329,192,436476,1,0,0:0:0:0:
109,192,436570,1,0,0:0:0:0:
182,192,436570,1,0,0:0:0:0:
402,192,436664,1,0,0:0:0:0:
329,192,436664,1,0,0:0:0:0:
36,192,436758,1,0,0:0:0:0:
182,192,436758,1,0,0:0:0:0:
475,192,436851,1,0,0:0:0:0:
329,192,436851,1,0,0:0:0:0:
109,192,436945,1,0,0:0:0:0:
182,192,436945,1,0,0:0:0:0:
402,192,437039,1,0,0:0:0:0:
329,192,437039,1,0,0:0:0:0:
475,192,437133,1,0,0:0:0:0:
109,192,437133,1,0,0:0:0:0:
182,192,437133,1,0,0:0:0:0:
36,192,437133,1,0,0:0:0:0:
256,192,437226,1,0,0:0:0:0:
329,192,437320,1,0,0:0:0:0:
109,192,437414,1,0,0:0:0:0:
36,192,437508,1,0,0:0:0:0:
475,192,437508,1,0,0:0:0:0:
182,192,437508,1,0,0:0:0:0:
402,192,437601,1,0,0:0:0:0:
329,192,437695,1,0,0:0:0:0:
109,192,437789,1,0,0:0:0:0:
36,192,437883,1,0,0:0:0:0:
256,192,437883,1,0,0:0:0:0:
402,192,437976,1,0,0:0:0:0:
109,192,438070,1,0,0:0:0:0:
182,192,438164,1,0,0:0:0:0:
36,192,438258,1,0,0:0:0:0:
475,192,438258,1,0,0:0:0:0:
256,192,438258,1,0,0:0:0:0:
402,192,438351,1,0,0:0:0:0:
329,192,438445,1,0,0:0:0:0:
182,192,438539,1,0,0:0:0:0:
402,192,438633,1,0,0:0:0:0:
109,192,438633,1,0,0:0:0:0:
475,192,438726,1,0,0:0:0:0:
36,192,438820,1,0,0:0:0:0:
182,192,438914,1,0,0:0:0:0:
256,192,439008,1,0,0:0:0:0:
109,192,439008,1,0,0:0:0:0:
402,192,439008,1,0,0:0:0:0:
329,192,439101,1,0,0:0:0:0:
256,192,439195,1,0,0:0:0:0:
475,192,439289,1,0,0:0:0:0:
109,192,439383,1,0,0:0:0:0:
329,192,439383,1,0,0:0:0:0:
182,192,439476,1,0,0:0:0:0:
256,192,439570,1,0,0:0:0:0:
36,192,439664,1,0,0:0:0:0:
329,192,439758,1,0,0:0:0:0:
402,192,439758,1,0,0:0:0:0:
109,192,439758,1,0,0:0:0:0:
182,192,439851,1,0,0:0:0:0:
256,192,439945,1,0,0:0:0:0:
475,192,440039,1,0,0:0:0:0:
36,192,440133,1,0,0:0:0:0:
402,192,440133,1,0,0:0:0:0:
329,192,440226,1,0,0:0:0:0:
256,192,440320,1,0,0:0:0:0:
109,192,440414,1,0,0:0:0:0:
329,192,440508,1,0,0:0:0:0:
36,192,440508,1,0,0:0:0:0:
182,192,440508,1,0,0:0:0:0:
475,192,440601,1,0,0:0:0:0:
256,192,440695,1,0,0:0:0:0:
329,192,440789,1,0,0:0:0:0:
109,192,440883,1,0,0:0:0:0:
402,192,440883,1,0,0:0:0:0:
182,192,440976,1,0,0:0:0:0:
256,192,441070,1,0,0:0:0:0:
36,192,441164,1,0,0:0:0:0:
182,192,441258,1,0,0:0:0:0:
475,192,441258,1,0,0:0:0:0:
109,192,441258,1,0,0:0:0:0:
402,192,441351,1,0,0:0:0:0:
329,192,441445,1,0,0:0:0:0:
182,192,441539,1,0,0:0:0:0:
256,192,441633,1,0,0:0:0:0:
109,192,441633,1,0,0:0:0:0:
329,192,441726,1,0,0:0:0:0:
402,192,441820,1,0,0:0:0:0:
475,192,441914,1,0,0:0:0:0:
36,192,442008,1,0,0:0:0:0:
109,192,442008,1,0,0:0:0:0:
182,192,442008,1,0,0:0:0:0:
329,192,442101,1,0,0:0:0:0:
256,192,442195,1,0,0:0:0:0:
182,192,442289,1,0,0:0:0:0:
36,192,442383,1,0,0:0:0:0:
109,192,442383,1,0,0:0:0:0:
402,192,442476,1,0,0:0:0:0:
256,192,442570,1,0,0:0:0:0:
329,192,442664,1,0,0:0:0:0:
475,192,442758,1,0,0:0:0:0:
109,192,442758,1,0,0:0:0:0:
402,192,442758,1,0,0:0:0:0:
182,192,442851,1,0,0:0:0:0:
256,192,442945,1,0,0:0:0:0:
475,192,443039,1,0,0:0:0:0:
329,192,443133,1,0,0:0:0:0:
182,192,443133,1,0,0:0:0:0:
109,192,443133,1,0,0:0:0:0:
36,192,443133,1,0,0:0:0:0:
402,192,443226,1,0,0:0:0:0:
256,192,443320,1,0,0:0:0:0:
182,192,443414,1,0,0:0:0:0:
36,192,443508,1,0,0:0:0:0:
329,192,443508,1,0,0:0:0:0:
109,192,443508,1,0,0:0:0:0:
402,192,443601,1,0,0:0:0:0:
109,192,443695,1,0,0:0:0:0:
182,192,443789,1,0,0:0:0:0:
402,192,443883,1,0,0:0:0:0:
256,192,443883,1,0,0:0:0:0:
329,192,443976,1,0,0:0:0:0:
402,192,444070,1,0,0:0:0:0:
36,192,444164,1,0,0:0:0:0:
329,192,444258,1,0,0:0:0:0:
256,192,444258,1,0,0:0:0:0:
109,192,444258,1,0,0:0:0:0:
182,192,444351,1,0,0:0:0:0:
475,192,444445,1,0,0:0:0:0:
329,192,444539,1,0,0:0:0:0:
402,192,444633,1,0,0:0:0:0:
256,192,444633,1,0,0:0:0:0:
109,192,444726,1,0,0:0:0:0:
36,192,444820,1,0,0:0:0:0:
475,192,444914,1,0,0:0:0:0:
36,192,445008,1,0,0:0:0:0:
256,192,445008,1,0,0:0:0:0:
182,192,445008,1,0,0:0:0:0:
329,192,445101,1,0,0:0:0:0:
402,192,445195,1,0,0:0:0:0:
36,192,445289,1,0,0:0:0:0:
475,192,445383,1,0,0:0:0:0:
109,192,445383,1,0,0:0:0:0:
329,192,445476,1,0,0:0:0:0:
256,192,445570,1,0,0:0:0:0:
182,192,445664,1,0,0:0:0:0:
36,192,445758,1,0,0:0:0:0:
475,192,445758,1,0,0:0:0:0:
109,192,445758,1,0,0:0:0:0:
402,192,445851,1,0,0:0:0:0:
329,192,445945,1,0,0:0:0:0:
256,192,446039,1,0,0:0:0:0:
36,192,446133,1,0,0:0:0:0:
182,192,446133,1,0,0:0:0:0:
475,192,446226,1,0,0:0:0:0:
329,192,446273,1,0,0:0:0:0:
109,192,446320,1,0,0:0:0:0:
402,192,446414,1,0,0:0:0:0:
36,192,446508,1,0,0:0:0:0:
182,192,446508,1,0,0:0:0:0:
475,192,446601,1,0,0:0:0:0:
329,192,446601,1,0,0:0:0:0:
109,192,446695,1,0,0:0:0:0:
402,192,446789,1,0,0:0:0:0:
36,192,446883,1,0,0:0:0:0:
182,192,446883,1,0,0:0:0:0:
475,192,446976,1,0,0:0:0:0:
329,192,446976,1,0,0:0:0:0:
182,192,447070,1,0,0:0:0:0:
109,192,447070,1,0,0:0:0:0:
329,192,447164,1,0,0:0:0:0:
402,192,447164,1,0,0:0:0:0:
36,192,447258,1,0,0:0:0:0:
182,192,447258,1,0,0:0:0:0:
475,192,447351,1,0,0:0:0:0:
329,192,447351,1,0,0:0:0:0:
36,192,447445,1,0,0:0:0:0:
182,192,447445,1,0,0:0:0:0:
109,192,447445,1,0,0:0:0:0:
475,192,447539,1,0,0:0:0:0:
402,192,447539,1,0,0:0:0:0:
329,192,447539,1,0,0:0:0:0:
256,192,447820,1,0,0:0:0:0:
109,192,448008,1,0,0:0:0:0:
256,192,448289,1,0,0:0:0:0:
329,192,448383,1,0,0:0:0:0:
402,192,448476,1,0,0:0:0:0:
182,192,448664,1,0,0:0:0:0:
475,192,448945,1,0,0:0:0:0:
182,192,448945,1,0,0:0:0:0:
36,192,448945,1,0,0:0:0:0:
475,192,449133,1,0,0:0:0:0:
329,192,449133,1,0,0:0:0:0:
402,192,449133,1,0,0:0:0:0:
109,192,449133,1,0,0:0:0:0:
182,192,449226,1,0,0:0:0:0:
36,192,449320,1,0,0:0:0:0:
329,192,449320,1,0,0:0:0:0:
475,192,449414,1,0,0:0:0:0:
109,192,449414,1,0,0:0:0:0:
402,192,449508,1,0,0:0:0:0:
182,192,449508,1,0,0:0:0:0:
329,192,449508,1,0,0:0:0:0:
256,192,449601,1,0,0:0:0:0:
475,192,449695,1,0,0:0:0:0:
36,192,449695,1,0,0:0:0:0:
182,192,449695,1,0,0:0:0:0:
402,192,449789,1,0,0:0:0:0:
256,192,449883,1,0,0:0:0:0:
109,192,449883,1,0,0:0:0:0:
329,192,449883,1,0,0:0:0:0:
182,192,449976,1,0,0:0:0:0:
475,192,450070,1,0,0:0:0:0:
109,192,450070,1,0,0:0:0:0:
36,192,450164,1,0,0:0:0:0:
256,192,450164,1,0,0:0:0:0:
475,192,450258,1,0,0:0:0:0:
402,192,450258,1,0,0:0:0:0:
329,192,450258,1,0,0:0:0:0:
109,192,450351,1,0,0:0:0:0:
36,192,450445,1,0,0:0:0:0:
402,192,450445,1,0,0:0:0:0:
182,192,450445,1,0,0:0:0:0:
256,192,450539,1,0,0:0:0:0:
109,192,450633,1,0,0:0:0:0:
475,192,450633,1,0,0:0:0:0:
329,192,450633,1,0,0:0:0:0:
256,192,450726,1,0,0:0:0:0:
475,192,450820,1,0,0:0:0:0:
182,192,450820,1,0,0:0:0:0:
256,192,450914,1,0,0:0:0:0:
402,192,450914,1,0,0:0:0:0:
182,192,451008,1,0,0:0:0:0:
36,192,451008,1,0,0:0:0:0:
329,192,451008,1,0,0:0:0:0:
109,192,451101,1,0,0:0:0:0:
402,192,451195,1,0,0:0:0:0:
475,192,451195,1,0,0:0:0:0:
182,192,451195,1,0,0:0:0:0:
256,192,451289,1,0,0:0:0:0:
36,192,451383,1,0,0:0:0:0:
182,192,451383,1,0,0:0:0:0:
402,192,451383,1,0,0:0:0:0:
475,192,451476,1,0,0:0:0:0:
256,192,451476,1,0,0:0:0:0:
109,192,451570,1,0,0:0:0:0:
402,192,451570,1,0,0:0:0:0:
182,192,451664,1,0,0:0:0:0:
329,192,451664,1,0,0:0:0:0:
475,192,451758,1,0,0:0:0:0:
109,192,451758,1,0,0:0:0:0:
256,192,451758,1,0,0:0:0:0:
329,192,451851,1,0,0:0:0:0:
402,192,451851,1,0,0:0:0:0:
475,192,451945,1,0,0:0:0:0:
36,192,451945,1,0,0:0:0:0:
256,192,451945,1,0,0:0:0:0:
109,192,452039,1,0,0:0:0:0:
402,192,452133,1,0,0:0:0:0:
475,192,452133,1,0,0:0:0:0:
182,192,452133,1,0,0:0:0:0:
256,192,452226,1,0,0:0:0:0:
36,192,452320,1,0,0:0:0:0:
329,192,452320,1,0,0:0:0:0:
256,192,452414,1,0,0:0:0:0:
109,192,452414,1,0,0:0:0:0:
475,192,452508,1,0,0:0:0:0:
402,192,452508,1,0,0:0:0:0:
182,192,452508,1,0,0:0:0:0:
329,192,452601,1,0,0:0:0:0:
475,192,452695,1,0,0:0:0:0:
36,192,452695,1,0,0:0:0:0:
256,192,452695,1,0,0:0:0:0:
109,192,452789,1,0,0:0:0:0:
402,192,452883,1,0,0:0:0:0:
475,192,452883,1,0,0:0:0:0:
182,192,452883,1,0,0:0:0:0:
256,192,452976,1,0,0:0:0:0:
36,192,453070,1,0,0:0:0:0:
402,192,453070,1,0,0:0:0:0:
329,192,453164,1,0,0:0:0:0:
475,192,453258,1,0,0:0:0:0:
109,192,453258,1,0,0:0:0:0:
256,192,453258,1,0,0:0:0:0:
329,192,453351,1,0,0:0:0:0:
182,192,453351,1,0,0:0:0:0:
402,192,453445,1,0,0:0:0:0:
256,192,453445,1,0,0:0:0:0:
36,192,453539,1,0,0:0:0:0:
109,192,453539,1,0,0:0:0:0:
402,192,453633,1,0,0:0:0:0:
475,192,453633,1,0,0:0:0:0:
182,192,453633,1,0,0:0:0:0:
256,192,453726,1,0,0:0:0:0:
329,192,453726,1,0,0:0:0:0:
182,192,453820,1,0,0:0:0:0:
109,192,453820,1,0,0:0:0:0:
329,192,453914,1,0,0:0:0:0:
256,192,453914,1,0,0:0:0:0:
182,192,454008,1,0,0:0:0:0:
475,192,454008,1,0,0:0:0:0:
402,192,454008,1,0,0:0:0:0:
256,192,454101,1,0,0:0:0:0:
329,192,454101,1,0,0:0:0:0:
109,192,454195,1,0,0:0:0:0:
182,192,454195,1,0,0:0:0:0:
475,192,454289,1,0,0:0:0:0:
402,192,454289,1,0,0:0:0:0:
329,192,454383,1,0,0:0:0:0:
36,192,454383,1,0,0:0:0:0:
109,192,454383,1,0,0:0:0:0:
256,192,454476,1,0,0:0:0:0:
182,192,454476,1,0,0:0:0:0:
402,192,454570,1,0,0:0:0:0:
329,192,454570,1,0,0:0:0:0:
182,192,454664,1,0,0:0:0:0:
256,192,454664,1,0,0:0:0:0:
329,192,454758,1,0,0:0:0:0:
36,192,454758,1,0,0:0:0:0:
109,192,454758,1,0,0:0:0:0:
256,192,454851,1,0,0:0:0:0:
182,192,454851,1,0,0:0:0:0:
402,192,454945,1,0,0:0:0:0:
329,192,454945,1,0,0:0:0:0:
36,192,455039,1,0,0:0:0:0:
182,192,455039,1,0,0:0:0:0:
475,192,455133,1,0,0:0:0:0:
402,192,455133,1,0,0:0:0:0:
256,192,455133,1,0,0:0:0:0:
109,192,455226,1,0,0:0:0:0:
402,192,455320,1,0,0:0:0:0:
256,192,455320,1,0,0:0:0:0:
182,192,455414,1,0,0:0:0:0:
36,192,455414,1,0,0:0:0:0:
402,192,455508,1,0,0:0:0:0:
475,192,455508,1,0,0:0:0:0:
109,192,455508,1,0,0:0:0:0:
329,192,455601,1,0,0:0:0:0:
475,192,455695,1,0,0:0:0:0:
36,192,455695,1,0,0:0:0:0:
256,192,455695,1,0,0:0:0:0:
182,192,455789,1,0,0:0:0:0:
36,192,455883,1,0,0:0:0:0:
475,192,455883,1,0,0:0:0:0:
329,192,455883,1,0,0:0:0:0:
109,192,455976,1,0,0:0:0:0:
402,192,456070,1,0,0:0:0:0:
182,192,456070,1,0,0:0:0:0:
329,192,456164,1,0,0:0:0:0:
256,192,456164,1,0,0:0:0:0:
475,192,456258,1,0,0:0:0:0:
36,192,456258,1,0,0:0:0:0:
182,192,456258,1,0,0:0:0:0:
329,192,456351,1,0,0:0:0:0:
475,192,456445,1,0,0:0:0:0:
109,192,456445,1,0,0:0:0:0:
402,192,456445,1,0,0:0:0:0:
182,192,456539,1,0,0:0:0:0:
36,192,456633,1,0,0:0:0:0:
402,192,456633,1,0,0:0:0:0:
256,192,456633,1,0,0:0:0:0:
329,192,456726,1,0,0:0:0:0:
109,192,456820,1,0,0:0:0:0:
256,192,456820,1,0,0:0:0:0:
182,192,456914,1,0,0:0:0:0:
475,192,456914,1,0,0:0:0:0:
36,192,457008,1,0,0:0:0:0:
402,192,457008,1,0,0:0:0:0:
329,192,457008,1,0,0:0:0:0:
109,192,457101,1,0,0:0:0:0:
329,192,457195,1,0,0:0:0:0:
402,192,457195,1,0,0:0:0:0:
182,192,457195,1,0,0:0:0:0:
256,192,457289,1,0,0:0:0:0:
36,192,457383,1,0,0:0:0:0:
475,192,457383,1,0,0:0:0:0:
329,192,457383,1,0,0:0:0:0:
256,192,457476,1,0,0:0:0:0:
475,192,457570,1,0,0:0:0:0:
182,192,457570,1,0,0:0:0:0:
109,192,457664,1,0,0:0:0:0:
402,192,457664,1,0,0:0:0:0:
256,192,457758,1,0,0:0:0:0:
36,192,457758,1,0,0:0:0:0:
329,192,457758,1,0,0:0:0:0:
182,192,457851,1,0,0:0:0:0:
329,192,457945,1,0,0:0:0:0:
109,192,457945,1,0,0:0:0:0:
475,192,457945,1,0,0:0:0:0:
256,192,458039,1,0,0:0:0:0:
475,192,458133,1,0,0:0:0:0:
36,192,458133,1,0,0:0:0:0:
182,192,458133,1,0,0:0:0:0:
109,192,458226,1,0,0:0:0:0:
475,192,458320,1,0,0:0:0:0:
182,192,458320,1,0,0:0:0:0:
256,192,458414,1,0,0:0:0:0:
402,192,458414,1,0,0:0:0:0:
109,192,458508,1,0,0:0:0:0:
36,192,458508,1,0,0:0:0:0:
329,192,458508,1,0,0:0:0:0:
182,192,458601,1,0,0:0:0:0:
402,192,458695,1,0,0:0:0:0:
36,192,458695,1,0,0:0:0:0:
256,192,458695,1,0,0:0:0:0:
329,192,458789,1,0,0:0:0:0:
36,192,458883,1,0,0:0:0:0:
475,192,458883,1,0,0:0:0:0:
109,192,458883,1,0,0:0:0:0:
182,192,458976,1,0,0:0:0:0:
402,192,459070,1,0,0:0:0:0:
256,192,459070,1,0,0:0:0:0:
109,192,459164,1,0,0:0:0:0:
36,192,459258,1,0,0:0:0:0:
402,192,459258,1,0,0:0:0:0:
182,192,459258,1,0,0:0:0:0:
256,192,459351,1,0,0:0:0:0:
329,192,459351,1,0,0:0:0:0:
109,192,459445,1,0,0:0:0:0:
182,192,459445,1,0,0:0:0:0:
475,192,459539,1,0,0:0:0:0:
329,192,459539,1,0,0:0:0:0:
402,192,459633,1,0,0:0:0:0:
36,192,459633,1,0,0:0:0:0:
256,192,459633,1,0,0:0:0:0:
329,192,459726,1,0,0:0:0:0:
109,192,459726,1,0,0:0:0:0:
475,192,459820,1,0,0:0:0:0:
182,192,459820,1,0,0:0:0:0:
256,192,459914,1,0,0:0:0:0:
402,192,459914,1,0,0:0:0:0:
36,192,460008,1,0,0:0:0:0:
109,192,460008,1,0,0:0:0:0:
329,192,460008,1,0,0:0:0:0:
182,192,460101,1,0,0:0:0:0:
256,192,460101,1,0,0:0:0:0:
475,192,460195,1,0,0:0:0:0:
109,192,460195,1,0,0:0:0:0:
182,192,460289,1,0,0:0:0:0:
402,192,460289,1,0,0:0:0:0:
36,192,460383,1,0,0:0:0:0:
329,192,460383,1,0,0:0:0:0:
256,192,460383,1,0,0:0:0:0:
475,192,460476,1,0,0:0:0:0:
109,192,460476,1,0,0:0:0:0:
182,192,460570,1,0,0:0:0:0:
402,192,460570,1,0,0:0:0:0:
475,192,460664,1,0,0:0:0:0:
256,192,460664,1,0,0:0:0:0:
109,192,460758,1,0,0:0:0:0:
36,192,460758,1,0,0:0:0:0:
329,192,460758,1,0,0:0:0:0:
402,192,460851,1,0,0:0:0:0:
182,192,460851,1,0,0:0:0:0:
475,192,460945,1,0,0:0:0:0:
109,192,460945,1,0,0:0:0:0:
329,192,460945,1,0,0:0:0:0:
256,192,461039,1,0,0:0:0:0:
402,192,461133,1,0,0:0:0:0:
475,192,461133,1,0,0:0:0:0:
182,192,461133,1,0,0:0:0:0:
36,192,461133,1,0,0:0:0:0:
109,192,461226,1,0,0:0:0:0:
402,192,461320,1,0,0:0:0:0:
182,192,461320,1,0,0:0:0:0:
475,192,461414,1,0,0:0:0:0:
329,192,461414,1,0,0:0:0:0:
36,192,461508,1,0,0:0:0:0:
109,192,461508,1,0,0:0:0:0:
402,192,461508,1,0,0:0:0:0:
256,192,461601,1,0,0:0:0:0:
475,192,461695,1,0,0:0:0:0:
109,192,461695,1,0,0:0:0:0:
182,192,461695,1,0,0:0:0:0:
329,192,461789,1,0,0:0:0:0:
36,192,461883,1,0,0:0:0:0:
256,192,461883,1,0,0:0:0:0:
402,192,461883,1,0,0:0:0:0:
109,192,461976,1,0,0:0:0:0:
475,192,462070,1,0,0:0:0:0:
182,192,462070,1,0,0:0:0:0:
109,192,462164,1,0,0:0:0:0:
256,192,462164,1,0,0:0:0:0:
329,192,462258,1,0,0:0:0:0:
475,192,462258,1,0,0:0:0:0:
36,192,462258,1,0,0:0:0:0:
402,192,462351,1,0,0:0:0:0:
256,192,462445,1,0,0:0:0:0:
109,192,462445,1,0,0:0:0:0:
329,192,462445,1,0,0:0:0:0:
182,192,462539,1,0,0:0:0:0:
475,192,462633,1,0,0:0:0:0:
256,192,462633,1,0,0:0:0:0:
36,192,462633,1,0,0:0:0:0:
329,192,462726,1,0,0:0:0:0:
109,192,462820,1,0,0:0:0:0:
402,192,462820,1,0,0:0:0:0:
329,192,462914,1,0,0:0:0:0:
182,192,462914,1,0,0:0:0:0:
36,192,463008,1,0,0:0:0:0:
475,192,463008,1,0,0:0:0:0:
256,192,463008,1,0,0:0:0:0:
109,192,463101,1,0,0:0:0:0:
36,192,463195,1,0,0:0:0:0:
329,192,463195,1,0,0:0:0:0:
182,192,463195,1,0,0:0:0:0:
256,192,463289,1,0,0:0:0:0:
402,192,463383,1,0,0:0:0:0:
182,192,463383,1,0,0:0:0:0:
475,192,463383,1,0,0:0:0:0:
256,192,463476,1,0,0:0:0:0:
109,192,463476,1,0,0:0:0:0:
329,192,463570,1,0,0:0:0:0:
36,192,463570,1,0,0:0:0:0:
402,192,463664,1,0,0:0:0:0:
256,192,463664,1,0,0:0:0:0:
109,192,463758,1,0,0:0:0:0:
475,192,463758,1,0,0:0:0:0:
182,192,463758,1,0,0:0:0:0:
256,192,463851,1,0,0:0:0:0:
402,192,463851,1,0,0:0:0:0:
36,192,463945,1,0,0:0:0:0:
109,192,463945,1,0,0:0:0:0:
329,192,463945,1,0,0:0:0:0:
182,192,464039,1,0,0:0:0:0:
36,192,464133,1,0,0:0:0:0:
402,192,464133,1,0,0:0:0:0:
256,192,464133,1,0,0:0:0:0:
109,192,464226,1,0,0:0:0:0:
475,192,464320,1,0,0:0:0:0:
182,192,464320,1,0,0:0:0:0:
329,192,464414,1,0,0:0:0:0:
256,192,464414,1,0,0:0:0:0:
109,192,464508,1,0,0:0:0:0:
36,192,464508,1,0,0:0:0:0:
402,192,464508,1,0,0:0:0:0:
256,192,464601,1,0,0:0:0:0:
109,192,464695,1,0,0:0:0:0:
475,192,464695,1,0,0:0:0:0:
182,192,464695,1,0,0:0:0:0:
402,192,464789,1,0,0:0:0:0:
475,192,464883,1,0,0:0:0:0:
182,192,464883,1,0,0:0:0:0:
329,192,464883,1,0,0:0:0:0:
256,192,464976,1,0,0:0:0:0:
402,192,465070,1,0,0:0:0:0:
182,192,465070,1,0,0:0:0:0:
256,192,465164,1,0,0:0:0:0:
475,192,465258,1,0,0:0:0:0:
329,192,465258,1,0,0:0:0:0:
109,192,465258,1,0,0:0:0:0:
182,192,465351,1,0,0:0:0:0:
475,192,465445,1,0,0:0:0:0:
402,192,465445,1,0,0:0:0:0:
256,192,465539,1,0,0:0:0:0:
475,192,465633,1,0,0:0:0:0:
36,192,465633,1,0,0:0:0:0:
109,192,465633,1,0,0:0:0:0:
402,192,465726,1,0,0:0:0:0:
182,192,465726,1,0,0:0:0:0:
329,192,465820,1,0,0:0:0:0:
256,192,465820,1,0,0:0:0:0:
109,192,465914,1,0,0:0:0:0:
182,192,465914,1,0,0:0:0:0:
402,192,466008,1,0,0:0:0:0:
475,192,466008,1,0,0:0:0:0:
36,192,466008,1,0,0:0:0:0:
329,192,466101,1,0,0:0:0:0:
256,192,466101,1,0,0:0:0:0:
109,192,466195,1,0,0:0:0:0:
182,192,466195,1,0,0:0:0:0:
402,192,466289,1,0,0:0:0:0:
329,192,466289,1,0,0:0:0:0:
36,192,466383,1,0,0:0:0:0:
109,192,466383,1,0,0:0:0:0:
182,192,466383,1,0,0:0:0:0:
402,192,466476,1,0,0:0:0:0:
329,192,466476,1,0,0:0:0:0:
182,192,466570,1,0,0:0:0:0:
256,192,466570,1,0,0:0:0:0:
475,192,466664,1,0,0:0:0:0:
402,192,466664,1,0,0:0:0:0:
329,192,466758,1,0,0:0:0:0:
36,192,466758,1,0,0:0:0:0:
256,192,466758,1,0,0:0:0:0:
109,192,466851,1,0,0:0:0:0:
182,192,466945,1,0,0:0:0:0:
402,192,466945,1,0,0:0:0:0:
329,192,466945,1,0,0:0:0:0:
256,192,467039,1,0,0:0:0:0:
36,192,467133,1,0,0:0:0:0:
329,192,467133,1,0,0:0:0:0:
475,192,467133,1,0,0:0:0:0:
109,192,467226,1,0,0:0:0:0:
329,192,467320,1,0,0:0:0:0:
182,192,467320,1,0,0:0:0:0:
402,192,467414,1,0,0:0:0:0:
256,192,467414,1,0,0:0:0:0:
475,192,467508,1,0,0:0:0:0:
36,192,467508,1,0,0:0:0:0:
329,192,467508,1,0,0:0:0:0:
182,192,467601,1,0,0:0:0:0:
475,192,467695,1,0,0:0:0:0:
109,192,467695,1,0,0:0:0:0:
256,192,467695,1,0,0:0:0:0:
402,192,467789,1,0,0:0:0:0:
182,192,467883,1,0,0:0:0:0:
36,192,467883,1,0,0:0:0:0:
329,192,467883,1,0,0:0:0:0:
256,192,467976,1,0,0:0:0:0:
402,192,468070,1,0,0:0:0:0:
182,192,468070,1,0,0:0:0:0:
36,192,468164,1,0,0:0:0:0:
329,192,468164,1,0,0:0:0:0:
475,192,468258,1,0,0:0:0:0:
182,192,468258,1,0,0:0:0:0:
109,192,468258,1,0,0:0:0:0:
256,192,468351,1,0,0:0:0:0:
36,192,468445,1,0,0:0:0:0:
402,192,468445,1,0,0:0:0:0:
329,192,468445,1,0,0:0:0:0:
109,192,468539,1,0,0:0:0:0:
329,192,468633,1,0,0:0:0:0:
475,192,468633,1,0,0:0:0:0:
182,192,468633,1,0,0:0:0:0:
256,192,468726,1,0,0:0:0:0:
36,192,468820,1,0,0:0:0:0:
182,192,468820,1,0,0:0:0:0:
475,192,468914,1,0,0:0:0:0:
402,192,468914,1,0,0:0:0:0:
256,192,469008,1,0,0:0:0:0:
109,192,469008,1,0,0:0:0:0:
329,192,469008,1,0,0:0:0:0:
182,192,469101,1,0,0:0:0:0:
402,192,469195,1,0,0:0:0:0:
256,192,469195,1,0,0:0:0:0:
36,192,469289,1,0,0:0:0:0:
256,192,469383,1,0,0:0:0:0:
402,192,469383,1,0,0:0:0:0:
109,192,469383,1,0,0:0:0:0:
329,192,469476,1,0,0:0:0:0:
36,192,469570,1,0,0:0:0:0:
256,192,469570,1,0,0:0:0:0:
109,192,469664,1,0,0:0:0:0:
475,192,469664,1,0,0:0:0:0:
329,192,469758,1,0,0:0:0:0:
182,192,469758,1,0,0:0:0:0:
402,192,469758,1,0,0:0:0:0:
256,192,469851,1,0,0:0:0:0:
475,192,469945,1,0,0:0:0:0:
36,192,469945,1,0,0:0:0:0:
182,192,469945,1,0,0:0:0:0:
329,192,470039,1,0,0:0:0:0:
475,192,470133,1,0,0:0:0:0:
402,192,470133,1,0,0:0:0:0:
256,192,470133,1,0,0:0:0:0:
402,192,470320,1,0,0:0:0:0:
109,192,470320,1,0,0:0:0:0:
182,192,470320,1,0,0:0:0:0:
329,192,470414,1,0,0:0:0:0:
182,192,470508,1,0,0:0:0:0:
36,192,470508,1,0,0:0:0:0:
402,192,470508,1,0,0:0:0:0:
475,192,470508,1,0,0:0:0:0:
256,192,470695,1,0,0:0:0:0:
402,192,470695,1,0,0:0:0:0:
109,192,470695,1,0,0:0:0:0:
182,192,470883,1,0,0:0:0:0:
36,192,470883,1,0,0:0:0:0:
329,192,470883,1,0,0:0:0:0:
475,192,470883,1,0,0:0:0:0:
256,192,470976,1,0,0:0:0:0:
402,192,471070,1,0,0:0:0:0:
109,192,471070,1,0,0:0:0:0:
182,192,471070,1,0,0:0:0:0:
36,192,471258,1,0,0:0:0:0:
402,192,471258,1,0,0:0:0:0:
329,192,471258,1,0,0:0:0:0:
182,192,471351,1,0,0:0:0:0:
109,192,471351,1,0,0:0:0:0:
256,192,471445,1,0,0:0:0:0:
475,192,471539,1,0,0:0:0:0:
329,192,471539,1,0,0:0:0:0:
36,192,471633,1,0,0:0:0:0:
182,192,471679,1,0,0:0:0:0:
329,192,471726,1,0,0:0:0:0:
475,192,471773,1,0,0:0:0:0:
109,192,471820,1,0,0:0:0:0:
402,192,471914,1,0,0:0:0:0:
36,192,472008,1,0,0:0:0:0:
182,192,472008,1,0,0:0:0:0:
475,192,472101,1,0,0:0:0:0:
329,192,472101,1,0,0:0:0:0:
109,192,472195,1,0,0:0:0:0:
402,192,472289,1,0,0:0:0:0:
109,192,472383,1,0,0:0:0:0:
36,192,472383,1,0,0:0:0:0:
182,192,472383,1,0,0:0:0:0:
402,192,472476,1,0,0:0:0:0:
475,192,472476,1,0,0:0:0:0:
329,192,472476,1,0,0:0:0:0:
182,192,472570,1,0,0:0:0:0:
109,192,472570,1,0,0:0:0:0:
256,192,472570,1,0,0:0:0:0:
475,192,472664,1,0,0:0:0:0:
402,192,472664,1,0,0:0:0:0:
329,192,472664,1,0,0:0:0:0:
36,192,472758,1,0,0:0:0:0:
109,192,472758,1,0,0:0:0:0:
182,192,472758,1,0,0:0:0:0:
402,192,472851,1,0,0:0:0:0:
329,192,472851,1,0,0:0:0:0:
256,192,472851,1,0,0:0:0:0:
36,192,472945,1,0,0:0:0:0:
109,192,472945,1,0,0:0:0:0:
182,192,472945,1,0,0:0:0:0:
475,192,473039,1,0,0:0:0:0:
402,192,473039,1,0,0:0:0:0:
329,192,473039,1,0,0:0:0:0:
109,192,473133,1,0,0:0:0:0:
36,192,473133,1,0,0:0:0:0:
256,192,473133,1,0,0:0:0:0:
182,192,473133,1,0,0:0:0:0:
329,192,473320,1,0,0:0:0:0:
182,192,473508,1,0,0:0:0:0:
475,192,473508,1,0,0:0:0:0:
402,192,473508,1,0,0:0:0:0:
256,192,473695,1,0,0:0:0:0:
475,192,473883,1,0,0:0:0:0:
182,192,473883,1,0,0:0:0:0:
402,192,474070,1,0,0:0:0:0:
475,192,474258,1,0,0:0:0:0:
182,192,474258,1,0,0:0:0:0:
329,192,474258,1,0,0:0:0:0:
256,192,474445,1,0,0:0:0:0:
109,192,474633,1,0,0:0:0:0:
475,192,474633,1,0,0:0:0:0:
182,192,474633,1,0,0:0:0:0:
256,192,474820,1,0,0:0:0:0:
36,192,475008,1,0,0:0:0:0:
475,192,475008,1,0,0:0:0:0:
329,192,475008,1,0,0:0:0:0:
182,192,475195,1,0,0:0:0:0:
256,192,475383,1,0,0:0:0:0:
475,192,475383,1,0,0:0:0:0:
402,192,475383,1,0,0:0:0:0:
329,192,475570,1,0,0:0:0:0:
475,192,475758,1,0,0:0:0:0:
36,192,475758,1,0,0:0:0:0:
182,192,475758,1,0,0:0:0:0:
109,192,475945,1,0,0:0:0:0:
329,192,475945,1,0,0:0:0:0:
475,192,476039,1,0,0:0:0:0:
182,192,476039,1,0,0:0:0:0:
109,192,476133,1,0,0:0:0:0:
402,192,476133,1,0,0:0:0:0:
36,192,476133,1,0,0:0:0:0:
329,192,476133,1,0,0:0:0:0:
182,192,476320,1,0,0:0:0:0:
36,192,476508,1,0,0:0:0:0:
329,192,476508,1,0,0:0:0:0:
256,192,476508,1,0,0:0:0:0:
109,192,476695,1,0,0:0:0:0:
182,192,476883,1,0,0:0:0:0:
475,192,476883,1,0,0:0:0:0:
256,192,476883,1,0,0:0:0:0:
329,192,477070,1,0,0:0:0:0:
36,192,477258,1,0,0:0:0:0:
109,192,477258,1,0,0:0:0:0:
475,192,477258,1,0,0:0:0:0:
329,192,477445,1,0,0:0:0:0:
475,192,477633,1,0,0:0:0:0:
36,192,477633,1,0,0:0:0:0:
256,192,477820,1,0,0:0:0:0:
329,192,478008,1,0,0:0:0:0:
182,192,478008,1,0,0:0:0:0:
256,192,478195,1,0,0:0:0:0:
36,192,478383,1,0,0:0:0:0:
402,192,478383,1,0,0:0:0:0:
256,192,478570,1,0,0:0:0:0:
475,192,478758,1,0,0:0:0:0:
109,192,478758,1,0,0:0:0:0:
256,192,478945,1,0,0:0:0:0:
329,192,479133,1,0,0:0:0:0:
475,192,479133,1,0,0:0:0:0:
109,192,479133,1,0,0:0:0:0:
182,192,479320,1,0,0:0:0:0:
402,192,479508,1,0,0:0:0:0:
36,192,479508,1,0,0:0:0:0:
256,192,479508,1,0,0:0:0:0:
475,192,479695,1,0,0:0:0:0:
109,192,479695,1,0,0:0:0:0:
182,192,479789,1,0,0:0:0:0:
402,192,479789,1,0,0:0:0:0:
36,192,479883,1,0,0:0:0:0:
256,192,479883,1,0,0:0:0:0:
475,192,479976,1,0,0:0:0:0:
109,192,480070,1,0,0:0:0:0:
402,192,480258,1,0,0:0:0:0:
475,192,480258,1,0,0:0:0:0:
182,192,480258,1,0,0:0:0:0:
36,192,480445,1,0,0:0:0:0:
109,192,480633,1,0,0:0:0:0:
402,192,480633,1,0,0:0:0:0:
182,192,480633,1,0,0:0:0:0:
329,192,480820,1,0,0:0:0:0:
182,192,481008,1,0,0:0:0:0:
475,192,481008,1,0,0:0:0:0:
402,192,481008,1,0,0:0:0:0:
329,192,481195,1,0,0:0:0:0:
182,192,481383,1,0,0:0:0:0:
36,192,481383,1,0,0:0:0:0:
256,192,481383,1,0,0:0:0:0:
329,192,481570,1,0,0:0:0:0:
182,192,481758,1,0,0:0:0:0:
402,192,481758,1,0,0:0:0:0:
329,192,481758,1,0,0:0:0:0:
256,192,481945,1,0,0:0:0:0:
36,192,482133,1,0,0:0:0:0:
475,192,482133,1,0,0:0:0:0:
329,192,482133,1,0,0:0:0:0:
402,192,482133,1,0,0:0:0:0:
182,192,482320,1,0,0:0:0:0:
256,192,482508,1,0,0:0:0:0:
109,192,482508,1,0,0:0:0:0:
402,192,482508,1,0,0:0:0:0:
182,192,482695,1,0,0:0:0:0:
329,192,482883,1,0,0:0:0:0:
256,192,482883,1,0,0:0:0:0:
36,192,483070,1,0,0:0:0:0:
182,192,483258,1,0,0:0:0:0:
329,192,483258,1,0,0:0:0:0:
182,192,483633,1,0,0:0:0:0:
36,192,483633,1,0,0:0:0:0:
329,192,483633,1,0,0:0:0:0:
475,192,483633,1,0,0:0:0:0:
329,192,483914,1,0,0:0:0:0:
475,192,483914,1,0,0:0:0:0:
256,192,483914,1,0,0:0:0:0:
36,192,483914,1,0,0:0:0:0:
182,192,483914,1,0,0:0:0:0:
256,192,484195,1,0,0:0:0:0:
475,192,484195,1,0,0:0:0:0:
329,192,484195,1,0,0:0:0:0:
182,192,484195,1,0,0:0:0:0:
36,192,484195,1,0,0:0:0:0:
36,192,484383,1,0,0:0:0:0:
475,192,484383,1,0,0:0:0:0:
402,192,484383,1,0,0:0:0:0:
109,192,484383,1,0,0:0:0:0:
256,192,484383,1,0,0:0:0:0:
256,192,484758,1,0,0:0:0:0:
475,192,484945,1,0,0:0:0:0:
36,192,484945,1,0,0:0:0:0:
182,192,484945,1,0,0:0:0:0:
402,192,485039,1,0,0:0:0:0:
329,192,485039,1,0,0:0:0:0:
36,192,485133,1,0,0:0:0:0:
109,192,485133,1,0,0:0:0:0:
256,192,485133,1,0,0:0:0:0:
256,192,485320,1,0,0:0:0:0:
109,192,485320,1,0,0:0:0:0:
475,192,485414,1,0,0:0:0:0:
329,192,485414,1,0,0:0:0:0:
182,192,485414,1,0,0:0:0:0:
109,192,485508,1,0,0:0:0:0:
36,192,485508,1,0,0:0:0:0:
475,192,485695,1,0,0:0:0:0:
36,192,485695,1,0,0:0:0:0:
182,192,485695,1,0,0:0:0:0:
402,192,485789,1,0,0:0:0:0:
329,192,485789,1,0,0:0:0:0:
256,192,485883,1,0,0:0:0:0:
109,192,485883,1,0,0:0:0:0:
475,192,485883,1,0,0:0:0:0:
182,192,486070,1,0,0:0:0:0:
329,192,486070,1,0,0:0:0:0:
475,192,486164,1,0,0:0:0:0:
402,192,486164,1,0,0:0:0:0:
256,192,486164,1,0,0:0:0:0:
182,192,486258,1,0,0:0:0:0:
109,192,486258,1,0,0:0:0:0:
36,192,486445,1,0,0:0:0:0:
475,192,486445,1,0,0:0:0:0:
402,192,486445,1,0,0:0:0:0:
109,192,486539,1,0,0:0:0:0:
182,192,486539,1,0,0:0:0:0:
475,192,486633,1,0,0:0:0:0:
256,192,486633,1,0,0:0:0:0:
329,192,486633,1,0,0:0:0:0:
329,192,486820,1,0,0:0:0:0:
36,192,486820,1,0,0:0:0:0:
475,192,486914,1,0,0:0:0:0:
109,192,486914,1,0,0:0:0:0:
256,192,486914,1,0,0:0:0:0:
329,192,487008,1,0,0:0:0:0:
402,192,487008,1,0,0:0:0:0:
36,192,487195,1,0,0:0:0:0:
475,192,487195,1,0,0:0:0:0:
256,192,487195,1,0,0:0:0:0:
182,192,487195,1,0,0:0:0:0:
329,192,487383,1,0,0:0:0:0:
402,192,487383,1,0,0:0:0:0:
109,192,487383,1,0,0:0:0:0:
182,192,487383,1,0,0:0:0:0:
109,192,487570,1,0,0:0:0:0:
256,192,487570,1,0,0:0:0:0:
475,192,487758,1,0,0:0:0:0:
36,192,487758,1,0,0:0:0:0:
182,192,487758,1,0,0:0:0:0:
329,192,487945,1,0,0:0:0:0:
402,192,487945,1,0,0:0:0:0:
36,192,488039,1,0,0:0:0:0:
182,192,488039,1,0,0:0:0:0:
402,192,488133,1,0,0:0:0:0:
109,192,488133,1,0,0:0:0:0:
256,192,488133,1,0,0:0:0:0:
329,192,488320,1,0,0:0:0:0:
182,192,488320,1,0,0:0:0:0:
475,192,488414,1,0,0:0:0:0:
402,192,488414,1,0,0:0:0:0:
256,192,488414,1,0,0:0:0:0:
182,192,488508,1,0,0:0:0:0:
109,192,488508,1,0,0:0:0:0:
329,192,488695,1,0,0:0:0:0:
36,192,488695,1,0,0:0:0:0:
256,192,488695,1,0,0:0:0:0:
402,192,488695,1,0,0:0:0:0:
402,192,488883,1,0,0:0:0:0:
475,192,488883,1,0,0:0:0:0:
109,192,488883,1,0,0:0:0:0:
256,192,488883,1,0,0:0:0:0:
182,192,489070,1,0,0:0:0:0:
329,192,489070,1,0,0:0:0:0:
475,192,489164,1,0,0:0:0:0:
109,192,489164,1,0,0:0:0:0:
256,192,489164,1,0,0:0:0:0:
182,192,489258,1,0,0:0:0:0:
402,192,489258,1,0,0:0:0:0:
402,192,489445,1,0,0:0:0:0:
36,192,489445,1,0,0:0:0:0:
329,192,489445,1,0,0:0:0:0:
182,192,489445,1,0,0:0:0:0:
402,192,489633,1,0,0:0:0:0:
475,192,489633,1,0,0:0:0:0:
109,192,489633,1,0,0:0:0:0:
256,192,489633,1,0,0:0:0:0:
256,192,489820,1,0,0:0:0:0:
182,192,489820,1,0,0:0:0:0:
475,192,489914,1,0,0:0:0:0:
402,192,489914,1,0,0:0:0:0:
329,192,489914,1,0,0:0:0:0:
182,192,490008,1,0,0:0:0:0:
109,192,490008,1,0,0:0:0:0:
402,192,490195,1,0,0:0:0:0:
36,192,490195,1,0,0:0:0:0:
256,192,490195,1,0,0:0:0:0:
329,192,490195,1,0,0:0:0:0:
475,192,490383,1,0,0:0:0:0:
182,192,490383,1,0,0:0:0:0:
109,192,490383,1,0,0:0:0:0:
256,192,490383,1,0,0:0:0:0:
182,192,490570,1,0,0:0:0:0:
402,192,490570,1,0,0:0:0:0:
36,192,490758,1,0,0:0:0:0:
329,192,490758,1,0,0:0:0:0:
256,192,490758,1,0,0:0:0:0:
256,192,490945,1,0,0:0:0:0:
109,192,490945,1,0,0:0:0:0:
182,192,491039,1,0,0:0:0:0:
475,192,491039,1,0,0:0:0:0:
36,192,491133,1,0,0:0:0:0:
256,192,491133,1,0,0:0:0:0:
402,192,491133,1,0,0:0:0:0:
475,192,491320,1,0,0:0:0:0:
109,192,491320,1,0,0:0:0:0:
182,192,491414,1,0,0:0:0:0:
329,192,491414,1,0,0:0:0:0:
402,192,491414,1,0,0:0:0:0:
36,192,491508,1,0,0:0:0:0:
109,192,491508,1,0,0:0:0:0:
329,192,491695,1,0,0:0:0:0:
475,192,491695,1,0,0:0:0:0:
182,192,491695,1,0,0:0:0:0:
36,192,491695,1,0,0:0:0:0:
402,192,491883,1,0,0:0:0:0:
475,192,491883,1,0,0:0:0:0:
109,192,491883,1,0,0:0:0:0:
256,192,491883,1,0,0:0:0:0:
256,192,492070,1,0,0:0:0:0:
182,192,492070,1,0,0:0:0:0:
109,192,492164,1,0,0:0:0:0:
475,192,492164,1,0,0:0:0:0:
329,192,492164,1,0,0:0:0:0:
256,192,492258,1,0,0:0:0:0:
36,192,492258,1,0,0:0:0:0:
402,192,492445,1,0,0:0:0:0:
256,192,492445,1,0,0:0:0:0:
182,192,492445,1,0,0:0:0:0:
109,192,492445,1,0,0:0:0:0:
182,192,492633,1,0,0:0:0:0:
475,192,492633,1,0,0:0:0:0:
329,192,492633,1,0,0:0:0:0:
402,192,492633,1,0,0:0:0:0:
36,192,492820,1,0,0:0:0:0:
256,192,492820,1,0,0:0:0:0:
329,192,492914,1,0,0:0:0:0:
402,192,492914,1,0,0:0:0:0:
182,192,492914,1,0,0:0:0:0:
475,192,493008,1,0,0:0:0:0:
256,192,493008,1,0,0:0:0:0:
182,192,493195,1,0,0:0:0:0:
36,192,493195,1,0,0:0:0:0:
329,192,493195,1,0,0:0:0:0:
402,192,493195,1,0,0:0:0:0:
402,192,493383,1,0,0:0:0:0:
475,192,493383,1,0,0:0:0:0:
109,192,493383,1,0,0:0:0:0:
182,192,493383,1,0,0:0:0:0:
329,192,493570,1,0,0:0:0:0:
256,192,493570,1,0,0:0:0:0:
36,192,493758,1,0,0:0:0:0:
182,192,493758,1,0,0:0:0:0:
402,192,493758,1,0,0:0:0:0:
256,192,493945,1,0,0:0:0:0:
109,192,493945,1,0,0:0:0:0:
182,192,494039,1,0,0:0:0:0:
329,192,494039,1,0,0:0:0:0:
36,192,494133,1,0,0:0:0:0:
256,192,494133,1,0,0:0:0:0:
402,192,494133,1,0,0:0:0:0:
402,192,494320,1,0,0:0:0:0:
475,192,494320,1,0,0:0:0:0:
182,192,494414,1,0,0:0:0:0:
36,192,494414,1,0,0:0:0:0:
329,192,494414,1,0,0:0:0:0:
475,192,494508,1,0,0:0:0:0:
109,192,494508,1,0,0:0:0:0:
109,192,494695,1,0,0:0:0:0:
475,192,494695,1,0,0:0:0:0:
256,192,494695,1,0,0:0:0:0:
329,192,494695,1,0,0:0:0:0:
36,192,494883,1,0,0:0:0:0:
402,192,494883,1,0,0:0:0:0:
182,192,494883,1,0,0:0:0:0:
329,192,494883,1,0,0:0:0:0:
256,192,495070,1,0,0:0:0:0:
109,192,495070,1,0,0:0:0:0:
475,192,495164,1,0,0:0:0:0:
329,192,495164,1,0,0:0:0:0:
182,192,495164,1,0,0:0:0:0:
36,192,495258,1,0,0:0:0:0:
109,192,495258,1,0,0:0:0:0:
475,192,495445,1,0,0:0:0:0:
256,192,495445,1,0,0:0:0:0:
182,192,495445,1,0,0:0:0:0:
109,192,495445,1,0,0:0:0:0:
256,192,495633,1,0,0:0:0:0:
36,192,495633,1,0,0:0:0:0:
402,192,495633,1,0,0:0:0:0:
329,192,495633,1,0,0:0:0:0:
256,192,495820,1,0,0:0:0:0:
36,192,495820,1,0,0:0:0:0:
475,192,495914,1,0,0:0:0:0:
329,192,495914,1,0,0:0:0:0:
109,192,495914,1,0,0:0:0:0:
256,192,496008,1,0,0:0:0:0:
182,192,496008,1,0,0:0:0:0:
475,192,496195,1,0,0:0:0:0:
182,192,496195,1,0,0:0:0:0:
329,192,496195,1,0,0:0:0:0:
402,192,496195,1,0,0:0:0:0:
182,192,496383,1,0,0:0:0:0:
402,192,496383,1,0,0:0:0:0:
109,192,496383,1,0,0:0:0:0:
36,192,496383,1,0,0:0:0:0:
329,192,496570,1,0,0:0:0:0:
109,192,496570,1,0,0:0:0:0:
475,192,496758,1,0,0:0:0:0:
256,192,496758,1,0,0:0:0:0:
182,192,496758,1,0,0:0:0:0:
182,192,496945,1,0,0:0:0:0:
36,192,496945,1,0,0:0:0:0:
329,192,496945,1,0,0:0:0:0:
475,192,497039,1,0,0:0:0:0:
402,192,497039,1,0,0:0:0:0:
256,192,497133,1,0,0:0:0:0:
182,192,497133,1,0,0:0:0:0:
109,192,497133,1,0,0:0:0:0:
36,192,497133,1,0,0:0:0:0:
329,192,497226,1,0,0:0:0:0:
475,192,497320,1,0,0:0:0:0:
256,192,497414,1,0,0:0:0:0:
182,192,497414,1,0,0:0:0:0:
109,192,497414,1,0,0:0:0:0:
36,192,497414,1,0,0:0:0:0:
402,192,497508,1,0,0:0:0:0:
329,192,497508,1,0,0:0:0:0:
256,192,497601,1,0,0:0:0:0:
36,192,497695,1,0,0:0:0:0:
109,192,497695,1,0,0:0:0:0:
182,192,497789,1,0,0:0:0:0:
329,192,497883,1,0,0:0:0:0:
402,192,497883,1,0,0:0:0:0:
475,192,497883,1,0,0:0:0:0:
256,192,497883,1,0,0:0:0:0:
182,192,497976,1,0,0:0:0:0:
109,192,498070,1,0,0:0:0:0:
256,192,498164,1,0,0:0:0:0:
329,192,498164,1,0,0:0:0:0:
402,192,498164,1,0,0:0:0:0:
475,192,498164,1,0,0:0:0:0:
36,192,498258,1,0,0:0:0:0:
182,192,498258,1,0,0:0:0:0:
109,192,498351,1,0,0:0:0:0:
182,192,498445,1,0,0:0:0:0:
475,192,498445,1,0,0:0:0:0:
329,192,498445,1,0,0:0:0:0:
402,192,498539,1,0,0:0:0:0:
182,192,498633,1,0,0:0:0:0:
109,192,498633,1,0,0:0:0:0:
36,192,498633,1,0,0:0:0:0:
256,192,498633,1,0,0:0:0:0:
402,192,498726,1,0,0:0:0:0:
329,192,498820,1,0,0:0:0:0:
256,192,498914,1,0,0:0:0:0:
182,192,498914,1,0,0:0:0:0:
109,192,498914,1,0,0:0:0:0:
36,192,498914,1,0,0:0:0:0:
475,192,499008,1,0,0:0:0:0:
36,192,499101,1,0,0:0:0:0:
256,192,499195,1,0,0:0:0:0:
329,192,499195,1,0,0:0:0:0:
182,192,499195,1,0,0:0:0:0:
109,192,499195,1,0,0:0:0:0:
402,192,499289,1,0,0:0:0:0:
256,192,499383,1,0,0:0:0:0:
182,192,499383,1,0,0:0:0:0:
109,192,499383,1,0,0:0:0:0:
36,192,499383,1,0,0:0:0:0:
475,192,499383,1,0,0:0:0:0:
402,192,499476,1,0,0:0:0:0:
329,192,499570,1,0,0:0:0:0:
109,192,499570,1,0,0:0:0:0:
256,192,499664,1,0,0:0:0:0:
329,192,499758,1,0,0:0:0:0:
182,192,499758,1,0,0:0:0:0:
36,192,499758,1,0,0:0:0:0:
109,192,499851,1,0,0:0:0:0:
182,192,499945,1,0,0:0:0:0:
402,192,499945,1,0,0:0:0:0:
256,192,500039,1,0,0:0:0:0:
329,192,500039,1,0,0:0:0:0:
475,192,500133,1,0,0:0:0:0:
36,192,500133,1,0,0:0:0:0:
402,192,500133,1,0,0:0:0:0:
109,192,500133,1,0,0:0:0:0:
182,192,500226,1,0,0:0:0:0:
329,192,500320,1,0,0:0:0:0:
109,192,500414,1,0,0:0:0:0:
36,192,500414,1,0,0:0:0:0:
402,192,500414,1,0,0:0:0:0:
475,192,500414,1,0,0:0:0:0:
329,192,500508,1,0,0:0:0:0:
256,192,500508,1,0,0:0:0:0:
182,192,500601,1,0,0:0:0:0:
109,192,500695,1,0,0:0:0:0:
36,192,500695,1,0,0:0:0:0:
475,192,500695,1,0,0:0:0:0:
329,192,500695,1,0,0:0:0:0:
402,192,500789,1,0,0:0:0:0:
256,192,500883,1,0,0:0:0:0:
182,192,500883,1,0,0:0:0:0:
36,192,500883,1,0,0:0:0:0:
329,192,500883,1,0,0:0:0:0:
109,192,500976,1,0,0:0:0:0:
182,192,501070,1,0,0:0:0:0:
256,192,501164,1,0,0:0:0:0:
329,192,501164,1,0,0:0:0:0:
402,192,501164,1,0,0:0:0:0:
475,192,501164,1,0,0:0:0:0:
36,192,501258,1,0,0:0:0:0:
109,192,501351,1,0,0:0:0:0:
402,192,501445,1,0,0:0:0:0:
182,192,501445,1,0,0:0:0:0:
475,192,501445,1,0,0:0:0:0:
256,192,501445,1,0,0:0:0:0:
329,192,501539,1,0,0:0:0:0:
256,192,501633,1,0,0:0:0:0:
182,192,501633,1,0,0:0:0:0:
36,192,501633,1,0,0:0:0:0:
109,192,501633,1,0,0:0:0:0:
475,192,501726,1,0,0:0:0:0:
402,192,501820,1,0,0:0:0:0:
109,192,501914,1,0,0:0:0:0:
182,192,501914,1,0,0:0:0:0:
256,192,501914,1,0,0:0:0:0:
329,192,501914,1,0,0:0:0:0:
402,192,502008,1,0,0:0:0:0:
475,192,502101,1,0,0:0:0:0:
109,192,502195,1,0,0:0:0:0:
182,192,502195,1,0,0:0:0:0:
256,192,502195,1,0,0:0:0:0:
36,192,502195,1,0,0:0:0:0:
329,192,502289,1,0,0:0:0:0:
402,192,502383,1,0,0:0:0:0:
475,192,502383,1,0,0:0:0:0:
36,192,502383,1,0,0:0:0:0:
182,192,502383,1,0,0:0:0:0:
109,192,502476,1,0,0:0:0:0:
182,192,502570,1,0,0:0:0:0:
402,192,502570,1,0,0:0:0:0:
256,192,502664,1,0,0:0:0:0:
182,192,502758,1,0,0:0:0:0:
36,192,502758,1,0,0:0:0:0:
329,192,502758,1,0,0:0:0:0:
109,192,502851,1,0,0:0:0:0:
182,192,502945,1,0,0:0:0:0:
329,192,502945,1,0,0:0:0:0:
256,192,503039,1,0,0:0:0:0:
402,192,503039,1,0,0:0:0:0:
329,192,503133,1,0,0:0:0:0:
475,192,503133,1,0,0:0:0:0:
36,192,503133,1,0,0:0:0:0:
109,192,503133,1,0,0:0:0:0:
182,192,503226,1,0,0:0:0:0:
256,192,503320,1,0,0:0:0:0:
109,192,503414,1,0,0:0:0:0:
36,192,503414,1,0,0:0:0:0:
329,192,503414,1,0,0:0:0:0:
475,192,503414,1,0,0:0:0:0:
182,192,503508,1,0,0:0:0:0:
256,192,503601,1,0,0:0:0:0:
36,192,503695,1,0,0:0:0:0:
329,192,503695,1,0,0:0:0:0:
109,192,503695,1,0,0:0:0:0:
475,192,503695,1,0,0:0:0:0:
182,192,503789,1,0,0:0:0:0:
36,192,503883,1,0,0:0:0:0:
329,192,503883,1,0,0:0:0:0:
475,192,503883,1,0,0:0:0:0:
256,192,503883,1,0,0:0:0:0:
402,192,503976,1,0,0:0:0:0:
329,192,504070,1,0,0:0:0:0:
256,192,504164,1,0,0:0:0:0:
36,192,504164,1,0,0:0:0:0:
109,192,504164,1,0,0:0:0:0:
475,192,504164,1,0,0:0:0:0:
402,192,504258,1,0,0:0:0:0:
329,192,504351,1,0,0:0:0:0:
109,192,504445,1,0,0:0:0:0:
256,192,504445,1,0,0:0:0:0:
36,192,504445,1,0,0:0:0:0:
475,192,504445,1,0,0:0:0:0:
182,192,504539,1,0,0:0:0:0:
256,192,504633,1,0,0:0:0:0:
402,192,504633,1,0,0:0:0:0:
36,192,504633,1,0,0:0:0:0:
329,192,504633,1,0,0:0:0:0:
109,192,504726,1,0,0:0:0:0:
182,192,504820,1,0,0:0:0:0:
256,192,504914,1,0,0:0:0:0:
402,192,504914,1,0,0:0:0:0:
475,192,504914,1,0,0:0:0:0:
36,192,504914,1,0,0:0:0:0:
109,192,505008,1,0,0:0:0:0:
182,192,505101,1,0,0:0:0:0:
256,192,505195,1,0,0:0:0:0:
36,192,505195,1,0,0:0:0:0:
329,192,505195,1,0,0:0:0:0:
475,192,505195,1,0,0:0:0:0:
402,192,505289,1,0,0:0:0:0:
329,192,505383,1,0,0:0:0:0:
36,192,505383,1,0,0:0:0:0:
109,192,505383,1,0,0:0:0:0:
475,192,505383,1,0,0:0:0:0:
256,192,505476,1,0,0:0:0:0:
182,192,505570,1,0,0:0:0:0:
402,192,505570,1,0,0:0:0:0:
329,192,505664,1,0,0:0:0:0:
256,192,505758,1,0,0:0:0:0:
36,192,505758,1,0,0:0:0:0:
475,192,505758,1,0,0:0:0:0:
109,192,505758,1,0,0:0:0:0:
182,192,505851,1,0,0:0:0:0:
256,192,505945,1,0,0:0:0:0:
402,192,505945,1,0,0:0:0:0:
36,192,506039,1,0,0:0:0:0:
329,192,506039,1,0,0:0:0:0:
109,192,506133,1,0,0:0:0:0:
402,192,506133,1,0,0:0:0:0:
256,192,506133,1,0,0:0:0:0:
182,192,506133,1,0,0:0:0:0:
329,192,506226,1,0,0:0:0:0:
36,192,506320,1,0,0:0:0:0:
182,192,506414,1,0,0:0:0:0:
475,192,506414,1,0,0:0:0:0:
256,192,506414,1,0,0:0:0:0:
402,192,506414,1,0,0:0:0:0:
329,192,506508,5,0,0:0:0:0:
256,192,506601,1,0,0:0:0:0:
182,192,506695,1,0,0:0:0:0:
109,192,506695,1,0,0:0:0:0:
36,192,506695,1,0,0:0:0:0:
475,192,506695,1,0,0:0:0:0:
402,192,506789,1,0,0:0:0:0:
329,192,506883,1,0,0:0:0:0:
256,192,506883,1,0,0:0:0:0:
36,192,506883,1,0,0:0:0:0:
475,192,506883,1,0,0:0:0:0:
109,192,506976,1,0,0:0:0:0:
182,192,507070,1,0,0:0:0:0:
256,192,507164,1,0,0:0:0:0:
402,192,507164,1,0,0:0:0:0:
475,192,507164,1,0,0:0:0:0:
36,192,507164,1,0,0:0:0:0:
109,192,507258,1,0,0:0:0:0:
182,192,507351,1,0,0:0:0:0:
329,192,507445,1,0,0:0:0:0:
109,192,507445,1,0,0:0:0:0:
475,192,507445,1,0,0:0:0:0:
256,192,507445,1,0,0:0:0:0:
402,192,507539,1,0,0:0:0:0:
182,192,507633,1,0,0:0:0:0:
36,192,507633,1,0,0:0:0:0:
475,192,507633,1,0,0:0:0:0:
256,192,507633,1,0,0:0:0:0:
109,192,507726,1,0,0:0:0:0:
402,192,507820,1,0,0:0:0:0:
182,192,507914,1,0,0:0:0:0:
329,192,508008,1,0,0:0:0:0:
36,192,508101,1,0,0:0:0:0:
475,192,508195,1,0,0:0:0:0:
109,192,508289,1,0,0:0:0:0:
402,192,508383,1,0,0:0:0:0:
329,192,508383,1,0,0:0:0:0:
109,192,508476,1,0,0:0:0:0:
182,192,508476,1,0,0:0:0:0:
475,192,508570,1,0,0:0:0:0:
402,192,508570,1,0,0:0:0:0:
256,192,508664,1,0,0:0:0:0:
182,192,508664,1,0,0:0:0:0:
36,192,508758,1,0,0:0:0:0:
109,192,508758,1,0,0:0:0:0:
402,192,508851,1,0,0:0:0:0:
329,192,508851,1,0,0:0:0:0:
109,192,508945,1,0,0:0:0:0:
182,192,508945,1,0,0:0:0:0:
475,192,509039,1,0,0:0:0:0:
402,192,509039,1,0,0:0:0:0:
182,192,509226,1,0,0:0:0:0:
36,192,509226,1,0,0:0:0:0:
256,192,509320,1,0,0:0:0:0:
109,192,509320,1,0,0:0:0:0:
329,192,509414,1,0,0:0:0:0:
182,192,509414,1,0,0:0:0:0:
402,192,509508,1,0,0:0:0:0:
256,192,509508,1,0,0:0:0:0:
182,192,509601,1,0,0:0:0:0:
329,192,509601,1,0,0:0:0:0:
402,192,509695,1,0,0:0:0:0:
256,192,509695,1,0,0:0:0:0:
475,192,509789,1,0,0:0:0:0:
329,192,509789,1,0,0:0:0:0:
36,192,509883,1,0,0:0:0:0:
182,192,509883,1,0,0:0:0:0:
475,192,509976,1,0,0:0:0:0:
329,192,509976,1,0,0:0:0:0:
256,192,510070,1,0,0:0:0:0:
402,192,510070,1,0,0:0:0:0:
182,192,510164,1,0,0:0:0:0:
329,192,510164,1,0,0:0:0:0:
36,192,510258,1,0,0:0:0:0:
109,192,510258,1,0,0:0:0:0:
256,192,510258,1,0,0:0:0:0:
402,192,510445,1,0,0:0:0:0:
329,192,510445,1,0,0:0:0:0:
182,192,510445,1,0,0:0:0:0:
475,192,510633,1,0,0:0:0:0:
36,192,510633,1,0,0:0:0:0:
402,192,510633,1,0,0:0:0:0:
256,192,510633,1,0,0:0:0:0:
329,192,510633,1,0,0:0:0:0:
109,192,510726,1,0,0:0:0:0:
182,192,510726,1,0,0:0:0:0:
475,192,510820,1,0,0:0:0:0:
256,192,510914,1,0,0:0:0:0:
402,192,510914,1,0,0:0:0:0:
109,192,511008,1,0,0:0:0:0:
182,192,511008,1,0,0:0:0:0:
475,192,511101,1,0,0:0:0:0:
256,192,511195,1,0,0:0:0:0:
402,192,511195,1,0,0:0:0:0:
109,192,511289,1,0,0:0:0:0:
182,192,511289,1,0,0:0:0:0:
329,192,511383,1,0,0:0:0:0:
475,192,511383,1,0,0:0:0:0:
109,192,511476,1,0,0:0:0:0:
36,192,511476,1,0,0:0:0:0:
182,192,511570,1,0,0:0:0:0:
475,192,511664,1,0,0:0:0:0:
329,192,511664,1,0,0:0:0:0:
36,192,511758,1,0,0:0:0:0:
109,192,511758,1,0,0:0:0:0:
182,192,511851,1,0,0:0:0:0:
475,192,511945,1,0,0:0:0:0:
329,192,511945,1,0,0:0:0:0:
36,192,512039,1,0,0:0:0:0:
109,192,512039,1,0,0:0:0:0:
402,192,512133,1,0,0:0:0:0:
475,192,512133,1,0,0:0:0:0:
182,192,512133,1,0,0:0:0:0:
329,192,512133,1,0,0:0:0:0:
36,192,512226,1,0,0:0:0:0:
109,192,512226,1,0,0:0:0:0:
402,192,512320,1,0,0:0:0:0:
475,192,512320,1,0,0:0:0:0:
182,192,512320,1,0,0:0:0:0:
329,192,512320,1,0,0:0:0:0:
36,192,512414,1,0,0:0:0:0:
109,192,512414,1,0,0:0:0:0:
475,192,512508,1,0,0:0:0:0:
402,192,512508,1,0,0:0:0:0:
329,192,512601,1,0,0:0:0:0:
182,192,512695,1,0,0:0:0:0:
256,192,512695,1,0,0:0:0:0:
36,192,512789,1,0,0:0:0:0:
109,192,512789,1,0,0:0:0:0:
475,192,512883,1,0,0:0:0:0:
402,192,512883,1,0,0:0:0:0:
329,192,512976,1,0,0:0:0:0:
256,192,512976,1,0,0:0:0:0:
36,192,513070,1,0,0:0:0:0:
475,192,513164,1,0,0:0:0:0:
402,192,513164,1,0,0:0:0:0:
256,192,513258,1,0,0:0:0:0:
329,192,513258,1,0,0:0:0:0:
36,192,513351,1,0,0:0:0:0:
475,192,513445,1,0,0:0:0:0:
402,192,513445,1,0,0:0:0:0:
256,192,513539,1,0,0:0:0:0:
329,192,513539,1,0,0:0:0:0:
475,192,513633,1,0,0:0:0:0:
402,192,513633,1,0,0:0:0:0:
182,192,513633,1,0,0:0:0:0:
36,192,513633,1,0,0:0:0:0:
256,192,513726,1,0,0:0:0:0:
329,192,513726,1,0,0:0:0:0:
402,192,513820,1,0,0:0:0:0:
475,192,513820,1,0,0:0:0:0:
182,192,513820,1,0,0:0:0:0:
36,192,513820,1,0,0:0:0:0:
256,192,513914,1,0,0:0:0:0:
329,192,513914,1,0,0:0:0:0:
402,192,514008,1,0,0:0:0:0:
475,192,514008,1,0,0:0:0:0:
182,192,514008,1,0,0:0:0:0:
36,192,514008,1,0,0:0:0:0:
329,192,514101,1,0,0:0:0:0:
256,192,514101,1,0,0:0:0:0:
36,192,514195,1,0,0:0:0:0:
402,192,514195,1,0,0:0:0:0:
475,192,514195,1,0,0:0:0:0:
182,192,514289,1,0,0:0:0:0:
109,192,514289,1,0,0:0:0:0:
329,192,514383,1,0,0:0:0:0:
256,192,514383,1,0,0:0:0:0:
109,192,514476,1,0,0:0:0:0:
182,192,514476,1,0,0:0:0:0:
402,192,514570,1,0,0:0:0:0:
329,192,514570,1,0,0:0:0:0:
182,192,514664,1,0,0:0:0:0:
256,192,514664,1,0,0:0:0:0:
475,192,514758,1,0,0:0:0:0:
402,192,514758,1,0,0:0:0:0:
36,192,514851,1,0,0:0:0:0:
109,192,514851,1,0,0:0:0:0:
329,192,514945,1,0,0:0:0:0:
402,192,514945,1,0,0:0:0:0:
182,192,515039,1,0,0:0:0:0:
256,192,515039,1,0,0:0:0:0:
402,192,515133,1,0,0:0:0:0:
475,192,515133,1,0,0:0:0:0:
109,192,515133,1,0,0:0:0:0:
36,192,515133,1,0,0:0:0:0:
256,192,515226,1,0,0:0:0:0:
182,192,515226,1,0,0:0:0:0:
402,192,515320,1,0,0:0:0:0:
329,192,515320,1,0,0:0:0:0:
109,192,515414,1,0,0:0:0:0:
182,192,515414,1,0,0:0:0:0:
402,192,515508,1,0,0:0:0:0:
329,192,515508,1,0,0:0:0:0:
36,192,515601,1,0,0:0:0:0:
109,192,515601,1,0,0:0:0:0:
256,192,515695,1,0,0:0:0:0:
182,192,515695,1,0,0:0:0:0:
402,192,515789,1,0,0:0:0:0:
329,192,515789,1,0,0:0:0:0:
36,192,515883,1,0,0:0:0:0:
109,192,515883,1,0,0:0:0:0:
182,192,515883,1,0,0:0:0:0:
475,192,515976,1,0,0:0:0:0:
402,192,515976,1,0,0:0:0:0:
182,192,516070,1,0,0:0:0:0:
329,192,516070,1,0,0:0:0:0:
36,192,516164,1,0,0:0:0:0:
109,192,516164,1,0,0:0:0:0:
475,192,516258,1,0,0:0:0:0:
329,192,516258,1,0,0:0:0:0:
109,192,516351,1,0,0:0:0:0:
182,192,516351,1,0,0:0:0:0:
475,192,516445,1,0,0:0:0:0:
329,192,516445,1,0,0:0:0:0:
182,192,516539,1,0,0:0:0:0:
109,192,516539,1,0,0:0:0:0:
36,192,516633,1,0,0:0:0:0:
256,192,516633,1,0,0:0:0:0:
329,192,516633,1,0,0:0:0:0:
475,192,516633,1,0,0:0:0:0:
109,192,516726,1,0,0:0:0:0:
182,192,516726,1,0,0:0:0:0:
256,192,516820,1,0,0:0:0:0:
475,192,516914,1,0,0:0:0:0:
329,192,516914,1,0,0:0:0:0:
109,192,517008,1,0,0:0:0:0:
182,192,517008,1,0,0:0:0:0:
256,192,517101,1,0,0:0:0:0:
475,192,517195,1,0,0:0:0:0:
329,192,517195,1,0,0:0:0:0:
109,192,517289,1,0,0:0:0:0:
182,192,517289,1,0,0:0:0:0:
402,192,517383,1,0,0:0:0:0:
329,192,517383,1,0,0:0:0:0:
182,192,517476,1,0,0:0:0:0:
256,192,517476,1,0,0:0:0:0:
109,192,517570,1,0,0:0:0:0:
402,192,517664,1,0,0:0:0:0:
329,192,517664,1,0,0:0:0:0:
182,192,517758,1,0,0:0:0:0:
256,192,517758,1,0,0:0:0:0:
109,192,517851,1,0,0:0:0:0:
475,192,517945,1,0,0:0:0:0:
402,192,517945,1,0,0:0:0:0:
256,192,518039,1,0,0:0:0:0:
182,192,518039,1,0,0:0:0:0:
36,192,518133,1,0,0:0:0:0:
475,192,518133,1,0,0:0:0:0:
329,192,518133,1,0,0:0:0:0:
109,192,518133,1,0,0:0:0:0:
182,192,518226,1,0,0:0:0:0:
256,192,518226,1,0,0:0:0:0:
329,192,518320,1,0,0:0:0:0:
475,192,518320,1,0,0:0:0:0:
109,192,518320,1,0,0:0:0:0:
36,192,518320,1,0,0:0:0:0:
256,192,518414,1,0,0:0:0:0:
182,192,518414,1,0,0:0:0:0:
402,192,518508,1,0,0:0:0:0:
329,192,518508,1,0,0:0:0:0:
109,192,518601,1,0,0:0:0:0:
182,192,518601,1,0,0:0:0:0:
475,192,518695,1,0,0:0:0:0:
402,192,518695,1,0,0:0:0:0:
36,192,518789,1,0,0:0:0:0:
182,192,518789,1,0,0:0:0:0:
256,192,518883,1,0,0:0:0:0:
109,192,518883,1,0,0:0:0:0:
329,192,518976,1,0,0:0:0:0:
182,192,518976,1,0,0:0:0:0:
402,192,519070,1,0,0:0:0:0:
256,192,519164,1,0,0:0:0:0:
109,192,519164,1,0,0:0:0:0:
329,192,519258,1,0,0:0:0:0:
182,192,519258,1,0,0:0:0:0:
402,192,519351,1,0,0:0:0:0:
109,192,519445,1,0,0:0:0:0:
256,192,519445,1,0,0:0:0:0:
329,192,519539,1,0,0:0:0:0:
475,192,519539,1,0,0:0:0:0:
36,192,519633,1,0,0:0:0:0:
256,192,519633,1,0,0:0:0:0:
182,192,519633,1,0,0:0:0:0:
109,192,519633,1,0,0:0:0:0:
475,192,519726,1,0,0:0:0:0:
402,192,519726,1,0,0:0:0:0:
36,192,519820,1,0,0:0:0:0:
256,192,519820,1,0,0:0:0:0:
182,192,519820,1,0,0:0:0:0:
109,192,519820,1,0,0:0:0:0:
475,192,519914,1,0,0:0:0:0:
402,192,519914,1,0,0:0:0:0:
36,192,520008,1,0,0:0:0:0:
256,192,520008,1,0,0:0:0:0:
182,192,520008,1,0,0:0:0:0:
109,192,520008,1,0,0:0:0:0:
475,192,520101,1,0,0:0:0:0:
402,192,520101,1,0,0:0:0:0:
36,192,520195,1,0,0:0:0:0:
109,192,520195,1,0,0:0:0:0:
256,192,520195,1,0,0:0:0:0:
475,192,520289,1,0,0:0:0:0:
329,192,520289,1,0,0:0:0:0:
36,192,520383,1,0,0:0:0:0:
182,192,520383,1,0,0:0:0:0:
109,192,520476,1,0,0:0:0:0:
256,192,520476,1,0,0:0:0:0:
329,192,520570,1,0,0:0:0:0:
475,192,520570,1,0,0:0:0:0:
182,192,520664,1,0,0:0:0:0:
475,192,520758,1,0,0:0:0:0:
256,192,520758,1,0,0:0:0:0:
329,192,520851,1,0,0:0:0:0:
402,192,520851,1,0,0:0:0:0:
109,192,520945,1,0,0:0:0:0:
182,192,520945,1,0,0:0:0:0:
402,192,521039,1,0,0:0:0:0:
329,192,521039,1,0,0:0:0:0:
36,192,521133,1,0,0:0:0:0:
109,192,521133,1,0,0:0:0:0:
182,192,521133,1,0,0:0:0:0:
475,192,521133,1,0,0:0:0:0:
329,192,521226,1,0,0:0:0:0:
402,192,521226,1,0,0:0:0:0:
182,192,521320,1,0,0:0:0:0:
256,192,521320,1,0,0:0:0:0:
402,192,521414,1,0,0:0:0:0:
329,192,521414,1,0,0:0:0:0:
109,192,521508,1,0,0:0:0:0:
182,192,521508,1,0,0:0:0:0:
329,192,521601,1,0,0:0:0:0:
256,192,521601,1,0,0:0:0:0:
109,192,521695,1,0,0:0:0:0:
182,192,521695,1,0,0:0:0:0:
402,192,521789,1,0,0:0:0:0:
329,192,521789,1,0,0:0:0:0:
475,192,521883,1,0,0:0:0:0:
36,192,521883,1,0,0:0:0:0:
182,192,521883,1,0,0:0:0:0:
109,192,521883,1,0,0:0:0:0:
329,192,521976,1,0,0:0:0:0:
402,192,521976,1,0,0:0:0:0:
182,192,522070,1,0,0:0:0:0:
256,192,522070,1,0,0:0:0:0:
402,192,522164,1,0,0:0:0:0:
329,192,522164,1,0,0:0:0:0:
109,192,522258,1,0,0:0:0:0:
36,192,522258,1,0,0:0:0:0:
182,192,522258,1,0,0:0:0:0:
402,192,522351,1,0,0:0:0:0:
256,192,522351,1,0,0:0:0:0:
36,192,522445,1,0,0:0:0:0:
182,192,522445,1,0,0:0:0:0:
402,192,522539,1,0,0:0:0:0:
256,192,522539,1,0,0:0:0:0:
329,192,522633,1,0,0:0:0:0:
475,192,522633,1,0,0:0:0:0:
36,192,522633,1,0,0:0:0:0:
109,192,522633,1,0,0:0:0:0:
402,192,522726,1,0,0:0:0:0:
475,192,522820,1,0,0:0:0:0:
36,192,522820,1,0,0:0:0:0:
329,192,522820,1,0,0:0:0:0:
256,192,522914,1,0,0:0:0:0:
182,192,522914,1,0,0:0:0:0:
402,192,523008,1,0,0:0:0:0:
36,192,523008,1,0,0:0:0:0:
109,192,523008,1,0,0:0:0:0:
256,192,523101,1,0,0:0:0:0:
329,192,523195,1,0,0:0:0:0:
36,192,523195,1,0,0:0:0:0:
402,192,523195,1,0,0:0:0:0:
182,192,523289,1,0,0:0:0:0:
475,192,523383,1,0,0:0:0:0:
402,192,523383,1,0,0:0:0:0:
256,192,523383,1,0,0:0:0:0:
329,192,523476,1,0,0:0:0:0:
475,192,523570,1,0,0:0:0:0:
109,192,523570,1,0,0:0:0:0:
256,192,523570,1,0,0:0:0:0:
36,192,523664,1,0,0:0:0:0:
182,192,523664,1,0,0:0:0:0:
475,192,523758,1,0,0:0:0:0:
256,192,523758,1,0,0:0:0:0:
402,192,523758,1,0,0:0:0:0:
36,192,523851,1,0,0:0:0:0:
475,192,523945,1,0,0:0:0:0:
329,192,523945,1,0,0:0:0:0:
109,192,523945,1,0,0:0:0:0:
182,192,524039,1,0,0:0:0:0:
36,192,524133,1,0,0:0:0:0:
475,192,524133,1,0,0:0:0:0:
329,192,524133,1,0,0:0:0:0:
256,192,524226,1,0,0:0:0:0:
475,192,524320,1,0,0:0:0:0:
109,192,524320,1,0,0:0:0:0:
182,192,524320,1,0,0:0:0:0:
329,192,524414,1,0,0:0:0:0:
402,192,524414,1,0,0:0:0:0:
36,192,524508,1,0,0:0:0:0:
475,192,524508,1,0,0:0:0:0:
109,192,524508,1,0,0:0:0:0:
182,192,524601,1,0,0:0:0:0:
402,192,524695,1,0,0:0:0:0:
475,192,524695,1,0,0:0:0:0:
256,192,524695,1,0,0:0:0:0:
182,192,524789,1,0,0:0:0:0:
475,192,524883,1,0,0:0:0:0:
329,192,524883,1,0,0:0:0:0:
109,192,524883,1,0,0:0:0:0:
256,192,524976,1,0,0:0:0:0:
475,192,525070,1,0,0:0:0:0:
36,192,525070,1,0,0:0:0:0:
182,192,525070,1,0,0:0:0:0:
329,192,525164,1,0,0:0:0:0:
109,192,525164,1,0,0:0:0:0:
256,192,525258,1,0,0:0:0:0:
402,192,525258,1,0,0:0:0:0:
182,192,525258,1,0,0:0:0:0:
36,192,525351,1,0,0:0:0:0:
475,192,525445,1,0,0:0:0:0:
329,192,525445,1,0,0:0:0:0:
109,192,525445,1,0,0:0:0:0:
256,192,525539,1,0,0:0:0:0:
402,192,525633,1,0,0:0:0:0:
36,192,525633,1,0,0:0:0:0:
182,192,525633,1,0,0:0:0:0:
329,192,525726,1,0,0:0:0:0:
36,192,525820,1,0,0:0:0:0:
109,192,525820,1,0,0:0:0:0:
256,192,525820,1,0,0:0:0:0:
475,192,525914,1,0,0:0:0:0:
182,192,525914,1,0,0:0:0:0:
256,192,526008,1,0,0:0:0:0:
36,192,526008,1,0,0:0:0:0:
329,192,526008,1,0,0:0:0:0:
182,192,526101,1,0,0:0:0:0:
256,192,526195,1,0,0:0:0:0:
475,192,526195,1,0,0:0:0:0:
109,192,526195,1,0,0:0:0:0:
402,192,526289,1,0,0:0:0:0:
36,192,526383,1,0,0:0:0:0:
109,192,526383,1,0,0:0:0:0:
329,192,526383,1,0,0:0:0:0:
475,192,526476,1,0,0:0:0:0:
182,192,526476,1,0,0:0:0:0:
36,192,526570,1,0,0:0:0:0:
402,192,526570,1,0,0:0:0:0:
256,192,526570,1,0,0:0:0:0:
182,192,526664,1,0,0:0:0:0:
329,192,526664,1,0,0:0:0:0:
475,192,526758,1,0,0:0:0:0:
109,192,526758,1,0,0:0:0:0:
256,192,526758,1,0,0:0:0:0:
182,192,526851,1,0,0:0:0:0:
402,192,526851,1,0,0:0:0:0:
36,192,526945,1,0,0:0:0:0:
256,192,526945,1,0,0:0:0:0:
329,192,526945,1,0,0:0:0:0:
475,192,527039,1,0,0:0:0:0:
109,192,527039,1,0,0:0:0:0:
329,192,527133,1,0,0:0:0:0:
182,192,527133,1,0,0:0:0:0:
402,192,527133,1,0,0:0:0:0:
36,192,527226,1,0,0:0:0:0:
256,192,527226,1,0,0:0:0:0:
329,192,527320,1,0,0:0:0:0:
109,192,527320,1,0,0:0:0:0:
402,192,527414,1,0,0:0:0:0:
475,192,527414,1,0,0:0:0:0:
182,192,527508,1,0,0:0:0:0:
256,192,527508,1,0,0:0:0:0:
36,192,527508,1,0,0:0:0:0:
329,192,527601,1,0,0:0:0:0:
109,192,527601,1,0,0:0:0:0:
475,192,527695,1,0,0:0:0:0:
402,192,527695,1,0,0:0:0:0:
36,192,527789,1,0,0:0:0:0:
182,192,527789,1,0,0:0:0:0:
402,192,527883,1,0,0:0:0:0:
475,192,527883,1,0,0:0:0:0:
256,192,527883,1,0,0:0:0:0:
182,192,527976,1,0,0:0:0:0:
329,192,527976,1,0,0:0:0:0:
109,192,528070,1,0,0:0:0:0:
256,192,528070,1,0,0:0:0:0:
402,192,528164,1,0,0:0:0:0:
475,192,528164,1,0,0:0:0:0:
36,192,528258,1,0,0:0:0:0:
182,192,528258,1,0,0:0:0:0:
329,192,528258,1,0,0:0:0:0:
109,192,528351,1,0,0:0:0:0:
256,192,528351,1,0,0:0:0:0:
182,192,528445,1,0,0:0:0:0:
475,192,528445,1,0,0:0:0:0:
402,192,528445,1,0,0:0:0:0:
329,192,528539,1,0,0:0:0:0:
256,192,528539,1,0,0:0:0:0:
109,192,528633,1,0,0:0:0:0:
36,192,528633,1,0,0:0:0:0:
402,192,528633,1,0,0:0:0:0:
475,192,528633,1,0,0:0:0:0:
182,192,528726,1,0,0:0:0:0:
36,192,528820,1,0,0:0:0:0:
402,192,528820,1,0,0:0:0:0:
256,192,528820,1,0,0:0:0:0:
475,192,528914,1,0,0:0:0:0:
109,192,528914,1,0,0:0:0:0:
256,192,529008,1,0,0:0:0:0:
182,192,529008,1,0,0:0:0:0:
402,192,529008,1,0,0:0:0:0:
329,192,529101,1,0,0:0:0:0:
36,192,529195,1,0,0:0:0:0:
109,192,529195,1,0,0:0:0:0:
402,192,529195,1,0,0:0:0:0:
256,192,529289,1,0,0:0:0:0:
402,192,529383,1,0,0:0:0:0:
475,192,529383,1,0,0:0:0:0:
182,192,529383,1,0,0:0:0:0:
329,192,529476,1,0,0:0:0:0:
109,192,529570,1,0,0:0:0:0:
256,192,529570,1,0,0:0:0:0:
475,192,529664,1,0,0:0:0:0:
182,192,529664,1,0,0:0:0:0:
36,192,529758,1,0,0:0:0:0:
402,192,529758,1,0,0:0:0:0:
256,192,529758,1,0,0:0:0:0:
109,192,529851,1,0,0:0:0:0:
36,192,529945,1,0,0:0:0:0:
402,192,529945,1,0,0:0:0:0:
182,192,529945,1,0,0:0:0:0:
329,192,530039,1,0,0:0:0:0:
256,192,530039,1,0,0:0:0:0:
36,192,530133,1,0,0:0:0:0:
182,192,530133,1,0,0:0:0:0:
475,192,530133,1,0,0:0:0:0:
329,192,530226,1,0,0:0:0:0:
36,192,530320,1,0,0:0:0:0:
402,192,530320,1,0,0:0:0:0:
256,192,530320,1,0,0:0:0:0:
182,192,530414,1,0,0:0:0:0:
329,192,530414,1,0,0:0:0:0:
475,192,530508,1,0,0:0:0:0:
109,192,530508,1,0,0:0:0:0:
256,192,530508,1,0,0:0:0:0:
402,192,530601,1,0,0:0:0:0:
475,192,530695,1,0,0:0:0:0:
109,192,530695,1,0,0:0:0:0:
329,192,530695,1,0,0:0:0:0:
182,192,530789,1,0,0:0:0:0:
475,192,530883,1,0,0:0:0:0:
329,192,530883,1,0,0:0:0:0:
36,192,530883,1,0,0:0:0:0:
402,192,530976,1,0,0:0:0:0:
36,192,531070,1,0,0:0:0:0:
256,192,531070,1,0,0:0:0:0:
182,192,531070,1,0,0:0:0:0:
329,192,531164,1,0,0:0:0:0:
109,192,531164,1,0,0:0:0:0:
402,192,531258,1,0,0:0:0:0:
182,192,531258,1,0,0:0:0:0:
475,192,531258,1,0,0:0:0:0:
329,192,531351,1,0,0:0:0:0:
475,192,531445,1,0,0:0:0:0:
36,192,531445,1,0,0:0:0:0:
182,192,531445,1,0,0:0:0:0:
256,192,531539,1,0,0:0:0:0:
329,192,531633,1,0,0:0:0:0:
182,192,531633,1,0,0:0:0:0:
475,192,531633,1,0,0:0:0:0:
256,192,531726,1,0,0:0:0:0:
109,192,531726,1,0,0:0:0:0:
182,192,531820,1,0,0:0:0:0:
475,192,531820,1,0,0:0:0:0:
36,192,531820,1,0,0:0:0:0:
402,192,531914,1,0,0:0:0:0:
329,192,531914,1,0,0:0:0:0:
36,192,532008,1,0,0:0:0:0:
109,192,532008,1,0,0:0:0:0:
256,192,532008,1,0,0:0:0:0:
329,192,532101,1,0,0:0:0:0:
182,192,532101,1,0,0:0:0:0:
402,192,532195,1,0,0:0:0:0:
256,192,532195,1,0,0:0:0:0:
329,192,532289,1,0,0:0:0:0:
109,192,532289,1,0,0:0:0:0:
475,192,532383,1,0,0:0:0:0:
256,192,532383,1,0,0:0:0:0:
36,192,532383,1,0,0:0:0:0:
329,192,532476,1,0,0:0:0:0:
402,192,532476,1,0,0:0:0:0:
182,192,532570,1,0,0:0:0:0:
256,192,532570,1,0,0:0:0:0:
36,192,532664,1,0,0:0:0:0:
109,192,532664,1,0,0:0:0:0:
475,192,532758,1,0,0:0:0:0:
402,192,532758,1,0,0:0:0:0:
329,192,532758,1,0,0:0:0:0:
182,192,532851,1,0,0:0:0:0:
256,192,532851,1,0,0:0:0:0:
36,192,532945,1,0,0:0:0:0:
109,192,532945,1,0,0:0:0:0:
256,192,533039,1,0,0:0:0:0:
329,192,533039,1,0,0:0:0:0:
475,192,533133,1,0,0:0:0:0:
402,192,533133,1,0,0:0:0:0:
36,192,533133,1,0,0:0:0:0:
109,192,533179,1,0,0:0:0:0:
182,192,533226,1,0,0:0:0:0:
256,192,533273,1,0,0:0:0:0:
329,192,533320,1,0,0:0:0:0:
182,192,533414,1,0,0:0:0:0:
329,192,533508,5,0,0:0:0:0:
402,192,533508,1,0,0:0:0:0:
109,192,533601,1,0,0:0:0:0:
182,192,533601,1,0,0:0:0:0:
402,192,533695,1,0,0:0:0:0:
329,192,533695,1,0,0:0:0:0:
182,192,533789,1,0,0:0:0:0:
109,192,533789,1,0,0:0:0:0:
475,192,533883,1,0,0:0:0:0:
329,192,533883,1,0,0:0:0:0:
36,192,533976,1,0,0:0:0:0:
182,192,533976,1,0,0:0:0:0:
475,192,534070,1,0,0:0:0:0:
329,192,534070,1,0,0:0:0:0:
36,192,534164,1,0,0:0:0:0:
182,192,534164,1,0,0:0:0:0:
475,192,534258,1,0,0:0:0:0:
402,192,534258,1,0,0:0:0:0:
329,192,534258,1,0,0:0:0:0:
36,192,534351,1,0,0:0:0:0:
109,192,534351,1,0,0:0:0:0:
182,192,534351,1,0,0:0:0:0:
329,192,534445,1,0,0:0:0:0:
475,192,534445,1,0,0:0:0:0:
402,192,534445,1,0,0:0:0:0:
36,192,534539,1,0,0:0:0:0:
109,192,534539,1,0,0:0:0:0:
182,192,534539,1,0,0:0:0:0:
256,192,534633,5,0,0:0:0:0:
402,192,534633,1,0,0:0:0:0:
475,192,534633,1,0,0:0:0:0:
329,192,534633,1,0,0:0:0:0:
182,192,534726,1,0,0:0:0:0:
402,192,534820,1,0,0:0:0:0:
475,192,534820,1,0,0:0:0:0:
256,192,534820,1,0,0:0:0:0:
329,192,534820,1,0,0:0:0:0:
182,192,534914,1,0,0:0:0:0:
109,192,535008,1,0,0:0:0:0:
36,192,535101,1,0,0:0:0:0:
402,192,535195,1,0,0:0:0:0:
256,192,535195,1,0,0:0:0:0:
182,192,535289,1,0,0:0:0:0:
475,192,535383,1,0,0:0:0:0:
109,192,535383,1,0,0:0:0:0:
256,192,535476,1,0,0:0:0:0:
329,192,535570,1,0,0:0:0:0:
475,192,535664,1,0,0:0:0:0:
36,192,535664,1,0,0:0:0:0:
182,192,535758,1,0,0:0:0:0:
329,192,535851,1,0,0:0:0:0:
36,192,535945,1,0,0:0:0:0:
109,192,535945,1,0,0:0:0:0:
402,192,536039,1,0,0:0:0:0:
109,192,536133,1,0,0:0:0:0:
329,192,536133,1,0,0:0:0:0:
256,192,536133,1,0,0:0:0:0:
36,192,536133,1,0,0:0:0:0:
475,192,536226,1,0,0:0:0:0:
329,192,536320,1,0,0:0:0:0:
402,192,536414,1,0,0:0:0:0:
109,192,536508,1,0,0:0:0:0:
36,192,536508,1,0,0:0:0:0:
329,192,536508,1,0,0:0:0:0:
256,192,536508,1,0,0:0:0:0:
402,192,536601,1,0,0:0:0:0:
182,192,536695,1,0,0:0:0:0:
475,192,536789,1,0,0:0:0:0:
109,192,536883,1,0,0:0:0:0:
36,192,536883,1,0,0:0:0:0:
329,192,536883,1,0,0:0:0:0:
256,192,536883,1,0,0:0:0:0:
402,192,536976,1,0,0:0:0:0:
109,192,537070,1,0,0:0:0:0:
475,192,537164,1,0,0:0:0:0:
182,192,537258,1,0,0:0:0:0:
256,192,537258,1,0,0:0:0:0:
36,192,537258,1,0,0:0:0:0:
329,192,537258,1,0,0:0:0:0:
402,192,537351,1,0,0:0:0:0:
36,192,537445,1,0,0:0:0:0:
182,192,537539,1,0,0:0:0:0:
329,192,537633,1,0,0:0:0:0:
36,192,537633,1,0,0:0:0:0:
256,192,537633,1,0,0:0:0:0:
475,192,537633,1,0,0:0:0:0:
182,192,537726,1,0,0:0:0:0:
109,192,537726,1,0,0:0:0:0:
402,192,537820,1,0,0:0:0:0:
475,192,537820,1,0,0:0:0:0:
329,192,537914,1,0,0:0:0:0:
475,192,538008,1,0,0:0:0:0:
256,192,538008,1,0,0:0:0:0:
36,192,538008,1,0,0:0:0:0:
182,192,538101,1,0,0:0:0:0:
109,192,538101,1,0,0:0:0:0:
402,192,538195,1,0,0:0:0:0:
475,192,538195,1,0,0:0:0:0:
329,192,538289,1,0,0:0:0:0:
36,192,538383,1,0,0:0:0:0:
109,192,538383,1,0,0:0:0:0:
256,192,538383,1,0,0:0:0:0:
402,192,538476,1,0,0:0:0:0:
475,192,538476,1,0,0:0:0:0:
109,192,538570,1,0,0:0:0:0:
182,192,538570,1,0,0:0:0:0:
329,192,538664,1,0,0:0:0:0:
182,192,538758,1,0,0:0:0:0:
256,192,538758,1,0,0:0:0:0:
36,192,538758,1,0,0:0:0:0:
475,192,538851,1,0,0:0:0:0:
402,192,538851,1,0,0:0:0:0:
109,192,538945,1,0,0:0:0:0:
182,192,538945,1,0,0:0:0:0:
329,192,539039,1,0,0:0:0:0:
475,192,539133,1,0,0:0:0:0:
36,192,539133,1,0,0:0:0:0:
256,192,539133,1,0,0:0:0:0:
329,192,539226,1,0,0:0:0:0:
109,192,539226,1,0,0:0:0:0:
402,192,539320,1,0,0:0:0:0:
182,192,539320,1,0,0:0:0:0:
329,192,539414,1,0,0:0:0:0:
256,192,539508,1,0,0:0:0:0:
36,192,539508,1,0,0:0:0:0:
475,192,539508,1,0,0:0:0:0:
329,192,539601,1,0,0:0:0:0:
109,192,539601,1,0,0:0:0:0:
402,192,539695,1,0,0:0:0:0:
182,192,539695,1,0,0:0:0:0:
329,192,539789,1,0,0:0:0:0:
475,192,539883,1,0,0:0:0:0:
109,192,539883,1,0,0:0:0:0:
256,192,539883,1,0,0:0:0:0:
329,192,539976,1,0,0:0:0:0:
402,192,539976,1,0,0:0:0:0:
36,192,540070,1,0,0:0:0:0:
182,192,540070,1,0,0:0:0:0:
256,192,540164,1,0,0:0:0:0:
182,192,540258,1,0,0:0:0:0:
109,192,540258,1,0,0:0:0:0:
475,192,540258,1,0,0:0:0:0:
402,192,540351,1,0,0:0:0:0:
329,192,540351,1,0,0:0:0:0:
36,192,540445,1,0,0:0:0:0:
182,192,540445,1,0,0:0:0:0:
402,192,540539,1,0,0:0:0:0:
256,192,540539,1,0,0:0:0:0:
475,192,540633,1,0,0:0:0:0:
329,192,540633,1,0,0:0:0:0:
256,192,540679,1,0,0:0:0:0:
182,192,540726,1,0,0:0:0:0:
109,192,540773,1,0,0:0:0:0:
36,192,540820,1,0,0:0:0:0:
475,192,540914,1,0,0:0:0:0:
329,192,540914,1,0,0:0:0:0:
36,192,541008,1,0,0:0:0:0:
182,192,541008,1,0,0:0:0:0:
402,192,541101,1,0,0:0:0:0:
329,192,541101,1,0,0:0:0:0:
109,192,541195,1,0,0:0:0:0:
182,192,541195,1,0,0:0:0:0:
475,192,541289,1,0,0:0:0:0:
329,192,541289,1,0,0:0:0:0:
36,192,541383,1,0,0:0:0:0:
109,192,541383,1,0,0:0:0:0:
182,192,541383,1,0,0:0:0:0:
475,192,541476,1,0,0:0:0:0:
402,192,541476,1,0,0:0:0:0:
329,192,541476,1,0,0:0:0:0:
36,192,541570,1,0,0:0:0:0:
109,192,541570,1,0,0:0:0:0:
182,192,541570,1,0,0:0:0:0:
475,192,541664,1,0,0:0:0:0:
402,192,541664,1,0,0:0:0:0:
329,192,541664,1,0,0:0:0:0:
36,192,541758,1,0,0:0:0:0:
109,192,541758,1,0,0:0:0:0:
182,192,541758,1,0,0:0:0:0:
402,192,541851,1,0,0:0:0:0:
329,192,541851,1,0,0:0:0:0:
256,192,541851,1,0,0:0:0:0:
36,192,541945,1,0,0:0:0:0:
109,192,541945,1,0,0:0:0:0:
475,192,541945,1,0,0:0:0:0:
329,192,542039,1,0,0:0:0:0:
256,192,542039,1,0,0:0:0:0:
182,192,542039,1,0,0:0:0:0:
475,192,542133,1,0,0:0:0:0:
402,192,542133,1,0,0:0:0:0:
36,192,542133,1,0,0:0:0:0:
109,192,542133,1,0,0:0:0:0:
