osu file format v14

[General]
AudioFilename: LNDan_8.mp3
AudioLeadIn: 0
PreviewTime: 3523
Countdown: 0
SampleSet: Soft
StackLeniency: 0.7
Mode: 3
LetterboxInBreaks: 0
SpecialStyle: 0
WidescreenStoryboard: 1

[Editor]
DistanceSpacing: 1.3
BeatDivisor: 4
GridSize: 4
TimelineZoom: 1.7

[Metadata]
Title:LN Dan Phase II
TitleUnicode:LN Dan Phase II
Artist:osu!mania 7K Dan Course
ArtistUnicode:osu!mania 7K Dan Course
Creator:Jinjin
Version:8th Dan
Source:
Tags:sakuzyo imprinting kenz penoreri sailing force ancul moe shop heart todestrieb tag romancing layer
BeatmapID:1877529
BeatmapSetID:895138

[Difficulty]
HPDrainRate:7
CircleSize:7
OverallDifficulty:5
ApproachRate:5
SliderMultiplier:1.4
SliderTickRate:1

[Events]
//Background and Video events
0,0,"LNDan_8.png",0,0
//Break Periods
2,114466,125515
2,239428,250639
2,353372,363814
//Storyboard Layer 0 (Background)
//Storyboard Layer 1 (Fail)
//Storyboard Layer 2 (Pass)
//Storyboard Layer 3 (Foreground)
//Storyboard Sound Samples

[TimingPoints]
2838,342.857142857143,4,2,0,0,1,0
126715,377.358490566038,4,2,0,0,1,0
126715,-90.9090909090909,4,2,0,0,0,0
218790,458.015267175573,4,2,0,0,1,0
218790,-75.187969924812,4,2,0,0,0,0
219248,441.176470588235,4,2,0,0,1,0
219248,-78.125,4,2,0,0,0,0
219689,491.803278688525,4,2,0,0,1,0
219689,-69.9300699300699,4,2,0,0,0,0
220180,545.454545454546,4,2,0,0,1,0
220180,-62.8930817610063,4,2,0,0,0,0
220725,625,4,2,0,0,1,0
220725,-54.9450549450549,4,2,0,0,0,0
221350,821.917808219178,4,2,0,0,1,0
221350,-41.8410041841004,4,2,0,0,0,0
222377,392.156862745098,4,2,0,0,1,0
222377,-87.719298245614,4,2,0,0,0,0
223945,377.358490566038,4,2,0,0,1,0
223945,-90.9090909090909,4,2,0,0,0,0
251839,444.444444444444,4,2,0,0,1,0
251839,-77.5193798449612,4,2,0,0,0,0
365014,400,4,2,0,0,1,0
365014,-86.2068965517241,4,2,0,0,0,0

[HitObjects]
36,192,2837,128,0,2923:0:0:0:0:
182,192,2837,128,0,2923:0:0:0:0:
256,192,2837,128,0,2923:0:0:0:0:
475,192,2837,128,0,2923:0:0:0:0:
329,192,3009,128,0,3095:0:0:0:0:
109,192,3009,128,0,3095:0:0:0:0:
36,192,3180,128,0,3266:0:0:0:0:
256,192,3180,128,0,3266:0:0:0:0:
475,192,3180,128,0,3266:0:0:0:0:
182,192,3352,128,0,3437:0:0:0:0:
402,192,3352,128,0,3437:0:0:0:0:
256,192,3523,128,0,3609:0:0:0:0:
36,192,3523,128,0,3609:0:0:0:0:
475,192,3523,128,0,3609:0:0:0:0:
109,192,3695,128,0,3780:0:0:0:0:
402,192,3695,128,0,3780:0:0:0:0:
256,192,3866,128,0,4209:0:0:0:0:
475,192,3866,128,0,3952:0:0:0:0:
36,192,3866,128,0,3952:0:0:0:0:
329,192,3952,128,0,4037:0:0:0:0:
109,192,3952,128,0,4037:0:0:0:0:
475,192,4037,128,0,4123:0:0:0:0:
182,192,4037,128,0,4123:0:0:0:0:
329,192,4123,128,0,4209:0:0:0:0:
109,192,4123,128,0,4209:0:0:0:0:
36,192,4209,128,0,4252:0:0:0:0:
475,192,4209,128,0,4252:0:0:0:0:
182,192,4209,128,0,4252:0:0:0:0:
402,192,4209,128,0,4252:0:0:0:0:
109,192,4380,128,0,4423:0:0:0:0:
256,192,4380,128,0,4423:0:0:0:0:
182,192,4552,128,0,4595:0:0:0:0:
475,192,4552,128,0,4595:0:0:0:0:
36,192,4552,128,0,4595:0:0:0:0:
109,192,4723,128,0,4766:0:0:0:0:
329,192,4723,128,0,4766:0:0:0:0:
256,192,4895,128,0,4938:0:0:0:0:
475,192,4895,128,0,4938:0:0:0:0:
36,192,4895,128,0,4938:0:0:0:0:
182,192,5066,128,0,5109:0:0:0:0:
402,192,5066,128,0,5109:0:0:0:0:
36,192,5238,128,0,5323:0:0:0:0:
475,192,5238,128,0,5323:0:0:0:0:
182,192,5238,128,0,5580:0:0:0:0:
402,192,5238,128,0,5323:0:0:0:0:
256,192,5238,128,0,5323:0:0:0:0:
109,192,5323,128,0,5409:0:0:0:0:
329,192,5323,128,0,5409:0:0:0:0:
475,192,5409,128,0,5495:0:0:0:0:
402,192,5409,128,0,5495:0:0:0:0:
329,192,5495,128,0,5580:0:0:0:0:
109,192,5495,128,0,5580:0:0:0:0:
256,192,5580,128,0,5666:0:0:0:0:
475,192,5580,128,0,5666:0:0:0:0:
36,192,5580,128,0,5666:0:0:0:0:
402,192,5580,128,0,5666:0:0:0:0:
182,192,5752,128,0,5838:0:0:0:0:
329,192,5752,128,0,5838:0:0:0:0:
182,192,5923,128,0,6266:0:0:0:0:
256,192,5923,128,0,6009:0:0:0:0:
36,192,5923,128,0,6009:0:0:0:0:
475,192,5923,128,0,6009:0:0:0:0:
329,192,6095,128,0,6180:0:0:0:0:
402,192,6095,128,0,6180:0:0:0:0:
475,192,6266,128,0,6352:0:0:0:0:
256,192,6266,128,0,6352:0:0:0:0:
109,192,6266,128,0,6352:0:0:0:0:
36,192,6266,128,0,6352:0:0:0:0:
402,192,6438,128,0,6952:0:0:0:0:
329,192,6438,128,0,6523:0:0:0:0:
182,192,6438,128,0,6523:0:0:0:0:
109,192,6609,128,0,6695:0:0:0:0:
182,192,6609,128,0,6695:0:0:0:0:
475,192,6609,128,0,6695:0:0:0:0:
256,192,6780,128,0,6866:0:0:0:0:
36,192,6780,128,0,6866:0:0:0:0:
329,192,6780,128,0,6866:0:0:0:0:
36,192,6952,128,0,7038:0:0:0:0:
182,192,6952,128,0,7038:0:0:0:0:
329,192,6952,128,0,7123:0:0:0:0:
475,192,6952,128,0,7123:0:0:0:0:
109,192,7038,128,0,7209:0:0:0:0:
402,192,7123,128,0,7209:0:0:0:0:
256,192,7123,128,0,7209:0:0:0:0:
182,192,7209,128,0,7380:0:0:0:0:
36,192,7295,128,0,7466:0:0:0:0:
329,192,7295,128,0,7466:0:0:0:0:
475,192,7295,128,0,7380:0:0:0:0:
402,192,7380,128,0,7466:0:0:0:0:
109,192,7466,128,0,7552:0:0:0:0:
256,192,7466,128,0,7552:0:0:0:0:
475,192,7552,128,0,7638:0:0:0:0:
36,192,7638,128,0,7809:0:0:0:0:
182,192,7638,128,0,7723:0:0:0:0:
402,192,7638,128,0,7980:0:0:0:0:
256,192,7723,128,0,7809:0:0:0:0:
109,192,7809,128,0,7980:0:0:0:0:
329,192,7809,128,0,7895:0:0:0:0:
182,192,7895,128,0,8066:0:0:0:0:
36,192,7980,128,0,8152:0:0:0:0:
475,192,7980,128,0,8152:0:0:0:0:
256,192,7980,128,0,8152:0:0:0:0:
329,192,8066,128,0,8238:0:0:0:0:
109,192,8152,128,0,8323:0:0:0:0:
402,192,8152,128,0,8323:0:0:0:0:
182,192,8238,128,0,8409:0:0:0:0:
36,192,8323,128,0,8495:0:0:0:0:
256,192,8323,128,0,8409:0:0:0:0:
329,192,8323,128,0,8409:0:0:0:0:
475,192,8323,128,0,8495:0:0:0:0:
182,192,8495,128,0,8666:0:0:0:0:
329,192,8495,128,0,8580:0:0:0:0:
256,192,8666,128,0,8752:0:0:0:0:
109,192,8666,128,0,8838:0:0:0:0:
402,192,8666,128,0,8752:0:0:0:0:
182,192,8838,128,0,9009:0:0:0:0:
329,192,8838,128,0,8923:0:0:0:0:
475,192,9009,128,0,9095:0:0:0:0:
36,192,9009,128,0,9180:0:0:0:0:
256,192,9009,128,0,9095:0:0:0:0:
402,192,9180,128,0,9266:0:0:0:0:
109,192,9180,128,0,9352:0:0:0:0:
256,192,9352,128,0,9695:0:0:0:0:
36,192,9352,128,0,9438:0:0:0:0:
475,192,9352,128,0,9438:0:0:0:0:
182,192,9438,128,0,9523:0:0:0:0:
402,192,9438,128,0,9523:0:0:0:0:
109,192,9523,128,0,9609:0:0:0:0:
329,192,9523,128,0,9609:0:0:0:0:
36,192,9609,128,0,9695:0:0:0:0:
402,192,9609,128,0,9695:0:0:0:0:
182,192,9695,128,0,9738:0:0:0:0:
329,192,9695,128,0,9738:0:0:0:0:
109,192,9695,128,0,9738:0:0:0:0:
475,192,9695,128,0,9866:0:0:0:0:
256,192,9866,128,0,9909:0:0:0:0:
402,192,9866,128,0,10038:0:0:0:0:
182,192,10038,128,0,10080:0:0:0:0:
36,192,10038,128,0,10080:0:0:0:0:
329,192,10038,128,0,10209:0:0:0:0:
109,192,10209,128,0,10252:0:0:0:0:
475,192,10209,128,0,10380:0:0:0:0:
182,192,10380,128,0,10423:0:0:0:0:
256,192,10380,128,0,10423:0:0:0:0:
402,192,10380,128,0,10552:0:0:0:0:
36,192,10552,128,0,10595:0:0:0:0:
329,192,10552,128,0,10723:0:0:0:0:
109,192,10723,128,0,10809:0:0:0:0:
475,192,10723,128,0,11066:0:0:0:0:
36,192,10723,128,0,10809:0:0:0:0:
256,192,10723,128,0,10809:0:0:0:0:
402,192,10723,128,0,10809:0:0:0:0:
329,192,10809,128,0,10895:0:0:0:0:
182,192,10809,128,0,10895:0:0:0:0:
36,192,10895,128,0,10980:0:0:0:0:
256,192,10895,128,0,10980:0:0:0:0:
182,192,10980,128,0,11066:0:0:0:0:
109,192,10980,128,0,11066:0:0:0:0:
36,192,11066,128,0,11152:0:0:0:0:
256,192,11066,128,0,11152:0:0:0:0:
329,192,11066,128,0,11152:0:0:0:0:
402,192,11066,128,0,11152:0:0:0:0:
329,192,11238,128,0,11752:0:0:0:0:
182,192,11238,128,0,11409:0:0:0:0:
256,192,11409,128,0,11752:0:0:0:0:
109,192,11409,128,0,11580:0:0:0:0:
475,192,11409,128,0,11495:0:0:0:0:
182,192,11580,128,0,11752:0:0:0:0:
36,192,11580,128,0,11752:0:0:0:0:
475,192,11580,128,0,11666:0:0:0:0:
109,192,11752,128,0,11923:0:0:0:0:
402,192,11752,128,0,11838:0:0:0:0:
475,192,11752,128,0,11838:0:0:0:0:
36,192,11923,128,0,12438:0:0:0:0:
329,192,11923,128,0,12095:0:0:0:0:
182,192,11923,128,0,12095:0:0:0:0:
475,192,12095,128,0,12438:0:0:0:0:
109,192,12095,128,0,12266:0:0:0:0:
402,192,12095,128,0,12266:0:0:0:0:
256,192,12266,128,0,12438:0:0:0:0:
182,192,12266,1,0,0:0:0:0:
329,192,12266,128,0,12438:0:0:0:0:
402,192,12438,128,0,12523:0:0:0:0:
109,192,12438,128,0,12695:0:0:0:0:
182,192,12438,128,0,12609:0:0:0:0:
256,192,12523,128,0,12695:0:0:0:0:
329,192,12609,128,0,12780:0:0:0:0:
402,192,12695,128,0,12866:0:0:0:0:
475,192,12780,128,0,13038:0:0:0:0:
36,192,12780,128,0,13038:0:0:0:0:
109,192,12780,128,0,12952:0:0:0:0:
182,192,12866,128,0,13038:0:0:0:0:
256,192,12952,128,0,13123:0:0:0:0:
329,192,13038,128,0,13209:0:0:0:0:
402,192,13123,128,0,13380:0:0:0:0:
475,192,13123,128,0,13295:0:0:0:0:
36,192,13123,128,0,13295:0:0:0:0:
109,192,13209,128,0,13380:0:0:0:0:
182,192,13295,128,0,13466:0:0:0:0:
256,192,13380,128,0,13552:0:0:0:0:
402,192,13466,128,0,13638:0:0:0:0:
329,192,13466,128,0,13723:0:0:0:0:
475,192,13466,128,0,13638:0:0:0:0:
36,192,13552,128,0,13723:0:0:0:0:
109,192,13638,128,0,13809:0:0:0:0:
182,192,13723,128,0,13895:0:0:0:0:
329,192,13809,1,0,0:0:0:0:
256,192,13809,128,0,15180:0:0:0:0:
36,192,13809,128,0,13895:0:0:0:0:
475,192,13809,128,0,13895:0:0:0:0:
402,192,13809,128,0,13895:0:0:0:0:
109,192,13980,128,0,14066:0:0:0:0:
329,192,13980,128,0,14066:0:0:0:0:
182,192,13980,128,0,14066:0:0:0:0:
182,192,14152,128,0,14238:0:0:0:0:
36,192,14152,128,0,14238:0:0:0:0:
475,192,14152,128,0,14238:0:0:0:0:
402,192,14152,1,0,0:0:0:0:
329,192,14238,128,0,14323:0:0:0:0:
402,192,14323,128,0,14409:0:0:0:0:
109,192,14323,128,0,14409:0:0:0:0:
182,192,14409,128,0,14495:0:0:0:0:
36,192,14495,128,0,14580:0:0:0:0:
475,192,14495,128,0,14580:0:0:0:0:
329,192,14495,128,0,14580:0:0:0:0:
109,192,14495,1,0,0:0:0:0:
109,192,14666,128,0,14752:0:0:0:0:
402,192,14666,128,0,14752:0:0:0:0:
182,192,14666,1,0,0:0:0:0:
36,192,14838,128,0,15180:0:0:0:0:
475,192,14838,128,0,14923:0:0:0:0:
182,192,14838,128,0,14923:0:0:0:0:
402,192,14838,1,0,0:0:0:0:
329,192,14923,128,0,15009:0:0:0:0:
402,192,15009,128,0,15095:0:0:0:0:
109,192,15009,128,0,15095:0:0:0:0:
182,192,15095,128,0,15180:0:0:0:0:
475,192,15180,128,0,15866:0:0:0:0:
109,192,15180,128,0,15266:0:0:0:0:
329,192,15180,128,0,15266:0:0:0:0:
256,192,15352,128,0,15438:0:0:0:0:
402,192,15352,128,0,15438:0:0:0:0:
182,192,15352,128,0,15438:0:0:0:0:
36,192,15352,128,0,15438:0:0:0:0:
182,192,15523,128,0,16209:0:0:0:0:
36,192,15523,128,0,15609:0:0:0:0:
329,192,15523,128,0,15609:0:0:0:0:
402,192,15523,128,0,15609:0:0:0:0:
109,192,15609,128,0,15695:0:0:0:0:
329,192,15695,128,0,15780:0:0:0:0:
256,192,15695,128,0,15780:0:0:0:0:
402,192,15780,128,0,15866:0:0:0:0:
329,192,15866,128,0,16552:0:0:0:0:
36,192,15866,128,0,15952:0:0:0:0:
109,192,15866,128,0,15952:0:0:0:0:
256,192,15866,128,0,15952:0:0:0:0:
256,192,16038,128,0,16123:0:0:0:0:
475,192,16038,128,0,16123:0:0:0:0:
36,192,16038,128,0,16123:0:0:0:0:
36,192,16209,128,0,16552:0:0:0:0:
402,192,16209,128,0,16295:0:0:0:0:
109,192,16209,128,0,16295:0:0:0:0:
475,192,16295,128,0,16380:0:0:0:0:
182,192,16295,128,0,16380:0:0:0:0:
256,192,16380,128,0,16466:0:0:0:0:
402,192,16380,128,0,16466:0:0:0:0:
475,192,16466,128,0,16552:0:0:0:0:
182,192,16552,128,0,17923:0:0:0:0:
109,192,16552,128,0,16638:0:0:0:0:
256,192,16552,128,0,16638:0:0:0:0:
402,192,16552,128,0,16638:0:0:0:0:
329,192,16723,128,0,16809:0:0:0:0:
36,192,16723,128,0,16809:0:0:0:0:
475,192,16723,128,0,16980:0:0:0:0:
109,192,16723,128,0,16809:0:0:0:0:
36,192,16895,128,0,16980:0:0:0:0:
256,192,16895,128,0,16980:0:0:0:0:
402,192,16895,128,0,16980:0:0:0:0:
109,192,16980,128,0,17066:0:0:0:0:
329,192,17066,128,0,17152:0:0:0:0:
475,192,17066,128,0,17152:0:0:0:0:
36,192,17066,128,0,17152:0:0:0:0:
256,192,17152,128,0,17238:0:0:0:0:
36,192,17238,128,0,17323:0:0:0:0:
109,192,17238,128,0,17323:0:0:0:0:
329,192,17238,128,0,17323:0:0:0:0:
475,192,17238,128,0,17323:0:0:0:0:
109,192,17409,128,0,17495:0:0:0:0:
256,192,17409,128,0,17495:0:0:0:0:
402,192,17409,128,0,17495:0:0:0:0:
329,192,17580,128,0,17923:0:0:0:0:
36,192,17580,128,0,17666:0:0:0:0:
475,192,17580,128,0,17666:0:0:0:0:
109,192,17666,128,0,17752:0:0:0:0:
402,192,17666,128,0,17752:0:0:0:0:
256,192,17752,128,0,17838:0:0:0:0:
475,192,17752,128,0,17838:0:0:0:0:
402,192,17838,128,0,17923:0:0:0:0:
256,192,17923,128,0,18266:0:0:0:0:
36,192,17923,128,0,18095:0:0:0:0:
475,192,17923,128,0,18095:0:0:0:0:
109,192,17923,128,0,18095:0:0:0:0:
329,192,18095,128,0,18266:0:0:0:0:
402,192,18095,128,0,18266:0:0:0:0:
182,192,18095,128,0,18266:0:0:0:0:
36,192,18266,128,0,18438:0:0:0:0:
109,192,18266,128,0,18438:0:0:0:0:
475,192,18266,128,0,18352:0:0:0:0:
402,192,18352,128,0,18438:0:0:0:0:
329,192,18438,128,0,18523:0:0:0:0:
182,192,18438,128,0,18523:0:0:0:0:
109,192,18523,128,0,18609:0:0:0:0:
36,192,18609,128,0,18695:0:0:0:0:
475,192,18609,128,0,18780:0:0:0:0:
402,192,18609,128,0,18780:0:0:0:0:
256,192,18609,128,0,18695:0:0:0:0:
182,192,18695,128,0,18780:0:0:0:0:
109,192,18780,128,0,18866:0:0:0:0:
329,192,18780,128,0,18866:0:0:0:0:
182,192,18866,128,0,18952:0:0:0:0:
256,192,18952,128,0,19038:0:0:0:0:
36,192,18952,128,0,19209:0:0:0:0:
402,192,18952,128,0,19038:0:0:0:0:
475,192,19038,128,0,19123:0:0:0:0:
109,192,19123,128,0,19209:0:0:0:0:
182,192,19123,128,0,19209:0:0:0:0:
329,192,19123,128,0,19209:0:0:0:0:
256,192,19209,128,0,19295:0:0:0:0:
36,192,19295,128,0,19380:0:0:0:0:
182,192,19295,128,0,19380:0:0:0:0:
329,192,19295,128,0,19380:0:0:0:0:
402,192,19295,128,0,19380:0:0:0:0:
475,192,19295,128,0,19380:0:0:0:0:
109,192,19295,128,0,19380:0:0:0:0:
256,192,19466,128,0,19895:0:0:0:0:
182,192,19552,128,0,19809:0:0:0:0:
329,192,19552,128,0,19809:0:0:0:0:
109,192,19638,128,0,19723:0:0:0:0:
402,192,19638,128,0,19723:0:0:0:0:
36,192,19723,128,0,19809:0:0:0:0:
475,192,19723,128,0,19809:0:0:0:0:
109,192,19809,128,0,19895:0:0:0:0:
402,192,19809,128,0,19895:0:0:0:0:
182,192,19895,128,0,19980:0:0:0:0:
329,192,19895,128,0,19980:0:0:0:0:
256,192,19980,128,0,20066:0:0:0:0:
36,192,19980,128,0,20066:0:0:0:0:
475,192,19980,128,0,20066:0:0:0:0:
475,192,20152,128,0,20238:0:0:0:0:
256,192,20152,128,0,20238:0:0:0:0:
36,192,20152,128,0,20238:0:0:0:0:
36,192,20323,128,0,20580:0:0:0:0:
475,192,20323,128,0,20580:0:0:0:0:
256,192,20323,128,0,20409:0:0:0:0:
109,192,20409,128,0,20580:0:0:0:0:
402,192,20409,128,0,20580:0:0:0:0:
182,192,20495,128,0,20580:0:0:0:0:
329,192,20495,128,0,20580:0:0:0:0:
256,192,20580,128,0,20666:0:0:0:0:
329,192,20666,128,0,20752:0:0:0:0:
402,192,20666,128,0,20752:0:0:0:0:
182,192,20666,128,0,20752:0:0:0:0:
475,192,20666,128,0,20752:0:0:0:0:
109,192,20666,128,0,20752:0:0:0:0:
36,192,20666,128,0,20752:0:0:0:0:
36,192,20838,128,0,21095:0:0:0:0:
402,192,20838,128,0,20923:0:0:0:0:
329,192,20838,128,0,20923:0:0:0:0:
109,192,20923,128,0,21095:0:0:0:0:
256,192,20923,128,0,21009:0:0:0:0:
182,192,21009,128,0,21095:0:0:0:0:
329,192,21009,128,0,21095:0:0:0:0:
402,192,21095,128,0,21266:0:0:0:0:
475,192,21095,128,0,21266:0:0:0:0:
256,192,21180,128,0,21266:0:0:0:0:
109,192,21180,128,0,21266:0:0:0:0:
329,192,21266,128,0,21352:0:0:0:0:
182,192,21266,128,0,21352:0:0:0:0:
256,192,21352,128,0,21438:0:0:0:0:
36,192,21352,128,0,21438:0:0:0:0:
402,192,21352,128,0,21438:0:0:0:0:
109,192,21352,128,0,21438:0:0:0:0:
109,192,21523,128,0,21609:0:0:0:0:
475,192,21523,128,0,21609:0:0:0:0:
402,192,21523,128,0,21609:0:0:0:0:
256,192,21523,128,0,21609:0:0:0:0:
475,192,21695,128,0,21952:0:0:0:0:
256,192,21695,128,0,21952:0:0:0:0:
36,192,21695,128,0,21952:0:0:0:0:
109,192,21695,128,0,21780:0:0:0:0:
402,192,21695,128,0,21780:0:0:0:0:
182,192,21866,1,0,0:0:0:0:
329,192,21866,1,0,0:0:0:0:
109,192,21952,1,0,0:0:0:0:
402,192,21952,1,0,0:0:0:0:
36,192,22038,128,0,22638:0:0:0:0:
182,192,22038,128,0,22380:0:0:0:0:
329,192,22038,128,0,22380:0:0:0:0:
475,192,22038,128,0,22638:0:0:0:0:
256,192,22038,1,0,0:0:0:0:
256,192,22209,1,0,0:0:0:0:
109,192,22380,128,0,22638:0:0:0:0:
402,192,22380,128,0,22638:0:0:0:0:
256,192,22552,128,0,22723:0:0:0:0:
36,192,22723,128,0,23323:0:0:0:0:
182,192,22723,128,0,23066:0:0:0:0:
329,192,22723,128,0,22895:0:0:0:0:
475,192,22723,128,0,23323:0:0:0:0:
109,192,22723,1,0,0:0:0:0:
402,192,22723,1,0,0:0:0:0:
256,192,22895,1,0,0:0:0:0:
329,192,22980,1,0,0:0:0:0:
256,192,23066,128,0,23323:0:0:0:0:
109,192,23066,128,0,23323:0:0:0:0:
402,192,23066,128,0,23323:0:0:0:0:
329,192,23238,1,0,0:0:0:0:
182,192,23323,1,0,0:0:0:0:
402,192,23409,128,0,23752:0:0:0:0:
475,192,23409,128,0,23752:0:0:0:0:
36,192,23409,128,0,23752:0:0:0:0:
109,192,23409,128,0,23752:0:0:0:0:
256,192,23409,128,0,23752:0:0:0:0:
329,192,23409,128,0,23495:0:0:0:0:
182,192,23580,128,0,23666:0:0:0:0:
182,192,23752,128,0,24695:0:0:0:0:
329,192,23752,128,0,24695:0:0:0:0:
36,192,24780,128,0,24866:0:0:0:0:
182,192,24780,128,0,24866:0:0:0:0:
256,192,24780,128,0,24866:0:0:0:0:
329,192,24780,128,0,24866:0:0:0:0:
475,192,24780,128,0,25038:0:0:0:0:
36,192,24952,128,0,25038:0:0:0:0:
256,192,24952,128,0,25038:0:0:0:0:
402,192,24952,128,0,25038:0:0:0:0:
402,192,25123,128,0,25209:0:0:0:0:
182,192,25123,128,0,25380:0:0:0:0:
109,192,25123,128,0,25209:0:0:0:0:
109,192,25295,128,0,25380:0:0:0:0:
329,192,25295,128,0,25380:0:0:0:0:
475,192,25295,128,0,25380:0:0:0:0:
402,192,25466,128,0,25552:0:0:0:0:
256,192,25466,128,0,25723:0:0:0:0:
182,192,25466,128,0,25552:0:0:0:0:
36,192,25466,128,0,25552:0:0:0:0:
109,192,25638,128,0,25723:0:0:0:0:
329,192,25638,128,0,25723:0:0:0:0:
475,192,25638,128,0,25723:0:0:0:0:
36,192,25809,128,0,26195:0:0:0:0:
475,192,25809,128,0,25895:0:0:0:0:
256,192,25809,128,0,25895:0:0:0:0:
109,192,25809,128,0,25895:0:0:0:0:
182,192,25809,128,0,25895:0:0:0:0:
329,192,25895,128,0,25980:0:0:0:0:
402,192,25895,128,0,25980:0:0:0:0:
475,192,25980,128,0,26066:0:0:0:0:
182,192,25980,128,0,26066:0:0:0:0:
109,192,25980,128,0,26066:0:0:0:0:
329,192,26066,128,0,26152:0:0:0:0:
256,192,26066,128,0,26152:0:0:0:0:
109,192,26152,128,0,26195:0:0:0:0:
182,192,26152,128,0,26195:0:0:0:0:
402,192,26152,128,0,26366:0:0:0:0:
475,192,26152,128,0,26195:0:0:0:0:
109,192,26323,128,0,26366:0:0:0:0:
256,192,26323,128,0,26366:0:0:0:0:
475,192,26323,128,0,26366:0:0:0:0:
36,192,26495,128,0,26538:0:0:0:0:
182,192,26495,128,0,26538:0:0:0:0:
329,192,26495,128,0,26709:0:0:0:0:
402,192,26495,128,0,26538:0:0:0:0:
256,192,26666,128,0,26709:0:0:0:0:
475,192,26666,128,0,26709:0:0:0:0:
182,192,26666,128,0,26709:0:0:0:0:
475,192,26838,128,0,26880:0:0:0:0:
329,192,26838,128,0,26880:0:0:0:0:
109,192,26838,128,0,26880:0:0:0:0:
36,192,26838,128,0,27052:0:0:0:0:
182,192,27009,128,0,27052:0:0:0:0:
402,192,27009,128,0,27052:0:0:0:0:
256,192,27009,128,0,27052:0:0:0:0:
475,192,27180,128,0,27609:0:0:0:0:
256,192,27180,128,0,27266:0:0:0:0:
36,192,27180,128,0,27266:0:0:0:0:
329,192,27180,128,0,27266:0:0:0:0:
402,192,27180,128,0,27266:0:0:0:0:
182,192,27266,128,0,27352:0:0:0:0:
109,192,27266,128,0,27352:0:0:0:0:
36,192,27352,128,0,27438:0:0:0:0:
329,192,27352,128,0,27438:0:0:0:0:
402,192,27352,128,0,27438:0:0:0:0:
256,192,27438,128,0,27523:0:0:0:0:
182,192,27438,128,0,27523:0:0:0:0:
36,192,27523,128,0,27695:0:0:0:0:
109,192,27523,128,0,27609:0:0:0:0:
329,192,27523,128,0,27609:0:0:0:0:
402,192,27523,128,0,27609:0:0:0:0:
475,192,27695,128,0,27780:0:0:0:0:
256,192,27695,128,0,27780:0:0:0:0:
402,192,27695,128,0,27780:0:0:0:0:
182,192,27866,128,0,27952:0:0:0:0:
329,192,27866,128,0,27952:0:0:0:0:
36,192,27866,128,0,27952:0:0:0:0:
329,192,28038,128,0,28123:0:0:0:0:
109,192,28038,128,0,28123:0:0:0:0:
475,192,28038,128,0,28123:0:0:0:0:
36,192,28209,128,0,28295:0:0:0:0:
182,192,28209,128,0,28295:0:0:0:0:
256,192,28209,128,0,28380:0:0:0:0:
402,192,28209,128,0,28295:0:0:0:0:
109,192,28380,128,0,28466:0:0:0:0:
329,192,28380,128,0,28466:0:0:0:0:
475,192,28380,128,0,28466:0:0:0:0:
402,192,28552,128,0,28638:0:0:0:0:
182,192,28552,128,0,28638:0:0:0:0:
36,192,28552,128,0,28638:0:0:0:0:
256,192,28723,128,0,28809:0:0:0:0:
109,192,28723,128,0,28809:0:0:0:0:
475,192,28723,128,0,28809:0:0:0:0:
329,192,28895,128,0,29238:0:0:0:0:
36,192,28895,128,0,28980:0:0:0:0:
182,192,28895,128,0,28980:0:0:0:0:
475,192,28895,128,0,28980:0:0:0:0:
402,192,28980,128,0,29066:0:0:0:0:
256,192,29066,128,0,29238:0:0:0:0:
109,192,29066,128,0,29152:0:0:0:0:
182,192,29152,128,0,29238:0:0:0:0:
36,192,29238,128,0,29409:0:0:0:0:
109,192,29238,128,0,29409:0:0:0:0:
402,192,29238,128,0,29409:0:0:0:0:
475,192,29238,128,0,29323:0:0:0:0:
329,192,29323,128,0,29495:0:0:0:0:
256,192,29409,128,0,29580:0:0:0:0:
182,192,29495,128,0,29666:0:0:0:0:
475,192,29580,128,0,29752:0:0:0:0:
109,192,29580,128,0,29752:0:0:0:0:
329,192,29580,128,0,29666:0:0:0:0:
402,192,29580,128,0,29752:0:0:0:0:
256,192,29666,128,0,29752:0:0:0:0:
182,192,29752,128,0,29838:0:0:0:0:
36,192,29752,128,0,29838:0:0:0:0:
329,192,29838,128,0,29923:0:0:0:0:
36,192,29923,128,0,30266:0:0:0:0:
256,192,29923,128,0,30009:0:0:0:0:
109,192,29923,128,0,30095:0:0:0:0:
402,192,29923,128,0,30095:0:0:0:0:
182,192,30009,128,0,30095:0:0:0:0:
475,192,30095,1,0,0:0:0:0:
329,192,30095,128,0,30180:0:0:0:0:
256,192,30180,128,0,30266:0:0:0:0:
402,192,30266,128,0,30352:0:0:0:0:
475,192,30266,128,0,30352:0:0:0:0:
329,192,30266,128,0,30352:0:0:0:0:
182,192,30266,128,0,30352:0:0:0:0:
109,192,30266,128,0,30352:0:0:0:0:
36,192,30438,128,0,30523:0:0:0:0:
256,192,30438,128,0,30609:0:0:0:0:
109,192,30438,128,0,30523:0:0:0:0:
402,192,30438,1,0,0:0:0:0:
329,192,30609,128,0,30780:0:0:0:0:
109,192,30609,128,0,30695:0:0:0:0:
182,192,30609,128,0,30695:0:0:0:0:
475,192,30609,1,0,0:0:0:0:
182,192,30780,128,0,30866:0:0:0:0:
256,192,30780,128,0,30866:0:0:0:0:
402,192,30780,128,0,30952:0:0:0:0:
36,192,30780,1,0,0:0:0:0:
329,192,30952,128,0,31123:0:0:0:0:
109,192,30952,128,0,31038:0:0:0:0:
182,192,30952,128,0,31038:0:0:0:0:
475,192,30952,1,0,0:0:0:0:
109,192,31123,128,0,31209:0:0:0:0:
36,192,31123,128,0,31209:0:0:0:0:
256,192,31123,128,0,31295:0:0:0:0:
402,192,31123,1,0,0:0:0:0:
329,192,31295,128,0,31380:0:0:0:0:
182,192,31295,128,0,31466:0:0:0:0:
402,192,31295,128,0,31380:0:0:0:0:
109,192,31380,128,0,31466:0:0:0:0:
36,192,31380,128,0,31466:0:0:0:0:
402,192,31466,128,0,31552:0:0:0:0:
475,192,31466,128,0,31552:0:0:0:0:
256,192,31466,128,0,31638:0:0:0:0:
182,192,31552,128,0,31638:0:0:0:0:
109,192,31552,128,0,31638:0:0:0:0:
329,192,31638,128,0,31723:0:0:0:0:
402,192,31638,128,0,31723:0:0:0:0:
475,192,31638,128,0,31723:0:0:0:0:
36,192,31638,128,0,31723:0:0:0:0:
475,192,31809,128,0,31895:0:0:0:0:
256,192,31809,128,0,31980:0:0:0:0:
402,192,31809,128,0,31895:0:0:0:0:
109,192,31809,128,0,31895:0:0:0:0:
329,192,31980,128,0,32066:0:0:0:0:
182,192,31980,128,0,32152:0:0:0:0:
402,192,31980,128,0,32066:0:0:0:0:
36,192,31980,128,0,32066:0:0:0:0:
329,192,32152,128,0,32238:0:0:0:0:
256,192,32152,128,0,32238:0:0:0:0:
109,192,32152,128,0,32323:0:0:0:0:
475,192,32152,128,0,32238:0:0:0:0:
329,192,32323,128,0,32409:0:0:0:0:
402,192,32323,128,0,32409:0:0:0:0:
182,192,32323,128,0,32495:0:0:0:0:
36,192,32323,128,0,32409:0:0:0:0:
475,192,32495,128,0,32580:0:0:0:0:
402,192,32495,128,0,32580:0:0:0:0:
256,192,32495,128,0,32580:0:0:0:0:
109,192,32495,128,0,32580:0:0:0:0:
256,192,32666,128,0,33009:0:0:0:0:
109,192,32666,128,0,32752:0:0:0:0:
182,192,32666,128,0,32752:0:0:0:0:
402,192,32752,128,0,32838:0:0:0:0:
475,192,32752,128,0,32838:0:0:0:0:
109,192,32838,128,0,32923:0:0:0:0:
36,192,32838,128,0,32923:0:0:0:0:
329,192,32923,128,0,33009:0:0:0:0:
402,192,32923,128,0,33009:0:0:0:0:
36,192,33009,128,0,33180:0:0:0:0:
109,192,33009,128,0,33095:0:0:0:0:
182,192,33009,128,0,33095:0:0:0:0:
475,192,33180,128,0,33266:0:0:0:0:
256,192,33180,128,0,33266:0:0:0:0:
402,192,33180,128,0,33266:0:0:0:0:
329,192,33352,128,0,33438:0:0:0:0:
182,192,33352,128,0,33438:0:0:0:0:
36,192,33352,128,0,33438:0:0:0:0:
256,192,33523,128,0,33609:0:0:0:0:
109,192,33523,128,0,33609:0:0:0:0:
402,192,33523,128,0,33609:0:0:0:0:
475,192,33523,128,0,33609:0:0:0:0:
36,192,33695,128,0,33866:0:0:0:0:
182,192,33695,128,0,33866:0:0:0:0:
402,192,33695,128,0,33866:0:0:0:0:
475,192,33695,128,0,33866:0:0:0:0:
329,192,33695,128,0,33866:0:0:0:0:
256,192,33866,128,0,33952:0:0:0:0:
109,192,33866,128,0,33952:0:0:0:0:
182,192,34038,128,0,34123:0:0:0:0:
256,192,34038,128,0,34123:0:0:0:0:
402,192,34038,128,0,34123:0:0:0:0:
475,192,34038,128,0,34295:0:0:0:0:
109,192,34209,128,0,34295:0:0:0:0:
182,192,34209,128,0,34295:0:0:0:0:
329,192,34209,128,0,34295:0:0:0:0:
402,192,34209,128,0,34295:0:0:0:0:
475,192,34380,128,0,35409:0:0:0:0:
36,192,34380,128,0,34466:0:0:0:0:
256,192,34380,128,0,34466:0:0:0:0:
182,192,34380,128,0,34466:0:0:0:0:
402,192,34466,128,0,34638:0:0:0:0:
329,192,34552,128,0,34723:0:0:0:0:
109,192,34552,128,0,34638:0:0:0:0:
256,192,34638,128,0,34809:0:0:0:0:
402,192,34723,128,0,35409:0:0:0:0:
36,192,34723,128,0,34809:0:0:0:0:
182,192,34723,128,0,34809:0:0:0:0:
329,192,34809,128,0,34980:0:0:0:0:
256,192,34895,128,0,35066:0:0:0:0:
36,192,34895,128,0,34980:0:0:0:0:
109,192,34895,128,0,34980:0:0:0:0:
182,192,34980,128,0,35152:0:0:0:0:
329,192,35066,128,0,35409:0:0:0:0:
36,192,35066,128,0,35152:0:0:0:0:
256,192,35152,128,0,35323:0:0:0:0:
182,192,35238,128,0,35409:0:0:0:0:
36,192,35238,128,0,35409:0:0:0:0:
256,192,35409,1,0,0:0:0:0:
109,192,35409,1,0,0:0:0:0:
256,192,35495,1,0,0:0:0:0:
329,192,35580,1,0,0:0:0:0:
329,192,35666,1,0,0:0:0:0:
256,192,35752,1,0,0:0:0:0:
109,192,35752,1,0,0:0:0:0:
36,192,35752,1,0,0:0:0:0:
182,192,35752,128,0,36438:0:0:0:0:
402,192,35752,128,0,35838:0:0:0:0:
475,192,35752,128,0,35838:0:0:0:0:
109,192,35923,1,0,0:0:0:0:
402,192,35923,128,0,36009:0:0:0:0:
475,192,35923,128,0,36009:0:0:0:0:
256,192,36095,1,0,0:0:0:0:
36,192,36095,1,0,0:0:0:0:
402,192,36095,128,0,36180:0:0:0:0:
475,192,36095,128,0,36180:0:0:0:0:
109,192,36266,1,0,0:0:0:0:
402,192,36266,128,0,36352:0:0:0:0:
475,192,36266,128,0,36352:0:0:0:0:
256,192,36352,1,0,0:0:0:0:
329,192,36438,128,0,37038:0:0:0:0:
475,192,36438,1,0,0:0:0:0:
36,192,36438,128,0,36523:0:0:0:0:
109,192,36438,128,0,36523:0:0:0:0:
402,192,36609,1,0,0:0:0:0:
109,192,36609,128,0,36695:0:0:0:0:
36,192,36609,128,0,36695:0:0:0:0:
256,192,36780,1,0,0:0:0:0:
475,192,36780,1,0,0:0:0:0:
36,192,36780,128,0,36866:0:0:0:0:
109,192,36780,128,0,36866:0:0:0:0:
36,192,36952,128,0,37038:0:0:0:0:
109,192,36952,128,0,37038:0:0:0:0:
475,192,36952,128,0,37038:0:0:0:0:
402,192,37038,128,0,37123:0:0:0:0:
475,192,37123,128,0,37723:0:0:0:0:
182,192,37123,128,0,37209:0:0:0:0:
329,192,37123,128,0,37209:0:0:0:0:
36,192,37123,1,0,0:0:0:0:
109,192,37209,128,0,37295:0:0:0:0:
402,192,37295,1,0,0:0:0:0:
329,192,37295,128,0,37380:0:0:0:0:
182,192,37295,128,0,37380:0:0:0:0:
36,192,37466,1,0,0:0:0:0:
182,192,37466,128,0,37552:0:0:0:0:
329,192,37466,128,0,37552:0:0:0:0:
402,192,37552,128,0,37638:0:0:0:0:
109,192,37638,1,0,0:0:0:0:
182,192,37638,128,0,37723:0:0:0:0:
329,192,37638,128,0,37723:0:0:0:0:
109,192,37809,128,0,38495:0:0:0:0:
36,192,37809,1,0,0:0:0:0:
182,192,37809,1,0,0:0:0:0:
402,192,37809,128,0,37895:0:0:0:0:
475,192,37809,128,0,37895:0:0:0:0:
256,192,37895,128,0,37980:0:0:0:0:
402,192,37980,128,0,38066:0:0:0:0:
475,192,37980,128,0,38066:0:0:0:0:
182,192,38152,1,0,0:0:0:0:
36,192,38152,1,0,0:0:0:0:
475,192,38152,128,0,38238:0:0:0:0:
329,192,38152,128,0,38238:0:0:0:0:
256,192,38238,128,0,38323:0:0:0:0:
475,192,38323,128,0,38409:0:0:0:0:
329,192,38323,128,0,38409:0:0:0:0:
256,192,38495,128,0,39180:0:0:0:0:
475,192,38495,1,0,0:0:0:0:
329,192,38495,1,0,0:0:0:0:
36,192,38495,128,0,38580:0:0:0:0:
182,192,38495,128,0,38580:0:0:0:0:
109,192,38580,128,0,38666:0:0:0:0:
402,192,38666,1,0,0:0:0:0:
182,192,38666,128,0,38752:0:0:0:0:
36,192,38666,128,0,38752:0:0:0:0:
329,192,38838,1,0,0:0:0:0:
36,192,38838,128,0,38923:0:0:0:0:
182,192,38838,128,0,38923:0:0:0:0:
475,192,38838,128,0,39095:0:0:0:0:
402,192,38923,128,0,39095:0:0:0:0:
182,192,39009,128,0,39095:0:0:0:0:
36,192,39009,128,0,39095:0:0:0:0:
329,192,39009,128,0,39095:0:0:0:0:
109,192,39095,128,0,39180:0:0:0:0:
402,192,39180,128,0,39523:0:0:0:0:
475,192,39180,1,0,0:0:0:0:
182,192,39180,128,0,39266:0:0:0:0:
329,192,39180,128,0,39266:0:0:0:0:
256,192,39266,128,0,39352:0:0:0:0:
36,192,39352,1,0,0:0:0:0:
329,192,39352,128,0,39438:0:0:0:0:
182,192,39352,128,0,39438:0:0:0:0:
109,192,39523,128,0,39866:0:0:0:0:
475,192,39523,1,0,0:0:0:0:
182,192,39523,128,0,39609:0:0:0:0:
329,192,39523,128,0,39609:0:0:0:0:
329,192,39695,128,0,39780:0:0:0:0:
182,192,39695,128,0,39780:0:0:0:0:
402,192,39695,128,0,39780:0:0:0:0:
256,192,39780,128,0,39866:0:0:0:0:
182,192,39866,128,0,40552:0:0:0:0:
36,192,39866,128,0,40209:0:0:0:0:
329,192,39866,128,0,39952:0:0:0:0:
475,192,39866,128,0,39952:0:0:0:0:
402,192,39952,128,0,40038:0:0:0:0:
109,192,40038,1,0,0:0:0:0:
475,192,40038,128,0,40123:0:0:0:0:
329,192,40038,128,0,40123:0:0:0:0:
475,192,40209,128,0,40466:0:0:0:0:
109,192,40209,1,0,0:0:0:0:
256,192,40209,128,0,40295:0:0:0:0:
402,192,40209,128,0,40295:0:0:0:0:
36,192,40380,1,0,0:0:0:0:
256,192,40380,128,0,40466:0:0:0:0:
402,192,40380,128,0,40466:0:0:0:0:
329,192,40552,128,0,40895:0:0:0:0:
109,192,40552,1,0,0:0:0:0:
256,192,40552,128,0,40895:0:0:0:0:
402,192,40552,1,0,0:0:0:0:
36,192,40552,128,0,40638:0:0:0:0:
475,192,40552,128,0,40638:0:0:0:0:
109,192,40723,1,0,0:0:0:0:
36,192,40723,128,0,40809:0:0:0:0:
475,192,40723,128,0,40809:0:0:0:0:
402,192,40723,1,0,0:0:0:0:
109,192,40895,128,0,41238:0:0:0:0:
475,192,40895,1,0,0:0:0:0:
182,192,40895,128,0,40980:0:0:0:0:
402,192,40895,128,0,40980:0:0:0:0:
182,192,41066,128,0,41152:0:0:0:0:
402,192,41066,128,0,41152:0:0:0:0:
329,192,41152,128,0,41238:0:0:0:0:
36,192,41238,128,0,41323:0:0:0:0:
182,192,41238,128,0,41323:0:0:0:0:
256,192,41238,128,0,41323:0:0:0:0:
402,192,41238,128,0,41323:0:0:0:0:
475,192,41238,128,0,41323:0:0:0:0:
36,192,41409,128,0,41923:0:0:0:0:
256,192,41409,128,0,41495:0:0:0:0:
329,192,41409,128,0,41580:0:0:0:0:
402,192,41409,128,0,41666:0:0:0:0:
475,192,41409,128,0,41752:0:0:0:0:
182,192,41409,1,0,0:0:0:0:
109,192,41495,128,0,41923:0:0:0:0:
182,192,41580,128,0,41923:0:0:0:0:
256,192,41666,128,0,41923:0:0:0:0:
329,192,41752,128,0,41923:0:0:0:0:
402,192,41838,128,0,41923:0:0:0:0:
475,192,41923,128,0,42009:0:0:0:0:
475,192,42095,128,0,42180:0:0:0:0:
475,192,42266,128,0,42352:0:0:0:0:
256,192,42266,128,0,42352:0:0:0:0:
182,192,42266,128,0,42438:0:0:0:0:
109,192,42266,128,0,42523:0:0:0:0:
36,192,42266,128,0,42352:0:0:0:0:
402,192,42352,128,0,42523:0:0:0:0:
329,192,42438,128,0,42523:0:0:0:0:
475,192,42438,128,0,42523:0:0:0:0:
36,192,42438,128,0,42523:0:0:0:0:
256,192,42523,128,0,42609:0:0:0:0:
109,192,42609,128,0,42695:0:0:0:0:
182,192,42609,128,0,42695:0:0:0:0:
475,192,42609,128,0,42695:0:0:0:0:
329,192,42609,128,0,42695:0:0:0:0:
402,192,42609,128,0,42695:0:0:0:0:
36,192,42609,128,0,42695:0:0:0:0:
475,192,42780,128,0,42952:0:0:0:0:
402,192,42780,128,0,42952:0:0:0:0:
329,192,42866,128,0,43038:0:0:0:0:
256,192,42866,128,0,43038:0:0:0:0:
182,192,42952,128,0,43123:0:0:0:0:
109,192,42952,128,0,43123:0:0:0:0:
36,192,43038,128,0,43209:0:0:0:0:
475,192,43038,128,0,43295:0:0:0:0:
402,192,43123,128,0,43295:0:0:0:0:
329,192,43123,128,0,43295:0:0:0:0:
256,192,43209,128,0,43295:0:0:0:0:
182,192,43209,128,0,43295:0:0:0:0:
36,192,43295,128,0,43380:0:0:0:0:
109,192,43295,128,0,43380:0:0:0:0:
182,192,43466,128,0,43552:0:0:0:0:
329,192,43466,128,0,43552:0:0:0:0:
475,192,43638,128,0,43895:0:0:0:0:
402,192,43638,128,0,43895:0:0:0:0:
109,192,43638,128,0,43895:0:0:0:0:
36,192,43638,128,0,43895:0:0:0:0:
256,192,43638,128,0,43723:0:0:0:0:
182,192,43809,128,0,43895:0:0:0:0:
329,192,43809,128,0,43895:0:0:0:0:
256,192,43895,128,0,43980:0:0:0:0:
182,192,43980,128,0,44323:0:0:0:0:
329,192,43980,128,0,44323:0:0:0:0:
36,192,43980,128,0,44066:0:0:0:0:
109,192,43980,128,0,44066:0:0:0:0:
402,192,43980,128,0,44066:0:0:0:0:
475,192,43980,128,0,44066:0:0:0:0:
36,192,44152,128,0,44238:0:0:0:0:
475,192,44152,128,0,44238:0:0:0:0:
109,192,44323,128,0,44666:0:0:0:0:
256,192,44323,128,0,45009:0:0:0:0:
402,192,44323,128,0,44666:0:0:0:0:
36,192,44495,128,0,44580:0:0:0:0:
475,192,44495,128,0,44580:0:0:0:0:
36,192,44666,128,0,45009:0:0:0:0:
475,192,44666,128,0,45009:0:0:0:0:
182,192,44666,128,0,44752:0:0:0:0:
329,192,44666,128,0,44752:0:0:0:0:
109,192,44838,128,0,44923:0:0:0:0:
402,192,44838,128,0,44923:0:0:0:0:
109,192,45009,128,0,45352:0:0:0:0:
402,192,45009,128,0,45352:0:0:0:0:
182,192,45009,128,0,45095:0:0:0:0:
329,192,45009,128,0,45095:0:0:0:0:
182,192,45180,128,0,45266:0:0:0:0:
329,192,45180,128,0,45266:0:0:0:0:
256,192,45266,128,0,45352:0:0:0:0:
36,192,45352,128,0,45438:0:0:0:0:
182,192,45352,128,0,45438:0:0:0:0:
329,192,45352,128,0,45438:0:0:0:0:
475,192,45352,128,0,45438:0:0:0:0:
256,192,45523,128,0,45695:0:0:0:0:
329,192,45695,128,0,45780:0:0:0:0:
329,192,46038,128,0,46123:0:0:0:0:
182,192,46295,128,0,46380:0:0:0:0:
402,192,46552,128,0,46638:0:0:0:0:
36,192,46723,128,0,46895:0:0:0:0:
182,192,46723,128,0,47238:0:0:0:0:
329,192,46723,128,0,46895:0:0:0:0:
475,192,46723,128,0,46895:0:0:0:0:
256,192,46723,128,0,46809:0:0:0:0:
109,192,46895,128,0,47066:0:0:0:0:
256,192,46895,128,0,47066:0:0:0:0:
402,192,46895,128,0,46980:0:0:0:0:
36,192,47066,128,0,47923:0:0:0:0:
329,192,47066,128,0,47238:0:0:0:0:
475,192,47066,128,0,47238:0:0:0:0:
402,192,47066,1,0,0:0:0:0:
402,192,47238,128,0,47409:0:0:0:0:
256,192,47238,128,0,47580:0:0:0:0:
475,192,47409,128,0,47580:0:0:0:0:
329,192,47409,128,0,47580:0:0:0:0:
109,192,47409,128,0,47580:0:0:0:0:
182,192,47409,1,0,0:0:0:0:
182,192,47580,128,0,47752:0:0:0:0:
402,192,47580,128,0,47752:0:0:0:0:
256,192,47752,128,0,48095:0:0:0:0:
329,192,47752,128,0,47923:0:0:0:0:
109,192,47752,1,0,0:0:0:0:
475,192,47752,128,0,47923:0:0:0:0:
109,192,47923,128,0,48095:0:0:0:0:
402,192,47923,128,0,48095:0:0:0:0:
182,192,48009,128,0,48095:0:0:0:0:
36,192,48095,128,0,48438:0:0:0:0:
475,192,48095,128,0,48266:0:0:0:0:
329,192,48095,128,0,48180:0:0:0:0:
402,192,48266,128,0,48438:0:0:0:0:
109,192,48266,128,0,48438:0:0:0:0:
256,192,48266,128,0,48438:0:0:0:0:
329,192,48266,1,0,0:0:0:0:
182,192,48438,128,0,48523:0:0:0:0:
329,192,48438,128,0,48609:0:0:0:0:
475,192,48438,128,0,48780:0:0:0:0:
256,192,48609,128,0,48695:0:0:0:0:
109,192,48609,128,0,48780:0:0:0:0:
402,192,48609,128,0,48780:0:0:0:0:
182,192,48609,1,0,0:0:0:0:
329,192,48780,128,0,48952:0:0:0:0:
182,192,48780,128,0,48952:0:0:0:0:
36,192,48780,128,0,48866:0:0:0:0:
256,192,48780,1,0,0:0:0:0:
109,192,48952,128,0,49123:0:0:0:0:
256,192,48952,128,0,49123:0:0:0:0:
402,192,48952,128,0,49038:0:0:0:0:
36,192,48952,128,0,49123:0:0:0:0:
182,192,49123,128,0,49295:0:0:0:0:
329,192,49123,128,0,49295:0:0:0:0:
475,192,49123,128,0,49295:0:0:0:0:
402,192,49123,1,0,0:0:0:0:
402,192,49295,128,0,49466:0:0:0:0:
36,192,49295,128,0,49466:0:0:0:0:
256,192,49295,128,0,49466:0:0:0:0:
109,192,49380,128,0,49466:0:0:0:0:
182,192,49466,128,0,49638:0:0:0:0:
329,192,49466,128,0,49638:0:0:0:0:
475,192,49466,128,0,49809:0:0:0:0:
109,192,49638,128,0,49809:0:0:0:0:
256,192,49638,128,0,49809:0:0:0:0:
402,192,49638,128,0,49980:0:0:0:0:
36,192,49809,128,0,49980:0:0:0:0:
182,192,49809,128,0,50323:0:0:0:0:
329,192,49809,128,0,49980:0:0:0:0:
109,192,49980,128,0,50152:0:0:0:0:
256,192,49980,128,0,50066:0:0:0:0:
475,192,49980,128,0,50152:0:0:0:0:
329,192,50152,128,0,50323:0:0:0:0:
402,192,50152,128,0,50495:0:0:0:0:
36,192,50152,128,0,50666:0:0:0:0:
256,192,50152,1,0,0:0:0:0:
109,192,50323,128,0,50409:0:0:0:0:
256,192,50323,128,0,50495:0:0:0:0:
475,192,50323,128,0,50495:0:0:0:0:
182,192,50495,128,0,50666:0:0:0:0:
109,192,50495,1,0,0:0:0:0:
329,192,50495,128,0,50666:0:0:0:0:
402,192,50666,128,0,50838:0:0:0:0:
109,192,50666,128,0,50838:0:0:0:0:
475,192,50666,128,0,50838:0:0:0:0:
256,192,50752,128,0,50838:0:0:0:0:
182,192,50838,128,0,51009:0:0:0:0:
36,192,50838,128,0,51009:0:0:0:0:
329,192,50838,128,0,50923:0:0:0:0:
329,192,51009,128,0,51352:0:0:0:0:
475,192,51009,128,0,51180:0:0:0:0:
256,192,51009,128,0,51180:0:0:0:0:
402,192,51009,1,0,0:0:0:0:
109,192,51009,128,0,51180:0:0:0:0:
36,192,51180,128,0,51352:0:0:0:0:
402,192,51180,128,0,51352:0:0:0:0:
182,192,51180,128,0,51352:0:0:0:0:
256,192,51352,128,0,51523:0:0:0:0:
475,192,51352,128,0,51523:0:0:0:0:
109,192,51352,128,0,51523:0:0:0:0:
329,192,51523,128,0,51695:0:0:0:0:
182,192,51523,128,0,51695:0:0:0:0:
36,192,51523,128,0,51695:0:0:0:0:
402,192,51523,128,0,51695:0:0:0:0:
109,192,51695,128,0,51866:0:0:0:0:
256,192,51695,128,0,51866:0:0:0:0:
475,192,51695,128,0,51780:0:0:0:0:
402,192,51780,128,0,51866:0:0:0:0:
182,192,51866,128,0,52038:0:0:0:0:
329,192,51866,128,0,52038:0:0:0:0:
36,192,51866,128,0,52038:0:0:0:0:
475,192,51866,128,0,52038:0:0:0:0:
256,192,52038,128,0,52209:0:0:0:0:
402,192,52038,128,0,52209:0:0:0:0:
109,192,52038,128,0,52209:0:0:0:0:
182,192,52209,128,0,52380:0:0:0:0:
475,192,52209,128,0,52380:0:0:0:0:
329,192,52209,128,0,52723:0:0:0:0:
36,192,52209,128,0,52380:0:0:0:0:
256,192,52380,128,0,52552:0:0:0:0:
402,192,52380,128,0,52552:0:0:0:0:
109,192,52380,128,0,52466:0:0:0:0:
182,192,52552,128,0,52723:0:0:0:0:
475,192,52552,128,0,53409:0:0:0:0:
36,192,52552,128,0,52723:0:0:0:0:
109,192,52552,1,0,0:0:0:0:
256,192,52723,128,0,53066:0:0:0:0:
109,192,52723,128,0,52895:0:0:0:0:
36,192,52895,128,0,53066:0:0:0:0:
402,192,52895,128,0,53066:0:0:0:0:
182,192,52895,128,0,53066:0:0:0:0:
329,192,52895,1,0,0:0:0:0:
329,192,53066,128,0,53238:0:0:0:0:
109,192,53066,128,0,53238:0:0:0:0:
402,192,53238,1,0,0:0:0:0:
182,192,53238,128,0,53409:0:0:0:0:
256,192,53238,128,0,53580:0:0:0:0:
36,192,53238,128,0,53409:0:0:0:0:
402,192,53409,128,0,53580:0:0:0:0:
109,192,53409,128,0,53580:0:0:0:0:
329,192,53495,128,0,53580:0:0:0:0:
182,192,53580,128,0,53666:0:0:0:0:
475,192,53580,128,0,53923:0:0:0:0:
36,192,53580,128,0,53752:0:0:0:0:
402,192,53752,128,0,53923:0:0:0:0:
182,192,53752,1,0,0:0:0:0:
256,192,53752,128,0,53923:0:0:0:0:
109,192,53752,128,0,53923:0:0:0:0:
329,192,53923,128,0,54009:0:0:0:0:
36,192,53923,128,0,54266:0:0:0:0:
182,192,53923,128,0,54095:0:0:0:0:
256,192,54095,128,0,54266:0:0:0:0:
329,192,54095,1,0,0:0:0:0:
402,192,54095,128,0,54266:0:0:0:0:
109,192,54095,128,0,54266:0:0:0:0:
329,192,54266,128,0,54438:0:0:0:0:
475,192,54266,128,0,54609:0:0:0:0:
182,192,54266,128,0,54438:0:0:0:0:
109,192,54438,128,0,54609:0:0:0:0:
256,192,54438,128,0,54609:0:0:0:0:
36,192,54438,128,0,54780:0:0:0:0:
402,192,54438,128,0,54523:0:0:0:0:
329,192,54609,128,0,54780:0:0:0:0:
182,192,54609,128,0,54780:0:0:0:0:
402,192,54609,128,0,54780:0:0:0:0:
109,192,54780,128,0,54952:0:0:0:0:
256,192,54780,128,0,54952:0:0:0:0:
475,192,54780,128,0,54952:0:0:0:0:
402,192,54866,128,0,54952:0:0:0:0:
36,192,54952,128,0,55038:0:0:0:0:
182,192,54952,128,0,55038:0:0:0:0:
329,192,54952,128,0,55038:0:0:0:0:
182,192,55123,128,0,55295:0:0:0:0:
475,192,55123,128,0,55295:0:0:0:0:
109,192,55209,128,0,55380:0:0:0:0:
402,192,55209,128,0,55380:0:0:0:0:
36,192,55295,128,0,55466:0:0:0:0:
329,192,55295,128,0,55466:0:0:0:0:
256,192,55380,128,0,55552:0:0:0:0:
475,192,55466,128,0,55552:0:0:0:0:
182,192,55466,128,0,55638:0:0:0:0:
402,192,55552,128,0,55638:0:0:0:0:
109,192,55552,128,0,55723:0:0:0:0:
329,192,55638,128,0,55723:0:0:0:0:
36,192,55638,128,0,55723:0:0:0:0:
36,192,55809,128,0,55895:0:0:0:0:
182,192,55809,128,0,55895:0:0:0:0:
256,192,55809,128,0,55895:0:0:0:0:
475,192,55809,128,0,55895:0:0:0:0:
475,192,55980,128,0,56066:0:0:0:0:
256,192,55980,128,0,56066:0:0:0:0:
182,192,55980,128,0,56066:0:0:0:0:
36,192,55980,128,0,56066:0:0:0:0:
36,192,56152,128,0,56238:0:0:0:0:
182,192,56152,128,0,56238:0:0:0:0:
256,192,56152,128,0,56238:0:0:0:0:
475,192,56152,128,0,56238:0:0:0:0:
109,192,56323,1,0,0:0:0:0:
256,192,56323,1,0,0:0:0:0:
182,192,56323,1,0,0:0:0:0:
475,192,56323,1,0,0:0:0:0:
402,192,56323,1,0,0:0:0:0:
36,192,56323,1,0,0:0:0:0:
109,192,56495,128,0,56580:0:0:0:0:
36,192,56495,128,0,56580:0:0:0:0:
256,192,56495,128,0,56580:0:0:0:0:
475,192,56495,128,0,56580:0:0:0:0:
182,192,56580,128,0,56666:0:0:0:0:
329,192,56580,128,0,56666:0:0:0:0:
402,192,56580,128,0,56666:0:0:0:0:
36,192,56666,128,0,56752:0:0:0:0:
475,192,56666,128,0,56752:0:0:0:0:
256,192,56666,128,0,56752:0:0:0:0:
109,192,56752,128,0,56838:0:0:0:0:
402,192,56752,128,0,56838:0:0:0:0:
182,192,56752,128,0,56838:0:0:0:0:
36,192,56838,128,0,56923:0:0:0:0:
475,192,56838,128,0,56923:0:0:0:0:
256,192,56838,128,0,56923:0:0:0:0:
329,192,56923,128,0,57009:0:0:0:0:
109,192,56923,128,0,57009:0:0:0:0:
402,192,56923,128,0,57009:0:0:0:0:
256,192,57009,128,0,57095:0:0:0:0:
182,192,57009,128,0,57095:0:0:0:0:
36,192,57009,128,0,57095:0:0:0:0:
475,192,57009,128,0,57095:0:0:0:0:
109,192,57180,128,0,57266:0:0:0:0:
402,192,57180,128,0,57266:0:0:0:0:
329,192,57180,128,0,57266:0:0:0:0:
256,192,57180,128,0,57266:0:0:0:0:
109,192,57352,128,0,57438:0:0:0:0:
402,192,57352,128,0,57438:0:0:0:0:
329,192,57352,128,0,57438:0:0:0:0:
256,192,57352,128,0,57438:0:0:0:0:
109,192,57523,128,0,57609:0:0:0:0:
402,192,57523,128,0,57609:0:0:0:0:
329,192,57523,128,0,57609:0:0:0:0:
256,192,57523,128,0,57609:0:0:0:0:
36,192,57695,128,0,57780:0:0:0:0:
182,192,57695,128,0,57780:0:0:0:0:
329,192,57695,128,0,57780:0:0:0:0:
475,192,57695,128,0,57780:0:0:0:0:
256,192,57866,128,0,58038:0:0:0:0:
182,192,58038,128,0,58080:0:0:0:0:
329,192,58295,128,0,58338:0:0:0:0:
182,192,58380,128,0,58423:0:0:0:0:
109,192,58552,128,0,58595:0:0:0:0:
182,192,58723,128,0,58766:0:0:0:0:
329,192,58852,128,0,58895:0:0:0:0:
402,192,59066,128,0,59109:0:0:0:0:
329,192,59409,128,0,59452:0:0:0:0:
402,192,59752,128,0,59795:0:0:0:0:
475,192,60095,128,0,60138:0:0:0:0:
256,192,60266,128,0,60438:0:0:0:0:
36,192,60438,128,0,61809:0:0:0:0:
182,192,60438,1,0,0:0:0:0:
109,192,60438,1,0,0:0:0:0:
475,192,60438,128,0,60609:0:0:0:0:
402,192,60438,1,0,0:0:0:0:
109,192,60609,1,0,0:0:0:0:
329,192,60609,128,0,60780:0:0:0:0:
256,192,60609,1,0,0:0:0:0:
475,192,60780,128,0,60952:0:0:0:0:
402,192,60780,1,0,0:0:0:0:
182,192,60780,128,0,60866:0:0:0:0:
256,192,60866,128,0,60952:0:0:0:0:
109,192,60952,1,0,0:0:0:0:
329,192,60952,128,0,61038:0:0:0:0:
256,192,61038,1,0,0:0:0:0:
402,192,61038,128,0,61123:0:0:0:0:
329,192,61123,128,0,61809:0:0:0:0:
109,192,61123,1,0,0:0:0:0:
182,192,61123,128,0,61295:0:0:0:0:
475,192,61123,128,0,61209:0:0:0:0:
402,192,61295,1,0,0:0:0:0:
256,192,61295,1,0,0:0:0:0:
109,192,61295,128,0,61466:0:0:0:0:
475,192,61466,1,0,0:0:0:0:
182,192,61466,128,0,61638:0:0:0:0:
402,192,61466,128,0,61552:0:0:0:0:
256,192,61552,128,0,61638:0:0:0:0:
109,192,61638,1,0,0:0:0:0:
475,192,61638,128,0,61723:0:0:0:0:
256,192,61723,1,0,0:0:0:0:
402,192,61723,128,0,61809:0:0:0:0:
182,192,61809,128,0,63180:0:0:0:0:
109,192,61809,128,0,61980:0:0:0:0:
475,192,61809,128,0,61895:0:0:0:0:
256,192,61980,1,0,0:0:0:0:
36,192,61980,1,0,0:0:0:0:
402,192,61980,128,0,62152:0:0:0:0:
109,192,62152,1,0,0:0:0:0:
36,192,62152,1,0,0:0:0:0:
475,192,62152,128,0,62323:0:0:0:0:
329,192,62152,128,0,62238:0:0:0:0:
256,192,62238,128,0,62323:0:0:0:0:
402,192,62323,1,0,0:0:0:0:
109,192,62323,128,0,62409:0:0:0:0:
329,192,62409,128,0,62495:0:0:0:0:
402,192,62495,128,0,62838:0:0:0:0:
36,192,62495,1,0,0:0:0:0:
475,192,62495,128,0,62666:0:0:0:0:
256,192,62495,128,0,62580:0:0:0:0:
109,192,62666,1,0,0:0:0:0:
36,192,62666,1,0,0:0:0:0:
329,192,62666,128,0,62838:0:0:0:0:
256,192,62838,1,0,0:0:0:0:
36,192,62838,1,0,0:0:0:0:
475,192,62838,128,0,62923:0:0:0:0:
402,192,62923,128,0,63009:0:0:0:0:
109,192,63009,1,0,0:0:0:0:
329,192,63009,128,0,63095:0:0:0:0:
256,192,63095,128,0,63180:0:0:0:0:
109,192,63180,128,0,64209:0:0:0:0:
475,192,63180,1,0,0:0:0:0:
36,192,63180,128,0,63352:0:0:0:0:
402,192,63180,128,0,63266:0:0:0:0:
329,192,63352,1,0,0:0:0:0:
182,192,63352,1,0,0:0:0:0:
475,192,63352,128,0,63523:0:0:0:0:
402,192,63523,128,0,63866:0:0:0:0:
36,192,63523,128,0,63695:0:0:0:0:
256,192,63523,128,0,63609:0:0:0:0:
182,192,63609,128,0,63695:0:0:0:0:
475,192,63695,1,0,0:0:0:0:
329,192,63695,128,0,63780:0:0:0:0:
182,192,63780,128,0,63866:0:0:0:0:
256,192,63866,128,0,64209:0:0:0:0:
475,192,63866,128,0,64209:0:0:0:0:
329,192,63866,128,0,64038:0:0:0:0:
36,192,63866,128,0,63952:0:0:0:0:
402,192,64038,1,0,0:0:0:0:
182,192,64038,128,0,64209:0:0:0:0:
329,192,64209,128,0,64552:0:0:0:0:
402,192,64209,1,0,0:0:0:0:
36,192,64209,128,0,64295:0:0:0:0:
109,192,64295,128,0,64380:0:0:0:0:
475,192,64380,1,0,0:0:0:0:
182,192,64380,128,0,64466:0:0:0:0:
109,192,64466,128,0,64552:0:0:0:0:
36,192,64552,128,0,65238:0:0:0:0:
402,192,64552,128,0,64895:0:0:0:0:
256,192,64552,128,0,64723:0:0:0:0:
475,192,64552,1,0,0:0:0:0:
182,192,64723,1,0,0:0:0:0:
329,192,64723,128,0,64895:0:0:0:0:
182,192,64895,128,0,65238:0:0:0:0:
109,192,64895,1,0,0:0:0:0:
256,192,64895,128,0,65066:0:0:0:0:
475,192,64895,128,0,64980:0:0:0:0:
402,192,64980,128,0,65066:0:0:0:0:
329,192,65066,128,0,65152:0:0:0:0:
402,192,65152,128,0,65238:0:0:0:0:
475,192,65238,128,0,65580:0:0:0:0:
256,192,65238,128,0,65923:0:0:0:0:
109,192,65238,1,0,0:0:0:0:
329,192,65238,128,0,65409:0:0:0:0:
36,192,65409,1,0,0:0:0:0:
182,192,65409,128,0,65580:0:0:0:0:
329,192,65580,128,0,65923:0:0:0:0:
109,192,65580,1,0,0:0:0:0:
402,192,65580,1,0,0:0:0:0:
36,192,65580,128,0,65752:0:0:0:0:
182,192,65752,1,0,0:0:0:0:
475,192,65752,1,0,0:0:0:0:
109,192,65838,1,0,0:0:0:0:
402,192,65838,1,0,0:0:0:0:
475,192,65923,1,0,0:0:0:0:
36,192,65923,128,0,66609:0:0:0:0:
182,192,65923,128,0,66095:0:0:0:0:
402,192,66095,1,0,0:0:0:0:
109,192,66095,1,0,0:0:0:0:
256,192,66095,128,0,66266:0:0:0:0:
329,192,66266,1,0,0:0:0:0:
182,192,66266,128,0,66438:0:0:0:0:
475,192,66266,128,0,66352:0:0:0:0:
402,192,66352,128,0,66438:0:0:0:0:
109,192,66438,1,0,0:0:0:0:
329,192,66438,128,0,66523:0:0:0:0:
256,192,66523,1,0,0:0:0:0:
402,192,66523,128,0,66609:0:0:0:0:
182,192,66609,128,0,67295:0:0:0:0:
109,192,66609,1,0,0:0:0:0:
329,192,66609,128,0,66780:0:0:0:0:
475,192,66609,128,0,66695:0:0:0:0:
402,192,66780,1,0,0:0:0:0:
36,192,66780,1,0,0:0:0:0:
256,192,66780,128,0,66952:0:0:0:0:
109,192,66952,1,0,0:0:0:0:
329,192,66952,128,0,67123:0:0:0:0:
475,192,66952,128,0,67038:0:0:0:0:
402,192,67038,128,0,67123:0:0:0:0:
256,192,67123,128,0,67209:0:0:0:0:
36,192,67123,128,0,67209:0:0:0:0:
329,192,67209,128,0,67295:0:0:0:0:
109,192,67209,128,0,67295:0:0:0:0:
256,192,67295,128,0,67980:0:0:0:0:
475,192,67295,1,0,0:0:0:0:
402,192,67295,128,0,67466:0:0:0:0:
36,192,67295,128,0,67380:0:0:0:0:
329,192,67466,1,0,0:0:0:0:
182,192,67466,128,0,67638:0:0:0:0:
109,192,67638,1,0,0:0:0:0:
36,192,67638,128,0,67809:0:0:0:0:
475,192,67638,128,0,67723:0:0:0:0:
329,192,67723,128,0,67809:0:0:0:0:
475,192,67809,1,0,0:0:0:0:
182,192,67809,128,0,67895:0:0:0:0:
402,192,67895,1,0,0:0:0:0:
109,192,67895,128,0,67980:0:0:0:0:
475,192,67980,128,0,68666:0:0:0:0:
182,192,67980,128,0,68152:0:0:0:0:
36,192,67980,1,0,0:0:0:0:
402,192,68152,1,0,0:0:0:0:
109,192,68152,1,0,0:0:0:0:
329,192,68152,128,0,68323:0:0:0:0:
182,192,68323,1,0,0:0:0:0:
36,192,68323,1,0,0:0:0:0:
256,192,68323,128,0,68495:0:0:0:0:
402,192,68495,128,0,68580:0:0:0:0:
182,192,68495,1,0,0:0:0:0:
36,192,68495,1,0,0:0:0:0:
329,192,68580,128,0,68666:0:0:0:0:
109,192,68580,1,0,0:0:0:0:
256,192,68666,128,0,69695:0:0:0:0:
402,192,68666,1,0,0:0:0:0:
182,192,68666,128,0,68838:0:0:0:0:
402,192,68838,1,0,0:0:0:0:
36,192,68838,1,0,0:0:0:0:
475,192,68838,128,0,69009:0:0:0:0:
109,192,69009,128,0,69352:0:0:0:0:
329,192,69009,128,0,69180:0:0:0:0:
182,192,69009,128,0,69095:0:0:0:0:
402,192,69095,128,0,69180:0:0:0:0:
36,192,69180,1,0,0:0:0:0:
475,192,69180,128,0,69266:0:0:0:0:
182,192,69266,128,0,69352:0:0:0:0:
402,192,69352,128,0,69695:0:0:0:0:
36,192,69352,128,0,69523:0:0:0:0:
329,192,69352,128,0,69438:0:0:0:0:
475,192,69523,128,0,69609:0:0:0:0:
182,192,69523,1,0,0:0:0:0:
109,192,69523,1,0,0:0:0:0:
329,192,69609,128,0,69695:0:0:0:0:
109,192,69695,128,0,70038:0:0:0:0:
36,192,69695,1,0,0:0:0:0:
182,192,69695,128,0,69780:0:0:0:0:
256,192,69780,128,0,69866:0:0:0:0:
475,192,69866,1,0,0:0:0:0:
329,192,69866,128,0,69952:0:0:0:0:
402,192,69952,128,0,70038:0:0:0:0:
475,192,70038,128,0,71409:0:0:0:0:
36,192,70038,1,0,0:0:0:0:
256,192,70038,1,0,0:0:0:0:
182,192,70038,128,0,70209:0:0:0:0:
329,192,70209,1,0,0:0:0:0:
402,192,70209,1,0,0:0:0:0:
109,192,70209,128,0,70380:0:0:0:0:
182,192,70380,1,0,0:0:0:0:
256,192,70380,1,0,0:0:0:0:
36,192,70380,128,0,70552:0:0:0:0:
329,192,70466,1,0,0:0:0:0:
402,192,70466,1,0,0:0:0:0:
182,192,70552,1,0,0:0:0:0:
256,192,70552,1,0,0:0:0:0:
402,192,70638,1,0,0:0:0:0:
329,192,70638,1,0,0:0:0:0:
36,192,70723,128,0,71409:0:0:0:0:
109,192,70723,1,0,0:0:0:0:
256,192,70723,128,0,71323:0:0:0:0:
329,192,70895,1,0,0:0:0:0:
402,192,70895,1,0,0:0:0:0:
182,192,70895,1,0,0:0:0:0:
109,192,71066,128,0,71152:0:0:0:0:
182,192,71066,128,0,71152:0:0:0:0:
329,192,71152,128,0,71238:0:0:0:0:
402,192,71152,128,0,71238:0:0:0:0:
182,192,71238,128,0,71323:0:0:0:0:
109,192,71238,128,0,71323:0:0:0:0:
329,192,71323,128,0,71409:0:0:0:0:
402,192,71323,128,0,71409:0:0:0:0:
256,192,71409,128,0,72609:0:0:0:0:
109,192,71409,1,0,0:0:0:0:
182,192,71409,128,0,71580:0:0:0:0:
36,192,71580,1,0,0:0:0:0:
402,192,71580,1,0,0:0:0:0:
329,192,71580,128,0,71752:0:0:0:0:
36,192,71752,128,0,71838:0:0:0:0:
109,192,71752,128,0,71838:0:0:0:0:
475,192,71752,128,0,71838:0:0:0:0:
329,192,71838,128,0,71923:0:0:0:0:
402,192,71838,128,0,71923:0:0:0:0:
475,192,71923,128,0,72009:0:0:0:0:
109,192,71923,128,0,72009:0:0:0:0:
182,192,71923,128,0,72009:0:0:0:0:
329,192,72009,128,0,72095:0:0:0:0:
402,192,72009,128,0,72095:0:0:0:0:
109,192,72095,128,0,73980:0:0:0:0:
475,192,72095,128,0,72180:0:0:0:0:
182,192,72095,128,0,72180:0:0:0:0:
36,192,72095,128,0,72180:0:0:0:0:
402,192,72266,1,0,0:0:0:0:
182,192,72266,1,0,0:0:0:0:
329,192,72266,1,0,0:0:0:0:
475,192,72438,1,0,0:0:0:0:
402,192,72438,1,0,0:0:0:0:
36,192,72438,1,0,0:0:0:0:
329,192,72609,128,0,72695:0:0:0:0:
475,192,72609,1,0,0:0:0:0:
182,192,72609,1,0,0:0:0:0:
402,192,72695,128,0,72780:0:0:0:0:
329,192,72780,128,0,73466:0:0:0:0:
36,192,72780,1,0,0:0:0:0:
256,192,72780,128,0,72952:0:0:0:0:
475,192,72952,1,0,0:0:0:0:
182,192,72952,1,0,0:0:0:0:
402,192,72952,128,0,73123:0:0:0:0:
36,192,73123,128,0,73209:0:0:0:0:
256,192,73123,128,0,73209:0:0:0:0:
475,192,73123,128,0,73209:0:0:0:0:
182,192,73209,128,0,73295:0:0:0:0:
402,192,73209,128,0,73295:0:0:0:0:
256,192,73295,128,0,73380:0:0:0:0:
475,192,73295,128,0,73380:0:0:0:0:
182,192,73380,128,0,73466:0:0:0:0:
402,192,73380,128,0,73466:0:0:0:0:
256,192,73466,128,0,74495:0:0:0:0:
36,192,73466,128,0,73552:0:0:0:0:
475,192,73466,128,0,73552:0:0:0:0:
182,192,73638,1,0,0:0:0:0:
329,192,73638,1,0,0:0:0:0:
402,192,73638,1,0,0:0:0:0:
36,192,73809,1,0,0:0:0:0:
329,192,73809,1,0,0:0:0:0:
475,192,73809,128,0,73895:0:0:0:0:
402,192,73895,128,0,73980:0:0:0:0:
36,192,73980,128,0,74066:0:0:0:0:
182,192,73980,1,0,0:0:0:0:
329,192,73980,128,0,74066:0:0:0:0:
109,192,74066,128,0,74152:0:0:0:0:
475,192,74066,128,0,74152:0:0:0:0:
182,192,74152,128,0,74838:0:0:0:0:
402,192,74152,1,0,0:0:0:0:
329,192,74152,128,0,74323:0:0:0:0:
36,192,74323,1,0,0:0:0:0:
402,192,74323,128,0,74495:0:0:0:0:
329,192,74495,128,0,75180:0:0:0:0:
109,192,74495,128,0,74580:0:0:0:0:
475,192,74495,128,0,74580:0:0:0:0:
36,192,74580,128,0,74666:0:0:0:0:
256,192,74666,128,0,74752:0:0:0:0:
402,192,74666,128,0,74752:0:0:0:0:
109,192,74752,128,0,74838:0:0:0:0:
36,192,74838,128,0,75523:0:0:0:0:
256,192,74838,128,0,74923:0:0:0:0:
475,192,74838,128,0,74923:0:0:0:0:
109,192,75009,1,0,0:0:0:0:
402,192,75009,1,0,0:0:0:0:
475,192,75180,128,0,75866:0:0:0:0:
109,192,75180,128,0,75266:0:0:0:0:
182,192,75180,128,0,75266:0:0:0:0:
256,192,75180,128,0,75266:0:0:0:0:
182,192,75352,1,0,0:0:0:0:
329,192,75352,1,0,0:0:0:0:
109,192,75523,128,0,76723:0:0:0:0:
182,192,75523,128,0,75609:0:0:0:0:
256,192,75523,128,0,75609:0:0:0:0:
402,192,75523,128,0,75609:0:0:0:0:
329,192,75695,1,0,0:0:0:0:
402,192,75695,1,0,0:0:0:0:
256,192,75780,1,0,0:0:0:0:
402,192,75866,128,0,76723:0:0:0:0:
36,192,75866,128,0,75952:0:0:0:0:
329,192,75866,128,0,75952:0:0:0:0:
182,192,75952,128,0,76038:0:0:0:0:
36,192,76038,128,0,76123:0:0:0:0:
256,192,76038,128,0,76123:0:0:0:0:
475,192,76038,128,0,76123:0:0:0:0:
182,192,76123,128,0,76209:0:0:0:0:
256,192,76209,128,0,76895:0:0:0:0:
36,192,76209,128,0,76295:0:0:0:0:
329,192,76209,128,0,76295:0:0:0:0:
475,192,76209,128,0,76295:0:0:0:0:
329,192,76380,1,0,0:0:0:0:
182,192,76380,1,0,0:0:0:0:
36,192,76552,1,0,0:0:0:0:
182,192,76552,1,0,0:0:0:0:
475,192,76552,1,0,0:0:0:0:
36,192,76723,128,0,76809:0:0:0:0:
475,192,76723,128,0,76809:0:0:0:0:
182,192,76809,128,0,76895:0:0:0:0:
329,192,76809,128,0,76895:0:0:0:0:
36,192,76895,128,0,78266:0:0:0:0:
475,192,76895,128,0,78266:0:0:0:0:
109,192,76895,128,0,76980:0:0:0:0:
402,192,76895,128,0,76980:0:0:0:0:
182,192,76980,128,0,77066:0:0:0:0:
256,192,77066,128,0,77152:0:0:0:0:
329,192,77152,128,0,77238:0:0:0:0:
109,192,77238,128,0,77323:0:0:0:0:
402,192,77238,128,0,77323:0:0:0:0:
256,192,77323,128,0,77409:0:0:0:0:
182,192,77323,128,0,77409:0:0:0:0:
402,192,77409,128,0,77495:0:0:0:0:
329,192,77409,128,0,77495:0:0:0:0:
182,192,77495,128,0,77580:0:0:0:0:
109,192,77495,128,0,77580:0:0:0:0:
329,192,77580,128,0,77666:0:0:0:0:
256,192,77580,128,0,77666:0:0:0:0:
109,192,77666,128,0,77752:0:0:0:0:
402,192,77666,128,0,77752:0:0:0:0:
182,192,77752,128,0,77838:0:0:0:0:
256,192,77752,128,0,77838:0:0:0:0:
402,192,77838,128,0,77923:0:0:0:0:
329,192,77838,128,0,77923:0:0:0:0:
109,192,77923,128,0,78009:0:0:0:0:
256,192,77923,128,0,78009:0:0:0:0:
182,192,78009,128,0,78095:0:0:0:0:
329,192,78009,128,0,78095:0:0:0:0:
256,192,78095,128,0,78180:0:0:0:0:
402,192,78095,128,0,78180:0:0:0:0:
329,192,78180,128,0,78266:0:0:0:0:
182,192,78180,128,0,78266:0:0:0:0:
109,192,78266,128,0,78352:0:0:0:0:
256,192,78266,128,0,78352:0:0:0:0:
402,192,78266,128,0,78352:0:0:0:0:
475,192,78609,128,0,79638:0:0:0:0:
329,192,78609,128,0,78695:0:0:0:0:
402,192,78609,128,0,78695:0:0:0:0:
36,192,78952,128,0,79638:0:0:0:0:
182,192,78952,128,0,79038:0:0:0:0:
109,192,78952,128,0,79038:0:0:0:0:
109,192,79123,128,0,79209:0:0:0:0:
256,192,79123,128,0,79209:0:0:0:0:
182,192,79295,128,0,79380:0:0:0:0:
329,192,79295,128,0,79380:0:0:0:0:
256,192,79466,128,0,79552:0:0:0:0:
402,192,79466,128,0,79552:0:0:0:0:
109,192,79638,128,0,79723:0:0:0:0:
329,192,79638,128,0,79723:0:0:0:0:
402,192,79638,128,0,79723:0:0:0:0:
256,192,79638,128,0,79980:0:0:0:0:
109,192,79809,128,0,79895:0:0:0:0:
329,192,79809,128,0,79895:0:0:0:0:
402,192,79809,128,0,79895:0:0:0:0:
329,192,79980,128,0,80066:0:0:0:0:
109,192,79980,128,0,80066:0:0:0:0:
402,192,79980,128,0,80066:0:0:0:0:
36,192,79980,128,0,80323:0:0:0:0:
475,192,79980,128,0,80066:0:0:0:0:
256,192,80152,128,0,80238:0:0:0:0:
182,192,80152,128,0,80238:0:0:0:0:
329,192,80238,128,0,80323:0:0:0:0:
402,192,80238,128,0,80323:0:0:0:0:
109,192,80323,128,0,80409:0:0:0:0:
182,192,80323,128,0,80409:0:0:0:0:
475,192,80323,128,0,80666:0:0:0:0:
109,192,80495,128,0,80580:0:0:0:0:
182,192,80495,128,0,80580:0:0:0:0:
109,192,80666,128,0,80752:0:0:0:0:
182,192,80666,128,0,80752:0:0:0:0:
402,192,80666,128,0,81009:0:0:0:0:
329,192,80666,128,0,80752:0:0:0:0:
182,192,80838,128,0,80923:0:0:0:0:
109,192,80838,128,0,80923:0:0:0:0:
36,192,80838,128,0,81009:0:0:0:0:
256,192,80923,128,0,81009:0:0:0:0:
329,192,80923,128,0,81009:0:0:0:0:
182,192,81009,128,0,81095:0:0:0:0:
109,192,81009,128,0,81095:0:0:0:0:
475,192,81009,128,0,81352:0:0:0:0:
329,192,81180,128,0,81266:0:0:0:0:
256,192,81180,128,0,81266:0:0:0:0:
182,192,81352,128,0,81438:0:0:0:0:
402,192,81352,128,0,81523:0:0:0:0:
36,192,81352,128,0,81609:0:0:0:0:
256,192,81352,128,0,81438:0:0:0:0:
109,192,81523,128,0,81609:0:0:0:0:
329,192,81523,128,0,81695:0:0:0:0:
256,192,81695,128,0,81866:0:0:0:0:
36,192,81695,128,0,81780:0:0:0:0:
475,192,81695,128,0,82038:0:0:0:0:
182,192,81695,128,0,81780:0:0:0:0:
329,192,81866,128,0,81952:0:0:0:0:
109,192,81866,128,0,81952:0:0:0:0:
402,192,82038,128,0,82123:0:0:0:0:
182,192,82038,128,0,82380:0:0:0:0:
36,192,82038,128,0,82123:0:0:0:0:
256,192,82038,128,0,82123:0:0:0:0:
329,192,82209,128,0,82295:0:0:0:0:
475,192,82209,128,0,82295:0:0:0:0:
109,192,82209,128,0,82295:0:0:0:0:
36,192,82380,128,0,82466:0:0:0:0:
256,192,82380,128,0,82552:0:0:0:0:
402,192,82380,128,0,82552:0:0:0:0:
109,192,82466,128,0,82552:0:0:0:0:
182,192,82552,128,0,82723:0:0:0:0:
329,192,82552,128,0,82723:0:0:0:0:
109,192,82638,128,0,82809:0:0:0:0:
36,192,82723,128,0,82895:0:0:0:0:
256,192,82723,128,0,83066:0:0:0:0:
475,192,82723,128,0,82809:0:0:0:0:
402,192,82809,128,0,82895:0:0:0:0:
182,192,82895,128,0,82980:0:0:0:0:
329,192,82895,128,0,82980:0:0:0:0:
402,192,82980,128,0,83066:0:0:0:0:
475,192,83066,128,0,83238:0:0:0:0:
109,192,83066,128,0,83238:0:0:0:0:
36,192,83066,128,0,83409:0:0:0:0:
182,192,83152,128,0,83238:0:0:0:0:
329,192,83238,128,0,83323:0:0:0:0:
256,192,83238,128,0,83409:0:0:0:0:
182,192,83323,128,0,83409:0:0:0:0:
109,192,83409,128,0,83580:0:0:0:0:
475,192,83409,128,0,83923:0:0:0:0:
402,192,83409,128,0,83495:0:0:0:0:
329,192,83495,128,0,83580:0:0:0:0:
256,192,83580,128,0,84095:0:0:0:0:
182,192,83580,128,0,83666:0:0:0:0:
329,192,83666,128,0,83752:0:0:0:0:
109,192,83752,128,0,83838:0:0:0:0:
402,192,83752,128,0,83838:0:0:0:0:
36,192,83752,128,0,83923:0:0:0:0:
182,192,83838,128,0,83923:0:0:0:0:
329,192,83838,128,0,83923:0:0:0:0:
109,192,83923,128,0,84009:0:0:0:0:
402,192,83923,128,0,84009:0:0:0:0:
475,192,84009,128,0,84095:0:0:0:0:
36,192,84009,128,0,84095:0:0:0:0:
109,192,84095,128,0,84180:0:0:0:0:
402,192,84095,128,0,84180:0:0:0:0:
182,192,84180,128,0,84266:0:0:0:0:
329,192,84180,128,0,84266:0:0:0:0:
109,192,84266,128,0,84352:0:0:0:0:
402,192,84266,128,0,84352:0:0:0:0:
182,192,84352,128,0,84438:0:0:0:0:
329,192,84352,128,0,84438:0:0:0:0:
402,192,84438,128,0,84523:0:0:0:0:
109,192,84438,128,0,84523:0:0:0:0:
256,192,84438,128,0,84523:0:0:0:0:
36,192,84438,128,0,84523:0:0:0:0:
475,192,84438,128,0,84523:0:0:0:0:
182,192,84609,128,0,84695:0:0:0:0:
329,192,84609,128,0,84695:0:0:0:0:
36,192,84780,128,0,84866:0:0:0:0:
256,192,84780,128,0,84866:0:0:0:0:
475,192,84780,128,0,84866:0:0:0:0:
109,192,84780,128,0,84866:0:0:0:0:
402,192,84780,128,0,84866:0:0:0:0:
182,192,84952,128,0,85038:0:0:0:0:
329,192,84952,128,0,85038:0:0:0:0:
36,192,85123,128,0,85209:0:0:0:0:
256,192,85123,128,0,85209:0:0:0:0:
475,192,85123,128,0,85209:0:0:0:0:
182,192,85123,128,0,85552:0:0:0:0:
329,192,85123,128,0,85552:0:0:0:0:
36,192,85295,128,0,85380:0:0:0:0:
256,192,85295,128,0,85380:0:0:0:0:
475,192,85295,128,0,85380:0:0:0:0:
36,192,85466,128,0,85552:0:0:0:0:
256,192,85466,128,0,85552:0:0:0:0:
475,192,85466,128,0,85552:0:0:0:0:
109,192,85638,128,0,85723:0:0:0:0:
402,192,85638,128,0,85723:0:0:0:0:
329,192,85723,128,0,85809:0:0:0:0:
182,192,85723,128,0,85809:0:0:0:0:
109,192,85809,128,0,85895:0:0:0:0:
402,192,85809,128,0,85895:0:0:0:0:
256,192,85809,128,0,85895:0:0:0:0:
36,192,85809,128,0,86238:0:0:0:0:
475,192,85809,128,0,86238:0:0:0:0:
109,192,85980,128,0,86066:0:0:0:0:
402,192,85980,128,0,86066:0:0:0:0:
256,192,85980,128,0,86066:0:0:0:0:
109,192,86152,128,0,86238:0:0:0:0:
402,192,86152,128,0,86238:0:0:0:0:
256,192,86152,128,0,86238:0:0:0:0:
256,192,86323,128,0,86409:0:0:0:0:
329,192,86323,128,0,86409:0:0:0:0:
182,192,86323,128,0,86409:0:0:0:0:
36,192,86409,128,0,86495:0:0:0:0:
475,192,86409,128,0,86495:0:0:0:0:
402,192,86409,128,0,86495:0:0:0:0:
109,192,86409,128,0,86495:0:0:0:0:
182,192,86495,128,0,86580:0:0:0:0:
256,192,86495,128,0,86752:0:0:0:0:
329,192,86495,128,0,86580:0:0:0:0:
109,192,86666,128,0,86923:0:0:0:0:
36,192,86666,128,0,86752:0:0:0:0:
475,192,86666,128,0,86752:0:0:0:0:
402,192,86838,128,0,87095:0:0:0:0:
329,192,86838,128,0,86923:0:0:0:0:
182,192,86838,128,0,86923:0:0:0:0:
256,192,86838,128,0,86923:0:0:0:0:
182,192,87009,128,0,87266:0:0:0:0:
36,192,87009,128,0,87095:0:0:0:0:
475,192,87009,128,0,87095:0:0:0:0:
329,192,87180,128,0,87266:0:0:0:0:
109,192,87180,128,0,87266:0:0:0:0:
256,192,87180,128,0,87266:0:0:0:0:
475,192,87180,128,0,87352:0:0:0:0:
182,192,87352,128,0,87523:0:0:0:0:
329,192,87352,128,0,87438:0:0:0:0:
36,192,87352,128,0,87438:0:0:0:0:
402,192,87352,128,0,87438:0:0:0:0:
256,192,87523,128,0,87695:0:0:0:0:
475,192,87523,128,0,87609:0:0:0:0:
109,192,87523,128,0,87609:0:0:0:0:
36,192,87523,128,0,87609:0:0:0:0:
36,192,87695,128,0,87780:0:0:0:0:
475,192,87695,128,0,87780:0:0:0:0:
182,192,87695,128,0,87780:0:0:0:0:
329,192,87695,128,0,87866:0:0:0:0:
475,192,87866,128,0,88038:0:0:0:0:
109,192,87866,128,0,88038:0:0:0:0:
36,192,87866,128,0,88038:0:0:0:0:
182,192,87952,128,0,88038:0:0:0:0:
256,192,87952,128,0,88038:0:0:0:0:
402,192,88038,128,0,88123:0:0:0:0:
329,192,88038,128,0,88123:0:0:0:0:
256,192,88123,128,0,88209:0:0:0:0:
182,192,88123,128,0,88209:0:0:0:0:
36,192,88209,128,0,88380:0:0:0:0:
109,192,88209,128,0,88380:0:0:0:0:
475,192,88209,128,0,88380:0:0:0:0:
402,192,88295,128,0,88380:0:0:0:0:
329,192,88295,128,0,88380:0:0:0:0:
182,192,88380,128,0,88552:0:0:0:0:
256,192,88380,128,0,88466:0:0:0:0:
329,192,88466,128,0,88552:0:0:0:0:
402,192,88552,128,0,88723:0:0:0:0:
36,192,88552,128,0,88638:0:0:0:0:
475,192,88552,128,0,88638:0:0:0:0:
109,192,88638,128,0,88723:0:0:0:0:
329,192,88638,128,0,88723:0:0:0:0:
182,192,88723,128,0,88809:0:0:0:0:
475,192,88723,128,0,88809:0:0:0:0:
256,192,88723,128,0,88895:0:0:0:0:
36,192,88809,128,0,88895:0:0:0:0:
329,192,88895,128,0,88980:0:0:0:0:
475,192,88895,128,0,89066:0:0:0:0:
109,192,88895,128,0,88980:0:0:0:0:
402,192,88980,128,0,89066:0:0:0:0:
182,192,88980,128,0,89066:0:0:0:0:
109,192,89066,128,0,89238:0:0:0:0:
36,192,89066,128,0,89238:0:0:0:0:
256,192,89152,128,0,89238:0:0:0:0:
329,192,89152,128,0,89238:0:0:0:0:
182,192,89238,128,0,89323:0:0:0:0:
402,192,89238,128,0,89323:0:0:0:0:
475,192,89238,128,0,89323:0:0:0:0:
109,192,89409,128,0,89495:0:0:0:0:
256,192,89409,128,0,89495:0:0:0:0:
329,192,89409,128,0,89495:0:0:0:0:
182,192,89580,128,0,89666:0:0:0:0:
36,192,89580,128,0,89666:0:0:0:0:
402,192,89580,128,0,89666:0:0:0:0:
329,192,89580,128,0,89666:0:0:0:0:
109,192,89752,128,0,89838:0:0:0:0:
256,192,89752,128,0,89838:0:0:0:0:
475,192,89752,128,0,89838:0:0:0:0:
402,192,89752,128,0,89838:0:0:0:0:
36,192,89923,128,0,89966:0:0:0:0:
182,192,89923,128,0,89966:0:0:0:0:
329,192,89923,128,0,89966:0:0:0:0:
109,192,90095,128,0,90138:0:0:0:0:
256,192,90095,128,0,90138:0:0:0:0:
402,192,90095,128,0,90138:0:0:0:0:
182,192,90266,128,0,90309:0:0:0:0:
329,192,90266,128,0,90309:0:0:0:0:
475,192,90266,128,0,90309:0:0:0:0:
402,192,90438,128,0,90480:0:0:0:0:
256,192,90438,128,0,90480:0:0:0:0:
109,192,90438,128,0,90480:0:0:0:0:
329,192,90609,128,0,91638:0:0:0:0:
182,192,90609,128,0,91123:0:0:0:0:
475,192,90609,128,0,90780:0:0:0:0:
256,192,90609,128,0,90780:0:0:0:0:
36,192,90609,128,0,90695:0:0:0:0:
109,192,90609,128,0,90695:0:0:0:0:
402,192,90780,128,0,90952:0:0:0:0:
36,192,90780,128,0,90866:0:0:0:0:
109,192,90780,128,0,90866:0:0:0:0:
256,192,90952,128,0,91123:0:0:0:0:
475,192,90952,128,0,91123:0:0:0:0:
109,192,90952,128,0,91038:0:0:0:0:
36,192,90952,128,0,91038:0:0:0:0:
36,192,91123,128,0,91295:0:0:0:0:
109,192,91209,128,0,91295:0:0:0:0:
182,192,91295,128,0,92152:0:0:0:0:
256,192,91295,128,0,91466:0:0:0:0:
402,192,91295,128,0,91380:0:0:0:0:
475,192,91295,128,0,91380:0:0:0:0:
36,192,91466,128,0,91809:0:0:0:0:
402,192,91466,128,0,91552:0:0:0:0:
475,192,91466,128,0,91552:0:0:0:0:
256,192,91638,128,0,91809:0:0:0:0:
402,192,91638,128,0,91723:0:0:0:0:
475,192,91638,128,0,91723:0:0:0:0:
402,192,91809,128,0,91895:0:0:0:0:
109,192,91809,128,0,91980:0:0:0:0:
329,192,91809,128,0,91895:0:0:0:0:
475,192,91895,128,0,91980:0:0:0:0:
36,192,91980,128,0,93180:0:0:0:0:
256,192,91980,128,0,92152:0:0:0:0:
402,192,91980,128,0,92066:0:0:0:0:
329,192,91980,128,0,92066:0:0:0:0:
109,192,92152,128,0,92323:0:0:0:0:
329,192,92152,128,0,92238:0:0:0:0:
402,192,92152,128,0,92238:0:0:0:0:
475,192,92323,128,0,92495:0:0:0:0:
402,192,92323,128,0,92495:0:0:0:0:
256,192,92323,128,0,92409:0:0:0:0:
329,192,92323,128,0,92409:0:0:0:0:
329,192,92495,128,0,92666:0:0:0:0:
256,192,92495,128,0,92580:0:0:0:0:
182,192,92495,128,0,92580:0:0:0:0:
402,192,92666,128,0,93352:0:0:0:0:
256,192,92666,128,0,92838:0:0:0:0:
109,192,92666,128,0,92752:0:0:0:0:
182,192,92666,128,0,92752:0:0:0:0:
475,192,92666,128,0,92838:0:0:0:0:
109,192,92838,128,0,93009:0:0:0:0:
182,192,92838,128,0,93009:0:0:0:0:
475,192,93009,128,0,93180:0:0:0:0:
329,192,93009,128,0,93180:0:0:0:0:
256,192,93009,128,0,93352:0:0:0:0:
109,192,93180,128,0,93352:0:0:0:0:
329,192,93266,128,0,93352:0:0:0:0:
182,192,93352,128,0,93438:0:0:0:0:
36,192,93352,128,0,93523:0:0:0:0:
475,192,93352,128,0,93438:0:0:0:0:
402,192,93438,128,0,93523:0:0:0:0:
256,192,93438,128,0,93609:0:0:0:0:
475,192,93523,128,0,93866:0:0:0:0:
109,192,93523,128,0,93609:0:0:0:0:
329,192,93609,128,0,93695:0:0:0:0:
182,192,93609,128,0,93695:0:0:0:0:
36,192,93695,128,0,93780:0:0:0:0:
402,192,93695,128,0,93780:0:0:0:0:
109,192,93780,128,0,93866:0:0:0:0:
256,192,93780,128,0,93866:0:0:0:0:
402,192,93866,128,0,93952:0:0:0:0:
36,192,93866,128,0,93952:0:0:0:0:
182,192,93952,128,0,94038:0:0:0:0:
329,192,93952,128,0,94038:0:0:0:0:
256,192,94038,128,0,94123:0:0:0:0:
475,192,94038,128,0,94123:0:0:0:0:
182,192,94123,128,0,94295:0:0:0:0:
402,192,94123,128,0,94209:0:0:0:0:
109,192,94209,128,0,94380:0:0:0:0:
329,192,94209,128,0,94295:0:0:0:0:
36,192,94295,128,0,94466:0:0:0:0:
256,192,94295,128,0,94380:0:0:0:0:
475,192,94380,128,0,94723:0:0:0:0:
329,192,94380,128,0,94466:0:0:0:0:
402,192,94466,128,0,94723:0:0:0:0:
256,192,94466,128,0,94552:0:0:0:0:
329,192,94552,128,0,94723:0:0:0:0:
182,192,94552,128,0,94638:0:0:0:0:
256,192,94638,128,0,94723:0:0:0:0:
109,192,94638,128,0,94723:0:0:0:0:
182,192,94723,128,0,94809:0:0:0:0:
36,192,94723,128,0,94809:0:0:0:0:
329,192,94809,128,0,94895:0:0:0:0:
475,192,94809,128,0,94895:0:0:0:0:
36,192,94895,128,0,95066:0:0:0:0:
182,192,94895,128,0,95066:0:0:0:0:
475,192,94980,128,0,95066:0:0:0:0:
329,192,94980,128,0,95066:0:0:0:0:
256,192,95066,128,0,95152:0:0:0:0:
109,192,95066,128,0,95152:0:0:0:0:
329,192,95152,128,0,95238:0:0:0:0:
402,192,95152,128,0,95238:0:0:0:0:
182,192,95238,128,0,95323:0:0:0:0:
109,192,95238,128,0,95323:0:0:0:0:
329,192,95323,128,0,95409:0:0:0:0:
402,192,95323,128,0,95409:0:0:0:0:
256,192,95409,128,0,95452:0:0:0:0:
182,192,95409,128,0,95452:0:0:0:0:
36,192,95409,128,0,95666:0:0:0:0:
475,192,95409,128,0,95666:0:0:0:0:
109,192,95580,128,0,95623:0:0:0:0:
329,192,95580,128,0,95623:0:0:0:0:
402,192,95580,128,0,95623:0:0:0:0:
256,192,95752,128,0,95795:0:0:0:0:
109,192,95752,128,0,96009:0:0:0:0:
402,192,95752,128,0,96009:0:0:0:0:
182,192,95923,128,0,95966:0:0:0:0:
329,192,95923,128,0,95966:0:0:0:0:
182,192,96095,128,0,97123:0:0:0:0:
329,192,96095,128,0,96609:0:0:0:0:
36,192,96095,128,0,96266:0:0:0:0:
256,192,96095,128,0,96266:0:0:0:0:
475,192,96095,128,0,96180:0:0:0:0:
402,192,96095,128,0,96180:0:0:0:0:
109,192,96266,128,0,96438:0:0:0:0:
475,192,96266,128,0,96352:0:0:0:0:
402,192,96266,128,0,96352:0:0:0:0:
256,192,96438,128,0,96609:0:0:0:0:
36,192,96438,128,0,96609:0:0:0:0:
402,192,96438,128,0,96523:0:0:0:0:
475,192,96438,128,0,96523:0:0:0:0:
475,192,96609,128,0,96780:0:0:0:0:
402,192,96695,128,0,96780:0:0:0:0:
329,192,96780,128,0,97123:0:0:0:0:
256,192,96780,128,0,96952:0:0:0:0:
109,192,96780,128,0,96866:0:0:0:0:
36,192,96780,128,0,96866:0:0:0:0:
109,192,96952,128,0,97038:0:0:0:0:
36,192,96952,128,0,97038:0:0:0:0:
475,192,96952,128,0,97295:0:0:0:0:
256,192,97123,128,0,97295:0:0:0:0:
109,192,97123,128,0,97209:0:0:0:0:
36,192,97123,128,0,97209:0:0:0:0:
402,192,97123,128,0,97295:0:0:0:0:
109,192,97295,128,0,97380:0:0:0:0:
182,192,97295,128,0,97380:0:0:0:0:
256,192,97380,128,0,97466:0:0:0:0:
475,192,97466,128,0,98752:0:0:0:0:
36,192,97466,128,0,97638:0:0:0:0:
329,192,97466,128,0,97552:0:0:0:0:
402,192,97466,128,0,97552:0:0:0:0:
402,192,97638,128,0,97809:0:0:0:0:
182,192,97638,128,0,97723:0:0:0:0:
109,192,97638,128,0,97723:0:0:0:0:
329,192,97638,128,0,97809:0:0:0:0:
36,192,97809,128,0,97980:0:0:0:0:
109,192,97809,128,0,97980:0:0:0:0:
256,192,97809,128,0,97895:0:0:0:0:
182,192,97809,128,0,97895:0:0:0:0:
182,192,97980,128,0,98152:0:0:0:0:
256,192,97980,128,0,98066:0:0:0:0:
329,192,97980,128,0,98066:0:0:0:0:
402,192,98152,128,0,98238:0:0:0:0:
329,192,98152,128,0,98238:0:0:0:0:
36,192,98152,128,0,98323:0:0:0:0:
109,192,98152,128,0,98323:0:0:0:0:
256,192,98152,128,0,98238:0:0:0:0:
182,192,98323,128,0,98409:0:0:0:0:
402,192,98323,128,0,98409:0:0:0:0:
256,192,98323,128,0,98495:0:0:0:0:
109,192,98495,128,0,98580:0:0:0:0:
329,192,98495,128,0,98580:0:0:0:0:
182,192,98495,128,0,98666:0:0:0:0:
36,192,98666,128,0,98752:0:0:0:0:
109,192,98666,128,0,98752:0:0:0:0:
256,192,98666,128,0,98752:0:0:0:0:
329,192,98752,128,0,98838:0:0:0:0:
402,192,98838,128,0,98923:0:0:0:0:
475,192,98838,128,0,99009:0:0:0:0:
36,192,98838,128,0,98923:0:0:0:0:
182,192,98838,128,0,98923:0:0:0:0:
256,192,98923,128,0,99009:0:0:0:0:
329,192,99009,128,0,99095:0:0:0:0:
109,192,99009,128,0,99095:0:0:0:0:
36,192,99009,128,0,99180:0:0:0:0:
182,192,99095,128,0,99180:0:0:0:0:
475,192,99180,128,0,99266:0:0:0:0:
402,192,99180,128,0,99266:0:0:0:0:
256,192,99180,128,0,99352:0:0:0:0:
109,192,99266,128,0,99352:0:0:0:0:
182,192,99352,128,0,99438:0:0:0:0:
329,192,99352,128,0,99523:0:0:0:0:
36,192,99352,128,0,99438:0:0:0:0:
402,192,99438,128,0,99523:0:0:0:0:
475,192,99523,128,0,99695:0:0:0:0:
109,192,99523,128,0,99609:0:0:0:0:
36,192,99523,128,0,99609:0:0:0:0:
256,192,99523,128,0,99609:0:0:0:0:
329,192,99609,128,0,99695:0:0:0:0:
402,192,99695,128,0,99866:0:0:0:0:
182,192,99695,128,0,99780:0:0:0:0:
36,192,99695,128,0,99780:0:0:0:0:
329,192,99780,128,0,99866:0:0:0:0:
256,192,99866,128,0,99952:0:0:0:0:
475,192,99866,128,0,100038:0:0:0:0:
36,192,99866,128,0,99952:0:0:0:0:
109,192,99866,128,0,99952:0:0:0:0:
402,192,99952,128,0,100038:0:0:0:0:
109,192,100038,128,0,100123:0:0:0:0:
182,192,100038,128,0,100123:0:0:0:0:
329,192,100038,128,0,100209:0:0:0:0:
402,192,100123,128,0,100209:0:0:0:0:
475,192,100209,128,0,100380:0:0:0:0:
256,192,100209,128,0,100295:0:0:0:0:
36,192,100209,128,0,100295:0:0:0:0:
182,192,100209,128,0,100295:0:0:0:0:
109,192,100295,128,0,100380:0:0:0:0:
329,192,100380,128,0,100552:0:0:0:0:
182,192,100380,128,0,100552:0:0:0:0:
402,192,100380,128,0,100466:0:0:0:0:
36,192,100466,128,0,100980:0:0:0:0:
475,192,100552,128,0,100895:0:0:0:0:
109,192,100552,128,0,100723:0:0:0:0:
256,192,100552,128,0,101495:0:0:0:0:
402,192,100638,128,0,101066:0:0:0:0:
329,192,100723,128,0,100809:0:0:0:0:
182,192,100723,128,0,100809:0:0:0:0:
109,192,100809,128,0,101152:0:0:0:0:
182,192,100895,128,0,101323:0:0:0:0:
329,192,100895,128,0,101238:0:0:0:0:
475,192,100980,128,0,101066:0:0:0:0:
36,192,101066,128,0,101152:0:0:0:0:
402,192,101152,128,0,101238:0:0:0:0:
109,192,101238,128,0,101323:0:0:0:0:
329,192,101323,128,0,101409:0:0:0:0:
182,192,101409,128,0,101495:0:0:0:0:
329,192,101495,128,0,101580:0:0:0:0:
36,192,101580,1,0,0:0:0:0:
475,192,101580,1,0,0:0:0:0:
402,192,101580,1,0,0:0:0:0:
109,192,101580,1,0,0:0:0:0:
256,192,101580,128,0,101752:0:0:0:0:
109,192,101752,128,0,101838:0:0:0:0:
182,192,101838,128,0,101923:0:0:0:0:
402,192,101923,128,0,102009:0:0:0:0:
329,192,102009,128,0,102095:0:0:0:0:
256,192,102095,128,0,102266:0:0:0:0:
36,192,102266,128,0,102352:0:0:0:0:
182,192,102352,128,0,102438:0:0:0:0:
475,192,102438,128,0,102523:0:0:0:0:
329,192,102523,128,0,102609:0:0:0:0:
256,192,102609,128,0,102780:0:0:0:0:
109,192,102695,128,0,102780:0:0:0:0:
329,192,102780,128,0,102952:0:0:0:0:
182,192,102780,128,0,102952:0:0:0:0:
36,192,102952,128,0,103038:0:0:0:0:
256,192,102952,128,0,103038:0:0:0:0:
475,192,102952,128,0,103038:0:0:0:0:
182,192,103123,128,0,103209:0:0:0:0:
402,192,103123,128,0,103209:0:0:0:0:
475,192,103295,128,0,103380:0:0:0:0:
256,192,103295,128,0,103380:0:0:0:0:
36,192,103295,128,0,103380:0:0:0:0:
109,192,103466,128,0,103552:0:0:0:0:
329,192,103466,128,0,103552:0:0:0:0:
256,192,103638,128,0,103723:0:0:0:0:
36,192,103638,128,0,103723:0:0:0:0:
475,192,103638,128,0,103723:0:0:0:0:
109,192,103809,128,0,103895:0:0:0:0:
402,192,103809,128,0,103895:0:0:0:0:
256,192,103980,128,0,104323:0:0:0:0:
36,192,103980,128,0,104066:0:0:0:0:
475,192,103980,128,0,104066:0:0:0:0:
182,192,104066,128,0,104152:0:0:0:0:
402,192,104066,128,0,104152:0:0:0:0:
36,192,104152,128,0,104238:0:0:0:0:
329,192,104152,128,0,104238:0:0:0:0:
182,192,104238,128,0,104323:0:0:0:0:
402,192,104238,128,0,104323:0:0:0:0:
475,192,104323,128,0,104366:0:0:0:0:
109,192,104323,128,0,104366:0:0:0:0:
329,192,104323,128,0,104366:0:0:0:0:
36,192,104323,128,0,104366:0:0:0:0:
402,192,104495,128,0,104538:0:0:0:0:
256,192,104495,128,0,104538:0:0:0:0:
329,192,104666,128,0,104709:0:0:0:0:
36,192,104666,128,0,104709:0:0:0:0:
475,192,104666,128,0,104709:0:0:0:0:
402,192,104838,128,0,104880:0:0:0:0:
182,192,104838,128,0,104880:0:0:0:0:
36,192,105009,128,0,105052:0:0:0:0:
475,192,105009,128,0,105052:0:0:0:0:
256,192,105009,128,0,105052:0:0:0:0:
329,192,105180,128,0,105223:0:0:0:0:
109,192,105180,128,0,105223:0:0:0:0:
475,192,105352,128,0,105438:0:0:0:0:
36,192,105352,128,0,105438:0:0:0:0:
256,192,105352,128,0,105695:0:0:0:0:
182,192,105352,128,0,105438:0:0:0:0:
329,192,105438,128,0,105523:0:0:0:0:
402,192,105438,128,0,105523:0:0:0:0:
182,192,105523,128,0,105609:0:0:0:0:
109,192,105523,128,0,105609:0:0:0:0:
36,192,105609,128,0,105695:0:0:0:0:
329,192,105609,128,0,105695:0:0:0:0:
402,192,105695,128,0,105780:0:0:0:0:
475,192,105695,128,0,105780:0:0:0:0:
109,192,105695,128,0,105780:0:0:0:0:
182,192,105866,128,0,105952:0:0:0:0:
329,192,105866,128,0,105952:0:0:0:0:
329,192,106038,128,0,106380:0:0:0:0:
475,192,106038,128,0,106123:0:0:0:0:
256,192,106038,128,0,106123:0:0:0:0:
36,192,106038,128,0,106123:0:0:0:0:
182,192,106209,128,0,106380:0:0:0:0:
109,192,106209,128,0,106295:0:0:0:0:
36,192,106380,128,0,106466:0:0:0:0:
256,192,106380,128,0,106466:0:0:0:0:
402,192,106380,128,0,106466:0:0:0:0:
475,192,106380,128,0,106466:0:0:0:0:
109,192,106552,128,0,107066:0:0:0:0:
182,192,106552,128,0,106638:0:0:0:0:
402,192,106723,128,0,107066:0:0:0:0:
36,192,106723,1,0,0:0:0:0:
329,192,106723,1,0,0:0:0:0:
475,192,106895,1,0,0:0:0:0:
256,192,106895,128,0,107066:0:0:0:0:
182,192,106895,1,0,0:0:0:0:
329,192,107066,128,0,107152:0:0:0:0:
475,192,107066,128,0,107152:0:0:0:0:
36,192,107066,128,0,107238:0:0:0:0:
182,192,107066,128,0,107238:0:0:0:0:
402,192,107152,128,0,107238:0:0:0:0:
256,192,107238,128,0,107409:0:0:0:0:
109,192,107238,128,0,107409:0:0:0:0:
329,192,107323,128,0,107409:0:0:0:0:
475,192,107409,128,0,107580:0:0:0:0:
36,192,107409,128,0,107495:0:0:0:0:
182,192,107409,128,0,107580:0:0:0:0:
109,192,107495,128,0,107580:0:0:0:0:
256,192,107580,128,0,107752:0:0:0:0:
402,192,107580,128,0,107752:0:0:0:0:
36,192,107666,128,0,107752:0:0:0:0:
182,192,107666,128,0,107752:0:0:0:0:
109,192,107752,128,0,108095:0:0:0:0:
475,192,107752,128,0,107923:0:0:0:0:
329,192,107752,128,0,107838:0:0:0:0:
256,192,107838,128,0,107923:0:0:0:0:
182,192,107923,128,0,108009:0:0:0:0:
402,192,107923,128,0,108095:0:0:0:0:
329,192,108009,128,0,108180:0:0:0:0:
256,192,108095,128,0,108266:0:0:0:0:
36,192,108095,128,0,108266:0:0:0:0:
475,192,108095,128,0,108266:0:0:0:0:
182,192,108180,128,0,108352:0:0:0:0:
402,192,108266,128,0,108438:0:0:0:0:
109,192,108266,128,0,108438:0:0:0:0:
329,192,108352,128,0,108438:0:0:0:0:
36,192,108438,128,0,108695:0:0:0:0:
182,192,108438,128,0,108523:0:0:0:0:
256,192,108438,128,0,108523:0:0:0:0:
475,192,108438,128,0,108523:0:0:0:0:
182,192,108609,128,0,108695:0:0:0:0:
329,192,108609,128,0,108695:0:0:0:0:
109,192,108780,128,0,108866:0:0:0:0:
256,192,108780,128,0,108866:0:0:0:0:
402,192,108780,128,0,109038:0:0:0:0:
182,192,108952,128,0,109038:0:0:0:0:
329,192,108952,128,0,109038:0:0:0:0:
256,192,109123,128,0,109380:0:0:0:0:
475,192,109123,128,0,109209:0:0:0:0:
36,192,109123,128,0,109209:0:0:0:0:
109,192,109295,128,0,109380:0:0:0:0:
402,192,109295,128,0,109380:0:0:0:0:
256,192,109466,128,0,109809:0:0:0:0:
475,192,109466,128,0,109552:0:0:0:0:
36,192,109466,128,0,109552:0:0:0:0:
329,192,109552,128,0,109638:0:0:0:0:
109,192,109552,128,0,109638:0:0:0:0:
402,192,109638,128,0,109723:0:0:0:0:
182,192,109638,128,0,109723:0:0:0:0:
475,192,109723,128,0,109809:0:0:0:0:
109,192,109723,128,0,109809:0:0:0:0:
329,192,109809,128,0,109852:0:0:0:0:
182,192,109809,128,0,109852:0:0:0:0:
402,192,109809,128,0,110023:0:0:0:0:
36,192,109809,128,0,109852:0:0:0:0:
256,192,109980,128,0,110023:0:0:0:0:
109,192,109980,128,0,110023:0:0:0:0:
475,192,110152,128,0,110195:0:0:0:0:
182,192,110152,128,0,110366:0:0:0:0:
329,192,110152,128,0,110195:0:0:0:0:
36,192,110323,128,0,110366:0:0:0:0:
402,192,110323,128,0,110366:0:0:0:0:
109,192,110495,128,0,110538:0:0:0:0:
329,192,110495,128,0,110538:0:0:0:0:
256,192,110495,128,0,110709:0:0:0:0:
182,192,110666,128,0,110709:0:0:0:0:
475,192,110666,128,0,110709:0:0:0:0:
256,192,110838,128,0,111180:0:0:0:0:
36,192,110838,128,0,110923:0:0:0:0:
402,192,110838,128,0,110923:0:0:0:0:
109,192,110838,128,0,110923:0:0:0:0:
329,192,110838,128,0,110923:0:0:0:0:
475,192,110923,128,0,111009:0:0:0:0:
182,192,110923,128,0,111009:0:0:0:0:
36,192,111009,128,0,111095:0:0:0:0:
329,192,111009,128,0,111095:0:0:0:0:
109,192,111095,128,0,111180:0:0:0:0:
402,192,111095,128,0,111180:0:0:0:0:
182,192,111180,128,0,111266:0:0:0:0:
329,192,111180,128,0,111266:0:0:0:0:
36,192,111180,128,0,111266:0:0:0:0:
475,192,111180,128,0,111266:0:0:0:0:
182,192,111352,128,0,111866:0:0:0:0:
329,192,111352,128,0,111523:0:0:0:0:
256,192,111523,128,0,111866:0:0:0:0:
402,192,111523,128,0,111695:0:0:0:0:
36,192,111523,128,0,111609:0:0:0:0:
329,192,111695,128,0,111866:0:0:0:0:
475,192,111695,128,0,111866:0:0:0:0:
36,192,111695,128,0,111780:0:0:0:0:
109,192,111866,128,0,111952:0:0:0:0:
36,192,111866,128,0,111952:0:0:0:0:
402,192,111866,128,0,111952:0:0:0:0:
182,192,112038,128,0,112123:0:0:0:0:
475,192,112038,128,0,112552:0:0:0:0:
36,192,112209,128,0,112552:0:0:0:0:
402,192,112209,128,0,112295:0:0:0:0:
109,192,112209,128,0,112295:0:0:0:0:
182,192,112380,128,0,112466:0:0:0:0:
329,192,112380,128,0,112466:0:0:0:0:
109,192,112552,1,0,0:0:0:0:
402,192,112552,1,0,0:0:0:0:
329,192,112552,128,0,112723:0:0:0:0:
256,192,112638,128,0,112809:0:0:0:0:
109,192,112723,128,0,112895:0:0:0:0:
402,192,112723,128,0,112780:0:0:0:0:
36,192,112809,128,0,112980:0:0:0:0:
329,192,112809,128,0,112866:0:0:0:0:
475,192,112895,128,0,113066:0:0:0:0:
256,192,112895,128,0,112952:0:0:0:0:
329,192,112980,128,0,113152:0:0:0:0:
109,192,112980,128,0,113038:0:0:0:0:
182,192,113066,128,0,113238:0:0:0:0:
36,192,113066,128,0,113123:0:0:0:0:
109,192,113152,128,0,113323:0:0:0:0:
475,192,113152,128,0,113209:0:0:0:0:
256,192,113238,128,0,113409:0:0:0:0:
329,192,113238,128,0,113295:0:0:0:0:
402,192,113323,128,0,113495:0:0:0:0:
182,192,113323,128,0,113380:0:0:0:0:
36,192,113409,128,0,113580:0:0:0:0:
109,192,113409,128,0,113466:0:0:0:0:
475,192,113495,128,0,113666:0:0:0:0:
256,192,113495,128,0,113552:0:0:0:0:
109,192,113580,128,0,113752:0:0:0:0:
402,192,113580,1,0,0:0:0:0:
402,192,113666,128,0,113838:0:0:0:0:
36,192,113666,128,0,113723:0:0:0:0:
182,192,113752,128,0,113923:0:0:0:0:
475,192,113752,128,0,113809:0:0:0:0:
329,192,113838,128,0,113923:0:0:0:0:
109,192,113838,1,0,0:0:0:0:
256,192,113923,128,0,114266:0:0:0:0:
475,192,113923,128,0,114266:0:0:0:0:
109,192,113923,128,0,114266:0:0:0:0:
36,192,113923,128,0,114266:0:0:0:0:
402,192,113923,128,0,114266:0:0:0:0:
475,192,126715,5,0,0:0:0:0:
109,192,126715,1,0,0:0:0:0:
36,192,126715,128,0,128696:0:0:0:0:
329,192,126715,1,0,0:0:0:0:
182,192,126903,1,0,0:0:0:0:
182,192,126998,1,0,0:0:0:0:
329,192,127092,1,0,0:0:0:0:
329,192,127186,128,0,127375:0:0:0:0:
182,192,127375,128,0,127469:0:0:0:0:
402,192,127469,128,0,127752:0:0:0:0:
109,192,127752,128,0,127847:0:0:0:0:
109,192,127941,128,0,128130:0:0:0:0:
329,192,128130,1,0,0:0:0:0:
329,192,128224,128,0,128507:0:0:0:0:
182,192,128507,128,0,128696:0:0:0:0:
475,192,128696,128,0,128884:0:0:0:0:
182,192,128790,128,0,128884:0:0:0:0:
402,192,128790,128,0,128979:0:0:0:0:
329,192,128884,128,0,129073:0:0:0:0:
109,192,128979,128,0,129167:0:0:0:0:
36,192,128979,128,0,129167:0:0:0:0:
256,192,128979,128,0,129167:0:0:0:0:
182,192,128979,1,0,0:0:0:0:
475,192,129073,128,0,129167:0:0:0:0:
402,192,129167,128,0,129262:0:0:0:0:
109,192,129262,1,0,0:0:0:0:
36,192,129262,1,0,0:0:0:0:
329,192,129262,128,0,129356:0:0:0:0:
256,192,129356,128,0,129450:0:0:0:0:
36,192,129356,1,0,0:0:0:0:
109,192,129356,1,0,0:0:0:0:
182,192,129450,128,0,129545:0:0:0:0:
36,192,129545,1,0,0:0:0:0:
475,192,129545,128,0,131054:0:0:0:0:
329,192,129545,128,0,129922:0:0:0:0:
402,192,129545,1,0,0:0:0:0:
109,192,129922,1,0,0:0:0:0:
109,192,130016,128,0,130205:0:0:0:0:
402,192,130111,1,0,0:0:0:0:
402,192,130205,128,0,130394:0:0:0:0:
182,192,130394,128,0,130488:0:0:0:0:
402,192,130488,128,0,130677:0:0:0:0:
36,192,130677,1,0,0:0:0:0:
109,192,130677,1,0,0:0:0:0:
402,192,130771,128,0,130865:0:0:0:0:
182,192,130865,1,0,0:0:0:0:
256,192,130865,1,0,0:0:0:0:
36,192,130865,1,0,0:0:0:0:
402,192,130960,128,0,131054:0:0:0:0:
109,192,131054,1,0,0:0:0:0:
329,192,131054,1,0,0:0:0:0:
109,192,131148,1,0,0:0:0:0:
329,192,131148,1,0,0:0:0:0:
475,192,131243,128,0,131431:0:0:0:0:
256,192,131243,128,0,131337:0:0:0:0:
182,192,131243,128,0,131337:0:0:0:0:
36,192,131243,128,0,131431:0:0:0:0:
402,192,131337,128,0,131431:0:0:0:0:
329,192,131337,128,0,131431:0:0:0:0:
256,192,131431,128,0,131526:0:0:0:0:
182,192,131431,128,0,131526:0:0:0:0:
475,192,131526,128,0,131715:0:0:0:0:
329,192,131526,128,0,131620:0:0:0:0:
36,192,131526,128,0,131715:0:0:0:0:
109,192,131526,128,0,131715:0:0:0:0:
256,192,131620,128,0,131715:0:0:0:0:
402,192,131620,128,0,131715:0:0:0:0:
329,192,131715,128,0,131809:0:0:0:0:
182,192,131715,128,0,131809:0:0:0:0:
36,192,131809,128,0,131903:0:0:0:0:
109,192,131809,128,0,131903:0:0:0:0:
475,192,131809,128,0,131998:0:0:0:0:
256,192,131809,128,0,131903:0:0:0:0:
182,192,131903,128,0,131998:0:0:0:0:
402,192,131903,128,0,131998:0:0:0:0:
36,192,131998,128,0,132186:0:0:0:0:
329,192,131998,128,0,132092:0:0:0:0:
109,192,132092,128,0,132281:0:0:0:0:
256,192,132092,128,0,132186:0:0:0:0:
475,192,132092,128,0,132281:0:0:0:0:
402,192,132092,128,0,132281:0:0:0:0:
329,192,132186,128,0,132281:0:0:0:0:
182,192,132186,128,0,132375:0:0:0:0:
36,192,132281,128,0,132375:0:0:0:0:
256,192,132281,128,0,132469:0:0:0:0:
109,192,132375,128,0,132469:0:0:0:0:
402,192,132375,128,0,132469:0:0:0:0:
475,192,132375,128,0,132564:0:0:0:0:
182,192,132469,128,0,132564:0:0:0:0:
329,192,132469,128,0,132564:0:0:0:0:
36,192,132564,128,0,132658:0:0:0:0:
402,192,132564,128,0,132658:0:0:0:0:
256,192,132564,128,0,132658:0:0:0:0:
329,192,132658,128,0,132752:0:0:0:0:
182,192,132658,128,0,132752:0:0:0:0:
36,192,132752,1,0,0:0:0:0:
109,192,132784,1,0,0:0:0:0:
182,192,132815,1,0,0:0:0:0:
256,192,132847,1,0,0:0:0:0:
329,192,132878,1,0,0:0:0:0:
402,192,132909,1,0,0:0:0:0:
36,192,132941,128,0,133130:0:0:0:0:
109,192,132941,128,0,133130:0:0:0:0:
475,192,132941,128,0,134262:0:0:0:0:
329,192,133035,1,0,0:0:0:0:
329,192,133130,128,0,133318:0:0:0:0:
182,192,133224,128,0,133318:0:0:0:0:
36,192,133318,128,0,133413:0:0:0:0:
256,192,133318,128,0,133413:0:0:0:0:
329,192,133413,128,0,133507:0:0:0:0:
36,192,133507,128,0,133696:0:0:0:0:
402,192,133507,128,0,133696:0:0:0:0:
256,192,133601,1,0,0:0:0:0:
109,192,133696,1,0,0:0:0:0:
109,192,133790,128,0,133884:0:0:0:0:
256,192,133884,128,0,134073:0:0:0:0:
402,192,133884,1,0,0:0:0:0:
36,192,133979,1,0,0:0:0:0:
402,192,134073,1,0,0:0:0:0:
182,192,134073,128,0,134167:0:0:0:0:
402,192,134167,1,0,0:0:0:0:
329,192,134262,128,0,134356:0:0:0:0:
36,192,134262,128,0,134450:0:0:0:0:
475,192,134356,128,0,134450:0:0:0:0:
182,192,134356,128,0,134545:0:0:0:0:
329,192,134450,1,0,0:0:0:0:
36,192,134545,128,0,134639:0:0:0:0:
256,192,134545,128,0,135016:0:0:0:0:
402,192,134545,128,0,134828:0:0:0:0:
329,192,134639,1,0,0:0:0:0:
182,192,134639,1,0,0:0:0:0:
109,192,134733,1,0,0:0:0:0:
182,192,134828,128,0,134922:0:0:0:0:
329,192,134828,128,0,134922:0:0:0:0:
475,192,134828,128,0,135299:0:0:0:0:
36,192,134922,1,0,0:0:0:0:
182,192,135016,128,0,135111:0:0:0:0:
402,192,135016,1,0,0:0:0:0:
329,192,135016,128,0,135677:0:0:0:0:
109,192,135016,128,0,135111:0:0:0:0:
36,192,135205,128,0,135394:0:0:0:0:
256,192,135205,1,0,0:0:0:0:
182,192,135299,128,0,135394:0:0:0:0:
109,192,135299,128,0,135394:0:0:0:0:
402,192,135299,128,0,135677:0:0:0:0:
256,192,135394,1,0,0:0:0:0:
36,192,135488,1,0,0:0:0:0:
109,192,135582,1,0,0:0:0:0:
182,192,135582,1,0,0:0:0:0:
475,192,135582,128,0,135677:0:0:0:0:
109,192,135677,1,0,0:0:0:0:
182,192,135677,1,0,0:0:0:0:
36,192,135771,128,0,135865:0:0:0:0:
402,192,135771,128,0,135865:0:0:0:0:
329,192,135771,1,0,0:0:0:0:
256,192,135771,1,0,0:0:0:0:
109,192,135865,128,0,135960:0:0:0:0:
329,192,135960,128,0,136054:0:0:0:0:
256,192,135960,1,0,0:0:0:0:
182,192,135960,128,0,136054:0:0:0:0:
36,192,136054,128,0,136243:0:0:0:0:
402,192,136054,1,0,0:0:0:0:
475,192,136054,1,0,0:0:0:0:
475,192,136148,128,0,136243:0:0:0:0:
402,192,136148,128,0,136243:0:0:0:0:
182,192,136148,128,0,136337:0:0:0:0:
256,192,136243,1,0,0:0:0:0:
475,192,136337,128,0,136431:0:0:0:0:
329,192,136337,128,0,136431:0:0:0:0:
109,192,136337,1,0,0:0:0:0:
36,192,136337,1,0,0:0:0:0:
256,192,136431,1,0,0:0:0:0:
182,192,136431,128,0,136526:0:0:0:0:
36,192,136526,1,0,0:0:0:0:
475,192,136526,1,0,0:0:0:0:
329,192,136526,128,0,136620:0:0:0:0:
109,192,136620,1,0,0:0:0:0:
182,192,136620,1,0,0:0:0:0:
402,192,136620,128,0,136903:0:0:0:0:
182,192,136715,128,0,136809:0:0:0:0:
109,192,136715,128,0,136809:0:0:0:0:
329,192,136715,128,0,136809:0:0:0:0:
475,192,136809,128,0,136998:0:0:0:0:
329,192,136903,128,0,136998:0:0:0:0:
182,192,136903,128,0,136998:0:0:0:0:
36,192,136903,128,0,137092:0:0:0:0:
109,192,136998,128,0,137092:0:0:0:0:
256,192,136998,128,0,137375:0:0:0:0:
475,192,137092,1,0,0:0:0:0:
402,192,137092,1,0,0:0:0:0:
182,192,137092,128,0,137375:0:0:0:0:
475,192,137186,1,0,0:0:0:0:
402,192,137186,1,0,0:0:0:0:
109,192,137186,128,0,137375:0:0:0:0:
329,192,137281,1,0,0:0:0:0:
36,192,137281,128,0,137375:0:0:0:0:
402,192,137469,1,0,0:0:0:0:
109,192,137469,128,0,137658:0:0:0:0:
475,192,137469,1,0,0:0:0:0:
329,192,137564,1,0,0:0:0:0:
256,192,137658,1,0,0:0:0:0:
475,192,137658,1,0,0:0:0:0:
182,192,137658,128,0,137847:0:0:0:0:
329,192,137752,1,0,0:0:0:0:
36,192,137752,1,0,0:0:0:0:
109,192,137752,128,0,138035:0:0:0:0:
402,192,137847,1,0,0:0:0:0:
475,192,137941,1,0,0:0:0:0:
182,192,137941,128,0,138224:0:0:0:0:
402,192,138035,1,0,0:0:0:0:
36,192,138130,1,0,0:0:0:0:
329,192,138130,1,0,0:0:0:0:
256,192,138130,128,0,138318:0:0:0:0:
475,192,138224,1,0,0:0:0:0:
36,192,138318,1,0,0:0:0:0:
329,192,138318,1,0,0:0:0:0:
109,192,138318,128,0,138601:0:0:0:0:
256,192,138413,128,0,138601:0:0:0:0:
402,192,138413,1,0,0:0:0:0:
475,192,138413,1,0,0:0:0:0:
329,192,138507,1,0,0:0:0:0:
36,192,138601,1,0,0:0:0:0:
182,192,138601,1,0,0:0:0:0:
402,192,138601,128,0,138790:0:0:0:0:
109,192,138696,1,0,0:0:0:0:
475,192,138790,128,0,139073:0:0:0:0:
256,192,138790,128,0,139073:0:0:0:0:
182,192,138790,1,0,0:0:0:0:
36,192,138790,1,0,0:0:0:0:
36,192,138979,1,0,0:0:0:0:
109,192,138979,1,0,0:0:0:0:
182,192,139073,128,0,139262:0:0:0:0:
256,192,139167,1,0,0:0:0:0:
475,192,139167,1,0,0:0:0:0:
36,192,139167,128,0,139262:0:0:0:0:
402,192,139262,1,0,0:0:0:0:
329,192,139262,1,0,0:0:0:0:
36,192,139356,128,0,139733:0:0:0:0:
256,192,139356,128,0,139733:0:0:0:0:
475,192,139356,128,0,139733:0:0:0:0:
109,192,139545,1,0,0:0:0:0:
402,192,139545,1,0,0:0:0:0:
182,192,139639,1,0,0:0:0:0:
402,192,139733,1,0,0:0:0:0:
329,192,139733,1,0,0:0:0:0:
109,192,139828,128,0,139922:0:0:0:0:
256,192,139828,128,0,139922:0:0:0:0:
329,192,139875,128,0,139969:0:0:0:0:
402,192,139922,128,0,140016:0:0:0:0:
36,192,139922,128,0,140111:0:0:0:0:
256,192,140016,1,0,0:0:0:0:
182,192,140016,128,0,140205:0:0:0:0:
109,192,140111,128,0,140205:0:0:0:0:
475,192,140111,1,0,0:0:0:0:
402,192,140111,128,0,140299:0:0:0:0:
256,192,140205,128,0,140299:0:0:0:0:
36,192,140299,128,0,140394:0:0:0:0:
475,192,140299,1,0,0:0:0:0:
329,192,140299,128,0,140488:0:0:0:0:
109,192,140394,128,0,140488:0:0:0:0:
182,192,140488,1,0,0:0:0:0:
475,192,140488,1,0,0:0:0:0:
329,192,140582,128,0,140677:0:0:0:0:
109,192,140582,128,0,140677:0:0:0:0:
475,192,140677,1,0,0:0:0:0:
402,192,140677,1,0,0:0:0:0:
36,192,140771,1,0,0:0:0:0:
109,192,140771,128,0,140865:0:0:0:0:
256,192,140771,128,0,140865:0:0:0:0:
402,192,140865,128,0,140960:0:0:0:0:
182,192,140865,128,0,140960:0:0:0:0:
475,192,140960,128,0,141054:0:0:0:0:
329,192,140960,128,0,141054:0:0:0:0:
182,192,141054,128,0,141148:0:0:0:0:
36,192,141054,128,0,141148:0:0:0:0:
475,192,141196,128,0,141715:0:0:0:0:
36,192,141243,1,0,0:0:0:0:
109,192,141243,1,0,0:0:0:0:
402,192,141243,128,0,141620:0:0:0:0:
329,192,141290,128,0,141526:0:0:0:0:
182,192,141337,128,0,141431:0:0:0:0:
256,192,141337,1,0,0:0:0:0:
256,192,141526,128,0,141715:0:0:0:0:
329,192,141620,128,0,141715:0:0:0:0:
36,192,141620,1,0,0:0:0:0:
182,192,141620,128,0,141809:0:0:0:0:
402,192,141715,128,0,141809:0:0:0:0:
109,192,141715,128,0,141903:0:0:0:0:
329,192,141809,128,0,141903:0:0:0:0:
475,192,141903,128,0,142281:0:0:0:0:
36,192,141998,1,0,0:0:0:0:
256,192,141998,1,0,0:0:0:0:
402,192,141998,128,0,142281:0:0:0:0:
329,192,142092,128,0,142281:0:0:0:0:
36,192,142186,1,0,0:0:0:0:
182,192,142186,1,0,0:0:0:0:
182,192,142281,128,0,142375:0:0:0:0:
36,192,142281,128,0,142469:0:0:0:0:
475,192,142375,128,0,142469:0:0:0:0:
402,192,142375,128,0,142469:0:0:0:0:
182,192,142469,128,0,142564:0:0:0:0:
256,192,142469,128,0,142564:0:0:0:0:
329,192,142564,128,0,142626:0:0:0:0:
36,192,142564,1,0,0:0:0:0:
402,192,142626,128,0,142752:0:0:0:0:
256,192,142689,128,0,142752:0:0:0:0:
475,192,142752,128,0,142847:0:0:0:0:
36,192,142752,1,0,0:0:0:0:
182,192,142752,128,0,142941:0:0:0:0:
329,192,142847,1,0,0:0:0:0:
402,192,142847,128,0,142941:0:0:0:0:
36,192,142941,128,0,143035:0:0:0:0:
109,192,142941,128,0,143130:0:0:0:0:
475,192,143035,128,0,143130:0:0:0:0:
329,192,143035,1,0,0:0:0:0:
256,192,143035,128,0,143224:0:0:0:0:
182,192,143130,128,0,143224:0:0:0:0:
402,192,143130,128,0,143318:0:0:0:0:
329,192,143224,128,0,143413:0:0:0:0:
36,192,143318,128,0,143507:0:0:0:0:
109,192,143318,1,0,0:0:0:0:
475,192,143318,1,0,0:0:0:0:
182,192,143413,128,0,143601:0:0:0:0:
402,192,143507,1,0,0:0:0:0:
475,192,143507,1,0,0:0:0:0:
329,192,143507,128,0,143696:0:0:0:0:
109,192,143601,1,0,0:0:0:0:
256,192,143601,1,0,0:0:0:0:
36,192,143601,128,0,143790:0:0:0:0:
182,192,143696,128,0,143884:0:0:0:0:
402,192,143790,1,0,0:0:0:0:
475,192,143790,1,0,0:0:0:0:
329,192,143790,128,0,143979:0:0:0:0:
109,192,143884,1,0,0:0:0:0:
36,192,143884,128,0,144073:0:0:0:0:
256,192,143884,1,0,0:0:0:0:
402,192,143931,1,0,0:0:0:0:
475,192,143979,1,0,0:0:0:0:
182,192,143979,128,0,144167:0:0:0:0:
329,192,144073,128,0,144167:0:0:0:0:
402,192,144167,128,0,144262:0:0:0:0:
475,192,144167,128,0,144262:0:0:0:0:
36,192,144167,128,0,144262:0:0:0:0:
109,192,144167,128,0,144262:0:0:0:0:
109,192,144356,128,0,144450:0:0:0:0:
36,192,144356,128,0,144450:0:0:0:0:
402,192,144356,128,0,144450:0:0:0:0:
475,192,144356,128,0,144450:0:0:0:0:
329,192,144545,128,0,144639:0:0:0:0:
475,192,144545,128,0,144639:0:0:0:0:
182,192,144545,128,0,144639:0:0:0:0:
36,192,144545,128,0,144639:0:0:0:0:
329,192,144733,1,0,0:0:0:0:
256,192,144733,1,0,0:0:0:0:
182,192,144828,128,0,145016:0:0:0:0:
36,192,144828,1,0,0:0:0:0:
329,192,145016,128,0,145142:0:0:0:0:
36,192,145111,128,0,145205:0:0:0:0:
475,192,145111,128,0,145237:0:0:0:0:
109,192,145174,128,0,145268:0:0:0:0:
182,192,145237,128,0,145331:0:0:0:0:
256,192,145299,128,0,145394:0:0:0:0:
475,192,145331,128,0,145425:0:0:0:0:
109,192,145394,128,0,145582:0:0:0:0:
36,192,145394,128,0,145582:0:0:0:0:
402,192,145394,128,0,145488:0:0:0:0:
329,192,145457,128,0,145551:0:0:0:0:
475,192,145520,128,0,145614:0:0:0:0:
402,192,145582,128,0,145677:0:0:0:0:
329,192,145645,128,0,145740:0:0:0:0:
256,192,145708,128,0,145803:0:0:0:0:
475,192,145771,128,0,145960:0:0:0:0:
36,192,145771,128,0,145960:0:0:0:0:
109,192,145771,128,0,145865:0:0:0:0:
182,192,145834,128,0,145928:0:0:0:0:
329,192,145897,128,0,145991:0:0:0:0:
402,192,145960,128,0,146054:0:0:0:0:
109,192,146023,128,0,146117:0:0:0:0:
256,192,146054,128,0,146148:0:0:0:0:
36,192,146086,128,0,146180:0:0:0:0:
475,192,146148,128,0,146243:0:0:0:0:
329,192,146148,128,0,146243:0:0:0:0:
182,192,146211,128,0,146306:0:0:0:0:
256,192,146274,128,0,146369:0:0:0:0:
329,192,146337,128,0,146431:0:0:0:0:
475,192,146337,128,0,146431:0:0:0:0:
109,192,146337,128,0,146431:0:0:0:0:
36,192,146337,128,0,146526:0:0:0:0:
182,192,146400,128,0,146494:0:0:0:0:
402,192,146463,128,0,146557:0:0:0:0:
329,192,146526,128,0,146620:0:0:0:0:
475,192,146589,128,0,146683:0:0:0:0:
109,192,146620,1,0,0:0:0:0:
182,192,146620,1,0,0:0:0:0:
402,192,146652,128,0,146746:0:0:0:0:
329,192,146715,128,0,146903:0:0:0:0:
36,192,146715,1,0,0:0:0:0:
256,192,146809,128,0,146903:0:0:0:0:
109,192,146809,1,0,0:0:0:0:
182,192,146903,128,0,147092:0:0:0:0:
475,192,146903,128,0,147375:0:0:0:0:
36,192,147092,1,0,0:0:0:0:
109,192,147092,128,0,147281:0:0:0:0:
329,192,147092,128,0,147375:0:0:0:0:
402,192,147186,1,0,0:0:0:0:
182,192,147281,1,0,0:0:0:0:
256,192,147281,1,0,0:0:0:0:
402,192,147375,128,0,147752:0:0:0:0:
36,192,147375,128,0,147564:0:0:0:0:
329,192,147469,1,0,0:0:0:0:
182,192,147469,1,0,0:0:0:0:
256,192,147564,1,0,0:0:0:0:
475,192,147658,1,0,0:0:0:0:
36,192,147658,128,0,147847:0:0:0:0:
109,192,147658,128,0,147847:0:0:0:0:
182,192,147847,128,0,147941:0:0:0:0:
256,192,147847,128,0,148035:0:0:0:0:
475,192,147847,128,0,148035:0:0:0:0:
329,192,147941,128,0,148130:0:0:0:0:
109,192,148035,1,0,0:0:0:0:
182,192,148035,1,0,0:0:0:0:
402,192,148035,128,0,148224:0:0:0:0:
475,192,148130,128,0,148318:0:0:0:0:
182,192,148130,1,0,0:0:0:0:
109,192,148130,1,0,0:0:0:0:
36,192,148224,128,0,148413:0:0:0:0:
256,192,148224,128,0,148413:0:0:0:0:
109,192,148318,128,0,148507:0:0:0:0:
475,192,148413,1,0,0:0:0:0:
402,192,148413,1,0,0:0:0:0:
182,192,148413,128,0,148601:0:0:0:0:
329,192,148507,128,0,148696:0:0:0:0:
475,192,148507,1,0,0:0:0:0:
402,192,148507,1,0,0:0:0:0:
36,192,148601,128,0,148790:0:0:0:0:
256,192,148601,128,0,148790:0:0:0:0:
182,192,148696,128,0,148884:0:0:0:0:
402,192,148790,1,0,0:0:0:0:
329,192,148790,1,0,0:0:0:0:
109,192,148790,128,0,148979:0:0:0:0:
36,192,148884,128,0,149073:0:0:0:0:
329,192,148884,1,0,0:0:0:0:
402,192,148884,1,0,0:0:0:0:
475,192,148979,128,0,149167:0:0:0:0:
256,192,148979,128,0,149167:0:0:0:0:
329,192,149073,128,0,149262:0:0:0:0:
402,192,149167,128,0,149356:0:0:0:0:
36,192,149167,1,0,0:0:0:0:
109,192,149167,1,0,0:0:0:0:
475,192,149262,128,0,149450:0:0:0:0:
109,192,149262,1,0,0:0:0:0:
36,192,149262,1,0,0:0:0:0:
182,192,149356,128,0,149545:0:0:0:0:
329,192,149356,128,0,149545:0:0:0:0:
109,192,149450,128,0,149639:0:0:0:0:
475,192,149545,1,0,0:0:0:0:
402,192,149545,1,0,0:0:0:0:
36,192,149545,128,0,149733:0:0:0:0:
182,192,149639,128,0,149733:0:0:0:0:
402,192,149639,1,0,0:0:0:0:
475,192,149639,1,0,0:0:0:0:
329,192,149733,128,0,149828:0:0:0:0:
256,192,149733,128,0,149828:0:0:0:0:
182,192,149828,128,0,149922:0:0:0:0:
109,192,149922,128,0,150111:0:0:0:0:
475,192,149922,1,0,0:0:0:0:
329,192,149922,1,0,0:0:0:0:
182,192,150016,128,0,150488:0:0:0:0:
329,192,150016,1,0,0:0:0:0:
475,192,150016,1,0,0:0:0:0:
402,192,150111,1,0,0:0:0:0:
36,192,150111,128,0,150488:0:0:0:0:
329,192,150174,1,0,0:0:0:0:
402,192,150237,128,0,150488:0:0:0:0:
475,192,150488,128,0,150677:0:0:0:0:
109,192,150488,128,0,150614:0:0:0:0:
256,192,150488,1,0,0:0:0:0:
329,192,150488,1,0,0:0:0:0:
182,192,150551,128,0,150677:0:0:0:0:
256,192,150614,128,0,150740:0:0:0:0:
36,192,150677,128,0,150803:0:0:0:0:
329,192,150677,128,0,150803:0:0:0:0:
109,192,150740,128,0,150865:0:0:0:0:
182,192,150803,128,0,150928:0:0:0:0:
475,192,150865,128,0,150960:0:0:0:0:
402,192,150865,128,0,150960:0:0:0:0:
36,192,150865,128,0,150960:0:0:0:0:
256,192,150865,128,0,150960:0:0:0:0:
402,192,151054,128,0,151148:0:0:0:0:
256,192,151054,128,0,151243:0:0:0:0:
36,192,151054,128,0,151243:0:0:0:0:
182,192,151243,128,0,151337:0:0:0:0:
109,192,151243,1,0,0:0:0:0:
475,192,151243,128,0,151526:0:0:0:0:
256,192,151337,128,0,151431:0:0:0:0:
36,192,151337,128,0,151526:0:0:0:0:
329,192,151337,128,0,151526:0:0:0:0:
109,192,151431,128,0,151526:0:0:0:0:
182,192,151526,128,0,151620:0:0:0:0:
256,192,151620,128,0,151715:0:0:0:0:
475,192,151620,128,0,151998:0:0:0:0:
402,192,151620,128,0,151998:0:0:0:0:
182,192,151715,128,0,151809:0:0:0:0:
36,192,151809,128,0,151903:0:0:0:0:
109,192,151903,128,0,151998:0:0:0:0:
256,192,151903,1,0,0:0:0:0:
182,192,151998,128,0,152092:0:0:0:0:
36,192,151998,1,0,0:0:0:0:
329,192,151998,1,0,0:0:0:0:
256,192,152092,128,0,152186:0:0:0:0:
329,192,152186,128,0,152281:0:0:0:0:
109,192,152186,128,0,152375:0:0:0:0:
36,192,152186,128,0,152375:0:0:0:0:
402,192,152281,128,0,152375:0:0:0:0:
182,192,152375,128,0,152469:0:0:0:0:
475,192,152375,128,0,152469:0:0:0:0:
256,192,152375,1,0,0:0:0:0:
256,192,152564,1,0,0:0:0:0:
475,192,152564,128,0,152752:0:0:0:0:
182,192,152564,128,0,152752:0:0:0:0:
109,192,152752,1,0,0:0:0:0:
256,192,152752,1,0,0:0:0:0:
329,192,152752,128,0,153035:0:0:0:0:
475,192,152847,128,0,152941:0:0:0:0:
36,192,152847,128,0,153035:0:0:0:0:
182,192,152847,128,0,153035:0:0:0:0:
402,192,152941,128,0,153035:0:0:0:0:
256,192,153035,128,0,153130:0:0:0:0:
36,192,153130,128,0,153224:0:0:0:0:
402,192,153130,128,0,153507:0:0:0:0:
329,192,153130,128,0,153507:0:0:0:0:
182,192,153224,128,0,153318:0:0:0:0:
36,192,153318,128,0,153413:0:0:0:0:
109,192,153413,128,0,153507:0:0:0:0:
256,192,153413,1,0,0:0:0:0:
182,192,153507,128,0,153601:0:0:0:0:
475,192,153507,1,0,0:0:0:0:
36,192,153507,1,0,0:0:0:0:
329,192,153601,128,0,153696:0:0:0:0:
402,192,153696,128,0,153790:0:0:0:0:
109,192,153696,128,0,153790:0:0:0:0:
256,192,153696,128,0,153790:0:0:0:0:
475,192,153790,128,0,153884:0:0:0:0:
109,192,153884,128,0,153979:0:0:0:0:
329,192,153884,128,0,153979:0:0:0:0:
402,192,153884,128,0,154262:0:0:0:0:
36,192,153884,128,0,153979:0:0:0:0:
256,192,154073,1,0,0:0:0:0:
182,192,154073,1,0,0:0:0:0:
36,192,154073,128,0,154262:0:0:0:0:
475,192,154262,128,0,154356:0:0:0:0:
182,192,154262,128,0,154450:0:0:0:0:
329,192,154262,128,0,154639:0:0:0:0:
402,192,154356,128,0,154450:0:0:0:0:
109,192,154356,1,0,0:0:0:0:
36,192,154356,128,0,154545:0:0:0:0:
256,192,154450,128,0,154545:0:0:0:0:
182,192,154545,128,0,154639:0:0:0:0:
256,192,154639,128,0,154922:0:0:0:0:
402,192,154639,128,0,154733:0:0:0:0:
475,192,154639,1,0,0:0:0:0:
109,192,154639,128,0,155394:0:0:0:0:
36,192,154639,1,0,0:0:0:0:
329,192,154733,128,0,154828:0:0:0:0:
182,192,154828,128,0,154922:0:0:0:0:
36,192,154922,128,0,155016:0:0:0:0:
329,192,154922,1,0,0:0:0:0:
402,192,154922,1,0,0:0:0:0:
475,192,155016,128,0,155111:0:0:0:0:
182,192,155016,1,0,0:0:0:0:
256,192,155016,1,0,0:0:0:0:
402,192,155111,128,0,155205:0:0:0:0:
36,192,155205,1,0,0:0:0:0:
256,192,155205,1,0,0:0:0:0:
329,192,155205,128,0,155299:0:0:0:0:
475,192,155299,128,0,155394:0:0:0:0:
182,192,155394,1,0,0:0:0:0:
329,192,155394,128,0,155488:0:0:0:0:
36,192,155394,128,0,155771:0:0:0:0:
256,192,155582,1,0,0:0:0:0:
475,192,155582,1,0,0:0:0:0:
329,192,155582,128,0,155771:0:0:0:0:
182,192,155771,128,0,155865:0:0:0:0:
475,192,155771,128,0,155960:0:0:0:0:
109,192,155771,128,0,156148:0:0:0:0:
256,192,155865,128,0,155960:0:0:0:0:
329,192,155865,128,0,156054:0:0:0:0:
402,192,155960,128,0,156054:0:0:0:0:
475,192,156054,128,0,156148:0:0:0:0:
402,192,156148,128,0,156243:0:0:0:0:
36,192,156148,128,0,156243:0:0:0:0:
256,192,156148,1,0,0:0:0:0:
109,192,156196,128,0,156290:0:0:0:0:
475,192,156243,128,0,156337:0:0:0:0:
182,192,156243,128,0,156337:0:0:0:0:
256,192,156290,128,0,156384:0:0:0:0:
329,192,156337,128,0,156431:0:0:0:0:
36,192,156337,1,0,0:0:0:0:
109,192,156384,1,0,0:0:0:0:
182,192,156431,128,0,156526:0:0:0:0:
475,192,156431,1,0,0:0:0:0:
402,192,156479,1,0,0:0:0:0:
109,192,156526,128,0,156620:0:0:0:0:
329,192,156526,1,0,0:0:0:0:
36,192,156620,128,0,156715:0:0:0:0:
256,192,156620,128,0,156715:0:0:0:0:
329,192,156667,128,0,156762:0:0:0:0:
402,192,156715,128,0,156809:0:0:0:0:
109,192,156715,1,0,0:0:0:0:
182,192,156762,1,0,0:0:0:0:
256,192,156809,1,0,0:0:0:0:
329,192,156856,1,0,0:0:0:0:
109,192,156903,1,0,0:0:0:0:
475,192,156903,1,0,0:0:0:0:
36,192,156903,1,0,0:0:0:0:
182,192,157092,128,0,157186:0:0:0:0:
36,192,157092,128,0,157186:0:0:0:0:
475,192,157092,128,0,157438:0:0:0:0:
329,192,157092,128,0,157375:0:0:0:0:
36,192,157375,128,0,157469:0:0:0:0:
256,192,157375,128,0,157501:0:0:0:0:
109,192,157422,128,0,157516:0:0:0:0:
402,192,157438,128,0,157564:0:0:0:0:
182,192,157501,128,0,157658:0:0:0:0:
329,192,157564,128,0,157658:0:0:0:0:
475,192,157658,128,0,157847:0:0:0:0:
256,192,157658,128,0,157752:0:0:0:0:
402,192,157658,128,0,157847:0:0:0:0:
36,192,157752,128,0,157847:0:0:0:0:
182,192,157752,128,0,157847:0:0:0:0:
402,192,157941,128,0,158035:0:0:0:0:
475,192,157941,128,0,158035:0:0:0:0:
256,192,157941,128,0,158035:0:0:0:0:
36,192,157941,128,0,158035:0:0:0:0:
182,192,158161,128,0,158318:0:0:0:0:
36,192,158224,1,0,0:0:0:0:
109,192,158224,1,0,0:0:0:0:
329,192,158224,128,0,158413:0:0:0:0:
475,192,158287,128,0,158413:0:0:0:0:
256,192,158413,1,0,0:0:0:0:
36,192,158413,128,0,158507:0:0:0:0:
182,192,158413,128,0,158507:0:0:0:0:
402,192,158507,1,0,0:0:0:0:
36,192,158601,128,0,158696:0:0:0:0:
256,192,158601,128,0,158696:0:0:0:0:
475,192,158696,1,0,0:0:0:0:
329,192,158696,128,0,158790:0:0:0:0:
36,192,158790,1,0,0:0:0:0:
109,192,158790,1,0,0:0:0:0:
402,192,158790,128,0,158979:0:0:0:0:
36,192,158884,1,0,0:0:0:0:
256,192,158884,128,0,159073:0:0:0:0:
109,192,158884,1,0,0:0:0:0:
475,192,159073,1,0,0:0:0:0:
329,192,159073,1,0,0:0:0:0:
36,192,159073,128,0,159136:0:0:0:0:
109,192,159104,128,0,159167:0:0:0:0:
182,192,159136,128,0,159199:0:0:0:0:
475,192,159167,128,0,159262:0:0:0:0:
329,192,159167,128,0,159262:0:0:0:0:
36,192,159262,128,0,159356:0:0:0:0:
182,192,159262,128,0,159356:0:0:0:0:
402,192,159450,128,0,159733:0:0:0:0:
256,192,159450,1,0,0:0:0:0:
36,192,159450,1,0,0:0:0:0:
329,192,159545,1,0,0:0:0:0:
256,192,159608,1,0,0:0:0:0:
182,192,159670,1,0,0:0:0:0:
36,192,159733,128,0,159828:0:0:0:0:
109,192,159733,128,0,159828:0:0:0:0:
475,192,159733,1,0,0:0:0:0:
256,192,159781,128,0,159875:0:0:0:0:
329,192,159828,128,0,159922:0:0:0:0:
402,192,159875,128,0,159969:0:0:0:0:
36,192,159922,1,0,0:0:0:0:
182,192,159922,1,0,0:0:0:0:
475,192,159922,1,0,0:0:0:0:
475,192,160016,128,0,160111:0:0:0:0:
182,192,160016,128,0,160111:0:0:0:0:
36,192,160016,128,0,160111:0:0:0:0:
109,192,160205,1,0,0:0:0:0:
329,192,160205,1,0,0:0:0:0:
36,192,160299,1,0,0:0:0:0:
329,192,160299,1,0,0:0:0:0:
256,192,160488,1,0,0:0:0:0:
36,192,160488,1,0,0:0:0:0:
475,192,160488,1,0,0:0:0:0:
402,192,160488,1,0,0:0:0:0:
402,192,160582,128,0,160677:0:0:0:0:
475,192,160582,128,0,160677:0:0:0:0:
36,192,160582,128,0,160677:0:0:0:0:
256,192,160582,128,0,160677:0:0:0:0:
329,192,160771,1,0,0:0:0:0:
109,192,160771,1,0,0:0:0:0:
402,192,160865,1,0,0:0:0:0:
109,192,160865,1,0,0:0:0:0:
109,192,161054,128,0,161117:0:0:0:0:
329,192,161054,128,0,161180:0:0:0:0:
475,192,161054,128,0,161431:0:0:0:0:
109,192,161180,128,0,161243:0:0:0:0:
256,192,161180,128,0,161306:0:0:0:0:
402,192,161180,128,0,161431:0:0:0:0:
36,192,161306,128,0,161369:0:0:0:0:
182,192,161306,128,0,161369:0:0:0:0:
329,192,161306,128,0,161431:0:0:0:0:
109,192,161431,128,0,161526:0:0:0:0:
36,192,161431,128,0,161526:0:0:0:0:
256,192,161431,128,0,162186:0:0:0:0:
182,192,161431,128,0,161526:0:0:0:0:
329,192,161494,128,0,161589:0:0:0:0:
402,192,161557,128,0,161652:0:0:0:0:
36,192,161620,128,0,161715:0:0:0:0:
475,192,161620,128,0,161715:0:0:0:0:
109,192,161683,128,0,161777:0:0:0:0:
182,192,161746,128,0,161840:0:0:0:0:
475,192,161809,128,0,161903:0:0:0:0:
402,192,161856,128,0,161950:0:0:0:0:
182,192,161903,128,0,161998:0:0:0:0:
329,192,161903,128,0,161998:0:0:0:0:
109,192,161950,128,0,162045:0:0:0:0:
36,192,161998,128,0,162092:0:0:0:0:
475,192,162029,1,0,0:0:0:0:
402,192,162060,1,0,0:0:0:0:
329,192,162092,1,0,0:0:0:0:
182,192,162123,1,0,0:0:0:0:
109,192,162155,1,0,0:0:0:0:
36,192,162186,1,0,0:0:0:0:
475,192,162186,1,0,0:0:0:0:
475,192,162281,128,0,162658:0:0:0:0:
36,192,162281,128,0,162658:0:0:0:0:
402,192,162469,128,0,162658:0:0:0:0:
109,192,162469,128,0,162658:0:0:0:0:
182,192,162658,1,0,0:0:0:0:
329,192,162658,1,0,0:0:0:0:
402,192,162752,128,0,162847:0:0:0:0:
475,192,162752,128,0,162847:0:0:0:0:
256,192,162752,128,0,162847:0:0:0:0:
36,192,162752,128,0,162847:0:0:0:0:
109,192,162752,128,0,162847:0:0:0:0:
329,192,162941,128,0,163130:0:0:0:0:
109,192,162941,1,0,0:0:0:0:
182,192,162941,1,0,0:0:0:0:
475,192,162941,128,0,163601:0:0:0:0:
256,192,163130,128,0,163224:0:0:0:0:
109,192,163130,128,0,163224:0:0:0:0:
36,192,163130,1,0,0:0:0:0:
329,192,163224,128,0,163318:0:0:0:0:
182,192,163224,128,0,163413:0:0:0:0:
402,192,163318,128,0,163413:0:0:0:0:
256,192,163413,128,0,163601:0:0:0:0:
36,192,163413,128,0,163507:0:0:0:0:
182,192,163507,128,0,163601:0:0:0:0:
402,192,163507,128,0,163601:0:0:0:0:
329,192,163507,1,0,0:0:0:0:
36,192,163601,128,0,163790:0:0:0:0:
109,192,163601,128,0,163790:0:0:0:0:
475,192,163696,128,0,163884:0:0:0:0:
256,192,163696,128,0,163884:0:0:0:0:
329,192,163696,128,0,163884:0:0:0:0:
109,192,163884,128,0,164167:0:0:0:0:
36,192,163884,1,0,0:0:0:0:
329,192,163979,1,0,0:0:0:0:
256,192,163979,1,0,0:0:0:0:
475,192,163979,128,0,164167:0:0:0:0:
182,192,164073,1,0,0:0:0:0:
402,192,164167,1,0,0:0:0:0:
329,192,164167,128,0,164356:0:0:0:0:
256,192,164262,1,0,0:0:0:0:
36,192,164262,128,0,164356:0:0:0:0:
182,192,164262,128,0,164356:0:0:0:0:
256,192,164450,128,0,164639:0:0:0:0:
36,192,164450,128,0,164639:0:0:0:0:
475,192,164450,128,0,164828:0:0:0:0:
182,192,164639,128,0,164828:0:0:0:0:
329,192,164639,1,0,0:0:0:0:
402,192,164639,1,0,0:0:0:0:
256,192,164733,1,0,0:0:0:0:
36,192,164733,128,0,164828:0:0:0:0:
329,192,164828,128,0,164922:0:0:0:0:
402,192,164828,128,0,164922:0:0:0:0:
36,192,164922,128,0,165016:0:0:0:0:
109,192,164922,1,0,0:0:0:0:
256,192,164922,128,0,165111:0:0:0:0:
182,192,165016,128,0,165111:0:0:0:0:
475,192,165016,1,0,0:0:0:0:
402,192,165016,128,0,165111:0:0:0:0:
109,192,165205,1,0,0:0:0:0:
182,192,165205,1,0,0:0:0:0:
475,192,165205,1,0,0:0:0:0:
475,192,165299,128,0,165394:0:0:0:0:
182,192,165299,128,0,165394:0:0:0:0:
109,192,165299,128,0,165394:0:0:0:0:
329,192,165394,1,0,0:0:0:0:
256,192,165488,128,0,165582:0:0:0:0:
109,192,165488,128,0,165582:0:0:0:0:
36,192,165488,128,0,165582:0:0:0:0:
402,192,165582,128,0,165677:0:0:0:0:
475,192,165677,128,0,165771:0:0:0:0:
109,192,165677,1,0,0:0:0:0:
182,192,165677,1,0,0:0:0:0:
256,192,165771,128,0,165960:0:0:0:0:
36,192,165771,128,0,165865:0:0:0:0:
329,192,165771,128,0,165960:0:0:0:0:
402,192,165960,128,0,166054:0:0:0:0:
36,192,165960,128,0,166337:0:0:0:0:
182,192,165960,128,0,166148:0:0:0:0:
109,192,166148,1,0,0:0:0:0:
402,192,166148,1,0,0:0:0:0:
256,192,166148,128,0,166337:0:0:0:0:
329,192,166243,128,0,166431:0:0:0:0:
475,192,166243,128,0,166620:0:0:0:0:
182,192,166337,128,0,166526:0:0:0:0:
109,192,166431,1,0,0:0:0:0:
36,192,166431,128,0,166526:0:0:0:0:
329,192,166526,1,0,0:0:0:0:
402,192,166526,128,0,166620:0:0:0:0:
256,192,166526,128,0,166715:0:0:0:0:
109,192,166620,128,0,166715:0:0:0:0:
36,192,166620,128,0,166715:0:0:0:0:
182,192,166715,128,0,166809:0:0:0:0:
475,192,166715,128,0,167092:0:0:0:0:
329,192,166715,128,0,166903:0:0:0:0:
36,192,166809,128,0,167092:0:0:0:0:
109,192,166903,1,0,0:0:0:0:
256,192,166903,1,0,0:0:0:0:
182,192,166998,128,0,167186:0:0:0:0:
329,192,166998,128,0,167375:0:0:0:0:
36,192,167186,128,0,167469:0:0:0:0:
475,192,167186,128,0,167281:0:0:0:0:
109,192,167281,128,0,167375:0:0:0:0:
182,192,167281,1,0,0:0:0:0:
402,192,167281,128,0,167469:0:0:0:0:
256,192,167375,128,0,167469:0:0:0:0:
475,192,167375,128,0,167469:0:0:0:0:
329,192,167469,128,0,167564:0:0:0:0:
109,192,167469,128,0,167658:0:0:0:0:
182,192,167469,1,0,0:0:0:0:
402,192,167564,128,0,167752:0:0:0:0:
475,192,167658,128,0,167752:0:0:0:0:
182,192,167658,1,0,0:0:0:0:
256,192,167658,128,0,167847:0:0:0:0:
36,192,167752,128,0,167941:0:0:0:0:
329,192,167752,128,0,167941:0:0:0:0:
109,192,167847,128,0,167941:0:0:0:0:
182,192,167847,128,0,168035:0:0:0:0:
475,192,167941,128,0,168035:0:0:0:0:
402,192,167941,128,0,168130:0:0:0:0:
329,192,168035,128,0,168130:0:0:0:0:
36,192,168035,128,0,168130:0:0:0:0:
256,192,168035,128,0,168224:0:0:0:0:
475,192,168130,128,0,168318:0:0:0:0:
182,192,168130,128,0,168224:0:0:0:0:
402,192,168224,1,0,0:0:0:0:
109,192,168224,1,0,0:0:0:0:
36,192,168224,1,0,0:0:0:0:
329,192,168318,128,0,168413:0:0:0:0:
182,192,168318,128,0,168413:0:0:0:0:
402,192,168413,128,0,168507:0:0:0:0:
36,192,168413,1,0,0:0:0:0:
256,192,168507,128,0,168601:0:0:0:0:
36,192,168507,1,0,0:0:0:0:
182,192,168601,128,0,168790:0:0:0:0:
475,192,168601,1,0,0:0:0:0:
402,192,168601,1,0,0:0:0:0:
256,192,168696,128,0,168790:0:0:0:0:
402,192,168696,1,0,0:0:0:0:
475,192,168696,1,0,0:0:0:0:
329,192,168790,128,0,168979:0:0:0:0:
36,192,168790,1,0,0:0:0:0:
109,192,168790,1,0,0:0:0:0:
256,192,168884,128,0,168979:0:0:0:0:
36,192,168884,1,0,0:0:0:0:
109,192,168884,1,0,0:0:0:0:
182,192,168979,128,0,169262:0:0:0:0:
475,192,168979,128,0,169262:0:0:0:0:
402,192,168979,128,0,169262:0:0:0:0:
36,192,169167,128,0,169450:0:0:0:0:
256,192,169167,128,0,169356:0:0:0:0:
329,192,169262,128,0,169450:0:0:0:0:
109,192,169262,128,0,169450:0:0:0:0:
402,192,169356,128,0,169545:0:0:0:0:
182,192,169356,128,0,169450:0:0:0:0:
475,192,169450,128,0,169639:0:0:0:0:
256,192,169545,1,0,0:0:0:0:
329,192,169545,128,0,169733:0:0:0:0:
182,192,169545,128,0,169922:0:0:0:0:
36,192,169545,128,0,169828:0:0:0:0:
475,192,169733,1,0,0:0:0:0:
256,192,169828,1,0,0:0:0:0:
329,192,169828,1,0,0:0:0:0:
402,192,169922,128,0,170016:0:0:0:0:
475,192,169922,128,0,170205:0:0:0:0:
36,192,169922,128,0,170111:0:0:0:0:
182,192,170016,128,0,170111:0:0:0:0:
109,192,170111,128,0,170394:0:0:0:0:
329,192,170111,128,0,170299:0:0:0:0:
182,192,170205,128,0,170299:0:0:0:0:
256,192,170205,1,0,0:0:0:0:
402,192,170299,128,0,170394:0:0:0:0:
36,192,170299,128,0,170394:0:0:0:0:
475,192,170299,128,0,170488:0:0:0:0:
256,192,170394,128,0,170488:0:0:0:0:
109,192,170488,128,0,170582:0:0:0:0:
329,192,170488,128,0,170677:0:0:0:0:
36,192,170488,128,0,170771:0:0:0:0:
182,192,170677,128,0,170960:0:0:0:0:
256,192,170677,1,0,0:0:0:0:
329,192,170771,128,0,170865:0:0:0:0:
475,192,170771,1,0,0:0:0:0:
402,192,170771,128,0,171054:0:0:0:0:
109,192,170960,128,0,171054:0:0:0:0:
36,192,170960,128,0,171243:0:0:0:0:
182,192,171054,128,0,171148:0:0:0:0:
475,192,171054,128,0,171431:0:0:0:0:
256,192,171054,128,0,171431:0:0:0:0:
402,192,171243,1,0,0:0:0:0:
182,192,171243,128,0,171337:0:0:0:0:
329,192,171337,1,0,0:0:0:0:
36,192,171337,1,0,0:0:0:0:
109,192,171431,1,0,0:0:0:0:
182,192,171431,128,0,171715:0:0:0:0:
402,192,171431,128,0,171620:0:0:0:0:
256,192,171526,128,0,171620:0:0:0:0:
36,192,171620,1,0,0:0:0:0:
475,192,171620,128,0,171998:0:0:0:0:
329,192,171620,128,0,171809:0:0:0:0:
256,192,171715,128,0,171903:0:0:0:0:
109,192,171715,1,0,0:0:0:0:
402,192,171809,128,0,171998:0:0:0:0:
182,192,171809,128,0,171998:0:0:0:0:
36,192,171809,128,0,171998:0:0:0:0:
329,192,171998,128,0,172092:0:0:0:0:
109,192,171998,1,0,0:0:0:0:
256,192,171998,128,0,172186:0:0:0:0:
402,192,172186,128,0,172281:0:0:0:0:
36,192,172186,128,0,172375:0:0:0:0:
109,192,172186,128,0,172375:0:0:0:0:
329,192,172281,128,0,172375:0:0:0:0:
475,192,172312,128,0,172469:0:0:0:0:
182,192,172375,128,0,172469:0:0:0:0:
256,192,172375,1,0,0:0:0:0:
36,192,172469,1,0,0:0:0:0:
329,192,172469,128,0,172658:0:0:0:0:
182,192,172564,128,0,172658:0:0:0:0:
402,192,172564,128,0,172658:0:0:0:0:
475,192,172564,1,0,0:0:0:0:
109,192,172658,128,0,172752:0:0:0:0:
402,192,172752,128,0,172847:0:0:0:0:
329,192,172752,128,0,172847:0:0:0:0:
36,192,172752,128,0,172941:0:0:0:0:
182,192,172847,128,0,172941:0:0:0:0:
256,192,172847,128,0,172941:0:0:0:0:
109,192,172941,1,0,0:0:0:0:
475,192,172941,1,0,0:0:0:0:
402,192,172941,1,0,0:0:0:0:
182,192,173035,128,0,173130:0:0:0:0:
36,192,173035,128,0,173130:0:0:0:0:
329,192,173035,128,0,173130:0:0:0:0:
475,192,173130,1,0,0:0:0:0:
402,192,173130,1,0,0:0:0:0:
36,192,173224,128,0,173318:0:0:0:0:
256,192,173224,128,0,173318:0:0:0:0:
329,192,173224,128,0,173318:0:0:0:0:
182,192,173318,1,0,0:0:0:0:
109,192,173318,1,0,0:0:0:0:
402,192,173413,128,0,173507:0:0:0:0:
475,192,173413,128,0,173507:0:0:0:0:
256,192,173413,128,0,173507:0:0:0:0:
36,192,173507,1,0,0:0:0:0:
109,192,173507,1,0,0:0:0:0:
329,192,173507,1,0,0:0:0:0:
36,192,173601,128,0,173884:0:0:0:0:
109,192,173601,128,0,173884:0:0:0:0:
329,192,173601,1,0,0:0:0:0:
256,192,173696,1,0,0:0:0:0:
475,192,173696,1,0,0:0:0:0:
402,192,173696,1,0,0:0:0:0:
402,192,173884,1,0,0:0:0:0:
256,192,173884,1,0,0:0:0:0:
182,192,173884,1,0,0:0:0:0:
256,192,173979,128,0,174262:0:0:0:0:
182,192,173979,128,0,174262:0:0:0:0:
402,192,173979,1,0,0:0:0:0:
36,192,174073,128,0,174262:0:0:0:0:
109,192,174073,128,0,174262:0:0:0:0:
475,192,174073,1,0,0:0:0:0:
402,192,174262,1,0,0:0:0:0:
475,192,174262,1,0,0:0:0:0:
402,192,174356,128,0,174450:0:0:0:0:
182,192,174356,1,0,0:0:0:0:
475,192,174356,128,0,174450:0:0:0:0:
36,192,174450,1,0,0:0:0:0:
109,192,174450,1,0,0:0:0:0:
182,192,174545,128,0,174639:0:0:0:0:
329,192,174545,128,0,174639:0:0:0:0:
402,192,174545,128,0,174639:0:0:0:0:
36,192,174733,1,0,0:0:0:0:
182,192,174733,1,0,0:0:0:0:
256,192,174733,1,0,0:0:0:0:
475,192,174828,128,0,174922:0:0:0:0:
329,192,174828,128,0,174922:0:0:0:0:
402,192,174828,128,0,174922:0:0:0:0:
36,192,174922,1,0,0:0:0:0:
256,192,174922,1,0,0:0:0:0:
109,192,175016,128,0,175205:0:0:0:0:
182,192,175016,128,0,175205:0:0:0:0:
475,192,175016,128,0,175299:0:0:0:0:
402,192,175016,128,0,175299:0:0:0:0:
329,192,175205,128,0,175299:0:0:0:0:
256,192,175205,128,0,175299:0:0:0:0:
36,192,175205,128,0,175394:0:0:0:0:
109,192,175299,128,0,175394:0:0:0:0:
182,192,175299,128,0,175488:0:0:0:0:
329,192,175394,128,0,175488:0:0:0:0:
402,192,175394,128,0,175582:0:0:0:0:
109,192,175488,128,0,175677:0:0:0:0:
36,192,175488,128,0,175582:0:0:0:0:
182,192,175582,128,0,175771:0:0:0:0:
256,192,175582,128,0,175771:0:0:0:0:
475,192,175582,128,0,175677:0:0:0:0:
329,192,175677,128,0,175865:0:0:0:0:
36,192,175677,128,0,175865:0:0:0:0:
109,192,175771,128,0,175865:0:0:0:0:
402,192,175771,128,0,176054:0:0:0:0:
475,192,175771,128,0,176054:0:0:0:0:
182,192,175865,128,0,175960:0:0:0:0:
36,192,175960,1,0,0:0:0:0:
109,192,175960,1,0,0:0:0:0:
256,192,175960,1,0,0:0:0:0:
329,192,176054,128,0,176243:0:0:0:0:
182,192,176054,128,0,176337:0:0:0:0:
475,192,176148,128,0,176243:0:0:0:0:
256,192,176243,1,0,0:0:0:0:
36,192,176243,1,0,0:0:0:0:
475,192,176337,128,0,176526:0:0:0:0:
109,192,176337,128,0,176526:0:0:0:0:
402,192,176337,128,0,176526:0:0:0:0:
36,192,176526,128,0,176620:0:0:0:0:
329,192,176526,128,0,176903:0:0:0:0:
256,192,176526,128,0,176715:0:0:0:0:
109,192,176620,128,0,176715:0:0:0:0:
402,192,176715,128,0,176903:0:0:0:0:
182,192,176715,128,0,176998:0:0:0:0:
475,192,176715,128,0,176809:0:0:0:0:
36,192,176809,128,0,176998:0:0:0:0:
256,192,176903,128,0,176998:0:0:0:0:
475,192,176903,128,0,177281:0:0:0:0:
402,192,176998,128,0,177186:0:0:0:0:
329,192,176998,1,0,0:0:0:0:
182,192,177092,128,0,177281:0:0:0:0:
36,192,177092,1,0,0:0:0:0:
256,192,177092,1,0,0:0:0:0:
109,192,177186,128,0,177281:0:0:0:0:
36,192,177281,1,0,0:0:0:0:
402,192,177281,1,0,0:0:0:0:
329,192,177281,1,0,0:0:0:0:
402,192,177375,128,0,177564:0:0:0:0:
329,192,177375,128,0,177564:0:0:0:0:
36,192,177469,1,0,0:0:0:0:
182,192,177469,1,0,0:0:0:0:
109,192,177564,128,0,177658:0:0:0:0:
256,192,177564,128,0,177752:0:0:0:0:
475,192,177658,1,0,0:0:0:0:
109,192,177752,128,0,177941:0:0:0:0:
36,192,177752,128,0,177941:0:0:0:0:
475,192,177847,1,0,0:0:0:0:
256,192,177847,128,0,178035:0:0:0:0:
329,192,177847,128,0,178035:0:0:0:0:
402,192,178035,128,0,178224:0:0:0:0:
475,192,178035,128,0,178224:0:0:0:0:
36,192,178035,128,0,178318:0:0:0:0:
329,192,178224,128,0,178318:0:0:0:0:
182,192,178224,128,0,178318:0:0:0:0:
256,192,178318,128,0,178507:0:0:0:0:
402,192,178318,128,0,178601:0:0:0:0:
36,192,178507,128,0,178790:0:0:0:0:
182,192,178507,128,0,178601:0:0:0:0:
329,192,178601,1,0,0:0:0:0:
109,192,178601,1,0,0:0:0:0:
256,192,178601,1,0,0:0:0:0:
475,192,178696,128,0,178884:0:0:0:0:
402,192,178696,128,0,178884:0:0:0:0:
182,192,178790,1,0,0:0:0:0:
329,192,178790,1,0,0:0:0:0:
256,192,178884,128,0,179262:0:0:0:0:
109,192,178884,128,0,179073:0:0:0:0:
329,192,178979,1,0,0:0:0:0:
402,192,178979,1,0,0:0:0:0:
475,192,179073,128,0,179262:0:0:0:0:
36,192,179073,128,0,179450:0:0:0:0:
109,192,179262,128,0,179450:0:0:0:0:
329,192,179262,128,0,179356:0:0:0:0:
182,192,179356,128,0,179450:0:0:0:0:
256,192,179356,1,0,0:0:0:0:
402,192,179356,128,0,179450:0:0:0:0:
329,192,179450,128,0,179545:0:0:0:0:
475,192,179450,128,0,179545:0:0:0:0:
256,192,179545,128,0,179733:0:0:0:0:
36,192,179545,128,0,179639:0:0:0:0:
182,192,179545,128,0,179639:0:0:0:0:
329,192,179639,128,0,179828:0:0:0:0:
475,192,179639,128,0,179733:0:0:0:0:
36,192,179733,128,0,179922:0:0:0:0:
109,192,179733,128,0,179922:0:0:0:0:
475,192,179828,128,0,180016:0:0:0:0:
402,192,179828,128,0,180016:0:0:0:0:
182,192,179922,1,0,0:0:0:0:
256,192,179922,1,0,0:0:0:0:
36,192,180016,128,0,180299:0:0:0:0:
109,192,180016,1,0,0:0:0:0:
182,192,180111,1,0,0:0:0:0:
256,192,180111,128,0,180299:0:0:0:0:
402,192,180111,128,0,180299:0:0:0:0:
109,192,180299,1,0,0:0:0:0:
182,192,180299,1,0,0:0:0:0:
475,192,180299,1,0,0:0:0:0:
475,192,180394,128,0,180488:0:0:0:0:
329,192,180394,1,0,0:0:0:0:
256,192,180394,1,0,0:0:0:0:
36,192,180488,1,0,0:0:0:0:
182,192,180488,1,0,0:0:0:0:
109,192,180582,128,0,180677:0:0:0:0:
256,192,180582,1,0,0:0:0:0:
402,192,180582,1,0,0:0:0:0:
182,192,180677,1,0,0:0:0:0:
402,192,180677,1,0,0:0:0:0:
36,192,180771,1,0,0:0:0:0:
256,192,180771,1,0,0:0:0:0:
109,192,180865,128,0,180960:0:0:0:0:
402,192,180865,1,0,0:0:0:0:
329,192,180865,1,0,0:0:0:0:
402,192,180960,1,0,0:0:0:0:
329,192,180960,1,0,0:0:0:0:
475,192,181054,128,0,181526:0:0:0:0:
256,192,181054,128,0,181243:0:0:0:0:
36,192,181054,1,0,0:0:0:0:
182,192,181054,1,0,0:0:0:0:
36,192,181243,128,0,181620:0:0:0:0:
402,192,181243,1,0,0:0:0:0:
182,192,181243,1,0,0:0:0:0:
109,192,181337,1,0,0:0:0:0:
329,192,181337,128,0,181526:0:0:0:0:
182,192,181526,1,0,0:0:0:0:
256,192,181526,1,0,0:0:0:0:
109,192,181620,128,0,181809:0:0:0:0:
402,192,181620,128,0,181809:0:0:0:0:
475,192,181620,128,0,181998:0:0:0:0:
329,192,181809,1,0,0:0:0:0:
36,192,181809,128,0,181903:0:0:0:0:
182,192,181809,128,0,182092:0:0:0:0:
256,192,181903,1,0,0:0:0:0:
402,192,181903,128,0,182092:0:0:0:0:
329,192,181998,128,0,182186:0:0:0:0:
109,192,181998,128,0,182092:0:0:0:0:
36,192,181998,128,0,182281:0:0:0:0:
182,192,182186,128,0,182281:0:0:0:0:
256,192,182186,128,0,182375:0:0:0:0:
475,192,182186,128,0,182281:0:0:0:0:
402,192,182281,128,0,182375:0:0:0:0:
109,192,182281,128,0,182375:0:0:0:0:
182,192,182375,128,0,182564:0:0:0:0:
329,192,182375,128,0,182469:0:0:0:0:
475,192,182375,128,0,182564:0:0:0:0:
109,192,182564,128,0,182658:0:0:0:0:
402,192,182564,128,0,182658:0:0:0:0:
329,192,182564,128,0,182752:0:0:0:0:
36,192,182564,128,0,182658:0:0:0:0:
256,192,182658,128,0,182847:0:0:0:0:
36,192,182752,128,0,182847:0:0:0:0:
109,192,182752,128,0,182847:0:0:0:0:
475,192,182752,128,0,182941:0:0:0:0:
182,192,182847,128,0,183035:0:0:0:0:
402,192,182847,128,0,182941:0:0:0:0:
329,192,182941,128,0,183130:0:0:0:0:
36,192,182941,128,0,183035:0:0:0:0:
402,192,183035,128,0,183224:0:0:0:0:
475,192,183035,1,0,0:0:0:0:
182,192,183130,128,0,183224:0:0:0:0:
256,192,183130,128,0,183224:0:0:0:0:
36,192,183130,128,0,183318:0:0:0:0:
256,192,183318,128,0,183507:0:0:0:0:
475,192,183318,128,0,183601:0:0:0:0:
109,192,183318,1,0,0:0:0:0:
402,192,183413,128,0,183507:0:0:0:0:
109,192,183413,1,0,0:0:0:0:
182,192,183507,128,0,183696:0:0:0:0:
329,192,183507,128,0,183696:0:0:0:0:
109,192,183601,128,0,183696:0:0:0:0:
402,192,183601,128,0,183696:0:0:0:0:
256,192,183696,128,0,183884:0:0:0:0:
475,192,183696,1,0,0:0:0:0:
36,192,183696,128,0,183979:0:0:0:0:
475,192,183790,1,0,0:0:0:0:
109,192,183790,128,0,183884:0:0:0:0:
329,192,183884,128,0,183979:0:0:0:0:
182,192,183884,128,0,184073:0:0:0:0:
402,192,183979,128,0,184073:0:0:0:0:
109,192,183979,128,0,184073:0:0:0:0:
475,192,184073,128,0,184450:0:0:0:0:
256,192,184073,1,0,0:0:0:0:
329,192,184073,128,0,184639:0:0:0:0:
36,192,184073,128,0,184262:0:0:0:0:
109,192,184167,128,0,184356:0:0:0:0:
182,192,184262,128,0,184450:0:0:0:0:
256,192,184356,128,0,184545:0:0:0:0:
402,192,184450,1,0,0:0:0:0:
36,192,184450,128,0,184639:0:0:0:0:
182,192,184545,128,0,184733:0:0:0:0:
109,192,184639,128,0,184828:0:0:0:0:
475,192,184639,128,0,184828:0:0:0:0:
402,192,184733,128,0,184922:0:0:0:0:
182,192,184828,1,0,0:0:0:0:
256,192,184828,128,0,184922:0:0:0:0:
36,192,184828,128,0,185488:0:0:0:0:
329,192,184922,128,0,185016:0:0:0:0:
402,192,185016,128,0,185111:0:0:0:0:
182,192,185111,1,0,0:0:0:0:
475,192,185111,128,0,185299:0:0:0:0:
109,192,185111,128,0,185488:0:0:0:0:
402,192,185205,128,0,185299:0:0:0:0:
256,192,185205,128,0,185488:0:0:0:0:
329,192,185205,1,0,0:0:0:0:
182,192,185299,128,0,185488:0:0:0:0:
475,192,185394,128,0,185488:0:0:0:0:
402,192,185394,128,0,185488:0:0:0:0:
36,192,185582,128,0,185960:0:0:0:0:
475,192,185582,128,0,185771:0:0:0:0:
329,192,185582,1,0,0:0:0:0:
256,192,185582,128,0,186148:0:0:0:0:
402,192,185677,128,0,185865:0:0:0:0:
329,192,185771,128,0,185960:0:0:0:0:
182,192,185865,128,0,186054:0:0:0:0:
475,192,185960,128,0,186148:0:0:0:0:
109,192,185960,1,0,0:0:0:0:
329,192,186054,128,0,186243:0:0:0:0:
36,192,186148,128,0,186337:0:0:0:0:
402,192,186148,128,0,186337:0:0:0:0:
109,192,186243,128,0,186431:0:0:0:0:
256,192,186337,128,0,186431:0:0:0:0:
329,192,186337,1,0,0:0:0:0:
475,192,186337,128,0,186998:0:0:0:0:
182,192,186431,128,0,186526:0:0:0:0:
109,192,186526,128,0,186620:0:0:0:0:
329,192,186620,1,0,0:0:0:0:
36,192,186620,128,0,186809:0:0:0:0:
402,192,186620,128,0,186998:0:0:0:0:
256,192,186715,128,0,186998:0:0:0:0:
109,192,186715,128,0,186809:0:0:0:0:
182,192,186715,1,0,0:0:0:0:
329,192,186809,128,0,186998:0:0:0:0:
36,192,186903,128,0,186998:0:0:0:0:
109,192,186903,128,0,186998:0:0:0:0:
36,192,187092,128,0,187281:0:0:0:0:
182,192,187092,128,0,187281:0:0:0:0:
475,192,187092,128,0,187658:0:0:0:0:
329,192,187092,1,0,0:0:0:0:
256,192,187186,128,0,187375:0:0:0:0:
329,192,187281,128,0,187469:0:0:0:0:
109,192,187375,128,0,187564:0:0:0:0:
182,192,187469,128,0,187658:0:0:0:0:
402,192,187469,128,0,187658:0:0:0:0:
256,192,187564,128,0,187658:0:0:0:0:
109,192,187658,128,0,187752:0:0:0:0:
329,192,187658,1,0,0:0:0:0:
36,192,187658,1,0,0:0:0:0:
402,192,187721,128,0,187815:0:0:0:0:
256,192,187784,128,0,187878:0:0:0:0:
475,192,187847,128,0,187941:0:0:0:0:
36,192,187847,128,0,187941:0:0:0:0:
182,192,187909,128,0,188004:0:0:0:0:
329,192,187972,128,0,188067:0:0:0:0:
475,192,188035,128,0,188130:0:0:0:0:
109,192,188035,128,0,188130:0:0:0:0:
256,192,188098,128,0,188192:0:0:0:0:
36,192,188130,128,0,188224:0:0:0:0:
402,192,188161,128,0,188255:0:0:0:0:
475,192,188224,128,0,188318:0:0:0:0:
182,192,188224,128,0,188318:0:0:0:0:
329,192,188287,128,0,188381:0:0:0:0:
36,192,188318,128,0,188413:0:0:0:0:
256,192,188350,128,0,188444:0:0:0:0:
475,192,188413,128,0,188507:0:0:0:0:
109,192,188413,128,0,188507:0:0:0:0:
329,192,188476,128,0,188570:0:0:0:0:
402,192,188538,128,0,188633:0:0:0:0:
256,192,188601,128,0,188790:0:0:0:0:
475,192,188601,128,0,188696:0:0:0:0:
182,192,188601,128,0,188790:0:0:0:0:
36,192,188601,128,0,188790:0:0:0:0:
329,192,188696,128,0,188790:0:0:0:0:
402,192,188790,1,0,0:0:0:0:
109,192,188790,1,0,0:0:0:0:
182,192,188884,128,0,188979:0:0:0:0:
36,192,188884,128,0,188979:0:0:0:0:
475,192,188884,128,0,188979:0:0:0:0:
329,192,188884,128,0,188979:0:0:0:0:
402,192,189073,1,0,0:0:0:0:
256,192,189073,1,0,0:0:0:0:
329,192,189167,128,0,189356:0:0:0:0:
475,192,189167,128,0,189356:0:0:0:0:
36,192,189167,128,0,189545:0:0:0:0:
109,192,189167,128,0,189545:0:0:0:0:
256,192,189450,1,0,0:0:0:0:
329,192,189450,1,0,0:0:0:0:
182,192,189545,1,0,0:0:0:0:
402,192,189545,128,0,190111:0:0:0:0:
182,192,189639,1,0,0:0:0:0:
329,192,189733,1,0,0:0:0:0:
475,192,189733,128,0,190111:0:0:0:0:
329,192,189828,1,0,0:0:0:0:
182,192,189922,1,0,0:0:0:0:
182,192,190016,1,0,0:0:0:0:
109,192,190111,128,0,190299:0:0:0:0:
36,192,190111,128,0,190299:0:0:0:0:
256,192,190111,128,0,190205:0:0:0:0:
329,192,190111,128,0,190205:0:0:0:0:
402,192,190205,128,0,190299:0:0:0:0:
256,192,190299,128,0,190394:0:0:0:0:
36,192,190394,128,0,190677:0:0:0:0:
475,192,190394,128,0,190488:0:0:0:0:
109,192,190394,128,0,190488:0:0:0:0:
329,192,190488,128,0,190582:0:0:0:0:
182,192,190582,128,0,190677:0:0:0:0:
402,192,190677,128,0,190771:0:0:0:0:
475,192,190677,128,0,190960:0:0:0:0:
256,192,190677,128,0,190865:0:0:0:0:
36,192,190771,1,0,0:0:0:0:
109,192,190865,1,0,0:0:0:0:
182,192,190865,128,0,190960:0:0:0:0:
402,192,190865,128,0,190960:0:0:0:0:
36,192,191054,128,0,191243:0:0:0:0:
256,192,191054,128,0,191148:0:0:0:0:
329,192,191148,128,0,191243:0:0:0:0:
109,192,191148,128,0,191337:0:0:0:0:
256,192,191243,128,0,191337:0:0:0:0:
475,192,191243,128,0,191431:0:0:0:0:
182,192,191337,128,0,191431:0:0:0:0:
402,192,191337,128,0,191526:0:0:0:0:
36,192,191431,1,0,0:0:0:0:
256,192,191431,128,0,191620:0:0:0:0:
109,192,191494,1,0,0:0:0:0:
329,192,191526,128,0,191620:0:0:0:0:
182,192,191557,1,0,0:0:0:0:
475,192,191620,1,0,0:0:0:0:
36,192,191620,1,0,0:0:0:0:
329,192,191715,128,0,191809:0:0:0:0:
256,192,191715,128,0,191809:0:0:0:0:
109,192,191809,128,0,191903:0:0:0:0:
36,192,191809,128,0,191903:0:0:0:0:
182,192,191998,128,0,192186:0:0:0:0:
402,192,191998,128,0,192186:0:0:0:0:
36,192,191998,128,0,192752:0:0:0:0:
109,192,191998,128,0,192375:0:0:0:0:
329,192,192092,128,0,192281:0:0:0:0:
256,192,192186,128,0,192375:0:0:0:0:
182,192,192281,128,0,192469:0:0:0:0:
329,192,192375,128,0,192564:0:0:0:0:
475,192,192375,128,0,193035:0:0:0:0:
256,192,192469,128,0,192658:0:0:0:0:
182,192,192564,128,0,192752:0:0:0:0:
109,192,192658,128,0,192847:0:0:0:0:
256,192,192752,128,0,192941:0:0:0:0:
402,192,192752,128,0,193035:0:0:0:0:
182,192,192847,128,0,193035:0:0:0:0:
109,192,192941,128,0,193130:0:0:0:0:
36,192,193035,128,0,193130:0:0:0:0:
329,192,193130,128,0,193318:0:0:0:0:
182,192,193130,128,0,193318:0:0:0:0:
475,192,193130,128,0,194262:0:0:0:0:
402,192,193318,128,0,193696:0:0:0:0:
256,192,193507,128,0,193884:0:0:0:0:
329,192,193696,128,0,194073:0:0:0:0:
402,192,193884,128,0,194450:0:0:0:0:
256,192,194073,128,0,194639:0:0:0:0:
329,192,194262,128,0,194639:0:0:0:0:
475,192,194450,128,0,196148:0:0:0:0:
402,192,194639,128,0,196148:0:0:0:0:
256,192,194828,128,0,195394:0:0:0:0:
36,192,195016,128,0,195394:0:0:0:0:
109,192,195205,128,0,195582:0:0:0:0:
182,192,195394,128,0,195771:0:0:0:0:
36,192,195582,128,0,195960:0:0:0:0:
329,192,195771,128,0,195960:0:0:0:0:
109,192,195771,128,0,196148:0:0:0:0:
182,192,195960,128,0,197658:0:0:0:0:
256,192,196101,1,0,0:0:0:0:
329,192,196148,128,0,197658:0:0:0:0:
256,192,196337,128,0,196715:0:0:0:0:
36,192,196526,128,0,197092:0:0:0:0:
109,192,196715,128,0,196903:0:0:0:0:
256,192,196903,128,0,197469:0:0:0:0:
109,192,197092,128,0,197469:0:0:0:0:
402,192,197281,128,0,197469:0:0:0:0:
475,192,197469,128,0,197658:0:0:0:0:
402,192,197658,128,0,198413:0:0:0:0:
36,192,197658,128,0,199167:0:0:0:0:
256,192,197658,128,0,199167:0:0:0:0:
329,192,197847,128,0,198224:0:0:0:0:
182,192,198035,128,0,198413:0:0:0:0:
109,192,198224,128,0,198601:0:0:0:0:
329,192,198413,128,0,198790:0:0:0:0:
182,192,198601,128,0,198979:0:0:0:0:
109,192,198790,128,0,199167:0:0:0:0:
329,192,198979,128,0,199167:0:0:0:0:
402,192,199167,128,0,199356:0:0:0:0:
256,192,199356,128,0,199545:0:0:0:0:
36,192,199545,128,0,199733:0:0:0:0:
182,192,199733,128,0,199922:0:0:0:0:
329,192,199922,128,0,200111:0:0:0:0:
36,192,200111,128,0,200299:0:0:0:0:
256,192,200299,128,0,200488:0:0:0:0:
475,192,200488,128,0,200677:0:0:0:0:
182,192,200677,128,0,200865:0:0:0:0:
329,192,200677,128,0,202186:0:0:0:0:
109,192,200865,128,0,201054:0:0:0:0:
36,192,201054,128,0,201243:0:0:0:0:
182,192,201243,128,0,201431:0:0:0:0:
475,192,201243,128,0,202186:0:0:0:0:
256,192,201431,128,0,201620:0:0:0:0:
109,192,201620,128,0,201809:0:0:0:0:
182,192,201809,128,0,201998:0:0:0:0:
402,192,201809,128,0,202186:0:0:0:0:
256,192,201998,128,0,202186:0:0:0:0:
182,192,202186,128,0,202375:0:0:0:0:
36,192,202186,128,0,203601:0:0:0:0:
109,192,202375,128,0,202564:0:0:0:0:
182,192,202564,128,0,202752:0:0:0:0:
256,192,202752,128,0,202941:0:0:0:0:
329,192,202941,128,0,203130:0:0:0:0:
109,192,202941,128,0,203601:0:0:0:0:
256,192,203130,128,0,203601:0:0:0:0:
329,192,203318,128,0,203601:0:0:0:0:
402,192,203507,128,0,203601:0:0:0:0:
36,192,203696,128,0,203884:0:0:0:0:
182,192,203696,128,0,203884:0:0:0:0:
329,192,203696,128,0,203884:0:0:0:0:
109,192,203979,128,0,204073:0:0:0:0:
329,192,203979,128,0,204073:0:0:0:0:
402,192,203979,128,0,204073:0:0:0:0:
182,192,204262,128,0,205016:0:0:0:0:
329,192,204262,128,0,204639:0:0:0:0:
475,192,204262,128,0,205111:0:0:0:0:
36,192,204450,128,0,205205:0:0:0:0:
402,192,204639,128,0,205111:0:0:0:0:
329,192,204828,128,0,205111:0:0:0:0:
256,192,205016,128,0,205111:0:0:0:0:
329,192,205205,1,0,0:0:0:0:
182,192,205205,128,0,205299:0:0:0:0:
475,192,205205,1,0,0:0:0:0:
256,192,205205,1,0,0:0:0:0:
109,192,205268,128,0,205362:0:0:0:0:
256,192,205331,128,0,205425:0:0:0:0:
475,192,205394,128,0,205488:0:0:0:0:
329,192,205457,128,0,205551:0:0:0:0:
182,192,205488,128,0,205582:0:0:0:0:
36,192,205582,128,0,205677:0:0:0:0:
109,192,205582,1,0,0:0:0:0:
256,192,205645,128,0,205740:0:0:0:0:
402,192,205708,128,0,205803:0:0:0:0:
475,192,205771,128,0,205865:0:0:0:0:
182,192,205834,128,0,205928:0:0:0:0:
256,192,205897,128,0,205991:0:0:0:0:
329,192,205960,128,0,206054:0:0:0:0:
36,192,205960,1,0,0:0:0:0:
109,192,206023,128,0,206117:0:0:0:0:
256,192,206086,128,0,206180:0:0:0:0:
475,192,206148,128,0,206243:0:0:0:0:
109,192,206211,128,0,206306:0:0:0:0:
329,192,206243,128,0,206337:0:0:0:0:
256,192,206337,128,0,206431:0:0:0:0:
36,192,206337,1,0,0:0:0:0:
182,192,206431,128,0,206526:0:0:0:0:
329,192,206463,128,0,206557:0:0:0:0:
475,192,206526,128,0,206620:0:0:0:0:
36,192,206589,128,0,206683:0:0:0:0:
402,192,206589,128,0,206683:0:0:0:0:
109,192,206715,128,0,206809:0:0:0:0:
256,192,206715,1,0,0:0:0:0:
475,192,206715,1,0,0:0:0:0:
182,192,206777,1,0,0:0:0:0:
329,192,206840,128,0,206935:0:0:0:0:
182,192,206903,128,0,206998:0:0:0:0:
256,192,206966,128,0,207060:0:0:0:0:
402,192,206998,128,0,207092:0:0:0:0:
109,192,207029,128,0,207123:0:0:0:0:
36,192,207092,128,0,207186:0:0:0:0:
475,192,207092,128,0,207186:0:0:0:0:
182,192,207155,128,0,207249:0:0:0:0:
329,192,207186,128,0,207281:0:0:0:0:
475,192,207281,128,0,207375:0:0:0:0:
36,192,207281,128,0,207343:0:0:0:0:
109,192,207343,128,0,207406:0:0:0:0:
329,192,207375,128,0,207469:0:0:0:0:
182,192,207406,128,0,207469:0:0:0:0:
475,192,207469,128,0,207658:0:0:0:0:
402,192,207469,128,0,207658:0:0:0:0:
256,192,207469,128,0,207595:0:0:0:0:
36,192,207532,128,0,207658:0:0:0:0:
182,192,207595,128,0,207721:0:0:0:0:
329,192,207658,128,0,207784:0:0:0:0:
109,192,207721,128,0,207847:0:0:0:0:
256,192,207784,128,0,207909:0:0:0:0:
402,192,207847,128,0,207972:0:0:0:0:
182,192,207909,128,0,207972:0:0:0:0:
329,192,207972,128,0,208035:0:0:0:0:
109,192,208035,128,0,208098:0:0:0:0:
475,192,208035,1,0,0:0:0:0:
256,192,208098,128,0,208161:0:0:0:0:
402,192,208161,128,0,208224:0:0:0:0:
36,192,208224,128,0,208413:0:0:0:0:
475,192,208224,128,0,208318:0:0:0:0:
109,192,208224,1,0,0:0:0:0:
182,192,208224,128,0,208413:0:0:0:0:
256,192,208287,128,0,208381:0:0:0:0:
329,192,208350,128,0,208444:0:0:0:0:
475,192,208413,128,0,208507:0:0:0:0:
402,192,208413,128,0,208507:0:0:0:0:
109,192,208476,128,0,208570:0:0:0:0:
329,192,208507,128,0,208601:0:0:0:0:
182,192,208538,128,0,208633:0:0:0:0:
36,192,208601,128,0,208696:0:0:0:0:
256,192,208601,128,0,208696:0:0:0:0:
475,192,208664,128,0,208759:0:0:0:0:
182,192,208696,128,0,208790:0:0:0:0:
402,192,208727,128,0,208821:0:0:0:0:
36,192,208790,128,0,208884:0:0:0:0:
256,192,208790,128,0,208884:0:0:0:0:
329,192,208853,128,0,208947:0:0:0:0:
109,192,208853,128,0,208947:0:0:0:0:
402,192,208916,128,0,209010:0:0:0:0:
256,192,208979,128,0,209073:0:0:0:0:
36,192,208979,128,0,209073:0:0:0:0:
475,192,208979,128,0,209073:0:0:0:0:
182,192,209042,128,0,209136:0:0:0:0:
109,192,209104,128,0,209199:0:0:0:0:
475,192,209167,128,0,209262:0:0:0:0:
256,192,209167,128,0,209262:0:0:0:0:
329,192,209230,128,0,209325:0:0:0:0:
182,192,209262,128,0,209356:0:0:0:0:
402,192,209293,128,0,209387:0:0:0:0:
36,192,209356,128,0,209450:0:0:0:0:
109,192,209356,128,0,209450:0:0:0:0:
475,192,209356,128,0,209545:0:0:0:0:
256,192,209450,128,0,209545:0:0:0:0:
329,192,209450,128,0,209545:0:0:0:0:
109,192,209545,128,0,209639:0:0:0:0:
182,192,209545,128,0,209639:0:0:0:0:
402,192,209639,1,0,0:0:0:0:
329,192,209639,1,0,0:0:0:0:
36,192,209639,128,0,209733:0:0:0:0:
256,192,209733,128,0,209828:0:0:0:0:
475,192,209733,128,0,209796:0:0:0:0:
182,192,209796,128,0,209891:0:0:0:0:
402,192,209796,128,0,209859:0:0:0:0:
109,192,209859,128,0,209953:0:0:0:0:
329,192,209859,128,0,209922:0:0:0:0:
36,192,209922,128,0,210016:0:0:0:0:
402,192,209985,128,0,210079:0:0:0:0:
256,192,210016,128,0,210111:0:0:0:0:
475,192,210048,128,0,210142:0:0:0:0:
182,192,210111,128,0,210205:0:0:0:0:
329,192,210111,128,0,210205:0:0:0:0:
402,192,210174,128,0,210268:0:0:0:0:
256,192,210205,128,0,210299:0:0:0:0:
36,192,210237,1,0,0:0:0:0:
329,192,210299,128,0,210394:0:0:0:0:
109,192,210299,1,0,0:0:0:0:
475,192,210362,1,0,0:0:0:0:
182,192,210362,128,0,210425:0:0:0:0:
402,192,210394,128,0,210488:0:0:0:0:
109,192,210425,128,0,210488:0:0:0:0:
256,192,210488,128,0,210771:0:0:0:0:
475,192,210488,128,0,211148:0:0:0:0:
36,192,210488,128,0,210551:0:0:0:0:
36,192,210771,1,0,0:0:0:0:
402,192,210771,128,0,211148:0:0:0:0:
109,192,210818,1,0,0:0:0:0:
256,192,210865,1,0,0:0:0:0:
182,192,210865,1,0,0:0:0:0:
256,192,210960,1,0,0:0:0:0:
182,192,210960,1,0,0:0:0:0:
109,192,211054,128,0,211148:0:0:0:0:
36,192,211054,128,0,211148:0:0:0:0:
329,192,211054,128,0,211148:0:0:0:0:
36,192,211243,1,0,0:0:0:0:
475,192,211243,128,0,211431:0:0:0:0:
109,192,211243,1,0,0:0:0:0:
402,192,211243,1,0,0:0:0:0:
256,192,211243,1,0,0:0:0:0:
182,192,211337,128,0,211431:0:0:0:0:
329,192,211431,1,0,0:0:0:0:
36,192,211431,128,0,211620:0:0:0:0:
329,192,211526,1,0,0:0:0:0:
109,192,211526,128,0,211715:0:0:0:0:
402,192,211620,1,0,0:0:0:0:
475,192,211620,1,0,0:0:0:0:
182,192,211620,128,0,211809:0:0:0:0:
329,192,211715,1,0,0:0:0:0:
36,192,211809,1,0,0:0:0:0:
475,192,211809,128,0,212281:0:0:0:0:
36,192,211903,1,0,0:0:0:0:
402,192,211903,128,0,212092:0:0:0:0:
182,192,211998,128,0,212186:0:0:0:0:
109,192,211998,128,0,212186:0:0:0:0:
329,192,211998,128,0,212092:0:0:0:0:
402,192,212186,128,0,212281:0:0:0:0:
36,192,212186,1,0,0:0:0:0:
329,192,212186,1,0,0:0:0:0:
182,192,212281,1,0,0:0:0:0:
109,192,212375,128,0,212469:0:0:0:0:
475,192,212375,128,0,212469:0:0:0:0:
402,192,212375,1,0,0:0:0:0:
36,192,212564,128,0,212847:0:0:0:0:
256,192,212564,128,0,212941:0:0:0:0:
182,192,212564,128,0,213130:0:0:0:0:
475,192,212564,1,0,0:0:0:0:
109,192,212941,1,0,0:0:0:0:
475,192,212941,128,0,213067:0:0:0:0:
402,192,213004,128,0,213130:0:0:0:0:
329,192,213067,128,0,213192:0:0:0:0:
109,192,213130,1,0,0:0:0:0:
256,192,213130,128,0,213318:0:0:0:0:
36,192,213130,1,0,0:0:0:0:
182,192,213224,1,0,0:0:0:0:
36,192,213318,1,0,0:0:0:0:
402,192,213318,128,0,213444:0:0:0:0:
329,192,213381,128,0,213507:0:0:0:0:
36,192,213413,1,0,0:0:0:0:
256,192,213444,128,0,213570:0:0:0:0:
182,192,213507,128,0,213633:0:0:0:0:
475,192,213507,128,0,213570:0:0:0:0:
109,192,213507,1,0,0:0:0:0:
402,192,213570,128,0,213633:0:0:0:0:
329,192,213633,128,0,213696:0:0:0:0:
256,192,213696,128,0,213759:0:0:0:0:
36,192,213696,128,0,213759:0:0:0:0:
109,192,213759,128,0,213821:0:0:0:0:
402,192,213790,1,0,0:0:0:0:
182,192,213821,128,0,213884:0:0:0:0:
256,192,213884,128,0,213947:0:0:0:0:
329,192,213884,1,0,0:0:0:0:
475,192,213884,1,0,0:0:0:0:
36,192,213947,128,0,214073:0:0:0:0:
109,192,214010,128,0,214136:0:0:0:0:
402,192,214073,1,0,0:0:0:0:
182,192,214073,128,0,214199:0:0:0:0:
475,192,214073,1,0,0:0:0:0:
329,192,214136,128,0,214262:0:0:0:0:
402,192,214199,128,0,214325:0:0:0:0:
36,192,214262,1,0,0:0:0:0:
109,192,214262,1,0,0:0:0:0:
475,192,214262,128,0,214545:0:0:0:0:
182,192,214262,128,0,214545:0:0:0:0:
36,192,214545,1,0,0:0:0:0:
109,192,214545,1,0,0:0:0:0:
402,192,214545,128,0,214733:0:0:0:0:
109,192,214639,1,0,0:0:0:0:
36,192,214639,128,0,214733:0:0:0:0:
256,192,214733,1,0,0:0:0:0:
182,192,214733,1,0,0:0:0:0:
36,192,214828,128,0,215205:0:0:0:0:
329,192,214828,128,0,215205:0:0:0:0:
475,192,214828,128,0,215205:0:0:0:0:
182,192,215111,1,0,0:0:0:0:
256,192,215111,1,0,0:0:0:0:
182,192,215299,128,0,215394:0:0:0:0:
256,192,215299,128,0,215394:0:0:0:0:
109,192,215299,1,0,0:0:0:0:
329,192,215347,128,0,215441:0:0:0:0:
475,192,215394,128,0,215488:0:0:0:0:
402,192,215394,128,0,215488:0:0:0:0:
36,192,215394,128,0,215582:0:0:0:0:
256,192,215488,128,0,215582:0:0:0:0:
182,192,215488,128,0,215677:0:0:0:0:
475,192,215582,128,0,215677:0:0:0:0:
402,192,215582,128,0,215771:0:0:0:0:
109,192,215677,128,0,215771:0:0:0:0:
256,192,215677,128,0,215771:0:0:0:0:
36,192,215771,128,0,215865:0:0:0:0:
475,192,215771,1,0,0:0:0:0:
329,192,215771,128,0,215960:0:0:0:0:
182,192,215865,128,0,215960:0:0:0:0:
109,192,215865,128,0,215960:0:0:0:0:
109,192,216054,128,0,216148:0:0:0:0:
256,192,216054,128,0,216148:0:0:0:0:
475,192,216054,1,0,0:0:0:0:
182,192,216148,1,0,0:0:0:0:
475,192,216148,1,0,0:0:0:0:
256,192,216243,128,0,216337:0:0:0:0:
109,192,216243,128,0,216337:0:0:0:0:
36,192,216337,1,0,0:0:0:0:
402,192,216337,1,0,0:0:0:0:
475,192,216431,128,0,216620:0:0:0:0:
329,192,216431,128,0,216620:0:0:0:0:
109,192,216620,1,0,0:0:0:0:
36,192,216620,1,0,0:0:0:0:
475,192,216667,128,0,217186:0:0:0:0:
402,192,216715,128,0,217092:0:0:0:0:
329,192,216762,128,0,216998:0:0:0:0:
36,192,216809,1,0,0:0:0:0:
109,192,216903,1,0,0:0:0:0:
182,192,216903,1,0,0:0:0:0:
256,192,216998,128,0,217186:0:0:0:0:
329,192,217092,128,0,217186:0:0:0:0:
36,192,217092,1,0,0:0:0:0:
182,192,217092,128,0,217281:0:0:0:0:
109,192,217186,128,0,217375:0:0:0:0:
36,192,217281,1,0,0:0:0:0:
256,192,217281,1,0,0:0:0:0:
329,192,217281,128,0,217469:0:0:0:0:
475,192,217375,128,0,217469:0:0:0:0:
36,192,217469,1,0,0:0:0:0:
256,192,217469,1,0,0:0:0:0:
109,192,217564,1,0,0:0:0:0:
329,192,217564,128,0,217658:0:0:0:0:
475,192,217564,128,0,217752:0:0:0:0:
36,192,217752,128,0,217941:0:0:0:0:
109,192,217752,1,0,0:0:0:0:
329,192,217752,128,0,218790:0:0:0:0:
182,192,217847,1,0,0:0:0:0:
256,192,217847,128,0,217941:0:0:0:0:
475,192,217847,128,0,218790:0:0:0:0:
402,192,218035,128,0,218130:0:0:0:0:
256,192,218035,128,0,218130:0:0:0:0:
36,192,218035,1,0,0:0:0:0:
402,192,218224,128,0,218318:0:0:0:0:
36,192,218224,1,0,0:0:0:0:
256,192,218318,128,0,218413:0:0:0:0:
109,192,218318,1,0,0:0:0:0:
402,192,218413,128,0,218601:0:0:0:0:
256,192,218507,1,0,0:0:0:0:
109,192,218507,1,0,0:0:0:0:
36,192,218601,128,0,218696:0:0:0:0:
109,192,218664,128,0,218759:0:0:0:0:
182,192,218727,128,0,218828:0:0:0:0:
36,192,218790,128,0,218866:0:0:0:0:
402,192,218790,128,0,218866:0:0:0:0:
256,192,218790,128,0,218866:0:0:0:0:
182,192,219190,1,0,0:0:0:0:
329,192,219248,128,0,219358:0:0:0:0:
36,192,219248,1,0,0:0:0:0:
475,192,219303,128,0,220589:0:0:0:0:
182,192,219689,128,0,219811:0:0:0:0:
402,192,219689,128,0,220589:0:0:0:0:
109,192,220180,128,0,220316:0:0:0:0:
329,192,220180,128,0,220589:0:0:0:0:
36,192,220725,128,0,221350:0:0:0:0:
182,192,220725,128,0,221350:0:0:0:0:
475,192,220725,128,0,221555:0:0:0:0:
329,192,221350,128,0,221555:0:0:0:0:
256,192,221452,128,0,221760:0:0:0:0:
109,192,221555,128,0,221760:0:0:0:0:
329,192,221760,128,0,222069:0:0:0:0:
475,192,221760,128,0,222171:0:0:0:0:
256,192,221863,128,0,221966:0:0:0:0:
36,192,221966,128,0,222274:0:0:0:0:
182,192,221966,128,0,222274:0:0:0:0:
402,192,222069,128,0,222171:0:0:0:0:
256,192,222171,128,0,222377:0:0:0:0:
329,192,222171,128,0,222573:0:0:0:0:
109,192,222274,128,0,222377:0:0:0:0:
475,192,222377,128,0,222573:0:0:0:0:
182,192,222475,128,0,222573:0:0:0:0:
36,192,222573,128,0,222671:0:0:0:0:
256,192,222573,1,0,0:0:0:0:
402,192,222573,1,0,0:0:0:0:
182,192,222671,128,0,222867:0:0:0:0:
475,192,222769,1,0,0:0:0:0:
402,192,222769,1,0,0:0:0:0:
36,192,222769,128,0,222965:0:0:0:0:
256,192,222867,128,0,222965:0:0:0:0:
475,192,222965,1,0,0:0:0:0:
329,192,222965,1,0,0:0:0:0:
109,192,222965,128,0,223161:0:0:0:0:
256,192,223063,128,0,223259:0:0:0:0:
475,192,223161,1,0,0:0:0:0:
182,192,223161,1,0,0:0:0:0:
402,192,223161,128,0,223357:0:0:0:0:
36,192,223259,128,0,223455:0:0:0:0:
329,192,223259,1,0,0:0:0:0:
109,192,223357,1,0,0:0:0:0:
182,192,223357,128,0,223553:0:0:0:0:
256,192,223455,1,0,0:0:0:0:
329,192,223455,128,0,223651:0:0:0:0:
475,192,223553,1,0,0:0:0:0:
109,192,223553,128,0,223749:0:0:0:0:
182,192,223651,1,0,0:0:0:0:
256,192,223651,128,0,223847:0:0:0:0:
36,192,223749,1,0,0:0:0:0:
402,192,223749,128,0,223945:0:0:0:0:
109,192,223847,1,0,0:0:0:0:
182,192,223847,128,0,223945:0:0:0:0:
36,192,223945,1,0,0:0:0:0:
256,192,223945,128,0,224133:0:0:0:0:
329,192,223945,128,0,226020:0:0:0:0:
475,192,223945,128,0,226020:0:0:0:0:
182,192,224133,128,0,224322:0:0:0:0:
402,192,224133,1,0,0:0:0:0:
109,192,224228,1,0,0:0:0:0:
36,192,224228,1,0,0:0:0:0:
256,192,224322,128,0,224511:0:0:0:0:
36,192,224416,1,0,0:0:0:0:
109,192,224416,1,0,0:0:0:0:
402,192,224511,128,0,224699:0:0:0:0:
182,192,224511,1,0,0:0:0:0:
182,192,224699,128,0,224888:0:0:0:0:
36,192,224699,1,0,0:0:0:0:
36,192,224794,1,0,0:0:0:0:
256,192,224888,128,0,225077:0:0:0:0:
402,192,225077,128,0,225265:0:0:0:0:
109,192,225077,1,0,0:0:0:0:
109,192,225171,1,0,0:0:0:0:
182,192,225265,128,0,225454:0:0:0:0:
402,192,225454,128,0,225643:0:0:0:0:
36,192,225454,1,0,0:0:0:0:
36,192,225643,128,0,225831:0:0:0:0:
256,192,225643,1,0,0:0:0:0:
109,192,225737,1,0,0:0:0:0:
182,192,225737,1,0,0:0:0:0:
256,192,225831,128,0,226020:0:0:0:0:
182,192,225926,1,0,0:0:0:0:
109,192,225926,1,0,0:0:0:0:
402,192,226020,128,0,226209:0:0:0:0:
36,192,226020,128,0,226083:0:0:0:0:
109,192,226083,128,0,226146:0:0:0:0:
182,192,226146,128,0,226397:0:0:0:0:
329,192,226209,1,0,0:0:0:0:
36,192,226209,128,0,226492:0:0:0:0:
329,192,226303,1,0,0:0:0:0:
256,192,226397,1,0,0:0:0:0:
402,192,226397,1,0,0:0:0:0:
109,192,226397,128,0,226492:0:0:0:0:
475,192,226492,128,0,226586:0:0:0:0:
329,192,226492,128,0,226586:0:0:0:0:
182,192,226586,1,0,0:0:0:0:
36,192,226586,1,0,0:0:0:0:
36,192,226680,1,0,0:0:0:0:
402,192,226680,128,0,226775:0:0:0:0:
256,192,226680,128,0,226775:0:0:0:0:
475,192,226775,1,0,0:0:0:0:
109,192,226775,1,0,0:0:0:0:
182,192,226869,128,0,227058:0:0:0:0:
329,192,226869,128,0,226963:0:0:0:0:
475,192,226963,128,0,227058:0:0:0:0:
402,192,226963,128,0,227058:0:0:0:0:
36,192,226963,128,0,227058:0:0:0:0:
329,192,227152,1,0,0:0:0:0:
182,192,227152,128,0,227246:0:0:0:0:
36,192,227152,128,0,227246:0:0:0:0:
402,192,227246,1,0,0:0:0:0:
475,192,227246,1,0,0:0:0:0:
109,192,227341,128,0,227435:0:0:0:0:
256,192,227372,128,0,227718:0:0:0:0:
402,192,227435,1,0,0:0:0:0:
329,192,227435,1,0,0:0:0:0:
475,192,227529,128,0,227624:0:0:0:0:
109,192,227529,128,0,227624:0:0:0:0:
36,192,227529,128,0,227812:0:0:0:0:
402,192,227718,1,0,0:0:0:0:
109,192,227718,128,0,227812:0:0:0:0:
182,192,227718,128,0,227907:0:0:0:0:
402,192,227812,1,0,0:0:0:0:
256,192,227812,128,0,227907:0:0:0:0:
329,192,227812,128,0,227907:0:0:0:0:
109,192,227907,128,0,228001:0:0:0:0:
36,192,227907,128,0,228001:0:0:0:0:
182,192,228001,128,0,228190:0:0:0:0:
329,192,228001,128,0,228284:0:0:0:0:
475,192,228095,1,0,0:0:0:0:
256,192,228190,128,0,228378:0:0:0:0:
475,192,228190,1,0,0:0:0:0:
402,192,228284,128,0,228378:0:0:0:0:
36,192,228284,128,0,228378:0:0:0:0:
182,192,228284,128,0,228473:0:0:0:0:
109,192,228378,128,0,228473:0:0:0:0:
36,192,228473,1,0,0:0:0:0:
475,192,228473,1,0,0:0:0:0:
329,192,228473,1,0,0:0:0:0:
475,192,228567,128,0,228756:0:0:0:0:
329,192,228567,128,0,228661:0:0:0:0:
182,192,228661,128,0,228756:0:0:0:0:
36,192,228661,128,0,228756:0:0:0:0:
256,192,228661,128,0,228850:0:0:0:0:
402,192,228756,1,0,0:0:0:0:
109,192,228756,128,0,228945:0:0:0:0:
182,192,228850,128,0,229039:0:0:0:0:
329,192,228945,128,0,229133:0:0:0:0:
475,192,228945,1,0,0:0:0:0:
109,192,229039,128,0,229133:0:0:0:0:
36,192,229039,128,0,229133:0:0:0:0:
402,192,229039,128,0,229228:0:0:0:0:
182,192,229133,128,0,229322:0:0:0:0:
256,192,229133,1,0,0:0:0:0:
109,192,229228,128,0,229322:0:0:0:0:
36,192,229228,128,0,229322:0:0:0:0:
475,192,229228,128,0,229416:0:0:0:0:
329,192,229322,128,0,229416:0:0:0:0:
182,192,229416,1,0,0:0:0:0:
109,192,229416,1,0,0:0:0:0:
109,192,229511,1,0,0:0:0:0:
182,192,229511,1,0,0:0:0:0:
329,192,229605,1,0,0:0:0:0:
402,192,229605,1,0,0:0:0:0:
402,192,229699,1,0,0:0:0:0:
329,192,229699,1,0,0:0:0:0:
109,192,229794,1,0,0:0:0:0:
182,192,229794,1,0,0:0:0:0:
256,192,229888,1,0,0:0:0:0:
182,192,229888,1,0,0:0:0:0:
402,192,229982,128,0,230045:0:0:0:0:
36,192,229982,128,0,230077:0:0:0:0:
475,192,229982,128,0,230171:0:0:0:0:
256,192,229982,1,0,0:0:0:0:
329,192,230045,128,0,230108:0:0:0:0:
109,192,230045,128,0,230139:0:0:0:0:
182,192,230108,128,0,230202:0:0:0:0:
402,192,230171,128,0,230265:0:0:0:0:
256,192,230171,128,0,230360:0:0:0:0:
109,192,230234,128,0,230297:0:0:0:0:
329,192,230297,128,0,230391:0:0:0:0:
475,192,230360,128,0,230422:0:0:0:0:
36,192,230360,128,0,230548:0:0:0:0:
402,192,230422,128,0,230485:0:0:0:0:
182,192,230485,128,0,230580:0:0:0:0:
109,192,230548,128,0,230643:0:0:0:0:
256,192,230548,128,0,230737:0:0:0:0:
402,192,230611,128,0,230706:0:0:0:0:
36,192,230674,128,0,230737:0:0:0:0:
329,192,230674,128,0,230768:0:0:0:0:
109,192,230737,128,0,230800:0:0:0:0:
475,192,230737,128,0,230926:0:0:0:0:
182,192,230800,128,0,230863:0:0:0:0:
402,192,230863,128,0,230926:0:0:0:0:
256,192,230926,128,0,231020:0:0:0:0:
36,192,230926,128,0,231114:0:0:0:0:
329,192,230989,128,0,231051:0:0:0:0:
109,192,230989,128,0,231083:0:0:0:0:
182,192,231051,128,0,231146:0:0:0:0:
402,192,231114,128,0,231177:0:0:0:0:
256,192,231114,128,0,231303:0:0:0:0:
329,192,231177,128,0,231240:0:0:0:0:
109,192,231240,128,0,231303:0:0:0:0:
36,192,231303,128,0,231397:0:0:0:0:
475,192,231303,128,0,231492:0:0:0:0:
329,192,231366,128,0,231460:0:0:0:0:
182,192,231366,128,0,231429:0:0:0:0:
109,192,231429,128,0,231492:0:0:0:0:
256,192,231492,128,0,231555:0:0:0:0:
402,192,231492,128,0,231680:0:0:0:0:
36,192,231555,128,0,231649:0:0:0:0:
182,192,231617,128,0,231680:0:0:0:0:
109,192,231680,128,0,231743:0:0:0:0:
329,192,231680,128,0,231869:0:0:0:0:
475,192,231743,128,0,231838:0:0:0:0:
256,192,231743,128,0,231806:0:0:0:0:
402,192,231806,128,0,231900:0:0:0:0:
182,192,231869,128,0,231932:0:0:0:0:
36,192,231869,128,0,232058:0:0:0:0:
256,192,231932,128,0,231995:0:0:0:0:
329,192,231995,128,0,232089:0:0:0:0:
402,192,232058,128,0,232121:0:0:0:0:
109,192,232058,128,0,232246:0:0:0:0:
182,192,232121,128,0,232183:0:0:0:0:
256,192,232183,128,0,232246:0:0:0:0:
475,192,232246,128,0,232341:0:0:0:0:
329,192,232246,128,0,232309:0:0:0:0:
402,192,232246,128,0,232435:0:0:0:0:
182,192,232309,128,0,232372:0:0:0:0:
256,192,232372,128,0,232467:0:0:0:0:
109,192,232372,128,0,232435:0:0:0:0:
329,192,232435,128,0,232529:0:0:0:0:
36,192,232435,128,0,232624:0:0:0:0:
475,192,232498,128,0,232592:0:0:0:0:
402,192,232561,128,0,232624:0:0:0:0:
182,192,232561,128,0,232624:0:0:0:0:
256,192,232624,128,0,232687:0:0:0:0:
109,192,232624,128,0,232812:0:0:0:0:
329,192,232687,128,0,232750:0:0:0:0:
475,192,232750,128,0,232844:0:0:0:0:
402,192,232750,128,0,232812:0:0:0:0:
256,192,232812,128,0,232875:0:0:0:0:
182,192,232812,128,0,233001:0:0:0:0:
329,192,232875,128,0,232938:0:0:0:0:
109,192,232938,128,0,233001:0:0:0:0:
475,192,233001,128,0,233190:0:0:0:0:
36,192,233001,128,0,233190:0:0:0:0:
402,192,233001,128,0,233095:0:0:0:0:
256,192,233095,128,0,233190:0:0:0:0:
109,192,233095,128,0,233190:0:0:0:0:
402,192,233190,128,0,233284:0:0:0:0:
182,192,233190,128,0,233284:0:0:0:0:
109,192,233284,128,0,233473:0:0:0:0:
36,192,233284,128,0,233473:0:0:0:0:
329,192,233284,128,0,233378:0:0:0:0:
256,192,233378,128,0,233473:0:0:0:0:
475,192,233378,128,0,233473:0:0:0:0:
182,192,233473,128,0,233567:0:0:0:0:
36,192,233567,128,0,233661:0:0:0:0:
256,192,233567,128,0,233661:0:0:0:0:
402,192,233567,128,0,233756:0:0:0:0:
475,192,233567,128,0,233756:0:0:0:0:
329,192,233661,128,0,233756:0:0:0:0:
109,192,233661,128,0,233756:0:0:0:0:
256,192,233756,128,0,233850:0:0:0:0:
182,192,233756,128,0,233850:0:0:0:0:
36,192,233850,128,0,233945:0:0:0:0:
402,192,233850,128,0,234039:0:0:0:0:
329,192,233850,128,0,234039:0:0:0:0:
475,192,233945,128,0,234039:0:0:0:0:
182,192,233945,128,0,234039:0:0:0:0:
109,192,234039,128,0,234133:0:0:0:0:
256,192,234039,128,0,234133:0:0:0:0:
182,192,234133,128,0,234228:0:0:0:0:
402,192,234133,128,0,234228:0:0:0:0:
475,192,234133,128,0,234322:0:0:0:0:
36,192,234133,128,0,234322:0:0:0:0:
256,192,234228,128,0,234322:0:0:0:0:
329,192,234228,128,0,234322:0:0:0:0:
109,192,234322,128,0,234416:0:0:0:0:
402,192,234322,128,0,234416:0:0:0:0:
475,192,234416,128,0,234511:0:0:0:0:
36,192,234416,128,0,234605:0:0:0:0:
182,192,234416,128,0,234605:0:0:0:0:
402,192,234511,128,0,234605:0:0:0:0:
329,192,234511,128,0,234605:0:0:0:0:
109,192,234605,128,0,234699:0:0:0:0:
256,192,234605,128,0,234699:0:0:0:0:
402,192,234699,128,0,234888:0:0:0:0:
329,192,234699,128,0,234794:0:0:0:0:
475,192,234699,128,0,234888:0:0:0:0:
36,192,234794,128,0,234888:0:0:0:0:
182,192,234794,128,0,234888:0:0:0:0:
329,192,234888,128,0,234982:0:0:0:0:
256,192,234888,128,0,234982:0:0:0:0:
36,192,234982,128,0,235171:0:0:0:0:
402,192,234982,128,0,235077:0:0:0:0:
475,192,234982,128,0,235171:0:0:0:0:
109,192,235077,128,0,235171:0:0:0:0:
182,192,235077,128,0,235171:0:0:0:0:
402,192,235171,128,0,235265:0:0:0:0:
329,192,235171,128,0,235265:0:0:0:0:
256,192,235265,128,0,235360:0:0:0:0:
182,192,235265,128,0,235360:0:0:0:0:
36,192,235265,128,0,235454:0:0:0:0:
109,192,235265,128,0,235454:0:0:0:0:
402,192,235360,128,0,235454:0:0:0:0:
475,192,235360,128,0,235454:0:0:0:0:
182,192,235454,128,0,235548:0:0:0:0:
329,192,235454,128,0,235548:0:0:0:0:
402,192,235548,128,0,235737:0:0:0:0:
256,192,235548,128,0,235643:0:0:0:0:
36,192,235548,128,0,235643:0:0:0:0:
475,192,235548,128,0,235737:0:0:0:0:
329,192,235643,128,0,235737:0:0:0:0:
109,192,235643,128,0,235737:0:0:0:0:
256,192,235737,128,0,235831:0:0:0:0:
182,192,235737,128,0,235831:0:0:0:0:
109,192,235831,128,0,236020:0:0:0:0:
402,192,235831,128,0,236020:0:0:0:0:
329,192,235831,128,0,236209:0:0:0:0:
36,192,235831,128,0,236209:0:0:0:0:
475,192,235831,128,0,236020:0:0:0:0:
475,192,236209,1,0,0:0:0:0:
402,192,236209,1,0,0:0:0:0:
109,192,236272,1,0,0:0:0:0:
182,192,236272,1,0,0:0:0:0:
475,192,236334,1,0,0:0:0:0:
402,192,236334,1,0,0:0:0:0:
256,192,236397,1,0,0:0:0:0:
36,192,236397,1,0,0:0:0:0:
329,192,236492,128,0,236680:0:0:0:0:
182,192,236492,1,0,0:0:0:0:
109,192,236555,1,0,0:0:0:0:
36,192,236555,1,0,0:0:0:0:
475,192,236586,128,0,236775:0:0:0:0:
36,192,236680,1,0,0:0:0:0:
256,192,236680,128,0,236869:0:0:0:0:
109,192,236680,1,0,0:0:0:0:
329,192,236775,128,0,236963:0:0:0:0:
475,192,236838,1,0,0:0:0:0:
402,192,236838,1,0,0:0:0:0:
182,192,236869,128,0,237058:0:0:0:0:
36,192,236932,1,0,0:0:0:0:
109,192,236963,128,0,237152:0:0:0:0:
256,192,237026,1,0,0:0:0:0:
402,192,237026,1,0,0:0:0:0:
475,192,237058,128,0,237246:0:0:0:0:
182,192,237152,1,0,0:0:0:0:
402,192,237152,128,0,237341:0:0:0:0:
36,192,237215,1,0,0:0:0:0:
329,192,237246,1,0,0:0:0:0:
256,192,237246,128,0,237435:0:0:0:0:
475,192,237341,1,0,0:0:0:0:
182,192,237341,128,0,237529:0:0:0:0:
329,192,237435,1,0,0:0:0:0:
36,192,237435,128,0,237529:0:0:0:0:
109,192,237529,1,0,0:0:0:0:
256,192,237529,1,0,0:0:0:0:
475,192,237529,1,0,0:0:0:0:
402,192,237529,1,0,0:0:0:0:
36,192,237718,1,0,0:0:0:0:
182,192,237718,1,0,0:0:0:0:
329,192,237718,1,0,0:0:0:0:
36,192,237812,1,0,0:0:0:0:
182,192,237812,1,0,0:0:0:0:
329,192,237812,1,0,0:0:0:0:
109,192,237907,1,0,0:0:0:0:
256,192,237907,1,0,0:0:0:0:
475,192,237907,1,0,0:0:0:0:
329,192,238001,128,0,238095:0:0:0:0:
475,192,238001,128,0,238095:0:0:0:0:
36,192,238001,128,0,238095:0:0:0:0:
182,192,238001,128,0,238095:0:0:0:0:
402,192,238190,1,0,0:0:0:0:
256,192,238190,1,0,0:0:0:0:
36,192,238190,1,0,0:0:0:0:
329,192,238284,128,0,238378:0:0:0:0:
475,192,238284,128,0,238378:0:0:0:0:
36,192,238284,128,0,238378:0:0:0:0:
182,192,238284,128,0,238378:0:0:0:0:
402,192,238473,1,0,0:0:0:0:
109,192,238473,1,0,0:0:0:0:
256,192,238473,1,0,0:0:0:0:
329,192,238567,128,0,238661:0:0:0:0:
182,192,238567,128,0,238661:0:0:0:0:
36,192,238567,128,0,238661:0:0:0:0:
475,192,238567,128,0,238661:0:0:0:0:
329,192,238756,128,0,238850:0:0:0:0:
475,192,238756,128,0,238850:0:0:0:0:
36,192,238756,128,0,238850:0:0:0:0:
182,192,238756,128,0,238850:0:0:0:0:
182,192,238945,128,0,239228:0:0:0:0:
36,192,238945,128,0,239228:0:0:0:0:
256,192,238945,128,0,239228:0:0:0:0:
475,192,238945,128,0,239228:0:0:0:0:
329,192,238945,128,0,239228:0:0:0:0:
36,192,251839,132,0,254394:0:0:0:0:
36,192,254505,128,0,254616:0:0:0:0:
109,192,254505,128,0,254616:0:0:0:0:
402,192,254505,128,0,254616:0:0:0:0:
475,192,254505,128,0,254616:0:0:0:0:
182,192,254505,128,0,254616:0:0:0:0:
329,192,254505,128,0,254616:0:0:0:0:
36,192,254727,128,0,254839:0:0:0:0:
109,192,254727,128,0,254839:0:0:0:0:
402,192,254727,128,0,254839:0:0:0:0:
475,192,254727,128,0,254839:0:0:0:0:
329,192,254727,128,0,254839:0:0:0:0:
182,192,254727,128,0,254839:0:0:0:0:
402,192,254950,128,0,255061:0:0:0:0:
475,192,254950,128,0,255061:0:0:0:0:
36,192,254950,128,0,255061:0:0:0:0:
109,192,254950,128,0,255061:0:0:0:0:
182,192,254950,128,0,255061:0:0:0:0:
329,192,254950,128,0,255061:0:0:0:0:
36,192,255172,128,0,255283:0:0:0:0:
109,192,255172,128,0,255283:0:0:0:0:
402,192,255172,128,0,255283:0:0:0:0:
475,192,255172,128,0,255283:0:0:0:0:
329,192,255172,128,0,255283:0:0:0:0:
182,192,255172,128,0,255283:0:0:0:0:
36,192,255394,128,0,255727:0:0:0:0:
109,192,255394,128,0,255727:0:0:0:0:
256,192,255394,128,0,255727:0:0:0:0:
402,192,255394,128,0,255727:0:0:0:0:
475,192,255394,128,0,255727:0:0:0:0:
329,192,255394,128,0,255505:0:0:0:0:
182,192,255394,128,0,255505:0:0:0:0:
182,192,255616,128,0,255950:0:0:0:0:
329,192,255616,128,0,256172:0:0:0:0:
36,192,255839,128,0,255950:0:0:0:0:
109,192,255839,128,0,255950:0:0:0:0:
402,192,255839,128,0,256172:0:0:0:0:
475,192,255839,128,0,256172:0:0:0:0:
256,192,255839,128,0,256394:0:0:0:0:
36,192,256061,128,0,256616:0:0:0:0:
109,192,256061,128,0,256394:0:0:0:0:
182,192,256061,128,0,256616:0:0:0:0:
329,192,256283,128,0,256616:0:0:0:0:
402,192,256283,128,0,257061:0:0:0:0:
475,192,256283,128,0,256616:0:0:0:0:
109,192,256505,128,0,257061:0:0:0:0:
256,192,256505,128,0,256616:0:0:0:0:
36,192,256727,128,0,257061:0:0:0:0:
182,192,256727,128,0,256839:0:0:0:0:
329,192,256727,128,0,256839:0:0:0:0:
475,192,256727,128,0,256839:0:0:0:0:
256,192,256727,128,0,257283:0:0:0:0:
182,192,256950,128,0,257505:0:0:0:0:
329,192,256950,128,0,257505:0:0:0:0:
475,192,256950,128,0,257283:0:0:0:0:
36,192,257172,128,0,257505:0:0:0:0:
109,192,257172,128,0,257505:0:0:0:0:
402,192,257172,128,0,257505:0:0:0:0:
256,192,257394,128,0,258394:0:0:0:0:
475,192,257394,128,0,257727:0:0:0:0:
109,192,257616,128,0,257950:0:0:0:0:
182,192,257616,128,0,257727:0:0:0:0:
329,192,257616,128,0,257950:0:0:0:0:
402,192,257616,128,0,258172:0:0:0:0:
36,192,257616,128,0,257950:0:0:0:0:
182,192,257839,128,0,258394:0:0:0:0:
475,192,257839,128,0,258616:0:0:0:0:
36,192,258061,128,0,258394:0:0:0:0:
109,192,258061,128,0,258394:0:0:0:0:
329,192,258061,128,0,258172:0:0:0:0:
329,192,258283,128,0,258394:0:0:0:0:
402,192,258283,128,0,258616:0:0:0:0:
36,192,258505,128,0,258839:0:0:0:0:
109,192,258505,128,0,258839:0:0:0:0:
182,192,258505,128,0,258839:0:0:0:0:
256,192,258505,128,0,258727:0:0:0:0:
329,192,258505,128,0,258727:0:0:0:0:
475,192,258727,128,0,258950:0:0:0:0:
402,192,258727,128,0,259061:0:0:0:0:
329,192,258839,128,0,259172:0:0:0:0:
256,192,258839,128,0,260616:0:0:0:0:
182,192,258950,128,0,259283:0:0:0:0:
109,192,258950,128,0,259283:0:0:0:0:
36,192,258950,128,0,259283:0:0:0:0:
475,192,259061,128,0,259616:0:0:0:0:
402,192,259172,128,0,259505:0:0:0:0:
329,192,259283,128,0,259394:0:0:0:0:
36,192,259394,128,0,259727:0:0:0:0:
109,192,259394,128,0,259727:0:0:0:0:
182,192,259394,128,0,259727:0:0:0:0:
329,192,259505,128,0,259950:0:0:0:0:
402,192,259616,128,0,259839:0:0:0:0:
475,192,259727,128,0,260172:0:0:0:0:
182,192,259839,128,0,259950:0:0:0:0:
109,192,259839,128,0,260061:0:0:0:0:
36,192,259839,128,0,260283:0:0:0:0:
402,192,259950,128,0,260172:0:0:0:0:
329,192,260061,128,0,260172:0:0:0:0:
182,192,260061,128,0,260505:0:0:0:0:
109,192,260172,128,0,260394:0:0:0:0:
329,192,260283,128,0,260616:0:0:0:0:
402,192,260283,128,0,260616:0:0:0:0:
475,192,260283,128,0,260616:0:0:0:0:
36,192,260394,128,0,260616:0:0:0:0:
109,192,260505,128,0,260616:0:0:0:0:
182,192,260616,128,0,261061:0:0:0:0:
402,192,260727,128,0,260839:0:0:0:0:
475,192,260727,128,0,260839:0:0:0:0:
329,192,260727,128,0,261061:0:0:0:0:
256,192,260727,128,0,261061:0:0:0:0:
109,192,260727,128,0,261061:0:0:0:0:
36,192,260727,128,0,261727:0:0:0:0:
402,192,260950,128,0,261061:0:0:0:0:
475,192,260950,128,0,261727:0:0:0:0:
109,192,261172,128,0,261950:0:0:0:0:
182,192,261172,128,0,261283:0:0:0:0:
329,192,261172,128,0,261283:0:0:0:0:
402,192,261172,128,0,261950:0:0:0:0:
256,192,261172,128,0,261505:0:0:0:0:
182,192,261394,128,0,261505:0:0:0:0:
329,192,261394,128,0,261505:0:0:0:0:
182,192,261616,128,0,262394:0:0:0:0:
256,192,261616,128,0,261950:0:0:0:0:
329,192,261616,128,0,262394:0:0:0:0:
36,192,261839,128,0,261950:0:0:0:0:
475,192,261839,128,0,261950:0:0:0:0:
475,192,262061,128,0,262394:0:0:0:0:
36,192,262061,128,0,262394:0:0:0:0:
402,192,262061,128,0,262172:0:0:0:0:
109,192,262061,128,0,262172:0:0:0:0:
256,192,262061,128,0,262394:0:0:0:0:
109,192,262283,128,0,262394:0:0:0:0:
402,192,262283,128,0,262394:0:0:0:0:
36,192,262505,128,0,262839:0:0:0:0:
182,192,262505,128,0,262616:0:0:0:0:
329,192,262505,128,0,262616:0:0:0:0:
109,192,262505,128,0,262839:0:0:0:0:
475,192,262505,128,0,262839:0:0:0:0:
402,192,262505,128,0,262839:0:0:0:0:
256,192,262505,128,0,262839:0:0:0:0:
182,192,262727,128,0,263283:0:0:0:0:
329,192,262727,128,0,263061:0:0:0:0:
36,192,262950,128,0,263283:0:0:0:0:
256,192,262950,128,0,263505:0:0:0:0:
109,192,262950,128,0,263283:0:0:0:0:
475,192,262950,128,0,263061:0:0:0:0:
402,192,262950,128,0,263061:0:0:0:0:
329,192,263172,128,0,263727:0:0:0:0:
402,192,263172,128,0,263505:0:0:0:0:
475,192,263172,128,0,263727:0:0:0:0:
36,192,263394,128,0,263727:0:0:0:0:
109,192,263394,128,0,264172:0:0:0:0:
182,192,263394,128,0,263727:0:0:0:0:
256,192,263616,128,0,263727:0:0:0:0:
402,192,263616,128,0,264172:0:0:0:0:
36,192,263839,128,0,263950:0:0:0:0:
256,192,263839,128,0,264394:0:0:0:0:
182,192,263839,128,0,263950:0:0:0:0:
475,192,263839,128,0,264172:0:0:0:0:
329,192,263839,128,0,263950:0:0:0:0:
36,192,264061,128,0,264394:0:0:0:0:
182,192,264061,128,0,264616:0:0:0:0:
329,192,264061,128,0,264616:0:0:0:0:
109,192,264283,128,0,264616:0:0:0:0:
402,192,264283,128,0,264616:0:0:0:0:
475,192,264283,128,0,264616:0:0:0:0:
36,192,264505,128,0,264839:0:0:0:0:
256,192,264505,128,0,265283:0:0:0:0:
109,192,264727,128,0,265283:0:0:0:0:
475,192,264727,128,0,265061:0:0:0:0:
182,192,264727,128,0,265061:0:0:0:0:
402,192,264727,128,0,265061:0:0:0:0:
329,192,264727,128,0,264839:0:0:0:0:
36,192,264950,128,0,265505:0:0:0:0:
329,192,264950,128,0,265505:0:0:0:0:
182,192,265172,128,0,265505:0:0:0:0:
402,192,265172,128,0,265950:0:0:0:0:
475,192,265172,128,0,265505:0:0:0:0:
256,192,265394,128,0,265505:0:0:0:0:
109,192,265394,128,0,265727:0:0:0:0:
329,192,265616,128,0,265950:0:0:0:0:
182,192,265616,128,0,265839:0:0:0:0:
475,192,265616,128,0,265950:0:0:0:0:
36,192,265616,128,0,265727:0:0:0:0:
256,192,265616,128,0,265839:0:0:0:0:
36,192,265839,128,0,266061:0:0:0:0:
109,192,265839,128,0,266172:0:0:0:0:
182,192,265950,128,0,266283:0:0:0:0:
256,192,265950,128,0,266839:0:0:0:0:
329,192,266061,128,0,266394:0:0:0:0:
402,192,266061,128,0,266394:0:0:0:0:
475,192,266061,128,0,266394:0:0:0:0:
36,192,266172,128,0,266727:0:0:0:0:
109,192,266283,128,0,266616:0:0:0:0:
182,192,266394,128,0,266505:0:0:0:0:
329,192,266505,128,0,267061:0:0:0:0:
402,192,266505,128,0,266839:0:0:0:0:
475,192,266505,128,0,266839:0:0:0:0:
182,192,266616,128,0,266950:0:0:0:0:
109,192,266727,128,0,267061:0:0:0:0:
36,192,266839,128,0,267283:0:0:0:0:
256,192,266950,128,0,267283:0:0:0:0:
402,192,266950,128,0,267505:0:0:0:0:
475,192,266950,128,0,267283:0:0:0:0:
182,192,267061,128,0,267172:0:0:0:0:
109,192,267172,128,0,267727:0:0:0:0:
329,192,267172,128,0,267394:0:0:0:0:
182,192,267283,128,0,267505:0:0:0:0:
36,192,267394,128,0,267727:0:0:0:0:
256,192,267394,128,0,267727:0:0:0:0:
475,192,267394,128,0,267727:0:0:0:0:
329,192,267505,128,0,267616:0:0:0:0:
182,192,267616,128,0,267727:0:0:0:0:
402,192,267616,128,0,267727:0:0:0:0:
329,192,267727,128,0,268172:0:0:0:0:
182,192,267839,128,0,268172:0:0:0:0:
36,192,267839,128,0,267950:0:0:0:0:
109,192,267839,128,0,267950:0:0:0:0:
256,192,267839,128,0,268172:0:0:0:0:
402,192,267839,128,0,268172:0:0:0:0:
475,192,267839,128,0,268172:0:0:0:0:
36,192,268061,128,0,268616:0:0:0:0:
109,192,268061,128,0,268616:0:0:0:0:
182,192,268283,128,0,268727:0:0:0:0:
256,192,268283,128,0,268727:0:0:0:0:
329,192,268283,128,0,268394:0:0:0:0:
402,192,268283,128,0,268616:0:0:0:0:
475,192,268283,128,0,268394:0:0:0:0:
329,192,268505,128,0,268727:0:0:0:0:
475,192,268505,128,0,268616:0:0:0:0:
36,192,268727,128,0,268839:0:0:0:0:
109,192,268727,128,0,268839:0:0:0:0:
402,192,268727,128,0,268839:0:0:0:0:
475,192,268727,128,0,268839:0:0:0:0:
182,192,268839,128,0,269061:0:0:0:0:
256,192,268839,128,0,269061:0:0:0:0:
329,192,268839,128,0,269061:0:0:0:0:
36,192,268950,128,0,269061:0:0:0:0:
109,192,268950,128,0,269061:0:0:0:0:
402,192,268950,128,0,269061:0:0:0:0:
475,192,268950,128,0,269061:0:0:0:0:
36,192,269172,128,0,269283:0:0:0:0:
109,192,269172,128,0,269283:0:0:0:0:
402,192,269172,128,0,269283:0:0:0:0:
475,192,269172,128,0,269283:0:0:0:0:
109,192,269394,128,0,269505:0:0:0:0:
182,192,269394,128,0,269505:0:0:0:0:
329,192,269394,128,0,269505:0:0:0:0:
402,192,269394,128,0,269505:0:0:0:0:
36,192,269616,128,0,269950:0:0:0:0:
109,192,269616,128,0,269950:0:0:0:0:
256,192,269616,128,0,269950:0:0:0:0:
402,192,269616,128,0,269950:0:0:0:0:
475,192,269616,128,0,269950:0:0:0:0:
329,192,269616,128,0,269727:0:0:0:0:
182,192,269616,128,0,269727:0:0:0:0:
182,192,269839,128,0,270172:0:0:0:0:
329,192,269839,128,0,270394:0:0:0:0:
36,192,270061,128,0,270172:0:0:0:0:
109,192,270061,128,0,270172:0:0:0:0:
402,192,270061,128,0,270394:0:0:0:0:
475,192,270061,128,0,270394:0:0:0:0:
256,192,270061,128,0,270616:0:0:0:0:
36,192,270283,128,0,270839:0:0:0:0:
109,192,270283,128,0,270616:0:0:0:0:
182,192,270283,128,0,270839:0:0:0:0:
329,192,270505,128,0,270839:0:0:0:0:
402,192,270505,128,0,271283:0:0:0:0:
475,192,270505,128,0,270839:0:0:0:0:
109,192,270727,128,0,271283:0:0:0:0:
256,192,270727,128,0,270839:0:0:0:0:
36,192,270950,128,0,271283:0:0:0:0:
182,192,270950,128,0,271061:0:0:0:0:
329,192,270950,128,0,271061:0:0:0:0:
475,192,270950,128,0,271061:0:0:0:0:
256,192,270950,128,0,271505:0:0:0:0:
182,192,271172,128,0,271727:0:0:0:0:
329,192,271172,128,0,271727:0:0:0:0:
475,192,271172,128,0,271505:0:0:0:0:
36,192,271394,128,0,271727:0:0:0:0:
109,192,271394,128,0,271727:0:0:0:0:
402,192,271394,128,0,271727:0:0:0:0:
256,192,271616,128,0,272394:0:0:0:0:
475,192,271616,128,0,271950:0:0:0:0:
109,192,271839,128,0,272172:0:0:0:0:
182,192,271839,128,0,271950:0:0:0:0:
329,192,271839,128,0,272172:0:0:0:0:
402,192,271839,128,0,272394:0:0:0:0:
36,192,271839,128,0,272172:0:0:0:0:
182,192,272061,128,0,272616:0:0:0:0:
475,192,272061,128,0,272616:0:0:0:0:
36,192,272283,128,0,272616:0:0:0:0:
109,192,272283,128,0,273505:0:0:0:0:
329,192,272283,128,0,272616:0:0:0:0:
402,192,272505,128,0,273061:0:0:0:0:
256,192,272505,128,0,272616:0:0:0:0:
475,192,272727,128,0,272839:0:0:0:0:
256,192,272727,128,0,273727:0:0:0:0:
36,192,272727,128,0,272839:0:0:0:0:
182,192,272727,128,0,273283:0:0:0:0:
329,192,272727,128,0,273061:0:0:0:0:
36,192,272950,128,0,273172:0:0:0:0:
475,192,272950,128,0,273061:0:0:0:0:
329,192,273172,128,0,273394:0:0:0:0:
402,192,273172,128,0,273616:0:0:0:0:
475,192,273172,128,0,273950:0:0:0:0:
36,192,273283,128,0,273505:0:0:0:0:
182,192,273394,128,0,274061:0:0:0:0:
329,192,273505,128,0,274172:0:0:0:0:
109,192,273616,128,0,273839:0:0:0:0:
36,192,273616,128,0,274172:0:0:0:0:
402,192,273727,128,0,273950:0:0:0:0:
256,192,273839,128,0,274394:0:0:0:0:
109,192,273950,128,0,274394:0:0:0:0:
402,192,274061,128,0,274394:0:0:0:0:
475,192,274061,128,0,274283:0:0:0:0:
182,192,274172,128,0,274616:0:0:0:0:
36,192,274283,128,0,274505:0:0:0:0:
329,192,274283,128,0,274616:0:0:0:0:
475,192,274394,128,0,274839:0:0:0:0:
109,192,274505,128,0,274727:0:0:0:0:
402,192,274505,128,0,274839:0:0:0:0:
256,192,274505,128,0,274839:0:0:0:0:
36,192,274616,128,0,274839:0:0:0:0:
329,192,274727,128,0,274839:0:0:0:0:
182,192,274727,128,0,275283:0:0:0:0:
109,192,274839,128,0,275061:0:0:0:0:
402,192,274950,128,0,275061:0:0:0:0:
475,192,274950,128,0,275061:0:0:0:0:
329,192,274950,128,0,275283:0:0:0:0:
256,192,274950,128,0,275283:0:0:0:0:
36,192,274950,128,0,275061:0:0:0:0:
402,192,275172,128,0,275283:0:0:0:0:
475,192,275172,128,0,275950:0:0:0:0:
109,192,275172,128,0,275283:0:0:0:0:
36,192,275172,128,0,275950:0:0:0:0:
109,192,275394,128,0,276172:0:0:0:0:
182,192,275394,128,0,275505:0:0:0:0:
329,192,275394,128,0,275505:0:0:0:0:
402,192,275394,128,0,276172:0:0:0:0:
256,192,275394,128,0,275727:0:0:0:0:
182,192,275616,128,0,275727:0:0:0:0:
329,192,275616,128,0,275727:0:0:0:0:
182,192,275839,128,0,276616:0:0:0:0:
256,192,275839,128,0,276172:0:0:0:0:
329,192,275839,128,0,276616:0:0:0:0:
36,192,276061,128,0,276172:0:0:0:0:
475,192,276061,128,0,276172:0:0:0:0:
475,192,276283,128,0,276616:0:0:0:0:
36,192,276283,128,0,276616:0:0:0:0:
402,192,276283,128,0,276394:0:0:0:0:
109,192,276283,128,0,276394:0:0:0:0:
256,192,276283,128,0,276616:0:0:0:0:
109,192,276505,128,0,276616:0:0:0:0:
402,192,276505,128,0,276616:0:0:0:0:
36,192,276727,128,0,277061:0:0:0:0:
182,192,276727,128,0,276839:0:0:0:0:
329,192,276727,128,0,276839:0:0:0:0:
109,192,276727,128,0,277061:0:0:0:0:
475,192,276727,128,0,277061:0:0:0:0:
402,192,276727,128,0,277061:0:0:0:0:
256,192,276727,128,0,277061:0:0:0:0:
182,192,276950,128,0,277505:0:0:0:0:
329,192,276950,128,0,277283:0:0:0:0:
36,192,277172,128,0,277505:0:0:0:0:
256,192,277172,128,0,277727:0:0:0:0:
109,192,277172,128,0,277505:0:0:0:0:
475,192,277172,128,0,277283:0:0:0:0:
402,192,277172,128,0,277283:0:0:0:0:
329,192,277394,128,0,277950:0:0:0:0:
402,192,277394,128,0,277727:0:0:0:0:
475,192,277394,128,0,277950:0:0:0:0:
36,192,277616,128,0,277950:0:0:0:0:
109,192,277616,128,0,278394:0:0:0:0:
182,192,277616,128,0,277950:0:0:0:0:
256,192,277839,128,0,277950:0:0:0:0:
402,192,277839,128,0,278394:0:0:0:0:
36,192,278061,128,0,278172:0:0:0:0:
256,192,278061,128,0,278616:0:0:0:0:
182,192,278061,128,0,278172:0:0:0:0:
475,192,278061,128,0,278394:0:0:0:0:
329,192,278061,128,0,278172:0:0:0:0:
36,192,278283,128,0,278616:0:0:0:0:
182,192,278283,128,0,278839:0:0:0:0:
329,192,278283,128,0,278839:0:0:0:0:
109,192,278505,128,0,278839:0:0:0:0:
402,192,278505,128,0,278839:0:0:0:0:
475,192,278505,128,0,278839:0:0:0:0:
36,192,278727,128,0,279061:0:0:0:0:
256,192,278727,128,0,279505:0:0:0:0:
109,192,278950,128,0,279505:0:0:0:0:
475,192,278950,128,0,279283:0:0:0:0:
182,192,278950,128,0,279283:0:0:0:0:
402,192,278950,128,0,279283:0:0:0:0:
329,192,278950,128,0,279061:0:0:0:0:
36,192,279172,128,0,279727:0:0:0:0:
329,192,279172,128,0,279727:0:0:0:0:
182,192,279394,128,0,279727:0:0:0:0:
402,192,279394,128,0,279950:0:0:0:0:
475,192,279394,128,0,279727:0:0:0:0:
256,192,279616,128,0,279727:0:0:0:0:
109,192,279616,128,0,280172:0:0:0:0:
182,192,279839,128,0,279950:0:0:0:0:
475,192,279839,128,0,280616:0:0:0:0:
36,192,279839,128,0,280950:0:0:0:0:
256,192,279839,128,0,280394:0:0:0:0:
329,192,279839,128,0,280172:0:0:0:0:
182,192,280061,128,0,280172:0:0:0:0:
402,192,280061,128,0,280283:0:0:0:0:
109,192,280283,128,0,280505:0:0:0:0:
182,192,280283,128,0,280727:0:0:0:0:
329,192,280283,128,0,280839:0:0:0:0:
402,192,280394,128,0,280616:0:0:0:0:
256,192,280505,128,0,281283:0:0:0:0:
109,192,280616,128,0,281061:0:0:0:0:
402,192,280727,128,0,281172:0:0:0:0:
475,192,280727,128,0,281394:0:0:0:0:
182,192,280839,128,0,281061:0:0:0:0:
329,192,280950,128,0,281505:0:0:0:0:
36,192,281061,128,0,281950:0:0:0:0:
109,192,281172,128,0,281616:0:0:0:0:
182,192,281172,128,0,281283:0:0:0:0:
402,192,281283,128,0,281727:0:0:0:0:
182,192,281394,128,0,281839:0:0:0:0:
256,192,281394,128,0,281505:0:0:0:0:
475,192,281505,128,0,281950:0:0:0:0:
329,192,281616,128,0,281727:0:0:0:0:
256,192,281616,128,0,282394:0:0:0:0:
109,192,281727,128,0,281950:0:0:0:0:
402,192,281839,128,0,281950:0:0:0:0:
329,192,281839,128,0,282172:0:0:0:0:
182,192,281950,128,0,282394:0:0:0:0:
475,192,282061,128,0,282172:0:0:0:0:
402,192,282061,128,0,282172:0:0:0:0:
109,192,282061,128,0,282394:0:0:0:0:
36,192,282061,128,0,282394:0:0:0:0:
475,192,282283,128,0,282839:0:0:0:0:
402,192,282283,128,0,282950:0:0:0:0:
329,192,282283,128,0,282394:0:0:0:0:
329,192,282505,128,0,282616:0:0:0:0:
256,192,282505,128,0,282950:0:0:0:0:
182,192,282505,128,0,282616:0:0:0:0:
109,192,282505,128,0,282950:0:0:0:0:
36,192,282505,128,0,282839:0:0:0:0:
182,192,282727,128,0,282839:0:0:0:0:
329,192,282727,128,0,282839:0:0:0:0:
36,192,282950,128,0,283061:0:0:0:0:
182,192,282950,128,0,283061:0:0:0:0:
329,192,282950,128,0,283061:0:0:0:0:
475,192,282950,128,0,283061:0:0:0:0:
256,192,283061,128,0,283172:0:0:0:0:
182,192,283172,128,0,283283:0:0:0:0:
36,192,283172,128,0,283283:0:0:0:0:
329,192,283172,128,0,283283:0:0:0:0:
475,192,283172,128,0,283283:0:0:0:0:
36,192,283394,128,0,283505:0:0:0:0:
182,192,283394,128,0,283505:0:0:0:0:
329,192,283394,128,0,283505:0:0:0:0:
475,192,283394,128,0,283505:0:0:0:0:
402,192,283616,128,0,283727:0:0:0:0:
329,192,283616,128,0,283727:0:0:0:0:
182,192,283616,128,0,283727:0:0:0:0:
109,192,283616,128,0,283727:0:0:0:0:
36,192,283838,128,0,284616:0:0:0:0:
109,192,283838,128,0,283950:0:0:0:0:
182,192,283838,128,0,283950:0:0:0:0:
329,192,283838,128,0,284172:0:0:0:0:
402,192,283838,128,0,284172:0:0:0:0:
475,192,283838,128,0,284172:0:0:0:0:
256,192,283838,128,0,284394:0:0:0:0:
109,192,284061,128,0,284838:0:0:0:0:
182,192,284061,128,0,284616:0:0:0:0:
402,192,284283,128,0,284394:0:0:0:0:
475,192,284283,128,0,285061:0:0:0:0:
329,192,284283,128,0,284616:0:0:0:0:
256,192,284505,128,0,284838:0:0:0:0:
402,192,284505,128,0,285061:0:0:0:0:
182,192,284727,128,0,285061:0:0:0:0:
329,192,284727,128,0,285505:0:0:0:0:
36,192,284727,128,0,285061:0:0:0:0:
109,192,284950,128,0,285061:0:0:0:0:
256,192,284950,128,0,285505:0:0:0:0:
36,192,285172,128,0,285283:0:0:0:0:
109,192,285172,128,0,285727:0:0:0:0:
182,192,285172,128,0,285505:0:0:0:0:
402,192,285172,128,0,285727:0:0:0:0:
475,192,285172,128,0,285283:0:0:0:0:
36,192,285394,128,0,285950:0:0:0:0:
475,192,285394,128,0,285950:0:0:0:0:
182,192,285616,128,0,285950:0:0:0:0:
256,192,285616,128,0,285950:0:0:0:0:
329,192,285616,128,0,285950:0:0:0:0:
109,192,285838,128,0,286394:0:0:0:0:
402,192,285838,128,0,286283:0:0:0:0:
36,192,286061,128,0,286394:0:0:0:0:
182,192,286061,128,0,286172:0:0:0:0:
329,192,286061,128,0,286172:0:0:0:0:
475,192,286061,128,0,286394:0:0:0:0:
256,192,286061,128,0,287283:0:0:0:0:
329,192,286283,128,0,286727:0:0:0:0:
182,192,286283,128,0,286505:0:0:0:0:
402,192,286394,128,0,286616:0:0:0:0:
475,192,286505,128,0,286616:0:0:0:0:
109,192,286505,128,0,286838:0:0:0:0:
36,192,286505,128,0,286838:0:0:0:0:
182,192,286616,128,0,286950:0:0:0:0:
402,192,286727,128,0,287061:0:0:0:0:
475,192,286727,128,0,286838:0:0:0:0:
329,192,286838,128,0,287283:0:0:0:0:
475,192,286950,128,0,287727:0:0:0:0:
36,192,286950,128,0,287061:0:0:0:0:
109,192,286950,128,0,287283:0:0:0:0:
182,192,287061,128,0,287505:0:0:0:0:
36,192,287172,128,0,287727:0:0:0:0:
402,192,287172,128,0,287727:0:0:0:0:
109,192,287394,128,0,288394:0:0:0:0:
329,192,287394,128,0,287727:0:0:0:0:
256,192,287394,128,0,288172:0:0:0:0:
182,192,287616,128,0,287950:0:0:0:0:
36,192,287838,128,0,287950:0:0:0:0:
329,192,287838,128,0,288394:0:0:0:0:
402,192,287838,128,0,288172:0:0:0:0:
475,192,287838,128,0,289061:0:0:0:0:
36,192,288061,128,0,288616:0:0:0:0:
182,192,288061,128,0,288616:0:0:0:0:
256,192,288283,128,0,288838:0:0:0:0:
402,192,288283,128,0,288616:0:0:0:0:
329,192,288505,128,0,288616:0:0:0:0:
109,192,288505,128,0,288616:0:0:0:0:
182,192,288727,128,0,289283:0:0:0:0:
329,192,288727,128,0,289061:0:0:0:0:
402,192,288727,128,0,288838:0:0:0:0:
36,192,288727,128,0,289061:0:0:0:0:
109,192,288727,128,0,288838:0:0:0:0:
109,192,288950,128,0,289505:0:0:0:0:
256,192,288950,128,0,289505:0:0:0:0:
402,192,288950,128,0,289505:0:0:0:0:
329,192,289172,128,0,289283:0:0:0:0:
475,192,289172,128,0,289505:0:0:0:0:
36,192,289172,128,0,289505:0:0:0:0:
329,192,289394,128,0,290394:0:0:0:0:
182,192,289394,128,0,289727:0:0:0:0:
36,192,289616,128,0,289727:0:0:0:0:
402,192,289616,128,0,290394:0:0:0:0:
256,192,289616,128,0,290172:0:0:0:0:
475,192,289616,128,0,289950:0:0:0:0:
109,192,289616,128,0,289950:0:0:0:0:
36,192,289838,128,0,289950:0:0:0:0:
182,192,289838,128,0,290394:0:0:0:0:
36,192,290061,128,0,290394:0:0:0:0:
109,192,290061,128,0,290616:0:0:0:0:
475,192,290061,128,0,290172:0:0:0:0:
475,192,290283,128,0,290394:0:0:0:0:
256,192,290283,128,0,290838:0:0:0:0:
475,192,290505,128,0,291283:0:0:0:0:
36,192,290505,128,0,290838:0:0:0:0:
182,192,290505,128,0,290838:0:0:0:0:
329,192,290505,128,0,290616:0:0:0:0:
402,192,290505,128,0,290616:0:0:0:0:
329,192,290727,128,0,291727:0:0:0:0:
402,192,290727,128,0,291061:0:0:0:0:
109,192,290727,128,0,291727:0:0:0:0:
36,192,290950,128,0,291505:0:0:0:0:
182,192,290950,128,0,291061:0:0:0:0:
256,192,290950,128,0,291950:0:0:0:0:
182,192,291172,128,0,291283:0:0:0:0:
402,192,291172,128,0,291950:0:0:0:0:
182,192,291394,128,0,291505:0:0:0:0:
475,192,291394,128,0,291727:0:0:0:0:
182,192,291616,128,0,292172:0:0:0:0:
36,192,291616,128,0,292172:0:0:0:0:
475,192,291838,128,0,292394:0:0:0:0:
109,192,291838,128,0,292172:0:0:0:0:
329,192,291838,128,0,292172:0:0:0:0:
256,192,292061,128,0,292394:0:0:0:0:
402,192,292061,128,0,292172:0:0:0:0:
36,192,292283,128,0,292394:0:0:0:0:
109,192,292283,128,0,292838:0:0:0:0:
182,192,292283,128,0,292616:0:0:0:0:
329,192,292283,128,0,292616:0:0:0:0:
402,192,292283,128,0,292616:0:0:0:0:
36,192,292505,128,0,292838:0:0:0:0:
256,192,292505,128,0,293061:0:0:0:0:
475,192,292505,128,0,292838:0:0:0:0:
182,192,292727,128,0,293061:0:0:0:0:
402,192,292727,128,0,293061:0:0:0:0:
329,192,292727,128,0,293061:0:0:0:0:
36,192,292950,128,0,293505:0:0:0:0:
109,192,292950,128,0,293061:0:0:0:0:
475,192,292950,128,0,293283:0:0:0:0:
402,192,293172,128,0,293727:0:0:0:0:
329,192,293172,128,0,293283:0:0:0:0:
256,192,293172,128,0,293950:0:0:0:0:
182,192,293172,128,0,293505:0:0:0:0:
109,192,293172,128,0,293727:0:0:0:0:
475,192,293394,128,0,293505:0:0:0:0:
329,192,293394,128,0,293950:0:0:0:0:
475,192,293616,128,0,293950:0:0:0:0:
182,192,293616,128,0,293727:0:0:0:0:
36,192,293616,128,0,293950:0:0:0:0:
402,192,293838,128,0,294172:0:0:0:0:
182,192,293838,128,0,293950:0:0:0:0:
109,192,293838,128,0,294172:0:0:0:0:
36,192,294061,128,0,294394:0:0:0:0:
182,192,294061,128,0,294394:0:0:0:0:
256,192,294061,128,0,294616:0:0:0:0:
329,192,294061,128,0,294394:0:0:0:0:
475,192,294061,128,0,294838:0:0:0:0:
109,192,294283,128,0,294616:0:0:0:0:
402,192,294283,128,0,294838:0:0:0:0:
36,192,294505,128,0,294838:0:0:0:0:
182,192,294505,128,0,294838:0:0:0:0:
329,192,294505,128,0,294838:0:0:0:0:
109,192,294727,128,0,295283:0:0:0:0:
256,192,294727,128,0,295061:0:0:0:0:
36,192,294950,128,0,295505:0:0:0:0:
182,192,294950,128,0,295283:0:0:0:0:
329,192,294950,128,0,295727:0:0:0:0:
402,192,294950,128,0,295061:0:0:0:0:
475,192,294950,128,0,295283:0:0:0:0:
256,192,295172,128,0,295505:0:0:0:0:
402,192,295172,128,0,295727:0:0:0:0:
109,192,295394,128,0,295727:0:0:0:0:
182,192,295394,128,0,295727:0:0:0:0:
475,192,295394,128,0,295950:0:0:0:0:
36,192,295616,128,0,295727:0:0:0:0:
256,192,295616,128,0,295950:0:0:0:0:
36,192,295838,128,0,296172:0:0:0:0:
109,192,295838,128,0,296616:0:0:0:0:
182,192,295838,128,0,296172:0:0:0:0:
402,192,295838,128,0,296172:0:0:0:0:
329,192,295838,128,0,296394:0:0:0:0:
256,192,296061,128,0,296616:0:0:0:0:
475,192,296061,128,0,296394:0:0:0:0:
182,192,296283,128,0,296616:0:0:0:0:
36,192,296283,128,0,296616:0:0:0:0:
402,192,296283,128,0,296838:0:0:0:0:
329,192,296505,128,0,297283:0:0:0:0:
475,192,296505,128,0,296616:0:0:0:0:
475,192,296727,128,0,297061:0:0:0:0:
256,192,296727,128,0,297061:0:0:0:0:
182,192,296727,128,0,296838:0:0:0:0:
109,192,296727,128,0,297283:0:0:0:0:
36,192,296727,128,0,297061:0:0:0:0:
402,192,296950,128,0,297505:0:0:0:0:
182,192,296950,128,0,297505:0:0:0:0:
36,192,297172,128,0,297505:0:0:0:0:
256,192,297172,128,0,297505:0:0:0:0:
475,192,297172,128,0,297727:0:0:0:0:
329,192,297394,128,0,297505:0:0:0:0:
109,192,297394,128,0,297727:0:0:0:0:
329,192,297616,128,0,297950:0:0:0:0:
402,192,297616,128,0,298172:0:0:0:0:
36,192,297616,128,0,298394:0:0:0:0:
256,192,297616,128,0,298394:0:0:0:0:
182,192,297616,128,0,298172:0:0:0:0:
475,192,297838,128,0,297950:0:0:0:0:
109,192,297838,128,0,297950:0:0:0:0:
475,192,298061,128,0,298394:0:0:0:0:
109,192,298061,128,0,298394:0:0:0:0:
329,192,298061,128,0,298616:0:0:0:0:
182,192,298283,128,0,298838:0:0:0:0:
402,192,298283,128,0,298394:0:0:0:0:
475,192,298505,128,0,298838:0:0:0:0:
36,192,298505,128,0,298838:0:0:0:0:
109,192,298505,128,0,298616:0:0:0:0:
256,192,298505,128,0,299283:0:0:0:0:
402,192,298505,128,0,299061:0:0:0:0:
329,192,298727,128,0,299505:0:0:0:0:
109,192,298727,128,0,299283:0:0:0:0:
182,192,298950,128,0,299061:0:0:0:0:
36,192,298950,128,0,299505:0:0:0:0:
475,192,298950,128,0,299283:0:0:0:0:
182,192,299172,128,0,299283:0:0:0:0:
402,192,299172,128,0,299283:0:0:0:0:
182,192,299394,128,0,299505:0:0:0:0:
256,192,299394,128,0,299505:0:0:0:0:
109,192,299394,128,0,299505:0:0:0:0:
402,192,299394,128,0,299505:0:0:0:0:
475,192,299394,128,0,299505:0:0:0:0:
36,192,299616,128,0,299727:0:0:0:0:
109,192,299616,128,0,299727:0:0:0:0:
182,192,299616,128,0,299727:0:0:0:0:
329,192,299616,1,0,0:0:0:0:
402,192,299616,1,0,0:0:0:0:
475,192,299616,1,0,0:0:0:0:
402,192,300061,128,0,300172:0:0:0:0:
475,192,300061,128,0,300172:0:0:0:0:
329,192,300061,128,0,300172:0:0:0:0:
182,192,300061,1,0,0:0:0:0:
109,192,300061,1,0,0:0:0:0:
36,192,300061,1,0,0:0:0:0:
36,192,300505,128,0,300616:0:0:0:0:
109,192,300505,128,0,300616:0:0:0:0:
475,192,300505,128,0,300616:0:0:0:0:
329,192,300505,1,0,0:0:0:0:
182,192,300505,1,0,0:0:0:0:
402,192,300505,1,0,0:0:0:0:
182,192,300950,128,0,301061:0:0:0:0:
256,192,300950,128,0,301061:0:0:0:0:
329,192,300950,128,0,301061:0:0:0:0:
402,192,300950,128,0,301061:0:0:0:0:
475,192,300950,128,0,301061:0:0:0:0:
109,192,300950,1,0,0:0:0:0:
36,192,300950,1,0,0:0:0:0:
36,192,301172,128,0,301283:0:0:0:0:
109,192,301172,128,0,301283:0:0:0:0:
182,192,301172,128,0,301283:0:0:0:0:
256,192,301172,128,0,301283:0:0:0:0:
329,192,301172,128,0,301283:0:0:0:0:
402,192,301172,1,0,0:0:0:0:
475,192,301172,1,0,0:0:0:0:
36,192,301616,128,0,301950:0:0:0:0:
256,192,301616,128,0,301950:0:0:0:0:
402,192,301616,128,0,302283:0:0:0:0:
475,192,301616,128,0,301950:0:0:0:0:
109,192,301616,128,0,301727:0:0:0:0:
329,192,301616,128,0,301727:0:0:0:0:
182,192,301727,128,0,301950:0:0:0:0:
109,192,301838,128,0,302172:0:0:0:0:
329,192,301838,128,0,302172:0:0:0:0:
475,192,302061,128,0,302394:0:0:0:0:
256,192,302061,128,0,302394:0:0:0:0:
182,192,302061,128,0,302172:0:0:0:0:
36,192,302061,128,0,302394:0:0:0:0:
109,192,302283,128,0,302616:0:0:0:0:
182,192,302283,128,0,302505:0:0:0:0:
329,192,302283,128,0,302616:0:0:0:0:
402,192,302394,128,0,302616:0:0:0:0:
36,192,302505,128,0,302838:0:0:0:0:
475,192,302505,128,0,302838:0:0:0:0:
256,192,302505,128,0,302838:0:0:0:0:
182,192,302616,128,0,302838:0:0:0:0:
109,192,302727,128,0,303061:0:0:0:0:
329,192,302727,128,0,302950:0:0:0:0:
402,192,302727,128,0,303283:0:0:0:0:
36,192,302950,128,0,303283:0:0:0:0:
182,192,302950,128,0,303061:0:0:0:0:
256,192,302950,128,0,303172:0:0:0:0:
475,192,302950,128,0,303727:0:0:0:0:
329,192,303061,128,0,303283:0:0:0:0:
182,192,303172,128,0,303394:0:0:0:0:
109,192,303172,128,0,303505:0:0:0:0:
256,192,303283,128,0,303727:0:0:0:0:
402,192,303394,128,0,303727:0:0:0:0:
329,192,303394,128,0,303727:0:0:0:0:
36,192,303394,128,0,304172:0:0:0:0:
182,192,303505,128,0,303616:0:0:0:0:
109,192,303616,128,0,303838:0:0:0:0:
182,192,303727,128,0,303950:0:0:0:0:
256,192,303838,128,0,304061:0:0:0:0:
329,192,303838,128,0,304172:0:0:0:0:
475,192,303838,128,0,304172:0:0:0:0:
402,192,303838,128,0,304616:0:0:0:0:
109,192,303950,128,0,304172:0:0:0:0:
182,192,304061,128,0,304283:0:0:0:0:
256,192,304172,128,0,304394:0:0:0:0:
36,192,304283,128,0,304616:0:0:0:0:
109,192,304283,128,0,304616:0:0:0:0:
329,192,304283,128,0,304727:0:0:0:0:
475,192,304283,128,0,304616:0:0:0:0:
182,192,304394,128,0,304505:0:0:0:0:
256,192,304505,128,0,304838:0:0:0:0:
182,192,304616,128,0,304950:0:0:0:0:
109,192,304727,128,0,305061:0:0:0:0:
36,192,304727,128,0,305061:0:0:0:0:
475,192,304727,128,0,305061:0:0:0:0:
402,192,304727,128,0,305061:0:0:0:0:
329,192,304838,128,0,304950:0:0:0:0:
256,192,304950,128,0,305505:0:0:0:0:
182,192,305061,128,0,305283:0:0:0:0:
329,192,305061,128,0,305283:0:0:0:0:
402,192,305172,128,0,305505:0:0:0:0:
475,192,305172,128,0,305505:0:0:0:0:
109,192,305172,128,0,305394:0:0:0:0:
36,192,305172,128,0,305950:0:0:0:0:
182,192,305394,128,0,305727:0:0:0:0:
329,192,305394,128,0,305727:0:0:0:0:
109,192,305505,128,0,305950:0:0:0:0:
402,192,305616,128,0,305838:0:0:0:0:
475,192,305616,128,0,306838:0:0:0:0:
256,192,305616,128,0,305950:0:0:0:0:
182,192,305838,128,0,306172:0:0:0:0:
329,192,305838,128,0,306172:0:0:0:0:
402,192,305950,128,0,306394:0:0:0:0:
36,192,306061,128,0,306838:0:0:0:0:
109,192,306061,128,0,306283:0:0:0:0:
256,192,306061,128,0,306838:0:0:0:0:
182,192,306283,128,0,306394:0:0:0:0:
329,192,306283,128,0,306505:0:0:0:0:
109,192,306394,128,0,306727:0:0:0:0:
182,192,306505,128,0,306616:0:0:0:0:
402,192,306505,128,0,306616:0:0:0:0:
329,192,306616,128,0,307061:0:0:0:0:
402,192,306727,128,0,306950:0:0:0:0:
182,192,306727,128,0,307172:0:0:0:0:
109,192,306838,128,0,307061:0:0:0:0:
36,192,306950,128,0,307283:0:0:0:0:
256,192,306950,128,0,307283:0:0:0:0:
475,192,306950,128,0,307283:0:0:0:0:
402,192,307061,128,0,307283:0:0:0:0:
109,192,307172,128,0,307394:0:0:0:0:
329,192,307172,128,0,307505:0:0:0:0:
182,192,307283,128,0,307505:0:0:0:0:
402,192,307394,128,0,307616:0:0:0:0:
475,192,307394,128,0,307727:0:0:0:0:
256,192,307394,128,0,307727:0:0:0:0:
36,192,307394,128,0,307727:0:0:0:0:
109,192,307505,128,0,307727:0:0:0:0:
182,192,307616,128,0,307727:0:0:0:0:
329,192,307616,128,0,307727:0:0:0:0:
402,192,307727,1,0,0:0:0:0:
329,192,307838,128,0,307950:0:0:0:0:
182,192,307838,128,0,307950:0:0:0:0:
36,192,307838,128,0,308172:0:0:0:0:
475,192,307838,128,0,308172:0:0:0:0:
109,192,308061,128,0,308172:0:0:0:0:
182,192,308061,128,0,308172:0:0:0:0:
402,192,308061,128,0,308172:0:0:0:0:
329,192,308061,128,0,308172:0:0:0:0:
402,192,308283,128,0,308394:0:0:0:0:
36,192,308283,128,0,308616:0:0:0:0:
475,192,308283,128,0,308616:0:0:0:0:
109,192,308283,128,0,308394:0:0:0:0:
402,192,308505,128,0,308616:0:0:0:0:
329,192,308505,128,0,308616:0:0:0:0:
182,192,308505,128,0,308616:0:0:0:0:
109,192,308505,128,0,308616:0:0:0:0:
182,192,308727,128,0,308838:0:0:0:0:
36,192,308727,128,0,309616:0:0:0:0:
402,192,308727,128,0,309061:0:0:0:0:
475,192,308727,128,0,309061:0:0:0:0:
109,192,308727,128,0,309283:0:0:0:0:
256,192,308727,128,0,308950:0:0:0:0:
329,192,308838,128,0,309061:0:0:0:0:
182,192,308950,128,0,309505:0:0:0:0:
256,192,309061,128,0,309283:0:0:0:0:
329,192,309172,128,0,309505:0:0:0:0:
402,192,309172,128,0,309505:0:0:0:0:
475,192,309172,128,0,310172:0:0:0:0:
256,192,309394,128,0,309727:0:0:0:0:
109,192,309394,128,0,309727:0:0:0:0:
182,192,309616,128,0,309950:0:0:0:0:
329,192,309616,128,0,309950:0:0:0:0:
402,192,309616,128,0,309838:0:0:0:0:
36,192,309727,128,0,309950:0:0:0:0:
256,192,309838,128,0,310172:0:0:0:0:
109,192,309838,128,0,310394:0:0:0:0:
402,192,309950,128,0,310172:0:0:0:0:
36,192,310061,128,0,310394:0:0:0:0:
182,192,310061,128,0,310394:0:0:0:0:
329,192,310061,128,0,310394:0:0:0:0:
256,192,310283,128,0,310616:0:0:0:0:
402,192,310283,128,0,310505:0:0:0:0:
475,192,310283,128,0,310616:0:0:0:0:
36,192,310505,128,0,310838:0:0:0:0:
182,192,310505,128,0,310838:0:0:0:0:
109,192,310505,128,0,311061:0:0:0:0:
329,192,310505,128,0,310838:0:0:0:0:
402,192,310616,128,0,310727:0:0:0:0:
256,192,310727,128,0,310950:0:0:0:0:
475,192,310727,128,0,311283:0:0:0:0:
402,192,310838,128,0,311505:0:0:0:0:
36,192,310950,128,0,311394:0:0:0:0:
182,192,310950,128,0,311172:0:0:0:0:
329,192,310950,128,0,311283:0:0:0:0:
256,192,311061,128,0,311283:0:0:0:0:
109,192,311172,128,0,311616:0:0:0:0:
182,192,311283,128,0,311505:0:0:0:0:
256,192,311394,128,0,311727:0:0:0:0:
329,192,311394,128,0,311616:0:0:0:0:
475,192,311394,128,0,311838:0:0:0:0:
36,192,311505,128,0,311727:0:0:0:0:
402,192,311616,128,0,312061:0:0:0:0:
182,192,311616,128,0,312061:0:0:0:0:
329,192,311727,128,0,311950:0:0:0:0:
109,192,311727,128,0,311950:0:0:0:0:
256,192,311838,128,0,312172:0:0:0:0:
36,192,311838,128,0,312172:0:0:0:0:
475,192,311950,128,0,312172:0:0:0:0:
109,192,312061,128,0,312394:0:0:0:0:
329,192,312061,128,0,312283:0:0:0:0:
182,192,312172,128,0,312394:0:0:0:0:
402,192,312172,128,0,312505:0:0:0:0:
256,192,312283,128,0,312616:0:0:0:0:
36,192,312283,128,0,312616:0:0:0:0:
475,192,312283,128,0,313061:0:0:0:0:
329,192,312394,128,0,312505:0:0:0:0:
109,192,312505,128,0,312616:0:0:0:0:
182,192,312505,128,0,312838:0:0:0:0:
402,192,312616,128,0,312727:0:0:0:0:
329,192,312616,128,0,312950:0:0:0:0:
256,192,312727,128,0,313061:0:0:0:0:
109,192,312727,128,0,312838:0:0:0:0:
36,192,312727,128,0,313061:0:0:0:0:
402,192,312838,128,0,312950:0:0:0:0:
182,192,312950,128,0,313172:0:0:0:0:
109,192,312950,128,0,313394:0:0:0:0:
329,192,313061,128,0,313283:0:0:0:0:
402,192,313061,128,0,313283:0:0:0:0:
36,192,313172,128,0,313950:0:0:0:0:
475,192,313172,128,0,313505:0:0:0:0:
256,192,313172,128,0,313505:0:0:0:0:
182,192,313283,128,0,313394:0:0:0:0:
329,192,313394,128,0,313727:0:0:0:0:
402,192,313394,128,0,313505:0:0:0:0:
182,192,313505,128,0,313838:0:0:0:0:
109,192,313505,128,0,313616:0:0:0:0:
256,192,313616,128,0,313950:0:0:0:0:
402,192,313616,128,0,313727:0:0:0:0:
475,192,313616,128,0,313950:0:0:0:0:
109,192,313727,128,0,313838:0:0:0:0:
329,192,313838,128,0,313950:0:0:0:0:
402,192,313838,128,0,314172:0:0:0:0:
109,192,313950,128,0,314172:0:0:0:0:
182,192,313950,128,0,314061:0:0:0:0:
36,192,314061,128,0,314838:0:0:0:0:
256,192,314061,128,0,314616:0:0:0:0:
329,192,314061,128,0,314283:0:0:0:0:
475,192,314061,128,0,314838:0:0:0:0:
182,192,314172,128,0,314505:0:0:0:0:
402,192,314283,128,0,314394:0:0:0:0:
109,192,314283,128,0,314394:0:0:0:0:
329,192,314394,128,0,314727:0:0:0:0:
402,192,314505,128,0,314838:0:0:0:0:
109,192,314505,128,0,314838:0:0:0:0:
182,192,314616,128,0,314950:0:0:0:0:
256,192,314727,128,0,314950:0:0:0:0:
329,192,314838,128,0,314950:0:0:0:0:
402,192,314950,128,0,315061:0:0:0:0:
475,192,314950,128,0,315061:0:0:0:0:
109,192,314950,128,0,315061:0:0:0:0:
36,192,314950,128,0,315061:0:0:0:0:
329,192,315061,128,0,315172:0:0:0:0:
182,192,315061,128,0,315172:0:0:0:0:
36,192,315172,128,0,315283:0:0:0:0:
475,192,315172,128,0,315283:0:0:0:0:
109,192,315172,128,0,315283:0:0:0:0:
402,192,315172,128,0,315283:0:0:0:0:
36,192,315394,128,0,315505:0:0:0:0:
109,192,315394,128,0,315505:0:0:0:0:
402,192,315394,128,0,315505:0:0:0:0:
475,192,315394,128,0,315505:0:0:0:0:
402,192,315616,128,0,315727:0:0:0:0:
329,192,315616,128,0,315727:0:0:0:0:
182,192,315616,128,0,315727:0:0:0:0:
109,192,315616,128,0,315727:0:0:0:0:
475,192,315838,128,0,316172:0:0:0:0:
256,192,315838,128,0,316172:0:0:0:0:
109,192,315838,128,0,316505:0:0:0:0:
36,192,315838,128,0,316172:0:0:0:0:
402,192,315838,128,0,315950:0:0:0:0:
182,192,315838,128,0,315950:0:0:0:0:
329,192,315950,128,0,316172:0:0:0:0:
402,192,316061,128,0,316394:0:0:0:0:
182,192,316061,128,0,316394:0:0:0:0:
36,192,316283,128,0,316616:0:0:0:0:
256,192,316283,128,0,316616:0:0:0:0:
329,192,316283,128,0,316394:0:0:0:0:
475,192,316283,128,0,316616:0:0:0:0:
402,192,316505,128,0,316838:0:0:0:0:
329,192,316505,128,0,316727:0:0:0:0:
182,192,316505,128,0,316838:0:0:0:0:
109,192,316616,128,0,316838:0:0:0:0:
475,192,316727,128,0,317061:0:0:0:0:
36,192,316727,128,0,317061:0:0:0:0:
256,192,316727,128,0,317061:0:0:0:0:
329,192,316838,128,0,317061:0:0:0:0:
402,192,316950,128,0,317283:0:0:0:0:
182,192,316950,128,0,317172:0:0:0:0:
109,192,316950,128,0,317505:0:0:0:0:
475,192,317172,128,0,317505:0:0:0:0:
329,192,317172,128,0,317283:0:0:0:0:
256,192,317172,128,0,317394:0:0:0:0:
36,192,317172,128,0,317950:0:0:0:0:
182,192,317283,128,0,317505:0:0:0:0:
329,192,317394,128,0,317616:0:0:0:0:
402,192,317394,128,0,317727:0:0:0:0:
256,192,317505,128,0,317950:0:0:0:0:
109,192,317616,128,0,317950:0:0:0:0:
182,192,317616,128,0,317950:0:0:0:0:
475,192,317616,128,0,318394:0:0:0:0:
329,192,317727,128,0,317838:0:0:0:0:
402,192,317838,128,0,318061:0:0:0:0:
329,192,317950,128,0,318172:0:0:0:0:
256,192,318061,128,0,318283:0:0:0:0:
182,192,318061,128,0,318394:0:0:0:0:
36,192,318061,128,0,318394:0:0:0:0:
109,192,318061,128,0,318838:0:0:0:0:
402,192,318172,128,0,318394:0:0:0:0:
329,192,318283,128,0,318505:0:0:0:0:
256,192,318394,128,0,318616:0:0:0:0:
475,192,318505,128,0,318838:0:0:0:0:
402,192,318505,128,0,318838:0:0:0:0:
182,192,318505,128,0,318950:0:0:0:0:
36,192,318505,128,0,318838:0:0:0:0:
329,192,318616,128,0,318727:0:0:0:0:
256,192,318727,128,0,319061:0:0:0:0:
329,192,318838,128,0,319172:0:0:0:0:
402,192,318950,128,0,319283:0:0:0:0:
475,192,318950,128,0,319283:0:0:0:0:
36,192,318950,128,0,319283:0:0:0:0:
109,192,318950,128,0,319283:0:0:0:0:
182,192,319061,128,0,319172:0:0:0:0:
256,192,319172,128,0,319727:0:0:0:0:
329,192,319283,128,0,319505:0:0:0:0:
182,192,319283,128,0,319505:0:0:0:0:
109,192,319394,128,0,319727:0:0:0:0:
36,192,319394,128,0,319727:0:0:0:0:
402,192,319394,128,0,319616:0:0:0:0:
475,192,319394,128,0,320172:0:0:0:0:
329,192,319616,128,0,319950:0:0:0:0:
182,192,319616,128,0,319950:0:0:0:0:
402,192,319727,128,0,320172:0:0:0:0:
109,192,319838,128,0,320061:0:0:0:0:
36,192,319838,128,0,321061:0:0:0:0:
256,192,319838,128,0,320172:0:0:0:0:
329,192,320061,128,0,320394:0:0:0:0:
182,192,320061,128,0,320394:0:0:0:0:
109,192,320172,128,0,320616:0:0:0:0:
475,192,320283,128,0,321061:0:0:0:0:
402,192,320283,128,0,320505:0:0:0:0:
256,192,320283,128,0,321061:0:0:0:0:
329,192,320505,128,0,320616:0:0:0:0:
182,192,320505,128,0,320727:0:0:0:0:
402,192,320616,128,0,320950:0:0:0:0:
329,192,320727,128,0,320838:0:0:0:0:
109,192,320727,128,0,320838:0:0:0:0:
182,192,320838,128,0,321283:0:0:0:0:
109,192,320950,128,0,321172:0:0:0:0:
329,192,320950,128,0,321394:0:0:0:0:
402,192,321061,128,0,321283:0:0:0:0:
475,192,321172,128,0,321505:0:0:0:0:
256,192,321172,128,0,321505:0:0:0:0:
36,192,321172,128,0,321505:0:0:0:0:
109,192,321283,128,0,321505:0:0:0:0:
402,192,321394,128,0,321616:0:0:0:0:
182,192,321394,128,0,321727:0:0:0:0:
329,192,321505,128,0,321727:0:0:0:0:
109,192,321616,128,0,321838:0:0:0:0:
36,192,321616,128,0,321950:0:0:0:0:
256,192,321616,128,0,321950:0:0:0:0:
475,192,321616,128,0,321950:0:0:0:0:
402,192,321727,128,0,322172:0:0:0:0:
329,192,321838,128,0,322061:0:0:0:0:
182,192,321838,128,0,322283:0:0:0:0:
109,192,321950,128,0,322172:0:0:0:0:
36,192,322061,128,0,322394:0:0:0:0:
256,192,322061,128,0,322394:0:0:0:0:
475,192,322061,128,0,322394:0:0:0:0:
329,192,322172,128,0,322394:0:0:0:0:
402,192,322283,128,0,322616:0:0:0:0:
109,192,322283,128,0,322616:0:0:0:0:
182,192,322394,128,0,322616:0:0:0:0:
256,192,322505,128,0,323172:0:0:0:0:
329,192,322505,128,0,322838:0:0:0:0:
475,192,322505,128,0,322838:0:0:0:0:
36,192,322505,128,0,322838:0:0:0:0:
402,192,322727,128,0,323505:0:0:0:0:
109,192,322727,128,0,322838:0:0:0:0:
182,192,322727,128,0,322950:0:0:0:0:
329,192,322950,128,0,323061:0:0:0:0:
475,192,322950,128,0,323838:0:0:0:0:
109,192,322950,128,0,323283:0:0:0:0:
36,192,322950,128,0,323283:0:0:0:0:
182,192,323061,128,0,323283:0:0:0:0:
329,192,323172,128,0,323727:0:0:0:0:
256,192,323283,128,0,323505:0:0:0:0:
182,192,323394,128,0,323727:0:0:0:0:
109,192,323394,128,0,323727:0:0:0:0:
36,192,323394,128,0,324394:0:0:0:0:
256,192,323616,128,0,323950:0:0:0:0:
402,192,323616,128,0,323950:0:0:0:0:
329,192,323838,128,0,324172:0:0:0:0:
182,192,323838,128,0,324172:0:0:0:0:
109,192,323838,128,0,324061:0:0:0:0:
475,192,323950,128,0,324172:0:0:0:0:
256,192,324061,128,0,324394:0:0:0:0:
402,192,324061,128,0,324616:0:0:0:0:
109,192,324172,128,0,324394:0:0:0:0:
475,192,324283,128,0,324616:0:0:0:0:
329,192,324283,128,0,324616:0:0:0:0:
182,192,324283,128,0,324616:0:0:0:0:
256,192,324505,128,0,324838:0:0:0:0:
109,192,324505,128,0,324727:0:0:0:0:
36,192,324505,128,0,324838:0:0:0:0:
475,192,324727,128,0,325061:0:0:0:0:
329,192,324727,128,0,325061:0:0:0:0:
402,192,324727,128,0,325283:0:0:0:0:
182,192,324727,128,0,325061:0:0:0:0:
109,192,324838,128,0,324950:0:0:0:0:
256,192,324950,128,0,325172:0:0:0:0:
36,192,324950,128,0,325505:0:0:0:0:
109,192,325061,128,0,325727:0:0:0:0:
475,192,325172,128,0,325616:0:0:0:0:
329,192,325172,128,0,325394:0:0:0:0:
182,192,325172,128,0,325505:0:0:0:0:
256,192,325283,128,0,325505:0:0:0:0:
402,192,325394,128,0,325838:0:0:0:0:
329,192,325505,128,0,325727:0:0:0:0:
256,192,325616,128,0,325950:0:0:0:0:
182,192,325616,128,0,325838:0:0:0:0:
36,192,325616,128,0,326061:0:0:0:0:
475,192,325727,128,0,325950:0:0:0:0:
109,192,325838,128,0,326283:0:0:0:0:
329,192,325838,128,0,326283:0:0:0:0:
182,192,325950,128,0,326172:0:0:0:0:
402,192,325950,128,0,326172:0:0:0:0:
256,192,326061,128,0,326394:0:0:0:0:
475,192,326061,128,0,326394:0:0:0:0:
36,192,326172,128,0,326394:0:0:0:0:
402,192,326283,128,0,326616:0:0:0:0:
182,192,326283,128,0,326505:0:0:0:0:
329,192,326394,128,0,326616:0:0:0:0:
109,192,326394,128,0,326727:0:0:0:0:
256,192,326505,128,0,326838:0:0:0:0:
475,192,326505,128,0,326838:0:0:0:0:
36,192,326505,128,0,327283:0:0:0:0:
182,192,326616,128,0,326727:0:0:0:0:
402,192,326727,128,0,326838:0:0:0:0:
329,192,326727,128,0,327061:0:0:0:0:
109,192,326838,128,0,326950:0:0:0:0:
182,192,326838,128,0,327172:0:0:0:0:
256,192,326950,128,0,327283:0:0:0:0:
402,192,326950,128,0,327061:0:0:0:0:
475,192,326950,128,0,327283:0:0:0:0:
109,192,327061,128,0,327172:0:0:0:0:
329,192,327172,128,0,327394:0:0:0:0:
402,192,327172,128,0,327616:0:0:0:0:
182,192,327283,128,0,327505:0:0:0:0:
109,192,327283,128,0,327505:0:0:0:0:
475,192,327394,128,0,328172:0:0:0:0:
36,192,327394,128,0,327727:0:0:0:0:
256,192,327394,128,0,327727:0:0:0:0:
329,192,327505,128,0,327616:0:0:0:0:
182,192,327616,128,0,327950:0:0:0:0:
109,192,327616,128,0,327727:0:0:0:0:
329,192,327727,128,0,328061:0:0:0:0:
402,192,327727,128,0,327838:0:0:0:0:
256,192,327838,128,0,328172:0:0:0:0:
109,192,327838,128,0,327950:0:0:0:0:
36,192,327838,128,0,328172:0:0:0:0:
402,192,327950,128,0,328061:0:0:0:0:
182,192,328061,128,0,328172:0:0:0:0:
109,192,328061,128,0,328394:0:0:0:0:
402,192,328172,128,0,328394:0:0:0:0:
329,192,328172,128,0,328283:0:0:0:0:
475,192,328283,128,0,329061:0:0:0:0:
256,192,328283,128,0,328838:0:0:0:0:
182,192,328283,128,0,328505:0:0:0:0:
36,192,328283,128,0,329061:0:0:0:0:
329,192,328394,128,0,328727:0:0:0:0:
109,192,328505,128,0,328616:0:0:0:0:
402,192,328505,128,0,328616:0:0:0:0:
182,192,328616,128,0,328950:0:0:0:0:
109,192,328727,128,0,329061:0:0:0:0:
402,192,328727,128,0,329061:0:0:0:0:
329,192,328838,128,0,329061:0:0:0:0:
256,192,328950,128,0,329061:0:0:0:0:
182,192,329061,128,0,329172:0:0:0:0:
109,192,329172,128,0,329283:0:0:0:0:
256,192,329172,128,0,329283:0:0:0:0:
402,192,329172,128,0,329283:0:0:0:0:
182,192,329283,128,0,329394:0:0:0:0:
329,192,329283,128,0,329394:0:0:0:0:
36,192,329394,128,0,329505:0:0:0:0:
109,192,329394,128,0,329505:0:0:0:0:
402,192,329394,128,0,329505:0:0:0:0:
475,192,329394,128,0,329505:0:0:0:0:
256,192,329394,128,0,329505:0:0:0:0:
36,192,329616,128,0,329727:0:0:0:0:
109,192,329616,128,0,329727:0:0:0:0:
256,192,329616,128,0,329727:0:0:0:0:
402,192,329616,128,0,329727:0:0:0:0:
475,192,329616,128,0,329727:0:0:0:0:
475,192,329838,128,0,329950:0:0:0:0:
402,192,329838,128,0,329950:0:0:0:0:
256,192,329838,128,0,329950:0:0:0:0:
109,192,329838,128,0,329950:0:0:0:0:
36,192,329838,128,0,329950:0:0:0:0:
36,192,330061,128,0,330838:0:0:0:0:
182,192,330061,128,0,330394:0:0:0:0:
402,192,330061,128,0,330616:0:0:0:0:
475,192,330061,128,0,330172:0:0:0:0:
329,192,330061,128,0,330172:0:0:0:0:
109,192,330061,128,0,330394:0:0:0:0:
256,192,330172,128,0,330283:0:0:0:0:
329,192,330283,128,0,330616:0:0:0:0:
475,192,330283,128,0,330838:0:0:0:0:
256,192,330394,128,0,330505:0:0:0:0:
182,192,330505,128,0,330838:0:0:0:0:
109,192,330505,128,0,331061:0:0:0:0:
256,192,330616,128,0,330727:0:0:0:0:
329,192,330727,128,0,330838:0:0:0:0:
402,192,330727,128,0,331061:0:0:0:0:
256,192,330838,128,0,331061:0:0:0:0:
182,192,330950,128,0,331172:0:0:0:0:
329,192,330950,128,0,331283:0:0:0:0:
36,192,330950,128,0,331283:0:0:0:0:
475,192,330950,128,0,331283:0:0:0:0:
402,192,331172,128,0,331505:0:0:0:0:
256,192,331172,128,0,331616:0:0:0:0:
109,192,331172,128,0,331505:0:0:0:0:
182,192,331283,128,0,331505:0:0:0:0:
36,192,331394,128,0,331727:0:0:0:0:
329,192,331394,128,0,331727:0:0:0:0:
475,192,331394,128,0,331727:0:0:0:0:
402,192,331616,128,0,331950:0:0:0:0:
182,192,331616,128,0,331950:0:0:0:0:
109,192,331616,128,0,331950:0:0:0:0:
256,192,331727,128,0,331838:0:0:0:0:
36,192,331838,128,0,332172:0:0:0:0:
329,192,331838,128,0,332061:0:0:0:0:
475,192,331838,128,0,332172:0:0:0:0:
256,192,331950,128,0,332172:0:0:0:0:
182,192,332061,128,0,332505:0:0:0:0:
109,192,332061,128,0,332394:0:0:0:0:
402,192,332061,128,0,332394:0:0:0:0:
329,192,332172,128,0,332394:0:0:0:0:
36,192,332283,128,0,332616:0:0:0:0:
256,192,332283,128,0,332616:0:0:0:0:
475,192,332283,128,0,332616:0:0:0:0:
329,192,332505,128,0,332838:0:0:0:0:
402,192,332505,128,0,332838:0:0:0:0:
109,192,332505,128,0,332727:0:0:0:0:
182,192,332616,128,0,332950:0:0:0:0:
475,192,332727,128,0,333505:0:0:0:0:
256,192,332727,128,0,333172:0:0:0:0:
36,192,332727,128,0,333283:0:0:0:0:
109,192,332838,128,0,332950:0:0:0:0:
329,192,332950,128,0,333727:0:0:0:0:
402,192,332950,128,0,333061:0:0:0:0:
109,192,333061,128,0,333283:0:0:0:0:
182,192,333061,128,0,333394:0:0:0:0:
402,192,333172,128,0,333505:0:0:0:0:
256,192,333283,128,0,333505:0:0:0:0:
36,192,333394,128,0,333950:0:0:0:0:
109,192,333394,128,0,333616:0:0:0:0:
182,192,333505,128,0,333727:0:0:0:0:
256,192,333616,128,0,333950:0:0:0:0:
402,192,333616,128,0,333838:0:0:0:0:
475,192,333616,128,0,334394:0:0:0:0:
109,192,333727,128,0,333950:0:0:0:0:
329,192,333838,128,0,334172:0:0:0:0:
182,192,333838,128,0,334172:0:0:0:0:
402,192,333950,128,0,334061:0:0:0:0:
256,192,334061,128,0,334394:0:0:0:0:
109,192,334061,128,0,334283:0:0:0:0:
36,192,334061,128,0,335061:0:0:0:0:
402,192,334172,128,0,334394:0:0:0:0:
182,192,334283,128,0,334505:0:0:0:0:
329,192,334283,128,0,334616:0:0:0:0:
109,192,334394,128,0,335283:0:0:0:0:
256,192,334505,128,0,335061:0:0:0:0:
402,192,334505,128,0,334616:0:0:0:0:
475,192,334505,128,0,336616:0:0:0:0:
182,192,334616,128,0,334727:0:0:0:0:
402,192,334727,128,0,335283:0:0:0:0:
329,192,334727,128,0,334838:0:0:0:0:
182,192,334838,128,0,334950:0:0:0:0:
329,192,334950,128,0,335172:0:0:0:0:
182,192,335061,128,0,335283:0:0:0:0:
36,192,335172,128,0,335727:0:0:0:0:
256,192,335172,128,0,336616:0:0:0:0:
329,192,335283,128,0,335727:0:0:0:0:
402,192,335394,128,0,335505:0:0:0:0:
182,192,335394,128,0,335727:0:0:0:0:
109,192,335394,128,0,336172:0:0:0:0:
402,192,335616,128,0,336172:0:0:0:0:
329,192,335838,128,0,335950:0:0:0:0:
182,192,335838,128,0,336172:0:0:0:0:
36,192,335838,128,0,336616:0:0:0:0:
329,192,336061,128,0,336283:0:0:0:0:
402,192,336283,128,0,336394:0:0:0:0:
109,192,336283,128,0,336838:0:0:0:0:
182,192,336283,128,0,337061:0:0:0:0:
329,192,336394,128,0,336505:0:0:0:0:
402,192,336505,128,0,337061:0:0:0:0:
329,192,336616,128,0,336838:0:0:0:0:
36,192,336727,128,0,337061:0:0:0:0:
256,192,336727,128,0,336950:0:0:0:0:
475,192,336727,128,0,336838:0:0:0:0:
109,192,336950,128,0,337283:0:0:0:0:
329,192,336950,128,0,337172:0:0:0:0:
475,192,336950,128,0,337283:0:0:0:0:
256,192,337061,128,0,338061:0:0:0:0:
182,192,337172,128,0,337394:0:0:0:0:
36,192,337172,128,0,337505:0:0:0:0:
402,192,337172,128,0,337283:0:0:0:0:
329,192,337283,128,0,337616:0:0:0:0:
109,192,337394,128,0,337505:0:0:0:0:
402,192,337394,128,0,337505:0:0:0:0:
475,192,337394,128,0,337727:0:0:0:0:
182,192,337505,128,0,337838:0:0:0:0:
109,192,337616,128,0,337727:0:0:0:0:
36,192,337616,128,0,337950:0:0:0:0:
402,192,337616,128,0,337727:0:0:0:0:
329,192,337727,128,0,337950:0:0:0:0:
109,192,337838,128,0,337950:0:0:0:0:
402,192,337838,128,0,337950:0:0:0:0:
475,192,337838,128,0,338394:0:0:0:0:
182,192,337950,128,0,338172:0:0:0:0:
109,192,338061,128,0,338283:0:0:0:0:
402,192,338061,128,0,338394:0:0:0:0:
329,192,338061,128,0,338616:0:0:0:0:
36,192,338061,128,0,338727:0:0:0:0:
256,192,338172,128,0,338394:0:0:0:0:
182,192,338283,128,0,338616:0:0:0:0:
109,192,338394,128,0,338838:0:0:0:0:
256,192,338505,128,0,338838:0:0:0:0:
402,192,338505,128,0,339061:0:0:0:0:
475,192,338505,128,0,338838:0:0:0:0:
329,192,338727,128,0,338950:0:0:0:0:
182,192,338727,128,0,339061:0:0:0:0:
36,192,338838,128,0,339727:0:0:0:0:
256,192,338950,128,0,339727:0:0:0:0:
475,192,338950,128,0,339505:0:0:0:0:
109,192,338950,128,0,339061:0:0:0:0:
329,192,339061,128,0,339172:0:0:0:0:
182,192,339172,128,0,339283:0:0:0:0:
109,192,339172,128,0,339283:0:0:0:0:
402,192,339172,128,0,339283:0:0:0:0:
329,192,339283,128,0,339394:0:0:0:0:
109,192,339394,128,0,339505:0:0:0:0:
182,192,339394,128,0,339505:0:0:0:0:
402,192,339394,128,0,339616:0:0:0:0:
329,192,339505,128,0,339727:0:0:0:0:
182,192,339616,128,0,339950:0:0:0:0:
475,192,339616,128,0,339950:0:0:0:0:
109,192,339616,128,0,339727:0:0:0:0:
402,192,339727,128,0,339838:0:0:0:0:
256,192,339838,128,0,340061:0:0:0:0:
329,192,339838,128,0,340283:0:0:0:0:
109,192,339838,128,0,339950:0:0:0:0:
36,192,339838,128,0,339950:0:0:0:0:
402,192,339950,128,0,340172:0:0:0:0:
36,192,340061,128,0,340172:0:0:0:0:
182,192,340061,128,0,340172:0:0:0:0:
475,192,340061,128,0,340616:0:0:0:0:
109,192,340061,128,0,340172:0:0:0:0:
256,192,340172,128,0,340394:0:0:0:0:
182,192,340283,128,0,340616:0:0:0:0:
36,192,340283,128,0,340616:0:0:0:0:
402,192,340283,128,0,340505:0:0:0:0:
109,192,340283,128,0,340394:0:0:0:0:
329,192,340394,128,0,340616:0:0:0:0:
109,192,340505,128,0,341061:0:0:0:0:
256,192,340505,128,0,341061:0:0:0:0:
402,192,340616,128,0,341061:0:0:0:0:
182,192,340727,128,0,340838:0:0:0:0:
36,192,340727,128,0,341505:0:0:0:0:
329,192,340727,128,0,340838:0:0:0:0:
475,192,340727,128,0,341061:0:0:0:0:
182,192,340950,128,0,341505:0:0:0:0:
329,192,340950,128,0,341505:0:0:0:0:
109,192,341172,128,0,341283:0:0:0:0:
256,192,341172,128,0,341283:0:0:0:0:
402,192,341172,128,0,341950:0:0:0:0:
475,192,341172,128,0,341505:0:0:0:0:
109,192,341394,128,0,341950:0:0:0:0:
256,192,341394,128,0,341950:0:0:0:0:
36,192,341616,128,0,341950:0:0:0:0:
182,192,341616,128,0,342283:0:0:0:0:
329,192,341616,128,0,341727:0:0:0:0:
475,192,341616,128,0,341727:0:0:0:0:
475,192,341838,128,0,343283:0:0:0:0:
329,192,341838,128,0,342505:0:0:0:0:
402,192,342061,128,0,342172:0:0:0:0:
256,192,342061,128,0,342172:0:0:0:0:
109,192,342061,128,0,342394:0:0:0:0:
36,192,342061,128,0,343283:0:0:0:0:
256,192,342283,128,0,342616:0:0:0:0:
402,192,342283,128,0,342394:0:0:0:0:
182,192,342394,128,0,342838:0:0:0:0:
109,192,342505,128,0,342616:0:0:0:0:
402,192,342505,128,0,342838:0:0:0:0:
329,192,342616,128,0,342838:0:0:0:0:
109,192,342727,128,0,343061:0:0:0:0:
256,192,342727,128,0,343061:0:0:0:0:
182,192,342950,128,0,343283:0:0:0:0:
329,192,342950,128,0,343505:0:0:0:0:
402,192,342950,128,0,343283:0:0:0:0:
256,192,343172,128,0,343505:0:0:0:0:
109,192,343172,128,0,343505:0:0:0:0:
36,192,343394,128,0,343727:0:0:0:0:
182,192,343394,128,0,343727:0:0:0:0:
402,192,343394,128,0,343727:0:0:0:0:
475,192,343394,128,0,343727:0:0:0:0:
256,192,343616,128,0,343727:0:0:0:0:
109,192,343616,128,0,343950:0:0:0:0:
329,192,343616,128,0,343950:0:0:0:0:
36,192,343838,128,0,344172:0:0:0:0:
182,192,343838,128,0,343950:0:0:0:0:
256,192,343838,128,0,344172:0:0:0:0:
402,192,343838,128,0,343950:0:0:0:0:
475,192,343838,128,0,344172:0:0:0:0:
109,192,344061,128,0,344172:0:0:0:0:
182,192,344061,128,0,344172:0:0:0:0:
402,192,344061,128,0,344172:0:0:0:0:
329,192,344061,128,0,344172:0:0:0:0:
475,192,344283,128,0,344394:0:0:0:0:
402,192,344283,128,0,344394:0:0:0:0:
36,192,344283,128,0,344394:0:0:0:0:
109,192,344283,128,0,344394:0:0:0:0:
256,192,344283,128,0,344394:0:0:0:0:
475,192,344505,128,0,344616:0:0:0:0:
402,192,344505,128,0,344616:0:0:0:0:
475,192,344727,128,0,344838:0:0:0:0:
402,192,344727,128,0,344838:0:0:0:0:
256,192,344950,128,0,345061:0:0:0:0:
329,192,344950,128,0,345061:0:0:0:0:
402,192,344950,128,0,345061:0:0:0:0:
256,192,345394,128,0,345505:0:0:0:0:
182,192,345394,128,0,345505:0:0:0:0:
329,192,345394,128,0,345505:0:0:0:0:
256,192,345838,128,0,345950:0:0:0:0:
182,192,345838,128,0,345950:0:0:0:0:
109,192,345838,128,0,345950:0:0:0:0:
36,192,346061,128,0,346172:0:0:0:0:
109,192,346061,128,0,346172:0:0:0:0:
256,192,346061,128,0,346172:0:0:0:0:
402,192,346061,128,0,346172:0:0:0:0:
475,192,346061,128,0,346172:0:0:0:0:
36,192,346283,128,0,346394:0:0:0:0:
109,192,346283,128,0,346394:0:0:0:0:
36,192,346505,128,0,346616:0:0:0:0:
109,192,346505,128,0,346616:0:0:0:0:
256,192,346727,128,0,346838:0:0:0:0:
402,192,346727,128,0,346838:0:0:0:0:
329,192,346727,128,0,346838:0:0:0:0:
256,192,347172,128,0,347283:0:0:0:0:
329,192,347172,128,0,347283:0:0:0:0:
182,192,347172,128,0,347283:0:0:0:0:
256,192,347616,128,0,347727:0:0:0:0:
182,192,347616,128,0,347727:0:0:0:0:
109,192,347616,128,0,347727:0:0:0:0:
329,192,347838,128,0,347950:0:0:0:0:
182,192,347838,128,0,347950:0:0:0:0:
36,192,347838,128,0,347950:0:0:0:0:
475,192,347838,128,0,347950:0:0:0:0:
256,192,347838,128,0,347950:0:0:0:0:
329,192,348061,128,0,348172:0:0:0:0:
182,192,348061,128,0,348172:0:0:0:0:
329,192,348283,128,0,348394:0:0:0:0:
182,192,348283,128,0,348394:0:0:0:0:
36,192,348505,128,0,348616:0:0:0:0:
475,192,348505,128,0,348616:0:0:0:0:
256,192,348505,128,0,348616:0:0:0:0:
109,192,348950,128,0,349061:0:0:0:0:
402,192,348950,128,0,349061:0:0:0:0:
256,192,348950,128,0,349061:0:0:0:0:
182,192,349394,128,0,349505:0:0:0:0:
329,192,349394,128,0,349505:0:0:0:0:
256,192,349394,128,0,349505:0:0:0:0:
36,192,349838,128,0,349950:0:0:0:0:
475,192,349838,128,0,349950:0:0:0:0:
182,192,349838,128,0,349950:0:0:0:0:
329,192,349838,128,0,349950:0:0:0:0:
475,192,350061,128,0,353172:0:0:0:0:
402,192,350061,128,0,353172:0:0:0:0:
329,192,350061,128,0,353172:0:0:0:0:
256,192,350061,128,0,353172:0:0:0:0:
182,192,350061,128,0,353172:0:0:0:0:
109,192,350061,128,0,353172:0:0:0:0:
36,192,350061,128,0,353172:0:0:0:0:
182,192,365014,132,0,365214:0:0:0:0:
329,192,365014,128,0,365214:0:0:0:0:
475,192,365014,128,0,365414:0:0:0:0:
36,192,365014,128,0,365814:0:0:0:0:
402,192,365014,128,0,365414:0:0:0:0:
256,192,365214,128,0,365814:0:0:0:0:
109,192,365214,128,0,365614:0:0:0:0:
182,192,365414,128,0,365614:0:0:0:0:
329,192,365414,128,0,365614:0:0:0:0:
475,192,365614,128,0,366214:0:0:0:0:
402,192,365714,128,0,365814:0:0:0:0:
329,192,365814,128,0,365914:0:0:0:0:
109,192,365814,128,0,366214:0:0:0:0:
182,192,365814,128,0,366014:0:0:0:0:
256,192,366014,128,0,366114:0:0:0:0:
329,192,366114,128,0,366214:0:0:0:0:
402,192,366214,128,0,366614:0:0:0:0:
36,192,366214,128,0,366614:0:0:0:0:
329,192,366314,128,0,366414:0:0:0:0:
182,192,366314,128,0,366614:0:0:0:0:
256,192,366414,128,0,366514:0:0:0:0:
329,192,366514,128,0,366614:0:0:0:0:
256,192,366614,128,0,366814:0:0:0:0:
109,192,366614,128,0,367014:0:0:0:0:
475,192,366614,128,0,367414:0:0:0:0:
329,192,366814,128,0,367014:0:0:0:0:
182,192,366914,128,0,367014:0:0:0:0:
256,192,367014,128,0,367214:0:0:0:0:
402,192,367014,128,0,367214:0:0:0:0:
36,192,367014,128,0,367214:0:0:0:0:
329,192,367214,128,0,367314:0:0:0:0:
109,192,367214,128,0,367314:0:0:0:0:
182,192,367314,128,0,367414:0:0:0:0:
36,192,367414,128,0,367814:0:0:0:0:
256,192,367414,128,0,367514:0:0:0:0:
402,192,367414,128,0,367514:0:0:0:0:
109,192,367614,128,0,367814:0:0:0:0:
402,192,367614,128,0,367714:0:0:0:0:
256,192,367614,128,0,367714:0:0:0:0:
329,192,367714,128,0,367814:0:0:0:0:
182,192,367714,128,0,367814:0:0:0:0:
475,192,367814,128,0,368414:0:0:0:0:
109,192,367914,128,0,368014:0:0:0:0:
256,192,367914,128,0,368014:0:0:0:0:
402,192,368014,128,0,368214:0:0:0:0:
256,192,368114,128,0,368214:0:0:0:0:
109,192,368114,128,0,368214:0:0:0:0:
329,192,368214,128,0,368414:0:0:0:0:
182,192,368214,128,0,368414:0:0:0:0:
36,192,368214,128,0,368614:0:0:0:0:
402,192,368414,128,0,368514:0:0:0:0:
109,192,368414,128,0,368614:0:0:0:0:
256,192,368414,128,0,368614:0:0:0:0:
475,192,368514,128,0,368614:0:0:0:0:
402,192,368614,128,0,369014:0:0:0:0:
182,192,368614,128,0,368814:0:0:0:0:
329,192,368614,128,0,368814:0:0:0:0:
256,192,368814,128,0,368914:0:0:0:0:
109,192,368814,128,0,369014:0:0:0:0:
329,192,368914,128,0,369014:0:0:0:0:
36,192,369014,128,0,369114:0:0:0:0:
182,192,369014,128,0,369114:0:0:0:0:
475,192,369014,128,0,369614:0:0:0:0:
256,192,369214,128,0,369414:0:0:0:0:
109,192,369214,128,0,369414:0:0:0:0:
329,192,369314,128,0,369414:0:0:0:0:
36,192,369414,128,0,369814:0:0:0:0:
182,192,369414,128,0,369514:0:0:0:0:
256,192,369514,128,0,369614:0:0:0:0:
109,192,369514,128,0,369614:0:0:0:0:
402,192,369614,128,0,369814:0:0:0:0:
256,192,369714,128,0,369814:0:0:0:0:
109,192,369714,128,0,369814:0:0:0:0:
475,192,369814,128,0,370414:0:0:0:0:
329,192,369814,128,0,370014:0:0:0:0:
182,192,369814,128,0,370014:0:0:0:0:
36,192,370014,128,0,370614:0:0:0:0:
256,192,370014,128,0,370214:0:0:0:0:
109,192,370014,128,0,370214:0:0:0:0:
402,192,370214,128,0,370414:0:0:0:0:
329,192,370214,128,0,370414:0:0:0:0:
182,192,370214,128,0,370414:0:0:0:0:
109,192,370314,128,0,370414:0:0:0:0:
256,192,370414,128,0,370614:0:0:0:0:
402,192,370514,128,0,370614:0:0:0:0:
182,192,370614,128,0,371014:0:0:0:0:
475,192,370614,128,0,370714:0:0:0:0:
329,192,370614,128,0,370714:0:0:0:0:
109,192,370814,128,0,371014:0:0:0:0:
475,192,370814,128,0,370914:0:0:0:0:
329,192,370814,128,0,370914:0:0:0:0:
402,192,370914,128,0,371014:0:0:0:0:
256,192,370914,128,0,371014:0:0:0:0:
36,192,371014,128,0,371814:0:0:0:0:
475,192,371114,128,0,371214:0:0:0:0:
329,192,371114,128,0,371214:0:0:0:0:
256,192,371214,128,0,371414:0:0:0:0:
109,192,371214,128,0,371614:0:0:0:0:
475,192,371314,128,0,371414:0:0:0:0:
402,192,371314,128,0,371414:0:0:0:0:
329,192,371414,128,0,371514:0:0:0:0:
182,192,371414,128,0,371614:0:0:0:0:
402,192,371614,128,0,372214:0:0:0:0:
475,192,371614,128,0,371714:0:0:0:0:
256,192,371614,128,0,371714:0:0:0:0:
109,192,371814,128,0,372014:0:0:0:0:
329,192,371814,128,0,371914:0:0:0:0:
182,192,371814,128,0,371914:0:0:0:0:
475,192,372014,128,0,372214:0:0:0:0:
36,192,372014,128,0,372314:0:0:0:0:
256,192,372214,128,0,372314:0:0:0:0:
109,192,372214,128,0,372314:0:0:0:0:
475,192,372414,128,0,372814:0:0:0:0:
329,192,372414,128,0,372514:0:0:0:0:
182,192,372414,128,0,372514:0:0:0:0:
402,192,372514,128,0,372614:0:0:0:0:
256,192,372514,128,0,372614:0:0:0:0:
36,192,372614,128,0,373014:0:0:0:0:
109,192,372614,128,0,372714:0:0:0:0:
329,192,372714,128,0,372814:0:0:0:0:
182,192,372714,128,0,372814:0:0:0:0:
329,192,372914,128,0,373014:0:0:0:0:
182,192,372914,128,0,373014:0:0:0:0:
475,192,373014,128,0,373314:0:0:0:0:
402,192,373014,128,0,373114:0:0:0:0:
256,192,373014,128,0,373114:0:0:0:0:
329,192,373214,128,0,373514:0:0:0:0:
182,192,373214,128,0,373314:0:0:0:0:
109,192,373214,128,0,373314:0:0:0:0:
475,192,373414,128,0,373714:0:0:0:0:
36,192,373414,128,0,373614:0:0:0:0:
256,192,373414,128,0,373514:0:0:0:0:
402,192,373414,128,0,373514:0:0:0:0:
109,192,373514,128,0,373614:0:0:0:0:
329,192,373614,128,0,373714:0:0:0:0:
182,192,373614,128,0,373714:0:0:0:0:
256,192,373714,128,0,373814:0:0:0:0:
36,192,373714,128,0,373814:0:0:0:0:
109,192,373814,128,0,374214:0:0:0:0:
475,192,373814,128,0,373914:0:0:0:0:
402,192,373814,128,0,373914:0:0:0:0:
36,192,374014,128,0,374414:0:0:0:0:
475,192,374014,128,0,374114:0:0:0:0:
402,192,374014,128,0,374114:0:0:0:0:
256,192,374114,128,0,374214:0:0:0:0:
329,192,374114,128,0,374214:0:0:0:0:
402,192,374214,128,0,374414:0:0:0:0:
256,192,374314,128,0,374414:0:0:0:0:
182,192,374314,128,0,374414:0:0:0:0:
109,192,374414,128,0,374614:0:0:0:0:
475,192,374414,128,0,374814:0:0:0:0:
256,192,374514,128,0,374614:0:0:0:0:
182,192,374514,128,0,374614:0:0:0:0:
36,192,374614,128,0,375414:0:0:0:0:
402,192,374614,128,0,374714:0:0:0:0:
329,192,374614,128,0,374714:0:0:0:0:
182,192,374814,128,0,374914:0:0:0:0:
109,192,374814,128,0,374914:0:0:0:0:
475,192,375014,128,0,375214:0:0:0:0:
402,192,375014,128,0,375114:0:0:0:0:
329,192,375014,128,0,375114:0:0:0:0:
182,192,375114,128,0,375214:0:0:0:0:
402,192,375214,128,0,375414:0:0:0:0:
256,192,375214,128,0,375314:0:0:0:0:
329,192,375314,128,0,375414:0:0:0:0:
475,192,375414,128,0,376014:0:0:0:0:
182,192,375414,128,0,375514:0:0:0:0:
109,192,375414,128,0,375514:0:0:0:0:
36,192,375614,128,0,376014:0:0:0:0:
402,192,375614,128,0,375714:0:0:0:0:
329,192,375614,128,0,375714:0:0:0:0:
256,192,375714,128,0,375814:0:0:0:0:
182,192,375714,128,0,375814:0:0:0:0:
329,192,375814,128,0,376014:0:0:0:0:
182,192,375914,128,0,376014:0:0:0:0:
109,192,375914,128,0,376014:0:0:0:0:
402,192,376014,128,0,376314:0:0:0:0:
182,192,376114,128,0,376214:0:0:0:0:
109,192,376114,128,0,376214:0:0:0:0:
475,192,376214,128,0,376314:0:0:0:0:
36,192,376214,128,0,376314:0:0:0:0:
256,192,376214,128,0,376314:0:0:0:0:
329,192,376214,128,0,376314:0:0:0:0:
182,192,376414,128,0,376514:0:0:0:0:
109,192,376414,128,0,376514:0:0:0:0:
402,192,376614,128,0,376714:0:0:0:0:
329,192,376614,128,0,376714:0:0:0:0:
109,192,376714,128,0,376814:0:0:0:0:
182,192,376814,128,0,376914:0:0:0:0:
256,192,376914,128,0,377014:0:0:0:0:
36,192,377014,128,0,377314:0:0:0:0:
109,192,377014,128,0,377114:0:0:0:0:
402,192,377014,128,0,377114:0:0:0:0:
475,192,377014,128,0,377114:0:0:0:0:
182,192,377114,128,0,377314:0:0:0:0:
329,192,377164,128,0,377264:0:0:0:0:
475,192,377214,128,0,377314:0:0:0:0:
402,192,377214,128,0,377314:0:0:0:0:
109,192,377314,128,0,377414:0:0:0:0:
256,192,377314,128,0,377414:0:0:0:0:
475,192,377414,128,0,377614:0:0:0:0:
329,192,377414,128,0,377514:0:0:0:0:
36,192,377514,128,0,377614:0:0:0:0:
182,192,377514,128,0,377614:0:0:0:0:
402,192,377614,128,0,377714:0:0:0:0:
256,192,377614,128,0,377814:0:0:0:0:
329,192,377714,128,0,377814:0:0:0:0:
109,192,377714,128,0,377814:0:0:0:0:
475,192,377814,1,0,0:0:0:0:
36,192,377814,1,0,0:0:0:0:
182,192,377814,1,0,0:0:0:0:
402,192,377814,1,0,0:0:0:0:
109,192,378014,128,0,378114:0:0:0:0:
256,192,378014,128,0,378414:0:0:0:0:
182,192,378214,128,0,378314:0:0:0:0:
36,192,378214,128,0,378314:0:0:0:0:
475,192,378214,128,0,378614:0:0:0:0:
329,192,378414,128,0,378514:0:0:0:0:
109,192,378414,128,0,378714:0:0:0:0:
402,192,378514,128,0,378814:0:0:0:0:
256,192,378614,128,0,378714:0:0:0:0:
36,192,378614,128,0,378714:0:0:0:0:
182,192,378714,128,0,379214:0:0:0:0:
256,192,378814,128,0,378914:0:0:0:0:
402,192,378914,128,0,379514:0:0:0:0:
475,192,379014,128,0,379114:0:0:0:0:
36,192,379014,128,0,379114:0:0:0:0:
256,192,379014,128,0,379514:0:0:0:0:
109,192,379214,128,0,379314:0:0:0:0:
36,192,379214,128,0,379614:0:0:0:0:
475,192,379414,128,0,379514:0:0:0:0:
329,192,379414,128,0,379514:0:0:0:0:
182,192,379614,128,0,379714:0:0:0:0:
109,192,379614,128,0,380314:0:0:0:0:
475,192,379814,128,0,379914:0:0:0:0:
256,192,379814,128,0,379914:0:0:0:0:
329,192,379814,128,0,380114:0:0:0:0:
402,192,380014,128,0,380114:0:0:0:0:
182,192,380014,128,0,380314:0:0:0:0:
256,192,380114,128,0,380614:0:0:0:0:
475,192,380214,128,0,380314:0:0:0:0:
36,192,380314,128,0,381114:0:0:0:0:
329,192,380414,128,0,380514:0:0:0:0:
475,192,380514,128,0,381914:0:0:0:0:
109,192,380614,128,0,380714:0:0:0:0:
402,192,380614,128,0,381414:0:0:0:0:
182,192,380814,128,0,380914:0:0:0:0:
329,192,380814,128,0,380914:0:0:0:0:
329,192,381014,128,0,381214:0:0:0:0:
256,192,381014,128,0,381214:0:0:0:0:
109,192,381214,128,0,381314:0:0:0:0:
36,192,381214,128,0,381314:0:0:0:0:
329,192,381314,128,0,381414:0:0:0:0:
256,192,381314,128,0,381414:0:0:0:0:
109,192,381514,128,0,381614:0:0:0:0:
36,192,381514,128,0,381614:0:0:0:0:
329,192,381614,128,0,381714:0:0:0:0:
256,192,381614,128,0,382214:0:0:0:0:
36,192,381714,128,0,382614:0:0:0:0:
109,192,381714,128,0,381814:0:0:0:0:
402,192,381814,128,0,381914:0:0:0:0:
329,192,381814,128,0,381914:0:0:0:0:
109,192,382014,128,0,382114:0:0:0:0:
182,192,382014,128,0,382114:0:0:0:0:
402,192,382114,128,0,382214:0:0:0:0:
329,192,382114,128,0,382614:0:0:0:0:
109,192,382314,128,0,382414:0:0:0:0:
182,192,382314,128,0,382414:0:0:0:0:
475,192,382414,128,0,382514:0:0:0:0:
402,192,382414,128,0,382514:0:0:0:0:
182,192,382514,128,0,382614:0:0:0:0:
109,192,382514,128,0,382914:0:0:0:0:
402,192,382614,128,0,382714:0:0:0:0:
475,192,382614,128,0,383514:0:0:0:0:
256,192,382814,128,0,382914:0:0:0:0:
182,192,382814,128,0,382914:0:0:0:0:
402,192,382914,128,0,383814:0:0:0:0:
329,192,382914,128,0,383014:0:0:0:0:
109,192,383114,128,0,383214:0:0:0:0:
182,192,383114,128,0,383214:0:0:0:0:
329,192,383214,128,0,383314:0:0:0:0:
256,192,383214,128,0,383314:0:0:0:0:
109,192,383314,128,0,383414:0:0:0:0:
36,192,383314,128,0,383414:0:0:0:0:
256,192,383414,128,0,383514:0:0:0:0:
182,192,383414,128,0,383814:0:0:0:0:
109,192,383614,128,0,383714:0:0:0:0:
36,192,383614,128,0,384214:0:0:0:0:
256,192,383714,128,0,384214:0:0:0:0:
329,192,383714,128,0,383814:0:0:0:0:
182,192,383914,128,0,384014:0:0:0:0:
109,192,383914,128,0,384014:0:0:0:0:
402,192,384014,128,0,384114:0:0:0:0:
329,192,384014,128,0,384114:0:0:0:0:
182,192,384114,128,0,384214:0:0:0:0:
109,192,384114,128,0,384214:0:0:0:0:
402,192,384214,128,0,384314:0:0:0:0:
329,192,384214,128,0,384314:0:0:0:0:
475,192,384214,128,0,384614:0:0:0:0:
182,192,384414,128,0,384514:0:0:0:0:
36,192,384414,128,0,385014:0:0:0:0:
256,192,384614,128,0,384714:0:0:0:0:
402,192,384614,128,0,384714:0:0:0:0:
329,192,384614,128,0,385114:0:0:0:0:
109,192,384814,128,0,384914:0:0:0:0:
182,192,384914,128,0,385414:0:0:0:0:
402,192,385014,128,0,385114:0:0:0:0:
256,192,385014,128,0,385114:0:0:0:0:
475,192,385014,128,0,385414:0:0:0:0:
109,192,385114,128,0,385414:0:0:0:0:
329,192,385214,128,0,385314:0:0:0:0:
402,192,385314,128,0,385914:0:0:0:0:
36,192,385414,128,0,385514:0:0:0:0:
256,192,385414,128,0,385914:0:0:0:0:
182,192,385614,128,0,385714:0:0:0:0:
36,192,385614,128,0,386214:0:0:0:0:
109,192,385814,128,0,385914:0:0:0:0:
329,192,385814,128,0,385914:0:0:0:0:
475,192,386014,128,0,386114:0:0:0:0:
182,192,386014,128,0,386414:0:0:0:0:
402,192,386214,128,0,386314:0:0:0:0:
256,192,386214,128,0,386314:0:0:0:0:
329,192,386214,128,0,386714:0:0:0:0:
475,192,386414,128,0,386514:0:0:0:0:
109,192,386414,128,0,386814:0:0:0:0:
402,192,386514,128,0,386714:0:0:0:0:
182,192,386614,128,0,386714:0:0:0:0:
256,192,386614,128,0,386714:0:0:0:0:
36,192,386714,128,0,387814:0:0:0:0:
329,192,386814,128,0,386914:0:0:0:0:
475,192,386914,128,0,387514:0:0:0:0:
402,192,387014,128,0,387114:0:0:0:0:
256,192,387014,128,0,388014:0:0:0:0:
329,192,387214,128,0,387414:0:0:0:0:
109,192,387214,128,0,387314:0:0:0:0:
402,192,387414,128,0,387514:0:0:0:0:
182,192,387414,128,0,387514:0:0:0:0:
109,192,387614,128,0,387714:0:0:0:0:
329,192,387614,128,0,387714:0:0:0:0:
402,192,387714,128,0,387814:0:0:0:0:
182,192,387714,128,0,387814:0:0:0:0:
329,192,387914,128,0,388014:0:0:0:0:
109,192,387914,128,0,388014:0:0:0:0:
402,192,388014,128,0,388614:0:0:0:0:
182,192,388014,128,0,388514:0:0:0:0:
109,192,388114,128,0,388214:0:0:0:0:
36,192,388114,128,0,388214:0:0:0:0:
475,192,388214,128,0,388314:0:0:0:0:
256,192,388214,128,0,388314:0:0:0:0:
36,192,388414,128,0,388514:0:0:0:0:
109,192,388414,128,0,388514:0:0:0:0:
256,192,388514,128,0,388814:0:0:0:0:
475,192,388514,128,0,388614:0:0:0:0:
329,192,388714,128,0,389314:0:0:0:0:
109,192,388714,128,0,389314:0:0:0:0:
402,192,388814,128,0,388914:0:0:0:0:
475,192,388814,128,0,388914:0:0:0:0:
475,192,389014,128,0,389814:0:0:0:0:
402,192,389014,128,0,389114:0:0:0:0:
182,192,389214,128,0,389314:0:0:0:0:
36,192,389214,128,0,389314:0:0:0:0:
402,192,389314,128,0,389414:0:0:0:0:
256,192,389314,128,0,389414:0:0:0:0:
182,192,389514,128,0,389614:0:0:0:0:
36,192,389514,128,0,389614:0:0:0:0:
402,192,389614,128,0,389814:0:0:0:0:
256,192,389614,128,0,389714:0:0:0:0:
109,192,389714,128,0,389814:0:0:0:0:
36,192,389714,128,0,390514:0:0:0:0:
256,192,389814,128,0,389914:0:0:0:0:
182,192,389814,128,0,390114:0:0:0:0:
329,192,389814,128,0,390114:0:0:0:0:
256,192,390014,128,0,390114:0:0:0:0:
109,192,390214,128,0,390314:0:0:0:0:
329,192,390214,128,0,390514:0:0:0:0:
402,192,390214,128,0,390314:0:0:0:0:
182,192,390214,128,0,390514:0:0:0:0:
475,192,390214,128,0,390514:0:0:0:0:
402,192,390414,128,0,390514:0:0:0:0:
109,192,390414,128,0,390514:0:0:0:0:
256,192,390514,128,0,390614:0:0:0:0:
329,192,390614,128,0,390714:0:0:0:0:
402,192,390614,128,0,390714:0:0:0:0:
475,192,390614,128,0,390714:0:0:0:0:
36,192,390614,128,0,390714:0:0:0:0:
109,192,390614,128,0,390714:0:0:0:0:
182,192,390614,128,0,390714:0:0:0:0:
256,192,390814,128,0,390914:0:0:0:0:
36,192,390814,128,0,391514:0:0:0:0:
182,192,390914,128,0,391014:0:0:0:0:
475,192,391014,128,0,391114:0:0:0:0:
109,192,391014,128,0,391114:0:0:0:0:
402,192,391014,128,0,391114:0:0:0:0:
256,192,391014,128,0,391214:0:0:0:0:
329,192,391014,128,0,391114:0:0:0:0:
182,192,391214,1,0,0:0:0:0:
329,192,391214,128,0,391814:0:0:0:0:
109,192,391314,1,0,0:0:0:0:
402,192,391314,128,0,391814:0:0:0:0:
475,192,391414,128,0,391514:0:0:0:0:
182,192,391414,128,0,391514:0:0:0:0:
109,192,391514,128,0,392014:0:0:0:0:
475,192,391614,1,0,0:0:0:0:
256,192,391714,1,0,0:0:0:0:
182,192,391714,128,0,392014:0:0:0:0:
36,192,391814,128,0,391914:0:0:0:0:
475,192,391814,128,0,392714:0:0:0:0:
402,192,392014,1,0,0:0:0:0:
256,192,392014,128,0,392314:0:0:0:0:
36,192,392114,1,0,0:0:0:0:
402,192,392214,128,0,392314:0:0:0:0:
329,192,392414,1,0,0:0:0:0:
36,192,392414,128,0,393114:0:0:0:0:
182,192,392514,1,0,0:0:0:0:
329,192,392614,128,0,392714:0:0:0:0:
256,192,392614,128,0,392714:0:0:0:0:
402,192,392614,128,0,393114:0:0:0:0:
329,192,392814,1,0,0:0:0:0:
182,192,392814,128,0,393414:0:0:0:0:
109,192,392914,1,0,0:0:0:0:
475,192,392914,128,0,393714:0:0:0:0:
329,192,393014,128,0,393114:0:0:0:0:
256,192,393014,128,0,393114:0:0:0:0:
109,192,393114,128,0,393414:0:0:0:0:
36,192,393214,1,0,0:0:0:0:
256,192,393314,1,0,0:0:0:0:
329,192,393314,128,0,393514:0:0:0:0:
402,192,393414,128,0,393514:0:0:0:0:
36,192,393414,128,0,393814:0:0:0:0:
402,192,393614,128,0,393714:0:0:0:0:
109,192,393614,128,0,393714:0:0:0:0:
256,192,393614,128,0,393714:0:0:0:0:
182,192,393814,128,0,393914:0:0:0:0:
402,192,393814,128,0,394414:0:0:0:0:
109,192,393914,128,0,394014:0:0:0:0:
36,192,394014,128,0,394514:0:0:0:0:
182,192,394014,128,0,394114:0:0:0:0:
329,192,394014,128,0,394214:0:0:0:0:
256,192,394214,128,0,394414:0:0:0:0:
475,192,394214,128,0,394614:0:0:0:0:
182,192,394314,128,0,394514:0:0:0:0:
329,192,394414,128,0,395014:0:0:0:0:
109,192,394414,128,0,394614:0:0:0:0:
182,192,394614,128,0,394714:0:0:0:0:
402,192,394614,1,0,0:0:0:0:
36,192,394614,128,0,395014:0:0:0:0:
256,192,394614,128,0,394714:0:0:0:0:
402,192,394814,128,0,395014:0:0:0:0:
109,192,394814,128,0,394914:0:0:0:0:
182,192,394914,128,0,395214:0:0:0:0:
256,192,394914,128,0,395014:0:0:0:0:
475,192,395014,128,0,395414:0:0:0:0:
109,192,395114,128,0,395214:0:0:0:0:
329,192,395214,128,0,395414:0:0:0:0:
36,192,395214,128,0,395314:0:0:0:0:
109,192,395314,128,0,395414:0:0:0:0:
256,192,395414,128,0,395614:0:0:0:0:
36,192,395414,128,0,395814:0:0:0:0:
329,192,395614,128,0,395714:0:0:0:0:
182,192,395614,128,0,396014:0:0:0:0:
475,192,395714,128,0,396114:0:0:0:0:
402,192,395714,128,0,395814:0:0:0:0:
109,192,395814,128,0,396214:0:0:0:0:
256,192,395914,128,0,396114:0:0:0:0:
329,192,396014,128,0,396214:0:0:0:0:
36,192,396014,128,0,396414:0:0:0:0:
402,192,396114,128,0,396314:0:0:0:0:
475,192,396214,128,0,396314:0:0:0:0:
182,192,396214,128,0,396614:0:0:0:0:
402,192,396414,128,0,396514:0:0:0:0:
329,192,396414,128,0,396614:0:0:0:0:
109,192,396414,128,0,396814:0:0:0:0:
256,192,396514,128,0,396614:0:0:0:0:
36,192,396614,128,0,397014:0:0:0:0:
329,192,396714,128,0,396814:0:0:0:0:
475,192,396814,128,0,396914:0:0:0:0:
182,192,396814,128,0,397014:0:0:0:0:
402,192,396814,128,0,396914:0:0:0:0:
256,192,397014,128,0,397114:0:0:0:0:
475,192,397014,128,0,397914:0:0:0:0:
329,192,397114,128,0,397214:0:0:0:0:
36,192,397214,128,0,397314:0:0:0:0:
402,192,397214,128,0,397314:0:0:0:0:
109,192,397214,128,0,397314:0:0:0:0:
256,192,397214,128,0,397614:0:0:0:0:
182,192,397214,128,0,397314:0:0:0:0:
329,192,397414,1,0,0:0:0:0:
182,192,397414,128,0,397814:0:0:0:0:
402,192,397514,1,0,0:0:0:0:
109,192,397514,128,0,397814:0:0:0:0:
36,192,397614,128,0,397714:0:0:0:0:
329,192,397614,128,0,397714:0:0:0:0:
402,192,397714,128,0,398214:0:0:0:0:
36,192,397814,1,0,0:0:0:0:
256,192,397914,1,0,0:0:0:0:
329,192,397914,128,0,398214:0:0:0:0:
182,192,398014,128,0,398114:0:0:0:0:
36,192,398014,128,0,398914:0:0:0:0:
109,192,398214,1,0,0:0:0:0:
256,192,398214,128,0,398614:0:0:0:0:
475,192,398314,1,0,0:0:0:0:
402,192,398414,128,0,398514:0:0:0:0:
109,192,398414,128,0,398514:0:0:0:0:
182,192,398614,1,0,0:0:0:0:
475,192,398614,128,0,399314:0:0:0:0:
329,192,398714,1,0,0:0:0:0:
182,192,398814,128,0,398914:0:0:0:0:
256,192,398814,128,0,398914:0:0:0:0:
109,192,398814,128,0,399314:0:0:0:0:
182,192,399014,1,0,0:0:0:0:
329,192,399014,128,0,399614:0:0:0:0:
402,192,399114,1,0,0:0:0:0:
36,192,399114,128,0,400214:0:0:0:0:
182,192,399214,128,0,399314:0:0:0:0:
256,192,399214,128,0,399314:0:0:0:0:
402,192,399314,128,0,399614:0:0:0:0:
475,192,399414,1,0,0:0:0:0:
256,192,399514,1,0,0:0:0:0:
182,192,399514,128,0,399814:0:0:0:0:
109,192,399614,128,0,399814:0:0:0:0:
475,192,399614,128,0,400214:0:0:0:0:
402,192,399814,128,0,399914:0:0:0:0:
256,192,399814,128,0,400014:0:0:0:0:
402,192,400014,128,0,400114:0:0:0:0:
109,192,400014,128,0,400114:0:0:0:0:
109,192,400214,128,0,400314:0:0:0:0:
256,192,400214,128,0,400414:0:0:0:0:
402,192,400214,128,0,400814:0:0:0:0:
36,192,400414,128,0,401014:0:0:0:0:
109,192,400414,128,0,400514:0:0:0:0:
329,192,400414,128,0,400614:0:0:0:0:
182,192,400514,128,0,400614:0:0:0:0:
475,192,400614,128,0,401014:0:0:0:0:
109,192,400714,128,0,400814:0:0:0:0:
256,192,400814,128,0,400914:0:0:0:0:
329,192,400814,128,0,401414:0:0:0:0:
182,192,400914,128,0,401014:0:0:0:0:
109,192,401014,128,0,401814:0:0:0:0:
256,192,401014,128,0,401114:0:0:0:0:
402,192,401014,128,0,401214:0:0:0:0:
36,192,401214,128,0,401314:0:0:0:0:
475,192,401214,1,0,0:0:0:0:
256,192,401314,128,0,401414:0:0:0:0:
182,192,401314,128,0,401414:0:0:0:0:
475,192,401414,128,0,401814:0:0:0:0:
402,192,401414,128,0,401614:0:0:0:0:
36,192,401514,128,0,401614:0:0:0:0:
256,192,401614,128,0,401714:0:0:0:0:
329,192,401614,128,0,401814:0:0:0:0:
182,192,401714,128,0,401814:0:0:0:0:
36,192,401814,128,0,402214:0:0:0:0:
402,192,401814,128,0,401914:0:0:0:0:
256,192,401814,128,0,401914:0:0:0:0:
329,192,402014,128,0,402114:0:0:0:0:
182,192,402014,128,0,402414:0:0:0:0:
402,192,402114,128,0,402514:0:0:0:0:
475,192,402114,128,0,402214:0:0:0:0:
109,192,402214,128,0,403014:0:0:0:0:
329,192,402314,128,0,402414:0:0:0:0:
256,192,402414,128,0,402514:0:0:0:0:
475,192,402414,128,0,402514:0:0:0:0:
36,192,402414,128,0,402814:0:0:0:0:
402,192,402614,128,0,402714:0:0:0:0:
475,192,402614,1,0,0:0:0:0:
329,192,402614,128,0,402714:0:0:0:0:
256,192,402614,128,0,403414:0:0:0:0:
402,192,402814,128,0,402914:0:0:0:0:
329,192,402814,128,0,402914:0:0:0:0:
182,192,402814,128,0,403214:0:0:0:0:
402,192,403014,128,0,403114:0:0:0:0:
329,192,403014,128,0,403114:0:0:0:0:
36,192,403014,128,0,403414:0:0:0:0:
475,192,403014,128,0,403414:0:0:0:0:
402,192,403214,128,0,403314:0:0:0:0:
329,192,403214,128,0,403314:0:0:0:0:
109,192,403214,128,0,403414:0:0:0:0:
182,192,403414,128,0,404214:0:0:0:0:
109,192,403714,1,0,0:0:0:0:
329,192,403814,128,0,405014:0:0:0:0:
475,192,403814,128,0,405014:0:0:0:0:
109,192,404014,1,0,0:0:0:0:
109,192,404314,1,0,0:0:0:0:
36,192,404314,1,0,0:0:0:0:
36,192,404414,1,0,0:0:0:0:
109,192,404414,1,0,0:0:0:0:
109,192,404614,1,0,0:0:0:0:
36,192,404614,1,0,0:0:0:0:
256,192,404814,1,0,0:0:0:0:
36,192,404814,1,0,0:0:0:0:
109,192,404814,1,0,0:0:0:0:
256,192,404914,1,0,0:0:0:0:
256,192,405014,128,0,405814:0:0:0:0:
182,192,405314,128,0,406214:0:0:0:0:
109,192,405614,128,0,406614:0:0:0:0:
402,192,405814,128,0,407014:0:0:0:0:
329,192,406114,128,0,407414:0:0:0:0:
256,192,406414,128,0,407614:0:0:0:0:
182,192,406614,1,0,0:0:0:0:
36,192,406614,128,0,408214:0:0:0:0:
475,192,406914,1,0,0:0:0:0:
109,192,406914,128,0,408214:0:0:0:0:
475,192,407214,128,0,408214:0:0:0:0:
182,192,407214,1,0,0:0:0:0:
402,192,407514,1,0,0:0:0:0:
329,192,407514,1,0,0:0:0:0:
182,192,407614,128,0,407814:0:0:0:0:
329,192,407614,1,0,0:0:0:0:
402,192,407614,1,0,0:0:0:0:
256,192,407814,128,0,408014:0:0:0:0:
402,192,407814,1,0,0:0:0:0:
329,192,407814,1,0,0:0:0:0:
182,192,408014,128,0,408214:0:0:0:0:
402,192,408014,1,0,0:0:0:0:
329,192,408014,1,0,0:0:0:0:
402,192,408214,1,0,0:0:0:0:
329,192,408214,128,0,408614:0:0:0:0:
475,192,408414,1,0,0:0:0:0:
256,192,408414,128,0,408814:0:0:0:0:
402,192,408614,1,0,0:0:0:0:
182,192,408614,128,0,409014:0:0:0:0:
475,192,408814,1,0,0:0:0:0:
109,192,408814,128,0,409414:0:0:0:0:
402,192,409014,1,0,0:0:0:0:
329,192,409014,128,0,409614:0:0:0:0:
475,192,409214,1,0,0:0:0:0:
256,192,409214,128,0,409814:0:0:0:0:
182,192,409414,1,0,0:0:0:0:
402,192,409414,128,0,410014:0:0:0:0:
109,192,409614,1,0,0:0:0:0:
36,192,409614,128,0,410214:0:0:0:0:
329,192,409814,1,0,0:0:0:0:
182,192,409814,1,0,0:0:0:0:
475,192,409814,128,0,410614:0:0:0:0:
329,192,410114,1,0,0:0:0:0:
182,192,410114,1,0,0:0:0:0:
329,192,410414,1,0,0:0:0:0:
182,192,410414,1,0,0:0:0:0:
182,192,410614,128,0,411014:0:0:0:0:
475,192,410714,1,0,0:0:0:0:
402,192,410714,1,0,0:0:0:0:
475,192,410814,1,0,0:0:0:0:
402,192,410814,1,0,0:0:0:0:
109,192,410814,128,0,411214:0:0:0:0:
475,192,411014,1,0,0:0:0:0:
402,192,411014,1,0,0:0:0:0:
256,192,411014,128,0,411414:0:0:0:0:
475,192,411214,1,0,0:0:0:0:
402,192,411214,1,0,0:0:0:0:
329,192,411214,128,0,411614:0:0:0:0:
182,192,411414,1,0,0:0:0:0:
36,192,411414,1,0,0:0:0:0:
402,192,411414,128,0,412214:0:0:0:0:
182,192,411714,1,0,0:0:0:0:
36,192,411714,1,0,0:0:0:0:
109,192,411814,128,0,412614:0:0:0:0:
182,192,412014,1,0,0:0:0:0:
36,192,412014,1,0,0:0:0:0:
256,192,412214,128,0,413014:0:0:0:0:
475,192,412314,1,0,0:0:0:0:
329,192,412314,1,0,0:0:0:0:
475,192,412414,1,0,0:0:0:0:
329,192,412414,1,0,0:0:0:0:
36,192,412614,1,0,0:0:0:0:
182,192,412614,1,0,0:0:0:0:
402,192,412614,128,0,413414:0:0:0:0:
182,192,412814,1,0,0:0:0:0:
36,192,412814,1,0,0:0:0:0:
182,192,413014,1,0,0:0:0:0:
36,192,413014,1,0,0:0:0:0:
475,192,413014,128,0,413814:0:0:0:0:
329,192,413314,1,0,0:0:0:0:
256,192,413314,1,0,0:0:0:0:
182,192,413314,128,0,414214:0:0:0:0:
402,192,413614,1,0,0:0:0:0:
329,192,413614,1,0,0:0:0:0:
36,192,413614,128,0,414614:0:0:0:0:
402,192,413914,1,0,0:0:0:0:
329,192,413914,1,0,0:0:0:0:
329,192,414014,1,0,0:0:0:0:
402,192,414014,1,0,0:0:0:0:
402,192,414214,1,0,0:0:0:0:
329,192,414214,1,0,0:0:0:0:
402,192,414414,1,0,0:0:0:0:
329,192,414414,1,0,0:0:0:0:
182,192,414414,128,0,414714:0:0:0:0:
256,192,414514,128,0,414814:0:0:0:0:
329,192,414614,128,0,415414:0:0:0:0:
36,192,415214,128,0,415314:0:0:0:0:
475,192,415214,128,0,415314:0:0:0:0:
36,192,415414,128,0,416214:0:0:0:0:
475,192,415414,128,0,416214:0:0:0:0:
182,192,416214,128,0,416414:0:0:0:0:
329,192,416214,128,0,416614:0:0:0:0:
402,192,416214,128,0,416614:0:0:0:0:
475,192,416414,128,0,416614:0:0:0:0:
109,192,416414,128,0,416814:0:0:0:0:
36,192,416414,128,0,416814:0:0:0:0:
182,192,416614,128,0,416814:0:0:0:0:
256,192,416714,128,0,416914:0:0:0:0:
329,192,416814,128,0,417014:0:0:0:0:
402,192,416914,128,0,417114:0:0:0:0:
182,192,417014,128,0,417214:0:0:0:0:
475,192,417014,128,0,417414:0:0:0:0:
36,192,417014,128,0,417414:0:0:0:0:
329,192,417214,128,0,417414:0:0:0:0:
402,192,417214,128,0,417614:0:0:0:0:
109,192,417214,128,0,417614:0:0:0:0:
182,192,417414,128,0,417614:0:0:0:0:
256,192,417514,128,0,417714:0:0:0:0:
329,192,417614,128,0,417814:0:0:0:0:
402,192,417714,128,0,417914:0:0:0:0:
109,192,417814,128,0,417914:0:0:0:0:
475,192,417814,128,0,418214:0:0:0:0:
36,192,417814,128,0,418214:0:0:0:0:
182,192,417914,128,0,418014:0:0:0:0:
256,192,418014,128,0,418114:0:0:0:0:
329,192,418114,128,0,418514:0:0:0:0:
182,192,418114,128,0,418514:0:0:0:0:
402,192,418314,128,0,418414:0:0:0:0:
109,192,418314,128,0,418414:0:0:0:0:
256,192,418414,1,0,0:0:0:0:
475,192,418414,128,0,419014:0:0:0:0:
36,192,418414,128,0,419014:0:0:0:0:
329,192,418614,128,0,418714:0:0:0:0:
182,192,418714,128,0,418814:0:0:0:0:
256,192,418814,128,0,418914:0:0:0:0:
402,192,418814,128,0,419214:0:0:0:0:
109,192,418814,128,0,419214:0:0:0:0:
329,192,419014,128,0,419314:0:0:0:0:
182,192,419014,128,0,419314:0:0:0:0:
256,192,419114,128,0,419414:0:0:0:0:
475,192,419214,128,0,419814:0:0:0:0:
36,192,419214,128,0,419814:0:0:0:0:
329,192,419414,128,0,419614:0:0:0:0:
402,192,419414,128,0,419514:0:0:0:0:
109,192,419414,128,0,420214:0:0:0:0:
182,192,419514,128,0,419614:0:0:0:0:
256,192,419614,128,0,419714:0:0:0:0:
402,192,419714,128,0,419814:0:0:0:0:
256,192,419814,128,0,419914:0:0:0:0:
182,192,419814,128,0,420014:0:0:0:0:
329,192,419814,128,0,420614:0:0:0:0:
475,192,419914,128,0,420014:0:0:0:0:
402,192,420014,128,0,420114:0:0:0:0:
256,192,420114,128,0,420214:0:0:0:0:
475,192,420214,128,0,420414:0:0:0:0:
36,192,420214,128,0,420314:0:0:0:0:
182,192,420214,128,0,421014:0:0:0:0:
109,192,420314,128,0,420414:0:0:0:0:
256,192,420414,128,0,420514:0:0:0:0:
36,192,420514,128,0,420614:0:0:0:0:
475,192,420614,128,0,420714:0:0:0:0:
109,192,420614,128,0,420814:0:0:0:0:
402,192,420614,128,0,421014:0:0:0:0:
256,192,420714,128,0,420814:0:0:0:0:
329,192,420814,128,0,420914:0:0:0:0:
36,192,420914,128,0,421014:0:0:0:0:
475,192,421014,128,0,421214:0:0:0:0:
329,192,421014,128,0,421214:0:0:0:0:
109,192,421014,128,0,421414:0:0:0:0:
256,192,421014,128,0,421414:0:0:0:0:
182,192,421214,128,0,421314:0:0:0:0:
36,192,421314,128,0,421414:0:0:0:0:
182,192,421414,128,0,421614:0:0:0:0:
402,192,421414,128,0,421614:0:0:0:0:
329,192,421414,128,0,421814:0:0:0:0:
475,192,421414,128,0,421814:0:0:0:0:
109,192,421614,128,0,421714:0:0:0:0:
36,192,421714,128,0,421814:0:0:0:0:
182,192,421814,128,0,422014:0:0:0:0:
109,192,421814,128,0,422014:0:0:0:0:
256,192,421814,128,0,422214:0:0:0:0:
402,192,421814,128,0,422214:0:0:0:0:
475,192,422014,128,0,422314:0:0:0:0:
36,192,422014,128,0,422314:0:0:0:0:
109,192,422214,128,0,422314:0:0:0:0:
329,192,422214,128,0,422614:0:0:0:0:
182,192,422214,128,0,422614:0:0:0:0:
256,192,422314,128,0,422414:0:0:0:0:
402,192,422414,128,0,422514:0:0:0:0:
475,192,422414,128,0,422614:0:0:0:0:
36,192,422414,128,0,422614:0:0:0:0:
109,192,422514,128,0,422614:0:0:0:0:
256,192,422614,128,0,422914:0:0:0:0:
329,192,422714,128,0,422814:0:0:0:0:
402,192,422714,128,0,422814:0:0:0:0:
182,192,422814,128,0,422914:0:0:0:0:
109,192,422814,128,0,422914:0:0:0:0:
329,192,422914,128,0,423014:0:0:0:0:
402,192,422914,128,0,423014:0:0:0:0:
109,192,423014,128,0,423114:0:0:0:0:
256,192,423014,128,0,423114:0:0:0:0:
36,192,423014,128,0,423114:0:0:0:0:
475,192,423014,128,0,423114:0:0:0:0:
329,192,423214,128,0,423414:0:0:0:0:
109,192,423214,128,0,423614:0:0:0:0:
402,192,423314,128,0,423514:0:0:0:0:
182,192,423314,128,0,423714:0:0:0:0:
475,192,423414,128,0,423614:0:0:0:0:
256,192,423414,128,0,423814:0:0:0:0:
329,192,423614,128,0,423814:0:0:0:0:
36,192,423614,128,0,424014:0:0:0:0:
402,192,423714,128,0,423814:0:0:0:0:
109,192,423814,128,0,424014:0:0:0:0:
475,192,423814,128,0,424214:0:0:0:0:
182,192,423914,128,0,424014:0:0:0:0:
329,192,424014,128,0,424214:0:0:0:0:
256,192,424014,128,0,424214:0:0:0:0:
402,192,424114,128,0,424214:0:0:0:0:
182,192,424214,128,0,424314:0:0:0:0:
36,192,424214,128,0,424314:0:0:0:0:
109,192,424214,128,0,424614:0:0:0:0:
475,192,424414,128,0,424514:0:0:0:0:
329,192,424414,128,0,424514:0:0:0:0:
402,192,424414,128,0,424814:0:0:0:0:
256,192,424614,128,0,424714:0:0:0:0:
36,192,424614,128,0,424714:0:0:0:0:
182,192,424614,128,0,425014:0:0:0:0:
475,192,424814,128,0,424914:0:0:0:0:
36,192,424814,128,0,424914:0:0:0:0:
329,192,424814,128,0,425214:0:0:0:0:
36,192,425014,128,0,425114:0:0:0:0:
475,192,425014,128,0,425114:0:0:0:0:
109,192,425014,128,0,425414:0:0:0:0:
256,192,425014,128,0,425114:0:0:0:0:
475,192,425214,128,0,425314:0:0:0:0:
182,192,425214,128,0,425314:0:0:0:0:
402,192,425214,128,0,425614:0:0:0:0:
256,192,425414,128,0,425514:0:0:0:0:
329,192,425414,128,0,425514:0:0:0:0:
36,192,425414,128,0,425714:0:0:0:0:
182,192,425614,128,0,425714:0:0:0:0:
329,192,425614,128,0,425714:0:0:0:0:
475,192,425614,128,0,425714:0:0:0:0:
109,192,425614,128,0,425714:0:0:0:0:
402,192,425814,128,0,426214:0:0:0:0:
36,192,425814,128,0,426614:0:0:0:0:
182,192,425914,128,0,426014:0:0:0:0:
329,192,425914,128,0,426014:0:0:0:0:
256,192,426014,128,0,426114:0:0:0:0:
475,192,426114,128,0,426514:0:0:0:0:
182,192,426214,128,0,426314:0:0:0:0:
329,192,426214,128,0,426314:0:0:0:0:
109,192,426214,128,0,427014:0:0:0:0:
256,192,426314,128,0,426414:0:0:0:0:
402,192,426414,128,0,426614:0:0:0:0:
329,192,426514,128,0,426614:0:0:0:0:
475,192,426614,128,0,427014:0:0:0:0:
182,192,426614,128,0,427414:0:0:0:0:
256,192,426714,128,0,426814:0:0:0:0:
329,192,426814,128,0,426914:0:0:0:0:
402,192,426914,128,0,427214:0:0:0:0:
256,192,427014,128,0,427314:0:0:0:0:
329,192,427114,128,0,427214:0:0:0:0:
475,192,427214,128,0,427314:0:0:0:0:
402,192,427314,128,0,427414:0:0:0:0:
36,192,427414,128,0,427814:0:0:0:0:
256,192,427414,128,0,428214:0:0:0:0:
475,192,427514,128,0,427614:0:0:0:0:
109,192,427514,128,0,427614:0:0:0:0:
402,192,427614,128,0,427714:0:0:0:0:
182,192,427714,128,0,428014:0:0:0:0:
109,192,427814,128,0,427914:0:0:0:0:
475,192,427814,128,0,427914:0:0:0:0:
329,192,427814,128,0,428614:0:0:0:0:
402,192,427914,128,0,428014:0:0:0:0:
36,192,428014,128,0,428414:0:0:0:0:
109,192,428214,1,0,0:0:0:0:
182,192,428214,128,0,429014:0:0:0:0:
402,192,428214,128,0,428914:0:0:0:0:
475,192,428314,1,0,0:0:0:0:
256,192,428364,1,0,0:0:0:0:
109,192,428414,1,0,0:0:0:0:
256,192,428514,128,0,428614:0:0:0:0:
36,192,428614,128,0,428714:0:0:0:0:
109,192,428614,128,0,428714:0:0:0:0:
475,192,428614,128,0,428914:0:0:0:0:
36,192,428814,128,0,428914:0:0:0:0:
109,192,428814,128,0,428914:0:0:0:0:
256,192,428914,128,0,429014:0:0:0:0:
329,192,428914,128,0,429014:0:0:0:0:
402,192,429014,128,0,429114:0:0:0:0:
475,192,429014,128,0,429114:0:0:0:0:
109,192,429014,128,0,429414:0:0:0:0:
36,192,429014,128,0,429414:0:0:0:0:
402,192,429214,128,0,429614:0:0:0:0:
182,192,429214,128,0,429414:0:0:0:0:
256,192,429214,128,0,429414:0:0:0:0:
475,192,429214,128,0,429614:0:0:0:0:
329,192,429414,128,0,429614:0:0:0:0:
256,192,429514,128,0,429714:0:0:0:0:
182,192,429614,128,0,429814:0:0:0:0:
109,192,429714,128,0,429914:0:0:0:0:
256,192,429814,128,0,429914:0:0:0:0:
402,192,429814,128,0,429914:0:0:0:0:
329,192,429814,128,0,430014:0:0:0:0:
475,192,429814,128,0,430214:0:0:0:0:
36,192,429814,128,0,430214:0:0:0:0:
182,192,430014,128,0,430214:0:0:0:0:
109,192,430014,128,0,430414:0:0:0:0:
402,192,430014,128,0,430414:0:0:0:0:
329,192,430214,128,0,430414:0:0:0:0:
256,192,430314,128,0,430514:0:0:0:0:
182,192,430414,128,0,430614:0:0:0:0:
109,192,430514,128,0,430614:0:0:0:0:
402,192,430614,128,0,430714:0:0:0:0:
256,192,430614,128,0,430714:0:0:0:0:
475,192,430614,128,0,431014:0:0:0:0:
36,192,430614,128,0,431014:0:0:0:0:
329,192,430714,128,0,430814:0:0:0:0:
256,192,430814,128,0,430914:0:0:0:0:
182,192,430914,128,0,431314:0:0:0:0:
329,192,430914,128,0,431314:0:0:0:0:
109,192,431114,128,0,431214:0:0:0:0:
402,192,431114,128,0,431214:0:0:0:0:
256,192,431214,1,0,0:0:0:0:
36,192,431214,128,0,431814:0:0:0:0:
475,192,431214,128,0,431814:0:0:0:0:
402,192,431414,128,0,431514:0:0:0:0:
109,192,431414,128,0,431514:0:0:0:0:
182,192,431414,128,0,431514:0:0:0:0:
329,192,431514,128,0,431614:0:0:0:0:
256,192,431614,128,0,431714:0:0:0:0:
109,192,431614,128,0,432014:0:0:0:0:
402,192,431614,128,0,432014:0:0:0:0:
182,192,431814,128,0,432114:0:0:0:0:
329,192,431814,128,0,432114:0:0:0:0:
256,192,431914,128,0,432214:0:0:0:0:
36,192,432014,128,0,432214:0:0:0:0:
475,192,432014,128,0,432214:0:0:0:0:
182,192,432214,128,0,432414:0:0:0:0:
109,192,432214,128,0,432314:0:0:0:0:
402,192,432214,128,0,433014:0:0:0:0:
329,192,432314,128,0,432414:0:0:0:0:
256,192,432414,128,0,432514:0:0:0:0:
109,192,432514,128,0,432614:0:0:0:0:
256,192,432614,128,0,432714:0:0:0:0:
329,192,432614,128,0,432814:0:0:0:0:
182,192,432614,128,0,433414:0:0:0:0:
36,192,432714,128,0,432814:0:0:0:0:
109,192,432814,128,0,432914:0:0:0:0:
256,192,432914,128,0,433014:0:0:0:0:
36,192,433014,128,0,433214:0:0:0:0:
109,192,433014,128,0,433114:0:0:0:0:
329,192,433014,128,0,433814:0:0:0:0:
475,192,433014,128,0,433114:0:0:0:0:
402,192,433114,128,0,433214:0:0:0:0:
256,192,433214,128,0,433314:0:0:0:0:
475,192,433314,128,0,433414:0:0:0:0:
36,192,433414,128,0,433514:0:0:0:0:
402,192,433414,128,0,433614:0:0:0:0:
109,192,433414,128,0,433814:0:0:0:0:
256,192,433514,128,0,433614:0:0:0:0:
182,192,433614,128,0,433714:0:0:0:0:
475,192,433714,128,0,433814:0:0:0:0:
36,192,433814,128,0,434014:0:0:0:0:
182,192,433814,128,0,434014:0:0:0:0:
402,192,433814,128,0,434214:0:0:0:0:
256,192,433814,128,0,434214:0:0:0:0:
329,192,434014,128,0,434114:0:0:0:0:
475,192,434114,128,0,434214:0:0:0:0:
329,192,434214,128,0,434414:0:0:0:0:
109,192,434214,128,0,434414:0:0:0:0:
182,192,434214,128,0,434414:0:0:0:0:
36,192,434214,128,0,434614:0:0:0:0:
402,192,434414,128,0,434514:0:0:0:0:
475,192,434514,128,0,434614:0:0:0:0:
182,192,434614,128,0,434814:0:0:0:0:
109,192,434614,128,0,434814:0:0:0:0:
256,192,434614,128,0,435014:0:0:0:0:
402,192,434614,128,0,435014:0:0:0:0:
475,192,434814,128,0,435114:0:0:0:0:
36,192,434814,128,0,435114:0:0:0:0:
109,192,435014,128,0,435114:0:0:0:0:
329,192,435014,128,0,435414:0:0:0:0:
182,192,435014,128,0,435414:0:0:0:0:
256,192,435114,128,0,435214:0:0:0:0:
402,192,435214,128,0,435314:0:0:0:0:
475,192,435214,128,0,435414:0:0:0:0:
36,192,435214,128,0,435414:0:0:0:0:
109,192,435314,128,0,435414:0:0:0:0:
402,192,435414,128,0,436214:0:0:0:0:
256,192,435414,128,0,435914:0:0:0:0:
182,192,435514,128,0,435614:0:0:0:0:
109,192,435614,128,0,435714:0:0:0:0:
36,192,435714,128,0,435814:0:0:0:0:
475,192,435814,128,0,435914:0:0:0:0:
329,192,435814,128,0,435914:0:0:0:0:
182,192,435814,128,0,435914:0:0:0:0:
182,192,436014,128,0,436414:0:0:0:0:
36,192,436014,128,0,436914:0:0:0:0:
329,192,436114,128,0,436614:0:0:0:0:
109,192,436214,128,0,436414:0:0:0:0:
475,192,436214,128,0,436614:0:0:0:0:
402,192,436414,128,0,436914:0:0:0:0:
256,192,436414,128,0,436614:0:0:0:0:
182,192,436614,128,0,436914:0:0:0:0:
109,192,436614,128,0,436814:0:0:0:0:
475,192,436814,128,0,436914:0:0:0:0:
329,192,436814,128,0,436914:0:0:0:0:
109,192,437014,128,0,437114:0:0:0:0:
36,192,437014,128,0,437114:0:0:0:0:
182,192,437014,128,0,437114:0:0:0:0:
329,192,437014,128,0,437414:0:0:0:0:
402,192,437014,128,0,437614:0:0:0:0:
475,192,437014,128,0,437114:0:0:0:0:
182,192,437214,128,0,437314:0:0:0:0:
36,192,437214,128,0,437814:0:0:0:0:
109,192,437214,128,0,438014:0:0:0:0:
256,192,437414,128,0,437814:0:0:0:0:
475,192,437414,128,0,438014:0:0:0:0:
329,192,437614,128,0,438414:0:0:0:0:
182,192,437614,128,0,438214:0:0:0:0:
402,192,437814,128,0,437914:0:0:0:0:
402,192,438014,128,0,438514:0:0:0:0:
256,192,438014,128,0,438514:0:0:0:0:
475,192,438214,128,0,438314:0:0:0:0:
36,192,438214,128,0,438414:0:0:0:0:
109,192,438214,128,0,438614:0:0:0:0:
475,192,438414,128,0,438514:0:0:0:0:
182,192,438414,128,0,438614:0:0:0:0:
402,192,438614,128,0,438714:0:0:0:0:
475,192,438614,128,0,438714:0:0:0:0:
36,192,438614,128,0,439414:0:0:0:0:
329,192,438614,128,0,438714:0:0:0:0:
109,192,438714,128,0,439014:0:0:0:0:
182,192,438714,128,0,438814:0:0:0:0:
475,192,438814,128,0,438914:0:0:0:0:
329,192,438814,128,0,438914:0:0:0:0:
182,192,438914,128,0,439014:0:0:0:0:
256,192,438914,128,0,439114:0:0:0:0:
475,192,439014,128,0,439114:0:0:0:0:
402,192,439014,128,0,439114:0:0:0:0:
109,192,439114,128,0,439214:0:0:0:0:
182,192,439114,128,0,439214:0:0:0:0:
329,192,439214,128,0,439314:0:0:0:0:
256,192,439214,128,0,439314:0:0:0:0:
475,192,439314,128,0,439514:0:0:0:0:
402,192,439314,128,0,439414:0:0:0:0:
256,192,439414,128,0,439514:0:0:0:0:
109,192,439414,128,0,439514:0:0:0:0:
182,192,439414,128,0,440214:0:0:0:0:
402,192,439514,128,0,439614:0:0:0:0:
329,192,439514,128,0,439614:0:0:0:0:
36,192,439614,128,0,439814:0:0:0:0:
256,192,439614,128,0,439714:0:0:0:0:
475,192,439714,128,0,439914:0:0:0:0:
402,192,439714,128,0,439814:0:0:0:0:
256,192,439814,128,0,439914:0:0:0:0:
109,192,439814,128,0,439914:0:0:0:0:
402,192,439914,128,0,440114:0:0:0:0:
329,192,439914,128,0,440014:0:0:0:0:
36,192,440014,128,0,440114:0:0:0:0:
109,192,440014,128,0,440114:0:0:0:0:
475,192,440114,128,0,440314:0:0:0:0:
256,192,440114,128,0,440214:0:0:0:0:
36,192,440214,128,0,440414:0:0:0:0:
109,192,440214,128,0,440314:0:0:0:0:
329,192,440214,128,0,441014:0:0:0:0:
402,192,440314,128,0,440414:0:0:0:0:
256,192,440314,128,0,440414:0:0:0:0:
182,192,440414,128,0,440614:0:0:0:0:
109,192,440414,128,0,440514:0:0:0:0:
475,192,440514,128,0,440614:0:0:0:0:
402,192,440514,128,0,440614:0:0:0:0:
109,192,440614,128,0,440714:0:0:0:0:
36,192,440614,128,0,440814:0:0:0:0:
256,192,440714,128,0,440814:0:0:0:0:
182,192,440714,128,0,440814:0:0:0:0:
475,192,440814,128,0,440914:0:0:0:0:
402,192,440814,128,0,440914:0:0:0:0:
109,192,440914,128,0,441014:0:0:0:0:
182,192,440914,128,0,441014:0:0:0:0:
256,192,441014,128,0,441114:0:0:0:0:
402,192,441014,128,0,441214:0:0:0:0:
475,192,441014,128,0,441814:0:0:0:0:
109,192,441114,128,0,441214:0:0:0:0:
36,192,441114,128,0,441214:0:0:0:0:
182,192,441164,128,0,441264:0:0:0:0:
329,192,441214,128,0,441314:0:0:0:0:
256,192,441214,128,0,441314:0:0:0:0:
36,192,441314,128,0,441414:0:0:0:0:
109,192,441314,128,0,441414:0:0:0:0:
402,192,441414,128,0,441614:0:0:0:0:
329,192,441414,128,0,441514:0:0:0:0:
256,192,441414,128,0,441514:0:0:0:0:
109,192,441514,128,0,441714:0:0:0:0:
36,192,441514,128,0,441714:0:0:0:0:
256,192,441614,128,0,441714:0:0:0:0:
182,192,441614,128,0,441714:0:0:0:0:
402,192,441714,128,0,441814:0:0:0:0:
329,192,441714,128,0,441814:0:0:0:0:
182,192,441814,128,0,441964:0:0:0:0:
109,192,441814,128,0,441989:0:0:0:0:
36,192,441814,128,0,442214:0:0:0:0:
329,192,441914,128,0,442064:0:0:0:0:
256,192,441914,128,0,442039:0:0:0:0:
402,192,442014,128,0,442164:0:0:0:0:
475,192,442014,128,0,442139:0:0:0:0:
109,192,442114,128,0,442464:0:0:0:0:
182,192,442114,128,0,442264:0:0:0:0:
329,192,442214,128,0,442364:0:0:0:0:
256,192,442214,128,0,442339:0:0:0:0:
402,192,442314,128,0,442439:0:0:0:0:
475,192,442314,128,0,442464:0:0:0:0:
182,192,442414,128,0,442564:0:0:0:0:
36,192,442414,128,0,442589:0:0:0:0:
402,192,442514,128,0,442664:0:0:0:0:
256,192,442514,128,0,442914:0:0:0:0:
475,192,442614,128,0,442764:0:0:0:0:
329,192,442614,128,0,442739:0:0:0:0:
109,192,442714,128,0,442864:0:0:0:0:
36,192,442714,128,0,442889:0:0:0:0:
329,192,442814,128,0,442989:0:0:0:0:
182,192,442814,128,0,442939:0:0:0:0:
475,192,442914,128,0,443089:0:0:0:0:
402,192,442914,128,0,443064:0:0:0:0:
36,192,443014,128,0,443364:0:0:0:0:
109,192,443014,128,0,443189:0:0:0:0:
329,192,443114,128,0,443239:0:0:0:0:
182,192,443114,128,0,443264:0:0:0:0:
475,192,443214,128,0,443314:0:0:0:0:
402,192,443214,128,0,443339:0:0:0:0:
109,192,443314,128,0,443414:0:0:0:0:
256,192,443314,128,0,443464:0:0:0:0:
329,192,443414,128,0,443480:0:0:0:0:
402,192,443414,128,0,443480:0:0:0:0:
475,192,443414,128,0,443714:0:0:0:0:
109,192,443514,128,0,443580:0:0:0:0:
182,192,443514,128,0,443580:0:0:0:0:
36,192,443514,128,0,443580:0:0:0:0:
402,192,443614,128,0,443680:0:0:0:0:
329,192,443614,128,0,443680:0:0:0:0:
256,192,443614,128,0,443839:0:0:0:0:
182,192,443714,128,0,443780:0:0:0:0:
109,192,443714,128,0,443780:0:0:0:0:
36,192,443714,128,0,444039:0:0:0:0:
402,192,443814,128,0,443880:0:0:0:0:
475,192,443814,128,0,443880:0:0:0:0:
329,192,443814,128,0,443880:0:0:0:0:
109,192,443914,128,0,443980:0:0:0:0:
182,192,443914,128,0,443980:0:0:0:0:
256,192,443914,128,0,444139:0:0:0:0:
402,192,444014,128,0,444080:0:0:0:0:
329,192,444014,128,0,444080:0:0:0:0:
475,192,444014,128,0,444339:0:0:0:0:
182,192,444114,128,0,444180:0:0:0:0:
109,192,444114,128,0,444180:0:0:0:0:
36,192,444114,128,0,444180:0:0:0:0:
329,192,444214,128,0,444280:0:0:0:0:
256,192,444214,128,0,444547:0:0:0:0:
402,192,444214,128,0,444280:0:0:0:0:
109,192,444314,128,0,444380:0:0:0:0:
182,192,444314,128,0,444380:0:0:0:0:
475,192,444414,128,0,444480:0:0:0:0:
36,192,444414,128,0,444480:0:0:0:0:
182,192,444514,128,0,444580:0:0:0:0:
402,192,444514,128,0,444580:0:0:0:0:
329,192,444514,128,0,444814:0:0:0:0:
109,192,444614,128,0,444680:0:0:0:0:
36,192,444614,128,0,444680:0:0:0:0:
256,192,444714,128,0,444780:0:0:0:0:
402,192,444714,128,0,444780:0:0:0:0:
475,192,444714,128,0,444780:0:0:0:0:
109,192,444814,128,0,444880:0:0:0:0:
182,192,444814,128,0,445014:0:0:0:0:
402,192,444914,128,0,444980:0:0:0:0:
329,192,444914,128,0,444980:0:0:0:0:
36,192,444914,128,0,444980:0:0:0:0:
475,192,445014,128,0,445139:0:0:0:0:
109,192,445014,128,0,445114:0:0:0:0:
256,192,445014,128,0,445364:0:0:0:0:
182,192,445114,128,0,445239:0:0:0:0:
402,192,445114,128,0,445239:0:0:0:0:
329,192,445214,128,0,445314:0:0:0:0:
36,192,445214,128,0,445339:0:0:0:0:
475,192,445314,128,0,445439:0:0:0:0:
182,192,445314,128,0,445464:0:0:0:0:
109,192,445414,128,0,445514:0:0:0:0:
402,192,445414,128,0,445539:0:0:0:0:
329,192,445514,128,0,445614:0:0:0:0:
36,192,445514,128,0,445639:0:0:0:0:
475,192,445614,128,0,445664:0:0:0:0:
402,192,445614,128,0,445739:0:0:0:0:
182,192,445614,128,0,445764:0:0:0:0:
475,192,445714,128,0,445764:0:0:0:0:
109,192,445714,128,0,445839:0:0:0:0:
329,192,445714,128,0,445864:0:0:0:0:
475,192,445814,128,0,446064:0:0:0:0:
36,192,445814,128,0,445964:0:0:0:0:
256,192,445814,128,0,445939:0:0:0:0:
402,192,445914,128,0,446039:0:0:0:0:
109,192,445914,128,0,446064:0:0:0:0:
182,192,446014,128,0,446139:0:0:0:0:
329,192,446014,128,0,446264:0:0:0:0:
36,192,446114,128,0,446364:0:0:0:0:
256,192,446114,128,0,446239:0:0:0:0:
475,192,446214,128,0,446414:0:0:0:0:
182,192,446214,128,0,446314:0:0:0:0:
109,192,446314,128,0,446439:0:0:0:0:
402,192,446314,128,0,446464:0:0:0:0:
329,192,446414,128,0,446539:0:0:0:0:
182,192,446414,128,0,446564:0:0:0:0:
256,192,446514,128,0,446614:0:0:0:0:
36,192,446514,128,0,446639:0:0:0:0:
475,192,446614,128,0,446939:0:0:0:0:
402,192,446614,128,0,446739:0:0:0:0:
109,192,446614,128,0,446714:0:0:0:0:
329,192,446714,128,0,446789:0:0:0:0:
256,192,446714,128,0,446814:0:0:0:0:
182,192,446714,128,0,446789:0:0:0:0:
109,192,446814,128,0,446914:0:0:0:0:
36,192,446814,128,0,447064:0:0:0:0:
402,192,446914,128,0,447039:0:0:0:0:
329,192,446914,128,0,447164:0:0:0:0:
256,192,446914,128,0,447039:0:0:0:0:
109,192,447014,128,0,447089:0:0:0:0:
182,192,447014,128,0,447114:0:0:0:0:
475,192,447114,128,0,447214:0:0:0:0:
402,192,447114,128,0,447239:0:0:0:0:
109,192,447214,128,0,447539:0:0:0:0:
36,192,447214,128,0,447314:0:0:0:0:
182,192,447214,128,0,447339:0:0:0:0:
329,192,447314,128,0,447439:0:0:0:0:
256,192,447314,128,0,447414:0:0:0:0:
36,192,447414,128,0,447539:0:0:0:0:
402,192,447414,128,0,447514:0:0:0:0:
475,192,447414,128,0,447839:0:0:0:0:
256,192,447514,128,0,447864:0:0:0:0:
182,192,447514,128,0,447614:0:0:0:0:
402,192,447614,128,0,447689:0:0:0:0:
329,192,447614,128,0,447714:0:0:0:0:
182,192,447714,128,0,447814:0:0:0:0:
109,192,447714,128,0,447814:0:0:0:0:
36,192,447714,128,0,447839:0:0:0:0:
329,192,447814,128,0,447914:0:0:0:0:
402,192,447814,128,0,447939:0:0:0:0:
109,192,447914,128,0,448014:0:0:0:0:
182,192,447914,128,0,448039:0:0:0:0:
475,192,448014,128,0,448114:0:0:0:0:
329,192,448014,128,0,448114:0:0:0:0:
256,192,448014,128,0,448089:0:0:0:0:
109,192,448114,128,0,448214:0:0:0:0:
36,192,448114,128,0,448189:0:0:0:0:
402,192,448214,128,0,448314:0:0:0:0:
475,192,448214,128,0,448314:0:0:0:0:
182,192,448214,128,0,448414:0:0:0:0:
256,192,448214,128,0,448314:0:0:0:0:
36,192,448314,128,0,448614:0:0:0:0:
329,192,448414,128,0,448514:0:0:0:0:
475,192,448414,128,0,448714:0:0:0:0:
109,192,448514,128,0,448814:0:0:0:0:
329,192,448614,128,0,448714:0:0:0:0:
402,192,448614,128,0,448914:0:0:0:0:
256,192,448614,128,0,448914:0:0:0:0:
182,192,448714,128,0,449014:0:0:0:0:
36,192,448814,128,0,449014:0:0:0:0:
475,192,448914,128,0,449014:0:0:0:0:
256,192,449014,128,0,449114:0:0:0:0:
329,192,449014,128,0,449214:0:0:0:0:
109,192,449014,128,0,449414:0:0:0:0:
402,192,449114,128,0,449414:0:0:0:0:
256,192,449214,128,0,449414:0:0:0:0:
475,192,449314,128,0,449614:0:0:0:0:
36,192,449314,128,0,449614:0:0:0:0:
182,192,449414,128,0,449814:0:0:0:0:
329,192,449514,128,0,449714:0:0:0:0:
256,192,449614,128,0,449814:0:0:0:0:
109,192,449714,128,0,449814:0:0:0:0:
329,192,449814,128,0,449914:0:0:0:0:
475,192,449814,128,0,450214:0:0:0:0:
402,192,449814,128,0,450014:0:0:0:0:
36,192,449914,128,0,450214:0:0:0:0:
182,192,450014,128,0,450314:0:0:0:0:
329,192,450114,128,0,450414:0:0:0:0:
109,192,450214,128,0,450514:0:0:0:0:
402,192,450314,128,0,450614:0:0:0:0:
256,192,450314,128,0,450514:0:0:0:0:
36,192,450414,128,0,450614:0:0:0:0:
475,192,450514,128,0,450614:0:0:0:0:
182,192,450514,128,0,450614:0:0:0:0:
109,192,450614,128,0,451214:0:0:0:0:
329,192,450614,128,0,450814:0:0:0:0:
256,192,450714,128,0,451014:0:0:0:0:
402,192,450814,128,0,451114:0:0:0:0:
182,192,450914,128,0,451414:0:0:0:0:
475,192,451014,128,0,451114:0:0:0:0:
36,192,451014,128,0,451414:0:0:0:0:
329,192,451114,128,0,451314:0:0:0:0:
475,192,451214,128,0,451414:0:0:0:0:
402,192,451314,128,0,451414:0:0:0:0:
256,192,451314,128,0,451414:0:0:0:0:
329,192,451414,128,0,451614:0:0:0:0:
109,192,451414,128,0,451814:0:0:0:0:
256,192,451514,128,0,451614:0:0:0:0:
36,192,451614,128,0,452014:0:0:0:0:
182,192,451614,128,0,451814:0:0:0:0:
256,192,451714,128,0,451814:0:0:0:0:
402,192,451814,128,0,452214:0:0:0:0:
329,192,451814,128,0,452014:0:0:0:0:
256,192,451914,128,0,452014:0:0:0:0:
109,192,452014,128,0,452414:0:0:0:0:
475,192,452014,128,0,452114:0:0:0:0:
182,192,452014,128,0,452214:0:0:0:0:
256,192,452114,128,0,452214:0:0:0:0:
329,192,452214,128,0,452614:0:0:0:0:
475,192,452214,128,0,453714:0:0:0:0:
36,192,452214,128,0,453714:0:0:0:0:
182,192,452314,128,0,452414:0:0:0:0:
402,192,452414,128,0,452514:0:0:0:0:
256,192,452414,128,0,452814:0:0:0:0:
109,192,452514,128,0,452614:0:0:0:0:
182,192,452614,128,0,453014:0:0:0:0:
109,192,452714,128,0,452814:0:0:0:0:
329,192,452814,128,0,452914:0:0:0:0:
402,192,452814,128,0,453214:0:0:0:0:
256,192,452914,128,0,453014:0:0:0:0:
109,192,453014,128,0,453414:0:0:0:0:
182,192,453114,128,0,453214:0:0:0:0:
329,192,453214,128,0,453314:0:0:0:0:
256,192,453214,128,0,453614:0:0:0:0:
182,192,453314,128,0,453414:0:0:0:0:
402,192,453414,128,0,453714:0:0:0:0:
329,192,453614,128,0,453714:0:0:0:0:
256,192,453714,128,0,453814:0:0:0:0:
109,192,453714,128,0,453814:0:0:0:0:
329,192,453814,128,0,453914:0:0:0:0:
182,192,453814,128,0,453914:0:0:0:0:
475,192,453814,128,0,454214:0:0:0:0:
329,192,454014,128,0,454114:0:0:0:0:
182,192,454014,128,0,454114:0:0:0:0:
36,192,454114,128,0,454614:0:0:0:0:
402,192,454214,128,0,454314:0:0:0:0:
109,192,454214,128,0,454314:0:0:0:0:
256,192,454414,128,0,454614:0:0:0:0:
402,192,454414,128,0,454514:0:0:0:0:
109,192,454414,128,0,454514:0:0:0:0:
329,192,454614,128,0,455214:0:0:0:0:
109,192,454614,128,0,455214:0:0:0:0:
475,192,454614,128,0,456114:0:0:0:0:
256,192,455214,128,0,455314:0:0:0:0:
36,192,455214,128,0,455314:0:0:0:0:
402,192,455414,128,0,455814:0:0:0:0:
182,192,455414,1,0,0:0:0:0:
109,192,455414,128,0,455814:0:0:0:0:
36,192,455414,128,0,456114:0:0:0:0:
256,192,455414,128,0,456114:0:0:0:0:
329,192,455514,1,0,0:0:0:0:
182,192,455564,1,0,0:0:0:0:
329,192,455614,1,0,0:0:0:0:
182,192,455714,1,0,0:0:0:0:
329,192,455814,1,0,0:0:0:0:
182,192,455914,1,0,0:0:0:0:
109,192,456014,1,0,0:0:0:0:
402,192,456014,1,0,0:0:0:0:
329,192,456114,1,0,0:0:0:0:
182,192,456114,1,0,0:0:0:0:
109,192,456214,128,0,456314:0:0:0:0:
402,192,456214,128,0,456314:0:0:0:0:
475,192,456214,128,0,456314:0:0:0:0:
36,192,456214,128,0,456314:0:0:0:0:
256,192,456214,128,0,456314:0:0:0:0:
