osu file format v14

[General]
AudioFilename: LNDan_5.mp3
AudioLeadIn: 0
PreviewTime: 82849
Countdown: 0
SampleSet: Soft
StackLeniency: 0.7
Mode: 3
LetterboxInBreaks: 0
SpecialStyle: 0
WidescreenStoryboard: 1

[Editor]
DistanceSpacing: 1.3
BeatDivisor: 4
GridSize: 4
TimelineZoom: 1.6

[Metadata]
Title:LN Dan Phase II
TitleUnicode:LN Dan Phase II
Artist:osu!mania 7K Dan Course
ArtistUnicode:osu!mania 7K Dan Course
Creator:Jinjin
Version:5th Dan
Source:
Tags:perfume chocolate disco dj profetti lily and morrigan oath nova apocalypse evening nano feat my first love story nagi inside
BeatmapID:1872112
BeatmapSetID:895138

[Difficulty]
HPDrainRate:7
CircleSize:7
OverallDifficulty:5
ApproachRate:5
SliderMultiplier:1.4
SliderTickRate:1

[Events]
//Background and Video events
0,0,"LNDan_5.png",0,0
//Break Periods
2,98166,111103
2,286628,296567
2,383592,394686
//Storyboard Layer 0 (Background)
//Storyboard Layer 1 (Fail)
//Storyboard Layer 2 (Pass)
//Storyboard Layer 3 (Foreground)
//Storyboard Sound Samples

[TimingPoints]
349,468.75,4,2,0,0,1,0
349,-106.382978723404,4,2,0,0,0,0
112303,500,4,2,0,0,1,0
297767,312.5,4,2,0,0,1,0
297767,-161.290322580645,4,2,0,0,0,0
343392,312.5,4,2,0,0,1,0
343392,-161.290322580645,4,2,0,0,0,0
393826,540.540540540541,4,2,0,0,1,0
393826,-92.5925925925926,4,2,0,0,0,0

[HitObjects]
402,192,349,128,0,466:0:0:0:0:
475,192,349,128,0,466:0:0:0:0:
182,192,466,128,0,583:0:0:0:0:
109,192,466,128,0,583:0:0:0:0:
329,192,583,128,0,700:0:0:0:0:
402,192,583,128,0,700:0:0:0:0:
109,192,700,128,0,817:0:0:0:0:
36,192,700,128,0,817:0:0:0:0:
256,192,817,128,0,1052:0:0:0:0:
329,192,817,128,0,1052:0:0:0:0:
182,192,1052,128,0,1286:0:0:0:0:
109,192,1052,128,0,1286:0:0:0:0:
329,192,1286,128,0,1403:0:0:0:0:
402,192,1286,128,0,1403:0:0:0:0:
109,192,1403,128,0,1520:0:0:0:0:
36,192,1403,128,0,1520:0:0:0:0:
402,192,1638,128,0,1755:0:0:0:0:
475,192,1638,128,0,1755:0:0:0:0:
182,192,1755,128,0,1989:0:0:0:0:
109,192,1755,128,0,1989:0:0:0:0:
329,192,1989,128,0,2224:0:0:0:0:
402,192,1989,128,0,2224:0:0:0:0:
182,192,2224,128,0,2341:0:0:0:0:
109,192,2224,128,0,2341:0:0:0:0:
402,192,2341,128,0,2458:0:0:0:0:
329,192,2341,128,0,2458:0:0:0:0:
36,192,2458,128,0,2575:0:0:0:0:
182,192,2458,128,0,2575:0:0:0:0:
329,192,2575,128,0,2692:0:0:0:0:
475,192,2575,128,0,2692:0:0:0:0:
109,192,2692,128,0,2927:0:0:0:0:
182,192,2692,128,0,2927:0:0:0:0:
402,192,2927,128,0,3161:0:0:0:0:
329,192,2927,128,0,3161:0:0:0:0:
182,192,3161,128,0,3278:0:0:0:0:
36,192,3161,128,0,3278:0:0:0:0:
402,192,3278,128,0,3395:0:0:0:0:
256,192,3278,128,0,3395:0:0:0:0:
109,192,3513,128,0,3630:0:0:0:0:
256,192,3513,128,0,3630:0:0:0:0:
329,192,3630,128,0,3864:0:0:0:0:
475,192,3630,128,0,3864:0:0:0:0:
182,192,3864,128,0,4099:0:0:0:0:
36,192,3864,128,0,4099:0:0:0:0:
402,192,4099,128,0,4216:0:0:0:0:
329,192,4099,128,0,4216:0:0:0:0:
256,192,4216,128,0,4333:0:0:0:0:
182,192,4216,128,0,4333:0:0:0:0:
475,192,4333,128,0,4450:0:0:0:0:
402,192,4333,128,0,4450:0:0:0:0:
109,192,4450,128,0,4567:0:0:0:0:
36,192,4450,128,0,4567:0:0:0:0:
329,192,4567,128,0,4802:0:0:0:0:
256,192,4567,128,0,4802:0:0:0:0:
182,192,4802,128,0,5036:0:0:0:0:
109,192,4802,128,0,5036:0:0:0:0:
329,192,5036,128,0,5153:0:0:0:0:
475,192,5036,128,0,5153:0:0:0:0:
109,192,5153,128,0,5270:0:0:0:0:
256,192,5153,128,0,5270:0:0:0:0:
402,192,5388,128,0,5505:0:0:0:0:
256,192,5388,128,0,5505:0:0:0:0:
182,192,5505,128,0,5739:0:0:0:0:
36,192,5505,128,0,5739:0:0:0:0:
329,192,5739,128,0,5974:0:0:0:0:
475,192,5739,128,0,5974:0:0:0:0:
109,192,5974,128,0,6091:0:0:0:0:
256,192,5974,128,0,7849:0:0:0:0:
402,192,5974,128,0,6091:0:0:0:0:
475,192,6091,128,0,6208:0:0:0:0:
36,192,6208,128,0,6325:0:0:0:0:
182,192,6208,1,0,0:0:0:0:
402,192,6325,128,0,6442:0:0:0:0:
182,192,6442,128,0,6559:0:0:0:0:
475,192,6442,1,0,0:0:0:0:
36,192,6559,1,0,0:0:0:0:
329,192,6677,128,0,6794:0:0:0:0:
402,192,6677,1,0,0:0:0:0:
109,192,6794,1,0,0:0:0:0:
182,192,6911,128,0,7028:0:0:0:0:
475,192,6911,1,0,0:0:0:0:
402,192,7028,128,0,7145:0:0:0:0:
36,192,7028,1,0,0:0:0:0:
329,192,7145,1,0,0:0:0:0:
182,192,7145,1,0,0:0:0:0:
109,192,7263,128,0,7380:0:0:0:0:
36,192,7263,1,0,0:0:0:0:
329,192,7380,128,0,7497:0:0:0:0:
475,192,7380,1,0,0:0:0:0:
182,192,7380,1,0,0:0:0:0:
402,192,7497,1,0,0:0:0:0:
182,192,7614,128,0,7731:0:0:0:0:
109,192,7614,1,0,0:0:0:0:
329,192,7614,1,0,0:0:0:0:
402,192,7731,1,0,0:0:0:0:
475,192,7849,1,0,0:0:0:0:
36,192,7849,128,0,8083:0:0:0:0:
329,192,7849,128,0,7966:0:0:0:0:
182,192,7849,1,0,0:0:0:0:
109,192,8083,128,0,8317:0:0:0:0:
402,192,8083,128,0,8200:0:0:0:0:
256,192,8083,1,0,0:0:0:0:
182,192,8317,128,0,8552:0:0:0:0:
475,192,8317,128,0,8434:0:0:0:0:
329,192,8317,1,0,0:0:0:0:
256,192,8552,128,0,8786:0:0:0:0:
402,192,8552,1,0,0:0:0:0:
36,192,8552,128,0,8669:0:0:0:0:
329,192,8786,128,0,9020:0:0:0:0:
475,192,8786,1,0,0:0:0:0:
109,192,8786,128,0,8903:0:0:0:0:
402,192,9020,128,0,9255:0:0:0:0:
36,192,9020,1,0,0:0:0:0:
182,192,9020,128,0,9138:0:0:0:0:
475,192,9255,128,0,9489:0:0:0:0:
256,192,9255,128,0,9372:0:0:0:0:
109,192,9255,1,0,0:0:0:0:
182,192,9489,1,0,0:0:0:0:
329,192,9489,128,0,9606:0:0:0:0:
36,192,9724,1,0,0:0:0:0:
256,192,9724,1,0,0:0:0:0:
402,192,9724,128,0,9802:0:0:0:0:
182,192,9724,128,0,9958:0:0:0:0:
475,192,9958,128,0,10036:0:0:0:0:
109,192,9958,128,0,10192:0:0:0:0:
329,192,9958,1,0,0:0:0:0:
402,192,10192,128,0,10270:0:0:0:0:
36,192,10192,128,0,10427:0:0:0:0:
256,192,10192,1,0,0:0:0:0:
329,192,10427,128,0,10505:0:0:0:0:
475,192,10427,128,0,10661:0:0:0:0:
182,192,10427,1,0,0:0:0:0:
402,192,10661,128,0,10895:0:0:0:0:
256,192,10661,128,0,10739:0:0:0:0:
109,192,10661,1,0,0:0:0:0:
329,192,10895,128,0,11130:0:0:0:0:
182,192,10895,128,0,10974:0:0:0:0:
36,192,10895,1,0,0:0:0:0:
256,192,11130,128,0,11599:0:0:0:0:
475,192,11130,128,0,11208:0:0:0:0:
109,192,11130,1,0,0:0:0:0:
182,192,11364,1,0,0:0:0:0:
402,192,11364,128,0,11442:0:0:0:0:
36,192,11599,128,0,12067:0:0:0:0:
329,192,11599,128,0,11716:0:0:0:0:
109,192,11599,1,0,0:0:0:0:
109,192,11833,128,0,12302:0:0:0:0:
402,192,11833,128,0,11950:0:0:0:0:
182,192,11833,1,0,0:0:0:0:
182,192,12067,128,0,12536:0:0:0:0:
475,192,12067,128,0,12184:0:0:0:0:
256,192,12067,1,0,0:0:0:0:
256,192,12302,128,0,12770:0:0:0:0:
36,192,12302,128,0,12419:0:0:0:0:
329,192,12302,1,0,0:0:0:0:
329,192,12536,128,0,13005:0:0:0:0:
402,192,12536,1,0,0:0:0:0:
109,192,12536,128,0,12653:0:0:0:0:
402,192,12770,128,0,13239:0:0:0:0:
475,192,12770,1,0,0:0:0:0:
182,192,12770,128,0,12888:0:0:0:0:
36,192,12770,1,0,0:0:0:0:
475,192,13005,128,0,13474:0:0:0:0:
256,192,13005,128,0,13122:0:0:0:0:
109,192,13005,1,0,0:0:0:0:
329,192,13239,128,0,13356:0:0:0:0:
182,192,13239,1,0,0:0:0:0:
402,192,13474,128,0,13552:0:0:0:0:
182,192,13474,128,0,13942:0:0:0:0:
36,192,13474,1,0,0:0:0:0:
256,192,13474,1,0,0:0:0:0:
329,192,13708,128,0,13786:0:0:0:0:
109,192,13708,128,0,14177:0:0:0:0:
475,192,13708,1,0,0:0:0:0:
256,192,13942,128,0,14020:0:0:0:0:
36,192,13942,128,0,14411:0:0:0:0:
402,192,13942,1,0,0:0:0:0:
475,192,14177,128,0,14645:0:0:0:0:
182,192,14177,128,0,14255:0:0:0:0:
329,192,14177,1,0,0:0:0:0:
402,192,14411,128,0,14880:0:0:0:0:
109,192,14411,128,0,14489:0:0:0:0:
256,192,14411,1,0,0:0:0:0:
329,192,14645,128,0,15114:0:0:0:0:
36,192,14645,128,0,14724:0:0:0:0:
182,192,14645,1,0,0:0:0:0:
475,192,14880,128,0,14958:0:0:0:0:
109,192,14880,1,0,0:0:0:0:
256,192,14880,128,0,15349:0:0:0:0:
402,192,15114,128,0,15192:0:0:0:0:
36,192,15114,1,0,0:0:0:0:
182,192,15231,1,0,0:0:0:0:
109,192,15349,128,0,15700:0:0:0:0:
329,192,15349,1,0,0:0:0:0:
475,192,15349,1,0,0:0:0:0:
36,192,15349,128,0,15700:0:0:0:0:
256,192,15583,128,0,15934:0:0:0:0:
402,192,15583,1,0,0:0:0:0:
182,192,15583,128,0,15934:0:0:0:0:
36,192,15817,1,0,0:0:0:0:
475,192,15817,1,0,0:0:0:0:
402,192,15817,128,0,16169:0:0:0:0:
329,192,15817,128,0,16169:0:0:0:0:
109,192,15817,1,0,0:0:0:0:
36,192,16052,128,0,16403:0:0:0:0:
182,192,16052,1,0,0:0:0:0:
475,192,16052,128,0,16169:0:0:0:0:
109,192,16052,128,0,16403:0:0:0:0:
256,192,16052,1,0,0:0:0:0:
329,192,16286,1,0,0:0:0:0:
182,192,16286,128,0,16638:0:0:0:0:
256,192,16286,128,0,16638:0:0:0:0:
402,192,16286,1,0,0:0:0:0:
475,192,16286,1,0,0:0:0:0:
329,192,16520,128,0,16755:0:0:0:0:
402,192,16520,128,0,16755:0:0:0:0:
36,192,16520,1,0,0:0:0:0:
109,192,16520,1,0,0:0:0:0:
475,192,16520,1,0,0:0:0:0:
109,192,16755,1,0,0:0:0:0:
475,192,16755,128,0,17224:0:0:0:0:
36,192,16755,128,0,16872:0:0:0:0:
182,192,16755,1,0,0:0:0:0:
256,192,16755,1,0,0:0:0:0:
256,192,16989,1,0,0:0:0:0:
182,192,16989,128,0,17106:0:0:0:0:
109,192,17224,1,0,0:0:0:0:
36,192,17224,1,0,0:0:0:0:
402,192,17224,128,0,17458:0:0:0:0:
329,192,17224,128,0,17302:0:0:0:0:
256,192,17458,128,0,17692:0:0:0:0:
329,192,17458,1,0,0:0:0:0:
182,192,17458,128,0,17536:0:0:0:0:
475,192,17692,1,0,0:0:0:0:
182,192,17692,1,0,0:0:0:0:
109,192,17692,128,0,17927:0:0:0:0:
36,192,17692,128,0,17770:0:0:0:0:
475,192,17927,128,0,18161:0:0:0:0:
36,192,17927,1,0,0:0:0:0:
402,192,17927,128,0,18005:0:0:0:0:
182,192,18161,1,0,0:0:0:0:
402,192,18161,1,0,0:0:0:0:
329,192,18161,128,0,18395:0:0:0:0:
256,192,18161,128,0,18239:0:0:0:0:
182,192,18395,128,0,18630:0:0:0:0:
256,192,18395,1,0,0:0:0:0:
109,192,18395,128,0,18474:0:0:0:0:
402,192,18630,1,0,0:0:0:0:
109,192,18630,1,0,0:0:0:0:
36,192,18630,128,0,18864:0:0:0:0:
475,192,18630,128,0,18708:0:0:0:0:
256,192,18864,1,0,0:0:0:0:
329,192,18864,128,0,18942:0:0:0:0:
475,192,19099,1,0,0:0:0:0:
109,192,19099,1,0,0:0:0:0:
402,192,19099,128,0,19567:0:0:0:0:
182,192,19099,128,0,19216:0:0:0:0:
329,192,19333,1,0,0:0:0:0:
256,192,19333,128,0,19802:0:0:0:0:
36,192,19333,128,0,19450:0:0:0:0:
36,192,19567,1,0,0:0:0:0:
109,192,19567,128,0,20036:0:0:0:0:
475,192,19567,1,0,0:0:0:0:
182,192,19567,128,0,19684:0:0:0:0:
329,192,19802,1,0,0:0:0:0:
475,192,19802,128,0,20270:0:0:0:0:
402,192,19802,128,0,19919:0:0:0:0:
402,192,20036,1,0,0:0:0:0:
329,192,20036,128,0,20505:0:0:0:0:
36,192,20036,1,0,0:0:0:0:
256,192,20036,128,0,20153:0:0:0:0:
182,192,20270,128,0,20739:0:0:0:0:
256,192,20270,1,0,0:0:0:0:
109,192,20270,128,0,20388:0:0:0:0:
109,192,20505,1,0,0:0:0:0:
36,192,20505,128,0,20974:0:0:0:0:
402,192,20505,1,0,0:0:0:0:
475,192,20505,128,0,20622:0:0:0:0:
256,192,20739,1,0,0:0:0:0:
329,192,20739,128,0,20856:0:0:0:0:
475,192,20974,1,0,0:0:0:0:
109,192,20974,1,0,0:0:0:0:
182,192,20974,128,0,21052:0:0:0:0:
402,192,20974,1,0,0:0:0:0:
329,192,20974,128,0,21052:0:0:0:0:
36,192,21208,128,0,21286:0:0:0:0:
182,192,21208,128,0,21286:0:0:0:0:
182,192,21442,128,0,21520:0:0:0:0:
329,192,21442,128,0,21520:0:0:0:0:
36,192,21677,128,0,21755:0:0:0:0:
182,192,21677,128,0,21755:0:0:0:0:
182,192,21911,128,0,21989:0:0:0:0:
329,192,21911,128,0,21989:0:0:0:0:
36,192,22380,128,0,22731:0:0:0:0:
109,192,22380,128,0,22497:0:0:0:0:
475,192,22380,128,0,22731:0:0:0:0:
402,192,22380,128,0,22497:0:0:0:0:
109,192,22614,128,0,22731:0:0:0:0:
182,192,22614,128,0,22731:0:0:0:0:
329,192,22614,128,0,22731:0:0:0:0:
402,192,22614,128,0,22731:0:0:0:0:
256,192,22849,1,0,0:0:0:0:
329,192,22849,1,0,0:0:0:0:
182,192,22849,128,0,22966:0:0:0:0:
36,192,22849,128,0,23083:0:0:0:0:
475,192,22849,128,0,23200:0:0:0:0:
402,192,23083,128,0,23200:0:0:0:0:
109,192,23083,128,0,23200:0:0:0:0:
182,192,23200,128,0,23317:0:0:0:0:
36,192,23317,128,0,23434:0:0:0:0:
475,192,23317,1,0,0:0:0:0:
329,192,23317,1,0,0:0:0:0:
256,192,23317,128,0,23669:0:0:0:0:
182,192,23552,1,0,0:0:0:0:
402,192,23552,128,0,23669:0:0:0:0:
329,192,23669,1,0,0:0:0:0:
256,192,23786,128,0,23903:0:0:0:0:
36,192,23786,128,0,24020:0:0:0:0:
109,192,23786,128,0,24020:0:0:0:0:
475,192,23903,128,0,24020:0:0:0:0:
402,192,24020,128,0,24138:0:0:0:0:
182,192,24020,128,0,24138:0:0:0:0:
109,192,24138,128,0,24255:0:0:0:0:
256,192,24138,128,0,24255:0:0:0:0:
329,192,24255,128,0,24372:0:0:0:0:
402,192,24255,128,0,24372:0:0:0:0:
475,192,24255,128,0,24606:0:0:0:0:
36,192,24255,128,0,24372:0:0:0:0:
182,192,24489,128,0,24606:0:0:0:0:
256,192,24489,128,0,24606:0:0:0:0:
329,192,24606,128,0,24724:0:0:0:0:
109,192,24724,1,0,0:0:0:0:
36,192,24724,1,0,0:0:0:0:
402,192,24724,128,0,25778:0:0:0:0:
475,192,24724,1,0,0:0:0:0:
182,192,24958,128,0,25778:0:0:0:0:
256,192,24958,1,0,0:0:0:0:
329,192,25192,128,0,25778:0:0:0:0:
109,192,25192,1,0,0:0:0:0:
475,192,25192,1,0,0:0:0:0:
36,192,25427,128,0,25778:0:0:0:0:
256,192,25427,1,0,0:0:0:0:
256,192,25661,128,0,25778:0:0:0:0:
109,192,25661,128,0,25778:0:0:0:0:
475,192,25661,128,0,25778:0:0:0:0:
109,192,26130,128,0,26247:0:0:0:0:
402,192,26130,128,0,26247:0:0:0:0:
329,192,26130,128,0,26481:0:0:0:0:
36,192,26130,128,0,26481:0:0:0:0:
109,192,26364,128,0,26481:0:0:0:0:
182,192,26364,128,0,26481:0:0:0:0:
402,192,26364,128,0,26481:0:0:0:0:
475,192,26364,128,0,26481:0:0:0:0:
36,192,26599,1,0,0:0:0:0:
182,192,26599,1,0,0:0:0:0:
329,192,26599,128,0,26833:0:0:0:0:
256,192,26599,128,0,26833:0:0:0:0:
475,192,26599,128,0,26833:0:0:0:0:
109,192,26833,128,0,26950:0:0:0:0:
402,192,26833,128,0,26950:0:0:0:0:
329,192,26950,128,0,27067:0:0:0:0:
256,192,27067,128,0,27184:0:0:0:0:
475,192,27067,128,0,27184:0:0:0:0:
182,192,27067,128,0,27184:0:0:0:0:
36,192,27067,128,0,27302:0:0:0:0:
109,192,27302,128,0,27419:0:0:0:0:
329,192,27302,128,0,27536:0:0:0:0:
182,192,27419,128,0,27536:0:0:0:0:
256,192,27536,128,0,27653:0:0:0:0:
402,192,27536,128,0,27770:0:0:0:0:
475,192,27536,128,0,27770:0:0:0:0:
36,192,27653,128,0,27888:0:0:0:0:
109,192,27770,128,0,27888:0:0:0:0:
329,192,27770,128,0,27888:0:0:0:0:
402,192,27888,128,0,28005:0:0:0:0:
256,192,27888,128,0,28005:0:0:0:0:
182,192,28005,128,0,28122:0:0:0:0:
36,192,28005,128,0,28356:0:0:0:0:
109,192,28005,128,0,28356:0:0:0:0:
475,192,28005,128,0,28356:0:0:0:0:
329,192,28239,128,0,28356:0:0:0:0:
182,192,28239,128,0,28356:0:0:0:0:
402,192,28474,1,0,0:0:0:0:
36,192,28474,1,0,0:0:0:0:
475,192,28474,1,0,0:0:0:0:
109,192,28474,128,0,29528:0:0:0:0:
329,192,28708,128,0,29528:0:0:0:0:
256,192,28708,1,0,0:0:0:0:
182,192,28942,128,0,29528:0:0:0:0:
402,192,28942,1,0,0:0:0:0:
36,192,28942,1,0,0:0:0:0:
475,192,29177,128,0,29528:0:0:0:0:
256,192,29177,1,0,0:0:0:0:
256,192,29411,128,0,29528:0:0:0:0:
402,192,29411,128,0,29528:0:0:0:0:
36,192,29411,128,0,29528:0:0:0:0:
182,192,29880,128,0,30231:0:0:0:0:
475,192,29880,128,0,30231:0:0:0:0:
402,192,29880,128,0,29997:0:0:0:0:
109,192,29880,128,0,29997:0:0:0:0:
109,192,30114,128,0,30231:0:0:0:0:
36,192,30114,128,0,30231:0:0:0:0:
329,192,30114,128,0,30231:0:0:0:0:
402,192,30114,128,0,30231:0:0:0:0:
182,192,30349,128,0,30583:0:0:0:0:
475,192,30349,128,0,30583:0:0:0:0:
329,192,30349,128,0,30583:0:0:0:0:
36,192,30349,128,0,30583:0:0:0:0:
256,192,30349,128,0,30583:0:0:0:0:
402,192,30583,128,0,30817:0:0:0:0:
109,192,30583,128,0,30700:0:0:0:0:
182,192,30700,128,0,30817:0:0:0:0:
256,192,30817,128,0,30934:0:0:0:0:
36,192,30817,128,0,30934:0:0:0:0:
329,192,30817,128,0,31052:0:0:0:0:
475,192,30817,128,0,31052:0:0:0:0:
182,192,31052,128,0,31286:0:0:0:0:
402,192,31052,128,0,31169:0:0:0:0:
329,192,31169,128,0,31286:0:0:0:0:
256,192,31286,128,0,31403:0:0:0:0:
109,192,31286,128,0,31520:0:0:0:0:
36,192,31286,128,0,31520:0:0:0:0:
475,192,31403,128,0,31638:0:0:0:0:
402,192,31520,128,0,31638:0:0:0:0:
182,192,31520,128,0,31638:0:0:0:0:
109,192,31638,128,0,31755:0:0:0:0:
256,192,31638,128,0,31755:0:0:0:0:
329,192,31755,128,0,31872:0:0:0:0:
402,192,31755,128,0,32106:0:0:0:0:
475,192,31755,128,0,32106:0:0:0:0:
36,192,31755,128,0,31872:0:0:0:0:
182,192,31989,128,0,32106:0:0:0:0:
256,192,31989,128,0,32106:0:0:0:0:
329,192,32106,128,0,32224:0:0:0:0:
36,192,32224,1,0,0:0:0:0:
109,192,32224,1,0,0:0:0:0:
475,192,32224,1,0,0:0:0:0:
402,192,32224,128,0,33278:0:0:0:0:
182,192,32458,128,0,33278:0:0:0:0:
256,192,32458,1,0,0:0:0:0:
36,192,32692,128,0,33278:0:0:0:0:
475,192,32692,1,0,0:0:0:0:
109,192,32692,1,0,0:0:0:0:
329,192,32927,128,0,33278:0:0:0:0:
256,192,32927,1,0,0:0:0:0:
256,192,33161,128,0,33278:0:0:0:0:
109,192,33161,128,0,33278:0:0:0:0:
475,192,33161,128,0,33278:0:0:0:0:
36,192,33630,128,0,33981:0:0:0:0:
109,192,33630,128,0,33747:0:0:0:0:
329,192,33630,128,0,33981:0:0:0:0:
402,192,33630,128,0,33747:0:0:0:0:
109,192,33864,128,0,33981:0:0:0:0:
182,192,33864,128,0,33981:0:0:0:0:
402,192,33864,128,0,33981:0:0:0:0:
475,192,33864,128,0,33981:0:0:0:0:
256,192,34099,1,0,0:0:0:0:
329,192,34099,128,0,34216:0:0:0:0:
475,192,34099,128,0,34333:0:0:0:0:
36,192,34099,128,0,34333:0:0:0:0:
182,192,34099,128,0,34216:0:0:0:0:
109,192,34333,128,0,34450:0:0:0:0:
329,192,34333,128,0,34450:0:0:0:0:
256,192,34450,128,0,34567:0:0:0:0:
182,192,34567,128,0,34684:0:0:0:0:
475,192,34567,128,0,34802:0:0:0:0:
402,192,34567,128,0,34802:0:0:0:0:
36,192,34567,128,0,34802:0:0:0:0:
109,192,34802,128,0,34919:0:0:0:0:
329,192,34802,128,0,35036:0:0:0:0:
182,192,34919,128,0,35036:0:0:0:0:
256,192,35036,128,0,35153:0:0:0:0:
402,192,35036,128,0,35270:0:0:0:0:
475,192,35036,128,0,35270:0:0:0:0:
36,192,35153,128,0,35388:0:0:0:0:
109,192,35270,128,0,35388:0:0:0:0:
329,192,35270,128,0,35388:0:0:0:0:
475,192,35388,128,0,35505:0:0:0:0:
256,192,35388,128,0,35505:0:0:0:0:
36,192,35505,128,0,35856:0:0:0:0:
109,192,35505,128,0,35622:0:0:0:0:
329,192,35505,128,0,35856:0:0:0:0:
402,192,35505,128,0,35622:0:0:0:0:
109,192,35739,128,0,35856:0:0:0:0:
182,192,35739,128,0,35856:0:0:0:0:
402,192,35739,128,0,35856:0:0:0:0:
475,192,35739,128,0,35856:0:0:0:0:
256,192,35974,128,0,36091:0:0:0:0:
36,192,35974,128,0,36091:0:0:0:0:
475,192,35974,128,0,36091:0:0:0:0:
256,192,36208,128,0,36325:0:0:0:0:
256,192,36442,128,0,36559:0:0:0:0:
36,192,36442,128,0,36559:0:0:0:0:
475,192,36442,128,0,36559:0:0:0:0:
182,192,36677,128,0,36794:0:0:0:0:
329,192,36794,128,0,36911:0:0:0:0:
36,192,36911,128,0,37028:0:0:0:0:
256,192,36911,128,0,37028:0:0:0:0:
475,192,36911,128,0,37028:0:0:0:0:
182,192,37145,128,0,37263:0:0:0:0:
256,192,37263,128,0,37380:0:0:0:0:
329,192,37380,1,0,0:0:0:0:
402,192,37380,1,0,0:0:0:0:
182,192,37380,1,0,0:0:0:0:
109,192,37380,1,0,0:0:0:0:
329,192,37614,1,0,0:0:0:0:
182,192,37731,1,0,0:0:0:0:
36,192,37731,1,0,0:0:0:0:
256,192,37849,128,0,38200:0:0:0:0:
329,192,37849,128,0,38200:0:0:0:0:
402,192,37849,128,0,38200:0:0:0:0:
475,192,37849,128,0,38786:0:0:0:0:
109,192,38083,128,0,38434:0:0:0:0:
36,192,38083,128,0,38434:0:0:0:0:
256,192,38317,128,0,38552:0:0:0:0:
329,192,38317,128,0,38552:0:0:0:0:
109,192,38552,128,0,38786:0:0:0:0:
36,192,38552,128,0,38786:0:0:0:0:
256,192,38669,128,0,38786:0:0:0:0:
182,192,38669,128,0,38786:0:0:0:0:
329,192,38786,128,0,38903:0:0:0:0:
402,192,38786,128,0,38903:0:0:0:0:
475,192,38903,128,0,39020:0:0:0:0:
256,192,38903,128,0,39020:0:0:0:0:
256,192,39138,128,0,39255:0:0:0:0:
475,192,39138,128,0,39255:0:0:0:0:
36,192,39255,128,0,40075:0:0:0:0:
109,192,39255,128,0,40075:0:0:0:0:
182,192,39255,128,0,39606:0:0:0:0:
329,192,39255,128,0,39489:0:0:0:0:
402,192,39489,128,0,39724:0:0:0:0:
329,192,39606,128,0,39841:0:0:0:0:
256,192,39724,128,0,39958:0:0:0:0:
182,192,39724,128,0,40075:0:0:0:0:
402,192,39958,128,0,40075:0:0:0:0:
475,192,39958,128,0,40075:0:0:0:0:
329,192,39958,128,0,40075:0:0:0:0:
36,192,40192,128,0,40544:0:0:0:0:
109,192,40192,128,0,40544:0:0:0:0:
182,192,40192,128,0,40544:0:0:0:0:
475,192,40192,128,0,41013:0:0:0:0:
329,192,40192,128,0,40427:0:0:0:0:
402,192,40427,128,0,41013:0:0:0:0:
329,192,40544,128,0,41013:0:0:0:0:
256,192,40661,128,0,40895:0:0:0:0:
36,192,40661,128,0,40778:0:0:0:0:
109,192,40778,128,0,40895:0:0:0:0:
182,192,40895,128,0,41013:0:0:0:0:
256,192,41013,128,0,41130:0:0:0:0:
402,192,41130,1,0,0:0:0:0:
329,192,41130,128,0,41364:0:0:0:0:
475,192,41130,128,0,41364:0:0:0:0:
109,192,41130,128,0,41247:0:0:0:0:
36,192,41130,128,0,41247:0:0:0:0:
256,192,41247,128,0,41364:0:0:0:0:
182,192,41364,128,0,41481:0:0:0:0:
36,192,41364,128,0,41481:0:0:0:0:
329,192,41481,128,0,41599:0:0:0:0:
475,192,41481,128,0,41599:0:0:0:0:
36,192,41599,128,0,41950:0:0:0:0:
109,192,41599,128,0,41950:0:0:0:0:
182,192,41599,128,0,41950:0:0:0:0:
256,192,41599,128,0,42184:0:0:0:0:
402,192,41833,128,0,42184:0:0:0:0:
475,192,41833,128,0,42184:0:0:0:0:
109,192,42067,128,0,42302:0:0:0:0:
182,192,42067,128,0,42302:0:0:0:0:
402,192,42302,128,0,42536:0:0:0:0:
329,192,42302,128,0,42536:0:0:0:0:
182,192,42419,128,0,42536:0:0:0:0:
109,192,42419,128,0,42536:0:0:0:0:
36,192,42536,128,0,42653:0:0:0:0:
475,192,42536,128,0,42653:0:0:0:0:
109,192,42653,128,0,42770:0:0:0:0:
329,192,42653,128,0,42770:0:0:0:0:
109,192,42888,128,0,43005:0:0:0:0:
329,192,42888,128,0,43005:0:0:0:0:
402,192,43005,128,0,43474:0:0:0:0:
475,192,43005,128,0,43474:0:0:0:0:
36,192,43005,128,0,43474:0:0:0:0:
109,192,43239,128,0,43474:0:0:0:0:
182,192,43356,128,0,43474:0:0:0:0:
256,192,43474,128,0,43591:0:0:0:0:
329,192,43474,128,0,43591:0:0:0:0:
109,192,43708,128,0,43825:0:0:0:0:
36,192,43708,128,0,43825:0:0:0:0:
329,192,43942,128,0,44528:0:0:0:0:
402,192,43942,128,0,44411:0:0:0:0:
475,192,43942,128,0,44294:0:0:0:0:
109,192,44177,128,0,44763:0:0:0:0:
182,192,44294,128,0,44763:0:0:0:0:
256,192,44411,128,0,44645:0:0:0:0:
475,192,44411,128,0,44997:0:0:0:0:
402,192,44528,128,0,44763:0:0:0:0:
329,192,44645,128,0,44997:0:0:0:0:
256,192,44763,128,0,44880:0:0:0:0:
109,192,44880,1,0,0:0:0:0:
402,192,44880,128,0,44997:0:0:0:0:
36,192,44880,128,0,45114:0:0:0:0:
182,192,44880,128,0,45114:0:0:0:0:
256,192,44997,128,0,45114:0:0:0:0:
329,192,45114,128,0,45231:0:0:0:0:
475,192,45114,128,0,45231:0:0:0:0:
182,192,45231,128,0,45349:0:0:0:0:
36,192,45231,128,0,45349:0:0:0:0:
256,192,45349,128,0,45700:0:0:0:0:
329,192,45349,128,0,45700:0:0:0:0:
402,192,45349,128,0,45700:0:0:0:0:
475,192,45349,128,0,46638:0:0:0:0:
109,192,45583,128,0,45817:0:0:0:0:
36,192,45583,128,0,45817:0:0:0:0:
256,192,45817,128,0,46052:0:0:0:0:
329,192,45817,128,0,46052:0:0:0:0:
402,192,45817,128,0,46052:0:0:0:0:
109,192,46052,128,0,46169:0:0:0:0:
182,192,46052,128,0,46169:0:0:0:0:
256,192,46169,128,0,46286:0:0:0:0:
329,192,46169,128,0,46286:0:0:0:0:
109,192,46286,128,0,46403:0:0:0:0:
36,192,46286,128,0,46403:0:0:0:0:
182,192,46403,128,0,46520:0:0:0:0:
402,192,46403,128,0,46520:0:0:0:0:
182,192,46638,128,0,46755:0:0:0:0:
402,192,46638,128,0,46755:0:0:0:0:
36,192,46755,128,0,46989:0:0:0:0:
109,192,46755,128,0,46989:0:0:0:0:
475,192,46755,128,0,46872:0:0:0:0:
329,192,46755,128,0,46872:0:0:0:0:
182,192,46989,128,0,47341:0:0:0:0:
256,192,47106,128,0,47341:0:0:0:0:
402,192,47224,128,0,47809:0:0:0:0:
329,192,47224,128,0,47809:0:0:0:0:
256,192,47458,128,0,47575:0:0:0:0:
182,192,47458,128,0,47575:0:0:0:0:
36,192,47692,128,0,48044:0:0:0:0:
109,192,47692,128,0,48044:0:0:0:0:
182,192,47692,128,0,48044:0:0:0:0:
402,192,47927,128,0,48044:0:0:0:0:
256,192,48044,128,0,48161:0:0:0:0:
36,192,48161,128,0,48513:0:0:0:0:
402,192,48161,128,0,48278:0:0:0:0:
109,192,48161,128,0,48278:0:0:0:0:
256,192,48278,128,0,48395:0:0:0:0:
109,192,48395,128,0,48513:0:0:0:0:
256,192,48513,128,0,48630:0:0:0:0:
182,192,48630,128,0,48747:0:0:0:0:
329,192,48630,128,0,48747:0:0:0:0:
36,192,48630,128,0,49099:0:0:0:0:
475,192,48630,128,0,49099:0:0:0:0:
256,192,48747,128,0,48864:0:0:0:0:
109,192,48864,128,0,48981:0:0:0:0:
402,192,48864,128,0,48981:0:0:0:0:
182,192,48981,128,0,49099:0:0:0:0:
329,192,48981,128,0,49099:0:0:0:0:
256,192,49099,128,0,49333:0:0:0:0:
402,192,49099,128,0,49333:0:0:0:0:
109,192,49099,128,0,49333:0:0:0:0:
475,192,49333,128,0,49684:0:0:0:0:
329,192,49333,128,0,49684:0:0:0:0:
182,192,49333,128,0,49450:0:0:0:0:
36,192,49333,128,0,49450:0:0:0:0:
36,192,49567,128,0,49802:0:0:0:0:
109,192,49567,128,0,49802:0:0:0:0:
182,192,49567,128,0,49802:0:0:0:0:
402,192,49802,128,0,50388:0:0:0:0:
475,192,49802,128,0,50388:0:0:0:0:
256,192,49919,128,0,50036:0:0:0:0:
329,192,49919,128,0,50036:0:0:0:0:
36,192,50036,128,0,50153:0:0:0:0:
109,192,50153,128,0,50270:0:0:0:0:
256,192,50153,128,0,50270:0:0:0:0:
329,192,50153,128,0,50270:0:0:0:0:
182,192,50270,128,0,50388:0:0:0:0:
256,192,50388,128,0,50505:0:0:0:0:
329,192,50505,128,0,50622:0:0:0:0:
475,192,50505,128,0,50974:0:0:0:0:
402,192,50505,128,0,50622:0:0:0:0:
36,192,50505,128,0,50739:0:0:0:0:
109,192,50739,128,0,50856:0:0:0:0:
182,192,50856,128,0,50974:0:0:0:0:
256,192,50974,128,0,51677:0:0:0:0:
329,192,50974,128,0,51208:0:0:0:0:
402,192,50974,128,0,51208:0:0:0:0:
36,192,51208,128,0,51559:0:0:0:0:
109,192,51208,128,0,51559:0:0:0:0:
329,192,51442,128,0,51677:0:0:0:0:
402,192,51442,128,0,51677:0:0:0:0:
475,192,51442,128,0,51677:0:0:0:0:
109,192,51677,128,0,51911:0:0:0:0:
182,192,51677,128,0,51911:0:0:0:0:
256,192,51794,128,0,52028:0:0:0:0:
329,192,51794,128,0,52028:0:0:0:0:
402,192,52145,128,0,52263:0:0:0:0:
329,192,52145,128,0,52263:0:0:0:0:
182,192,52145,128,0,52380:0:0:0:0:
109,192,52263,128,0,52380:0:0:0:0:
36,192,52263,128,0,52380:0:0:0:0:
402,192,52380,128,0,52497:0:0:0:0:
475,192,52380,128,0,52497:0:0:0:0:
256,192,52380,128,0,52614:0:0:0:0:
109,192,52497,128,0,52614:0:0:0:0:
182,192,52497,128,0,52614:0:0:0:0:
402,192,52614,128,0,52731:0:0:0:0:
329,192,52614,128,0,52731:0:0:0:0:
182,192,52731,128,0,52849:0:0:0:0:
256,192,52731,128,0,52849:0:0:0:0:
36,192,52849,128,0,53083:0:0:0:0:
475,192,52849,128,0,53200:0:0:0:0:
402,192,52849,128,0,52966:0:0:0:0:
329,192,52849,128,0,52966:0:0:0:0:
109,192,52849,1,0,0:0:0:0:
402,192,53083,128,0,53200:0:0:0:0:
109,192,53083,128,0,53200:0:0:0:0:
182,192,53200,128,0,53317:0:0:0:0:
256,192,53317,128,0,53434:0:0:0:0:
36,192,53317,128,0,53669:0:0:0:0:
329,192,53317,128,0,53552:0:0:0:0:
475,192,53317,128,0,53552:0:0:0:0:
182,192,53552,128,0,53669:0:0:0:0:
402,192,53552,128,0,53786:0:0:0:0:
329,192,53669,128,0,53903:0:0:0:0:
256,192,53786,128,0,54020:0:0:0:0:
109,192,53786,128,0,54020:0:0:0:0:
36,192,53786,128,0,54020:0:0:0:0:
475,192,53903,128,0,54020:0:0:0:0:
402,192,54020,128,0,54138:0:0:0:0:
182,192,54020,128,0,54138:0:0:0:0:
109,192,54138,128,0,54255:0:0:0:0:
256,192,54138,128,0,54255:0:0:0:0:
329,192,54255,128,0,54372:0:0:0:0:
475,192,54255,128,0,54606:0:0:0:0:
402,192,54255,128,0,54606:0:0:0:0:
36,192,54255,128,0,54372:0:0:0:0:
109,192,54489,128,0,54606:0:0:0:0:
256,192,54489,128,0,54724:0:0:0:0:
329,192,54606,128,0,54841:0:0:0:0:
402,192,54724,128,0,54958:0:0:0:0:
475,192,54724,128,0,55075:0:0:0:0:
182,192,54724,128,0,54841:0:0:0:0:
36,192,54724,128,0,54841:0:0:0:0:
109,192,54958,128,0,55075:0:0:0:0:
329,192,54958,128,0,55075:0:0:0:0:
256,192,55075,128,0,55192:0:0:0:0:
182,192,55192,128,0,55309:0:0:0:0:
36,192,55192,128,0,55309:0:0:0:0:
402,192,55192,128,0,55544:0:0:0:0:
475,192,55192,128,0,55544:0:0:0:0:
329,192,55427,128,0,55544:0:0:0:0:
109,192,55427,128,0,55544:0:0:0:0:
182,192,55544,128,0,55661:0:0:0:0:
402,192,55661,128,0,55778:0:0:0:0:
475,192,55661,128,0,56013:0:0:0:0:
256,192,55661,128,0,55778:0:0:0:0:
36,192,55778,128,0,56013:0:0:0:0:
109,192,55895,128,0,56013:0:0:0:0:
329,192,55895,128,0,56013:0:0:0:0:
402,192,56013,128,0,56130:0:0:0:0:
256,192,56013,128,0,56130:0:0:0:0:
182,192,56130,128,0,56247:0:0:0:0:
475,192,56130,128,0,56481:0:0:0:0:
109,192,56130,128,0,56481:0:0:0:0:
36,192,56130,128,0,56481:0:0:0:0:
329,192,56364,128,0,56481:0:0:0:0:
256,192,56364,128,0,56481:0:0:0:0:
182,192,56481,128,0,56599:0:0:0:0:
256,192,56599,128,0,56716:0:0:0:0:
402,192,56599,128,0,56716:0:0:0:0:
475,192,56599,128,0,56716:0:0:0:0:
109,192,56599,128,0,56716:0:0:0:0:
36,192,56599,128,0,56716:0:0:0:0:
329,192,56833,128,0,56950:0:0:0:0:
182,192,56833,128,0,56950:0:0:0:0:
256,192,56950,128,0,57067:0:0:0:0:
402,192,57067,128,0,57184:0:0:0:0:
475,192,57067,128,0,57419:0:0:0:0:
36,192,57067,128,0,57419:0:0:0:0:
109,192,57067,128,0,57184:0:0:0:0:
402,192,57302,128,0,57419:0:0:0:0:
182,192,57302,128,0,57419:0:0:0:0:
329,192,57419,128,0,57536:0:0:0:0:
256,192,57536,128,0,57653:0:0:0:0:
109,192,57536,128,0,57653:0:0:0:0:
36,192,57536,128,0,57653:0:0:0:0:
402,192,57536,128,0,57653:0:0:0:0:
475,192,57653,128,0,57888:0:0:0:0:
329,192,57770,128,0,57888:0:0:0:0:
182,192,57770,128,0,57888:0:0:0:0:
109,192,57888,128,0,58005:0:0:0:0:
256,192,57888,128,0,58005:0:0:0:0:
329,192,58005,128,0,58122:0:0:0:0:
402,192,58005,128,0,58356:0:0:0:0:
475,192,58005,128,0,58356:0:0:0:0:
36,192,58005,128,0,58356:0:0:0:0:
256,192,58239,128,0,58356:0:0:0:0:
109,192,58239,128,0,58356:0:0:0:0:
329,192,58356,128,0,58474:0:0:0:0:
402,192,58474,128,0,58825:0:0:0:0:
109,192,58474,128,0,58825:0:0:0:0:
182,192,58474,128,0,58591:0:0:0:0:
329,192,58708,128,0,58825:0:0:0:0:
256,192,58708,128,0,58825:0:0:0:0:
182,192,58825,128,0,58942:0:0:0:0:
109,192,58942,128,0,59059:0:0:0:0:
36,192,58942,128,0,59294:0:0:0:0:
402,192,58942,128,0,59059:0:0:0:0:
475,192,58942,128,0,59294:0:0:0:0:
182,192,59177,128,0,59294:0:0:0:0:
402,192,59177,128,0,59294:0:0:0:0:
329,192,59294,128,0,59411:0:0:0:0:
256,192,59411,128,0,59528:0:0:0:0:
109,192,59411,128,0,59645:0:0:0:0:
36,192,59411,128,0,59645:0:0:0:0:
475,192,59528,128,0,59763:0:0:0:0:
402,192,59645,128,0,59763:0:0:0:0:
182,192,59645,128,0,59763:0:0:0:0:
109,192,59763,128,0,59880:0:0:0:0:
256,192,59763,128,0,59880:0:0:0:0:
329,192,59880,128,0,59997:0:0:0:0:
475,192,59880,128,0,60231:0:0:0:0:
402,192,59880,128,0,59997:0:0:0:0:
36,192,59880,128,0,60231:0:0:0:0:
182,192,59997,128,0,60114:0:0:0:0:
329,192,60114,128,0,60231:0:0:0:0:
182,192,60231,128,0,60349:0:0:0:0:
109,192,60349,128,0,60466:0:0:0:0:
256,192,60349,128,0,60700:0:0:0:0:
475,192,60349,128,0,60466:0:0:0:0:
36,192,60349,128,0,60700:0:0:0:0:
402,192,60349,128,0,60466:0:0:0:0:
329,192,60583,128,0,60817:0:0:0:0:
402,192,60700,128,0,60934:0:0:0:0:
36,192,60817,128,0,60934:0:0:0:0:
475,192,60817,128,0,61169:0:0:0:0:
182,192,60817,128,0,60934:0:0:0:0:
256,192,60817,128,0,61052:0:0:0:0:
109,192,60817,128,0,60934:0:0:0:0:
402,192,61052,128,0,61286:0:0:0:0:
182,192,61052,128,0,61286:0:0:0:0:
329,192,61169,128,0,61403:0:0:0:0:
256,192,61286,128,0,61520:0:0:0:0:
36,192,61286,128,0,61520:0:0:0:0:
109,192,61286,128,0,61520:0:0:0:0:
475,192,61403,128,0,61638:0:0:0:0:
402,192,61520,128,0,61638:0:0:0:0:
182,192,61520,128,0,61638:0:0:0:0:
109,192,61638,128,0,61755:0:0:0:0:
256,192,61638,128,0,61755:0:0:0:0:
329,192,61755,128,0,61872:0:0:0:0:
402,192,61755,128,0,62106:0:0:0:0:
475,192,61755,128,0,62106:0:0:0:0:
36,192,61755,128,0,62106:0:0:0:0:
109,192,61989,128,0,62106:0:0:0:0:
182,192,61989,128,0,62106:0:0:0:0:
256,192,62106,128,0,62224:0:0:0:0:
329,192,62224,128,0,62341:0:0:0:0:
475,192,62224,128,0,62575:0:0:0:0:
36,192,62224,128,0,62458:0:0:0:0:
109,192,62224,128,0,62458:0:0:0:0:
402,192,62224,128,0,62341:0:0:0:0:
182,192,62458,128,0,62575:0:0:0:0:
256,192,62458,128,0,62575:0:0:0:0:
329,192,62575,128,0,62692:0:0:0:0:
109,192,62692,128,0,62809:0:0:0:0:
36,192,62692,128,0,62809:0:0:0:0:
475,192,62692,128,0,63044:0:0:0:0:
256,192,62692,128,0,63044:0:0:0:0:
402,192,62692,128,0,63044:0:0:0:0:
109,192,62927,128,0,63044:0:0:0:0:
36,192,62927,128,0,63044:0:0:0:0:
182,192,63044,128,0,63161:0:0:0:0:
256,192,63161,128,0,63278:0:0:0:0:
402,192,63161,128,0,63395:0:0:0:0:
475,192,63161,128,0,63395:0:0:0:0:
109,192,63278,128,0,63395:0:0:0:0:
182,192,63395,128,0,63513:0:0:0:0:
329,192,63395,128,0,63513:0:0:0:0:
475,192,63513,128,0,63981:0:0:0:0:
36,192,63513,128,0,63630:0:0:0:0:
109,192,63630,128,0,63747:0:0:0:0:
402,192,63630,128,0,63981:0:0:0:0:
329,192,63747,128,0,63981:0:0:0:0:
182,192,63747,128,0,63864:0:0:0:0:
256,192,63864,128,0,63981:0:0:0:0:
36,192,63864,128,0,63981:0:0:0:0:
109,192,63981,128,0,64099:0:0:0:0:
402,192,64099,128,0,64333:0:0:0:0:
182,192,64099,128,0,64216:0:0:0:0:
256,192,64099,128,0,64333:0:0:0:0:
475,192,64099,128,0,64333:0:0:0:0:
329,192,64099,128,0,64333:0:0:0:0:
109,192,64333,128,0,64450:0:0:0:0:
36,192,64333,128,0,64450:0:0:0:0:
182,192,64450,128,0,64567:0:0:0:0:
475,192,64567,128,0,64684:0:0:0:0:
256,192,64567,128,0,64684:0:0:0:0:
329,192,64567,128,0,64684:0:0:0:0:
36,192,64567,128,0,64684:0:0:0:0:
402,192,64567,128,0,64684:0:0:0:0:
329,192,64802,128,0,64919:0:0:0:0:
109,192,64802,128,0,65036:0:0:0:0:
182,192,64919,128,0,65153:0:0:0:0:
256,192,65036,128,0,65270:0:0:0:0:
402,192,65036,128,0,65270:0:0:0:0:
475,192,65036,128,0,65270:0:0:0:0:
36,192,65153,128,0,65270:0:0:0:0:
109,192,65270,128,0,65388:0:0:0:0:
329,192,65270,128,0,65388:0:0:0:0:
475,192,65388,128,0,65505:0:0:0:0:
256,192,65388,128,0,65505:0:0:0:0:
182,192,65505,128,0,65622:0:0:0:0:
402,192,65505,128,0,65856:0:0:0:0:
36,192,65505,128,0,65739:0:0:0:0:
329,192,65739,128,0,65856:0:0:0:0:
109,192,65739,128,0,65856:0:0:0:0:
182,192,65856,128,0,65974:0:0:0:0:
256,192,65974,128,0,66091:0:0:0:0:
475,192,65974,128,0,66325:0:0:0:0:
36,192,65974,128,0,66325:0:0:0:0:
402,192,65974,128,0,66091:0:0:0:0:
109,192,65974,128,0,66091:0:0:0:0:
182,192,66208,128,0,66325:0:0:0:0:
329,192,66208,128,0,66325:0:0:0:0:
475,192,66442,128,0,66794:0:0:0:0:
36,192,66442,128,0,66911:0:0:0:0:
109,192,66442,128,0,66559:0:0:0:0:
256,192,66442,128,0,66559:0:0:0:0:
182,192,66442,128,0,66559:0:0:0:0:
329,192,66677,128,0,66794:0:0:0:0:
402,192,66677,128,0,66794:0:0:0:0:
182,192,66794,128,0,66911:0:0:0:0:
109,192,66794,128,0,66911:0:0:0:0:
256,192,66911,128,0,67145:0:0:0:0:
475,192,66911,128,0,67028:0:0:0:0:
182,192,67028,128,0,67263:0:0:0:0:
402,192,67028,128,0,67145:0:0:0:0:
109,192,67145,128,0,67380:0:0:0:0:
329,192,67145,128,0,67263:0:0:0:0:
36,192,67263,128,0,67497:0:0:0:0:
256,192,67263,128,0,67380:0:0:0:0:
475,192,67380,1,0,0:0:0:0:
182,192,67380,128,0,67497:0:0:0:0:
402,192,67380,1,0,0:0:0:0:
109,192,67497,128,0,67614:0:0:0:0:
329,192,67497,1,0,0:0:0:0:
36,192,67614,128,0,67731:0:0:0:0:
402,192,67614,128,0,67731:0:0:0:0:
475,192,67614,128,0,67731:0:0:0:0:
256,192,67731,128,0,67849:0:0:0:0:
182,192,67731,128,0,67849:0:0:0:0:
402,192,67849,128,0,68552:0:0:0:0:
109,192,67849,128,0,68200:0:0:0:0:
36,192,67849,1,0,0:0:0:0:
475,192,67849,1,0,0:0:0:0:
329,192,67849,128,0,67966:0:0:0:0:
329,192,68083,1,0,0:0:0:0:
182,192,68083,1,0,0:0:0:0:
256,192,68200,1,0,0:0:0:0:
36,192,68200,128,0,68669:0:0:0:0:
109,192,68317,128,0,68434:0:0:0:0:
182,192,68317,128,0,68434:0:0:0:0:
329,192,68317,128,0,68434:0:0:0:0:
475,192,68317,128,0,68434:0:0:0:0:
256,192,68552,1,0,0:0:0:0:
475,192,68552,128,0,68786:0:0:0:0:
109,192,68552,1,0,0:0:0:0:
182,192,68669,1,0,0:0:0:0:
402,192,68786,128,0,69138:0:0:0:0:
329,192,68786,1,0,0:0:0:0:
36,192,68786,1,0,0:0:0:0:
109,192,68786,128,0,69489:0:0:0:0:
256,192,68786,128,0,68903:0:0:0:0:
182,192,69020,1,0,0:0:0:0:
329,192,69020,1,0,0:0:0:0:
256,192,69138,1,0,0:0:0:0:
475,192,69138,128,0,69606:0:0:0:0:
36,192,69255,128,0,69372:0:0:0:0:
182,192,69255,128,0,69372:0:0:0:0:
329,192,69255,128,0,69372:0:0:0:0:
402,192,69255,128,0,69372:0:0:0:0:
256,192,69489,1,0,0:0:0:0:
36,192,69489,128,0,69724:0:0:0:0:
402,192,69489,1,0,0:0:0:0:
329,192,69606,1,0,0:0:0:0:
182,192,69724,1,0,0:0:0:0:
109,192,69724,128,0,70075:0:0:0:0:
475,192,69724,128,0,70427:0:0:0:0:
256,192,69724,1,0,0:0:0:0:
402,192,69724,128,0,69841:0:0:0:0:
329,192,69958,1,0,0:0:0:0:
182,192,69958,1,0,0:0:0:0:
256,192,70075,1,0,0:0:0:0:
36,192,70075,128,0,70544:0:0:0:0:
109,192,70192,128,0,70309:0:0:0:0:
182,192,70192,128,0,70309:0:0:0:0:
329,192,70192,128,0,70309:0:0:0:0:
402,192,70192,128,0,70309:0:0:0:0:
256,192,70427,1,0,0:0:0:0:
329,192,70427,128,0,70661:0:0:0:0:
109,192,70427,1,0,0:0:0:0:
182,192,70544,1,0,0:0:0:0:
36,192,70661,1,0,0:0:0:0:
475,192,70661,1,0,0:0:0:0:
256,192,70661,1,0,0:0:0:0:
109,192,70661,128,0,70778:0:0:0:0:
402,192,70661,1,0,0:0:0:0:
329,192,70778,1,0,0:0:0:0:
182,192,70778,128,0,70895:0:0:0:0:
36,192,70895,1,0,0:0:0:0:
402,192,70895,1,0,0:0:0:0:
256,192,70895,128,0,71013:0:0:0:0:
109,192,71013,1,0,0:0:0:0:
475,192,71013,1,0,0:0:0:0:
329,192,71013,128,0,71130:0:0:0:0:
402,192,71130,128,0,71247:0:0:0:0:
36,192,71130,128,0,71247:0:0:0:0:
182,192,71130,128,0,71247:0:0:0:0:
256,192,71130,128,0,71247:0:0:0:0:
329,192,71364,1,0,0:0:0:0:
36,192,71364,128,0,71599:0:0:0:0:
256,192,71481,1,0,0:0:0:0:
475,192,71599,1,0,0:0:0:0:
329,192,71599,1,0,0:0:0:0:
109,192,71599,128,0,72302:0:0:0:0:
402,192,71599,128,0,71950:0:0:0:0:
182,192,71599,128,0,71716:0:0:0:0:
182,192,71833,1,0,0:0:0:0:
329,192,71833,1,0,0:0:0:0:
256,192,71950,1,0,0:0:0:0:
475,192,71950,128,0,72419:0:0:0:0:
36,192,72067,128,0,72184:0:0:0:0:
182,192,72067,128,0,72184:0:0:0:0:
329,192,72067,128,0,72184:0:0:0:0:
402,192,72067,128,0,72184:0:0:0:0:
256,192,72302,1,0,0:0:0:0:
182,192,72302,128,0,72536:0:0:0:0:
402,192,72302,1,0,0:0:0:0:
329,192,72419,1,0,0:0:0:0:
475,192,72536,1,0,0:0:0:0:
109,192,72536,128,0,72888:0:0:0:0:
36,192,72536,1,0,0:0:0:0:
402,192,72536,128,0,73239:0:0:0:0:
256,192,72536,128,0,72653:0:0:0:0:
329,192,72770,1,0,0:0:0:0:
182,192,72770,1,0,0:0:0:0:
256,192,72888,1,0,0:0:0:0:
36,192,72888,128,0,73356:0:0:0:0:
109,192,73005,128,0,73122:0:0:0:0:
182,192,73005,128,0,73122:0:0:0:0:
329,192,73005,128,0,73122:0:0:0:0:
475,192,73005,128,0,73122:0:0:0:0:
256,192,73239,1,0,0:0:0:0:
329,192,73239,128,0,73474:0:0:0:0:
109,192,73239,1,0,0:0:0:0:
182,192,73356,1,0,0:0:0:0:
475,192,73474,1,0,0:0:0:0:
36,192,73474,1,0,0:0:0:0:
402,192,73474,128,0,73825:0:0:0:0:
109,192,73474,128,0,74177:0:0:0:0:
256,192,73474,128,0,73591:0:0:0:0:
182,192,73708,1,0,0:0:0:0:
329,192,73708,1,0,0:0:0:0:
256,192,73825,1,0,0:0:0:0:
475,192,73825,128,0,74294:0:0:0:0:
36,192,73942,128,0,74059:0:0:0:0:
182,192,73942,128,0,74059:0:0:0:0:
329,192,73942,128,0,74059:0:0:0:0:
402,192,73942,128,0,74059:0:0:0:0:
256,192,74177,1,0,0:0:0:0:
182,192,74177,128,0,74411:0:0:0:0:
402,192,74177,1,0,0:0:0:0:
329,192,74294,1,0,0:0:0:0:
475,192,74411,1,0,0:0:0:0:
256,192,74411,1,0,0:0:0:0:
402,192,74411,128,0,74528:0:0:0:0:
36,192,74411,1,0,0:0:0:0:
109,192,74411,1,0,0:0:0:0:
182,192,74528,1,0,0:0:0:0:
329,192,74528,128,0,74645:0:0:0:0:
475,192,74645,1,0,0:0:0:0:
109,192,74645,1,0,0:0:0:0:
256,192,74645,128,0,74763:0:0:0:0:
36,192,74763,1,0,0:0:0:0:
182,192,74763,128,0,74880:0:0:0:0:
402,192,74763,1,0,0:0:0:0:
109,192,74880,128,0,74997:0:0:0:0:
256,192,74880,128,0,74997:0:0:0:0:
329,192,74880,128,0,74997:0:0:0:0:
475,192,74880,128,0,74997:0:0:0:0:
182,192,75114,128,0,75231:0:0:0:0:
329,192,75114,1,0,0:0:0:0:
256,192,75231,1,0,0:0:0:0:
402,192,75349,128,0,76052:0:0:0:0:
36,192,75349,1,0,0:0:0:0:
109,192,75349,128,0,75700:0:0:0:0:
475,192,75349,128,0,75466:0:0:0:0:
182,192,75349,128,0,75466:0:0:0:0:
329,192,75583,1,0,0:0:0:0:
182,192,75583,128,0,75700:0:0:0:0:
36,192,75700,128,0,76169:0:0:0:0:
256,192,75700,128,0,75817:0:0:0:0:
329,192,75817,128,0,75934:0:0:0:0:
182,192,75817,1,0,0:0:0:0:
109,192,75817,1,0,0:0:0:0:
475,192,75817,128,0,75934:0:0:0:0:
475,192,76052,128,0,76286:0:0:0:0:
109,192,76052,128,0,76169:0:0:0:0:
256,192,76052,1,0,0:0:0:0:
182,192,76169,1,0,0:0:0:0:
256,192,76286,128,0,76403:0:0:0:0:
402,192,76286,128,0,76638:0:0:0:0:
329,192,76286,1,0,0:0:0:0:
109,192,76286,128,0,76989:0:0:0:0:
36,192,76286,128,0,76403:0:0:0:0:
329,192,76520,128,0,76638:0:0:0:0:
182,192,76520,1,0,0:0:0:0:
475,192,76638,128,0,77106:0:0:0:0:
256,192,76638,128,0,76755:0:0:0:0:
329,192,76755,1,0,0:0:0:0:
182,192,76755,128,0,76872:0:0:0:0:
402,192,76755,1,0,0:0:0:0:
36,192,76755,128,0,76872:0:0:0:0:
36,192,76989,128,0,77224:0:0:0:0:
256,192,76989,1,0,0:0:0:0:
402,192,76989,128,0,77106:0:0:0:0:
329,192,77106,1,0,0:0:0:0:
109,192,77224,128,0,77575:0:0:0:0:
256,192,77224,128,0,77341:0:0:0:0:
182,192,77224,1,0,0:0:0:0:
475,192,77224,128,0,77927:0:0:0:0:
402,192,77224,128,0,77341:0:0:0:0:
329,192,77458,1,0,0:0:0:0:
182,192,77458,128,0,77575:0:0:0:0:
36,192,77575,128,0,78044:0:0:0:0:
256,192,77575,128,0,77692:0:0:0:0:
109,192,77692,1,0,0:0:0:0:
402,192,77692,128,0,77809:0:0:0:0:
182,192,77692,1,0,0:0:0:0:
329,192,77692,128,0,77809:0:0:0:0:
329,192,77927,128,0,78161:0:0:0:0:
256,192,77927,1,0,0:0:0:0:
109,192,77927,128,0,78044:0:0:0:0:
182,192,78044,1,0,0:0:0:0:
109,192,78161,128,0,78278:0:0:0:0:
36,192,78161,1,0,0:0:0:0:
256,192,78161,1,0,0:0:0:0:
475,192,78161,1,0,0:0:0:0:
402,192,78161,1,0,0:0:0:0:
182,192,78278,128,0,78395:0:0:0:0:
329,192,78278,1,0,0:0:0:0:
256,192,78395,128,0,78513:0:0:0:0:
36,192,78395,1,0,0:0:0:0:
402,192,78395,1,0,0:0:0:0:
329,192,78513,128,0,78630:0:0:0:0:
475,192,78513,1,0,0:0:0:0:
109,192,78513,1,0,0:0:0:0:
182,192,78630,1,0,0:0:0:0:
256,192,78630,1,0,0:0:0:0:
402,192,78630,128,0,78747:0:0:0:0:
36,192,78630,1,0,0:0:0:0:
182,192,78864,128,0,78981:0:0:0:0:
329,192,78864,1,0,0:0:0:0:
256,192,78981,1,0,0:0:0:0:
36,192,79099,1,0,0:0:0:0:
109,192,79099,128,0,79567:0:0:0:0:
402,192,79099,128,0,79216:0:0:0:0:
182,192,79099,1,0,0:0:0:0:
475,192,79099,1,0,0:0:0:0:
329,192,79216,128,0,79333:0:0:0:0:
256,192,79333,128,0,79450:0:0:0:0:
182,192,79450,128,0,79567:0:0:0:0:
36,192,79567,128,0,81442:0:0:0:0:
475,192,79567,128,0,79684:0:0:0:0:
329,192,79567,128,0,79684:0:0:0:0:
402,192,79567,128,0,79684:0:0:0:0:
182,192,79684,128,0,79802:0:0:0:0:
256,192,79802,128,0,79919:0:0:0:0:
329,192,79919,128,0,80036:0:0:0:0:
475,192,80036,128,0,80856:0:0:0:0:
109,192,80036,128,0,80388:0:0:0:0:
402,192,80036,128,0,80153:0:0:0:0:
182,192,80153,128,0,80505:0:0:0:0:
256,192,80270,128,0,80622:0:0:0:0:
329,192,80388,128,0,80739:0:0:0:0:
402,192,80505,128,0,80856:0:0:0:0:
109,192,80505,128,0,81325:0:0:0:0:
182,192,80622,128,0,81208:0:0:0:0:
256,192,80739,128,0,81091:0:0:0:0:
329,192,80856,128,0,80974:0:0:0:0:
402,192,80974,128,0,81325:0:0:0:0:
475,192,80974,128,0,81325:0:0:0:0:
329,192,81091,128,0,81325:0:0:0:0:
256,192,81208,128,0,81559:0:0:0:0:
182,192,81325,128,0,81559:0:0:0:0:
109,192,81442,128,0,81559:0:0:0:0:
329,192,81442,128,0,81559:0:0:0:0:
402,192,81442,128,0,81559:0:0:0:0:
475,192,81442,128,0,81559:0:0:0:0:
36,192,81559,1,0,0:0:0:0:
256,192,81677,1,0,0:0:0:0:
475,192,81677,128,0,81911:0:0:0:0:
182,192,81755,1,0,0:0:0:0:
402,192,81755,128,0,81911:0:0:0:0:
329,192,81833,128,0,81911:0:0:0:0:
109,192,81833,1,0,0:0:0:0:
36,192,81911,128,0,82028:0:0:0:0:
182,192,81911,128,0,82028:0:0:0:0:
256,192,81911,128,0,82145:0:0:0:0:
329,192,82028,128,0,82145:0:0:0:0:
475,192,82028,128,0,82145:0:0:0:0:
402,192,82028,128,0,82145:0:0:0:0:
109,192,82145,128,0,82263:0:0:0:0:
182,192,82145,128,0,82263:0:0:0:0:
36,192,82145,128,0,82263:0:0:0:0:
402,192,82263,128,0,82380:0:0:0:0:
329,192,82263,128,0,82380:0:0:0:0:
475,192,82263,128,0,82380:0:0:0:0:
256,192,82380,128,0,82497:0:0:0:0:
109,192,82380,128,0,82497:0:0:0:0:
36,192,82380,128,0,82497:0:0:0:0:
182,192,82380,128,0,82497:0:0:0:0:
329,192,82497,128,0,82731:0:0:0:0:
402,192,82497,128,0,82731:0:0:0:0:
475,192,82497,128,0,82731:0:0:0:0:
36,192,82614,128,0,82731:0:0:0:0:
109,192,82614,128,0,82731:0:0:0:0:
182,192,82614,128,0,82731:0:0:0:0:
256,192,82731,128,0,82849:0:0:0:0:
36,192,82849,128,0,83083:0:0:0:0:
329,192,82849,128,0,82966:0:0:0:0:
402,192,82849,1,0,0:0:0:0:
475,192,82849,1,0,0:0:0:0:
182,192,82849,128,0,82966:0:0:0:0:
109,192,83083,128,0,83317:0:0:0:0:
402,192,83083,128,0,83200:0:0:0:0:
475,192,83083,1,0,0:0:0:0:
256,192,83083,128,0,83200:0:0:0:0:
182,192,83317,128,0,83552:0:0:0:0:
475,192,83317,128,0,83434:0:0:0:0:
402,192,83317,1,0,0:0:0:0:
329,192,83317,128,0,83434:0:0:0:0:
256,192,83552,128,0,83786:0:0:0:0:
36,192,83552,128,0,83669:0:0:0:0:
475,192,83552,1,0,0:0:0:0:
402,192,83552,128,0,83669:0:0:0:0:
329,192,83786,128,0,84020:0:0:0:0:
109,192,83786,128,0,83903:0:0:0:0:
36,192,83786,1,0,0:0:0:0:
475,192,83786,128,0,83903:0:0:0:0:
402,192,84020,128,0,84255:0:0:0:0:
182,192,84020,128,0,84138:0:0:0:0:
109,192,84020,1,0,0:0:0:0:
36,192,84020,128,0,84138:0:0:0:0:
475,192,84255,128,0,84489:0:0:0:0:
256,192,84255,128,0,84372:0:0:0:0:
182,192,84255,1,0,0:0:0:0:
36,192,84255,1,0,0:0:0:0:
109,192,84255,128,0,84372:0:0:0:0:
109,192,84489,1,0,0:0:0:0:
182,192,84489,128,0,84606:0:0:0:0:
329,192,84489,128,0,84606:0:0:0:0:
475,192,84724,128,0,84880:0:0:0:0:
329,192,84724,128,0,84880:0:0:0:0:
402,192,84724,128,0,84880:0:0:0:0:
36,192,84724,128,0,84841:0:0:0:0:
256,192,84724,1,0,0:0:0:0:
182,192,84724,1,0,0:0:0:0:
109,192,84841,128,0,84958:0:0:0:0:
402,192,84958,128,0,85114:0:0:0:0:
475,192,84958,128,0,85114:0:0:0:0:
182,192,84958,128,0,85075:0:0:0:0:
36,192,85075,128,0,85192:0:0:0:0:
329,192,85192,128,0,85349:0:0:0:0:
402,192,85192,128,0,85349:0:0:0:0:
475,192,85192,128,0,85349:0:0:0:0:
182,192,85192,128,0,85309:0:0:0:0:
109,192,85309,128,0,85427:0:0:0:0:
329,192,85427,128,0,85583:0:0:0:0:
402,192,85427,128,0,85583:0:0:0:0:
36,192,85427,128,0,85544:0:0:0:0:
182,192,85544,128,0,85661:0:0:0:0:
329,192,85661,128,0,85817:0:0:0:0:
402,192,85661,128,0,85817:0:0:0:0:
475,192,85661,128,0,85817:0:0:0:0:
36,192,85661,128,0,85778:0:0:0:0:
109,192,85778,128,0,85895:0:0:0:0:
329,192,85895,128,0,86052:0:0:0:0:
475,192,85895,128,0,86052:0:0:0:0:
182,192,85895,128,0,86013:0:0:0:0:
109,192,86013,128,0,86130:0:0:0:0:
329,192,86130,128,0,86208:0:0:0:0:
402,192,86130,128,0,86208:0:0:0:0:
475,192,86130,128,0,86208:0:0:0:0:
36,192,86130,128,0,86208:0:0:0:0:
182,192,86130,128,0,86208:0:0:0:0:
256,192,86130,128,0,86208:0:0:0:0:
109,192,86364,1,0,0:0:0:0:
182,192,86364,1,0,0:0:0:0:
329,192,86364,1,0,0:0:0:0:
402,192,86364,1,0,0:0:0:0:
36,192,86599,128,0,87067:0:0:0:0:
329,192,86599,128,0,86716:0:0:0:0:
402,192,86599,1,0,0:0:0:0:
475,192,86599,1,0,0:0:0:0:
109,192,86599,1,0,0:0:0:0:
182,192,86599,128,0,86716:0:0:0:0:
109,192,86833,128,0,87302:0:0:0:0:
402,192,86833,128,0,86950:0:0:0:0:
256,192,86833,128,0,86950:0:0:0:0:
182,192,87067,128,0,87536:0:0:0:0:
475,192,87067,128,0,87184:0:0:0:0:
402,192,87067,1,0,0:0:0:0:
329,192,87067,128,0,87184:0:0:0:0:
256,192,87302,128,0,87770:0:0:0:0:
36,192,87302,128,0,87419:0:0:0:0:
475,192,87302,1,0,0:0:0:0:
402,192,87302,128,0,87419:0:0:0:0:
329,192,87536,128,0,88005:0:0:0:0:
109,192,87536,128,0,87653:0:0:0:0:
36,192,87536,1,0,0:0:0:0:
475,192,87536,128,0,87653:0:0:0:0:
402,192,87770,128,0,88239:0:0:0:0:
182,192,87770,128,0,87888:0:0:0:0:
109,192,87770,1,0,0:0:0:0:
36,192,87770,128,0,87888:0:0:0:0:
475,192,88005,128,0,88356:0:0:0:0:
256,192,88005,128,0,88122:0:0:0:0:
182,192,88005,1,0,0:0:0:0:
109,192,88005,128,0,88122:0:0:0:0:
329,192,88239,128,0,88356:0:0:0:0:
36,192,88239,1,0,0:0:0:0:
182,192,88239,128,0,88356:0:0:0:0:
36,192,88474,128,0,88630:0:0:0:0:
182,192,88474,128,0,88630:0:0:0:0:
109,192,88474,128,0,88630:0:0:0:0:
475,192,88474,128,0,88591:0:0:0:0:
256,192,88474,1,0,0:0:0:0:
329,192,88474,1,0,0:0:0:0:
402,192,88591,128,0,88708:0:0:0:0:
109,192,88708,128,0,88864:0:0:0:0:
36,192,88708,128,0,88864:0:0:0:0:
329,192,88708,128,0,88825:0:0:0:0:
475,192,88825,128,0,88942:0:0:0:0:
182,192,88942,128,0,89099:0:0:0:0:
109,192,88942,128,0,89099:0:0:0:0:
36,192,88942,128,0,89099:0:0:0:0:
329,192,88942,128,0,89059:0:0:0:0:
402,192,89059,128,0,89177:0:0:0:0:
182,192,89177,128,0,89333:0:0:0:0:
36,192,89177,128,0,89333:0:0:0:0:
475,192,89177,128,0,89294:0:0:0:0:
329,192,89294,128,0,89411:0:0:0:0:
182,192,89411,128,0,89567:0:0:0:0:
109,192,89411,128,0,89567:0:0:0:0:
36,192,89411,128,0,89567:0:0:0:0:
475,192,89411,128,0,89528:0:0:0:0:
402,192,89528,128,0,89645:0:0:0:0:
182,192,89645,128,0,89802:0:0:0:0:
109,192,89645,128,0,89802:0:0:0:0:
329,192,89645,128,0,89763:0:0:0:0:
402,192,89763,128,0,89880:0:0:0:0:
182,192,89880,128,0,89958:0:0:0:0:
109,192,89880,128,0,89958:0:0:0:0:
36,192,89880,128,0,89958:0:0:0:0:
475,192,89880,128,0,89958:0:0:0:0:
329,192,89880,128,0,89958:0:0:0:0:
256,192,89880,128,0,89958:0:0:0:0:
109,192,90114,1,0,0:0:0:0:
182,192,90114,1,0,0:0:0:0:
329,192,90114,1,0,0:0:0:0:
402,192,90114,1,0,0:0:0:0:
109,192,90349,128,0,90583:0:0:0:0:
475,192,90349,1,0,0:0:0:0:
36,192,90349,128,0,90466:0:0:0:0:
402,192,90349,1,0,0:0:0:0:
329,192,90349,1,0,0:0:0:0:
256,192,90583,128,0,90817:0:0:0:0:
402,192,90583,1,0,0:0:0:0:
182,192,90583,128,0,90700:0:0:0:0:
36,192,90583,1,0,0:0:0:0:
36,192,90817,1,0,0:0:0:0:
475,192,90817,1,0,0:0:0:0:
402,192,90817,128,0,91052:0:0:0:0:
329,192,90817,128,0,90934:0:0:0:0:
182,192,90817,1,0,0:0:0:0:
36,192,91052,128,0,91286:0:0:0:0:
182,192,91052,1,0,0:0:0:0:
475,192,91052,128,0,91169:0:0:0:0:
109,192,91052,128,0,91169:0:0:0:0:
329,192,91052,1,0,0:0:0:0:
109,192,91286,1,0,0:0:0:0:
329,192,91286,1,0,0:0:0:0:
182,192,91286,128,0,91520:0:0:0:0:
256,192,91286,128,0,91403:0:0:0:0:
475,192,91286,1,0,0:0:0:0:
256,192,91520,1,0,0:0:0:0:
329,192,91520,128,0,91755:0:0:0:0:
402,192,91520,128,0,91638:0:0:0:0:
109,192,91520,1,0,0:0:0:0:
402,192,91755,1,0,0:0:0:0:
475,192,91755,128,0,91989:0:0:0:0:
36,192,91755,128,0,91872:0:0:0:0:
256,192,91755,1,0,0:0:0:0:
182,192,91755,1,0,0:0:0:0:
256,192,91989,1,0,0:0:0:0:
36,192,91989,1,0,0:0:0:0:
329,192,91989,1,0,0:0:0:0:
182,192,91989,1,0,0:0:0:0:
109,192,92224,1,0,0:0:0:0:
36,192,92224,1,0,0:0:0:0:
402,192,92224,128,0,92458:0:0:0:0:
329,192,92224,128,0,92302:0:0:0:0:
475,192,92224,1,0,0:0:0:0:
256,192,92458,128,0,92692:0:0:0:0:
329,192,92458,1,0,0:0:0:0:
182,192,92458,128,0,92536:0:0:0:0:
109,192,92458,1,0,0:0:0:0:
475,192,92692,1,0,0:0:0:0:
182,192,92692,1,0,0:0:0:0:
109,192,92692,128,0,92927:0:0:0:0:
36,192,92692,128,0,92770:0:0:0:0:
329,192,92692,1,0,0:0:0:0:
475,192,92927,128,0,93161:0:0:0:0:
36,192,92927,1,0,0:0:0:0:
402,192,92927,128,0,93005:0:0:0:0:
329,192,92927,1,0,0:0:0:0:
182,192,93161,1,0,0:0:0:0:
402,192,93161,1,0,0:0:0:0:
329,192,93161,128,0,93395:0:0:0:0:
256,192,93161,128,0,93239:0:0:0:0:
36,192,93161,1,0,0:0:0:0:
182,192,93395,128,0,93630:0:0:0:0:
256,192,93395,1,0,0:0:0:0:
109,192,93395,128,0,93474:0:0:0:0:
36,192,93395,1,0,0:0:0:0:
402,192,93630,1,0,0:0:0:0:
109,192,93630,1,0,0:0:0:0:
36,192,93630,128,0,94099:0:0:0:0:
475,192,93630,128,0,93708:0:0:0:0:
256,192,93630,1,0,0:0:0:0:
256,192,93864,1,0,0:0:0:0:
329,192,93864,128,0,93942:0:0:0:0:
402,192,93864,1,0,0:0:0:0:
475,192,94099,1,0,0:0:0:0:
109,192,94099,1,0,0:0:0:0:
402,192,94099,128,0,94567:0:0:0:0:
182,192,94099,128,0,94216:0:0:0:0:
329,192,94099,1,0,0:0:0:0:
256,192,94099,1,0,0:0:0:0:
329,192,94333,1,0,0:0:0:0:
256,192,94333,128,0,94802:0:0:0:0:
36,192,94333,128,0,94450:0:0:0:0:
109,192,94333,1,0,0:0:0:0:
36,192,94567,1,0,0:0:0:0:
109,192,94567,128,0,95036:0:0:0:0:
475,192,94567,1,0,0:0:0:0:
182,192,94567,128,0,94684:0:0:0:0:
329,192,94567,1,0,0:0:0:0:
329,192,94802,1,0,0:0:0:0:
475,192,94802,128,0,95270:0:0:0:0:
402,192,94802,128,0,94919:0:0:0:0:
182,192,94802,1,0,0:0:0:0:
402,192,95036,1,0,0:0:0:0:
329,192,95036,128,0,95505:0:0:0:0:
36,192,95036,1,0,0:0:0:0:
256,192,95036,128,0,95153:0:0:0:0:
182,192,95036,1,0,0:0:0:0:
182,192,95270,128,0,95739:0:0:0:0:
256,192,95270,1,0,0:0:0:0:
109,192,95270,128,0,95388:0:0:0:0:
36,192,95270,1,0,0:0:0:0:
109,192,95505,1,0,0:0:0:0:
36,192,95505,128,0,95974:0:0:0:0:
402,192,95505,1,0,0:0:0:0:
475,192,95505,128,0,95622:0:0:0:0:
256,192,95505,1,0,0:0:0:0:
256,192,95739,1,0,0:0:0:0:
329,192,95739,128,0,95856:0:0:0:0:
182,192,95974,128,0,96052:0:0:0:0:
402,192,95974,128,0,96989:0:0:0:0:
475,192,95974,128,0,96091:0:0:0:0:
109,192,96208,128,0,96989:0:0:0:0:
329,192,96208,128,0,96286:0:0:0:0:
475,192,96208,128,0,96325:0:0:0:0:
256,192,96442,128,0,96989:0:0:0:0:
182,192,96442,128,0,96520:0:0:0:0:
329,192,96442,1,0,0:0:0:0:
36,192,96442,128,0,96559:0:0:0:0:
475,192,96677,128,0,96989:0:0:0:0:
329,192,96677,128,0,96755:0:0:0:0:
182,192,96677,1,0,0:0:0:0:
36,192,96677,128,0,96794:0:0:0:0:
36,192,96911,128,0,96989:0:0:0:0:
182,192,96911,128,0,96989:0:0:0:0:
329,192,96911,128,0,96989:0:0:0:0:
109,192,97028,128,0,97087:0:0:0:0:
256,192,97028,128,0,97087:0:0:0:0:
182,192,97145,128,0,97204:0:0:0:0:
329,192,97145,128,0,97204:0:0:0:0:
256,192,97263,128,0,97321:0:0:0:0:
402,192,97263,128,0,97321:0:0:0:0:
36,192,97380,128,0,97497:0:0:0:0:
182,192,97380,128,0,97497:0:0:0:0:
329,192,97380,128,0,97497:0:0:0:0:
475,192,97380,128,0,97497:0:0:0:0:
256,192,97497,128,0,97614:0:0:0:0:
36,192,97614,128,0,97731:0:0:0:0:
109,192,97614,128,0,97731:0:0:0:0:
402,192,97614,128,0,97731:0:0:0:0:
475,192,97614,128,0,97731:0:0:0:0:
329,192,97731,128,0,97849:0:0:0:0:
182,192,97731,128,0,97849:0:0:0:0:
109,192,97849,128,0,97966:0:0:0:0:
36,192,97849,128,0,97966:0:0:0:0:
256,192,97849,128,0,97966:0:0:0:0:
402,192,97849,128,0,97966:0:0:0:0:
475,192,97849,128,0,97966:0:0:0:0:
402,192,112303,5,0,0:0:0:0:
475,192,112303,128,0,112678:0:0:0:0:
329,192,112303,128,0,112428:0:0:0:0:
182,192,112428,128,0,112553:0:0:0:0:
329,192,112553,128,0,112678:0:0:0:0:
36,192,112678,128,0,113053:0:0:0:0:
109,192,112678,128,0,112803:0:0:0:0:
256,192,112678,128,0,112803:0:0:0:0:
329,192,112803,128,0,112928:0:0:0:0:
182,192,112928,128,0,113053:0:0:0:0:
475,192,113053,128,0,113615:0:0:0:0:
402,192,113053,128,0,113178:0:0:0:0:
256,192,113053,128,0,113178:0:0:0:0:
109,192,113178,128,0,113303:0:0:0:0:
256,192,113303,128,0,113428:0:0:0:0:
109,192,113428,128,0,113553:0:0:0:0:
329,192,113553,128,0,113678:0:0:0:0:
402,192,113615,128,0,113740:0:0:0:0:
182,192,113678,128,0,113803:0:0:0:0:
109,192,113740,128,0,113865:0:0:0:0:
402,192,113803,128,0,113886:0:0:0:0:
182,192,113886,128,0,113969:0:0:0:0:
329,192,113969,128,0,114053:0:0:0:0:
109,192,114053,128,0,114136:0:0:0:0:
256,192,114053,128,0,114136:0:0:0:0:
329,192,114136,128,0,114219:0:0:0:0:
182,192,114219,128,0,114303:0:0:0:0:
36,192,114303,128,0,114428:0:0:0:0:
402,192,114303,128,0,114428:0:0:0:0:
475,192,114303,128,0,114428:0:0:0:0:
475,192,114553,1,0,0:0:0:0:
329,192,114553,1,0,0:0:0:0:
109,192,114553,1,0,0:0:0:0:
182,192,114553,128,0,114928:0:0:0:0:
402,192,114678,1,0,0:0:0:0:
256,192,114678,1,0,0:0:0:0:
36,192,114803,128,0,114928:0:0:0:0:
109,192,114803,128,0,114928:0:0:0:0:
475,192,114803,128,0,114928:0:0:0:0:
402,192,115053,128,0,115803:0:0:0:0:
256,192,115053,128,0,115178:0:0:0:0:
109,192,115053,128,0,115178:0:0:0:0:
182,192,115178,128,0,115553:0:0:0:0:
256,192,115553,128,0,115678:0:0:0:0:
36,192,115678,128,0,115803:0:0:0:0:
109,192,115678,128,0,115803:0:0:0:0:
329,192,115803,128,0,116053:0:0:0:0:
256,192,115803,128,0,116053:0:0:0:0:
182,192,115803,128,0,116053:0:0:0:0:
402,192,116053,128,0,116303:0:0:0:0:
36,192,116053,128,0,116178:0:0:0:0:
109,192,116178,128,0,116303:0:0:0:0:
256,192,116178,128,0,116303:0:0:0:0:
475,192,116303,128,0,116803:0:0:0:0:
182,192,116303,128,0,116428:0:0:0:0:
36,192,116303,128,0,116553:0:0:0:0:
329,192,116428,1,0,0:0:0:0:
182,192,116553,1,0,0:0:0:0:
36,192,116678,128,0,116803:0:0:0:0:
256,192,116678,128,0,116803:0:0:0:0:
402,192,116678,128,0,116803:0:0:0:0:
109,192,116803,1,0,0:0:0:0:
256,192,116928,1,0,0:0:0:0:
402,192,116928,1,0,0:0:0:0:
36,192,117053,128,0,117178:0:0:0:0:
329,192,117053,128,0,117115:0:0:0:0:
475,192,117053,128,0,117115:0:0:0:0:
109,192,117115,128,0,117240:0:0:0:0:
182,192,117178,128,0,117303:0:0:0:0:
256,192,117240,128,0,117365:0:0:0:0:
329,192,117303,128,0,117553:0:0:0:0:
475,192,117553,128,0,117678:0:0:0:0:
402,192,117553,128,0,117678:0:0:0:0:
36,192,117553,128,0,117803:0:0:0:0:
109,192,117678,1,0,0:0:0:0:
329,192,117678,128,0,117803:0:0:0:0:
182,192,117740,1,0,0:0:0:0:
256,192,117803,1,0,0:0:0:0:
402,192,117803,128,0,117928:0:0:0:0:
475,192,117803,128,0,117928:0:0:0:0:
109,192,117928,128,0,118178:0:0:0:0:
36,192,117928,128,0,118053:0:0:0:0:
475,192,118053,1,0,0:0:0:0:
329,192,118053,1,0,0:0:0:0:
182,192,118053,128,0,118178:0:0:0:0:
256,192,118178,1,0,0:0:0:0:
36,192,118178,128,0,118303:0:0:0:0:
402,192,118303,128,0,118636:0:0:0:0:
109,192,118303,128,0,118428:0:0:0:0:
182,192,118303,128,0,118428:0:0:0:0:
36,192,118553,128,0,118615:0:0:0:0:
256,192,118553,128,0,118615:0:0:0:0:
329,192,118636,128,0,118886:0:0:0:0:
182,192,118678,1,0,0:0:0:0:
36,192,118803,1,0,0:0:0:0:
109,192,118803,1,0,0:0:0:0:
256,192,118886,128,0,119303:0:0:0:0:
36,192,119053,128,0,119178:0:0:0:0:
182,192,119053,128,0,119178:0:0:0:0:
475,192,119053,128,0,119178:0:0:0:0:
36,192,119303,128,0,119428:0:0:0:0:
109,192,119303,128,0,119428:0:0:0:0:
475,192,119303,128,0,119428:0:0:0:0:
329,192,119386,128,0,119469:0:0:0:0:
182,192,119469,128,0,119553:0:0:0:0:
256,192,119553,128,0,119636:0:0:0:0:
402,192,119553,128,0,119636:0:0:0:0:
182,192,119636,128,0,119719:0:0:0:0:
329,192,119719,128,0,119803:0:0:0:0:
36,192,119803,128,0,119886:0:0:0:0:
475,192,119803,128,0,119886:0:0:0:0:
402,192,119803,128,0,119886:0:0:0:0:
182,192,119886,128,0,119969:0:0:0:0:
329,192,119969,128,0,120053:0:0:0:0:
256,192,120053,128,0,120136:0:0:0:0:
109,192,120053,128,0,120136:0:0:0:0:
402,192,120136,128,0,120219:0:0:0:0:
182,192,120219,128,0,120303:0:0:0:0:
36,192,120303,128,0,120428:0:0:0:0:
329,192,120303,128,0,120553:0:0:0:0:
475,192,120303,128,0,120553:0:0:0:0:
256,192,120553,128,0,121428:0:0:0:0:
109,192,120553,128,0,120678:0:0:0:0:
182,192,120678,128,0,120803:0:0:0:0:
36,192,120803,128,0,120928:0:0:0:0:
402,192,120803,128,0,120928:0:0:0:0:
475,192,120803,128,0,120928:0:0:0:0:
36,192,121053,128,0,121178:0:0:0:0:
402,192,121053,128,0,121178:0:0:0:0:
475,192,121053,128,0,121178:0:0:0:0:
182,192,121178,128,0,121303:0:0:0:0:
329,192,121178,128,0,121303:0:0:0:0:
36,192,121428,128,0,121803:0:0:0:0:
329,192,121553,128,0,121636:0:0:0:0:
182,192,121636,128,0,121719:0:0:0:0:
329,192,121719,128,0,121803:0:0:0:0:
109,192,121803,128,0,121886:0:0:0:0:
402,192,121803,128,0,121886:0:0:0:0:
182,192,121886,128,0,121969:0:0:0:0:
402,192,121969,128,0,122053:0:0:0:0:
256,192,122053,128,0,122136:0:0:0:0:
109,192,122053,128,0,122136:0:0:0:0:
475,192,122136,128,0,122219:0:0:0:0:
109,192,122219,128,0,122303:0:0:0:0:
256,192,122303,128,0,122553:0:0:0:0:
402,192,122303,128,0,122428:0:0:0:0:
475,192,122553,1,0,0:0:0:0:
329,192,122553,1,0,0:0:0:0:
182,192,122553,128,0,122803:0:0:0:0:
256,192,122678,1,0,0:0:0:0:
109,192,122803,1,0,0:0:0:0:
329,192,122803,1,0,0:0:0:0:
36,192,122803,128,0,123053:0:0:0:0:
402,192,122865,1,0,0:0:0:0:
182,192,122928,1,0,0:0:0:0:
329,192,122990,1,0,0:0:0:0:
475,192,123053,128,0,123303:0:0:0:0:
256,192,123303,128,0,123553:0:0:0:0:
402,192,123303,1,0,0:0:0:0:
36,192,123303,128,0,123553:0:0:0:0:
109,192,123303,128,0,123553:0:0:0:0:
182,192,123553,128,0,123678:0:0:0:0:
329,192,123553,128,0,123678:0:0:0:0:
402,192,123615,128,0,123740:0:0:0:0:
109,192,123678,128,0,123803:0:0:0:0:
256,192,123740,128,0,123865:0:0:0:0:
36,192,123803,128,0,123886:0:0:0:0:
475,192,123803,128,0,123886:0:0:0:0:
182,192,123886,128,0,123969:0:0:0:0:
329,192,123969,128,0,124053:0:0:0:0:
256,192,124053,128,0,124136:0:0:0:0:
109,192,124053,128,0,124136:0:0:0:0:
402,192,124136,128,0,124219:0:0:0:0:
182,192,124219,128,0,124303:0:0:0:0:
475,192,124303,128,0,124803:0:0:0:0:
36,192,124303,128,0,124553:0:0:0:0:
329,192,124303,128,0,124428:0:0:0:0:
256,192,124303,128,0,124428:0:0:0:0:
182,192,124553,128,0,124803:0:0:0:0:
109,192,124553,1,0,0:0:0:0:
256,192,124678,128,0,124803:0:0:0:0:
329,192,124678,128,0,124803:0:0:0:0:
402,192,124678,128,0,124803:0:0:0:0:
36,192,124803,1,0,0:0:0:0:
109,192,124803,128,0,125053:0:0:0:0:
329,192,124928,1,0,0:0:0:0:
36,192,125053,128,0,125803:0:0:0:0:
256,192,125053,128,0,125178:0:0:0:0:
402,192,125053,128,0,125178:0:0:0:0:
475,192,125053,128,0,125178:0:0:0:0:
329,192,125178,1,0,0:0:0:0:
182,192,125178,1,0,0:0:0:0:
182,192,125490,1,0,0:0:0:0:
256,192,125553,1,0,0:0:0:0:
475,192,125553,1,0,0:0:0:0:
402,192,125678,1,0,0:0:0:0:
329,192,125740,1,0,0:0:0:0:
182,192,125803,128,0,125928:0:0:0:0:
475,192,125803,128,0,125928:0:0:0:0:
109,192,125803,128,0,125928:0:0:0:0:
402,192,125928,1,0,0:0:0:0:
256,192,125928,1,0,0:0:0:0:
109,192,126053,1,0,0:0:0:0:
36,192,126053,1,0,0:0:0:0:
402,192,126178,1,0,0:0:0:0:
256,192,126178,1,0,0:0:0:0:
475,192,126303,128,0,126678:0:0:0:0:
36,192,126303,128,0,126428:0:0:0:0:
182,192,126303,128,0,126428:0:0:0:0:
329,192,126428,1,0,0:0:0:0:
36,192,126553,128,0,126615:0:0:0:0:
109,192,126553,128,0,126615:0:0:0:0:
329,192,126678,128,0,127053:0:0:0:0:
256,192,126678,128,0,126803:0:0:0:0:
402,192,126678,128,0,126803:0:0:0:0:
109,192,126803,1,0,0:0:0:0:
182,192,127053,128,0,127303:0:0:0:0:
109,192,127053,128,0,127178:0:0:0:0:
256,192,127053,128,0,127178:0:0:0:0:
402,192,127178,1,0,0:0:0:0:
36,192,127303,1,0,0:0:0:0:
329,192,127303,1,0,0:0:0:0:
256,192,127428,1,0,0:0:0:0:
109,192,127428,1,0,0:0:0:0:
329,192,127553,1,0,0:0:0:0:
182,192,127553,1,0,0:0:0:0:
475,192,127636,1,0,0:0:0:0:
182,192,127678,1,0,0:0:0:0:
329,192,127678,1,0,0:0:0:0:
402,192,127719,1,0,0:0:0:0:
36,192,127803,128,0,128303:0:0:0:0:
256,192,127803,128,0,128053:0:0:0:0:
475,192,127803,128,0,128053:0:0:0:0:
182,192,128053,128,0,128303:0:0:0:0:
329,192,128053,128,0,128303:0:0:0:0:
256,192,128303,128,0,129178:0:0:0:0:
109,192,128303,1,0,0:0:0:0:
475,192,128303,128,0,128428:0:0:0:0:
402,192,128303,128,0,128428:0:0:0:0:
475,192,128553,128,0,128678:0:0:0:0:
402,192,128553,128,0,128678:0:0:0:0:
182,192,128553,128,0,128678:0:0:0:0:
109,192,128678,128,0,128803:0:0:0:0:
36,192,128678,128,0,128803:0:0:0:0:
329,192,128678,128,0,128803:0:0:0:0:
475,192,128803,128,0,128928:0:0:0:0:
402,192,128803,128,0,128928:0:0:0:0:
182,192,128928,128,0,129053:0:0:0:0:
109,192,129053,128,0,129178:0:0:0:0:
36,192,129053,128,0,129178:0:0:0:0:
475,192,129053,128,0,129178:0:0:0:0:
402,192,129053,128,0,129178:0:0:0:0:
182,192,129178,128,0,129553:0:0:0:0:
329,192,129178,1,0,0:0:0:0:
329,192,129428,1,0,0:0:0:0:
402,192,129553,1,0,0:0:0:0:
36,192,129553,1,0,0:0:0:0:
475,192,129553,1,0,0:0:0:0:
329,192,129636,1,0,0:0:0:0:
182,192,129719,1,0,0:0:0:0:
475,192,129803,1,0,0:0:0:0:
329,192,129803,1,0,0:0:0:0:
36,192,129803,128,0,129886:0:0:0:0:
109,192,129886,128,0,129969:0:0:0:0:
256,192,129969,128,0,130053:0:0:0:0:
36,192,130053,128,0,130136:0:0:0:0:
402,192,130053,128,0,130178:0:0:0:0:
475,192,130053,128,0,130178:0:0:0:0:
182,192,130136,128,0,130219:0:0:0:0:
329,192,130219,128,0,130303:0:0:0:0:
475,192,130303,128,0,131053:0:0:0:0:
109,192,130303,128,0,130428:0:0:0:0:
36,192,130303,128,0,130428:0:0:0:0:
109,192,130553,128,0,130678:0:0:0:0:
36,192,130553,128,0,130678:0:0:0:0:
329,192,130553,128,0,130678:0:0:0:0:
256,192,130678,128,0,130803:0:0:0:0:
109,192,130803,128,0,131053:0:0:0:0:
36,192,130803,128,0,131053:0:0:0:0:
402,192,130803,128,0,131053:0:0:0:0:
182,192,131053,128,0,131178:0:0:0:0:
329,192,131053,128,0,131178:0:0:0:0:
402,192,131178,128,0,131553:0:0:0:0:
109,192,131178,128,0,131303:0:0:0:0:
36,192,131178,128,0,131303:0:0:0:0:
182,192,131428,1,0,0:0:0:0:
36,192,131428,1,0,0:0:0:0:
36,192,131553,1,0,0:0:0:0:
182,192,131553,1,0,0:0:0:0:
109,192,131678,1,0,0:0:0:0:
329,192,131678,128,0,131803:0:0:0:0:
475,192,131678,128,0,131803:0:0:0:0:
256,192,131803,128,0,132053:0:0:0:0:
402,192,131803,128,0,132053:0:0:0:0:
329,192,132053,128,0,132303:0:0:0:0:
475,192,132053,128,0,132303:0:0:0:0:
109,192,132053,128,0,132303:0:0:0:0:
182,192,132303,1,0,0:0:0:0:
36,192,132303,128,0,132678:0:0:0:0:
329,192,132428,128,0,132553:0:0:0:0:
402,192,132428,128,0,132553:0:0:0:0:
109,192,132553,128,0,132678:0:0:0:0:
182,192,132553,128,0,132678:0:0:0:0:
256,192,132615,1,0,0:0:0:0:
475,192,132678,128,0,133053:0:0:0:0:
329,192,132678,128,0,132803:0:0:0:0:
109,192,132803,128,0,132928:0:0:0:0:
182,192,132803,128,0,132928:0:0:0:0:
329,192,132928,128,0,133053:0:0:0:0:
402,192,132928,128,0,133053:0:0:0:0:
256,192,132990,1,0,0:0:0:0:
36,192,133053,128,0,133303:0:0:0:0:
182,192,133053,128,0,133178:0:0:0:0:
329,192,133115,1,0,0:0:0:0:
402,192,133178,1,0,0:0:0:0:
256,192,133240,1,0,0:0:0:0:
329,192,133303,128,0,133553:0:0:0:0:
36,192,133428,128,0,133553:0:0:0:0:
256,192,133553,1,0,0:0:0:0:
109,192,133553,128,0,133678:0:0:0:0:
475,192,133553,128,0,133803:0:0:0:0:
182,192,133678,128,0,133803:0:0:0:0:
402,192,133740,1,0,0:0:0:0:
329,192,133803,1,0,0:0:0:0:
36,192,133803,128,0,133886:0:0:0:0:
109,192,133886,128,0,133969:0:0:0:0:
402,192,133928,1,0,0:0:0:0:
182,192,133969,128,0,134053:0:0:0:0:
329,192,134053,128,0,134136:0:0:0:0:
402,192,134136,128,0,134219:0:0:0:0:
182,192,134178,1,0,0:0:0:0:
329,192,134219,128,0,134303:0:0:0:0:
36,192,134303,128,0,134553:0:0:0:0:
109,192,134303,128,0,134553:0:0:0:0:
256,192,134303,128,0,134428:0:0:0:0:
402,192,134303,128,0,134428:0:0:0:0:
475,192,134303,128,0,134428:0:0:0:0:
182,192,134428,1,0,0:0:0:0:
329,192,134553,128,0,134678:0:0:0:0:
256,192,134553,128,0,134678:0:0:0:0:
475,192,134553,128,0,134615:0:0:0:0:
182,192,134678,1,0,0:0:0:0:
109,192,134678,128,0,134928:0:0:0:0:
36,192,134678,128,0,134928:0:0:0:0:
402,192,134803,128,0,134928:0:0:0:0:
475,192,134803,128,0,134928:0:0:0:0:
109,192,135053,128,0,135303:0:0:0:0:
36,192,135053,128,0,135303:0:0:0:0:
329,192,135053,1,0,0:0:0:0:
182,192,135053,128,0,135178:0:0:0:0:
475,192,135053,128,0,135178:0:0:0:0:
256,192,135136,1,0,0:0:0:0:
329,192,135219,1,0,0:0:0:0:
475,192,135303,1,0,0:0:0:0:
402,192,135303,1,0,0:0:0:0:
256,192,135428,1,0,0:0:0:0:
182,192,135428,1,0,0:0:0:0:
475,192,135553,1,0,0:0:0:0:
402,192,135553,1,0,0:0:0:0:
109,192,135553,128,0,135678:0:0:0:0:
36,192,135553,128,0,135678:0:0:0:0:
256,192,135636,1,0,0:0:0:0:
329,192,135719,1,0,0:0:0:0:
109,192,135803,128,0,136053:0:0:0:0:
36,192,135803,128,0,136053:0:0:0:0:
402,192,135803,128,0,135928:0:0:0:0:
475,192,135803,128,0,135928:0:0:0:0:
182,192,135928,128,0,136053:0:0:0:0:
329,192,135928,128,0,136053:0:0:0:0:
329,192,136178,128,0,136303:0:0:0:0:
182,192,136178,128,0,136303:0:0:0:0:
109,192,136303,128,0,137303:0:0:0:0:
36,192,136303,128,0,137303:0:0:0:0:
256,192,136303,128,0,136428:0:0:0:0:
402,192,136303,128,0,136428:0:0:0:0:
475,192,136303,128,0,136428:0:0:0:0:
475,192,136553,128,0,136678:0:0:0:0:
402,192,136553,128,0,136678:0:0:0:0:
256,192,136553,128,0,136678:0:0:0:0:
182,192,136678,128,0,136803:0:0:0:0:
475,192,136803,128,0,136928:0:0:0:0:
402,192,136803,128,0,136928:0:0:0:0:
256,192,136803,128,0,136928:0:0:0:0:
182,192,137053,128,0,137178:0:0:0:0:
329,192,137053,128,0,137178:0:0:0:0:
475,192,137178,128,0,137303:0:0:0:0:
402,192,137178,128,0,137303:0:0:0:0:
256,192,137178,128,0,137303:0:0:0:0:
182,192,137428,1,0,0:0:0:0:
109,192,137428,1,0,0:0:0:0:
329,192,137469,1,0,0:0:0:0:
109,192,137553,1,0,0:0:0:0:
402,192,137553,1,0,0:0:0:0:
182,192,137553,128,0,137803:0:0:0:0:
329,192,137636,1,0,0:0:0:0:
402,192,137719,1,0,0:0:0:0:
475,192,137803,1,0,0:0:0:0:
256,192,137803,1,0,0:0:0:0:
109,192,137803,128,0,138053:0:0:0:0:
36,192,137803,128,0,138053:0:0:0:0:
256,192,138053,1,0,0:0:0:0:
329,192,138053,128,0,138303:0:0:0:0:
402,192,138053,1,0,0:0:0:0:
182,192,138053,128,0,138303:0:0:0:0:
109,192,138303,128,0,138428:0:0:0:0:
36,192,138303,128,0,138428:0:0:0:0:
256,192,138303,128,0,138428:0:0:0:0:
475,192,138303,128,0,139303:0:0:0:0:
402,192,138303,128,0,139303:0:0:0:0:
109,192,138553,128,0,138678:0:0:0:0:
36,192,138553,128,0,138678:0:0:0:0:
256,192,138553,128,0,138678:0:0:0:0:
329,192,138678,128,0,138803:0:0:0:0:
256,192,138803,128,0,138928:0:0:0:0:
109,192,138803,128,0,138928:0:0:0:0:
36,192,138803,128,0,138928:0:0:0:0:
329,192,139053,128,0,139178:0:0:0:0:
182,192,139053,128,0,139136:0:0:0:0:
109,192,139136,128,0,139219:0:0:0:0:
256,192,139178,128,0,139303:0:0:0:0:
36,192,139219,128,0,139303:0:0:0:0:
182,192,139303,128,0,139386:0:0:0:0:
329,192,139386,128,0,139469:0:0:0:0:
402,192,139469,128,0,139553:0:0:0:0:
109,192,139469,128,0,139553:0:0:0:0:
256,192,139553,128,0,139636:0:0:0:0:
329,192,139636,128,0,139719:0:0:0:0:
36,192,139678,1,0,0:0:0:0:
109,192,139740,1,0,0:0:0:0:
182,192,139803,1,0,0:0:0:0:
475,192,139803,1,0,0:0:0:0:
402,192,139803,128,0,140053:0:0:0:0:
256,192,140053,1,0,0:0:0:0:
109,192,140053,1,0,0:0:0:0:
36,192,140053,128,0,140303:0:0:0:0:
329,192,140053,1,0,0:0:0:0:
475,192,140303,128,0,140928:0:0:0:0:
256,192,140303,128,0,140553:0:0:0:0:
109,192,140303,128,0,140428:0:0:0:0:
329,192,140428,128,0,140678:0:0:0:0:
182,192,140428,128,0,140553:0:0:0:0:
402,192,140553,128,0,140803:0:0:0:0:
109,192,140553,128,0,140678:0:0:0:0:
256,192,140678,128,0,140928:0:0:0:0:
36,192,140678,128,0,141303:0:0:0:0:
182,192,140803,128,0,141053:0:0:0:0:
109,192,140928,128,0,141178:0:0:0:0:
329,192,140928,1,0,0:0:0:0:
475,192,141053,128,0,141553:0:0:0:0:
256,192,141053,128,0,141303:0:0:0:0:
329,192,141136,128,0,141303:0:0:0:0:
402,192,141219,128,0,141303:0:0:0:0:
182,192,141303,1,0,0:0:0:0:
182,192,141553,1,0,0:0:0:0:
329,192,141615,1,0,0:0:0:0:
109,192,141678,128,0,141865:0:0:0:0:
36,192,141678,128,0,141865:0:0:0:0:
256,192,141740,1,0,0:0:0:0:
475,192,141803,128,0,141865:0:0:0:0:
402,192,141803,128,0,141865:0:0:0:0:
329,192,141803,128,0,141865:0:0:0:0:
182,192,141928,1,0,0:0:0:0:
475,192,142053,1,0,0:0:0:0:
329,192,142053,1,0,0:0:0:0:
182,192,142178,1,0,0:0:0:0:
475,192,142178,128,0,142303:0:0:0:0:
329,192,142178,128,0,142303:0:0:0:0:
36,192,142303,128,0,143303:0:0:0:0:
109,192,142303,128,0,142428:0:0:0:0:
256,192,142303,128,0,142428:0:0:0:0:
182,192,142428,128,0,142678:0:0:0:0:
329,192,142553,128,0,142678:0:0:0:0:
475,192,142678,128,0,143053:0:0:0:0:
256,192,142678,128,0,142928:0:0:0:0:
109,192,142678,128,0,142803:0:0:0:0:
402,192,142803,128,0,143053:0:0:0:0:
329,192,142928,128,0,143053:0:0:0:0:
109,192,143053,128,0,143303:0:0:0:0:
182,192,143053,128,0,143303:0:0:0:0:
256,192,143136,128,0,143386:0:0:0:0:
329,192,143219,128,0,143469:0:0:0:0:
402,192,143303,128,0,143553:0:0:0:0:
475,192,143386,128,0,143636:0:0:0:0:
182,192,143469,128,0,143636:0:0:0:0:
36,192,143553,128,0,143719:0:0:0:0:
329,192,143636,128,0,143803:0:0:0:0:
109,192,143719,128,0,143886:0:0:0:0:
256,192,143803,128,0,143928:0:0:0:0:
402,192,143865,128,0,144053:0:0:0:0:
182,192,143928,128,0,144053:0:0:0:0:
36,192,143990,128,0,144303:0:0:0:0:
329,192,144053,128,0,144178:0:0:0:0:
109,192,144115,128,0,144303:0:0:0:0:
475,192,144178,128,0,144303:0:0:0:0:
182,192,144240,128,0,144303:0:0:0:0:
402,192,144303,128,0,144553:0:0:0:0:
256,192,144303,128,0,144428:0:0:0:0:
329,192,144303,128,0,144428:0:0:0:0:
182,192,144428,128,0,144553:0:0:0:0:
329,192,144553,128,0,144678:0:0:0:0:
109,192,144678,128,0,144928:0:0:0:0:
182,192,144678,128,0,144803:0:0:0:0:
256,192,144678,128,0,144803:0:0:0:0:
329,192,144803,128,0,144928:0:0:0:0:
182,192,144928,128,0,145053:0:0:0:0:
402,192,145053,1,0,0:0:0:0:
329,192,145053,1,0,0:0:0:0:
256,192,145053,1,0,0:0:0:0:
329,192,145178,1,0,0:0:0:0:
36,192,145303,1,0,0:0:0:0:
182,192,145303,128,0,145803:0:0:0:0:
475,192,145303,128,0,145803:0:0:0:0:
329,192,145553,128,0,145615:0:0:0:0:
402,192,145803,128,0,146303:0:0:0:0:
36,192,145803,1,0,0:0:0:0:
329,192,146053,128,0,146303:0:0:0:0:
109,192,146053,1,0,0:0:0:0:
182,192,146115,1,0,0:0:0:0:
36,192,146178,1,0,0:0:0:0:
109,192,146240,1,0,0:0:0:0:
256,192,146303,128,0,146365:0:0:0:0:
256,192,146428,128,0,146490:0:0:0:0:
402,192,146553,1,0,0:0:0:0:
36,192,146553,1,0,0:0:0:0:
182,192,146553,128,0,146803:0:0:0:0:
329,192,146678,1,0,0:0:0:0:
109,192,146803,1,0,0:0:0:0:
36,192,146803,1,0,0:0:0:0:
402,192,146803,1,0,0:0:0:0:
256,192,146803,128,0,147303:0:0:0:0:
329,192,147053,128,0,147115:0:0:0:0:
329,192,147178,128,0,147240:0:0:0:0:
475,192,147303,1,0,0:0:0:0:
36,192,147303,1,0,0:0:0:0:
329,192,147553,128,0,147615:0:0:0:0:
402,192,147553,128,0,147615:0:0:0:0:
329,192,147678,128,0,147740:0:0:0:0:
402,192,147678,128,0,147740:0:0:0:0:
36,192,147803,1,0,0:0:0:0:
182,192,147803,1,0,0:0:0:0:
36,192,148053,128,0,148303:0:0:0:0:
182,192,148053,128,0,148115:0:0:0:0:
182,192,148178,128,0,148240:0:0:0:0:
256,192,148303,128,0,148553:0:0:0:0:
329,192,148303,128,0,148553:0:0:0:0:
402,192,148303,128,0,148553:0:0:0:0:
475,192,148303,128,0,148553:0:0:0:0:
109,192,148428,128,0,148490:0:0:0:0:
109,192,148553,128,0,148615:0:0:0:0:
329,192,148678,128,0,148928:0:0:0:0:
402,192,148678,128,0,148928:0:0:0:0:
475,192,148678,128,0,148928:0:0:0:0:
182,192,148803,128,0,148865:0:0:0:0:
36,192,148928,1,0,0:0:0:0:
182,192,148928,128,0,148990:0:0:0:0:
329,192,149053,128,0,149178:0:0:0:0:
402,192,149053,128,0,149178:0:0:0:0:
475,192,149053,128,0,149178:0:0:0:0:
182,192,149178,1,0,0:0:0:0:
36,192,149303,1,0,0:0:0:0:
402,192,149303,128,0,149803:0:0:0:0:
109,192,149303,128,0,149803:0:0:0:0:
182,192,149553,128,0,149615:0:0:0:0:
182,192,149678,128,0,149740:0:0:0:0:
36,192,149803,128,0,150053:0:0:0:0:
329,192,149803,128,0,149865:0:0:0:0:
256,192,149803,128,0,150053:0:0:0:0:
329,192,149928,128,0,149990:0:0:0:0:
475,192,150053,128,0,150303:0:0:0:0:
109,192,150053,128,0,150115:0:0:0:0:
402,192,150178,128,0,150303:0:0:0:0:
109,192,150178,128,0,150240:0:0:0:0:
36,192,150303,1,0,0:0:0:0:
256,192,150303,1,0,0:0:0:0:
182,192,150303,128,0,151803:0:0:0:0:
475,192,150553,1,0,0:0:0:0:
329,192,150553,128,0,150615:0:0:0:0:
329,192,150678,128,0,150740:0:0:0:0:
256,192,150803,1,0,0:0:0:0:
402,192,150803,1,0,0:0:0:0:
36,192,150803,128,0,151303:0:0:0:0:
256,192,151053,128,0,151115:0:0:0:0:
256,192,151178,128,0,151240:0:0:0:0:
402,192,151303,128,0,151365:0:0:0:0:
475,192,151303,128,0,151365:0:0:0:0:
402,192,151428,128,0,151490:0:0:0:0:
475,192,151428,128,0,151490:0:0:0:0:
109,192,151553,1,0,0:0:0:0:
36,192,151553,1,0,0:0:0:0:
402,192,151678,128,0,151740:0:0:0:0:
475,192,151678,128,0,151740:0:0:0:0:
475,192,151803,128,0,151865:0:0:0:0:
402,192,151803,128,0,151865:0:0:0:0:
109,192,152053,1,0,0:0:0:0:
256,192,152053,128,0,152115:0:0:0:0:
256,192,152178,128,0,152240:0:0:0:0:
402,192,152303,128,0,152553:0:0:0:0:
475,192,152303,128,0,152553:0:0:0:0:
329,192,152303,128,0,152428:0:0:0:0:
36,192,152303,128,0,152428:0:0:0:0:
182,192,152303,128,0,152428:0:0:0:0:
256,192,152428,128,0,152553:0:0:0:0:
182,192,152553,128,0,152678:0:0:0:0:
109,192,152678,128,0,152928:0:0:0:0:
36,192,152678,128,0,152928:0:0:0:0:
256,192,152678,128,0,152803:0:0:0:0:
402,192,152678,128,0,152803:0:0:0:0:
475,192,152678,128,0,152803:0:0:0:0:
329,192,152803,128,0,152928:0:0:0:0:
256,192,152928,128,0,153053:0:0:0:0:
182,192,153053,128,0,153178:0:0:0:0:
109,192,153053,128,0,153178:0:0:0:0:
36,192,153053,128,0,153178:0:0:0:0:
475,192,153053,128,0,153178:0:0:0:0:
329,192,153053,128,0,153115:0:0:0:0:
329,192,153178,128,0,153240:0:0:0:0:
256,192,153303,1,0,0:0:0:0:
402,192,153303,128,0,153803:0:0:0:0:
36,192,153303,128,0,153803:0:0:0:0:
182,192,153553,128,0,153615:0:0:0:0:
182,192,153678,128,0,153740:0:0:0:0:
475,192,153803,128,0,154053:0:0:0:0:
256,192,153803,1,0,0:0:0:0:
109,192,153803,128,0,154053:0:0:0:0:
182,192,154053,128,0,154303:0:0:0:0:
329,192,154053,128,0,154303:0:0:0:0:
402,192,154303,1,0,0:0:0:0:
256,192,154303,1,0,0:0:0:0:
36,192,154303,128,0,154678:0:0:0:0:
329,192,154428,1,0,0:0:0:0:
109,192,154428,128,0,154678:0:0:0:0:
475,192,154553,128,0,154803:0:0:0:0:
256,192,154553,128,0,154678:0:0:0:0:
402,192,154553,128,0,154678:0:0:0:0:
182,192,154803,1,0,0:0:0:0:
36,192,154803,1,0,0:0:0:0:
329,192,154803,128,0,155803:0:0:0:0:
36,192,155053,128,0,155115:0:0:0:0:
36,192,155178,128,0,155240:0:0:0:0:
109,192,155303,1,0,0:0:0:0:
256,192,155303,1,0,0:0:0:0:
182,192,155553,1,0,0:0:0:0:
475,192,155553,128,0,155615:0:0:0:0:
475,192,155678,128,0,155740:0:0:0:0:
402,192,155803,1,0,0:0:0:0:
256,192,155803,1,0,0:0:0:0:
36,192,155803,1,0,0:0:0:0:
36,192,156053,128,0,156303:0:0:0:0:
182,192,156053,128,0,156303:0:0:0:0:
109,192,156303,128,0,156428:0:0:0:0:
329,192,156303,128,0,156428:0:0:0:0:
475,192,156303,128,0,156428:0:0:0:0:
256,192,156428,128,0,156490:0:0:0:0:
256,192,156553,128,0,156615:0:0:0:0:
402,192,156678,128,0,156803:0:0:0:0:
182,192,156678,128,0,156803:0:0:0:0:
36,192,156678,128,0,156803:0:0:0:0:
256,192,156803,128,0,156865:0:0:0:0:
256,192,156928,128,0,156990:0:0:0:0:
109,192,157053,128,0,157115:0:0:0:0:
329,192,157053,128,0,157178:0:0:0:0:
475,192,157053,128,0,157178:0:0:0:0:
109,192,157178,128,0,157240:0:0:0:0:
402,192,157303,1,0,0:0:0:0:
475,192,157303,1,0,0:0:0:0:
256,192,157303,128,0,157803:0:0:0:0:
182,192,157386,1,0,0:0:0:0:
329,192,157469,1,0,0:0:0:0:
182,192,157553,1,0,0:0:0:0:
36,192,157553,1,0,0:0:0:0:
329,192,157636,1,0,0:0:0:0:
182,192,157678,1,0,0:0:0:0:
329,192,157740,1,0,0:0:0:0:
402,192,157803,1,0,0:0:0:0:
36,192,157803,1,0,0:0:0:0:
109,192,157803,128,0,157865:0:0:0:0:
475,192,157803,128,0,158053:0:0:0:0:
109,192,157928,128,0,157990:0:0:0:0:
402,192,158053,128,0,158115:0:0:0:0:
256,192,158053,128,0,158303:0:0:0:0:
402,192,158178,128,0,158240:0:0:0:0:
36,192,158303,1,0,0:0:0:0:
475,192,158303,1,0,0:0:0:0:
182,192,158303,1,0,0:0:0:0:
329,192,158386,1,0,0:0:0:0:
256,192,158469,1,0,0:0:0:0:
182,192,158553,1,0,0:0:0:0:
36,192,158553,1,0,0:0:0:0:
402,192,158553,128,0,158615:0:0:0:0:
475,192,158553,128,0,158615:0:0:0:0:
402,192,158678,128,0,158740:0:0:0:0:
475,192,158678,128,0,158740:0:0:0:0:
109,192,158803,128,0,158928:0:0:0:0:
256,192,158803,128,0,158928:0:0:0:0:
329,192,158803,128,0,158928:0:0:0:0:
36,192,159053,128,0,159803:0:0:0:0:
475,192,159053,128,0,159303:0:0:0:0:
182,192,159053,128,0,159303:0:0:0:0:
329,192,159053,128,0,159303:0:0:0:0:
256,192,159303,128,0,159469:0:0:0:0:
402,192,159386,128,0,159553:0:0:0:0:
182,192,159469,128,0,159636:0:0:0:0:
475,192,159553,128,0,159719:0:0:0:0:
329,192,159636,128,0,159803:0:0:0:0:
109,192,159719,128,0,159844:0:0:0:0:
256,192,159803,128,0,159928:0:0:0:0:
402,192,159865,128,0,159990:0:0:0:0:
36,192,159928,1,0,0:0:0:0:
109,192,159990,1,0,0:0:0:0:
182,192,160053,1,0,0:0:0:0:
256,192,160094,1,0,0:0:0:0:
329,192,160136,1,0,0:0:0:0:
36,192,160178,128,0,160303:0:0:0:0:
109,192,160209,128,0,160303:0:0:0:0:
182,192,160240,128,0,160303:0:0:0:0:
256,192,160271,128,0,160303:0:0:0:0:
402,192,160303,1,0,0:0:0:0:
329,192,160303,1,0,0:0:0:0:
475,192,160303,1,0,0:0:0:0:
475,192,160428,1,0,0:0:0:0:
329,192,160428,1,0,0:0:0:0:
109,192,160553,128,0,160803:0:0:0:0:
402,192,160553,1,0,0:0:0:0:
182,192,160678,1,0,0:0:0:0:
256,192,160678,1,0,0:0:0:0:
329,192,160719,1,0,0:0:0:0:
402,192,160803,1,0,0:0:0:0:
36,192,160803,1,0,0:0:0:0:
475,192,160803,128,0,161053:0:0:0:0:
182,192,161053,1,0,0:0:0:0:
36,192,161053,128,0,161303:0:0:0:0:
256,192,161053,1,0,0:0:0:0:
182,192,161178,1,0,0:0:0:0:
256,192,161178,1,0,0:0:0:0:
329,192,161303,128,0,161803:0:0:0:0:
475,192,161303,1,0,0:0:0:0:
109,192,161303,1,0,0:0:0:0:
182,192,161553,128,0,161803:0:0:0:0:
36,192,161678,128,0,162303:0:0:0:0:
402,192,161803,1,0,0:0:0:0:
256,192,161803,1,0,0:0:0:0:
475,192,161803,128,0,162303:0:0:0:0:
109,192,161928,128,0,162303:0:0:0:0:
256,192,162053,128,0,162303:0:0:0:0:
329,192,162178,128,0,162303:0:0:0:0:
182,192,162303,1,0,0:0:0:0:
402,192,162303,128,0,162803:0:0:0:0:
329,192,162553,128,0,162803:0:0:0:0:
256,192,162553,1,0,0:0:0:0:
109,192,162553,1,0,0:0:0:0:
182,192,162678,1,0,0:0:0:0:
36,192,162678,1,0,0:0:0:0:
256,192,162803,1,0,0:0:0:0:
109,192,162803,128,0,163303:0:0:0:0:
36,192,163053,128,0,163303:0:0:0:0:
475,192,163053,128,0,163553:0:0:0:0:
182,192,163053,128,0,163178:0:0:0:0:
329,192,163053,128,0,163178:0:0:0:0:
329,192,163303,128,0,163553:0:0:0:0:
182,192,163303,1,0,0:0:0:0:
36,192,163553,128,0,163803:0:0:0:0:
256,192,163553,128,0,163678:0:0:0:0:
109,192,163678,128,0,163803:0:0:0:0:
329,192,163678,128,0,163803:0:0:0:0:
256,192,163803,128,0,163928:0:0:0:0:
475,192,163803,128,0,164303:0:0:0:0:
402,192,163928,128,0,164303:0:0:0:0:
182,192,163928,128,0,164053:0:0:0:0:
329,192,164053,128,0,164303:0:0:0:0:
36,192,164053,128,0,164178:0:0:0:0:
109,192,164178,128,0,164303:0:0:0:0:
256,192,164178,128,0,164303:0:0:0:0:
36,192,164303,128,0,164678:0:0:0:0:
182,192,164303,128,0,164678:0:0:0:0:
329,192,164428,128,0,164490:0:0:0:0:
329,192,164553,128,0,164615:0:0:0:0:
475,192,164678,128,0,165053:0:0:0:0:
329,192,164678,128,0,165053:0:0:0:0:
182,192,164803,128,0,164865:0:0:0:0:
182,192,164928,128,0,164990:0:0:0:0:
36,192,165053,128,0,165303:0:0:0:0:
109,192,165053,128,0,165303:0:0:0:0:
256,192,165053,1,0,0:0:0:0:
402,192,165178,1,0,0:0:0:0:
329,192,165178,1,0,0:0:0:0:
475,192,165303,1,0,0:0:0:0:
182,192,165303,1,0,0:0:0:0:
329,192,165428,128,0,165553:0:0:0:0:
256,192,165428,128,0,165553:0:0:0:0:
402,192,165553,128,0,165678:0:0:0:0:
109,192,165553,128,0,165678:0:0:0:0:
182,192,165678,128,0,165803:0:0:0:0:
256,192,165678,128,0,165803:0:0:0:0:
475,192,165803,128,0,166053:0:0:0:0:
329,192,165803,1,0,0:0:0:0:
36,192,165928,128,0,166303:0:0:0:0:
182,192,165928,128,0,165990:0:0:0:0:
182,192,166053,128,0,166115:0:0:0:0:
329,192,166178,1,0,0:0:0:0:
182,192,166303,128,0,166678:0:0:0:0:
109,192,166303,128,0,166428:0:0:0:0:
256,192,166303,128,0,166428:0:0:0:0:
402,192,166303,128,0,166428:0:0:0:0:
475,192,166303,128,0,166428:0:0:0:0:
329,192,166428,128,0,166490:0:0:0:0:
329,192,166553,128,0,166615:0:0:0:0:
402,192,166678,128,0,167053:0:0:0:0:
36,192,166678,128,0,166803:0:0:0:0:
109,192,166678,128,0,166803:0:0:0:0:
256,192,166678,128,0,166803:0:0:0:0:
475,192,166678,128,0,166803:0:0:0:0:
182,192,166803,128,0,166865:0:0:0:0:
182,192,166928,128,0,166990:0:0:0:0:
36,192,167053,128,0,167303:0:0:0:0:
256,192,167053,128,0,167178:0:0:0:0:
329,192,167053,128,0,167178:0:0:0:0:
475,192,167053,128,0,167178:0:0:0:0:
182,192,167178,128,0,167303:0:0:0:0:
475,192,167303,1,0,0:0:0:0:
329,192,167303,128,0,167428:0:0:0:0:
109,192,167303,128,0,167428:0:0:0:0:
256,192,167428,128,0,167553:0:0:0:0:
402,192,167553,128,0,167678:0:0:0:0:
182,192,167553,1,0,0:0:0:0:
36,192,167553,1,0,0:0:0:0:
329,192,167678,128,0,167803:0:0:0:0:
475,192,167803,128,0,168303:0:0:0:0:
182,192,167803,128,0,167928:0:0:0:0:
109,192,167928,128,0,168053:0:0:0:0:
402,192,167928,128,0,168053:0:0:0:0:
36,192,168053,128,0,168303:0:0:0:0:
256,192,168053,128,0,168303:0:0:0:0:
402,192,168303,1,0,0:0:0:0:
329,192,168303,1,0,0:0:0:0:
182,192,168303,128,0,168803:0:0:0:0:
475,192,168553,128,0,168803:0:0:0:0:
36,192,168553,1,0,0:0:0:0:
329,192,168553,1,0,0:0:0:0:
36,192,168803,128,0,169053:0:0:0:0:
329,192,168803,128,0,169303:0:0:0:0:
256,192,168803,1,0,0:0:0:0:
109,192,169053,128,0,169115:0:0:0:0:
402,192,169053,128,0,169303:0:0:0:0:
109,192,169178,128,0,169240:0:0:0:0:
475,192,169303,1,0,0:0:0:0:
256,192,169303,1,0,0:0:0:0:
36,192,169303,1,0,0:0:0:0:
182,192,169428,1,0,0:0:0:0:
109,192,169553,1,0,0:0:0:0:
36,192,169553,1,0,0:0:0:0:
475,192,169553,128,0,169678:0:0:0:0:
329,192,169553,128,0,169678:0:0:0:0:
402,192,169678,128,0,169803:0:0:0:0:
256,192,169678,128,0,169803:0:0:0:0:
182,192,169803,1,0,0:0:0:0:
36,192,169803,128,0,170053:0:0:0:0:
329,192,169928,1,0,0:0:0:0:
329,192,170053,1,0,0:0:0:0:
109,192,170053,1,0,0:0:0:0:
182,192,170053,1,0,0:0:0:0:
402,192,170053,128,0,170303:0:0:0:0:
182,192,170178,1,0,0:0:0:0:
36,192,170303,128,0,170553:0:0:0:0:
109,192,170303,128,0,170428:0:0:0:0:
256,192,170303,128,0,170428:0:0:0:0:
475,192,170303,128,0,170428:0:0:0:0:
182,192,170428,1,0,0:0:0:0:
329,192,170428,1,0,0:0:0:0:
329,192,170553,1,0,0:0:0:0:
182,192,170553,1,0,0:0:0:0:
256,192,170678,128,0,171053:0:0:0:0:
109,192,170678,128,0,170803:0:0:0:0:
402,192,170678,128,0,170803:0:0:0:0:
36,192,170678,128,0,170803:0:0:0:0:
329,192,170803,1,0,0:0:0:0:
182,192,170803,1,0,0:0:0:0:
329,192,170928,1,0,0:0:0:0:
182,192,170928,1,0,0:0:0:0:
475,192,171053,128,0,171553:0:0:0:0:
402,192,171053,128,0,171303:0:0:0:0:
36,192,171053,128,0,171553:0:0:0:0:
182,192,171303,128,0,171553:0:0:0:0:
329,192,171303,1,0,0:0:0:0:
402,192,171553,1,0,0:0:0:0:
256,192,171553,1,0,0:0:0:0:
402,192,171678,128,0,172053:0:0:0:0:
109,192,171803,1,0,0:0:0:0:
182,192,171803,1,0,0:0:0:0:
329,192,171803,128,0,172053:0:0:0:0:
182,192,171928,128,0,172053:0:0:0:0:
36,192,172053,1,0,0:0:0:0:
475,192,172053,128,0,172303:0:0:0:0:
256,192,172053,128,0,172303:0:0:0:0:
36,192,172303,128,0,172428:0:0:0:0:
182,192,172303,128,0,172428:0:0:0:0:
329,192,172303,128,0,172428:0:0:0:0:
256,192,172553,1,0,0:0:0:0:
402,192,172553,1,0,0:0:0:0:
182,192,172553,1,0,0:0:0:0:
329,192,172615,1,0,0:0:0:0:
36,192,172636,1,0,0:0:0:0:
402,192,172678,128,0,173053:0:0:0:0:
109,192,172719,1,0,0:0:0:0:
182,192,172803,1,0,0:0:0:0:
36,192,172928,1,0,0:0:0:0:
475,192,173053,128,0,173178:0:0:0:0:
329,192,173053,128,0,173178:0:0:0:0:
109,192,173053,128,0,173178:0:0:0:0:
182,192,173053,128,0,173178:0:0:0:0:
402,192,173178,128,0,173428:0:0:0:0:
256,192,173178,128,0,173428:0:0:0:0:
36,192,173303,1,0,0:0:0:0:
182,192,173553,1,0,0:0:0:0:
109,192,173553,1,0,0:0:0:0:
256,192,173678,1,0,0:0:0:0:
402,192,173678,1,0,0:0:0:0:
475,192,173678,1,0,0:0:0:0:
329,192,173740,1,0,0:0:0:0:
475,192,173803,1,0,0:0:0:0:
402,192,173803,1,0,0:0:0:0:
36,192,173803,128,0,174053:0:0:0:0:
109,192,173803,128,0,174053:0:0:0:0:
182,192,173928,1,0,0:0:0:0:
256,192,174053,1,0,0:0:0:0:
475,192,174053,128,0,174178:0:0:0:0:
256,192,174178,1,0,0:0:0:0:
402,192,174178,128,0,174303:0:0:0:0:
109,192,174303,128,0,174553:0:0:0:0:
36,192,174303,128,0,174553:0:0:0:0:
182,192,174303,128,0,174428:0:0:0:0:
329,192,174303,128,0,174428:0:0:0:0:
475,192,174428,1,0,0:0:0:0:
402,192,174428,1,0,0:0:0:0:
402,192,174553,128,0,174678:0:0:0:0:
475,192,174553,128,0,174678:0:0:0:0:
109,192,174678,128,0,174928:0:0:0:0:
36,192,174678,128,0,174928:0:0:0:0:
182,192,174678,128,0,174803:0:0:0:0:
329,192,174678,128,0,174803:0:0:0:0:
256,192,174803,1,0,0:0:0:0:
402,192,174803,1,0,0:0:0:0:
256,192,174928,128,0,175053:0:0:0:0:
402,192,174928,128,0,175053:0:0:0:0:
109,192,175053,128,0,175303:0:0:0:0:
36,192,175053,128,0,175303:0:0:0:0:
329,192,175053,128,0,175553:0:0:0:0:
182,192,175053,128,0,175553:0:0:0:0:
475,192,175553,128,0,176303:0:0:0:0:
256,192,175553,128,0,176053:0:0:0:0:
36,192,175553,128,0,176303:0:0:0:0:
182,192,175803,128,0,176053:0:0:0:0:
329,192,175803,128,0,176053:0:0:0:0:
402,192,176053,128,0,176303:0:0:0:0:
109,192,176053,128,0,176303:0:0:0:0:
329,192,176303,128,0,176428:0:0:0:0:
256,192,176303,128,0,176428:0:0:0:0:
182,192,176303,128,0,176428:0:0:0:0:
402,192,176428,128,0,176553:0:0:0:0:
109,192,176553,128,0,176678:0:0:0:0:
256,192,176553,128,0,176678:0:0:0:0:
182,192,176553,128,0,176678:0:0:0:0:
329,192,176678,128,0,176803:0:0:0:0:
109,192,176803,128,0,176928:0:0:0:0:
182,192,176803,128,0,176928:0:0:0:0:
36,192,176803,128,0,176928:0:0:0:0:
475,192,176803,128,0,177053:0:0:0:0:
329,192,176928,128,0,177053:0:0:0:0:
402,192,177053,128,0,177303:0:0:0:0:
256,192,177053,128,0,177303:0:0:0:0:
36,192,177053,128,0,177178:0:0:0:0:
109,192,177053,128,0,177178:0:0:0:0:
182,192,177178,128,0,177553:0:0:0:0:
329,192,177303,128,0,177553:0:0:0:0:
475,192,177553,128,0,177803:0:0:0:0:
402,192,177553,128,0,177803:0:0:0:0:
109,192,177553,128,0,177803:0:0:0:0:
256,192,177803,128,0,178053:0:0:0:0:
36,192,177803,128,0,178303:0:0:0:0:
329,192,177803,128,0,177928:0:0:0:0:
402,192,177928,128,0,178053:0:0:0:0:
109,192,178053,128,0,178303:0:0:0:0:
475,192,178053,128,0,178178:0:0:0:0:
182,192,178178,128,0,178303:0:0:0:0:
329,192,178178,128,0,178303:0:0:0:0:
256,192,178303,128,0,178428:0:0:0:0:
475,192,178303,128,0,178428:0:0:0:0:
402,192,178303,128,0,178428:0:0:0:0:
329,192,178428,128,0,178553:0:0:0:0:
109,192,178428,128,0,178553:0:0:0:0:
182,192,178553,128,0,178678:0:0:0:0:
475,192,178553,128,0,178678:0:0:0:0:
402,192,178553,128,0,178678:0:0:0:0:
329,192,178678,128,0,178803:0:0:0:0:
36,192,178678,128,0,179053:0:0:0:0:
402,192,178803,128,0,178928:0:0:0:0:
109,192,178803,128,0,179053:0:0:0:0:
475,192,178803,128,0,178928:0:0:0:0:
256,192,178928,128,0,179053:0:0:0:0:
402,192,179053,128,0,179303:0:0:0:0:
329,192,179053,128,0,179303:0:0:0:0:
182,192,179053,128,0,179178:0:0:0:0:
109,192,179178,128,0,179428:0:0:0:0:
36,192,179178,128,0,179428:0:0:0:0:
402,192,179428,128,0,179553:0:0:0:0:
329,192,179428,128,0,179553:0:0:0:0:
256,192,179428,1,0,0:0:0:0:
109,192,179553,128,0,179678:0:0:0:0:
36,192,179553,128,0,179678:0:0:0:0:
182,192,179553,1,0,0:0:0:0:
475,192,179678,128,0,179803:0:0:0:0:
402,192,179678,128,0,179803:0:0:0:0:
329,192,179678,1,0,0:0:0:0:
256,192,179803,1,0,0:0:0:0:
182,192,179803,128,0,180178:0:0:0:0:
109,192,179803,128,0,180178:0:0:0:0:
402,192,179928,128,0,180053:0:0:0:0:
329,192,180053,128,0,180303:0:0:0:0:
475,192,180053,128,0,180303:0:0:0:0:
256,192,180303,128,0,181053:0:0:0:0:
36,192,180303,128,0,180428:0:0:0:0:
109,192,180303,128,0,180428:0:0:0:0:
402,192,180303,128,0,180428:0:0:0:0:
182,192,180428,1,0,0:0:0:0:
182,192,180553,128,0,180678:0:0:0:0:
36,192,180678,128,0,180928:0:0:0:0:
109,192,180678,128,0,180803:0:0:0:0:
402,192,180678,128,0,180803:0:0:0:0:
475,192,180678,128,0,180803:0:0:0:0:
329,192,180803,1,0,0:0:0:0:
182,192,180928,1,0,0:0:0:0:
329,192,180928,128,0,181053:0:0:0:0:
109,192,181053,128,0,181303:0:0:0:0:
475,192,181053,128,0,181303:0:0:0:0:
402,192,181053,128,0,181178:0:0:0:0:
36,192,181053,128,0,181178:0:0:0:0:
182,192,181136,1,0,0:0:0:0:
329,192,181219,1,0,0:0:0:0:
36,192,181303,1,0,0:0:0:0:
402,192,181303,1,0,0:0:0:0:
256,192,181303,128,0,181553:0:0:0:0:
329,192,181490,1,0,0:0:0:0:
402,192,181553,1,0,0:0:0:0:
36,192,181553,1,0,0:0:0:0:
182,192,181553,128,0,181803:0:0:0:0:
475,192,181615,128,0,181803:0:0:0:0:
329,192,181719,1,0,0:0:0:0:
109,192,181803,128,0,182303:0:0:0:0:
36,192,181803,128,0,182303:0:0:0:0:
256,192,181803,128,0,181928:0:0:0:0:
402,192,181928,128,0,182053:0:0:0:0:
329,192,182053,128,0,182178:0:0:0:0:
182,192,182053,128,0,182178:0:0:0:0:
256,192,182178,128,0,182303:0:0:0:0:
402,192,182178,128,0,182303:0:0:0:0:
475,192,182303,128,0,182553:0:0:0:0:
329,192,182303,128,0,182553:0:0:0:0:
182,192,182303,1,0,0:0:0:0:
109,192,182428,1,0,0:0:0:0:
182,192,182553,128,0,182678:0:0:0:0:
475,192,182678,128,0,182928:0:0:0:0:
329,192,182678,128,0,182928:0:0:0:0:
36,192,182678,128,0,182803:0:0:0:0:
109,192,182678,128,0,182803:0:0:0:0:
182,192,182803,1,0,0:0:0:0:
36,192,182928,1,0,0:0:0:0:
475,192,183053,128,0,183303:0:0:0:0:
329,192,183053,128,0,183303:0:0:0:0:
109,192,183053,128,0,183178:0:0:0:0:
182,192,183053,128,0,183178:0:0:0:0:
256,192,183303,1,0,0:0:0:0:
36,192,183303,1,0,0:0:0:0:
402,192,183303,128,0,183365:0:0:0:0:
402,192,183428,128,0,183490:0:0:0:0:
36,192,183553,1,0,0:0:0:0:
329,192,183553,128,0,183678:0:0:0:0:
475,192,183553,128,0,183678:0:0:0:0:
182,192,183553,128,0,183803:0:0:0:0:
109,192,183678,1,0,0:0:0:0:
475,192,183803,128,0,184303:0:0:0:0:
329,192,183803,128,0,184303:0:0:0:0:
36,192,183803,1,0,0:0:0:0:
256,192,183803,128,0,183928:0:0:0:0:
182,192,183928,128,0,184053:0:0:0:0:
109,192,184053,128,0,184178:0:0:0:0:
36,192,184053,128,0,184178:0:0:0:0:
182,192,184178,128,0,184303:0:0:0:0:
109,192,184303,128,0,185553:0:0:0:0:
36,192,184303,128,0,185553:0:0:0:0:
256,192,184303,128,0,184928:0:0:0:0:
402,192,184303,128,0,184428:0:0:0:0:
329,192,184428,128,0,184553:0:0:0:0:
182,192,184428,128,0,184553:0:0:0:0:
475,192,184553,128,0,184678:0:0:0:0:
402,192,184553,128,0,184678:0:0:0:0:
329,192,184678,128,0,184803:0:0:0:0:
182,192,184678,128,0,184803:0:0:0:0:
475,192,184803,128,0,184928:0:0:0:0:
402,192,184928,128,0,185053:0:0:0:0:
329,192,184928,128,0,185053:0:0:0:0:
182,192,185053,128,0,185178:0:0:0:0:
475,192,185053,128,0,185178:0:0:0:0:
402,192,185178,128,0,185303:0:0:0:0:
256,192,185178,128,0,185303:0:0:0:0:
329,192,185303,1,0,0:0:0:0:
329,192,185428,1,0,0:0:0:0:
256,192,185553,128,0,185803:0:0:0:0:
402,192,185553,128,0,185678:0:0:0:0:
182,192,185678,128,0,185803:0:0:0:0:
475,192,185678,128,0,185803:0:0:0:0:
109,192,185803,1,0,0:0:0:0:
36,192,185803,128,0,186053:0:0:0:0:
329,192,185803,128,0,186053:0:0:0:0:
402,192,185803,128,0,185928:0:0:0:0:
256,192,186053,1,0,0:0:0:0:
182,192,186053,128,0,186303:0:0:0:0:
402,192,186053,128,0,186178:0:0:0:0:
475,192,186303,128,0,187428:0:0:0:0:
402,192,186303,128,0,187053:0:0:0:0:
256,192,186303,128,0,186428:0:0:0:0:
109,192,186303,128,0,186428:0:0:0:0:
182,192,186428,128,0,186553:0:0:0:0:
36,192,186428,128,0,186553:0:0:0:0:
329,192,186553,128,0,186678:0:0:0:0:
256,192,186553,128,0,186678:0:0:0:0:
36,192,186678,128,0,186803:0:0:0:0:
109,192,186678,128,0,186803:0:0:0:0:
182,192,186803,128,0,186928:0:0:0:0:
329,192,186803,128,0,187053:0:0:0:0:
36,192,187053,128,0,187178:0:0:0:0:
256,192,187053,128,0,187178:0:0:0:0:
109,192,187178,128,0,187428:0:0:0:0:
329,192,187428,128,0,187553:0:0:0:0:
402,192,187428,128,0,187553:0:0:0:0:
36,192,187428,128,0,187553:0:0:0:0:
109,192,187553,128,0,187678:0:0:0:0:
256,192,187553,128,0,187678:0:0:0:0:
182,192,187678,128,0,187803:0:0:0:0:
329,192,187678,128,0,187803:0:0:0:0:
402,192,187803,128,0,188053:0:0:0:0:
475,192,187803,128,0,188303:0:0:0:0:
36,192,187803,128,0,187928:0:0:0:0:
256,192,187928,128,0,188053:0:0:0:0:
109,192,187928,128,0,188053:0:0:0:0:
182,192,188053,128,0,188178:0:0:0:0:
329,192,188178,128,0,188303:0:0:0:0:
109,192,188178,128,0,188303:0:0:0:0:
402,192,188303,1,0,0:0:0:0:
256,192,188303,1,0,0:0:0:0:
36,192,188303,128,0,188553:0:0:0:0:
182,192,188428,1,0,0:0:0:0:
402,192,188428,128,0,188553:0:0:0:0:
329,192,188553,128,0,188678:0:0:0:0:
182,192,188553,128,0,188678:0:0:0:0:
475,192,188678,128,0,188928:0:0:0:0:
36,192,188678,128,0,188803:0:0:0:0:
109,192,188678,128,0,188803:0:0:0:0:
402,192,188678,128,0,188803:0:0:0:0:
256,192,188803,1,0,0:0:0:0:
256,192,188928,128,0,189053:0:0:0:0:
36,192,189053,128,0,189178:0:0:0:0:
182,192,189053,128,0,189178:0:0:0:0:
329,192,189053,128,0,189178:0:0:0:0:
475,192,189053,128,0,189178:0:0:0:0:
402,192,189178,128,0,189553:0:0:0:0:
109,192,189178,128,0,189553:0:0:0:0:
256,192,189303,128,0,189803:0:0:0:0:
182,192,189553,1,0,0:0:0:0:
329,192,189553,1,0,0:0:0:0:
36,192,189678,1,0,0:0:0:0:
475,192,189678,128,0,190053:0:0:0:0:
109,192,189740,1,0,0:0:0:0:
182,192,189803,1,0,0:0:0:0:
329,192,189803,128,0,190053:0:0:0:0:
36,192,189928,1,0,0:0:0:0:
182,192,190053,1,0,0:0:0:0:
256,192,190053,128,0,190178:0:0:0:0:
475,192,190178,128,0,190303:0:0:0:0:
402,192,190178,128,0,190303:0:0:0:0:
36,192,190178,128,0,190303:0:0:0:0:
182,192,190303,128,0,190553:0:0:0:0:
109,192,190303,128,0,190553:0:0:0:0:
329,192,190303,128,0,190428:0:0:0:0:
256,192,190428,128,0,190553:0:0:0:0:
475,192,190428,128,0,190553:0:0:0:0:
329,192,190553,128,0,190678:0:0:0:0:
109,192,190678,128,0,190928:0:0:0:0:
36,192,190678,128,0,190928:0:0:0:0:
475,192,190678,128,0,190803:0:0:0:0:
402,192,190678,128,0,190803:0:0:0:0:
182,192,190678,128,0,190803:0:0:0:0:
256,192,190803,128,0,190928:0:0:0:0:
329,192,190928,128,0,191053:0:0:0:0:
402,192,190928,128,0,191053:0:0:0:0:
182,192,191053,128,0,191803:0:0:0:0:
109,192,191053,128,0,191803:0:0:0:0:
36,192,191053,128,0,192053:0:0:0:0:
475,192,191053,128,0,191803:0:0:0:0:
256,192,191303,128,0,191365:0:0:0:0:
402,192,191303,128,0,191365:0:0:0:0:
256,192,191428,128,0,191490:0:0:0:0:
402,192,191428,128,0,191490:0:0:0:0:
329,192,191553,1,0,0:0:0:0:
256,192,191678,128,0,191740:0:0:0:0:
402,192,191678,128,0,191740:0:0:0:0:
256,192,191803,128,0,191865:0:0:0:0:
402,192,191803,128,0,191865:0:0:0:0:
475,192,192053,128,0,192178:0:0:0:0:
329,192,192053,128,0,192178:0:0:0:0:
182,192,192053,128,0,192178:0:0:0:0:
402,192,192178,128,0,192303:0:0:0:0:
256,192,192178,128,0,192303:0:0:0:0:
109,192,192178,128,0,192303:0:0:0:0:
36,192,192303,128,0,192553:0:0:0:0:
182,192,192303,128,0,192553:0:0:0:0:
329,192,192303,128,0,192428:0:0:0:0:
475,192,192428,128,0,192553:0:0:0:0:
402,192,192428,128,0,192553:0:0:0:0:
256,192,192553,128,0,192803:0:0:0:0:
109,192,192553,128,0,192803:0:0:0:0:
329,192,192678,128,0,192803:0:0:0:0:
182,192,192678,128,0,192803:0:0:0:0:
475,192,192803,128,0,193178:0:0:0:0:
402,192,192803,128,0,193053:0:0:0:0:
182,192,193053,128,0,193178:0:0:0:0:
36,192,193053,128,0,193178:0:0:0:0:
109,192,193178,128,0,193553:0:0:0:0:
256,192,193178,128,0,193553:0:0:0:0:
329,192,193303,128,0,193553:0:0:0:0:
475,192,193553,128,0,194053:0:0:0:0:
402,192,193553,128,0,194053:0:0:0:0:
182,192,193553,128,0,193678:0:0:0:0:
36,192,193678,128,0,193803:0:0:0:0:
109,192,193678,128,0,193803:0:0:0:0:
329,192,193803,128,0,193928:0:0:0:0:
182,192,193803,128,0,193928:0:0:0:0:
109,192,193928,128,0,194053:0:0:0:0:
329,192,194053,128,0,194178:0:0:0:0:
182,192,194053,128,0,194178:0:0:0:0:
256,192,194178,128,0,194303:0:0:0:0:
402,192,194178,128,0,194303:0:0:0:0:
109,192,194303,128,0,194428:0:0:0:0:
36,192,194303,128,0,194553:0:0:0:0:
182,192,194303,128,0,194428:0:0:0:0:
329,192,194303,128,0,194428:0:0:0:0:
475,192,194303,128,0,194428:0:0:0:0:
256,192,194428,128,0,194553:0:0:0:0:
475,192,194553,128,0,194678:0:0:0:0:
402,192,194553,128,0,194678:0:0:0:0:
109,192,194553,128,0,194678:0:0:0:0:
329,192,194678,128,0,194803:0:0:0:0:
182,192,194678,128,0,194803:0:0:0:0:
402,192,194803,128,0,195053:0:0:0:0:
256,192,194803,128,0,195053:0:0:0:0:
36,192,194803,128,0,195053:0:0:0:0:
109,192,195053,128,0,195303:0:0:0:0:
182,192,195053,128,0,195303:0:0:0:0:
329,192,195178,128,0,195428:0:0:0:0:
475,192,195178,128,0,195428:0:0:0:0:
182,192,195428,128,0,195553:0:0:0:0:
109,192,195428,128,0,195553:0:0:0:0:
36,192,195428,1,0,0:0:0:0:
475,192,195553,128,0,195678:0:0:0:0:
329,192,195553,128,0,195678:0:0:0:0:
256,192,195553,1,0,0:0:0:0:
109,192,195678,128,0,195803:0:0:0:0:
36,192,195678,128,0,195803:0:0:0:0:
402,192,195803,128,0,196053:0:0:0:0:
256,192,195803,128,0,196053:0:0:0:0:
182,192,195803,128,0,195865:0:0:0:0:
36,192,195928,1,0,0:0:0:0:
475,192,196053,128,0,196303:0:0:0:0:
329,192,196053,128,0,196303:0:0:0:0:
182,192,196053,1,0,0:0:0:0:
109,192,196053,1,0,0:0:0:0:
256,192,196178,1,0,0:0:0:0:
109,192,196303,128,0,196553:0:0:0:0:
36,192,196303,128,0,196553:0:0:0:0:
402,192,196303,128,0,196678:0:0:0:0:
182,192,196303,128,0,196428:0:0:0:0:
329,192,196428,128,0,196678:0:0:0:0:
256,192,196553,128,0,196678:0:0:0:0:
109,192,196678,128,0,196928:0:0:0:0:
36,192,196678,128,0,196928:0:0:0:0:
475,192,196678,128,0,197053:0:0:0:0:
182,192,196678,128,0,196803:0:0:0:0:
329,192,196803,128,0,197053:0:0:0:0:
402,192,196928,128,0,197053:0:0:0:0:
109,192,197053,128,0,197303:0:0:0:0:
36,192,197053,128,0,197303:0:0:0:0:
182,192,197053,128,0,197178:0:0:0:0:
256,192,197115,1,0,0:0:0:0:
329,192,197178,1,0,0:0:0:0:
402,192,197240,1,0,0:0:0:0:
475,192,197303,1,0,0:0:0:0:
182,192,197303,1,0,0:0:0:0:
256,192,197490,128,0,197615:0:0:0:0:
329,192,197553,128,0,197678:0:0:0:0:
109,192,197553,1,0,0:0:0:0:
36,192,197553,1,0,0:0:0:0:
402,192,197615,128,0,197740:0:0:0:0:
182,192,197678,1,0,0:0:0:0:
475,192,197803,128,0,198053:0:0:0:0:
256,192,197803,128,0,198053:0:0:0:0:
36,192,197803,128,0,198303:0:0:0:0:
329,192,197928,128,0,198053:0:0:0:0:
109,192,198053,128,0,198303:0:0:0:0:
402,192,198053,128,0,198303:0:0:0:0:
329,192,198178,128,0,198303:0:0:0:0:
182,192,198303,128,0,198428:0:0:0:0:
256,192,198303,128,0,198553:0:0:0:0:
475,192,198303,128,0,198553:0:0:0:0:
329,192,198428,128,0,198553:0:0:0:0:
182,192,198553,128,0,198678:0:0:0:0:
475,192,198678,128,0,198928:0:0:0:0:
402,192,198678,128,0,198928:0:0:0:0:
36,192,198678,128,0,198803:0:0:0:0:
256,192,198678,128,0,198740:0:0:0:0:
109,192,198803,128,0,198928:0:0:0:0:
182,192,198928,128,0,199053:0:0:0:0:
475,192,199053,128,0,199303:0:0:0:0:
256,192,199053,1,0,0:0:0:0:
36,192,199053,128,0,199553:0:0:0:0:
329,192,199136,1,0,0:0:0:0:
402,192,199219,1,0,0:0:0:0:
182,192,199219,1,0,0:0:0:0:
109,192,199303,128,0,199553:0:0:0:0:
256,192,199428,128,0,199553:0:0:0:0:
329,192,199553,128,0,199803:0:0:0:0:
475,192,199553,128,0,199678:0:0:0:0:
182,192,199553,128,0,199803:0:0:0:0:
475,192,199803,128,0,200303:0:0:0:0:
402,192,199803,128,0,200303:0:0:0:0:
256,192,199803,128,0,200053:0:0:0:0:
36,192,199803,128,0,200053:0:0:0:0:
109,192,199928,128,0,200053:0:0:0:0:
182,192,200053,1,0,0:0:0:0:
182,192,200178,1,0,0:0:0:0:
109,192,200303,128,0,201303:0:0:0:0:
36,192,200303,128,0,201303:0:0:0:0:
329,192,200303,128,0,200428:0:0:0:0:
256,192,200303,128,0,200428:0:0:0:0:
402,192,200428,128,0,200553:0:0:0:0:
329,192,200553,128,0,200678:0:0:0:0:
182,192,200553,128,0,200678:0:0:0:0:
475,192,200678,128,0,200803:0:0:0:0:
402,192,200803,128,0,200928:0:0:0:0:
256,192,200803,128,0,200928:0:0:0:0:
182,192,200803,128,0,201053:0:0:0:0:
329,192,200928,1,0,0:0:0:0:
475,192,201053,128,0,201303:0:0:0:0:
402,192,201053,128,0,201303:0:0:0:0:
329,192,201178,128,0,201303:0:0:0:0:
256,192,201178,128,0,201303:0:0:0:0:
182,192,201303,128,0,201428:0:0:0:0:
109,192,201428,128,0,201553:0:0:0:0:
329,192,201428,128,0,201553:0:0:0:0:
36,192,201428,128,0,201553:0:0:0:0:
475,192,201553,128,0,201678:0:0:0:0:
256,192,201553,128,0,201678:0:0:0:0:
329,192,201678,128,0,201803:0:0:0:0:
36,192,201678,128,0,201803:0:0:0:0:
475,192,201803,1,0,0:0:0:0:
182,192,201803,128,0,202053:0:0:0:0:
109,192,201803,128,0,202053:0:0:0:0:
475,192,201928,128,0,202053:0:0:0:0:
36,192,202053,1,0,0:0:0:0:
256,192,202053,128,0,202303:0:0:0:0:
329,192,202053,128,0,202178:0:0:0:0:
36,192,202178,128,0,202303:0:0:0:0:
475,192,202303,128,0,203053:0:0:0:0:
329,192,202303,128,0,202553:0:0:0:0:
182,192,202303,128,0,202428:0:0:0:0:
109,192,202303,128,0,202428:0:0:0:0:
402,192,202303,128,0,203053:0:0:0:0:
36,192,202428,128,0,202553:0:0:0:0:
256,192,202553,128,0,202678:0:0:0:0:
109,192,202553,128,0,202678:0:0:0:0:
182,192,202678,128,0,202803:0:0:0:0:
256,192,202803,128,0,202928:0:0:0:0:
36,192,202803,128,0,202928:0:0:0:0:
109,192,202928,128,0,203053:0:0:0:0:
329,192,203053,128,0,203178:0:0:0:0:
182,192,203053,128,0,203178:0:0:0:0:
36,192,203178,128,0,203428:0:0:0:0:
109,192,203178,128,0,203428:0:0:0:0:
402,192,203178,128,0,203303:0:0:0:0:
256,192,203303,128,0,203428:0:0:0:0:
402,192,203428,128,0,203553:0:0:0:0:
182,192,203553,128,0,203803:0:0:0:0:
36,192,203553,128,0,204053:0:0:0:0:
329,192,203678,128,0,203803:0:0:0:0:
475,192,203678,128,0,203803:0:0:0:0:
402,192,203803,1,0,0:0:0:0:
256,192,203803,1,0,0:0:0:0:
109,192,203803,128,0,204053:0:0:0:0:
329,192,203928,128,0,204053:0:0:0:0:
182,192,204053,128,0,204303:0:0:0:0:
475,192,204053,128,0,204178:0:0:0:0:
402,192,204178,128,0,204303:0:0:0:0:
256,192,204178,128,0,204303:0:0:0:0:
36,192,204303,128,0,204678:0:0:0:0:
109,192,204303,128,0,204428:0:0:0:0:
329,192,204303,128,0,204428:0:0:0:0:
475,192,204303,128,0,204428:0:0:0:0:
182,192,204428,128,0,204678:0:0:0:0:
256,192,204553,128,0,204678:0:0:0:0:
329,192,204553,1,0,0:0:0:0:
475,192,204678,128,0,205053:0:0:0:0:
402,192,204678,128,0,205053:0:0:0:0:
109,192,204678,128,0,204803:0:0:0:0:
329,192,204803,128,0,205053:0:0:0:0:
182,192,204803,1,0,0:0:0:0:
36,192,204928,128,0,205303:0:0:0:0:
109,192,205053,128,0,205303:0:0:0:0:
182,192,205053,128,0,205303:0:0:0:0:
256,192,205053,128,0,205178:0:0:0:0:
329,192,205136,1,0,0:0:0:0:
402,192,205219,1,0,0:0:0:0:
475,192,205303,1,0,0:0:0:0:
256,192,205428,1,0,0:0:0:0:
329,192,205490,1,0,0:0:0:0:
402,192,205553,1,0,0:0:0:0:
475,192,205615,1,0,0:0:0:0:
256,192,205678,1,0,0:0:0:0:
182,192,205740,1,0,0:0:0:0:
36,192,205803,128,0,206303:0:0:0:0:
402,192,205803,128,0,206303:0:0:0:0:
329,192,205803,128,0,205928:0:0:0:0:
109,192,205803,128,0,206053:0:0:0:0:
256,192,205928,128,0,206053:0:0:0:0:
182,192,206053,128,0,206178:0:0:0:0:
329,192,206053,128,0,206178:0:0:0:0:
109,192,206178,128,0,206303:0:0:0:0:
256,192,206178,128,0,206303:0:0:0:0:
475,192,206303,128,0,206803:0:0:0:0:
182,192,206303,128,0,206678:0:0:0:0:
256,192,206428,1,0,0:0:0:0:
256,192,206553,128,0,206615:0:0:0:0:
329,192,206553,128,0,206615:0:0:0:0:
36,192,206678,128,0,207053:0:0:0:0:
109,192,206678,128,0,207053:0:0:0:0:
402,192,206678,128,0,206803:0:0:0:0:
329,192,206803,128,0,207053:0:0:0:0:
256,192,206928,1,0,0:0:0:0:
182,192,207053,128,0,208303:0:0:0:0:
475,192,207053,128,0,208303:0:0:0:0:
402,192,207053,128,0,208303:0:0:0:0:
36,192,207303,128,0,207365:0:0:0:0:
329,192,207303,128,0,207365:0:0:0:0:
36,192,207428,128,0,207490:0:0:0:0:
329,192,207428,128,0,207490:0:0:0:0:
256,192,207553,1,0,0:0:0:0:
36,192,207678,128,0,207740:0:0:0:0:
329,192,207678,128,0,207740:0:0:0:0:
36,192,207803,128,0,207865:0:0:0:0:
329,192,207803,128,0,207865:0:0:0:0:
36,192,208053,128,0,208303:0:0:0:0:
109,192,208178,128,0,208303:0:0:0:0:
329,192,208303,128,0,208553:0:0:0:0:
256,192,208303,128,0,208428:0:0:0:0:
182,192,208428,128,0,208490:0:0:0:0:
182,192,208553,128,0,208615:0:0:0:0:
329,192,208678,128,0,208928:0:0:0:0:
256,192,208678,128,0,208803:0:0:0:0:
182,192,208803,128,0,208865:0:0:0:0:
182,192,208928,128,0,208990:0:0:0:0:
329,192,209053,128,0,209803:0:0:0:0:
402,192,209053,1,0,0:0:0:0:
36,192,209053,128,0,209303:0:0:0:0:
109,192,209053,128,0,209553:0:0:0:0:
256,192,209053,128,0,209803:0:0:0:0:
402,192,209803,128,0,210053:0:0:0:0:
182,192,209803,128,0,210053:0:0:0:0:
36,192,209803,128,0,210053:0:0:0:0:
475,192,210053,128,0,210303:0:0:0:0:
109,192,210053,128,0,210303:0:0:0:0:
256,192,210053,128,0,210303:0:0:0:0:
402,192,210303,1,0,0:0:0:0:
329,192,210303,128,0,210365:0:0:0:0:
182,192,210303,128,0,210553:0:0:0:0:
36,192,210303,128,0,210553:0:0:0:0:
329,192,210428,128,0,210490:0:0:0:0:
329,192,210553,128,0,210615:0:0:0:0:
475,192,210553,128,0,210615:0:0:0:0:
182,192,210678,1,0,0:0:0:0:
36,192,210678,128,0,211053:0:0:0:0:
256,192,210803,1,0,0:0:0:0:
182,192,210928,1,0,0:0:0:0:
256,192,211053,128,0,211803:0:0:0:0:
109,192,211053,128,0,211303:0:0:0:0:
402,192,211053,128,0,211303:0:0:0:0:
182,192,211303,128,0,211553:0:0:0:0:
329,192,211303,128,0,211365:0:0:0:0:
329,192,211428,128,0,211490:0:0:0:0:
475,192,211553,128,0,212053:0:0:0:0:
402,192,211678,128,0,212053:0:0:0:0:
329,192,211803,128,0,212303:0:0:0:0:
36,192,211803,128,0,214303:0:0:0:0:
109,192,211803,128,0,212303:0:0:0:0:
256,192,212053,128,0,212303:0:0:0:0:
182,192,212053,128,0,212303:0:0:0:0:
402,192,212303,128,0,212553:0:0:0:0:
475,192,212303,128,0,212553:0:0:0:0:
256,192,212553,1,0,0:0:0:0:
329,192,212553,128,0,212678:0:0:0:0:
402,192,212678,128,0,212928:0:0:0:0:
475,192,212678,128,0,212928:0:0:0:0:
182,192,212678,128,0,212803:0:0:0:0:
256,192,212928,1,0,0:0:0:0:
329,192,212928,128,0,213053:0:0:0:0:
402,192,213053,128,0,213115:0:0:0:0:
475,192,213053,128,0,213115:0:0:0:0:
182,192,213053,128,0,213178:0:0:0:0:
402,192,213178,128,0,213240:0:0:0:0:
475,192,213178,128,0,213240:0:0:0:0:
109,192,213303,1,0,0:0:0:0:
256,192,213303,1,0,0:0:0:0:
329,192,213303,128,0,213553:0:0:0:0:
182,192,213428,1,0,0:0:0:0:
256,192,213553,1,0,0:0:0:0:
109,192,213553,1,0,0:0:0:0:
475,192,213553,128,0,213803:0:0:0:0:
329,192,213678,1,0,0:0:0:0:
182,192,213678,1,0,0:0:0:0:
109,192,213740,1,0,0:0:0:0:
256,192,213803,128,0,213865:0:0:0:0:
402,192,213803,128,0,213865:0:0:0:0:
256,192,213928,128,0,213990:0:0:0:0:
402,192,213928,128,0,213990:0:0:0:0:
182,192,214053,128,0,214115:0:0:0:0:
109,192,214053,128,0,214115:0:0:0:0:
109,192,214178,128,0,214240:0:0:0:0:
182,192,214178,128,0,214240:0:0:0:0:
329,192,214303,128,0,214803:0:0:0:0:
256,192,214303,128,0,214428:0:0:0:0:
475,192,214303,128,0,214553:0:0:0:0:
36,192,214553,128,0,214615:0:0:0:0:
256,192,214553,128,0,214678:0:0:0:0:
109,192,214615,128,0,214678:0:0:0:0:
182,192,214678,128,0,214740:0:0:0:0:
109,192,214740,128,0,214803:0:0:0:0:
475,192,214803,128,0,215053:0:0:0:0:
36,192,214803,128,0,214865:0:0:0:0:
402,192,214803,128,0,214928:0:0:0:0:
256,192,215053,128,0,215178:0:0:0:0:
402,192,215053,128,0,215303:0:0:0:0:
36,192,215053,128,0,215303:0:0:0:0:
329,192,215178,128,0,215303:0:0:0:0:
182,192,215178,128,0,215303:0:0:0:0:
109,192,215303,128,0,215553:0:0:0:0:
256,192,215303,128,0,215553:0:0:0:0:
475,192,215553,1,0,0:0:0:0:
36,192,215553,1,0,0:0:0:0:
402,192,215553,128,0,215678:0:0:0:0:
182,192,215678,1,0,0:0:0:0:
329,192,215678,128,0,215803:0:0:0:0:
475,192,215803,1,0,0:0:0:0:
256,192,215803,128,0,215928:0:0:0:0:
109,192,215803,128,0,215928:0:0:0:0:
329,192,215928,128,0,216178:0:0:0:0:
402,192,215928,128,0,216178:0:0:0:0:
256,192,216178,128,0,216303:0:0:0:0:
36,192,216178,128,0,216303:0:0:0:0:
475,192,216303,128,0,216803:0:0:0:0:
109,192,216303,128,0,216428:0:0:0:0:
182,192,216303,128,0,216428:0:0:0:0:
402,192,216303,128,0,216428:0:0:0:0:
109,192,216553,128,0,216678:0:0:0:0:
256,192,216553,128,0,216678:0:0:0:0:
402,192,216553,128,0,216678:0:0:0:0:
36,192,216803,128,0,217303:0:0:0:0:
109,192,216803,128,0,217303:0:0:0:0:
256,192,216803,128,0,216928:0:0:0:0:
402,192,216803,128,0,216928:0:0:0:0:
182,192,216928,128,0,217303:0:0:0:0:
329,192,216928,128,0,217178:0:0:0:0:
402,192,217178,128,0,217428:0:0:0:0:
256,192,217303,128,0,217553:0:0:0:0:
475,192,217428,128,0,217803:0:0:0:0:
36,192,217553,128,0,217803:0:0:0:0:
109,192,217678,128,0,217803:0:0:0:0:
256,192,217678,128,0,217803:0:0:0:0:
402,192,217803,128,0,218053:0:0:0:0:
329,192,217803,128,0,218053:0:0:0:0:
182,192,217928,128,0,218053:0:0:0:0:
109,192,218053,128,0,218303:0:0:0:0:
36,192,218053,128,0,218303:0:0:0:0:
329,192,218178,128,0,218303:0:0:0:0:
402,192,218303,128,0,218553:0:0:0:0:
475,192,218303,128,0,220303:0:0:0:0:
256,192,218303,128,0,218553:0:0:0:0:
36,192,218553,128,0,219803:0:0:0:0:
182,192,218553,128,0,218803:0:0:0:0:
329,192,218553,128,0,218803:0:0:0:0:
109,192,218553,1,0,0:0:0:0:
402,192,218803,128,0,218928:0:0:0:0:
256,192,218803,128,0,218928:0:0:0:0:
329,192,218928,128,0,219053:0:0:0:0:
109,192,218928,128,0,219053:0:0:0:0:
182,192,219053,128,0,219178:0:0:0:0:
329,192,219178,128,0,219303:0:0:0:0:
402,192,219178,128,0,219303:0:0:0:0:
256,192,219303,128,0,219428:0:0:0:0:
109,192,219303,128,0,219428:0:0:0:0:
182,192,219428,128,0,219553:0:0:0:0:
402,192,219428,128,0,219553:0:0:0:0:
329,192,219553,128,0,219678:0:0:0:0:
109,192,219553,128,0,219678:0:0:0:0:
256,192,219678,128,0,219803:0:0:0:0:
402,192,219678,128,0,220053:0:0:0:0:
182,192,219803,128,0,220053:0:0:0:0:
36,192,220053,128,0,220303:0:0:0:0:
329,192,220053,128,0,220303:0:0:0:0:
109,192,220178,128,0,220303:0:0:0:0:
402,192,220303,1,0,0:0:0:0:
256,192,220303,1,0,0:0:0:0:
182,192,220303,128,0,220553:0:0:0:0:
109,192,220428,1,0,0:0:0:0:
329,192,220428,128,0,220490:0:0:0:0:
329,192,220553,128,0,220615:0:0:0:0:
402,192,220553,128,0,220615:0:0:0:0:
36,192,220678,1,0,0:0:0:0:
475,192,220678,1,0,0:0:0:0:
182,192,220678,128,0,220803:0:0:0:0:
256,192,220803,128,0,220865:0:0:0:0:
256,192,220928,128,0,220990:0:0:0:0:
182,192,220928,128,0,220990:0:0:0:0:
109,192,221053,128,0,221553:0:0:0:0:
36,192,221053,128,0,221553:0:0:0:0:
475,192,221053,128,0,221115:0:0:0:0:
329,192,221053,128,0,221115:0:0:0:0:
182,192,221178,128,0,221553:0:0:0:0:
402,192,221178,128,0,221240:0:0:0:0:
475,192,221178,128,0,221240:0:0:0:0:
256,192,221303,128,0,221553:0:0:0:0:
475,192,221428,128,0,221490:0:0:0:0:
475,192,221553,128,0,221615:0:0:0:0:
329,192,221553,128,0,221615:0:0:0:0:
182,192,221678,128,0,221740:0:0:0:0:
402,192,221740,1,0,0:0:0:0:
36,192,221803,1,0,0:0:0:0:
182,192,221803,128,0,221865:0:0:0:0:
329,192,221803,128,0,221928:0:0:0:0:
256,192,221928,1,0,0:0:0:0:
36,192,222053,1,0,0:0:0:0:
329,192,222053,128,0,222178:0:0:0:0:
109,192,222053,128,0,222303:0:0:0:0:
182,192,222178,128,0,222428:0:0:0:0:
36,192,222303,128,0,222803:0:0:0:0:
329,192,222303,128,0,222428:0:0:0:0:
475,192,222303,128,0,222428:0:0:0:0:
256,192,222553,128,0,222803:0:0:0:0:
402,192,222553,128,0,222615:0:0:0:0:
182,192,222678,1,0,0:0:0:0:
329,192,222803,128,0,222928:0:0:0:0:
475,192,222803,128,0,222928:0:0:0:0:
475,192,223053,128,0,223803:0:0:0:0:
182,192,223053,128,0,223428:0:0:0:0:
36,192,223053,128,0,223303:0:0:0:0:
402,192,223053,128,0,223178:0:0:0:0:
329,192,223053,128,0,223178:0:0:0:0:
256,192,223178,128,0,223303:0:0:0:0:
109,192,223303,128,0,223428:0:0:0:0:
402,192,223303,128,0,223553:0:0:0:0:
329,192,223428,128,0,223553:0:0:0:0:
36,192,223553,128,0,223678:0:0:0:0:
182,192,223553,128,0,223678:0:0:0:0:
256,192,223678,128,0,223803:0:0:0:0:
402,192,223803,1,0,0:0:0:0:
329,192,223803,1,0,0:0:0:0:
109,192,223803,128,0,223969:0:0:0:0:
182,192,223886,128,0,224053:0:0:0:0:
329,192,223969,128,0,224136:0:0:0:0:
36,192,224053,1,0,0:0:0:0:
402,192,224053,128,0,224219:0:0:0:0:
109,192,224136,1,0,0:0:0:0:
182,192,224219,1,0,0:0:0:0:
475,192,224303,1,0,0:0:0:0:
329,192,224303,1,0,0:0:0:0:
36,192,224303,128,0,224428:0:0:0:0:
109,192,224303,128,0,224428:0:0:0:0:
256,192,224303,128,0,224428:0:0:0:0:
475,192,224428,1,0,0:0:0:0:
329,192,224428,1,0,0:0:0:0:
36,192,224553,128,0,224803:0:0:0:0:
182,192,224553,1,0,0:0:0:0:
402,192,224553,1,0,0:0:0:0:
256,192,224678,128,0,224803:0:0:0:0:
109,192,224678,128,0,224803:0:0:0:0:
402,192,224678,128,0,224803:0:0:0:0:
475,192,224803,128,0,225053:0:0:0:0:
329,192,224803,128,0,225053:0:0:0:0:
182,192,225053,128,0,225303:0:0:0:0:
36,192,225053,128,0,225303:0:0:0:0:
402,192,225053,128,0,225178:0:0:0:0:
256,192,225178,128,0,225303:0:0:0:0:
475,192,225303,128,0,225803:0:0:0:0:
109,192,225303,128,0,225803:0:0:0:0:
256,192,225553,128,0,225678:0:0:0:0:
182,192,225553,128,0,225678:0:0:0:0:
402,192,225678,128,0,225803:0:0:0:0:
329,192,225678,128,0,225803:0:0:0:0:
182,192,225803,128,0,226053:0:0:0:0:
36,192,225803,128,0,226053:0:0:0:0:
256,192,225928,1,0,0:0:0:0:
329,192,225928,128,0,226053:0:0:0:0:
475,192,226053,128,0,226303:0:0:0:0:
402,192,226053,128,0,226303:0:0:0:0:
256,192,226178,1,0,0:0:0:0:
182,192,226178,128,0,226303:0:0:0:0:
36,192,226303,128,0,226803:0:0:0:0:
109,192,226303,128,0,226553:0:0:0:0:
329,192,226303,128,0,226428:0:0:0:0:
256,192,226428,128,0,226553:0:0:0:0:
182,192,226428,128,0,226553:0:0:0:0:
402,192,226553,128,0,226678:0:0:0:0:
256,192,226678,128,0,226803:0:0:0:0:
329,192,226678,128,0,226803:0:0:0:0:
475,192,226803,128,0,227303:0:0:0:0:
109,192,226803,128,0,227303:0:0:0:0:
402,192,226803,128,0,227053:0:0:0:0:
256,192,227053,128,0,227303:0:0:0:0:
329,192,227053,128,0,227303:0:0:0:0:
402,192,227303,128,0,227428:0:0:0:0:
182,192,227303,128,0,227428:0:0:0:0:
36,192,227303,128,0,227428:0:0:0:0:
36,192,227553,128,0,227678:0:0:0:0:
182,192,227553,128,0,227678:0:0:0:0:
329,192,227553,128,0,227678:0:0:0:0:
256,192,227678,128,0,227803:0:0:0:0:
402,192,227678,128,0,227803:0:0:0:0:
475,192,227803,128,0,227928:0:0:0:0:
329,192,227803,128,0,227928:0:0:0:0:
182,192,227803,128,0,227928:0:0:0:0:
402,192,227928,128,0,228053:0:0:0:0:
256,192,227928,128,0,228053:0:0:0:0:
109,192,227928,128,0,228053:0:0:0:0:
182,192,228053,128,0,228178:0:0:0:0:
36,192,228053,128,0,228178:0:0:0:0:
329,192,228178,128,0,228303:0:0:0:0:
36,192,228303,128,0,228678:0:0:0:0:
109,192,228303,128,0,228428:0:0:0:0:
475,192,228303,128,0,228428:0:0:0:0:
402,192,228428,1,0,0:0:0:0:
256,192,228428,1,0,0:0:0:0:
256,192,228553,128,0,228678:0:0:0:0:
402,192,228553,128,0,228678:0:0:0:0:
182,192,228678,128,0,229053:0:0:0:0:
109,192,228678,128,0,229053:0:0:0:0:
329,192,228678,128,0,228803:0:0:0:0:
402,192,228803,1,0,0:0:0:0:
402,192,228928,128,0,229053:0:0:0:0:
475,192,229053,128,0,229303:0:0:0:0:
256,192,229053,128,0,229303:0:0:0:0:
36,192,229053,128,0,229178:0:0:0:0:
109,192,229178,1,0,0:0:0:0:
329,192,229240,1,0,0:0:0:0:
182,192,229303,1,0,0:0:0:0:
36,192,229303,1,0,0:0:0:0:
402,192,229303,1,0,0:0:0:0:
109,192,229428,1,0,0:0:0:0:
256,192,229428,128,0,229553:0:0:0:0:
36,192,229553,1,0,0:0:0:0:
475,192,229553,128,0,229678:0:0:0:0:
329,192,229678,128,0,229803:0:0:0:0:
182,192,229678,128,0,229803:0:0:0:0:
109,192,229803,1,0,0:0:0:0:
36,192,229803,1,0,0:0:0:0:
402,192,229803,1,0,0:0:0:0:
475,192,229928,1,0,0:0:0:0:
256,192,229928,1,0,0:0:0:0:
36,192,230053,1,0,0:0:0:0:
329,192,230053,128,0,230303:0:0:0:0:
182,192,230053,128,0,230303:0:0:0:0:
256,192,230178,128,0,230303:0:0:0:0:
36,192,230303,128,0,230803:0:0:0:0:
475,192,230303,128,0,230803:0:0:0:0:
109,192,230303,128,0,230428:0:0:0:0:
402,192,230303,128,0,230428:0:0:0:0:
402,192,230553,1,0,0:0:0:0:
182,192,230553,1,0,0:0:0:0:
329,192,230678,128,0,230803:0:0:0:0:
256,192,230678,128,0,230803:0:0:0:0:
182,192,230803,1,0,0:0:0:0:
109,192,230803,1,0,0:0:0:0:
182,192,231053,128,0,231303:0:0:0:0:
402,192,231053,128,0,231303:0:0:0:0:
36,192,231053,128,0,231178:0:0:0:0:
256,192,231053,128,0,231178:0:0:0:0:
109,192,231303,1,0,0:0:0:0:
36,192,231303,1,0,0:0:0:0:
329,192,231303,1,0,0:0:0:0:
402,192,231428,1,0,0:0:0:0:
256,192,231428,1,0,0:0:0:0:
36,192,231553,1,0,0:0:0:0:
329,192,231553,128,0,231803:0:0:0:0:
182,192,231553,128,0,231803:0:0:0:0:
402,192,231678,128,0,231928:0:0:0:0:
256,192,231678,128,0,231928:0:0:0:0:
475,192,231803,128,0,232053:0:0:0:0:
109,192,231803,128,0,232053:0:0:0:0:
36,192,231803,128,0,232053:0:0:0:0:
182,192,231928,1,0,0:0:0:0:
402,192,232053,1,0,0:0:0:0:
329,192,232053,1,0,0:0:0:0:
256,192,232053,128,0,232303:0:0:0:0:
36,192,232178,128,0,232303:0:0:0:0:
109,192,232240,128,0,232303:0:0:0:0:
329,192,232303,128,0,232553:0:0:0:0:
182,192,232303,128,0,232428:0:0:0:0:
402,192,232303,128,0,232428:0:0:0:0:
256,192,232553,128,0,232803:0:0:0:0:
402,192,232553,128,0,232678:0:0:0:0:
109,192,232678,1,0,0:0:0:0:
402,192,232803,128,0,233053:0:0:0:0:
182,192,232803,1,0,0:0:0:0:
109,192,232803,128,0,233053:0:0:0:0:
36,192,233053,128,0,233303:0:0:0:0:
182,192,233053,128,0,233178:0:0:0:0:
329,192,233053,128,0,233178:0:0:0:0:
256,192,233240,1,0,0:0:0:0:
329,192,233303,128,0,233428:0:0:0:0:
402,192,233303,128,0,233428:0:0:0:0:
329,192,233553,128,0,233678:0:0:0:0:
475,192,233553,128,0,233678:0:0:0:0:
182,192,233553,128,0,233678:0:0:0:0:
109,192,233678,128,0,233803:0:0:0:0:
256,192,233678,128,0,233803:0:0:0:0:
36,192,233803,1,0,0:0:0:0:
329,192,233803,128,0,234053:0:0:0:0:
402,192,233803,128,0,233928:0:0:0:0:
182,192,233928,128,0,234178:0:0:0:0:
256,192,233928,128,0,234053:0:0:0:0:
402,192,234053,1,0,0:0:0:0:
36,192,234053,128,0,234178:0:0:0:0:
109,192,234053,128,0,234178:0:0:0:0:
329,192,234178,128,0,234303:0:0:0:0:
256,192,234178,128,0,234303:0:0:0:0:
475,192,234303,128,0,234553:0:0:0:0:
402,192,234303,128,0,234553:0:0:0:0:
36,192,234303,128,0,234428:0:0:0:0:
182,192,234303,128,0,234428:0:0:0:0:
256,192,234553,1,0,0:0:0:0:
109,192,234553,1,0,0:0:0:0:
182,192,234678,1,0,0:0:0:0:
36,192,234678,1,0,0:0:0:0:
256,192,234803,1,0,0:0:0:0:
109,192,234803,1,0,0:0:0:0:
329,192,234803,128,0,235053:0:0:0:0:
475,192,235053,1,0,0:0:0:0:
182,192,235053,128,0,235303:0:0:0:0:
36,192,235053,128,0,235553:0:0:0:0:
329,192,235303,1,0,0:0:0:0:
256,192,235553,128,0,235615:0:0:0:0:
475,192,235553,128,0,235615:0:0:0:0:
109,192,235553,128,0,235803:0:0:0:0:
256,192,235678,128,0,235740:0:0:0:0:
475,192,235678,128,0,235740:0:0:0:0:
36,192,235803,128,0,235865:0:0:0:0:
182,192,235803,128,0,236053:0:0:0:0:
329,192,235803,128,0,236053:0:0:0:0:
36,192,235928,128,0,235990:0:0:0:0:
109,192,236053,128,0,236303:0:0:0:0:
256,192,236053,128,0,236303:0:0:0:0:
402,192,236053,128,0,236303:0:0:0:0:
182,192,236303,128,0,236428:0:0:0:0:
329,192,236303,128,0,236428:0:0:0:0:
475,192,236303,128,0,236428:0:0:0:0:
256,192,236490,128,0,237053:0:0:0:0:
402,192,236553,128,0,237053:0:0:0:0:
36,192,236553,1,0,0:0:0:0:
475,192,236615,128,0,237178:0:0:0:0:
182,192,236678,128,0,236803:0:0:0:0:
109,192,236803,1,0,0:0:0:0:
36,192,236803,1,0,0:0:0:0:
36,192,237053,128,0,237178:0:0:0:0:
109,192,237053,128,0,237178:0:0:0:0:
329,192,237053,128,0,237178:0:0:0:0:
402,192,237178,1,0,0:0:0:0:
256,192,237178,1,0,0:0:0:0:
182,192,237178,1,0,0:0:0:0:
329,192,237303,1,0,0:0:0:0:
109,192,237428,1,0,0:0:0:0:
182,192,237553,128,0,237615:0:0:0:0:
329,192,237615,128,0,237678:0:0:0:0:
109,192,237678,128,0,237740:0:0:0:0:
329,192,237740,128,0,237803:0:0:0:0:
36,192,237803,128,0,238053:0:0:0:0:
182,192,237803,128,0,237928:0:0:0:0:
256,192,237803,128,0,237928:0:0:0:0:
402,192,237803,128,0,237928:0:0:0:0:
475,192,237803,128,0,237928:0:0:0:0:
109,192,238053,1,0,0:0:0:0:
329,192,238053,128,0,238115:0:0:0:0:
475,192,238053,128,0,238115:0:0:0:0:
329,192,238178,128,0,238240:0:0:0:0:
475,192,238178,128,0,238240:0:0:0:0:
36,192,238303,128,0,238678:0:0:0:0:
182,192,238303,128,0,238428:0:0:0:0:
256,192,238303,128,0,238428:0:0:0:0:
402,192,238303,128,0,238428:0:0:0:0:
329,192,238553,1,0,0:0:0:0:
475,192,238553,1,0,0:0:0:0:
109,192,238678,128,0,238803:0:0:0:0:
182,192,238678,128,0,238803:0:0:0:0:
402,192,238803,1,0,0:0:0:0:
256,192,238803,128,0,239053:0:0:0:0:
402,192,239053,128,0,239303:0:0:0:0:
36,192,239053,128,0,239178:0:0:0:0:
182,192,239053,128,0,239178:0:0:0:0:
329,192,239053,128,0,239178:0:0:0:0:
182,192,239303,1,0,0:0:0:0:
36,192,239303,1,0,0:0:0:0:
329,192,239365,1,0,0:0:0:0:
182,192,239428,1,0,0:0:0:0:
402,192,239490,1,0,0:0:0:0:
256,192,239553,1,0,0:0:0:0:
36,192,239553,128,0,240303:0:0:0:0:
329,192,239636,1,0,0:0:0:0:
182,192,239719,1,0,0:0:0:0:
256,192,239803,1,0,0:0:0:0:
475,192,239803,128,0,240178:0:0:0:0:
402,192,239928,1,0,0:0:0:0:
329,192,240053,1,0,0:0:0:0:
182,192,240053,1,0,0:0:0:0:
329,192,240178,1,0,0:0:0:0:
256,192,240303,128,0,240803:0:0:0:0:
475,192,240303,128,0,240803:0:0:0:0:
182,192,240303,128,0,240428:0:0:0:0:
109,192,240303,128,0,240428:0:0:0:0:
402,192,240303,128,0,240803:0:0:0:0:
36,192,240428,128,0,240553:0:0:0:0:
182,192,240553,128,0,240678:0:0:0:0:
329,192,240553,128,0,240678:0:0:0:0:
109,192,240678,128,0,240803:0:0:0:0:
182,192,240803,128,0,241053:0:0:0:0:
329,192,240803,128,0,241053:0:0:0:0:
36,192,240928,128,0,241053:0:0:0:0:
256,192,241053,128,0,241178:0:0:0:0:
109,192,241053,128,0,241178:0:0:0:0:
402,192,241053,128,0,241178:0:0:0:0:
475,192,241178,128,0,241553:0:0:0:0:
329,192,241178,128,0,241553:0:0:0:0:
182,192,241178,1,0,0:0:0:0:
182,192,241428,128,0,241553:0:0:0:0:
109,192,241553,128,0,241969:0:0:0:0:
36,192,241553,128,0,242053:0:0:0:0:
256,192,241553,128,0,241803:0:0:0:0:
402,192,241678,128,0,241803:0:0:0:0:
182,192,241803,128,0,241886:0:0:0:0:
329,192,241803,128,0,241928:0:0:0:0:
256,192,241886,128,0,241969:0:0:0:0:
402,192,241928,128,0,242053:0:0:0:0:
182,192,241969,128,0,242053:0:0:0:0:
109,192,242053,128,0,242136:0:0:0:0:
475,192,242053,128,0,242178:0:0:0:0:
36,192,242136,128,0,242303:0:0:0:0:
402,192,242178,128,0,242303:0:0:0:0:
109,192,242219,128,0,242303:0:0:0:0:
329,192,242303,128,0,242428:0:0:0:0:
256,192,242303,1,0,0:0:0:0:
475,192,242303,128,0,242428:0:0:0:0:
182,192,242303,128,0,242428:0:0:0:0:
109,192,242428,128,0,242553:0:0:0:0:
36,192,242428,128,0,242553:0:0:0:0:
475,192,242553,128,0,242678:0:0:0:0:
329,192,242553,128,0,242678:0:0:0:0:
256,192,242553,1,0,0:0:0:0:
182,192,242553,128,0,242678:0:0:0:0:
36,192,242678,128,0,243053:0:0:0:0:
475,192,242803,128,0,242928:0:0:0:0:
329,192,242803,128,0,242928:0:0:0:0:
256,192,242803,1,0,0:0:0:0:
182,192,242803,128,0,243053:0:0:0:0:
256,192,243053,128,0,243178:0:0:0:0:
402,192,243053,128,0,243428:0:0:0:0:
475,192,243053,128,0,243428:0:0:0:0:
329,192,243178,128,0,243428:0:0:0:0:
182,192,243178,128,0,243428:0:0:0:0:
256,192,243428,128,0,243553:0:0:0:0:
109,192,243428,128,0,243553:0:0:0:0:
329,192,243553,128,0,243678:0:0:0:0:
182,192,243553,128,0,243678:0:0:0:0:
402,192,243678,128,0,243803:0:0:0:0:
256,192,243678,128,0,243803:0:0:0:0:
109,192,243678,128,0,243803:0:0:0:0:
329,192,243803,128,0,243928:0:0:0:0:
182,192,243803,128,0,243928:0:0:0:0:
36,192,243803,128,0,244178:0:0:0:0:
475,192,243803,128,0,244303:0:0:0:0:
256,192,244053,128,0,244303:0:0:0:0:
109,192,244053,128,0,244178:0:0:0:0:
402,192,244053,128,0,244303:0:0:0:0:
329,192,244303,1,0,0:0:0:0:
109,192,244303,1,0,0:0:0:0:
182,192,244303,128,0,244678:0:0:0:0:
36,192,244303,128,0,244678:0:0:0:0:
402,192,244428,1,0,0:0:0:0:
402,192,244553,1,0,0:0:0:0:
475,192,244678,128,0,245053:0:0:0:0:
329,192,244678,128,0,245053:0:0:0:0:
109,192,244678,1,0,0:0:0:0:
256,192,244678,1,0,0:0:0:0:
182,192,244803,1,0,0:0:0:0:
182,192,244928,1,0,0:0:0:0:
109,192,245053,128,0,245303:0:0:0:0:
36,192,245053,128,0,245303:0:0:0:0:
402,192,245053,1,0,0:0:0:0:
256,192,245053,1,0,0:0:0:0:
182,192,245115,1,0,0:0:0:0:
329,192,245136,1,0,0:0:0:0:
402,192,245219,1,0,0:0:0:0:
256,192,245240,1,0,0:0:0:0:
475,192,245303,128,0,246303:0:0:0:0:
182,192,245428,1,0,0:0:0:0:
329,192,245469,1,0,0:0:0:0:
109,192,245490,1,0,0:0:0:0:
402,192,245553,128,0,246303:0:0:0:0:
256,192,245553,1,0,0:0:0:0:
36,192,245615,1,0,0:0:0:0:
182,192,245636,1,0,0:0:0:0:
109,192,245719,1,0,0:0:0:0:
256,192,245803,1,0,0:0:0:0:
182,192,245803,1,0,0:0:0:0:
329,192,245928,128,0,246303:0:0:0:0:
36,192,245928,128,0,246053:0:0:0:0:
109,192,245928,128,0,246053:0:0:0:0:
256,192,245990,128,0,246115:0:0:0:0:
182,192,246053,128,0,246178:0:0:0:0:
36,192,246178,128,0,246303:0:0:0:0:
256,192,246303,128,0,246428:0:0:0:0:
182,192,246303,128,0,246428:0:0:0:0:
109,192,246303,1,0,0:0:0:0:
36,192,246428,128,0,246678:0:0:0:0:
329,192,246428,128,0,246678:0:0:0:0:
109,192,246553,128,0,246678:0:0:0:0:
402,192,246553,128,0,246678:0:0:0:0:
256,192,246678,128,0,246803:0:0:0:0:
182,192,246678,128,0,246803:0:0:0:0:
475,192,246678,128,0,246928:0:0:0:0:
36,192,246803,128,0,247053:0:0:0:0:
402,192,246803,128,0,246928:0:0:0:0:
109,192,246928,128,0,247053:0:0:0:0:
329,192,246928,128,0,247053:0:0:0:0:
182,192,247053,128,0,247303:0:0:0:0:
475,192,247053,128,0,247303:0:0:0:0:
256,192,247053,128,0,247219:0:0:0:0:
402,192,247136,128,0,247303:0:0:0:0:
329,192,247219,128,0,247303:0:0:0:0:
109,192,247303,1,0,0:0:0:0:
36,192,247303,1,0,0:0:0:0:
256,192,247303,1,0,0:0:0:0:
329,192,247386,1,0,0:0:0:0:
402,192,247553,1,0,0:0:0:0:
256,192,247553,1,0,0:0:0:0:
182,192,247553,128,0,247678:0:0:0:0:
36,192,247553,1,0,0:0:0:0:
475,192,247553,1,0,0:0:0:0:
329,192,247636,1,0,0:0:0:0:
109,192,247719,1,0,0:0:0:0:
402,192,247740,1,0,0:0:0:0:
256,192,247803,1,0,0:0:0:0:
182,192,247803,128,0,248094:0:0:0:0:
475,192,247803,128,0,247886:0:0:0:0:
402,192,247886,128,0,247969:0:0:0:0:
329,192,247969,128,0,248053:0:0:0:0:
36,192,247990,128,0,248303:0:0:0:0:
109,192,248053,128,0,248303:0:0:0:0:
402,192,248053,128,0,248136:0:0:0:0:
256,192,248136,128,0,248303:0:0:0:0:
475,192,248136,128,0,248219:0:0:0:0:
329,192,248219,128,0,248303:0:0:0:0:
402,192,248303,128,0,249053:0:0:0:0:
475,192,248303,128,0,249803:0:0:0:0:
182,192,248303,128,0,248428:0:0:0:0:
36,192,248428,128,0,248553:0:0:0:0:
256,192,248428,128,0,248553:0:0:0:0:
109,192,248553,128,0,248678:0:0:0:0:
329,192,248553,128,0,248678:0:0:0:0:
182,192,248553,128,0,248678:0:0:0:0:
36,192,248678,128,0,248803:0:0:0:0:
329,192,248803,128,0,248928:0:0:0:0:
256,192,248803,128,0,248928:0:0:0:0:
109,192,248803,128,0,248928:0:0:0:0:
182,192,248928,128,0,249053:0:0:0:0:
109,192,249053,128,0,249178:0:0:0:0:
36,192,249053,128,0,249178:0:0:0:0:
329,192,249053,128,0,249178:0:0:0:0:
402,192,249178,1,0,0:0:0:0:
256,192,249178,1,0,0:0:0:0:
182,192,249178,128,0,249428:0:0:0:0:
256,192,249428,1,0,0:0:0:0:
402,192,249428,128,0,249553:0:0:0:0:
329,192,249553,128,0,249678:0:0:0:0:
182,192,249553,128,0,249678:0:0:0:0:
36,192,249553,128,0,249678:0:0:0:0:
256,192,249678,128,0,249803:0:0:0:0:
109,192,249678,128,0,249803:0:0:0:0:
36,192,249803,128,0,250053:0:0:0:0:
402,192,249803,128,0,249928:0:0:0:0:
329,192,249803,128,0,249928:0:0:0:0:
256,192,249928,128,0,249990:0:0:0:0:
109,192,249990,128,0,250053:0:0:0:0:
182,192,250053,128,0,250136:0:0:0:0:
402,192,250053,128,0,250136:0:0:0:0:
329,192,250136,128,0,250219:0:0:0:0:
256,192,250219,128,0,250303:0:0:0:0:
36,192,250303,128,0,250803:0:0:0:0:
475,192,250303,128,0,250428:0:0:0:0:
109,192,250303,128,0,250803:0:0:0:0:
402,192,250303,128,0,250428:0:0:0:0:
329,192,250428,128,0,250553:0:0:0:0:
182,192,250428,128,0,250553:0:0:0:0:
402,192,250553,128,0,250678:0:0:0:0:
256,192,250553,128,0,250678:0:0:0:0:
329,192,250678,128,0,250803:0:0:0:0:
182,192,250678,128,0,250803:0:0:0:0:
475,192,250803,128,0,251303:0:0:0:0:
402,192,250803,128,0,250928:0:0:0:0:
256,192,250803,128,0,250886:0:0:0:0:
109,192,250886,128,0,250969:0:0:0:0:
182,192,250969,128,0,251053:0:0:0:0:
36,192,251053,128,0,251553:0:0:0:0:
402,192,251053,128,0,251178:0:0:0:0:
329,192,251178,128,0,251303:0:0:0:0:
182,192,251178,128,0,251303:0:0:0:0:
109,192,251303,128,0,251553:0:0:0:0:
329,192,251428,128,0,251553:0:0:0:0:
256,192,251428,128,0,251553:0:0:0:0:
475,192,251553,128,0,251803:0:0:0:0:
182,192,251553,128,0,251636:0:0:0:0:
402,192,251553,128,0,251636:0:0:0:0:
329,192,251636,128,0,251719:0:0:0:0:
182,192,251719,128,0,251803:0:0:0:0:
109,192,251803,128,0,251886:0:0:0:0:
256,192,251803,128,0,251886:0:0:0:0:
402,192,251803,128,0,251886:0:0:0:0:
182,192,251886,128,0,251969:0:0:0:0:
329,192,251928,128,0,251990:0:0:0:0:
36,192,251969,128,0,252053:0:0:0:0:
475,192,251990,128,0,252053:0:0:0:0:
402,192,252053,128,0,252136:0:0:0:0:
182,192,252053,128,0,252136:0:0:0:0:
256,192,252115,128,0,252178:0:0:0:0:
109,192,252136,128,0,252219:0:0:0:0:
329,192,252219,128,0,252303:0:0:0:0:
182,192,252240,128,0,252303:0:0:0:0:
256,192,252303,128,0,252428:0:0:0:0:
402,192,252303,128,0,252553:0:0:0:0:
475,192,252303,128,0,252553:0:0:0:0:
36,192,252303,128,0,252553:0:0:0:0:
109,192,252428,128,0,252553:0:0:0:0:
329,192,252553,1,0,0:0:0:0:
182,192,252553,1,0,0:0:0:0:
475,192,252678,128,0,252928:0:0:0:0:
402,192,252678,128,0,252928:0:0:0:0:
256,192,252678,1,0,0:0:0:0:
109,192,252678,1,0,0:0:0:0:
36,192,252678,128,0,252928:0:0:0:0:
182,192,252803,128,0,252928:0:0:0:0:
329,192,252928,1,0,0:0:0:0:
256,192,252928,1,0,0:0:0:0:
475,192,253053,128,0,253303:0:0:0:0:
402,192,253053,128,0,253219:0:0:0:0:
36,192,253053,128,0,253303:0:0:0:0:
182,192,253053,128,0,253136:0:0:0:0:
256,192,253136,128,0,253219:0:0:0:0:
109,192,253178,128,0,253303:0:0:0:0:
329,192,253219,128,0,253303:0:0:0:0:
402,192,253303,128,0,253386:0:0:0:0:
475,192,253386,128,0,253469:0:0:0:0:
182,192,253553,128,0,253678:0:0:0:0:
329,192,253553,128,0,253678:0:0:0:0:
109,192,253553,128,0,253678:0:0:0:0:
402,192,253678,128,0,253803:0:0:0:0:
256,192,253678,128,0,253803:0:0:0:0:
475,192,253803,128,0,253928:0:0:0:0:
109,192,253803,1,0,0:0:0:0:
182,192,253803,128,0,253928:0:0:0:0:
402,192,253928,128,0,254053:0:0:0:0:
256,192,253928,128,0,254053:0:0:0:0:
36,192,253928,128,0,254303:0:0:0:0:
109,192,254053,128,0,254303:0:0:0:0:
329,192,254053,128,0,254178:0:0:0:0:
182,192,254178,128,0,254303:0:0:0:0:
475,192,254178,128,0,254303:0:0:0:0:
256,192,254303,1,0,0:0:0:0:
402,192,254303,128,0,254553:0:0:0:0:
182,192,254428,1,0,0:0:0:0:
36,192,254428,1,0,0:0:0:0:
329,192,254553,1,0,0:0:0:0:
36,192,254553,128,0,254678:0:0:0:0:
182,192,254553,128,0,254678:0:0:0:0:
256,192,254678,1,0,0:0:0:0:
475,192,254678,128,0,254928:0:0:0:0:
402,192,254678,128,0,254928:0:0:0:0:
182,192,254803,1,0,0:0:0:0:
109,192,254803,1,0,0:0:0:0:
109,192,254928,128,0,255053:0:0:0:0:
182,192,254928,128,0,255053:0:0:0:0:
475,192,255053,128,0,256303:0:0:0:0:
329,192,255053,128,0,255178:0:0:0:0:
402,192,255053,128,0,255178:0:0:0:0:
36,192,255178,1,0,0:0:0:0:
182,192,255178,128,0,255428:0:0:0:0:
256,192,255240,1,0,0:0:0:0:
329,192,255303,128,0,255365:0:0:0:0:
402,192,255303,128,0,255365:0:0:0:0:
329,192,255428,128,0,255678:0:0:0:0:
402,192,255428,128,0,255490:0:0:0:0:
182,192,255553,128,0,255615:0:0:0:0:
36,192,255553,128,0,255615:0:0:0:0:
36,192,255678,128,0,255928:0:0:0:0:
182,192,255678,128,0,255740:0:0:0:0:
109,192,255803,1,0,0:0:0:0:
256,192,255803,128,0,255865:0:0:0:0:
329,192,255803,128,0,255865:0:0:0:0:
402,192,255803,128,0,255865:0:0:0:0:
329,192,255928,128,0,256178:0:0:0:0:
256,192,255928,128,0,255990:0:0:0:0:
182,192,256053,128,0,256115:0:0:0:0:
109,192,256053,128,0,256115:0:0:0:0:
36,192,256053,128,0,256115:0:0:0:0:
36,192,256178,128,0,256240:0:0:0:0:
109,192,256178,128,0,256240:0:0:0:0:
182,192,256303,128,0,256553:0:0:0:0:
256,192,256303,128,0,256553:0:0:0:0:
402,192,256303,128,0,256553:0:0:0:0:
329,192,256303,1,0,0:0:0:0:
182,192,256678,128,0,256803:0:0:0:0:
256,192,256678,128,0,256803:0:0:0:0:
402,192,256678,128,0,256803:0:0:0:0:
329,192,256803,1,0,0:0:0:0:
109,192,256803,1,0,0:0:0:0:
475,192,257053,128,0,257803:0:0:0:0:
36,192,257053,128,0,257136:0:0:0:0:
402,192,257053,128,0,257553:0:0:0:0:
329,192,257053,128,0,257303:0:0:0:0:
182,192,257136,128,0,257219:0:0:0:0:
36,192,257219,128,0,257303:0:0:0:0:
182,192,257303,128,0,257386:0:0:0:0:
36,192,257386,128,0,257469:0:0:0:0:
182,192,257469,128,0,257553:0:0:0:0:
36,192,257553,128,0,257636:0:0:0:0:
182,192,257636,128,0,257719:0:0:0:0:
36,192,257719,128,0,257803:0:0:0:0:
256,192,257803,1,0,0:0:0:0:
182,192,257803,128,0,257886:0:0:0:0:
402,192,257803,128,0,257928:0:0:0:0:
329,192,257865,1,0,0:0:0:0:
475,192,257928,128,0,258053:0:0:0:0:
256,192,257990,1,0,0:0:0:0:
36,192,258053,128,0,258303:0:0:0:0:
109,192,258053,1,0,0:0:0:0:
402,192,258053,128,0,258303:0:0:0:0:
256,192,258303,1,0,0:0:0:0:
182,192,258303,1,0,0:0:0:0:
329,192,258303,128,0,258365:0:0:0:0:
475,192,258303,128,0,258678:0:0:0:0:
329,192,258428,128,0,258490:0:0:0:0:
329,192,258553,128,0,258615:0:0:0:0:
402,192,258678,1,0,0:0:0:0:
256,192,258678,1,0,0:0:0:0:
182,192,258678,128,0,258740:0:0:0:0:
36,192,258678,128,0,258928:0:0:0:0:
475,192,258803,1,0,0:0:0:0:
329,192,258803,1,0,0:0:0:0:
182,192,258803,128,0,258865:0:0:0:0:
182,192,258928,128,0,258990:0:0:0:0:
475,192,259053,1,0,0:0:0:0:
402,192,259053,1,0,0:0:0:0:
36,192,259053,128,0,260053:0:0:0:0:
256,192,259053,128,0,259428:0:0:0:0:
329,192,259136,1,0,0:0:0:0:
475,192,259219,1,0,0:0:0:0:
329,192,259303,1,0,0:0:0:0:
475,192,259386,1,0,0:0:0:0:
329,192,259469,1,0,0:0:0:0:
475,192,259553,1,0,0:0:0:0:
182,192,259553,1,0,0:0:0:0:
256,192,259553,128,0,259803:0:0:0:0:
109,192,259636,1,0,0:0:0:0:
329,192,259678,1,0,0:0:0:0:
182,192,259719,1,0,0:0:0:0:
109,192,259803,1,0,0:0:0:0:
402,192,259803,128,0,259928:0:0:0:0:
475,192,259803,128,0,259928:0:0:0:0:
182,192,259886,1,0,0:0:0:0:
256,192,259969,1,0,0:0:0:0:
329,192,260053,128,0,260303:0:0:0:0:
475,192,260053,128,0,260303:0:0:0:0:
109,192,260053,128,0,260178:0:0:0:0:
402,192,260303,128,0,260553:0:0:0:0:
36,192,260303,128,0,260428:0:0:0:0:
182,192,260303,128,0,260428:0:0:0:0:
256,192,260303,128,0,260428:0:0:0:0:
109,192,260553,128,0,260678:0:0:0:0:
329,192,260553,128,0,260678:0:0:0:0:
402,192,260678,128,0,260928:0:0:0:0:
36,192,260678,128,0,260803:0:0:0:0:
182,192,260678,128,0,260803:0:0:0:0:
256,192,260678,128,0,260803:0:0:0:0:
109,192,260928,128,0,261053:0:0:0:0:
329,192,260928,128,0,261053:0:0:0:0:
402,192,261053,128,0,261303:0:0:0:0:
36,192,261053,128,0,261178:0:0:0:0:
182,192,261053,128,0,261178:0:0:0:0:
256,192,261053,128,0,261178:0:0:0:0:
36,192,261303,1,0,0:0:0:0:
109,192,261303,128,0,261553:0:0:0:0:
329,192,261303,128,0,261428:0:0:0:0:
475,192,261303,128,0,261428:0:0:0:0:
475,192,261553,128,0,261803:0:0:0:0:
256,192,261553,1,0,0:0:0:0:
182,192,261678,1,0,0:0:0:0:
329,192,261740,1,0,0:0:0:0:
256,192,261803,1,0,0:0:0:0:
109,192,261803,128,0,261865:0:0:0:0:
36,192,261803,128,0,261865:0:0:0:0:
402,192,261803,128,0,262053:0:0:0:0:
36,192,261928,128,0,261990:0:0:0:0:
109,192,261928,128,0,261990:0:0:0:0:
329,192,262053,128,0,262115:0:0:0:0:
475,192,262053,128,0,262115:0:0:0:0:
182,192,262053,128,0,262303:0:0:0:0:
475,192,262178,128,0,262240:0:0:0:0:
329,192,262178,128,0,262240:0:0:0:0:
256,192,262303,128,0,263053:0:0:0:0:
36,192,262303,128,0,262428:0:0:0:0:
109,192,262303,128,0,262428:0:0:0:0:
402,192,262303,128,0,262428:0:0:0:0:
329,192,262553,1,0,0:0:0:0:
182,192,262553,1,0,0:0:0:0:
36,192,262678,128,0,262803:0:0:0:0:
475,192,262678,128,0,262803:0:0:0:0:
182,192,262803,1,0,0:0:0:0:
329,192,262803,1,0,0:0:0:0:
109,192,262803,128,0,263053:0:0:0:0:
329,192,263053,128,0,263178:0:0:0:0:
36,192,263053,128,0,263178:0:0:0:0:
475,192,263053,128,0,263178:0:0:0:0:
402,192,263178,128,0,263303:0:0:0:0:
182,192,263178,128,0,263303:0:0:0:0:
475,192,263303,128,0,263803:0:0:0:0:
329,192,263303,128,0,263428:0:0:0:0:
256,192,263428,128,0,263553:0:0:0:0:
109,192,263428,128,0,263553:0:0:0:0:
36,192,263553,128,0,263678:0:0:0:0:
402,192,263553,128,0,263678:0:0:0:0:
329,192,263678,128,0,263803:0:0:0:0:
182,192,263678,128,0,263803:0:0:0:0:
36,192,263803,128,0,264053:0:0:0:0:
109,192,263803,128,0,264053:0:0:0:0:
402,192,263928,128,0,264053:0:0:0:0:
256,192,263928,128,0,264053:0:0:0:0:
402,192,264178,128,0,264303:0:0:0:0:
256,192,264178,128,0,264303:0:0:0:0:
109,192,264303,1,0,0:0:0:0:
36,192,264303,1,0,0:0:0:0:
475,192,264303,128,0,264803:0:0:0:0:
182,192,264553,128,0,264803:0:0:0:0:
402,192,264553,128,0,264803:0:0:0:0:
36,192,264553,128,0,264803:0:0:0:0:
256,192,264803,1,0,0:0:0:0:
329,192,264803,1,0,0:0:0:0:
109,192,264803,1,0,0:0:0:0:
329,192,264928,1,0,0:0:0:0:
256,192,264928,1,0,0:0:0:0:
109,192,264928,128,0,265053:0:0:0:0:
475,192,265053,1,0,0:0:0:0:
36,192,265053,128,0,265678:0:0:0:0:
402,192,265178,1,0,0:0:0:0:
329,192,265178,1,0,0:0:0:0:
182,192,265178,128,0,265428:0:0:0:0:
475,192,265428,128,0,265678:0:0:0:0:
329,192,265428,128,0,265678:0:0:0:0:
256,192,265678,128,0,265803:0:0:0:0:
402,192,265678,128,0,265803:0:0:0:0:
36,192,265803,128,0,266303:0:0:0:0:
182,192,265803,128,0,265928:0:0:0:0:
329,192,265803,128,0,265928:0:0:0:0:
402,192,265928,128,0,266053:0:0:0:0:
256,192,265928,128,0,266053:0:0:0:0:
182,192,266053,128,0,266178:0:0:0:0:
109,192,266053,128,0,266178:0:0:0:0:
329,192,266178,128,0,266303:0:0:0:0:
475,192,266178,128,0,266303:0:0:0:0:
109,192,266303,1,0,0:0:0:0:
402,192,266303,128,0,266553:0:0:0:0:
256,192,266303,128,0,266553:0:0:0:0:
182,192,266553,128,0,266803:0:0:0:0:
36,192,266553,128,0,268303:0:0:0:0:
329,192,266553,128,0,266803:0:0:0:0:
109,192,266553,1,0,0:0:0:0:
475,192,266803,128,0,266928:0:0:0:0:
256,192,266803,128,0,266928:0:0:0:0:
402,192,266928,128,0,267053:0:0:0:0:
182,192,266928,128,0,267053:0:0:0:0:
109,192,267053,128,0,267178:0:0:0:0:
329,192,267053,128,0,267178:0:0:0:0:
256,192,267178,128,0,267303:0:0:0:0:
402,192,267178,128,0,267303:0:0:0:0:
329,192,267303,128,0,267428:0:0:0:0:
182,192,267303,128,0,267553:0:0:0:0:
402,192,267428,128,0,267553:0:0:0:0:
256,192,267428,128,0,267678:0:0:0:0:
475,192,267553,128,0,267678:0:0:0:0:
329,192,267553,128,0,267678:0:0:0:0:
402,192,267678,128,0,268053:0:0:0:0:
182,192,267678,128,0,268303:0:0:0:0:
475,192,268053,128,0,268303:0:0:0:0:
329,192,268053,1,0,0:0:0:0:
402,192,268178,128,0,268303:0:0:0:0:
109,192,268303,128,0,268428:0:0:0:0:
329,192,268303,128,0,268428:0:0:0:0:
256,192,268303,128,0,268428:0:0:0:0:
182,192,268428,1,0,0:0:0:0:
402,192,268428,1,0,0:0:0:0:
182,192,268553,1,0,0:0:0:0:
402,192,268553,1,0,0:0:0:0:
36,192,268678,128,0,268803:0:0:0:0:
256,192,268678,128,0,268803:0:0:0:0:
475,192,268678,128,0,268803:0:0:0:0:
109,192,268803,1,0,0:0:0:0:
329,192,268803,1,0,0:0:0:0:
109,192,268928,1,0,0:0:0:0:
329,192,268928,1,0,0:0:0:0:
402,192,268990,1,0,0:0:0:0:
182,192,269053,1,0,0:0:0:0:
475,192,269053,128,0,269178:0:0:0:0:
256,192,269053,128,0,269178:0:0:0:0:
329,192,269136,128,0,269219:0:0:0:0:
109,192,269178,1,0,0:0:0:0:
36,192,269178,128,0,269678:0:0:0:0:
182,192,269219,128,0,269303:0:0:0:0:
402,192,269303,128,0,269803:0:0:0:0:
329,192,269303,128,0,269386:0:0:0:0:
182,192,269386,128,0,269469:0:0:0:0:
329,192,269469,128,0,269553:0:0:0:0:
182,192,269553,128,0,269636:0:0:0:0:
329,192,269636,128,0,269719:0:0:0:0:
109,192,269678,1,0,0:0:0:0:
182,192,269740,1,0,0:0:0:0:
256,192,269803,1,0,0:0:0:0:
329,192,269803,128,0,269928:0:0:0:0:
36,192,269803,128,0,269928:0:0:0:0:
182,192,269928,128,0,270053:0:0:0:0:
475,192,270053,128,0,270303:0:0:0:0:
402,192,270053,128,0,270303:0:0:0:0:
256,192,270053,1,0,0:0:0:0:
36,192,270053,128,0,270303:0:0:0:0:
109,192,270178,128,0,270303:0:0:0:0:
329,192,270303,128,0,270553:0:0:0:0:
182,192,270303,128,0,270428:0:0:0:0:
256,192,270303,128,0,270428:0:0:0:0:
402,192,270553,1,0,0:0:0:0:
256,192,270553,1,0,0:0:0:0:
36,192,270553,1,0,0:0:0:0:
329,192,270678,128,0,270803:0:0:0:0:
109,192,270678,128,0,270803:0:0:0:0:
36,192,270678,128,0,270803:0:0:0:0:
475,192,270803,1,0,0:0:0:0:
182,192,270803,1,0,0:0:0:0:
256,192,271053,128,0,272053:0:0:0:0:
475,192,271053,1,0,0:0:0:0:
402,192,271053,1,0,0:0:0:0:
182,192,271053,1,0,0:0:0:0:
36,192,271053,1,0,0:0:0:0:
329,192,271136,1,0,0:0:0:0:
109,192,271136,1,0,0:0:0:0:
475,192,271219,1,0,0:0:0:0:
182,192,271219,1,0,0:0:0:0:
329,192,271303,1,0,0:0:0:0:
109,192,271303,1,0,0:0:0:0:
475,192,271386,1,0,0:0:0:0:
182,192,271386,1,0,0:0:0:0:
329,192,271469,1,0,0:0:0:0:
109,192,271469,1,0,0:0:0:0:
475,192,271553,1,0,0:0:0:0:
182,192,271553,1,0,0:0:0:0:
109,192,271636,1,0,0:0:0:0:
329,192,271636,1,0,0:0:0:0:
182,192,271719,1,0,0:0:0:0:
475,192,271719,1,0,0:0:0:0:
329,192,271803,1,0,0:0:0:0:
109,192,271803,1,0,0:0:0:0:
475,192,271886,1,0,0:0:0:0:
182,192,271886,1,0,0:0:0:0:
109,192,271969,1,0,0:0:0:0:
329,192,271969,1,0,0:0:0:0:
182,192,272053,1,0,0:0:0:0:
475,192,272053,128,0,272303:0:0:0:0:
36,192,272303,128,0,272428:0:0:0:0:
109,192,272303,128,0,272428:0:0:0:0:
256,192,272303,128,0,272428:0:0:0:0:
329,192,272303,128,0,272428:0:0:0:0:
402,192,272303,128,0,272428:0:0:0:0:
182,192,272428,1,0,0:0:0:0:
182,192,272553,1,0,0:0:0:0:
36,192,272678,128,0,272803:0:0:0:0:
109,192,272678,128,0,272803:0:0:0:0:
256,192,272678,128,0,272803:0:0:0:0:
402,192,272678,128,0,272803:0:0:0:0:
475,192,272678,128,0,272803:0:0:0:0:
329,192,272803,1,0,0:0:0:0:
36,192,273053,128,0,273803:0:0:0:0:
182,192,273053,128,0,273178:0:0:0:0:
256,192,273053,128,0,273178:0:0:0:0:
475,192,273053,128,0,273178:0:0:0:0:
402,192,273178,128,0,273803:0:0:0:0:
329,192,273178,128,0,273803:0:0:0:0:
256,192,273490,1,0,0:0:0:0:
182,192,273553,1,0,0:0:0:0:
109,192,273615,1,0,0:0:0:0:
256,192,273678,1,0,0:0:0:0:
182,192,273803,1,0,0:0:0:0:
109,192,273803,1,0,0:0:0:0:
256,192,274053,128,0,274303:0:0:0:0:
109,192,274053,1,0,0:0:0:0:
402,192,274053,1,0,0:0:0:0:
329,192,274303,128,0,275053:0:0:0:0:
36,192,274303,128,0,274428:0:0:0:0:
182,192,274303,128,0,274428:0:0:0:0:
402,192,274303,128,0,274428:0:0:0:0:
475,192,274303,128,0,274428:0:0:0:0:
256,192,274553,1,0,0:0:0:0:
36,192,274553,1,0,0:0:0:0:
109,192,274678,128,0,274803:0:0:0:0:
182,192,274678,128,0,274803:0:0:0:0:
402,192,274678,128,0,274803:0:0:0:0:
475,192,274803,1,0,0:0:0:0:
256,192,274803,1,0,0:0:0:0:
36,192,275053,128,0,275178:0:0:0:0:
402,192,275053,128,0,275178:0:0:0:0:
475,192,275053,128,0,275178:0:0:0:0:
182,192,275053,128,0,276303:0:0:0:0:
402,192,275303,1,0,0:0:0:0:
402,192,275428,1,0,0:0:0:0:
329,192,275490,1,0,0:0:0:0:
402,192,275553,1,0,0:0:0:0:
329,192,275678,1,0,0:0:0:0:
36,192,275803,128,0,276303:0:0:0:0:
256,192,275803,128,0,275928:0:0:0:0:
402,192,275803,128,0,275928:0:0:0:0:
475,192,275803,128,0,275928:0:0:0:0:
329,192,276053,128,0,276303:0:0:0:0:
402,192,276303,128,0,278803:0:0:0:0:
109,192,276303,128,0,276428:0:0:0:0:
256,192,276303,128,0,276428:0:0:0:0:
475,192,276303,128,0,276428:0:0:0:0:
36,192,276678,128,0,276803:0:0:0:0:
182,192,276678,128,0,276803:0:0:0:0:
256,192,276803,1,0,0:0:0:0:
109,192,276803,1,0,0:0:0:0:
182,192,277053,128,0,277553:0:0:0:0:
36,192,277053,128,0,277178:0:0:0:0:
329,192,277053,128,0,277178:0:0:0:0:
475,192,277053,128,0,277178:0:0:0:0:
256,192,277553,1,0,0:0:0:0:
329,192,277615,1,0,0:0:0:0:
182,192,277678,1,0,0:0:0:0:
109,192,277740,1,0,0:0:0:0:
256,192,277803,128,0,277928:0:0:0:0:
329,192,277803,128,0,277928:0:0:0:0:
36,192,277803,128,0,277928:0:0:0:0:
329,192,278053,1,0,0:0:0:0:
182,192,278053,1,0,0:0:0:0:
256,192,278178,1,0,0:0:0:0:
109,192,278178,1,0,0:0:0:0:
36,192,278303,128,0,278428:0:0:0:0:
182,192,278303,128,0,278428:0:0:0:0:
329,192,278303,128,0,278428:0:0:0:0:
36,192,278553,128,0,278803:0:0:0:0:
329,192,278553,1,0,0:0:0:0:
109,192,278678,128,0,278803:0:0:0:0:
256,192,278678,1,0,0:0:0:0:
329,192,278803,128,0,279053:0:0:0:0:
182,192,278803,1,0,0:0:0:0:
475,192,279053,128,0,279303:0:0:0:0:
109,192,279053,1,0,0:0:0:0:
402,192,279303,128,0,279428:0:0:0:0:
256,192,279303,128,0,279428:0:0:0:0:
36,192,279303,128,0,279553:0:0:0:0:
329,192,279428,128,0,279553:0:0:0:0:
182,192,279428,128,0,279553:0:0:0:0:
475,192,279553,128,0,279678:0:0:0:0:
109,192,279553,128,0,279678:0:0:0:0:
329,192,279678,128,0,279803:0:0:0:0:
182,192,279678,128,0,279803:0:0:0:0:
475,192,279803,128,0,280178:0:0:0:0:
402,192,279803,128,0,279928:0:0:0:0:
256,192,279803,128,0,279928:0:0:0:0:
36,192,279803,128,0,279928:0:0:0:0:
109,192,279928,128,0,280053:0:0:0:0:
329,192,279928,128,0,280053:0:0:0:0:
182,192,280053,128,0,280178:0:0:0:0:
402,192,280053,128,0,280178:0:0:0:0:
256,192,280178,128,0,280303:0:0:0:0:
36,192,280178,128,0,280428:0:0:0:0:
109,192,280303,128,0,280428:0:0:0:0:
329,192,280303,128,0,280428:0:0:0:0:
402,192,280303,128,0,280428:0:0:0:0:
475,192,280303,128,0,280428:0:0:0:0:
182,192,280553,1,0,0:0:0:0:
109,192,280678,128,0,280803:0:0:0:0:
256,192,280678,128,0,280803:0:0:0:0:
329,192,280678,128,0,280803:0:0:0:0:
402,192,280678,128,0,280803:0:0:0:0:
182,192,280803,1,0,0:0:0:0:
109,192,281053,128,0,282303:0:0:0:0:
36,192,281053,128,0,281178:0:0:0:0:
256,192,281053,128,0,281178:0:0:0:0:
402,192,281053,128,0,281178:0:0:0:0:
475,192,281053,128,0,281178:0:0:0:0:
329,192,281178,128,0,281803:0:0:0:0:
182,192,281178,128,0,281428:0:0:0:0:
182,192,281553,1,0,0:0:0:0:
256,192,281615,1,0,0:0:0:0:
475,192,281678,1,0,0:0:0:0:
402,192,281740,1,0,0:0:0:0:
256,192,281803,1,0,0:0:0:0:
182,192,281803,1,0,0:0:0:0:
256,192,282053,128,0,282178:0:0:0:0:
402,192,282053,128,0,282178:0:0:0:0:
329,192,282178,1,0,0:0:0:0:
475,192,282303,128,0,283803:0:0:0:0:
402,192,282303,128,0,283803:0:0:0:0:
36,192,282303,128,0,282428:0:0:0:0:
182,192,282303,128,0,282428:0:0:0:0:
256,192,282303,128,0,282428:0:0:0:0:
329,192,282553,1,0,0:0:0:0:
182,192,282553,1,0,0:0:0:0:
36,192,282678,128,0,282803:0:0:0:0:
256,192,282678,128,0,282803:0:0:0:0:
329,192,282803,1,0,0:0:0:0:
182,192,282803,1,0,0:0:0:0:
109,192,282803,1,0,0:0:0:0:
36,192,283053,128,0,283803:0:0:0:0:
109,192,283053,128,0,283178:0:0:0:0:
182,192,283053,128,0,283178:0:0:0:0:
256,192,283053,128,0,283178:0:0:0:0:
329,192,283303,1,0,0:0:0:0:
182,192,283553,1,0,0:0:0:0:
256,192,283615,1,0,0:0:0:0:
329,192,283678,1,0,0:0:0:0:
182,192,283740,1,0,0:0:0:0:
109,192,283803,128,0,283928:0:0:0:0:
256,192,283803,128,0,283928:0:0:0:0:
329,192,283928,128,0,284053:0:0:0:0:
182,192,283928,128,0,284053:0:0:0:0:
402,192,284053,128,0,284178:0:0:0:0:
256,192,284053,128,0,284178:0:0:0:0:
36,192,284178,128,0,284303:0:0:0:0:
182,192,284178,128,0,284303:0:0:0:0:
475,192,284303,128,0,284803:0:0:0:0:
109,192,284303,128,0,284428:0:0:0:0:
256,192,284303,128,0,284428:0:0:0:0:
329,192,284303,128,0,284428:0:0:0:0:
402,192,284303,128,0,284678:0:0:0:0:
36,192,284678,128,0,284803:0:0:0:0:
109,192,284678,128,0,284803:0:0:0:0:
256,192,284678,128,0,284803:0:0:0:0:
402,192,284803,1,0,0:0:0:0:
182,192,284803,1,0,0:0:0:0:
329,192,284928,1,0,0:0:0:0:
256,192,284928,1,0,0:0:0:0:
36,192,285053,128,0,285178:0:0:0:0:
182,192,285053,128,0,285178:0:0:0:0:
475,192,285053,128,0,285178:0:0:0:0:
256,192,285178,1,0,0:0:0:0:
109,192,285178,1,0,0:0:0:0:
402,192,285178,1,0,0:0:0:0:
182,192,285303,1,0,0:0:0:0:
329,192,285386,1,0,0:0:0:0:
182,192,285469,1,0,0:0:0:0:
329,192,285553,1,0,0:0:0:0:
36,192,285553,128,0,285615:0:0:0:0:
475,192,285553,128,0,285615:0:0:0:0:
182,192,285615,1,0,0:0:0:0:
329,192,285678,1,0,0:0:0:0:
109,192,285740,1,0,0:0:0:0:
256,192,285803,128,0,285928:0:0:0:0:
402,192,285803,128,0,285928:0:0:0:0:
475,192,285803,128,0,285928:0:0:0:0:
182,192,285928,128,0,286053:0:0:0:0:
36,192,285928,128,0,286053:0:0:0:0:
329,192,286053,128,0,286178:0:0:0:0:
475,192,286053,128,0,286178:0:0:0:0:
36,192,286178,128,0,286303:0:0:0:0:
182,192,286178,128,0,286303:0:0:0:0:
256,192,286303,128,0,286428:0:0:0:0:
329,192,286303,128,0,286428:0:0:0:0:
402,192,286303,128,0,286428:0:0:0:0:
475,192,286303,128,0,286428:0:0:0:0:
109,192,286303,128,0,286428:0:0:0:0:
36,192,297767,132,0,305032:0:0:0:0:
256,192,298235,128,0,300657:0:0:0:0:
475,192,298704,128,0,305032:0:0:0:0:
109,192,300267,128,0,307142:0:0:0:0:
256,192,300735,128,0,303157:0:0:0:0:
402,192,301204,128,0,307454:0:0:0:0:
182,192,302767,128,0,305032:0:0:0:0:
256,192,303235,128,0,307298:0:0:0:0:
329,192,303704,128,0,305032:0:0:0:0:
329,192,305110,128,0,307376:0:0:0:0:
475,192,305110,128,0,307532:0:0:0:0:
36,192,305110,128,0,307063:0:0:0:0:
182,192,305110,128,0,307220:0:0:0:0:
36,192,307142,128,0,307532:0:0:0:0:
109,192,307220,128,0,307532:0:0:0:0:
182,192,307298,128,0,308001:0:0:0:0:
256,192,307376,128,0,310032:0:0:0:0:
329,192,307454,128,0,308470:0:0:0:0:
402,192,307532,128,0,308157:0:0:0:0:
109,192,307610,128,0,307845:0:0:0:0:
36,192,307610,128,0,309095:0:0:0:0:
475,192,307610,128,0,310032:0:0:0:0:
109,192,307923,128,0,312376:0:0:0:0:
182,192,308079,128,0,308782:0:0:0:0:
402,192,308235,128,0,310970:0:0:0:0:
329,192,308548,128,0,309720:0:0:0:0:
182,192,308860,128,0,309407:0:0:0:0:
36,192,309173,128,0,310032:0:0:0:0:
182,192,309485,128,0,310345:0:0:0:0:
329,192,309798,128,0,310501:0:0:0:0:
256,192,310110,128,0,312063:0:0:0:0:
36,192,310110,128,0,310813:0:0:0:0:
475,192,310110,128,0,310657:0:0:0:0:
182,192,310423,128,0,311595:0:0:0:0:
329,192,310579,128,0,311282:0:0:0:0:
475,192,310735,128,0,315032:0:0:0:0:
36,192,310892,128,0,311126:0:0:0:0:
402,192,311048,128,0,313157:0:0:0:0:
36,192,311204,128,0,313782:0:0:0:0:
329,192,311360,128,0,311907:0:0:0:0:
182,192,311673,128,0,311751:0:0:0:0:
182,192,311829,128,0,312220:0:0:0:0:
329,192,311985,128,0,312532:0:0:0:0:
256,192,312142,128,0,312845:0:0:0:0:
182,192,312298,128,0,312532:0:0:0:0:
109,192,312454,128,0,314407:0:0:0:0:
329,192,312610,128,0,313001:0:0:0:0:
182,192,312610,128,0,313313:0:0:0:0:
256,192,312923,128,0,314095:0:0:0:0:
329,192,313079,128,0,313470:0:0:0:0:
402,192,313235,128,0,316751:0:0:0:0:
182,192,313392,128,0,313626:0:0:0:0:
329,192,313548,128,0,315657:0:0:0:0:
182,192,313704,128,0,315032:0:0:0:0:
36,192,313860,128,0,314876:0:0:0:0:
256,192,314173,128,0,314720:0:0:0:0:
109,192,314485,128,0,315345:0:0:0:0:
256,192,314798,128,0,317298:0:0:0:0:
36,192,314954,128,0,317063:0:0:0:0:
475,192,315110,128,0,315970:0:0:0:0:
182,192,315110,128,0,315501:0:0:0:0:
109,192,315423,128,0,316595:0:0:0:0:
182,192,315579,128,0,315813:0:0:0:0:
329,192,315735,128,0,316282:0:0:0:0:
182,192,315892,128,0,316126:0:0:0:0:
475,192,316048,128,0,317376:0:0:0:0:
182,192,316204,128,0,316595:0:0:0:0:
329,192,316360,128,0,316751:0:0:0:0:
182,192,316673,128,0,317220:0:0:0:0:
109,192,316673,128,0,317142:0:0:0:0:
402,192,316829,128,0,317454:0:0:0:0:
329,192,316829,128,0,317532:0:0:0:0:
36,192,317142,128,0,317767:0:0:0:0:
109,192,317220,128,0,317688:0:0:0:0:
182,192,317298,128,0,317688:0:0:0:0:
256,192,317376,128,0,317610:0:0:0:0:
475,192,317454,128,0,317767:0:0:0:0:
402,192,317532,128,0,317767:0:0:0:0:
329,192,317610,128,0,317767:0:0:0:0:
256,192,317688,128,0,317767:0:0:0:0:
182,192,317767,128,0,318157:0:0:0:0:
109,192,317767,128,0,318157:0:0:0:0:
402,192,317923,128,0,319095:0:0:0:0:
329,192,317923,128,0,318626:0:0:0:0:
182,192,318235,128,0,318470:0:0:0:0:
109,192,318235,128,0,319095:0:0:0:0:
182,192,318548,128,0,318782:0:0:0:0:
329,192,318704,128,0,319563:0:0:0:0:
182,192,318860,128,0,319407:0:0:0:0:
402,192,319173,128,0,319876:0:0:0:0:
109,192,319173,128,0,320188:0:0:0:0:
182,192,319485,128,0,319720:0:0:0:0:
329,192,319642,128,0,319876:0:0:0:0:
182,192,319798,128,0,320188:0:0:0:0:
402,192,319954,128,0,320188:0:0:0:0:
329,192,319954,128,0,320188:0:0:0:0:
36,192,320267,128,0,321438:0:0:0:0:
109,192,320267,128,0,321126:0:0:0:0:
182,192,320267,128,0,320657:0:0:0:0:
475,192,320267,128,0,321438:0:0:0:0:
329,192,320267,128,0,320657:0:0:0:0:
402,192,320267,128,0,321126:0:0:0:0:
182,192,320735,128,0,323626:0:0:0:0:
329,192,320735,128,0,322688:0:0:0:0:
402,192,321204,128,0,323157:0:0:0:0:
109,192,321204,128,0,321907:0:0:0:0:
475,192,321517,128,0,323626:0:0:0:0:
36,192,321517,128,0,322688:0:0:0:0:
109,192,321985,128,0,322376:0:0:0:0:
109,192,322454,128,0,323157:0:0:0:0:
329,192,322767,128,0,325657:0:0:0:0:
36,192,322767,128,0,325188:0:0:0:0:
402,192,323235,128,0,324407:0:0:0:0:
109,192,323235,128,0,327376:0:0:0:0:
475,192,323704,128,0,323938:0:0:0:0:
182,192,323704,128,0,323938:0:0:0:0:
475,192,324017,128,0,325188:0:0:0:0:
182,192,324017,128,0,325657:0:0:0:0:
402,192,324485,128,0,324876:0:0:0:0:
402,192,324954,128,0,326907:0:0:0:0:
475,192,325267,128,0,326126:0:0:0:0:
36,192,325267,128,0,326126:0:0:0:0:
329,192,325735,128,0,327376:0:0:0:0:
182,192,325735,128,0,326907:0:0:0:0:
475,192,326204,128,0,326438:0:0:0:0:
36,192,326204,128,0,326438:0:0:0:0:
475,192,326517,128,0,328157:0:0:0:0:
36,192,326517,128,0,327688:0:0:0:0:
182,192,326985,128,0,327688:0:0:0:0:
402,192,326985,128,0,329720:0:0:0:0:
329,192,327454,128,0,328157:0:0:0:0:
109,192,327454,128,0,329563:0:0:0:0:
182,192,327767,128,0,328626:0:0:0:0:
36,192,327767,128,0,328626:0:0:0:0:
475,192,328235,128,0,329407:0:0:0:0:
329,192,328235,128,0,329407:0:0:0:0:
182,192,328704,128,0,328938:0:0:0:0:
36,192,328704,128,0,328938:0:0:0:0:
182,192,329017,128,0,329563:0:0:0:0:
36,192,329017,128,0,330188:0:0:0:0:
475,192,329485,128,0,330188:0:0:0:0:
329,192,329485,128,0,329720:0:0:0:0:
182,192,329642,128,0,329876:0:0:0:0:
109,192,329642,128,0,329876:0:0:0:0:
402,192,329798,128,0,330032:0:0:0:0:
329,192,329798,128,0,330032:0:0:0:0:
182,192,329954,128,0,330501:0:0:0:0:
109,192,329954,128,0,330501:0:0:0:0:
402,192,330110,128,0,330813:0:0:0:0:
329,192,330110,128,0,330813:0:0:0:0:
475,192,330267,128,0,331438:0:0:0:0:
256,192,330267,128,0,332532:0:0:0:0:
36,192,330267,128,0,331126:0:0:0:0:
182,192,330579,128,0,331751:0:0:0:0:
109,192,330579,128,0,331126:0:0:0:0:
402,192,330892,128,0,331438:0:0:0:0:
329,192,330892,128,0,332063:0:0:0:0:
36,192,331204,128,0,332376:0:0:0:0:
109,192,331204,128,0,331751:0:0:0:0:
475,192,331517,128,0,332688:0:0:0:0:
402,192,331517,128,0,332063:0:0:0:0:
182,192,331829,128,0,333001:0:0:0:0:
109,192,331829,128,0,332376:0:0:0:0:
329,192,332142,128,0,333313:0:0:0:0:
402,192,332142,128,0,332688:0:0:0:0:
36,192,332454,128,0,333626:0:0:0:0:
109,192,332454,128,0,333001:0:0:0:0:
256,192,332610,128,0,333782:0:0:0:0:
475,192,332767,128,0,333938:0:0:0:0:
402,192,332767,128,0,333313:0:0:0:0:
182,192,333079,128,0,334251:0:0:0:0:
109,192,333079,128,0,333626:0:0:0:0:
329,192,333392,128,0,334563:0:0:0:0:
402,192,333392,128,0,333938:0:0:0:0:
36,192,333704,128,0,334876:0:0:0:0:
109,192,333704,128,0,334251:0:0:0:0:
256,192,333860,128,0,335188:0:0:0:0:
475,192,334017,128,0,335188:0:0:0:0:
402,192,334017,128,0,334563:0:0:0:0:
182,192,334329,128,0,335501:0:0:0:0:
109,192,334329,128,0,334876:0:0:0:0:
329,192,334642,128,0,335813:0:0:0:0:
402,192,334642,128,0,335501:0:0:0:0:
36,192,334954,128,0,336126:0:0:0:0:
109,192,334954,128,0,335813:0:0:0:0:
475,192,335267,128,0,337376:0:0:0:0:
256,192,335267,128,0,336126:0:0:0:0:
182,192,335579,128,0,337063:0:0:0:0:
402,192,335579,128,0,337063:0:0:0:0:
109,192,335892,128,0,336751:0:0:0:0:
329,192,335892,128,0,336751:0:0:0:0:
256,192,336204,128,0,336438:0:0:0:0:
36,192,336204,128,0,336438:0:0:0:0:
256,192,336517,128,0,337376:0:0:0:0:
36,192,336517,128,0,337688:0:0:0:0:
329,192,336829,128,0,337688:0:0:0:0:
109,192,336829,128,0,337845:0:0:0:0:
182,192,337142,128,0,339095:0:0:0:0:
402,192,337142,128,0,337845:0:0:0:0:
475,192,337454,128,0,339095:0:0:0:0:
256,192,337454,128,0,339329:0:0:0:0:
36,192,337767,128,0,338001:0:0:0:0:
329,192,337767,128,0,338001:0:0:0:0:
402,192,337923,128,0,338157:0:0:0:0:
109,192,337923,128,0,338157:0:0:0:0:
36,192,338079,128,0,338782:0:0:0:0:
329,192,338079,128,0,338782:0:0:0:0:
402,192,338235,128,0,338626:0:0:0:0:
109,192,338235,128,0,338626:0:0:0:0:
402,192,338704,128,0,338938:0:0:0:0:
109,192,338704,128,0,338938:0:0:0:0:
36,192,338860,128,0,339329:0:0:0:0:
329,192,338860,128,0,339329:0:0:0:0:
109,192,339017,128,0,339329:0:0:0:0:
402,192,339017,128,0,339329:0:0:0:0:
182,192,339173,128,0,339329:0:0:0:0:
475,192,339173,128,0,339329:0:0:0:0:
109,192,340267,128,0,342454:0:0:0:0:
329,192,340423,128,0,341282:0:0:0:0:
182,192,340579,128,0,340970:0:0:0:0:
402,192,340735,128,0,342454:0:0:0:0:
36,192,340892,128,0,341595:0:0:0:0:
182,192,341048,128,0,341438:0:0:0:0:
475,192,341204,128,0,341907:0:0:0:0:
329,192,341360,128,0,341751:0:0:0:0:
182,192,341517,128,0,342063:0:0:0:0:
36,192,341673,128,0,342376:0:0:0:0:
329,192,341829,128,0,342063:0:0:0:0:
475,192,341985,128,0,342376:0:0:0:0:
329,192,342142,128,0,342532:0:0:0:0:
182,192,342142,128,0,342532:0:0:0:0:
256,192,342298,128,0,342610:0:0:0:0:
475,192,342454,128,0,342767:0:0:0:0:
36,192,342454,128,0,342767:0:0:0:0:
402,192,342532,128,0,342767:0:0:0:0:
109,192,342532,128,0,342767:0:0:0:0:
329,192,342610,128,0,342767:0:0:0:0:
182,192,342610,128,0,342767:0:0:0:0:
256,192,342688,128,0,342767:0:0:0:0:
329,192,343235,128,0,343626:0:0:0:0:
402,192,343235,128,0,344251:0:0:0:0:
475,192,343235,128,0,344251:0:0:0:0:
182,192,343235,128,0,343470:0:0:0:0:
36,192,343235,128,0,344407:0:0:0:0:
109,192,343235,128,0,343470:0:0:0:0:
256,192,343235,128,0,344407:0:0:0:0:
182,192,343548,128,0,343938:0:0:0:0:
109,192,343548,128,0,343938:0:0:0:0:
329,192,343704,128,0,344876:0:0:0:0:
109,192,344017,128,0,344095:0:0:0:0:
182,192,344017,128,0,344095:0:0:0:0:
109,192,344173,128,0,344720:0:0:0:0:
182,192,344173,128,0,344720:0:0:0:0:
475,192,344329,128,0,345501:0:0:0:0:
402,192,344329,128,0,345501:0:0:0:0:
36,192,344485,128,0,345657:0:0:0:0:
256,192,344485,128,0,346907:0:0:0:0:
182,192,344798,128,0,345188:0:0:0:0:
109,192,344798,128,0,345188:0:0:0:0:
329,192,344954,128,0,345970:0:0:0:0:
109,192,345267,128,0,345345:0:0:0:0:
182,192,345267,128,0,345345:0:0:0:0:
109,192,345423,128,0,345657:0:0:0:0:
182,192,345423,128,0,346126:0:0:0:0:
475,192,345579,128,0,345657:0:0:0:0:
402,192,345579,128,0,345657:0:0:0:0:
36,192,345735,128,0,346751:0:0:0:0:
109,192,345735,128,0,346751:0:0:0:0:
402,192,345735,128,0,345970:0:0:0:0:
475,192,345735,128,0,346907:0:0:0:0:
402,192,346048,128,0,346438:0:0:0:0:
329,192,346048,128,0,346438:0:0:0:0:
182,192,346204,128,0,347376:0:0:0:0:
402,192,346517,128,0,346595:0:0:0:0:
329,192,346517,128,0,346595:0:0:0:0:
402,192,346673,128,0,347220:0:0:0:0:
329,192,346673,128,0,347220:0:0:0:0:
36,192,346829,128,0,348001:0:0:0:0:
109,192,346829,128,0,348001:0:0:0:0:
256,192,346985,128,0,348313:0:0:0:0:
475,192,346985,128,0,348313:0:0:0:0:
402,192,347298,128,0,347688:0:0:0:0:
329,192,347298,128,0,347688:0:0:0:0:
182,192,347454,128,0,348313:0:0:0:0:
402,192,347767,128,0,347845:0:0:0:0:
329,192,347767,128,0,347845:0:0:0:0:
402,192,347923,128,0,348313:0:0:0:0:
329,192,347923,128,0,348313:0:0:0:0:
36,192,348079,128,0,348313:0:0:0:0:
109,192,348079,128,0,348313:0:0:0:0:
402,192,348392,128,0,348626:0:0:0:0:
475,192,348392,128,0,350813:0:0:0:0:
329,192,348704,128,0,348938:0:0:0:0:
402,192,348704,128,0,350813:0:0:0:0:
329,192,349017,128,0,350501:0:0:0:0:
256,192,349017,128,0,349251:0:0:0:0:
256,192,349329,128,0,350188:0:0:0:0:
182,192,349329,128,0,349876:0:0:0:0:
36,192,349642,128,0,350813:0:0:0:0:
109,192,349642,128,0,349876:0:0:0:0:
109,192,349954,128,0,350813:0:0:0:0:
182,192,349954,128,0,350188:0:0:0:0:
256,192,350267,128,0,350501:0:0:0:0:
182,192,350267,128,0,350813:0:0:0:0:
256,192,350579,128,0,350813:0:0:0:0:
329,192,350579,128,0,350813:0:0:0:0:
36,192,350892,128,0,351126:0:0:0:0:
182,192,350892,128,0,351126:0:0:0:0:
109,192,350892,128,0,351907:0:0:0:0:
329,192,350892,128,0,351282:0:0:0:0:
402,192,350892,128,0,351907:0:0:0:0:
475,192,350892,128,0,351282:0:0:0:0:
182,192,351204,128,0,351907:0:0:0:0:
36,192,351204,128,0,352376:0:0:0:0:
475,192,351360,128,0,351595:0:0:0:0:
329,192,351360,128,0,351595:0:0:0:0:
475,192,351673,128,0,352220:0:0:0:0:
329,192,351673,128,0,351907:0:0:0:0:
402,192,351985,128,0,352845:0:0:0:0:
109,192,351985,128,0,353157:0:0:0:0:
329,192,351985,128,0,352220:0:0:0:0:
182,192,351985,128,0,352376:0:0:0:0:
475,192,352298,128,0,352767:0:0:0:0:
329,192,352298,128,0,352923:0:0:0:0:
182,192,352454,128,0,352688:0:0:0:0:
36,192,352454,128,0,352688:0:0:0:0:
182,192,352767,128,0,353079:0:0:0:0:
36,192,352767,128,0,353157:0:0:0:0:
475,192,352845,128,0,353157:0:0:0:0:
402,192,352923,128,0,353157:0:0:0:0:
329,192,353001,128,0,354251:0:0:0:0:
256,192,353079,128,0,355657:0:0:0:0:
182,192,353157,128,0,353626:0:0:0:0:
402,192,353235,128,0,353470:0:0:0:0:
475,192,353235,128,0,354407:0:0:0:0:
109,192,353235,128,0,353470:0:0:0:0:
36,192,353235,128,0,354407:0:0:0:0:
402,192,353548,128,0,353938:0:0:0:0:
109,192,353548,128,0,353938:0:0:0:0:
182,192,353704,128,0,354251:0:0:0:0:
402,192,354017,128,0,354095:0:0:0:0:
109,192,354017,128,0,354095:0:0:0:0:
402,192,354173,128,0,354876:0:0:0:0:
109,192,354173,128,0,355501:0:0:0:0:
329,192,354329,128,0,354720:0:0:0:0:
182,192,354329,128,0,354720:0:0:0:0:
475,192,354485,128,0,355657:0:0:0:0:
36,192,354485,128,0,355657:0:0:0:0:
329,192,354798,128,0,355188:0:0:0:0:
182,192,354798,128,0,355188:0:0:0:0:
402,192,354954,128,0,355501:0:0:0:0:
329,192,355267,128,0,355345:0:0:0:0:
182,192,355267,128,0,355345:0:0:0:0:
329,192,355423,128,0,356126:0:0:0:0:
182,192,355423,128,0,356751:0:0:0:0:
402,192,355579,128,0,355970:0:0:0:0:
109,192,355579,128,0,355970:0:0:0:0:
256,192,355735,128,0,358313:0:0:0:0:
475,192,355735,128,0,356907:0:0:0:0:
36,192,355735,128,0,356907:0:0:0:0:
402,192,356048,128,0,356438:0:0:0:0:
109,192,356048,128,0,356438:0:0:0:0:
329,192,356204,128,0,356751:0:0:0:0:
109,192,356517,128,0,356595:0:0:0:0:
402,192,356517,128,0,356595:0:0:0:0:
109,192,356673,128,0,357376:0:0:0:0:
402,192,356673,128,0,358001:0:0:0:0:
329,192,356829,128,0,357220:0:0:0:0:
182,192,356829,128,0,357220:0:0:0:0:
475,192,356985,128,0,358313:0:0:0:0:
36,192,356985,128,0,358313:0:0:0:0:
329,192,357298,128,0,357688:0:0:0:0:
182,192,357298,128,0,357688:0:0:0:0:
109,192,357454,128,0,358001:0:0:0:0:
182,192,357767,128,0,357845:0:0:0:0:
329,192,357767,128,0,357845:0:0:0:0:
182,192,357923,128,0,358313:0:0:0:0:
329,192,357923,128,0,358313:0:0:0:0:
402,192,358079,128,0,358313:0:0:0:0:
109,192,358079,128,0,358313:0:0:0:0:
36,192,358392,128,0,360813:0:0:0:0:
182,192,358392,128,0,358938:0:0:0:0:
109,192,358392,128,0,358626:0:0:0:0:
256,192,358704,128,0,359251:0:0:0:0:
109,192,358704,128,0,360501:0:0:0:0:
329,192,359017,128,0,359563:0:0:0:0:
182,192,359017,128,0,360188:0:0:0:0:
402,192,359329,128,0,359876:0:0:0:0:
256,192,359329,128,0,359876:0:0:0:0:
329,192,359642,128,0,360188:0:0:0:0:
475,192,359642,128,0,360813:0:0:0:0:
256,192,359954,128,0,360501:0:0:0:0:
402,192,359954,128,0,360813:0:0:0:0:
329,192,360267,128,0,360813:0:0:0:0:
182,192,360267,128,0,360813:0:0:0:0:
256,192,360579,128,0,360813:0:0:0:0:
109,192,360579,128,0,360813:0:0:0:0:
329,192,360892,128,0,361126:0:0:0:0:
36,192,360892,128,0,361126:0:0:0:0:
109,192,360892,128,0,361907:0:0:0:0:
182,192,360892,128,0,361282:0:0:0:0:
402,192,360892,128,0,361907:0:0:0:0:
475,192,360892,128,0,361282:0:0:0:0:
329,192,361204,128,0,361907:0:0:0:0:
36,192,361204,128,0,361907:0:0:0:0:
475,192,361360,128,0,361595:0:0:0:0:
182,192,361360,128,0,361595:0:0:0:0:
475,192,361673,128,0,362220:0:0:0:0:
182,192,361673,128,0,362220:0:0:0:0:
402,192,361985,128,0,363079:0:0:0:0:
329,192,361985,128,0,362376:0:0:0:0:
109,192,361985,128,0,362767:0:0:0:0:
36,192,361985,128,0,362376:0:0:0:0:
475,192,362298,128,0,363001:0:0:0:0:
182,192,362298,128,0,362845:0:0:0:0:
329,192,362454,128,0,362688:0:0:0:0:
36,192,362454,128,0,362688:0:0:0:0:
36,192,362767,128,0,363313:0:0:0:0:
329,192,362767,128,0,363157:0:0:0:0:
109,192,362845,128,0,363313:0:0:0:0:
182,192,362923,128,0,363313:0:0:0:0:
256,192,363001,128,0,363235:0:0:0:0:
475,192,363079,128,0,363313:0:0:0:0:
402,192,363157,128,0,363313:0:0:0:0:
329,192,363235,128,0,363313:0:0:0:0:
256,192,363313,1,0,0:0:0:0:
329,192,363392,128,0,364563:0:0:0:0:
402,192,363392,128,0,364563:0:0:0:0:
475,192,363392,128,0,365188:0:0:0:0:
182,192,363392,128,0,363626:0:0:0:0:
109,192,363392,128,0,363938:0:0:0:0:
36,192,363392,128,0,363938:0:0:0:0:
182,192,363704,128,0,364251:0:0:0:0:
36,192,364017,128,0,365813:0:0:0:0:
109,192,364017,128,0,364095:0:0:0:0:
109,192,364173,128,0,364563:0:0:0:0:
182,192,364329,128,0,364563:0:0:0:0:
402,192,364642,128,0,365188:0:0:0:0:
329,192,364642,128,0,364876:0:0:0:0:
109,192,364642,128,0,366438:0:0:0:0:
182,192,364642,128,0,365813:0:0:0:0:
329,192,364954,128,0,365501:0:0:0:0:
475,192,365267,128,0,365813:0:0:0:0:
402,192,365267,128,0,365345:0:0:0:0:
402,192,365423,128,0,367063:0:0:0:0:
329,192,365579,128,0,365813:0:0:0:0:
329,192,365892,128,0,367376:0:0:0:0:
475,192,365892,128,0,367063:0:0:0:0:
36,192,365892,128,0,366438:0:0:0:0:
182,192,365892,128,0,366126:0:0:0:0:
182,192,366204,128,0,366751:0:0:0:0:
36,192,366517,128,0,367063:0:0:0:0:
109,192,366517,128,0,366595:0:0:0:0:
109,192,366673,128,0,367063:0:0:0:0:
182,192,366829,128,0,368313:0:0:0:0:
109,192,367142,128,0,368313:0:0:0:0:
36,192,367142,128,0,368313:0:0:0:0:
402,192,367142,128,0,367688:0:0:0:0:
475,192,367142,128,0,367688:0:0:0:0:
329,192,367454,128,0,368001:0:0:0:0:
475,192,367767,128,0,368313:0:0:0:0:
402,192,367767,128,0,367845:0:0:0:0:
402,192,367923,128,0,368313:0:0:0:0:
329,192,368079,128,0,368313:0:0:0:0:
329,192,368392,128,0,368626:0:0:0:0:
256,192,368392,128,0,368626:0:0:0:0:
182,192,368392,128,0,368626:0:0:0:0:
329,192,368704,128,0,368938:0:0:0:0:
256,192,368704,128,0,369095:0:0:0:0:
182,192,368704,128,0,368938:0:0:0:0:
329,192,369017,128,0,369251:0:0:0:0:
182,192,369017,128,0,369251:0:0:0:0:
256,192,369173,128,0,369407:0:0:0:0:
182,192,369329,128,0,369563:0:0:0:0:
329,192,369329,128,0,369563:0:0:0:0:
256,192,369485,128,0,371907:0:0:0:0:
402,192,369642,128,0,369876:0:0:0:0:
109,192,369642,128,0,369876:0:0:0:0:
182,192,369642,128,0,369876:0:0:0:0:
329,192,369642,128,0,369876:0:0:0:0:
402,192,369954,128,0,370188:0:0:0:0:
109,192,369954,128,0,370188:0:0:0:0:
182,192,369954,128,0,370188:0:0:0:0:
329,192,369954,128,0,370188:0:0:0:0:
402,192,370267,128,0,370501:0:0:0:0:
109,192,370267,128,0,370501:0:0:0:0:
182,192,370267,128,0,370501:0:0:0:0:
329,192,370267,128,0,370501:0:0:0:0:
402,192,370579,128,0,370813:0:0:0:0:
109,192,370579,128,0,370813:0:0:0:0:
182,192,370579,128,0,370813:0:0:0:0:
329,192,370579,128,0,370813:0:0:0:0:
402,192,370892,128,0,371126:0:0:0:0:
475,192,370892,128,0,371126:0:0:0:0:
36,192,370892,128,0,371126:0:0:0:0:
109,192,370892,128,0,371126:0:0:0:0:
182,192,370892,128,0,372063:0:0:0:0:
329,192,370892,128,0,372063:0:0:0:0:
402,192,371204,128,0,371438:0:0:0:0:
475,192,371204,128,0,371438:0:0:0:0:
36,192,371204,128,0,371438:0:0:0:0:
109,192,371204,128,0,371438:0:0:0:0:
402,192,371517,128,0,371751:0:0:0:0:
475,192,371517,128,0,371751:0:0:0:0:
36,192,371517,128,0,371751:0:0:0:0:
109,192,371517,128,0,371751:0:0:0:0:
109,192,371829,128,0,372063:0:0:0:0:
402,192,371829,128,0,372063:0:0:0:0:
475,192,371829,128,0,372063:0:0:0:0:
36,192,371829,128,0,372063:0:0:0:0:
256,192,371985,128,0,374720:0:0:0:0:
475,192,372142,128,0,372376:0:0:0:0:
109,192,372142,128,0,372376:0:0:0:0:
402,192,372142,128,0,372376:0:0:0:0:
36,192,372142,128,0,372376:0:0:0:0:
182,192,372142,128,0,372376:0:0:0:0:
329,192,372142,128,0,372376:0:0:0:0:
36,192,372454,128,0,373157:0:0:0:0:
109,192,372454,128,0,372845:0:0:0:0:
402,192,372454,128,0,372688:0:0:0:0:
475,192,372454,128,0,373782:0:0:0:0:
329,192,372454,128,0,372767:0:0:0:0:
182,192,372454,128,0,372923:0:0:0:0:
402,192,372767,128,0,373001:0:0:0:0:
329,192,372845,128,0,373079:0:0:0:0:
109,192,372923,128,0,373157:0:0:0:0:
182,192,373001,128,0,373157:0:0:0:0:
402,192,373079,128,0,373626:0:0:0:0:
329,192,373157,128,0,373470:0:0:0:0:
36,192,373235,128,0,375970:0:0:0:0:
109,192,373235,128,0,373938:0:0:0:0:
182,192,373235,128,0,373938:0:0:0:0:
329,192,373548,128,0,374407:0:0:0:0:
402,192,373704,128,0,374095:0:0:0:0:
475,192,373860,128,0,375657:0:0:0:0:
109,192,374017,128,0,376126:0:0:0:0:
182,192,374017,128,0,374251:0:0:0:0:
402,192,374173,128,0,375657:0:0:0:0:
182,192,374329,128,0,375032:0:0:0:0:
329,192,374485,128,0,375657:0:0:0:0:
256,192,374798,128,0,375345:0:0:0:0:
182,192,375110,128,0,376282:0:0:0:0:
256,192,375423,128,0,375501:0:0:0:0:
256,192,375579,128,0,379720:0:0:0:0:
475,192,375735,128,0,377376:0:0:0:0:
402,192,375735,128,0,376438:0:0:0:0:
329,192,375735,128,0,376438:0:0:0:0:
36,192,376048,128,0,376907:0:0:0:0:
109,192,376204,128,0,376595:0:0:0:0:
182,192,376360,128,0,377688:0:0:0:0:
329,192,376517,128,0,376751:0:0:0:0:
402,192,376517,128,0,377298:0:0:0:0:
109,192,376673,128,0,377610:0:0:0:0:
329,192,376829,128,0,377220:0:0:0:0:
36,192,376985,128,0,377532:0:0:0:0:
329,192,377298,128,0,377845:0:0:0:0:
402,192,377376,128,0,378157:0:0:0:0:
475,192,377454,128,0,378157:0:0:0:0:
36,192,377610,128,0,378470:0:0:0:0:
109,192,377688,128,0,380970:0:0:0:0:
182,192,377767,128,0,378001:0:0:0:0:
329,192,377923,128,0,378157:0:0:0:0:
182,192,378079,128,0,378626:0:0:0:0:
475,192,378235,128,0,378938:0:0:0:0:
402,192,378235,128,0,379095:0:0:0:0:
329,192,378235,128,0,378782:0:0:0:0:
36,192,378548,128,0,378938:0:0:0:0:
182,192,378704,128,0,380032:0:0:0:0:
329,192,378860,128,0,379407:0:0:0:0:
475,192,379017,128,0,380657:0:0:0:0:
36,192,379017,128,0,379251:0:0:0:0:
402,192,379173,128,0,381282:0:0:0:0:
36,192,379329,128,0,380657:0:0:0:0:
329,192,379485,128,0,380345:0:0:0:0:
256,192,379798,128,0,380657:0:0:0:0:
182,192,380110,128,0,380501:0:0:0:0:
329,192,380423,128,0,381595:0:0:0:0:
182,192,380579,128,0,381438:0:0:0:0:
475,192,380735,128,0,382063:0:0:0:0:
36,192,380735,128,0,381751:0:0:0:0:
256,192,380735,128,0,381126:0:0:0:0:
109,192,381048,128,0,381751:0:0:0:0:
256,192,381204,128,0,381907:0:0:0:0:
402,192,381360,128,0,382063:0:0:0:0:
182,192,381517,128,0,382220:0:0:0:0:
329,192,381673,128,0,382376:0:0:0:0:
36,192,381829,128,0,383001:0:0:0:0:
109,192,381829,128,0,383079:0:0:0:0:
256,192,381985,128,0,382688:0:0:0:0:
475,192,382142,128,0,382923:0:0:0:0:
402,192,382142,128,0,382845:0:0:0:0:
182,192,382298,128,0,382532:0:0:0:0:
329,192,382454,128,0,382767:0:0:0:0:
182,192,382610,128,0,383157:0:0:0:0:
256,192,382767,128,0,383235:0:0:0:0:
329,192,382845,128,0,383392:0:0:0:0:
402,192,382923,128,0,383392:0:0:0:0:
475,192,383001,128,0,383392:0:0:0:0:
36,192,383079,128,0,383392:0:0:0:0:
109,192,383157,128,0,383392:0:0:0:0:
182,192,383235,128,0,383392:0:0:0:0:
256,192,383313,128,0,383392:0:0:0:0:
36,192,395886,132,0,397069:0:0:0:0:
329,192,395988,128,0,396055:0:0:0:0:
256,192,395988,128,0,396055:0:0:0:0:
182,192,395988,128,0,397609:0:0:0:0:
448,192,396021,128,0,398015:0:0:0:0:
109,192,396528,128,0,398015:0:0:0:0:
256,192,396798,128,0,396866:0:0:0:0:
329,192,397069,128,0,398015:0:0:0:0:
402,192,397103,128,0,398015:0:0:0:0:
36,192,398150,128,0,399231:0:0:0:0:
448,192,398150,128,0,400582:0:0:0:0:
320,192,398150,128,0,398420:0:0:0:0:
182,192,398690,128,0,399636:0:0:0:0:
329,192,399231,128,0,399907:0:0:0:0:
64,192,399501,128,0,400177:0:0:0:0:
402,192,399501,128,0,400177:0:0:0:0:
109,192,400042,128,0,400109:0:0:0:0:
256,192,400042,128,0,400109:0:0:0:0:
256,192,400312,128,0,400380:0:0:0:0:
109,192,400312,128,0,400380:0:0:0:0:
64,192,400312,128,0,402069:0:0:0:0:
182,192,400346,128,0,401055:0:0:0:0:
402,192,400380,128,0,402204:0:0:0:0:
329,192,400853,128,0,401393:0:0:0:0:
256,192,401123,128,0,401190:0:0:0:0:
109,192,401123,128,0,401190:0:0:0:0:
448,192,401123,128,0,402880:0:0:0:0:
182,192,401393,128,0,401528:0:0:0:0:
109,192,401663,128,0,402339:0:0:0:0:
182,192,401934,128,0,402609:0:0:0:0:
256,192,402204,128,0,402880:0:0:0:0:
36,192,402474,128,0,402609:0:0:0:0:
402,192,402474,128,0,404636:0:0:0:0:
329,192,402744,128,0,403150:0:0:0:0:
109,192,402744,128,0,402880:0:0:0:0:
475,192,403015,128,0,404366:0:0:0:0:
182,192,403015,128,0,403150:0:0:0:0:
329,192,403285,128,0,404096:0:0:0:0:
109,192,403285,128,0,403420:0:0:0:0:
36,192,404096,128,0,404231:0:0:0:0:
182,192,404366,128,0,404501:0:0:0:0:
329,192,404636,128,0,406258:0:0:0:0:
256,192,404636,128,0,404704:0:0:0:0:
182,192,404636,128,0,405177:0:0:0:0:
64,192,404636,128,0,405582:0:0:0:0:
109,192,404636,128,0,404704:0:0:0:0:
475,192,404670,128,0,405312:0:0:0:0:
109,192,405447,128,0,405515:0:0:0:0:
182,192,405447,128,0,405515:0:0:0:0:
256,192,405717,128,0,405853:0:0:0:0:
448,192,405717,128,0,406663:0:0:0:0:
64,192,405717,128,0,406663:0:0:0:0:
182,192,406258,128,0,406663:0:0:0:0:
182,192,406798,128,0,407609:0:0:0:0:
329,192,406798,128,0,407339:0:0:0:0:
64,192,406798,128,0,407880:0:0:0:0:
448,192,406798,128,0,408826:0:0:0:0:
256,192,407880,128,0,409636:0:0:0:0:
182,192,408150,128,0,408285:0:0:0:0:
36,192,408150,128,0,408690:0:0:0:0:
402,192,408690,128,0,408758:0:0:0:0:
329,192,408690,128,0,408758:0:0:0:0:
182,192,408690,128,0,409231:0:0:0:0:
475,192,408961,128,0,409771:0:0:0:0:
329,192,408961,128,0,409028:0:0:0:0:
36,192,408961,128,0,409907:0:0:0:0:
402,192,408961,128,0,409028:0:0:0:0:
109,192,409231,128,0,410312:0:0:0:0:
182,192,409501,128,0,409907:0:0:0:0:
256,192,409771,128,0,410312:0:0:0:0:
320,192,409771,128,0,410042:0:0:0:0:
402,192,410042,128,0,410312:0:0:0:0:
448,192,410042,128,0,413150:0:0:0:0:
182,192,410312,128,0,410582:0:0:0:0:
64,192,410312,128,0,410582:0:0:0:0:
256,192,410582,128,0,410853:0:0:0:0:
329,192,410582,128,0,410717:0:0:0:0:
109,192,410582,128,0,410853:0:0:0:0:
402,192,410853,128,0,411258:0:0:0:0:
182,192,410853,128,0,411258:0:0:0:0:
320,192,410853,128,0,413150:0:0:0:0:
402,192,411393,128,0,411798:0:0:0:0:
192,192,411393,128,0,411461:0:0:0:0:
402,192,411934,128,0,412339:0:0:0:0:
109,192,411934,128,0,412001:0:0:0:0:
402,192,412474,128,0,413150:0:0:0:0:
36,192,412474,128,0,412542:0:0:0:0:
36,192,413217,128,0,413353:0:0:0:0:
182,192,413285,128,0,413353:0:0:0:0:
256,192,413285,128,0,413353:0:0:0:0:
448,192,413285,128,0,415717:0:0:0:0:
329,192,413285,128,0,414096:0:0:0:0:
109,192,413826,128,0,414501:0:0:0:0:
36,192,414096,128,0,414163:0:0:0:0:
256,192,414096,128,0,414907:0:0:0:0:
402,192,414366,128,0,414907:0:0:0:0:
36,192,414636,128,0,415447:0:0:0:0:
192,192,414636,128,0,415177:0:0:0:0:
109,192,414636,128,0,415177:0:0:0:0:
402,192,415177,128,0,415447:0:0:0:0:
320,192,415177,128,0,415853:0:0:0:0:
256,192,415447,128,0,416258:0:0:0:0:
182,192,415447,128,0,415582:0:0:0:0:
109,192,415447,128,0,416798:0:0:0:0:
182,192,415717,128,0,415853:0:0:0:0:
402,192,415988,128,0,416055:0:0:0:0:
448,192,415988,128,0,416798:0:0:0:0:
182,192,416528,128,0,416596:0:0:0:0:
320,192,416528,128,0,417339:0:0:0:0:
36,192,417069,128,0,417136:0:0:0:0:
192,192,417069,128,0,417880:0:0:0:0:
475,192,417339,128,0,417407:0:0:0:0:
402,192,417339,128,0,417407:0:0:0:0:
256,192,417609,128,0,418961:0:0:0:0:
36,192,417609,128,0,418690:0:0:0:0:
402,192,417609,128,0,417677:0:0:0:0:
475,192,417609,128,0,417677:0:0:0:0:
109,192,417880,128,0,419501:0:0:0:0:
192,192,418150,128,0,419231:0:0:0:0:
320,192,418420,128,0,418690:0:0:0:0:
448,192,418690,128,0,419501:0:0:0:0:
402,192,418961,128,0,419771:0:0:0:0:
329,192,419231,128,0,420042:0:0:0:0:
36,192,419501,128,0,419569:0:0:0:0:
256,192,419501,128,0,420988:0:0:0:0:
36,192,419771,128,0,421123:0:0:0:0:
192,192,420042,128,0,421258:0:0:0:0:
320,192,420312,128,0,420717:0:0:0:0:
402,192,420582,128,0,421123:0:0:0:0:
448,192,420853,128,0,421798:0:0:0:0:
329,192,421123,128,0,421393:0:0:0:0:
109,192,421123,128,0,421798:0:0:0:0:
36,192,421393,128,0,422474:0:0:0:0:
256,192,421393,128,0,421663:0:0:0:0:
182,192,421663,128,0,422204:0:0:0:0:
475,192,421934,128,0,422069:0:0:0:0:
256,192,421934,128,0,422474:0:0:0:0:
109,192,421934,128,0,422001:0:0:0:0:
329,192,422204,128,0,422474:0:0:0:0:
402,192,422474,128,0,422744:0:0:0:0:
192,192,422474,128,0,423015:0:0:0:0:
36,192,422744,128,0,422812:0:0:0:0:
256,192,422744,128,0,423555:0:0:0:0:
475,192,422744,128,0,424096:0:0:0:0:
329,192,423015,128,0,423150:0:0:0:0:
109,192,423015,128,0,423150:0:0:0:0:
36,192,423285,128,0,423826:0:0:0:0:
402,192,423285,128,0,423690:0:0:0:0:
256,192,423826,128,0,424366:0:0:0:0:
109,192,423826,128,0,424907:0:0:0:0:
329,192,423826,128,0,423961:0:0:0:0:
402,192,424096,1,0,0:0:0:0:
192,192,424096,128,0,424636:0:0:0:0:
64,192,424096,128,0,424907:0:0:0:0:
329,192,424130,128,0,424231:0:0:0:0:
402,192,424366,128,0,424907:0:0:0:0:
256,192,424636,128,0,425447:0:0:0:0:
320,192,424636,128,0,425177:0:0:0:0:
448,192,424636,128,0,425447:0:0:0:0:
182,192,424907,1,0,0:0:0:0:
402,192,425177,1,0,0:0:0:0:
192,192,425177,128,0,425717:0:0:0:0:
64,192,425177,128,0,426258:0:0:0:0:
329,192,425447,1,0,0:0:0:0:
109,192,425447,128,0,425988:0:0:0:0:
256,192,425717,1,0,0:0:0:0:
402,192,425717,128,0,425988:0:0:0:0:
182,192,425988,1,0,0:0:0:0:
329,192,425988,128,0,426258:0:0:0:0:
182,192,426258,128,0,426798:0:0:0:0:
109,192,426258,1,0,0:0:0:0:
475,192,426258,128,0,430447:0:0:0:0:
256,192,426258,128,0,430447:0:0:0:0:
402,192,426528,128,0,427069:0:0:0:0:
109,192,426798,128,0,427339:0:0:0:0:
329,192,427069,128,0,427609:0:0:0:0:
36,192,427339,128,0,428420:0:0:0:0:
402,192,427609,128,0,428961:0:0:0:0:
182,192,427880,128,0,428690:0:0:0:0:
329,192,428150,128,0,429231:0:0:0:0:
36,192,428690,128,0,430312:0:0:0:0:
402,192,429231,128,0,429771:0:0:0:0:
192,192,429231,128,0,429501:0:0:0:0:
109,192,429771,128,0,430042:0:0:0:0:
329,192,430042,128,0,430177:0:0:0:0:
182,192,430312,128,0,430582:0:0:0:0:
402,192,430582,1,0,0:0:0:0:
475,192,430582,1,0,0:0:0:0:
329,192,430582,128,0,431123:0:0:0:0:
36,192,430582,128,0,434771:0:0:0:0:
256,192,430582,128,0,434771:0:0:0:0:
109,192,430853,128,0,431393:0:0:0:0:
402,192,431123,128,0,431663:0:0:0:0:
182,192,431393,128,0,431934:0:0:0:0:
475,192,431663,128,0,432744:0:0:0:0:
109,192,431934,128,0,433285:0:0:0:0:
329,192,432204,128,0,433015:0:0:0:0:
182,192,432474,128,0,433555:0:0:0:0:
475,192,433015,128,0,434636:0:0:0:0:
109,192,433555,128,0,434096:0:0:0:0:
329,192,433555,128,0,433826:0:0:0:0:
402,192,434096,128,0,434366:0:0:0:0:
182,192,434366,128,0,434501:0:0:0:0:
329,192,434636,128,0,434907:0:0:0:0:
402,192,434907,128,0,434974:0:0:0:0:
109,192,434907,128,0,434974:0:0:0:0:
36,192,434907,128,0,436258:0:0:0:0:
475,192,434974,128,0,437001:0:0:0:0:
109,192,435447,1,0,0:0:0:0:
192,192,435447,128,0,436798:0:0:0:0:
256,192,435988,1,0,0:0:0:0:
320,192,435988,128,0,437339:0:0:0:0:
402,192,436528,1,0,0:0:0:0:
109,192,436528,128,0,437880:0:0:0:0:
36,192,437024,128,0,437114:0:0:0:0:
402,192,437069,128,0,437136:0:0:0:0:
256,192,437069,128,0,438420:0:0:0:0:
475,192,437114,128,0,437204:0:0:0:0:
182,192,437609,1,0,0:0:0:0:
402,192,437609,128,0,438690:0:0:0:0:
36,192,438150,1,0,0:0:0:0:
475,192,438150,128,0,438961:0:0:0:0:
320,192,438150,128,0,438961:0:0:0:0:
109,192,438690,1,0,0:0:0:0:
192,192,438690,128,0,439501:0:0:0:0:
402,192,439231,128,0,439771:0:0:0:0:
256,192,439231,1,0,0:0:0:0:
448,192,439231,128,0,440177:0:0:0:0:
36,192,439231,128,0,440582:0:0:0:0:
109,192,439771,1,0,0:0:0:0:
256,192,439771,128,0,441123:0:0:0:0:
402,192,440312,128,0,441663:0:0:0:0:
329,192,440312,1,0,0:0:0:0:
192,192,440312,128,0,441663:0:0:0:0:
448,192,440312,128,0,441258:0:0:0:0:
36,192,440853,1,0,0:0:0:0:
109,192,440853,128,0,442204:0:0:0:0:
329,192,441393,1,0,0:0:0:0:
64,192,441393,128,0,442744:0:0:0:0:
448,192,441393,128,0,442339:0:0:0:0:
329,192,441934,1,0,0:0:0:0:
256,192,441934,128,0,443285:0:0:0:0:
475,192,442474,1,0,0:0:0:0:
402,192,442474,128,0,443826:0:0:0:0:
109,192,442474,128,0,443420:0:0:0:0:
182,192,443015,1,0,0:0:0:0:
320,192,443015,128,0,444366:0:0:0:0:
36,192,443555,1,0,0:0:0:0:
256,192,443555,128,0,444096:0:0:0:0:
448,192,443589,128,0,444501:0:0:0:0:
36,192,444096,128,0,444907:0:0:0:0:
182,192,444366,128,0,444636:0:0:0:0:
402,192,444636,1,0,0:0:0:0:
448,192,444636,128,0,445312:0:0:0:0:
320,192,444636,128,0,445717:0:0:0:0:
182,192,444907,128,0,445717:0:0:0:0:
36,192,445177,128,0,445447:0:0:0:0:
256,192,445447,128,0,445717:0:0:0:0:
475,192,445717,128,0,446798:0:0:0:0:
109,192,445717,128,0,446798:0:0:0:0:
64,192,445717,128,0,446258:0:0:0:0:
256,192,445988,128,0,446528:0:0:0:0:
402,192,446258,128,0,446798:0:0:0:0:
36,192,446528,128,0,447069:0:0:0:0:
256,192,446798,128,0,447339:0:0:0:0:
320,192,446798,128,0,447609:0:0:0:0:
192,192,446798,128,0,447880:0:0:0:0:
475,192,447069,128,0,447609:0:0:0:0:
36,192,447339,128,0,447880:0:0:0:0:
109,192,447339,128,0,447880:0:0:0:0:
402,192,447880,128,0,449501:0:0:0:0:
448,192,447880,128,0,448961:0:0:0:0:
320,192,447880,128,0,450042:0:0:0:0:
192,192,449501,128,0,449569:0:0:0:0:
192,192,450042,128,0,450582:0:0:0:0:
64,192,450042,128,0,450988:0:0:0:0:
109,192,451123,128,0,451528:0:0:0:0:
182,192,451393,128,0,451798:0:0:0:0:
329,192,451663,128,0,452069:0:0:0:0:
402,192,451934,128,0,452339:0:0:0:0:
36,192,452204,128,0,454366:0:0:0:0:
182,192,452204,128,0,452880:0:0:0:0:
448,192,452204,128,0,454907:0:0:0:0:
329,192,452474,1,0,0:0:0:0:
402,192,452609,1,0,0:0:0:0:
329,192,452744,1,0,0:0:0:0:
109,192,452744,128,0,453015:0:0:0:0:
329,192,453015,1,0,0:0:0:0:
256,192,453015,128,0,453150:0:0:0:0:
182,192,453015,128,0,453353:0:0:0:0:
402,192,453150,1,0,0:0:0:0:
329,192,453285,1,0,0:0:0:0:
109,192,453285,1,0,0:0:0:0:
256,192,453420,1,0,0:0:0:0:
109,192,453555,128,0,454231:0:0:0:0:
402,192,453555,128,0,454096:0:0:0:0:
182,192,453826,1,0,0:0:0:0:
329,192,453961,1,0,0:0:0:0:
182,192,454096,1,0,0:0:0:0:
402,192,454366,128,0,454434:0:0:0:0:
109,192,454366,128,0,454434:0:0:0:0:
256,192,454366,128,0,455988:0:0:0:0:
36,192,454636,128,0,455244:0:0:0:0:
402,192,454771,1,0,0:0:0:0:
109,192,454771,1,0,0:0:0:0:
320,192,454907,128,0,455515:0:0:0:0:
402,192,455177,1,0,0:0:0:0:
109,192,455177,1,0,0:0:0:0:
448,192,455177,128,0,455717:0:0:0:0:
109,192,455447,1,0,0:0:0:0:
402,192,455447,1,0,0:0:0:0:
192,192,455447,128,0,455717:0:0:0:0:
329,192,455717,1,0,0:0:0:0:
64,192,455717,128,0,455988:0:0:0:0:
182,192,455853,1,0,0:0:0:0:
109,192,455988,1,0,0:0:0:0:
402,192,455988,128,0,456393:0:0:0:0:
448,192,455988,128,0,456258:0:0:0:0:
109,192,456258,128,0,456393:0:0:0:0:
36,192,456258,128,0,456393:0:0:0:0:
320,192,456258,128,0,456528:0:0:0:0:
256,192,456393,128,0,456663:0:0:0:0:
475,192,456528,128,0,456596:0:0:0:0:
36,192,456528,128,0,456596:0:0:0:0:
192,192,456528,128,0,457069:0:0:0:0:
475,192,456798,1,0,0:0:0:0:
329,192,456934,1,0,0:0:0:0:
475,192,457069,1,0,0:0:0:0:
402,192,457069,128,0,457609:0:0:0:0:
36,192,457069,128,0,457880:0:0:0:0:
182,192,457339,1,0,0:0:0:0:
109,192,457339,1,0,0:0:0:0:
329,192,457339,128,0,458150:0:0:0:0:
256,192,457474,1,0,0:0:0:0:
182,192,457609,128,0,458555:0:0:0:0:
475,192,457609,128,0,458420:0:0:0:0:
402,192,457880,128,0,458690:0:0:0:0:
36,192,458150,1,0,0:0:0:0:
109,192,458285,1,0,0:0:0:0:
36,192,458420,1,0,0:0:0:0:
36,192,458690,128,0,459907:0:0:0:0:
182,192,458690,128,0,458758:0:0:0:0:
109,192,458690,128,0,458758:0:0:0:0:
329,192,458961,128,0,459501:0:0:0:0:
182,192,459096,1,0,0:0:0:0:
109,192,459096,1,0,0:0:0:0:
402,192,459231,128,0,459771:0:0:0:0:
109,192,459501,1,0,0:0:0:0:
182,192,459501,1,0,0:0:0:0:
475,192,459501,128,0,460042:0:0:0:0:
256,192,459636,1,0,0:0:0:0:
182,192,459771,1,0,0:0:0:0:
109,192,459771,1,0,0:0:0:0:
329,192,459771,128,0,460312:0:0:0:0:
109,192,460042,1,0,0:0:0:0:
256,192,460042,128,0,460582:0:0:0:0:
36,192,460177,1,0,0:0:0:0:
475,192,460312,1,0,0:0:0:0:
182,192,460312,128,0,461123:0:0:0:0:
402,192,460447,1,0,0:0:0:0:
109,192,460582,1,0,0:0:0:0:
36,192,460582,1,0,0:0:0:0:
329,192,460582,1,0,0:0:0:0:
402,192,460717,1,0,0:0:0:0:
109,192,460853,128,0,460920:0:0:0:0:
475,192,460853,1,0,0:0:0:0:
329,192,460853,128,0,462474:0:0:0:0:
36,192,460853,128,0,460920:0:0:0:0:
402,192,461123,1,0,0:0:0:0:
109,192,461123,128,0,461663:0:0:0:0:
475,192,461258,1,0,0:0:0:0:
402,192,461393,1,0,0:0:0:0:
256,192,461393,128,0,461934:0:0:0:0:
36,192,461663,1,0,0:0:0:0:
182,192,461663,1,0,0:0:0:0:
402,192,461663,128,0,462204:0:0:0:0:
109,192,461798,1,0,0:0:0:0:
475,192,461934,1,0,0:0:0:0:
182,192,461934,1,0,0:0:0:0:
64,192,461934,128,0,462812:0:0:0:0:
109,192,462204,128,0,463285:0:0:0:0:
182,192,462474,1,0,0:0:0:0:
402,192,462474,128,0,463015:0:0:0:0:
256,192,462609,1,0,0:0:0:0:
182,192,462744,1,0,0:0:0:0:
329,192,462744,128,0,463285:0:0:0:0:
475,192,463015,128,0,463082:0:0:0:0:
256,192,463015,128,0,463961:0:0:0:0:
36,192,463285,128,0,464096:0:0:0:0:
475,192,463420,1,0,0:0:0:0:
402,192,463420,1,0,0:0:0:0:
109,192,463555,128,0,464366:0:0:0:0:
475,192,463826,1,0,0:0:0:0:
402,192,463826,1,0,0:0:0:0:
182,192,463826,128,0,464636:0:0:0:0:
329,192,464096,1,0,0:0:0:0:
402,192,464096,1,0,0:0:0:0:
448,192,464096,128,0,465042:0:0:0:0:
256,192,464096,128,0,465177:0:0:0:0:
329,192,464366,1,0,0:0:0:0:
402,192,464501,1,0,0:0:0:0:
329,192,464636,1,0,0:0:0:0:
36,192,464636,128,0,465042:0:0:0:0:
402,192,464907,1,0,0:0:0:0:
329,192,464907,1,0,0:0:0:0:
109,192,464907,128,0,465177:0:0:0:0:
182,192,465042,128,0,465312:0:0:0:0:
36,192,465177,128,0,465244:0:0:0:0:
475,192,465177,128,0,465244:0:0:0:0:
329,192,465177,128,0,465582:0:0:0:0:
402,192,465177,128,0,467339:0:0:0:0:
256,192,465447,1,0,0:0:0:0:
109,192,465447,128,0,465853:0:0:0:0:
256,192,465582,1,0,0:0:0:0:
182,192,465717,128,0,466123:0:0:0:0:
36,192,465717,128,0,466798:0:0:0:0:
256,192,465988,128,0,466393:0:0:0:0:
475,192,465988,128,0,467339:0:0:0:0:
109,192,466258,1,0,0:0:0:0:
329,192,466258,128,0,467339:0:0:0:0:
182,192,466528,128,0,466934:0:0:0:0:
109,192,466798,128,0,467339:0:0:0:0:
182,192,467069,128,0,467339:0:0:0:0:
256,192,467339,128,0,467407:0:0:0:0:
36,192,467339,128,0,469366:0:0:0:0:
182,192,467609,1,0,0:0:0:0:
475,192,467609,128,0,468420:0:0:0:0:
256,192,467744,1,0,0:0:0:0:
182,192,467880,1,0,0:0:0:0:
402,192,467880,128,0,468690:0:0:0:0:
256,192,468150,1,0,0:0:0:0:
329,192,468150,128,0,468961:0:0:0:0:
182,192,468420,1,0,0:0:0:0:
256,192,468420,1,0,0:0:0:0:
109,192,468420,128,0,468826:0:0:0:0:
182,192,468690,128,0,469096:0:0:0:0:
256,192,468690,128,0,469231:0:0:0:0:
109,192,468961,128,0,469366:0:0:0:0:
475,192,468961,128,0,469231:0:0:0:0:
402,192,469096,128,0,469366:0:0:0:0:
182,192,469231,128,0,469366:0:0:0:0:
329,192,469231,128,0,469501:0:0:0:0:
256,192,469366,128,0,469636:0:0:0:0:
402,192,469501,128,0,469569:0:0:0:0:
475,192,469501,128,0,469569:0:0:0:0:
109,192,469501,128,0,469636:0:0:0:0:
64,192,469501,128,0,471663:0:0:0:0:
182,192,469501,128,0,470177:0:0:0:0:
402,192,469771,1,0,0:0:0:0:
329,192,469771,128,0,470312:0:0:0:0:
475,192,469907,1,0,0:0:0:0:
109,192,470042,1,0,0:0:0:0:
402,192,470042,128,0,470582:0:0:0:0:
182,192,470312,1,0,0:0:0:0:
109,192,470312,1,0,0:0:0:0:
475,192,470312,128,0,471663:0:0:0:0:
256,192,470447,1,0,0:0:0:0:
329,192,470582,1,0,0:0:0:0:
182,192,470582,1,0,0:0:0:0:
329,192,470853,128,0,471393:0:0:0:0:
109,192,471123,1,0,0:0:0:0:
182,192,471258,1,0,0:0:0:0:
109,192,471393,1,0,0:0:0:0:
402,192,471663,128,0,471731:0:0:0:0:
329,192,471663,128,0,471731:0:0:0:0:
182,192,471663,128,0,473555:0:0:0:0:
256,192,471934,128,0,472474:0:0:0:0:
329,192,472069,1,0,0:0:0:0:
109,192,472069,1,0,0:0:0:0:
402,192,472204,128,0,472744:0:0:0:0:
329,192,472474,1,0,0:0:0:0:
109,192,472474,1,0,0:0:0:0:
36,192,472474,128,0,473015:0:0:0:0:
109,192,472744,1,0,0:0:0:0:
256,192,472744,128,0,473826:0:0:0:0:
475,192,472744,128,0,473285:0:0:0:0:
329,192,473015,128,0,473555:0:0:0:0:
36,192,473285,1,0,0:0:0:0:
109,192,473285,128,0,473826:0:0:0:0:
402,192,473420,1,0,0:0:0:0:
475,192,473555,1,0,0:0:0:0:
402,192,473690,1,0,0:0:0:0:
36,192,473826,128,0,473893:0:0:0:0:
182,192,473826,128,0,473893:0:0:0:0:
475,192,473826,128,0,476258:0:0:0:0:
329,192,473826,128,0,474366:0:0:0:0:
109,192,474096,1,0,0:0:0:0:
182,192,474231,1,0,0:0:0:0:
109,192,474366,1,0,0:0:0:0:
36,192,474366,128,0,474704:0:0:0:0:
329,192,474636,1,0,0:0:0:0:
256,192,474636,1,0,0:0:0:0:
182,192,474636,128,0,475042:0:0:0:0:
36,192,474907,1,0,0:0:0:0:
109,192,474907,1,0,0:0:0:0:
402,192,474907,128,0,475312:0:0:0:0:
329,192,475177,128,0,475717:0:0:0:0:
36,192,475447,1,0,0:0:0:0:
182,192,475582,1,0,0:0:0:0:
36,192,475717,1,0,0:0:0:0:
402,192,475988,128,0,476055:0:0:0:0:
329,192,475988,128,0,476055:0:0:0:0:
256,192,475988,128,0,476393:0:0:0:0:
182,192,476258,128,0,476663:0:0:0:0:
36,192,476258,128,0,476798:0:0:0:0:
402,192,476393,1,0,0:0:0:0:
329,192,476393,1,0,0:0:0:0:
256,192,476528,128,0,476934:0:0:0:0:
109,192,476528,128,0,477339:0:0:0:0:
402,192,476798,1,0,0:0:0:0:
475,192,476798,1,0,0:0:0:0:
329,192,476798,128,0,477204:0:0:0:0:
36,192,477069,1,0,0:0:0:0:
256,192,477069,128,0,477474:0:0:0:0:
475,192,477069,128,0,477609:0:0:0:0:
182,192,477339,128,0,477744:0:0:0:0:
402,192,477339,128,0,477880:0:0:0:0:
109,192,477609,128,0,478150:0:0:0:0:
329,192,477609,128,0,478150:0:0:0:0:
475,192,477880,1,0,0:0:0:0:
256,192,477880,128,0,478420:0:0:0:0:
402,192,478150,128,0,480312:0:0:0:0:
475,192,478150,128,0,478217:0:0:0:0:
36,192,478150,128,0,479231:0:0:0:0:
182,192,478150,128,0,478690:0:0:0:0:
329,192,478420,1,0,0:0:0:0:
475,192,478555,1,0,0:0:0:0:
329,192,478690,1,0,0:0:0:0:
256,192,478690,128,0,479231:0:0:0:0:
182,192,478961,1,0,0:0:0:0:
109,192,478961,1,0,0:0:0:0:
475,192,478961,128,0,480312:0:0:0:0:
329,192,479096,1,0,0:0:0:0:
109,192,479231,1,0,0:0:0:0:
182,192,479231,1,0,0:0:0:0:
109,192,479771,1,0,0:0:0:0:
329,192,479771,128,0,480312:0:0:0:0:
36,192,479907,1,0,0:0:0:0:
109,192,480042,1,0,0:0:0:0:
182,192,480042,128,0,480582:0:0:0:0:
109,192,480312,128,0,480380:0:0:0:0:
256,192,480312,128,0,481663:0:0:0:0:
36,192,480312,128,0,481393:0:0:0:0:
329,192,480582,128,0,481123:0:0:0:0:
182,192,480717,1,0,0:0:0:0:
109,192,480717,1,0,0:0:0:0:
402,192,480853,128,0,481393:0:0:0:0:
109,192,481123,1,0,0:0:0:0:
182,192,481123,1,0,0:0:0:0:
475,192,481123,128,0,481663:0:0:0:0:
329,192,481393,1,0,0:0:0:0:
182,192,481393,128,0,481934:0:0:0:0:
402,192,481663,1,0,0:0:0:0:
109,192,481663,128,0,482204:0:0:0:0:
36,192,481663,128,0,482474:0:0:0:0:
402,192,481798,1,0,0:0:0:0:
475,192,481934,1,0,0:0:0:0:
329,192,481934,128,0,482474:0:0:0:0:
256,192,482069,1,0,0:0:0:0:
182,192,482204,1,0,0:0:0:0:
256,192,482339,1,0,0:0:0:0:
402,192,482474,128,0,483015:0:0:0:0:
182,192,482474,128,0,482542:0:0:0:0:
475,192,482474,128,0,486731:0:0:0:0:
109,192,482474,128,0,482609:0:0:0:0:
256,192,482744,1,0,0:0:0:0:
329,192,482880,1,0,0:0:0:0:
256,192,483015,1,0,0:0:0:0:
36,192,483015,128,0,483555:0:0:0:0:
182,192,483015,128,0,483150:0:0:0:0:
109,192,483285,1,0,0:0:0:0:
256,192,483285,128,0,483420:0:0:0:0:
402,192,483285,128,0,483826:0:0:0:0:
329,192,483555,1,0,0:0:0:0:
109,192,483555,1,0,0:0:0:0:
182,192,483555,128,0,484636:0:0:0:0:
36,192,484096,1,0,0:0:0:0:
329,192,484096,128,0,484231:0:0:0:0:
109,192,484231,1,0,0:0:0:0:
36,192,484366,1,0,0:0:0:0:
402,192,484636,128,0,485177:0:0:0:0:
256,192,484907,128,0,485447:0:0:0:0:
329,192,485042,1,0,0:0:0:0:
182,192,485042,1,0,0:0:0:0:
109,192,485177,128,0,485717:0:0:0:0:
402,192,485447,1,0,0:0:0:0:
36,192,485447,1,0,0:0:0:0:
329,192,485447,128,0,485988:0:0:0:0:
402,192,485717,1,0,0:0:0:0:
256,192,485717,1,0,0:0:0:0:
182,192,485717,128,0,486258:0:0:0:0:
402,192,485988,1,0,0:0:0:0:
36,192,485988,128,0,486596:0:0:0:0:
329,192,486123,1,0,0:0:0:0:
402,192,486258,1,0,0:0:0:0:
256,192,486258,128,0,486663:0:0:0:0:
402,192,486528,128,0,486697:0:0:0:0:
109,192,486528,128,0,486630:0:0:0:0:
36,192,486731,128,0,487880:0:0:0:0:
256,192,486798,128,0,488420:0:0:0:0:
475,192,486866,128,0,488961:0:0:0:0:
182,192,488420,128,0,489501:0:0:0:0:
109,192,488690,128,0,489771:0:0:0:0:
36,192,488927,128,0,490988:0:0:0:0:
329,192,488961,128,0,489028:0:0:0:0:
402,192,489028,128,0,491663:0:0:0:0:
256,192,490042,128,0,491393:0:0:0:0:
36,192,491123,128,0,492204:0:0:0:0:
109,192,491461,128,0,492609:0:0:0:0:
182,192,491765,128,0,493015:0:0:0:0:
256,192,492035,128,0,493285:0:0:0:0:
329,192,492305,128,0,493555:0:0:0:0:
402,192,492564,128,0,493735:0:0:0:0:
475,192,492925,128,0,493961:0:0:0:0:
36,192,493420,128,0,494231:0:0:0:0:
182,192,494130,128,0,494298:0:0:0:0:
329,192,494163,128,0,494366:0:0:0:0:
475,192,494231,128,0,494434:0:0:0:0:
