osu file format v14

[General]
AudioFilename: audio.mp3
AudioLeadIn: 0
PreviewTime: 553
Countdown: 0
SampleSet: Soft
StackLeniency: 0.7
Mode: 3
LetterboxInBreaks: 0
SpecialStyle: 0
WidescreenStoryboard: 0

[Editor]
DistanceSpacing: 1.3
BeatDivisor: 4
GridSize: 4
TimelineZoom: 2

[Metadata]
Title:LN Dan Phase II
TitleUnicode:LN Dan Phase II
Artist:osu!mania 7K Dan Course
ArtistUnicode:osu!mania 7K Dan Course
Creator:Jinjin
Version:4th Dan
Source:
Tags:takanashi yasuharu doko ryuu no kobura kenz stn the limbo rumia alumetorz 3l be happy mili main theme paichai
BeatmapID:1875999
BeatmapSetID:895138

[Difficulty]
HPDrainRate:7
CircleSize:7
OverallDifficulty:5
ApproachRate:5
SliderMultiplier:1.4
SliderTickRate:1

[Events]
//Background and Video events
0,0,"LNDan_4.png",0,0
//Break Periods
2,95853,105725
2,223600,237824
2,350110,360102
//Storyboard Layer 0 (Background)
//Storyboard Layer 1 (Fail)
//Storyboard Layer 2 (Pass)
//Storyboard Layer 3 (Foreground)
//Storyboard Sound Samples

[TimingPoints]
553,300,4,2,0,0,1,0
106925,300,4,2,0,0,1,0
239024,379.746835443038,4,2,0,0,1,0
239024,-78.7401574803149,4,2,0,0,0,0
361302,508.474576271186,3,2,0,0,1,0
361302,-59.1715976331361,3,2,0,0,0,0

[HitObjects]
36,192,553,128,0,628:0:0:0:0:
256,192,553,128,0,628:0:0:0:0:
475,192,553,128,0,628:0:0:0:0:
36,192,703,128,0,778:0:0:0:0:
256,192,703,128,0,778:0:0:0:0:
475,192,703,128,0,778:0:0:0:0:
109,192,853,128,0,1003:0:0:0:0:
402,192,1003,128,0,1153:0:0:0:0:
182,192,1153,128,0,1303:0:0:0:0:
329,192,1303,128,0,1453:0:0:0:0:
36,192,1453,128,0,1528:0:0:0:0:
256,192,1453,128,0,1528:0:0:0:0:
475,192,1453,128,0,1528:0:0:0:0:
36,192,1603,128,0,1678:0:0:0:0:
256,192,1603,128,0,1678:0:0:0:0:
475,192,1603,128,0,1678:0:0:0:0:
402,192,1753,128,0,1903:0:0:0:0:
329,192,1753,1,0,0:0:0:0:
109,192,1903,128,0,2053:0:0:0:0:
182,192,1903,1,0,0:0:0:0:
329,192,2053,128,0,2203:0:0:0:0:
402,192,2053,1,0,0:0:0:0:
182,192,2203,128,0,2353:0:0:0:0:
109,192,2203,1,0,0:0:0:0:
329,192,2353,128,0,2653:0:0:0:0:
256,192,2353,1,0,0:0:0:0:
402,192,2353,1,0,0:0:0:0:
475,192,2353,1,0,0:0:0:0:
182,192,2653,128,0,2953:0:0:0:0:
109,192,2653,1,0,0:0:0:0:
36,192,2653,1,0,0:0:0:0:
256,192,2653,1,0,0:0:0:0:
36,192,2953,128,0,3028:0:0:0:0:
256,192,2953,128,0,3028:0:0:0:0:
475,192,2953,128,0,3028:0:0:0:0:
36,192,3103,128,0,3178:0:0:0:0:
256,192,3103,128,0,3178:0:0:0:0:
475,192,3103,128,0,3178:0:0:0:0:
109,192,3253,128,0,3403:0:0:0:0:
402,192,3403,128,0,3553:0:0:0:0:
182,192,3553,128,0,3703:0:0:0:0:
329,192,3703,128,0,3853:0:0:0:0:
36,192,3853,128,0,3928:0:0:0:0:
256,192,3853,128,0,3928:0:0:0:0:
475,192,3853,128,0,3928:0:0:0:0:
36,192,4003,128,0,4078:0:0:0:0:
256,192,4003,128,0,4078:0:0:0:0:
475,192,4003,128,0,4078:0:0:0:0:
182,192,4153,128,0,4303:0:0:0:0:
109,192,4153,1,0,0:0:0:0:
329,192,4303,128,0,4453:0:0:0:0:
402,192,4303,1,0,0:0:0:0:
109,192,4453,128,0,4603:0:0:0:0:
182,192,4453,1,0,0:0:0:0:
402,192,4603,128,0,4753:0:0:0:0:
329,192,4603,1,0,0:0:0:0:
182,192,4753,128,0,5053:0:0:0:0:
256,192,4753,1,0,0:0:0:0:
475,192,4753,1,0,0:0:0:0:
329,192,5053,128,0,5353:0:0:0:0:
36,192,5053,1,0,0:0:0:0:
475,192,5053,1,0,0:0:0:0:
109,192,5053,1,0,0:0:0:0:
36,192,5353,1,0,0:0:0:0:
402,192,5353,128,0,5428:0:0:0:0:
109,192,5503,1,0,0:0:0:0:
402,192,5503,128,0,5578:0:0:0:0:
256,192,5653,1,0,0:0:0:0:
36,192,5653,1,0,0:0:0:0:
402,192,5653,128,0,5728:0:0:0:0:
475,192,5803,128,0,5878:0:0:0:0:
36,192,5953,1,0,0:0:0:0:
402,192,5953,128,0,6028:0:0:0:0:
109,192,6103,1,0,0:0:0:0:
329,192,6103,128,0,6178:0:0:0:0:
36,192,6253,1,0,0:0:0:0:
475,192,6253,1,0,0:0:0:0:
256,192,6253,128,0,6328:0:0:0:0:
329,192,6403,128,0,6478:0:0:0:0:
256,192,6553,1,0,0:0:0:0:
109,192,6553,128,0,6628:0:0:0:0:
402,192,6703,1,0,0:0:0:0:
109,192,6703,128,0,6778:0:0:0:0:
36,192,6853,1,0,0:0:0:0:
475,192,6853,1,0,0:0:0:0:
329,192,6853,128,0,6928:0:0:0:0:
109,192,7003,128,0,7078:0:0:0:0:
402,192,7153,128,0,7453:0:0:0:0:
475,192,7153,1,0,0:0:0:0:
182,192,7153,1,0,0:0:0:0:
36,192,7153,1,0,0:0:0:0:
329,192,7153,128,0,7228:0:0:0:0:
256,192,7303,128,0,7378:0:0:0:0:
475,192,7453,1,0,0:0:0:0:
109,192,7453,128,0,7753:0:0:0:0:
36,192,7453,1,0,0:0:0:0:
182,192,7453,128,0,7528:0:0:0:0:
256,192,7603,128,0,7678:0:0:0:0:
329,192,7753,1,0,0:0:0:0:
182,192,7753,128,0,7828:0:0:0:0:
475,192,7903,1,0,0:0:0:0:
109,192,7903,128,0,7978:0:0:0:0:
256,192,8053,1,0,0:0:0:0:
402,192,8053,1,0,0:0:0:0:
109,192,8053,128,0,8128:0:0:0:0:
182,192,8203,128,0,8278:0:0:0:0:
475,192,8353,1,0,0:0:0:0:
109,192,8353,128,0,8428:0:0:0:0:
402,192,8503,1,0,0:0:0:0:
182,192,8503,128,0,8578:0:0:0:0:
36,192,8653,1,0,0:0:0:0:
475,192,8653,1,0,0:0:0:0:
256,192,8653,128,0,8728:0:0:0:0:
182,192,8803,128,0,8878:0:0:0:0:
109,192,8953,1,0,0:0:0:0:
402,192,8953,128,0,9028:0:0:0:0:
36,192,9103,1,0,0:0:0:0:
329,192,9103,128,0,9178:0:0:0:0:
256,192,9253,1,0,0:0:0:0:
475,192,9253,1,0,0:0:0:0:
109,192,9253,128,0,9328:0:0:0:0:
256,192,9403,128,0,9478:0:0:0:0:
475,192,9553,1,0,0:0:0:0:
329,192,9553,128,0,9628:0:0:0:0:
182,192,9553,1,0,0:0:0:0:
256,192,9703,128,0,9778:0:0:0:0:
475,192,9853,1,0,0:0:0:0:
36,192,9853,1,0,0:0:0:0:
182,192,9853,128,0,9928:0:0:0:0:
329,192,9853,1,0,0:0:0:0:
256,192,10003,128,0,10078:0:0:0:0:
329,192,10153,128,0,10303:0:0:0:0:
109,192,10153,128,0,10753:0:0:0:0:
182,192,10153,128,0,10228:0:0:0:0:
475,192,10153,128,0,10228:0:0:0:0:
36,192,10303,128,0,10378:0:0:0:0:
402,192,10303,128,0,10378:0:0:0:0:
402,192,10453,128,0,10603:0:0:0:0:
329,192,10453,128,0,10528:0:0:0:0:
182,192,10453,128,0,10528:0:0:0:0:
475,192,10603,128,0,10753:0:0:0:0:
256,192,10603,1,0,0:0:0:0:
402,192,10753,128,0,10903:0:0:0:0:
182,192,10753,128,0,11353:0:0:0:0:
36,192,10753,128,0,10828:0:0:0:0:
329,192,10903,128,0,11053:0:0:0:0:
109,192,10903,128,0,10978:0:0:0:0:
256,192,11053,128,0,11203:0:0:0:0:
36,192,11053,128,0,11128:0:0:0:0:
475,192,11053,128,0,11128:0:0:0:0:
329,192,11203,128,0,11353:0:0:0:0:
109,192,11203,1,0,0:0:0:0:
36,192,11353,128,0,11503:0:0:0:0:
402,192,11353,128,0,11953:0:0:0:0:
109,192,11503,128,0,11653:0:0:0:0:
256,192,11503,128,0,11578:0:0:0:0:
329,192,11653,128,0,11803:0:0:0:0:
475,192,11653,128,0,11728:0:0:0:0:
36,192,11653,128,0,11728:0:0:0:0:
256,192,11803,128,0,11953:0:0:0:0:
109,192,11803,1,0,0:0:0:0:
475,192,11953,128,0,12253:0:0:0:0:
182,192,11953,128,0,12103:0:0:0:0:
36,192,11953,128,0,12028:0:0:0:0:
329,192,11953,128,0,12028:0:0:0:0:
256,192,12103,128,0,12253:0:0:0:0:
329,192,12253,128,0,12403:0:0:0:0:
36,192,12253,128,0,12553:0:0:0:0:
109,192,12253,128,0,12328:0:0:0:0:
402,192,12253,128,0,12328:0:0:0:0:
256,192,12403,128,0,12553:0:0:0:0:
475,192,12403,1,0,0:0:0:0:
402,192,12553,128,0,13153:0:0:0:0:
182,192,12553,128,0,12703:0:0:0:0:
329,192,12553,1,0,0:0:0:0:
109,192,12553,1,0,0:0:0:0:
256,192,12703,1,0,0:0:0:0:
109,192,12853,128,0,13003:0:0:0:0:
329,192,12853,1,0,0:0:0:0:
182,192,12853,1,0,0:0:0:0:
36,192,13003,128,0,13153:0:0:0:0:
329,192,13153,128,0,13753:0:0:0:0:
109,192,13153,128,0,13303:0:0:0:0:
256,192,13153,1,0,0:0:0:0:
475,192,13153,1,0,0:0:0:0:
182,192,13303,128,0,13453:0:0:0:0:
256,192,13453,128,0,13603:0:0:0:0:
109,192,13453,1,0,0:0:0:0:
475,192,13453,1,0,0:0:0:0:
36,192,13453,1,0,0:0:0:0:
182,192,13603,128,0,13753:0:0:0:0:
109,192,13753,128,0,14353:0:0:0:0:
475,192,13753,128,0,13903:0:0:0:0:
256,192,13753,1,0,0:0:0:0:
36,192,13753,1,0,0:0:0:0:
402,192,13903,128,0,14053:0:0:0:0:
182,192,14053,128,0,14203:0:0:0:0:
329,192,14053,1,0,0:0:0:0:
475,192,14053,1,0,0:0:0:0:
36,192,14053,1,0,0:0:0:0:
256,192,14203,128,0,14353:0:0:0:0:
402,192,14203,1,0,0:0:0:0:
36,192,14353,128,0,14653:0:0:0:0:
329,192,14353,128,0,14503:0:0:0:0:
182,192,14353,1,0,0:0:0:0:
475,192,14353,1,0,0:0:0:0:
256,192,14503,128,0,14653:0:0:0:0:
402,192,14503,1,0,0:0:0:0:
109,192,14653,1,0,0:0:0:0:
475,192,14653,128,0,14953:0:0:0:0:
182,192,14653,128,0,14803:0:0:0:0:
329,192,14803,128,0,14953:0:0:0:0:
36,192,14803,1,0,0:0:0:0:
402,192,14953,128,0,15103:0:0:0:0:
109,192,14953,128,0,15103:0:0:0:0:
256,192,14953,1,0,0:0:0:0:
36,192,15103,128,0,15253:0:0:0:0:
329,192,15103,128,0,15253:0:0:0:0:
109,192,15253,128,0,15403:0:0:0:0:
402,192,15253,128,0,15403:0:0:0:0:
182,192,15403,128,0,15553:0:0:0:0:
475,192,15403,128,0,15553:0:0:0:0:
402,192,15553,128,0,15703:0:0:0:0:
109,192,15553,128,0,15703:0:0:0:0:
329,192,15703,128,0,15853:0:0:0:0:
36,192,15703,128,0,15853:0:0:0:0:
109,192,15853,128,0,16003:0:0:0:0:
402,192,15853,128,0,16003:0:0:0:0:
475,192,16003,128,0,16153:0:0:0:0:
182,192,16003,128,0,16153:0:0:0:0:
329,192,16003,1,0,0:0:0:0:
36,192,16153,1,0,0:0:0:0:
402,192,16153,1,0,0:0:0:0:
256,192,16153,1,0,0:0:0:0:
36,192,16303,1,0,0:0:0:0:
402,192,16303,1,0,0:0:0:0:
182,192,16303,1,0,0:0:0:0:
36,192,16453,1,0,0:0:0:0:
402,192,16453,1,0,0:0:0:0:
182,192,16453,1,0,0:0:0:0:
36,192,16603,128,0,16678:0:0:0:0:
182,192,16603,128,0,16678:0:0:0:0:
256,192,16603,128,0,16678:0:0:0:0:
402,192,16603,128,0,16678:0:0:0:0:
36,192,16903,128,0,16978:0:0:0:0:
109,192,16940,128,0,17015:0:0:0:0:
182,192,16978,128,0,17053:0:0:0:0:
256,192,17015,128,0,17090:0:0:0:0:
329,192,17053,128,0,17353:0:0:0:0:
475,192,17053,128,0,17353:0:0:0:0:
182,192,17353,128,0,17953:0:0:0:0:
402,192,17353,128,0,17653:0:0:0:0:
36,192,17353,1,0,0:0:0:0:
256,192,17353,1,0,0:0:0:0:
109,192,17503,1,0,0:0:0:0:
475,192,17653,1,0,0:0:0:0:
256,192,17653,1,0,0:0:0:0:
36,192,17653,1,0,0:0:0:0:
402,192,17803,1,0,0:0:0:0:
329,192,17953,128,0,18553:0:0:0:0:
475,192,17953,1,0,0:0:0:0:
36,192,17953,1,0,0:0:0:0:
402,192,18103,1,0,0:0:0:0:
109,192,18103,1,0,0:0:0:0:
256,192,18253,1,0,0:0:0:0:
36,192,18253,1,0,0:0:0:0:
475,192,18253,1,0,0:0:0:0:
182,192,18403,1,0,0:0:0:0:
109,192,18553,128,0,19153:0:0:0:0:
256,192,18553,1,0,0:0:0:0:
475,192,18553,1,0,0:0:0:0:
402,192,18703,1,0,0:0:0:0:
36,192,18703,1,0,0:0:0:0:
475,192,18853,1,0,0:0:0:0:
182,192,18853,1,0,0:0:0:0:
329,192,19003,1,0,0:0:0:0:
402,192,19153,128,0,19753:0:0:0:0:
256,192,19153,128,0,19453:0:0:0:0:
36,192,19153,1,0,0:0:0:0:
109,192,19303,1,0,0:0:0:0:
182,192,19453,128,0,19753:0:0:0:0:
36,192,19453,1,0,0:0:0:0:
329,192,19453,1,0,0:0:0:0:
256,192,19603,1,0,0:0:0:0:
109,192,19753,128,0,20053:0:0:0:0:
475,192,19753,128,0,20353:0:0:0:0:
36,192,19753,1,0,0:0:0:0:
329,192,19753,1,0,0:0:0:0:
256,192,19903,128,0,20053:0:0:0:0:
402,192,19903,1,0,0:0:0:0:
182,192,20053,128,0,20353:0:0:0:0:
36,192,20053,1,0,0:0:0:0:
329,192,20203,128,0,20353:0:0:0:0:
402,192,20203,1,0,0:0:0:0:
256,192,20353,128,0,20653:0:0:0:0:
36,192,20353,128,0,20953:0:0:0:0:
109,192,20353,1,0,0:0:0:0:
329,192,20653,128,0,20953:0:0:0:0:
182,192,20653,1,0,0:0:0:0:
475,192,20653,1,0,0:0:0:0:
402,192,20953,128,0,21253:0:0:0:0:
109,192,20953,128,0,21253:0:0:0:0:
182,192,20953,1,0,0:0:0:0:
256,192,21103,128,0,21253:0:0:0:0:
329,192,21253,128,0,21553:0:0:0:0:
475,192,21253,128,0,21553:0:0:0:0:
36,192,21253,1,0,0:0:0:0:
182,192,21403,128,0,21553:0:0:0:0:
109,192,21403,1,0,0:0:0:0:
256,192,21553,128,0,21853:0:0:0:0:
402,192,21553,128,0,21853:0:0:0:0:
36,192,21553,1,0,0:0:0:0:
109,192,21703,1,0,0:0:0:0:
329,192,21853,128,0,22153:0:0:0:0:
36,192,21853,1,0,0:0:0:0:
182,192,21853,128,0,22153:0:0:0:0:
402,192,22153,128,0,22753:0:0:0:0:
109,192,22153,128,0,22453:0:0:0:0:
475,192,22153,128,0,22228:0:0:0:0:
256,192,22153,1,0,0:0:0:0:
329,192,22303,128,0,22378:0:0:0:0:
36,192,22453,128,0,22603:0:0:0:0:
256,192,22453,128,0,22528:0:0:0:0:
475,192,22453,1,0,0:0:0:0:
109,192,22603,128,0,22753:0:0:0:0:
182,192,22753,128,0,23353:0:0:0:0:
329,192,22753,128,0,22903:0:0:0:0:
475,192,22753,128,0,22828:0:0:0:0:
256,192,22903,128,0,23053:0:0:0:0:
36,192,22903,128,0,22978:0:0:0:0:
109,192,23053,128,0,23203:0:0:0:0:
475,192,23053,128,0,23128:0:0:0:0:
329,192,23053,1,0,0:0:0:0:
36,192,23203,128,0,23353:0:0:0:0:
402,192,23353,128,0,23953:0:0:0:0:
256,192,23353,128,0,23503:0:0:0:0:
475,192,23353,128,0,23428:0:0:0:0:
329,192,23503,128,0,23653:0:0:0:0:
109,192,23503,128,0,23578:0:0:0:0:
475,192,23653,128,0,23803:0:0:0:0:
36,192,23653,128,0,23728:0:0:0:0:
182,192,23653,1,0,0:0:0:0:
329,192,23803,128,0,23953:0:0:0:0:
109,192,23953,128,0,24553:0:0:0:0:
256,192,23953,128,0,24253:0:0:0:0:
36,192,23953,128,0,24028:0:0:0:0:
402,192,24103,128,0,24178:0:0:0:0:
329,192,24253,128,0,24553:0:0:0:0:
182,192,24253,128,0,24328:0:0:0:0:
475,192,24253,1,0,0:0:0:0:
256,192,24403,128,0,24478:0:0:0:0:
36,192,24553,128,0,25153:0:0:0:0:
475,192,24553,128,0,25153:0:0:0:0:
182,192,24553,128,0,24703:0:0:0:0:
402,192,24553,1,0,0:0:0:0:
329,192,24703,128,0,24853:0:0:0:0:
109,192,24703,1,0,0:0:0:0:
182,192,24853,128,0,25003:0:0:0:0:
402,192,24853,1,0,0:0:0:0:
329,192,25003,128,0,25153:0:0:0:0:
109,192,25003,1,0,0:0:0:0:
402,192,25153,1,0,0:0:0:0:
256,192,25153,128,0,25453:0:0:0:0:
182,192,25153,1,0,0:0:0:0:
109,192,25453,128,0,25753:0:0:0:0:
402,192,25453,128,0,25753:0:0:0:0:
36,192,25753,1,0,0:0:0:0:
475,192,25753,1,0,0:0:0:0:
329,192,25753,128,0,26053:0:0:0:0:
182,192,25753,128,0,25903:0:0:0:0:
256,192,25903,128,0,26053:0:0:0:0:
402,192,26053,1,0,0:0:0:0:
182,192,26053,128,0,26353:0:0:0:0:
36,192,26053,128,0,26203:0:0:0:0:
475,192,26203,1,0,0:0:0:0:
329,192,26203,128,0,26353:0:0:0:0:
402,192,26353,128,0,26653:0:0:0:0:
36,192,26353,128,0,26503:0:0:0:0:
256,192,26353,1,0,0:0:0:0:
109,192,26503,1,0,0:0:0:0:
475,192,26503,1,0,0:0:0:0:
182,192,26503,128,0,26653:0:0:0:0:
256,192,26653,1,0,0:0:0:0:
109,192,26653,128,0,26953:0:0:0:0:
329,192,26653,128,0,26803:0:0:0:0:
402,192,26803,1,0,0:0:0:0:
475,192,26803,128,0,26953:0:0:0:0:
329,192,26953,1,0,0:0:0:0:
256,192,26953,128,0,27253:0:0:0:0:
182,192,27253,128,0,27553:0:0:0:0:
475,192,27253,1,0,0:0:0:0:
109,192,27403,128,0,27553:0:0:0:0:
402,192,27403,1,0,0:0:0:0:
329,192,27553,1,0,0:0:0:0:
475,192,27553,1,0,0:0:0:0:
36,192,27553,128,0,29053:0:0:0:0:
109,192,27703,128,0,29053:0:0:0:0:
402,192,27703,1,0,0:0:0:0:
182,192,27853,128,0,28753:0:0:0:0:
402,192,28003,128,0,28153:0:0:0:0:
329,192,28153,128,0,28303:0:0:0:0:
475,192,28303,128,0,29053:0:0:0:0:
256,192,28303,128,0,28453:0:0:0:0:
402,192,28453,128,0,29053:0:0:0:0:
329,192,28603,128,0,29053:0:0:0:0:
256,192,28753,128,0,29053:0:0:0:0:
182,192,29053,128,0,29353:0:0:0:0:
109,192,29353,128,0,29503:0:0:0:0:
329,192,29353,1,0,0:0:0:0:
256,192,29353,1,0,0:0:0:0:
475,192,29353,1,0,0:0:0:0:
329,192,29503,128,0,29653:0:0:0:0:
109,192,29653,128,0,29803:0:0:0:0:
475,192,29653,1,0,0:0:0:0:
182,192,29803,128,0,30403:0:0:0:0:
475,192,29953,128,0,30553:0:0:0:0:
36,192,29953,1,0,0:0:0:0:
256,192,29953,1,0,0:0:0:0:
402,192,29953,1,0,0:0:0:0:
329,192,30103,128,0,30403:0:0:0:0:
109,192,30103,1,0,0:0:0:0:
36,192,30253,1,0,0:0:0:0:
402,192,30253,128,0,30703:0:0:0:0:
256,192,30403,128,0,31003:0:0:0:0:
109,192,30403,1,0,0:0:0:0:
329,192,30553,128,0,30853:0:0:0:0:
36,192,30553,1,0,0:0:0:0:
475,192,30703,128,0,31453:0:0:0:0:
182,192,30703,1,0,0:0:0:0:
402,192,30853,128,0,31453:0:0:0:0:
109,192,30853,1,0,0:0:0:0:
329,192,31003,128,0,31453:0:0:0:0:
36,192,31003,1,0,0:0:0:0:
256,192,31153,128,0,31453:0:0:0:0:
109,192,31153,1,0,0:0:0:0:
36,192,31303,1,0,0:0:0:0:
109,192,31453,1,0,0:0:0:0:
182,192,31453,128,0,31753:0:0:0:0:
256,192,31603,1,0,0:0:0:0:
329,192,31753,128,0,32053:0:0:0:0:
402,192,31753,128,0,32953:0:0:0:0:
475,192,31753,1,0,0:0:0:0:
109,192,31753,128,0,31903:0:0:0:0:
36,192,31903,128,0,32053:0:0:0:0:
109,192,32053,1,0,0:0:0:0:
256,192,32053,1,0,0:0:0:0:
475,192,32053,1,0,0:0:0:0:
182,192,32053,128,0,32203:0:0:0:0:
329,192,32203,128,0,32353:0:0:0:0:
475,192,32353,128,0,32503:0:0:0:0:
256,192,32353,1,0,0:0:0:0:
329,192,32503,128,0,32653:0:0:0:0:
109,192,32503,1,0,0:0:0:0:
36,192,32653,1,0,0:0:0:0:
256,192,32653,1,0,0:0:0:0:
182,192,32653,128,0,32803:0:0:0:0:
109,192,32803,128,0,32953:0:0:0:0:
36,192,32953,128,0,33103:0:0:0:0:
329,192,32953,1,0,0:0:0:0:
182,192,32953,128,0,34153:0:0:0:0:
256,192,33103,128,0,33253:0:0:0:0:
402,192,33103,1,0,0:0:0:0:
329,192,33253,128,0,33403:0:0:0:0:
475,192,33253,1,0,0:0:0:0:
36,192,33253,1,0,0:0:0:0:
402,192,33403,128,0,33553:0:0:0:0:
475,192,33553,128,0,33853:0:0:0:0:
109,192,33553,1,0,0:0:0:0:
256,192,33703,1,0,0:0:0:0:
402,192,33853,1,0,0:0:0:0:
329,192,33853,128,0,34153:0:0:0:0:
36,192,33853,128,0,34153:0:0:0:0:
109,192,34153,128,0,34303:0:0:0:0:
402,192,34153,128,0,34303:0:0:0:0:
256,192,34153,128,0,35353:0:0:0:0:
109,192,34453,1,0,0:0:0:0:
402,192,34453,128,0,34603:0:0:0:0:
36,192,34603,1,0,0:0:0:0:
329,192,34603,128,0,34753:0:0:0:0:
402,192,34753,1,0,0:0:0:0:
182,192,34753,128,0,34903:0:0:0:0:
329,192,34903,1,0,0:0:0:0:
109,192,34903,128,0,35053:0:0:0:0:
475,192,35053,1,0,0:0:0:0:
36,192,35053,1,0,0:0:0:0:
182,192,35053,128,0,35203:0:0:0:0:
329,192,35203,1,0,0:0:0:0:
402,192,35203,1,0,0:0:0:0:
109,192,35203,128,0,35353:0:0:0:0:
36,192,35353,1,0,0:0:0:0:
475,192,35353,128,0,35503:0:0:0:0:
402,192,35503,128,0,35653:0:0:0:0:
182,192,35503,128,0,35653:0:0:0:0:
329,192,35653,128,0,35803:0:0:0:0:
109,192,35653,128,0,35803:0:0:0:0:
256,192,35803,128,0,35953:0:0:0:0:
36,192,35803,128,0,35953:0:0:0:0:
475,192,35803,128,0,35953:0:0:0:0:
182,192,35953,128,0,36103:0:0:0:0:
402,192,35953,128,0,36103:0:0:0:0:
109,192,36103,128,0,36253:0:0:0:0:
329,192,36103,128,0,36253:0:0:0:0:
36,192,36253,128,0,36403:0:0:0:0:
256,192,36253,128,0,36403:0:0:0:0:
475,192,36253,128,0,36403:0:0:0:0:
402,192,36403,128,0,36553:0:0:0:0:
109,192,36403,128,0,36553:0:0:0:0:
36,192,36553,128,0,36628:0:0:0:0:
256,192,36553,128,0,36628:0:0:0:0:
329,192,36553,128,0,36628:0:0:0:0:
182,192,36553,128,0,36628:0:0:0:0:
475,192,36553,128,0,36628:0:0:0:0:
329,192,36703,128,0,36778:0:0:0:0:
109,192,36703,128,0,36778:0:0:0:0:
402,192,36853,128,0,36928:0:0:0:0:
182,192,36853,128,0,36928:0:0:0:0:
109,192,37003,128,0,37078:0:0:0:0:
256,192,37003,128,0,37078:0:0:0:0:
475,192,37003,128,0,37078:0:0:0:0:
36,192,37003,128,0,37078:0:0:0:0:
329,192,37003,128,0,37078:0:0:0:0:
402,192,37153,128,0,37228:0:0:0:0:
182,192,37153,128,0,37228:0:0:0:0:
109,192,37303,128,0,37378:0:0:0:0:
329,192,37303,128,0,37378:0:0:0:0:
36,192,37453,128,0,37528:0:0:0:0:
182,192,37453,128,0,37528:0:0:0:0:
256,192,37453,128,0,37528:0:0:0:0:
402,192,37453,128,0,37528:0:0:0:0:
475,192,37453,128,0,37528:0:0:0:0:
402,192,37603,128,0,37678:0:0:0:0:
182,192,37603,128,0,37678:0:0:0:0:
36,192,37753,128,0,38503:0:0:0:0:
109,192,37753,128,0,37978:0:0:0:0:
475,192,37903,128,0,38503:0:0:0:0:
402,192,37903,128,0,38128:0:0:0:0:
109,192,38053,128,0,38503:0:0:0:0:
182,192,38053,128,0,38278:0:0:0:0:
402,192,38203,128,0,38503:0:0:0:0:
329,192,38203,128,0,38428:0:0:0:0:
182,192,38353,128,0,38503:0:0:0:0:
256,192,38353,128,0,38503:0:0:0:0:
329,192,38503,1,0,0:0:0:0:
36,192,38653,128,0,38803:0:0:0:0:
256,192,38653,1,0,0:0:0:0:
475,192,38653,1,0,0:0:0:0:
109,192,38803,128,0,38953:0:0:0:0:
329,192,38803,1,0,0:0:0:0:
402,192,38803,1,0,0:0:0:0:
182,192,38953,128,0,39253:0:0:0:0:
256,192,38953,1,0,0:0:0:0:
475,192,38953,1,0,0:0:0:0:
329,192,39103,1,0,0:0:0:0:
36,192,39253,128,0,39403:0:0:0:0:
256,192,39253,1,0,0:0:0:0:
402,192,39253,1,0,0:0:0:0:
182,192,39403,128,0,39553:0:0:0:0:
36,192,39553,128,0,39703:0:0:0:0:
475,192,39553,1,0,0:0:0:0:
109,192,39703,128,0,39853:0:0:0:0:
329,192,39703,1,0,0:0:0:0:
256,192,39853,128,0,40153:0:0:0:0:
402,192,39853,1,0,0:0:0:0:
182,192,39853,1,0,0:0:0:0:
402,192,40153,128,0,40303:0:0:0:0:
36,192,40153,1,0,0:0:0:0:
475,192,40303,128,0,40453:0:0:0:0:
109,192,40303,1,0,0:0:0:0:
402,192,40453,128,0,40603:0:0:0:0:
36,192,40453,1,0,0:0:0:0:
256,192,40453,1,0,0:0:0:0:
329,192,40603,128,0,40903:0:0:0:0:
109,192,40603,1,0,0:0:0:0:
182,192,40753,1,0,0:0:0:0:
109,192,40903,1,0,0:0:0:0:
329,192,41053,128,0,41353:0:0:0:0:
36,192,41053,1,0,0:0:0:0:
256,192,41053,1,0,0:0:0:0:
182,192,41353,128,0,41503:0:0:0:0:
475,192,41353,1,0,0:0:0:0:
109,192,41503,128,0,41653:0:0:0:0:
402,192,41503,1,0,0:0:0:0:
36,192,41653,128,0,41803:0:0:0:0:
329,192,41653,1,0,0:0:0:0:
475,192,41653,1,0,0:0:0:0:
256,192,41803,128,0,41953:0:0:0:0:
182,192,41953,128,0,42253:0:0:0:0:
402,192,41953,1,0,0:0:0:0:
329,192,42103,1,0,0:0:0:0:
109,192,42253,128,0,42553:0:0:0:0:
256,192,42253,1,0,0:0:0:0:
402,192,42253,1,0,0:0:0:0:
329,192,42403,1,0,0:0:0:0:
182,192,42553,128,0,42703:0:0:0:0:
36,192,42553,128,0,42853:0:0:0:0:
475,192,42553,128,0,42853:0:0:0:0:
256,192,42553,1,0,0:0:0:0:
402,192,42703,128,0,42853:0:0:0:0:
109,192,42853,128,0,43003:0:0:0:0:
256,192,42853,128,0,43153:0:0:0:0:
329,192,43003,128,0,43153:0:0:0:0:
182,192,43153,128,0,43453:0:0:0:0:
36,192,43153,128,0,43453:0:0:0:0:
475,192,43153,128,0,43453:0:0:0:0:
256,192,43453,128,0,43753:0:0:0:0:
329,192,43453,128,0,43753:0:0:0:0:
402,192,43753,128,0,44053:0:0:0:0:
109,192,43753,1,0,0:0:0:0:
36,192,43903,1,0,0:0:0:0:
256,192,44053,1,0,0:0:0:0:
475,192,44053,128,0,44203:0:0:0:0:
109,192,44053,1,0,0:0:0:0:
329,192,44203,128,0,44353:0:0:0:0:
475,192,44353,128,0,44503:0:0:0:0:
36,192,44353,1,0,0:0:0:0:
256,192,44353,1,0,0:0:0:0:
402,192,44503,128,0,44653:0:0:0:0:
182,192,44503,1,0,0:0:0:0:
256,192,44653,128,0,44953:0:0:0:0:
109,192,44653,1,0,0:0:0:0:
329,192,44653,1,0,0:0:0:0:
475,192,44953,1,0,0:0:0:0:
36,192,44953,128,0,45103:0:0:0:0:
182,192,44953,1,0,0:0:0:0:
402,192,45103,1,0,0:0:0:0:
109,192,45103,128,0,45253:0:0:0:0:
182,192,45253,128,0,45403:0:0:0:0:
475,192,45253,1,0,0:0:0:0:
329,192,45253,1,0,0:0:0:0:
402,192,45403,128,0,45553:0:0:0:0:
329,192,45553,128,0,45853:0:0:0:0:
36,192,45553,1,0,0:0:0:0:
256,192,45553,1,0,0:0:0:0:
109,192,45703,1,0,0:0:0:0:
475,192,45853,1,0,0:0:0:0:
256,192,45853,1,0,0:0:0:0:
182,192,45853,1,0,0:0:0:0:
36,192,46153,1,0,0:0:0:0:
329,192,46153,128,0,46303:0:0:0:0:
475,192,46153,1,0,0:0:0:0:
109,192,46303,1,0,0:0:0:0:
402,192,46303,128,0,46453:0:0:0:0:
36,192,46453,1,0,0:0:0:0:
475,192,46453,128,0,46603:0:0:0:0:
256,192,46453,1,0,0:0:0:0:
182,192,46603,128,0,46753:0:0:0:0:
256,192,46753,128,0,46903:0:0:0:0:
475,192,46753,1,0,0:0:0:0:
36,192,46753,1,0,0:0:0:0:
109,192,46903,1,0,0:0:0:0:
329,192,46903,128,0,47053:0:0:0:0:
402,192,47053,128,0,47353:0:0:0:0:
36,192,47053,1,0,0:0:0:0:
182,192,47053,1,0,0:0:0:0:
36,192,47353,128,0,47653:0:0:0:0:
182,192,47353,1,0,0:0:0:0:
475,192,47353,128,0,47653:0:0:0:0:
329,192,47353,128,0,47503:0:0:0:0:
109,192,47503,128,0,47653:0:0:0:0:
402,192,47653,128,0,47803:0:0:0:0:
256,192,47653,128,0,47953:0:0:0:0:
182,192,47803,128,0,47953:0:0:0:0:
329,192,47953,128,0,48253:0:0:0:0:
475,192,47953,128,0,48253:0:0:0:0:
36,192,47953,128,0,48253:0:0:0:0:
182,192,48253,1,0,0:0:0:0:
256,192,48253,128,0,48553:0:0:0:0:
402,192,48253,128,0,48403:0:0:0:0:
109,192,48403,128,0,48553:0:0:0:0:
475,192,48553,1,0,0:0:0:0:
36,192,48553,1,0,0:0:0:0:
182,192,48553,128,0,49153:0:0:0:0:
329,192,48553,128,0,49153:0:0:0:0:
402,192,48853,128,0,49003:0:0:0:0:
256,192,48853,1,0,0:0:0:0:
109,192,48853,1,0,0:0:0:0:
36,192,49003,128,0,49153:0:0:0:0:
475,192,49003,1,0,0:0:0:0:
475,192,49153,128,0,49303:0:0:0:0:
109,192,49153,1,0,0:0:0:0:
256,192,49153,128,0,49753:0:0:0:0:
182,192,49303,128,0,49453:0:0:0:0:
36,192,49303,1,0,0:0:0:0:
402,192,49453,128,0,49753:0:0:0:0:
109,192,49453,1,0,0:0:0:0:
329,192,49453,1,0,0:0:0:0:
182,192,49753,128,0,50353:0:0:0:0:
329,192,49753,128,0,49903:0:0:0:0:
475,192,49753,1,0,0:0:0:0:
36,192,49903,128,0,50053:0:0:0:0:
402,192,49903,1,0,0:0:0:0:
475,192,50053,128,0,50203:0:0:0:0:
109,192,50053,1,0,0:0:0:0:
256,192,50053,1,0,0:0:0:0:
329,192,50203,128,0,50353:0:0:0:0:
109,192,50353,128,0,50653:0:0:0:0:
402,192,50353,128,0,50953:0:0:0:0:
36,192,50353,1,0,0:0:0:0:
256,192,50503,1,0,0:0:0:0:
329,192,50653,1,0,0:0:0:0:
182,192,50653,1,0,0:0:0:0:
109,192,50953,128,0,51553:0:0:0:0:
329,192,50953,128,0,51103:0:0:0:0:
182,192,50953,1,0,0:0:0:0:
256,192,51103,128,0,51253:0:0:0:0:
475,192,51103,1,0,0:0:0:0:
182,192,51253,128,0,51403:0:0:0:0:
36,192,51253,1,0,0:0:0:0:
329,192,51253,1,0,0:0:0:0:
402,192,51403,128,0,51553:0:0:0:0:
256,192,51553,128,0,52153:0:0:0:0:
329,192,51553,128,0,51703:0:0:0:0:
36,192,51553,1,0,0:0:0:0:
109,192,51703,1,0,0:0:0:0:
475,192,51703,128,0,51778:0:0:0:0:
402,192,51778,128,0,51853:0:0:0:0:
182,192,51853,1,0,0:0:0:0:
329,192,51853,128,0,51928:0:0:0:0:
109,192,52003,128,0,52153:0:0:0:0:
182,192,52153,128,0,52303:0:0:0:0:
36,192,52153,128,0,52453:0:0:0:0:
475,192,52153,128,0,52453:0:0:0:0:
329,192,52153,1,0,0:0:0:0:
402,192,52303,128,0,52453:0:0:0:0:
109,192,52453,128,0,52603:0:0:0:0:
256,192,52453,128,0,52753:0:0:0:0:
182,192,52453,1,0,0:0:0:0:
329,192,52603,128,0,52753:0:0:0:0:
475,192,52753,128,0,53203:0:0:0:0:
182,192,52753,128,0,53053:0:0:0:0:
36,192,52753,128,0,53053:0:0:0:0:
402,192,52753,1,0,0:0:0:0:
109,192,53053,128,0,53353:0:0:0:0:
329,192,53053,128,0,53353:0:0:0:0:
402,192,53053,1,0,0:0:0:0:
256,192,53053,128,0,53353:0:0:0:0:
475,192,53353,128,0,53653:0:0:0:0:
182,192,53353,128,0,53653:0:0:0:0:
36,192,53353,128,0,53953:0:0:0:0:
109,192,53653,128,0,53953:0:0:0:0:
402,192,53653,1,0,0:0:0:0:
329,192,53653,128,0,53803:0:0:0:0:
256,192,53803,128,0,53953:0:0:0:0:
475,192,53953,1,0,0:0:0:0:
402,192,53953,128,0,54253:0:0:0:0:
329,192,53953,128,0,54553:0:0:0:0:
36,192,54103,128,0,54403:0:0:0:0:
182,192,54253,128,0,54553:0:0:0:0:
256,192,54253,1,0,0:0:0:0:
109,192,54253,1,0,0:0:0:0:
475,192,54553,1,0,0:0:0:0:
36,192,54553,128,0,54853:0:0:0:0:
402,192,54553,128,0,55153:0:0:0:0:
256,192,54553,1,0,0:0:0:0:
109,192,54703,128,0,55003:0:0:0:0:
329,192,54853,1,0,0:0:0:0:
182,192,54853,128,0,55153:0:0:0:0:
256,192,54853,1,0,0:0:0:0:
475,192,55003,128,0,55153:0:0:0:0:
329,192,55153,128,0,55453:0:0:0:0:
36,192,55153,1,0,0:0:0:0:
256,192,55153,128,0,55753:0:0:0:0:
109,192,55153,1,0,0:0:0:0:
109,192,55453,1,0,0:0:0:0:
402,192,55453,1,0,0:0:0:0:
182,192,55453,1,0,0:0:0:0:
329,192,55753,128,0,56053:0:0:0:0:
475,192,55753,1,0,0:0:0:0:
109,192,55753,128,0,56353:0:0:0:0:
36,192,55753,1,0,0:0:0:0:
402,192,55903,128,0,56203:0:0:0:0:
36,192,56053,1,0,0:0:0:0:
475,192,56053,128,0,56353:0:0:0:0:
256,192,56053,1,0,0:0:0:0:
182,192,56203,128,0,56353:0:0:0:0:
256,192,56353,128,0,56653:0:0:0:0:
402,192,56353,1,0,0:0:0:0:
36,192,56353,128,0,56953:0:0:0:0:
329,192,56503,128,0,56803:0:0:0:0:
402,192,56653,128,0,56953:0:0:0:0:
109,192,56653,1,0,0:0:0:0:
182,192,56653,1,0,0:0:0:0:
256,192,56953,1,0,0:0:0:0:
182,192,56953,128,0,57253:0:0:0:0:
475,192,56953,128,0,57253:0:0:0:0:
329,192,56953,128,0,57103:0:0:0:0:
109,192,57103,128,0,57253:0:0:0:0:
402,192,57253,128,0,57403:0:0:0:0:
256,192,57253,128,0,57553:0:0:0:0:
182,192,57403,128,0,57553:0:0:0:0:
36,192,57553,128,0,57853:0:0:0:0:
329,192,57553,128,0,57853:0:0:0:0:
475,192,57553,128,0,57853:0:0:0:0:
256,192,57853,1,0,0:0:0:0:
182,192,57853,128,0,58003:0:0:0:0:
402,192,57853,128,0,58003:0:0:0:0:
109,192,58003,128,0,58153:0:0:0:0:
329,192,58003,128,0,58153:0:0:0:0:
36,192,58153,128,0,58228:0:0:0:0:
256,192,58153,128,0,58228:0:0:0:0:
475,192,58153,128,0,58228:0:0:0:0:
36,192,58303,128,0,58378:0:0:0:0:
256,192,58303,128,0,58378:0:0:0:0:
475,192,58303,128,0,58378:0:0:0:0:
109,192,58453,128,0,58678:0:0:0:0:
402,192,58603,128,0,58828:0:0:0:0:
109,192,58753,128,0,58978:0:0:0:0:
402,192,58903,128,0,59053:0:0:0:0:
36,192,59053,128,0,59128:0:0:0:0:
256,192,59053,128,0,59128:0:0:0:0:
475,192,59053,128,0,59128:0:0:0:0:
36,192,59203,128,0,59278:0:0:0:0:
256,192,59203,128,0,59278:0:0:0:0:
475,192,59203,128,0,59278:0:0:0:0:
182,192,59353,128,0,59578:0:0:0:0:
109,192,59353,1,0,0:0:0:0:
329,192,59503,128,0,59728:0:0:0:0:
402,192,59503,1,0,0:0:0:0:
182,192,59653,128,0,59878:0:0:0:0:
109,192,59653,1,0,0:0:0:0:
329,192,59803,128,0,59953:0:0:0:0:
402,192,59803,1,0,0:0:0:0:
36,192,59953,128,0,60253:0:0:0:0:
475,192,59953,128,0,60253:0:0:0:0:
256,192,59953,1,0,0:0:0:0:
109,192,60253,128,0,60553:0:0:0:0:
402,192,60253,128,0,60553:0:0:0:0:
256,192,60253,1,0,0:0:0:0:
36,192,60553,128,0,60628:0:0:0:0:
256,192,60553,128,0,60628:0:0:0:0:
475,192,60553,128,0,60628:0:0:0:0:
36,192,60703,128,0,60778:0:0:0:0:
256,192,60703,128,0,60778:0:0:0:0:
475,192,60703,128,0,60778:0:0:0:0:
329,192,60853,128,0,61078:0:0:0:0:
182,192,61003,128,0,61228:0:0:0:0:
329,192,61153,128,0,61378:0:0:0:0:
182,192,61303,128,0,61453:0:0:0:0:
36,192,61453,128,0,61528:0:0:0:0:
256,192,61453,128,0,61528:0:0:0:0:
475,192,61453,128,0,61528:0:0:0:0:
36,192,61603,128,0,61678:0:0:0:0:
256,192,61603,128,0,61678:0:0:0:0:
475,192,61603,128,0,61678:0:0:0:0:
402,192,61753,128,0,61978:0:0:0:0:
329,192,61753,1,0,0:0:0:0:
109,192,61903,128,0,62128:0:0:0:0:
182,192,61903,1,0,0:0:0:0:
402,192,62053,128,0,62278:0:0:0:0:
329,192,62053,1,0,0:0:0:0:
109,192,62203,128,0,62353:0:0:0:0:
182,192,62203,1,0,0:0:0:0:
256,192,62353,128,0,62653:0:0:0:0:
36,192,62353,128,0,62653:0:0:0:0:
475,192,62353,128,0,62653:0:0:0:0:
109,192,62653,128,0,62953:0:0:0:0:
402,192,62653,128,0,62953:0:0:0:0:
182,192,62653,128,0,62953:0:0:0:0:
329,192,62653,128,0,62953:0:0:0:0:
256,192,62953,128,0,64753:0:0:0:0:
36,192,62953,1,0,0:0:0:0:
329,192,63253,128,0,63628:0:0:0:0:
182,192,63253,1,0,0:0:0:0:
475,192,63403,128,0,64078:0:0:0:0:
109,192,63403,1,0,0:0:0:0:
402,192,63553,128,0,63778:0:0:0:0:
36,192,63553,1,0,0:0:0:0:
182,192,63553,1,0,0:0:0:0:
329,192,63703,128,0,64153:0:0:0:0:
402,192,63853,128,0,64153:0:0:0:0:
182,192,63853,1,0,0:0:0:0:
182,192,64153,128,0,64528:0:0:0:0:
475,192,64153,1,0,0:0:0:0:
36,192,64303,128,0,64678:0:0:0:0:
402,192,64303,1,0,0:0:0:0:
109,192,64453,128,0,64753:0:0:0:0:
329,192,64453,1,0,0:0:0:0:
475,192,64453,1,0,0:0:0:0:
182,192,64603,128,0,64753:0:0:0:0:
36,192,64753,128,0,65053:0:0:0:0:
402,192,64753,128,0,65053:0:0:0:0:
182,192,65053,128,0,65353:0:0:0:0:
329,192,65053,128,0,65353:0:0:0:0:
256,192,65053,1,0,0:0:0:0:
109,192,65353,128,0,67153:0:0:0:0:
402,192,65353,128,0,67153:0:0:0:0:
36,192,65353,1,0,0:0:0:0:
475,192,65353,1,0,0:0:0:0:
36,192,65653,128,0,65878:0:0:0:0:
329,192,65653,1,0,0:0:0:0:
475,192,65803,128,0,66028:0:0:0:0:
256,192,65803,1,0,0:0:0:0:
36,192,65953,128,0,66178:0:0:0:0:
182,192,65953,1,0,0:0:0:0:
329,192,65953,1,0,0:0:0:0:
475,192,66103,128,0,66403:0:0:0:0:
36,192,66253,128,0,66553:0:0:0:0:
256,192,66253,1,0,0:0:0:0:
475,192,66553,1,0,0:0:0:0:
329,192,66553,128,0,66778:0:0:0:0:
256,192,66703,1,0,0:0:0:0:
182,192,66703,128,0,66928:0:0:0:0:
36,192,66853,1,0,0:0:0:0:
329,192,66853,128,0,67078:0:0:0:0:
256,192,67003,1,0,0:0:0:0:
182,192,67003,128,0,67153:0:0:0:0:
36,192,67153,128,0,67453:0:0:0:0:
475,192,67153,128,0,67453:0:0:0:0:
329,192,67153,128,0,67453:0:0:0:0:
256,192,67453,128,0,67753:0:0:0:0:
109,192,67453,128,0,67753:0:0:0:0:
402,192,67453,128,0,67753:0:0:0:0:
182,192,67753,128,0,68953:0:0:0:0:
36,192,67753,128,0,68953:0:0:0:0:
475,192,67753,1,0,0:0:0:0:
329,192,68053,128,0,68203:0:0:0:0:
402,192,68053,1,0,0:0:0:0:
109,192,68203,128,0,68353:0:0:0:0:
256,192,68353,128,0,68503:0:0:0:0:
475,192,68353,1,0,0:0:0:0:
402,192,68353,1,0,0:0:0:0:
329,192,68503,128,0,68653:0:0:0:0:
475,192,68653,1,0,0:0:0:0:
402,192,68653,128,0,68953:0:0:0:0:
329,192,68953,128,0,69553:0:0:0:0:
475,192,68953,128,0,69553:0:0:0:0:
256,192,68953,128,0,69103:0:0:0:0:
109,192,68953,1,0,0:0:0:0:
182,192,69103,128,0,69253:0:0:0:0:
36,192,69103,1,0,0:0:0:0:
402,192,69253,1,0,0:0:0:0:
109,192,69253,128,0,69403:0:0:0:0:
36,192,69403,128,0,69553:0:0:0:0:
256,192,69553,128,0,69853:0:0:0:0:
402,192,69553,128,0,70153:0:0:0:0:
182,192,69853,128,0,70153:0:0:0:0:
329,192,69853,128,0,70153:0:0:0:0:
109,192,69853,128,0,70153:0:0:0:0:
256,192,70153,1,0,0:0:0:0:
475,192,70153,128,0,71353:0:0:0:0:
36,192,70153,128,0,71353:0:0:0:0:
182,192,70453,128,0,70678:0:0:0:0:
109,192,70453,1,0,0:0:0:0:
329,192,70603,128,0,71353:0:0:0:0:
109,192,70753,128,0,70978:0:0:0:0:
182,192,70753,1,0,0:0:0:0:
256,192,70753,1,0,0:0:0:0:
402,192,70903,128,0,71353:0:0:0:0:
182,192,71053,128,0,71353:0:0:0:0:
109,192,71053,1,0,0:0:0:0:
256,192,71353,1,0,0:0:0:0:
36,192,71503,128,0,71728:0:0:0:0:
109,192,71503,128,0,71728:0:0:0:0:
329,192,71653,128,0,71878:0:0:0:0:
402,192,71653,128,0,71878:0:0:0:0:
109,192,71803,128,0,72028:0:0:0:0:
182,192,71803,128,0,72028:0:0:0:0:
256,192,71953,128,0,72553:0:0:0:0:
329,192,71953,128,0,72178:0:0:0:0:
475,192,71953,128,0,72178:0:0:0:0:
109,192,72103,128,0,72328:0:0:0:0:
402,192,72253,128,0,72478:0:0:0:0:
109,192,72403,128,0,72553:0:0:0:0:
182,192,72553,1,0,0:0:0:0:
475,192,72553,1,0,0:0:0:0:
402,192,72553,1,0,0:0:0:0:
36,192,72553,128,0,72753:0:0:0:0:
256,192,72753,1,0,0:0:0:0:
329,192,72753,1,0,0:0:0:0:
109,192,72753,128,0,72953:0:0:0:0:
329,192,72953,1,0,0:0:0:0:
402,192,72953,1,0,0:0:0:0:
182,192,72953,128,0,73153:0:0:0:0:
36,192,73153,1,0,0:0:0:0:
402,192,73153,1,0,0:0:0:0:
109,192,73153,1,0,0:0:0:0:
256,192,73153,128,0,73353:0:0:0:0:
182,192,73353,1,0,0:0:0:0:
109,192,73353,1,0,0:0:0:0:
475,192,73353,1,0,0:0:0:0:
329,192,73353,128,0,73553:0:0:0:0:
256,192,73553,1,0,0:0:0:0:
182,192,73553,1,0,0:0:0:0:
36,192,73553,1,0,0:0:0:0:
402,192,73553,128,0,73753:0:0:0:0:
36,192,73753,128,0,73828:0:0:0:0:
182,192,73753,128,0,73828:0:0:0:0:
256,192,73753,128,0,73828:0:0:0:0:
329,192,73753,128,0,73828:0:0:0:0:
475,192,73753,128,0,73828:0:0:0:0:
402,192,73903,128,0,73978:0:0:0:0:
109,192,73903,128,0,73978:0:0:0:0:
182,192,74053,128,0,74128:0:0:0:0:
329,192,74053,128,0,74128:0:0:0:0:
256,192,74203,128,0,74278:0:0:0:0:
109,192,74203,128,0,74278:0:0:0:0:
402,192,74203,128,0,74278:0:0:0:0:
475,192,74203,128,0,74278:0:0:0:0:
36,192,74203,128,0,74278:0:0:0:0:
182,192,74353,128,0,74428:0:0:0:0:
329,192,74353,128,0,74428:0:0:0:0:
402,192,74503,128,0,74578:0:0:0:0:
109,192,74503,128,0,74578:0:0:0:0:
256,192,74653,128,0,74953:0:0:0:0:
36,192,74653,128,0,74728:0:0:0:0:
182,192,74653,128,0,74728:0:0:0:0:
329,192,74653,128,0,74728:0:0:0:0:
475,192,74653,128,0,74728:0:0:0:0:
36,192,74953,1,0,0:0:0:0:
182,192,74953,128,0,75553:0:0:0:0:
402,192,74953,128,0,75103:0:0:0:0:
109,192,75103,1,0,0:0:0:0:
329,192,75103,128,0,75253:0:0:0:0:
36,192,75253,1,0,0:0:0:0:
256,192,75253,1,0,0:0:0:0:
402,192,75253,128,0,75403:0:0:0:0:
475,192,75403,128,0,75553:0:0:0:0:
256,192,75553,1,0,0:0:0:0:
402,192,75553,128,0,76153:0:0:0:0:
36,192,75553,128,0,75703:0:0:0:0:
329,192,75703,1,0,0:0:0:0:
109,192,75703,128,0,75853:0:0:0:0:
256,192,75853,1,0,0:0:0:0:
475,192,75853,1,0,0:0:0:0:
36,192,75853,128,0,76003:0:0:0:0:
329,192,76003,128,0,76153:0:0:0:0:
36,192,76153,1,0,0:0:0:0:
109,192,76153,128,0,76753:0:0:0:0:
256,192,76153,128,0,76303:0:0:0:0:
402,192,76303,1,0,0:0:0:0:
182,192,76303,128,0,76453:0:0:0:0:
36,192,76453,1,0,0:0:0:0:
475,192,76453,1,0,0:0:0:0:
329,192,76453,128,0,76603:0:0:0:0:
256,192,76603,128,0,76753:0:0:0:0:
402,192,76753,128,0,77053:0:0:0:0:
475,192,76753,1,0,0:0:0:0:
329,192,76753,1,0,0:0:0:0:
182,192,76753,128,0,76903:0:0:0:0:
256,192,76903,128,0,77053:0:0:0:0:
109,192,77053,128,0,77353:0:0:0:0:
182,192,77053,1,0,0:0:0:0:
36,192,77053,1,0,0:0:0:0:
475,192,77053,128,0,77203:0:0:0:0:
256,192,77203,128,0,77353:0:0:0:0:
182,192,77353,128,0,77428:0:0:0:0:
402,192,77353,1,0,0:0:0:0:
329,192,77353,128,0,77953:0:0:0:0:
475,192,77503,1,0,0:0:0:0:
109,192,77503,128,0,77578:0:0:0:0:
256,192,77653,1,0,0:0:0:0:
109,192,77653,128,0,77728:0:0:0:0:
402,192,77653,1,0,0:0:0:0:
182,192,77803,128,0,77878:0:0:0:0:
109,192,77953,128,0,78028:0:0:0:0:
475,192,77953,1,0,0:0:0:0:
402,192,77953,128,0,78253:0:0:0:0:
182,192,78103,128,0,78178:0:0:0:0:
36,192,78103,1,0,0:0:0:0:
256,192,78253,128,0,78328:0:0:0:0:
475,192,78253,1,0,0:0:0:0:
109,192,78253,1,0,0:0:0:0:
329,192,78253,128,0,78553:0:0:0:0:
182,192,78403,128,0,78478:0:0:0:0:
109,192,78553,1,0,0:0:0:0:
402,192,78553,128,0,78628:0:0:0:0:
256,192,78553,128,0,79153:0:0:0:0:
329,192,78703,128,0,78778:0:0:0:0:
36,192,78703,1,0,0:0:0:0:
475,192,78853,1,0,0:0:0:0:
402,192,78853,1,0,0:0:0:0:
109,192,78853,128,0,78928:0:0:0:0:
182,192,79003,128,0,79078:0:0:0:0:
475,192,79153,1,0,0:0:0:0:
36,192,79153,1,0,0:0:0:0:
329,192,79153,128,0,79228:0:0:0:0:
402,192,79153,128,0,79753:0:0:0:0:
256,192,79303,128,0,79378:0:0:0:0:
36,192,79453,1,0,0:0:0:0:
329,192,79453,1,0,0:0:0:0:
475,192,79453,1,0,0:0:0:0:
182,192,79453,128,0,79528:0:0:0:0:
256,192,79603,128,0,79678:0:0:0:0:
182,192,79753,128,0,79828:0:0:0:0:
475,192,79753,128,0,79828:0:0:0:0:
329,192,79753,128,0,79903:0:0:0:0:
109,192,79753,128,0,80353:0:0:0:0:
256,192,79903,128,0,79978:0:0:0:0:
36,192,79903,128,0,79978:0:0:0:0:
182,192,80053,128,0,80128:0:0:0:0:
402,192,80053,128,0,80203:0:0:0:0:
329,192,80053,128,0,80128:0:0:0:0:
475,192,80203,128,0,80353:0:0:0:0:
256,192,80203,1,0,0:0:0:0:
36,192,80353,128,0,80428:0:0:0:0:
182,192,80353,128,0,80953:0:0:0:0:
402,192,80353,128,0,80503:0:0:0:0:
109,192,80503,128,0,80578:0:0:0:0:
329,192,80503,128,0,80653:0:0:0:0:
36,192,80653,128,0,80728:0:0:0:0:
475,192,80653,128,0,80728:0:0:0:0:
256,192,80653,128,0,80803:0:0:0:0:
109,192,80803,1,0,0:0:0:0:
329,192,80803,128,0,80953:0:0:0:0:
36,192,80953,128,0,81103:0:0:0:0:
402,192,80953,128,0,81553:0:0:0:0:
256,192,81103,128,0,81178:0:0:0:0:
109,192,81103,128,0,81253:0:0:0:0:
475,192,81253,128,0,81328:0:0:0:0:
329,192,81253,128,0,81403:0:0:0:0:
36,192,81253,128,0,81328:0:0:0:0:
256,192,81403,128,0,81553:0:0:0:0:
109,192,81403,1,0,0:0:0:0:
36,192,81553,128,0,81628:0:0:0:0:
329,192,81553,128,0,81628:0:0:0:0:
182,192,81553,128,0,81703:0:0:0:0:
475,192,81553,128,0,81853:0:0:0:0:
256,192,81703,128,0,81853:0:0:0:0:
36,192,81853,128,0,82153:0:0:0:0:
109,192,81853,128,0,81928:0:0:0:0:
402,192,81853,128,0,81928:0:0:0:0:
329,192,81853,128,0,82003:0:0:0:0:
256,192,82003,128,0,82153:0:0:0:0:
475,192,82003,1,0,0:0:0:0:
182,192,82153,128,0,82303:0:0:0:0:
402,192,82153,128,0,82753:0:0:0:0:
109,192,82153,1,0,0:0:0:0:
329,192,82153,1,0,0:0:0:0:
475,192,82303,1,0,0:0:0:0:
329,192,82453,1,0,0:0:0:0:
109,192,82453,128,0,82603:0:0:0:0:
36,192,82603,128,0,82753:0:0:0:0:
256,192,82603,1,0,0:0:0:0:
475,192,82753,1,0,0:0:0:0:
109,192,82753,128,0,82903:0:0:0:0:
329,192,82753,128,0,83353:0:0:0:0:
402,192,82903,1,0,0:0:0:0:
182,192,82903,128,0,83053:0:0:0:0:
475,192,83053,1,0,0:0:0:0:
256,192,83053,128,0,83203:0:0:0:0:
182,192,83203,128,0,83353:0:0:0:0:
402,192,83203,1,0,0:0:0:0:
475,192,83353,128,0,83503:0:0:0:0:
109,192,83353,128,0,83953:0:0:0:0:
36,192,83353,1,0,0:0:0:0:
402,192,83503,128,0,83653:0:0:0:0:
256,192,83503,1,0,0:0:0:0:
329,192,83653,1,0,0:0:0:0:
182,192,83653,128,0,83803:0:0:0:0:
402,192,83803,1,0,0:0:0:0:
256,192,83803,128,0,83953:0:0:0:0:
475,192,83953,1,0,0:0:0:0:
36,192,83953,128,0,84253:0:0:0:0:
182,192,83953,1,0,0:0:0:0:
329,192,83953,128,0,84103:0:0:0:0:
402,192,84103,1,0,0:0:0:0:
256,192,84103,128,0,84253:0:0:0:0:
475,192,84253,128,0,84553:0:0:0:0:
182,192,84253,128,0,84403:0:0:0:0:
109,192,84253,128,0,84403:0:0:0:0:
329,192,84403,128,0,84553:0:0:0:0:
256,192,84403,128,0,84553:0:0:0:0:
182,192,84553,1,0,0:0:0:0:
402,192,84553,128,0,84703:0:0:0:0:
109,192,84553,128,0,85153:0:0:0:0:
36,192,84703,1,0,0:0:0:0:
256,192,84703,1,0,0:0:0:0:
329,192,84853,1,0,0:0:0:0:
182,192,84853,1,0,0:0:0:0:
402,192,84853,128,0,85003:0:0:0:0:
256,192,85003,1,0,0:0:0:0:
475,192,85003,128,0,85153:0:0:0:0:
182,192,85153,128,0,85753:0:0:0:0:
402,192,85153,128,0,85303:0:0:0:0:
36,192,85153,1,0,0:0:0:0:
329,192,85303,128,0,85453:0:0:0:0:
109,192,85303,1,0,0:0:0:0:
256,192,85453,128,0,85603:0:0:0:0:
475,192,85453,1,0,0:0:0:0:
36,192,85453,1,0,0:0:0:0:
329,192,85603,128,0,85753:0:0:0:0:
109,192,85603,1,0,0:0:0:0:
475,192,85753,1,0,0:0:0:0:
36,192,85753,128,0,85903:0:0:0:0:
256,192,85753,1,0,0:0:0:0:
402,192,85753,128,0,86353:0:0:0:0:
182,192,85903,1,0,0:0:0:0:
109,192,85903,128,0,86053:0:0:0:0:
329,192,86053,128,0,86203:0:0:0:0:
36,192,86053,1,0,0:0:0:0:
475,192,86053,1,0,0:0:0:0:
256,192,86203,128,0,86353:0:0:0:0:
109,192,86203,1,0,0:0:0:0:
182,192,86353,128,0,86503:0:0:0:0:
475,192,86353,128,0,86653:0:0:0:0:
36,192,86353,1,0,0:0:0:0:
329,192,86353,1,0,0:0:0:0:
256,192,86503,128,0,86653:0:0:0:0:
109,192,86503,1,0,0:0:0:0:
36,192,86653,128,0,86953:0:0:0:0:
329,192,86653,128,0,86803:0:0:0:0:
402,192,86653,128,0,86803:0:0:0:0:
182,192,86803,128,0,86953:0:0:0:0:
256,192,86803,128,0,86953:0:0:0:0:
329,192,86953,1,0,0:0:0:0:
402,192,86953,128,0,87553:0:0:0:0:
109,192,86953,128,0,87103:0:0:0:0:
256,192,87103,1,0,0:0:0:0:
475,192,87103,1,0,0:0:0:0:
36,192,87103,1,0,0:0:0:0:
109,192,87253,128,0,87403:0:0:0:0:
329,192,87253,1,0,0:0:0:0:
182,192,87253,1,0,0:0:0:0:
36,192,87403,128,0,87553:0:0:0:0:
256,192,87403,1,0,0:0:0:0:
475,192,87553,1,0,0:0:0:0:
109,192,87553,128,0,87703:0:0:0:0:
329,192,87553,128,0,88153:0:0:0:0:
402,192,87703,1,0,0:0:0:0:
182,192,87703,128,0,87853:0:0:0:0:
475,192,87853,1,0,0:0:0:0:
256,192,87853,128,0,88003:0:0:0:0:
109,192,87853,1,0,0:0:0:0:
36,192,87853,1,0,0:0:0:0:
402,192,88003,1,0,0:0:0:0:
182,192,88003,128,0,88153:0:0:0:0:
109,192,88153,128,0,88753:0:0:0:0:
475,192,88153,128,0,88303:0:0:0:0:
36,192,88153,1,0,0:0:0:0:
256,192,88153,1,0,0:0:0:0:
329,192,88303,1,0,0:0:0:0:
402,192,88303,128,0,88453:0:0:0:0:
475,192,88453,1,0,0:0:0:0:
182,192,88453,128,0,88603:0:0:0:0:
36,192,88453,1,0,0:0:0:0:
402,192,88603,1,0,0:0:0:0:
256,192,88603,128,0,88753:0:0:0:0:
329,192,88753,128,0,88903:0:0:0:0:
182,192,88753,1,0,0:0:0:0:
475,192,88753,1,0,0:0:0:0:
36,192,88753,128,0,89053:0:0:0:0:
256,192,88903,128,0,89053:0:0:0:0:
402,192,88903,1,0,0:0:0:0:
475,192,89053,128,0,89353:0:0:0:0:
182,192,89053,128,0,89203:0:0:0:0:
109,192,89053,128,0,89203:0:0:0:0:
329,192,89203,128,0,89353:0:0:0:0:
256,192,89203,128,0,89353:0:0:0:0:
402,192,89353,128,0,89503:0:0:0:0:
109,192,89353,128,0,89503:0:0:0:0:
36,192,89353,1,0,0:0:0:0:
475,192,89503,128,0,89653:0:0:0:0:
182,192,89503,128,0,89653:0:0:0:0:
329,192,89503,1,0,0:0:0:0:
109,192,89653,128,0,89803:0:0:0:0:
402,192,89653,128,0,89803:0:0:0:0:
256,192,89653,1,0,0:0:0:0:
36,192,89803,128,0,89953:0:0:0:0:
182,192,89803,1,0,0:0:0:0:
329,192,89803,128,0,89953:0:0:0:0:
256,192,89953,1,0,0:0:0:0:
109,192,89953,128,0,90103:0:0:0:0:
402,192,89953,128,0,90103:0:0:0:0:
475,192,90103,128,0,90253:0:0:0:0:
329,192,90103,1,0,0:0:0:0:
182,192,90103,128,0,90253:0:0:0:0:
109,192,90253,128,0,90403:0:0:0:0:
256,192,90253,1,0,0:0:0:0:
402,192,90253,128,0,90403:0:0:0:0:
36,192,90403,128,0,90553:0:0:0:0:
329,192,90403,128,0,90553:0:0:0:0:
182,192,90403,1,0,0:0:0:0:
109,192,90553,1,0,0:0:0:0:
475,192,90553,1,0,0:0:0:0:
256,192,90553,1,0,0:0:0:0:
475,192,90703,1,0,0:0:0:0:
329,192,90703,1,0,0:0:0:0:
109,192,90703,1,0,0:0:0:0:
329,192,90853,1,0,0:0:0:0:
109,192,90853,1,0,0:0:0:0:
475,192,90853,1,0,0:0:0:0:
109,192,91003,128,0,91078:0:0:0:0:
256,192,91003,128,0,91078:0:0:0:0:
329,192,91003,128,0,91078:0:0:0:0:
475,192,91003,128,0,91078:0:0:0:0:
475,192,91303,128,0,91378:0:0:0:0:
402,192,91340,128,0,91415:0:0:0:0:
329,192,91378,128,0,91453:0:0:0:0:
256,192,91415,128,0,91490:0:0:0:0:
109,192,91453,128,0,91753:0:0:0:0:
182,192,91453,128,0,91528:0:0:0:0:
36,192,91753,1,0,0:0:0:0:
475,192,91753,1,0,0:0:0:0:
256,192,91753,128,0,94153:0:0:0:0:
182,192,92953,128,0,94153:0:0:0:0:
329,192,93253,128,0,94153:0:0:0:0:
109,192,93553,128,0,94153:0:0:0:0:
402,192,93853,128,0,94153:0:0:0:0:
36,192,94153,128,0,94228:0:0:0:0:
475,192,94153,128,0,94228:0:0:0:0:
36,192,94303,128,0,94378:0:0:0:0:
256,192,94303,128,0,94378:0:0:0:0:
475,192,94303,128,0,94378:0:0:0:0:
109,192,94753,128,0,94828:0:0:0:0:
256,192,94753,128,0,94828:0:0:0:0:
402,192,94753,128,0,94828:0:0:0:0:
402,192,94903,128,0,95653:0:0:0:0:
256,192,94903,128,0,95653:0:0:0:0:
109,192,94903,128,0,95653:0:0:0:0:
36,192,106925,5,0,0:0:0:13:
475,192,106925,128,0,107075:0:0:0:0:
109,192,106925,1,0,0:0:0:13:PC.ogg
329,192,107075,128,0,107225:0:0:0:0:
182,192,107225,1,0,0:0:0:0:
475,192,107225,128,0,107375:0:0:0:0:
36,192,107225,1,0,0:0:0:13:
256,192,107375,128,0,107450:0:0:0:0:
402,192,107450,128,0,107525:0:0:0:0:
182,192,107525,128,0,107600:0:0:0:0:
329,192,107600,128,0,107675:0:0:0:0:
109,192,107675,128,0,107750:0:0:0:0:
256,192,107750,128,0,107825:0:0:0:0:
36,192,107825,128,0,107975:0:0:0:0:
182,192,107825,128,0,107975:0:0:0:0:
329,192,107975,128,0,108125:0:0:0:0:
182,192,108125,128,0,108200:0:0:0:0:
36,192,108125,128,0,108200:0:0:0:0:
182,192,108275,128,0,108350:0:0:0:0:
36,192,108275,128,0,108350:0:0:0:0:
182,192,108425,128,0,108500:0:0:0:0:
402,192,108425,128,0,108500:0:0:0:0:
475,192,108425,128,0,108575:0:0:0:0:
256,192,108500,128,0,108575:0:0:0:0:
329,192,108575,128,0,108650:0:0:0:0:
402,192,108650,128,0,108725:0:0:0:0:
109,192,108725,128,0,108800:0:0:0:0:
475,192,108725,128,0,108800:0:0:0:0:
182,192,108800,128,0,108875:0:0:0:0:
329,192,108875,128,0,108950:0:0:0:0:
182,192,108950,128,0,109025:0:0:0:0:
329,192,109025,128,0,109175:0:0:0:0:
475,192,109025,128,0,109100:0:0:0:0:
36,192,109025,128,0,109100:0:0:0:0:
256,192,109175,128,0,109325:0:0:0:0:
329,192,109325,128,0,109400:0:0:0:0:
182,192,109325,128,0,109400:0:0:0:0:
36,192,109325,1,0,0:0:0:13:P4.ogg
329,192,109475,128,0,109550:0:0:0:0:
182,192,109475,128,0,109550:0:0:0:0:
256,192,109625,1,0,0:0:0:0:
475,192,109625,1,0,0:0:0:13:light snare.ogg
402,192,109625,1,0,0:0:0:13:snare 1.ogg
329,192,109775,128,0,109925:0:0:0:0:
182,192,109775,128,0,109850:0:0:0:0:
109,192,109850,128,0,109925:0:0:0:0:
402,192,109925,128,0,110075:0:0:0:0:
182,192,109925,128,0,110000:0:0:0:0:
109,192,110000,128,0,110075:0:0:0:0:
475,192,110075,128,0,110225:0:0:0:0:
182,192,110075,128,0,110150:0:0:0:0:
402,192,110225,128,0,110300:0:0:0:0:
329,192,110225,128,0,110300:0:0:0:0:
109,192,110225,128,0,110300:0:0:0:0:
256,192,110375,1,0,0:0:0:0:
36,192,110375,1,0,0:0:0:20:normal-hitnormal.wav
182,192,110525,128,0,110600:0:0:0:0:
109,192,110525,128,0,110600:0:0:0:0:
182,192,110675,128,0,110750:0:0:0:0:
109,192,110675,128,0,110750:0:0:0:0:
256,192,110825,1,0,0:0:0:0:
329,192,110825,1,0,0:0:0:0:
475,192,110825,1,0,0:0:0:13:snare 3.ogg
256,192,110975,128,0,111050:0:0:0:0:
109,192,111050,128,0,111125:0:0:0:0:
475,192,111125,128,0,111200:0:0:0:0:
329,192,111125,128,0,111200:0:0:0:0:
256,192,111275,128,0,111350:0:0:0:0:
402,192,111275,128,0,111350:0:0:0:0:
475,192,111425,128,0,111500:0:0:0:0:
36,192,111425,128,0,111500:0:0:0:0:
182,192,111425,128,0,111500:0:0:0:0:
402,192,111575,128,0,111650:0:0:0:0:
329,192,111575,128,0,111650:0:0:0:0:
402,192,111725,128,0,111800:0:0:0:0:
329,192,111725,128,0,111800:0:0:0:0:
256,192,111875,128,0,111950:0:0:0:0:
36,192,111875,128,0,112025:0:0:0:0:
329,192,112025,128,0,112100:0:0:0:0:
109,192,112025,128,0,112175:0:0:0:0:
402,192,112175,128,0,112250:0:0:0:0:
182,192,112175,128,0,112325:0:0:0:0:
475,192,112325,128,0,112850:0:0:0:0:
256,192,112325,128,0,112475:0:0:0:0:
402,192,112475,128,0,112850:0:0:0:0:
182,192,112475,128,0,112625:0:0:0:0:
329,192,112625,128,0,112850:0:0:0:0:
109,192,112625,128,0,112775:0:0:0:0:
256,192,112775,128,0,112850:0:0:0:0:
36,192,112775,128,0,112925:0:0:0:0:
402,192,112925,128,0,113000:0:0:0:0:
182,192,112925,128,0,113000:0:0:0:0:
182,192,113075,128,0,113150:0:0:0:0:
402,192,113075,128,0,113150:0:0:0:0:
329,192,113225,1,0,0:0:0:13:PA.ogg
475,192,113225,1,0,0:0:0:13:snare 3.ogg
36,192,113225,1,0,0:0:0:0:
182,192,113375,128,0,113450:0:0:0:0:
109,192,113450,128,0,113525:0:0:0:0:
329,192,113525,128,0,113675:0:0:0:0:
182,192,113525,128,0,113600:0:0:0:0:
402,192,113675,128,0,113825:0:0:0:0:
109,192,113675,128,0,113750:0:0:0:0:
182,192,113750,128,0,113825:0:0:0:0:
475,192,113825,128,0,113975:0:0:0:0:
109,192,113825,128,0,113900:0:0:0:0:
329,192,113975,128,0,114050:0:0:0:0:
182,192,113975,128,0,114050:0:0:0:0:
329,192,114125,128,0,114200:0:0:0:0:
182,192,114125,128,0,114200:0:0:0:0:
182,192,114275,1,0,0:0:0:0:
182,192,114350,1,0,0:0:0:0:
475,192,114425,128,0,114500:0:0:0:0:
329,192,114425,128,0,114500:0:0:0:0:
36,192,114425,1,0,0:0:0:13:
329,192,114575,1,0,0:0:0:0:
329,192,114650,1,0,0:0:0:0:
109,192,114725,128,0,114800:0:0:0:0:
182,192,114725,128,0,114800:0:0:0:0:
475,192,114875,128,0,114950:0:0:0:0:
256,192,114875,128,0,114950:0:0:0:0:
36,192,114875,128,0,114950:0:0:0:0:
402,192,115025,128,0,115100:0:0:0:0:
109,192,115025,128,0,115100:0:0:0:0:
329,192,115175,128,0,115250:0:0:0:0:
182,192,115250,128,0,115325:0:0:0:0:
329,192,115325,128,0,115400:0:0:0:0:
182,192,115400,128,0,115475:0:0:0:0:
329,192,115475,128,0,115550:0:0:0:0:
182,192,115550,128,0,115625:0:0:0:0:
36,192,115625,128,0,115700:0:0:0:0:
475,192,115625,128,0,115700:0:0:0:0:
329,192,115775,128,0,115850:0:0:0:0:
182,192,115850,128,0,115925:0:0:0:0:
329,192,115925,128,0,116000:0:0:0:0:
475,192,116075,128,0,116150:0:0:0:0:
256,192,116075,128,0,116150:0:0:0:0:
36,192,116075,128,0,116150:0:0:0:0:
475,192,116225,128,0,116300:0:0:0:0:
256,192,116225,128,0,116300:0:0:0:0:
36,192,116225,128,0,116300:0:0:0:0:
475,192,116375,128,0,116450:0:0:0:0:
256,192,116375,128,0,116450:0:0:0:0:
36,192,116375,128,0,116450:0:0:0:0:
402,192,116525,1,0,0:0:0:10:
182,192,116525,1,0,0:0:0:10:
109,192,116525,1,0,0:0:0:10:normal-hitnormal.wav
329,192,116525,1,0,0:0:0:10:
182,192,118325,128,0,118625:0:0:0:40:
329,192,118475,128,0,118775:0:0:0:40:
109,192,118625,128,0,118925:0:0:0:40:
402,192,118775,128,0,118925:0:0:0:40:
329,192,118925,128,0,119075:0:0:0:20:
36,192,118925,128,0,119075:0:0:0:20:
475,192,119075,128,0,119375:0:0:0:20:
182,192,119075,128,0,119375:0:0:0:20:
109,192,119225,128,0,119375:0:0:0:20:
402,192,119225,128,0,119375:0:0:0:20:
36,192,119375,128,0,119600:0:0:0:20:
329,192,119375,128,0,119600:0:0:0:20:
329,192,119675,128,0,119900:0:0:0:20:
36,192,119675,128,0,119900:0:0:0:20:
329,192,119975,128,0,120275:0:0:0:20:
36,192,119975,128,0,120275:0:0:0:20:
402,192,120275,128,0,120425:0:0:0:20:
109,192,120275,128,0,120425:0:0:0:20:
36,192,120425,128,0,120575:0:0:0:20:
329,192,120425,128,0,120575:0:0:0:20:
475,192,120575,128,0,120725:0:0:0:20:
182,192,120575,128,0,120725:0:0:0:20:
36,192,120725,128,0,121025:0:0:0:20:
329,192,120725,128,0,121025:0:0:0:20:
109,192,120875,128,0,121025:0:0:0:20:
402,192,120875,128,0,121025:0:0:0:20:
475,192,121025,128,0,121325:0:0:0:20:
256,192,121025,128,0,121325:0:0:0:20:
36,192,121175,128,0,121325:0:0:0:20:
109,192,121175,128,0,121325:0:0:0:20:
182,192,121325,128,0,121775:0:0:0:0:
329,192,121325,128,0,121475:0:0:0:20:
256,192,121475,128,0,121775:0:0:0:0:
402,192,121475,128,0,121625:0:0:0:20:
329,192,121625,128,0,121775:0:0:0:0:
475,192,121625,128,0,121775:0:0:0:40:
402,192,121775,128,0,121925:0:0:0:0:
109,192,121775,1,0,0:0:0:13:
36,192,121775,128,0,122075:0:0:0:13:
329,192,121925,128,0,122075:0:0:0:0:
182,192,121925,1,0,0:0:0:20:
402,192,122075,128,0,122225:0:0:0:0:
109,192,122075,1,0,0:0:0:20:
475,192,122225,128,0,122825:0:0:0:0:
182,192,122225,1,0,0:0:0:20:
402,192,122375,128,0,122825:0:0:0:0:
109,192,122375,1,0,0:0:0:20:
36,192,122525,128,0,122825:0:0:0:0:
329,192,122525,128,0,122825:0:0:0:0:
109,192,122675,128,0,122825:0:0:0:0:
182,192,122825,128,0,123125:0:0:0:0:
402,192,122975,128,0,123125:0:0:0:40:
329,192,123125,128,0,123425:0:0:0:40:
182,192,123275,128,0,123425:0:0:0:40:
109,192,123425,128,0,123500:0:0:0:0:
36,192,123425,128,0,123500:0:0:0:0:
475,192,123500,128,0,123575:0:0:0:0:
402,192,123500,128,0,123575:0:0:0:0:
36,192,123575,128,0,123650:0:0:0:0:
109,192,123575,128,0,123650:0:0:0:0:
475,192,123650,128,0,123725:0:0:0:0:
402,192,123650,128,0,123725:0:0:0:0:
329,192,123725,128,0,123800:0:0:0:0:
182,192,123725,128,0,123800:0:0:0:0:
329,192,123875,128,0,123950:0:0:0:0:
182,192,123875,128,0,123950:0:0:0:0:
475,192,124025,128,0,124250:0:0:0:0:
256,192,124025,1,0,0:0:0:13:snare 3.ogg
36,192,124025,1,0,0:0:0:13:snare 3.ogg
109,192,124175,1,0,0:0:0:40:light snare.ogg
475,192,124325,128,0,124700:0:0:0:0:
329,192,124325,128,0,124700:0:0:0:0:
109,192,124475,1,0,0:0:0:40:light snare.ogg
256,192,124625,1,0,0:0:0:0:
182,192,124625,1,0,0:0:0:13:snare 3.ogg
36,192,124625,1,0,0:0:0:13:snare 3.ogg
475,192,124775,128,0,125000:0:0:0:0:
329,192,124775,128,0,125000:0:0:0:0:
475,192,125075,128,0,125450:0:0:0:0:
329,192,125075,128,0,125450:0:0:0:0:
109,192,125225,1,0,0:0:0:0:
36,192,125225,1,0,0:0:0:13:snare 3.ogg
182,192,125225,1,0,0:0:0:13:snare 3.ogg
475,192,125525,128,0,125600:0:0:0:0:
329,192,125525,128,0,125750:0:0:0:0:
475,192,125675,128,0,126125:0:0:0:13:
182,192,125675,1,0,0:0:0:13:normal-hitnormal.wav
36,192,125675,1,0,0:0:0:13:
36,192,125825,1,0,0:0:0:10:snare 3.ogg
182,192,125825,1,0,0:0:0:10:snare 3.ogg
329,192,125825,128,0,126125:0:0:0:10:
109,192,126125,128,0,126275:0:0:0:20:
256,192,126125,1,0,0:0:0:20:normal-hitnormal.wav
402,192,126275,128,0,126425:0:0:0:20:
256,192,126275,1,0,0:0:0:20:normal-hitnormal.wav
475,192,126425,1,0,0:0:0:10:snare 3.ogg
109,192,126425,128,0,126725:0:0:0:10:
36,192,126425,1,0,0:0:0:10:snare 3.ogg
329,192,126425,1,0,0:0:0:10:snare 3.ogg
256,192,126575,128,0,126725:0:0:0:40:
329,192,126725,128,0,126875:0:0:0:0:
182,192,126725,128,0,126875:0:0:0:0:
36,192,126875,128,0,127025:0:0:0:0:
182,192,127025,128,0,127175:0:0:0:0:
475,192,127025,128,0,127550:0:0:0:0:
329,192,127025,128,0,127550:0:0:0:0:
36,192,127175,128,0,127400:0:0:0:0:
109,192,127175,128,0,127400:0:0:0:0:
109,192,127475,128,0,127700:0:0:0:0:
36,192,127475,128,0,127700:0:0:0:0:
475,192,127625,128,0,127700:0:0:0:0:
329,192,127625,128,0,127700:0:0:0:0:
182,192,127625,128,0,127700:0:0:0:0:
402,192,127925,128,0,128000:0:0:0:0:
256,192,127925,128,0,128000:0:0:0:0:
402,192,128075,128,0,128150:0:0:0:0:
256,192,128075,128,0,128150:0:0:0:0:
329,192,128225,128,0,128450:0:0:0:0:
182,192,128225,128,0,128300:0:0:0:0:
36,192,128300,128,0,128375:0:0:0:0:
182,192,128375,128,0,128450:0:0:0:0:
36,192,128450,128,0,128525:0:0:0:0:
182,192,128525,128,0,128750:0:0:0:0:
329,192,128525,128,0,128600:0:0:0:0:
402,192,128525,128,0,128600:0:0:0:0:
329,192,128675,128,0,128750:0:0:0:0:
402,192,128675,128,0,128750:0:0:0:0:
256,192,128825,128,0,129050:0:0:0:0:
36,192,128825,1,0,0:0:0:13:snare 3.ogg
475,192,128825,1,0,0:0:0:13:snare 3.ogg
182,192,129125,128,0,129275:0:0:0:0:
109,192,129125,128,0,129275:0:0:0:0:
329,192,129425,128,0,129575:0:0:0:0:
475,192,129425,1,0,0:0:0:13:snare 3.ogg
402,192,129425,1,0,0:0:0:13:snare 3.ogg
109,192,129575,128,0,129650:0:0:0:0:
182,192,129575,128,0,129650:0:0:0:0:
182,192,129875,128,0,129950:0:0:0:0:
109,192,129875,128,0,129950:0:0:0:0:
329,192,130025,128,0,130325:0:0:0:0:
475,192,130025,1,0,0:0:0:13:snare 3.ogg
402,192,130025,1,0,0:0:0:13:snare 3.ogg
182,192,130175,128,0,130325:0:0:0:0:
109,192,130325,128,0,130400:0:0:0:0:
36,192,130325,128,0,130400:0:0:0:0:
182,192,130475,128,0,130625:0:0:0:0:
36,192,130475,128,0,130625:0:0:0:0:
109,192,130475,128,0,130625:0:0:0:0:
256,192,130625,128,0,130775:0:0:0:0:
329,192,130625,1,0,0:0:0:10:snare 3.ogg
402,192,130625,128,0,130925:0:0:0:10:
182,192,130775,128,0,130925:0:0:0:0:
475,192,130775,128,0,130925:0:0:0:40:
329,192,130925,128,0,131075:0:0:0:0:
36,192,130925,128,0,131225:0:0:0:20:
182,192,131075,1,0,0:0:0:20:normal-hitnormal.wav
109,192,131075,128,0,131225:0:0:0:20:
329,192,131225,128,0,131375:0:0:0:0:
475,192,131225,1,0,0:0:0:0:
402,192,131225,128,0,131525:0:0:0:13:
182,192,131375,128,0,131525:0:0:0:40:
109,192,131525,128,0,131675:0:0:0:0:
36,192,131525,128,0,131750:0:0:0:0:
256,192,131675,128,0,131825:0:0:0:0:
329,192,131825,128,0,131900:0:0:0:0:
182,192,131825,1,0,0:0:0:20:snare 3.ogg
475,192,131900,128,0,131975:0:0:0:0:
36,192,131900,1,0,0:0:0:20:snare 3.ogg
329,192,131975,128,0,132050:0:0:0:0:
182,192,131975,1,0,0:0:0:20:snare 3.ogg
475,192,132050,128,0,132125:0:0:0:0:
36,192,132050,1,0,0:0:0:20:snare 3.ogg
329,192,132125,128,0,132200:0:0:0:0:
182,192,132125,1,0,0:0:0:20:
256,192,132275,1,0,0:0:0:0:
256,192,132350,1,0,0:0:0:0:
36,192,132425,1,0,0:0:0:0:
475,192,132425,128,0,132725:0:0:0:13:
182,192,132425,1,0,0:0:0:13:snare 3.ogg
109,192,132575,1,0,0:0:0:20:
402,192,132575,128,0,132725:0:0:0:20:
182,192,132725,1,0,0:0:0:13:normal-hitnormal.wav
36,192,132725,128,0,133025:0:0:0:13:
329,192,132875,128,0,132950:0:0:0:0:
475,192,132875,128,0,133025:0:0:0:20:
182,192,132950,128,0,133025:0:0:0:0:
329,192,133025,128,0,133100:0:0:0:0:
182,192,133100,128,0,133175:0:0:0:0:
329,192,133175,128,0,133250:0:0:0:0:
182,192,133250,128,0,133325:0:0:0:0:
475,192,133325,128,0,133400:0:0:0:0:
36,192,133325,128,0,133400:0:0:0:0:
475,192,133475,128,0,133550:0:0:0:0:
36,192,133475,128,0,133550:0:0:0:0:
475,192,133625,128,0,133700:0:0:0:0:
36,192,133625,128,0,133700:0:0:0:0:
475,192,133775,128,0,133850:0:0:0:0:
36,192,133775,128,0,133850:0:0:0:0:
475,192,133925,128,0,134000:0:0:0:0:
36,192,133925,128,0,134000:0:0:0:0:
475,192,134075,128,0,134150:0:0:0:0:
36,192,134075,128,0,134150:0:0:0:0:
475,192,134225,128,0,134300:0:0:0:0:
36,192,134225,128,0,134300:0:0:0:0:
36,192,134375,128,0,134450:0:0:0:0:
475,192,134375,128,0,134450:0:0:0:0:
402,192,134450,128,0,134525:0:0:0:0:
109,192,134450,128,0,134525:0:0:0:0:
329,192,134525,128,0,134600:0:0:0:0:
182,192,134525,128,0,134600:0:0:0:0:
329,192,134675,128,0,134750:0:0:0:0:
182,192,134675,128,0,134750:0:0:0:0:
329,192,134825,128,0,134900:0:0:0:0:
182,192,134825,128,0,134900:0:0:0:0:
329,192,134975,128,0,135050:0:0:0:0:
182,192,134975,128,0,135050:0:0:0:0:
402,192,135125,128,0,135200:0:0:0:0:
109,192,135125,128,0,135200:0:0:0:0:
475,192,135200,128,0,135275:0:0:0:0:
36,192,135200,128,0,135275:0:0:0:0:
329,192,135275,128,0,135425:0:0:0:20:
182,192,135275,128,0,135425:0:0:0:20:snare 3.ogg
475,192,135425,128,0,135725:0:0:0:20:
36,192,135425,128,0,135725:0:0:0:20:
109,192,135575,128,0,135725:0:0:0:20:
402,192,135575,128,0,135725:0:0:0:20:
256,192,135725,128,0,135800:0:0:0:0:
256,192,135875,128,0,135950:0:0:0:0:
329,192,136025,128,0,136175:0:0:0:0:
182,192,136025,1,0,0:0:0:13:snare 3.ogg
109,192,136025,128,0,136325:0:0:0:13:
475,192,136175,128,0,136325:0:0:0:40:
329,192,136325,128,0,136400:0:0:0:0:
36,192,136325,128,0,136625:0:0:0:20:
182,192,136400,128,0,136475:0:0:0:0:
329,192,136475,128,0,136550:0:0:0:0:
182,192,136550,128,0,136625:0:0:0:0:
402,192,136625,128,0,136700:0:0:0:0:
475,192,136625,128,0,136925:0:0:0:0:
256,192,136700,128,0,136775:0:0:0:0:
109,192,136775,128,0,136850:0:0:0:0:
329,192,136850,128,0,136925:0:0:0:0:
182,192,136925,128,0,137000:0:0:0:0:
36,192,136925,128,0,137225:0:0:0:0:
109,192,137000,128,0,137075:0:0:0:0:
256,192,137075,128,0,137150:0:0:0:0:
402,192,137150,128,0,137225:0:0:0:0:
475,192,137225,128,0,137300:0:0:0:0:
182,192,137225,128,0,137525:0:0:0:13:EA.ogg
329,192,137375,128,0,137525:0:0:0:40:
402,192,137525,128,0,137600:0:0:0:0:
109,192,137525,128,0,137600:0:0:0:0:
402,192,137675,128,0,137750:0:0:0:0:
109,192,137675,128,0,137750:0:0:0:0:
182,192,137825,128,0,137975:0:0:0:0:
329,192,137825,1,0,0:0:0:13:snare 3.ogg
475,192,137825,128,0,138125:0:0:0:13:
36,192,137975,128,0,138125:0:0:0:40:
402,192,138125,128,0,138200:0:0:0:0:
109,192,138125,128,0,138200:0:0:0:0:
402,192,138275,128,0,138350:0:0:0:0:
109,192,138275,128,0,138350:0:0:0:0:
402,192,138425,128,0,138500:0:0:0:0:
109,192,138425,128,0,138500:0:0:0:0:
402,192,138575,128,0,138650:0:0:0:0:
109,192,138575,128,0,138650:0:0:0:0:
402,192,138725,128,0,138800:0:0:0:0:
109,192,138725,128,0,138800:0:0:0:0:
402,192,138875,128,0,138950:0:0:0:0:
109,192,138875,128,0,138950:0:0:0:0:
402,192,139025,128,0,139100:0:0:0:0:
109,192,139025,128,0,139100:0:0:0:0:
402,192,139175,128,0,139250:0:0:0:0:
109,192,139175,128,0,139250:0:0:0:0:
475,192,139325,128,0,139400:0:0:0:0:
36,192,139325,128,0,139400:0:0:0:0:
402,192,139475,128,0,139550:0:0:0:0:
109,192,139475,128,0,139550:0:0:0:0:
329,192,139625,128,0,139700:0:0:0:0:
182,192,139625,128,0,139700:0:0:0:0:
109,192,139775,128,0,139850:0:0:0:0:
402,192,139775,128,0,139850:0:0:0:0:
475,192,139925,128,0,140000:0:0:0:0:
36,192,139925,128,0,140000:0:0:0:0:
402,192,140000,128,0,140075:0:0:0:0:
109,192,140000,128,0,140075:0:0:0:0:
329,192,140075,128,0,140225:0:0:0:20:
182,192,140075,128,0,140225:0:0:0:20:
402,192,140225,128,0,140525:0:0:0:20:snare 3.ogg
109,192,140225,128,0,140525:0:0:0:20:snare 3.ogg
36,192,140375,128,0,140525:0:0:0:20:
475,192,140375,128,0,140525:0:0:0:20:
256,192,140525,128,0,140600:0:0:0:0:
256,192,140675,128,0,140750:0:0:0:0:
475,192,140825,128,0,141125:0:0:0:0:
182,192,140825,128,0,140975:0:0:0:0:
36,192,140825,128,0,141125:0:0:0:0:
256,192,140900,128,0,141050:0:0:0:0:
329,192,140975,128,0,141125:0:0:0:0:
109,192,141125,128,0,141200:0:0:0:0:
402,192,141200,128,0,141275:0:0:0:0:
109,192,141275,128,0,141350:0:0:0:0:
402,192,141350,128,0,141425:0:0:0:0:
182,192,141425,128,0,141500:0:0:0:0:
36,192,141425,128,0,141500:0:0:0:0:
475,192,141500,128,0,141575:0:0:0:0:
329,192,141500,128,0,141575:0:0:0:0:
36,192,141575,128,0,141650:0:0:0:0:
182,192,141575,128,0,141650:0:0:0:0:
475,192,141650,128,0,141725:0:0:0:0:
329,192,141650,128,0,141725:0:0:0:0:
402,192,141725,128,0,141800:0:0:0:0:
109,192,141800,128,0,141875:0:0:0:0:
402,192,141875,128,0,141950:0:0:0:0:
109,192,141950,128,0,142025:0:0:0:0:
36,192,142025,128,0,142175:0:0:0:0:
475,192,142025,1,0,0:0:0:0:
329,192,142025,1,0,0:0:0:70:snare 3.ogg
256,192,142025,128,0,142325:0:0:0:10:
182,192,142175,128,0,142325:0:0:0:0:
109,192,142325,128,0,142400:0:0:0:0:
402,192,142325,128,0,142400:0:0:0:0:
329,192,142475,128,0,142550:0:0:0:0:
36,192,142475,1,0,0:0:0:70:snare 1.ogg
402,192,142550,128,0,142625:0:0:0:0:
109,192,142550,1,0,0:0:0:70:snare 1.ogg
475,192,142625,128,0,142700:0:0:0:0:
182,192,142625,1,0,0:0:0:0:
256,192,142700,1,0,0:0:0:0:
182,192,142775,128,0,142850:0:0:0:0:
475,192,142775,1,0,0:0:0:70:snare 1.ogg
109,192,142850,128,0,142925:0:0:0:0:
402,192,142850,1,0,0:0:0:0:
36,192,142925,128,0,143000:0:0:0:0:
256,192,142925,128,0,143225:0:0:0:13:
329,192,142925,1,0,0:0:0:70:snare 1.ogg
475,192,143075,1,0,0:0:0:70:normal-hitnormal.wav
402,192,143225,1,0,0:0:0:70:snare 3.ogg
109,192,143225,1,0,0:0:0:70:snare 3.ogg
329,192,143225,128,0,143525:0:0:0:13:
182,192,143525,1,0,0:0:0:70:normal-hitnormal.wav
402,192,143525,128,0,143825:0:0:0:20:
36,192,143825,1,0,0:0:0:70:snare 3.ogg
475,192,143825,1,0,0:0:0:70:snare 3.ogg
109,192,143825,128,0,144125:0:0:0:13:
256,192,143975,128,0,144050:0:0:0:0:
475,192,144125,128,0,144425:0:0:0:40:
256,192,144275,128,0,144350:0:0:0:0:
402,192,144425,1,0,0:0:0:70:snare 3.ogg
109,192,144425,1,0,0:0:0:70:snare 3.ogg
36,192,144425,128,0,144725:0:0:0:13:
256,192,144725,128,0,144800:0:0:0:0:
402,192,144725,128,0,145025:0:0:0:20:
256,192,144875,128,0,144950:0:0:0:0:
36,192,145025,1,0,0:0:0:70:snare 3.ogg
475,192,145025,1,0,0:0:0:70:snare 3.ogg
109,192,145025,128,0,145325:0:0:0:13:
475,192,145325,128,0,145625:0:0:0:20:
402,192,145325,1,0,0:0:0:70:normal-hitnormal.wav
329,192,145400,1,0,0:0:0:40:
109,192,145475,1,0,0:0:0:70:normal-hitnormal.wav
36,192,145625,1,0,0:0:0:70:snare 3.ogg
402,192,145625,1,0,0:0:0:70:snare 3.ogg
256,192,145700,1,0,0:0:0:40:
109,192,145775,1,0,0:0:0:40:
256,192,145925,128,0,146225:0:0:0:13:
182,192,145925,1,0,0:0:0:13:
36,192,145925,1,0,0:0:0:70:normal-hitnormal.wav
402,192,146225,1,0,0:0:0:70:snare 3.ogg
475,192,146225,1,0,0:0:0:70:snare 3.ogg
109,192,146375,128,0,146450:0:0:0:0:
182,192,146525,128,0,146825:0:0:0:40:
109,192,146675,128,0,146750:0:0:0:0:
36,192,146825,128,0,147125:0:0:0:13:
475,192,146825,1,0,0:0:0:70:snare 3.ogg
402,192,146825,1,0,0:0:0:70:snare 3.ogg
256,192,147125,128,0,147200:0:0:0:0:
329,192,147125,128,0,147425:0:0:0:20:
256,192,147275,128,0,147350:0:0:0:0:
36,192,147425,1,0,0:0:0:70:snare 3.ogg
182,192,147425,1,0,0:0:0:70:snare 3.ogg
475,192,147425,128,0,147725:0:0:0:13:
109,192,147725,128,0,147800:0:0:0:0:
256,192,147725,128,0,148025:0:0:0:20:
109,192,147875,128,0,147950:0:0:0:0:
36,192,148025,1,0,0:0:0:70:snare 3.ogg
182,192,148025,1,0,0:0:0:70:snare 3.ogg
402,192,148025,128,0,148325:0:0:0:13:
329,192,148325,128,0,148400:0:0:0:0:
475,192,148325,128,0,148625:0:0:0:20:
36,192,148625,1,0,0:0:0:70:snare 3.ogg
109,192,148625,1,0,0:0:0:70:snare 3.ogg
182,192,148625,128,0,149225:0:0:0:13:
329,192,148775,128,0,148850:0:0:0:0:
475,192,148925,128,0,149525:0:0:0:40:
329,192,149075,128,0,149150:0:0:0:0:
402,192,149225,1,0,0:0:0:70:snare 3.ogg
109,192,149225,1,0,0:0:0:70:snare 3.ogg
36,192,149225,128,0,149825:0:0:0:13:
256,192,149525,128,0,149600:0:0:0:0:
402,192,149525,128,0,150125:0:0:0:20:
256,192,149675,128,0,149750:0:0:0:0:
182,192,149825,1,0,0:0:0:70:snare 3.ogg
329,192,149825,1,0,0:0:0:70:snare 3.ogg
109,192,149825,128,0,150425:0:0:0:13:
256,192,150125,128,0,150200:0:0:0:0:
475,192,150125,128,0,150725:0:0:0:20:
256,192,150275,128,0,150350:0:0:0:0:
182,192,150425,128,0,150725:0:0:0:0:
36,192,150425,1,0,0:0:0:70:snare 3.ogg
329,192,150425,1,0,0:0:0:70:snare 3.ogg
109,192,150725,128,0,151025:0:0:0:0:
256,192,150725,128,0,150800:0:0:0:0:
402,192,150725,128,0,151025:0:0:0:13:
36,192,151025,1,0,0:0:0:70:snare 3.ogg
475,192,151025,1,0,0:0:0:70:snare 3.ogg
329,192,151025,1,0,0:0:0:70:snare 3.ogg
182,192,151175,1,0,0:0:0:20:
475,192,151175,1,0,0:0:0:70:snare 1.ogg
109,192,151250,1,0,0:0:0:20:
402,192,151250,1,0,0:0:0:70:snare 1.ogg
329,192,151325,1,0,0:0:0:70:snare 1.ogg
256,192,151325,128,0,151625:0:0:0:13:
36,192,151325,1,0,0:0:0:13:
329,192,151475,128,0,151550:0:0:0:0:
402,192,151550,128,0,151625:0:0:0:0:
36,192,151625,1,0,0:0:0:70:snare 3.ogg
475,192,151625,128,0,151700:0:0:0:0:
109,192,151625,128,0,151925:0:0:0:10:
182,192,151625,1,0,0:0:0:70:snare 3.ogg
182,192,151925,128,0,152000:0:0:0:0:
329,192,151925,128,0,152225:0:0:0:20:
182,192,152075,128,0,152150:0:0:0:0:
109,192,152150,128,0,152225:0:0:0:0:
402,192,152225,128,0,152300:0:0:0:0:
475,192,152225,128,0,152525:0:0:0:20:
109,192,152300,128,0,152375:0:0:0:0:
402,192,152375,128,0,152450:0:0:0:0:
109,192,152450,128,0,152525:0:0:0:0:
256,192,152525,1,0,0:0:0:13:
36,192,152525,128,0,153725:0:0:0:13:
109,192,152675,1,0,0:0:0:70:normal-hitnormal.wav
475,192,152675,1,0,0:0:0:13:
329,192,152675,1,0,0:0:0:13:
402,192,152825,1,0,0:0:0:40:
109,192,152975,128,0,153050:0:0:0:0:
256,192,152975,1,0,0:0:0:20:
109,192,153125,128,0,153350:0:0:0:0:
475,192,153125,1,0,0:0:0:13:
329,192,153125,1,0,0:0:0:13:
402,192,153275,1,0,0:0:0:40:
329,192,153425,1,0,0:0:0:0:
109,192,153425,128,0,153500:0:0:0:0:
109,192,153575,128,0,153725:0:0:0:0:
475,192,153725,128,0,154025:0:0:0:0:
182,192,153725,128,0,154025:0:0:0:20:
402,192,153875,1,0,0:0:0:70:snare 1.ogg
329,192,153950,1,0,0:0:0:70:snare 1.ogg
109,192,154025,128,0,154325:0:0:0:0:
256,192,154025,128,0,154175:0:0:0:0:
329,192,154325,128,0,154400:0:0:0:0:
36,192,154325,128,0,154625:0:0:0:20:
329,192,154475,128,0,154550:0:0:0:0:
109,192,154625,1,0,0:0:0:70:snare 3.ogg
256,192,154625,1,0,0:0:0:70:snare 3.ogg
402,192,154700,1,0,0:0:0:40:
182,192,154775,1,0,0:0:0:40:
329,192,154850,1,0,0:0:0:40:
256,192,154925,1,0,0:0:0:0:
475,192,154925,128,0,155000:0:0:0:0:
36,192,154925,128,0,155000:0:0:0:0:
36,192,155075,128,0,156125:0:0:0:20:
475,192,155075,128,0,156125:0:0:0:20:
256,192,155225,1,0,0:0:0:100:snare 3.ogg
402,192,155375,128,0,155450:0:0:0:0:
109,192,155375,128,0,155450:0:0:0:0:
109,192,155525,128,0,156125:0:0:0:20:
402,192,155525,128,0,156125:0:0:0:20:
329,192,155825,128,0,155900:0:0:0:0:
182,192,155825,128,0,155900:0:0:0:0:
182,192,155975,128,0,156125:0:0:0:20:
329,192,155975,128,0,156125:0:0:0:20:
329,192,156275,1,0,0:0:0:20:
109,192,156275,1,0,0:0:0:70:normal-hitnormal.wav
402,192,156350,1,0,0:0:0:20:
182,192,156350,1,0,0:0:0:70:normal-hitnormal.wav
256,192,156425,128,0,156500:0:0:0:0:
475,192,156425,128,0,156725:0:0:0:0:
36,192,156425,128,0,156725:0:0:0:0:
109,192,156575,1,0,0:0:0:40:
182,192,156650,1,0,0:0:0:40:
402,192,156725,128,0,156800:0:0:0:0:
329,192,156725,128,0,156800:0:0:0:0:
402,192,156875,128,0,156950:0:0:0:0:
329,192,156875,128,0,156950:0:0:0:0:
109,192,157025,128,0,157100:0:0:0:0:
402,192,157100,128,0,157175:0:0:0:0:
109,192,157175,128,0,157250:0:0:0:0:
402,192,157250,128,0,157325:0:0:0:0:
329,192,157325,128,0,157400:0:0:0:0:
182,192,157325,128,0,157400:0:0:0:0:
475,192,157325,128,0,157925:0:0:0:13:
182,192,157475,128,0,157550:0:0:0:0:
329,192,157475,128,0,157550:0:0:0:0:
36,192,157625,128,0,158225:0:0:0:40:
256,192,157775,128,0,157850:0:0:0:0:
109,192,157775,128,0,157850:0:0:0:0:
256,192,157925,128,0,158000:0:0:0:0:
109,192,157925,128,0,158000:0:0:0:0:
402,192,157925,128,0,158525:0:0:0:13:
329,192,158225,128,0,158300:0:0:0:0:
182,192,158225,128,0,158300:0:0:0:0:
109,192,158225,128,0,158825:0:0:0:13:
329,192,158375,128,0,158450:0:0:0:0:
182,192,158375,128,0,158450:0:0:0:0:
475,192,158525,128,0,158675:0:0:0:0:
329,192,158600,128,0,158750:0:0:0:0:
182,192,158675,128,0,158825:0:0:0:0:
36,192,158750,128,0,158900:0:0:0:0:
475,192,158825,128,0,158975:0:0:0:0:
256,192,158900,128,0,159050:0:0:0:0:
36,192,158975,128,0,159125:0:0:0:0:
402,192,159050,128,0,159125:0:0:0:0:
329,192,159125,128,0,159200:0:0:0:0:
109,192,159200,128,0,159275:0:0:0:0:
36,192,159275,128,0,159350:0:0:0:0:
256,192,159350,128,0,159425:0:0:0:0:
329,192,159425,128,0,159500:0:0:0:0:
109,192,159500,128,0,159575:0:0:0:0:
402,192,159575,128,0,159650:0:0:0:0:
475,192,159650,128,0,159725:0:0:0:0:
36,192,159725,1,0,0:0:0:70:normal-hitnormal.wav
182,192,159725,1,0,0:0:0:70:snare 1.ogg
256,192,159800,1,0,0:0:0:70:snare 1.ogg
109,192,159875,1,0,0:0:0:70:snare 1.ogg
329,192,159875,128,0,160175:0:0:0:13:
475,192,159875,128,0,160175:0:0:0:13:
182,192,159950,1,0,0:0:0:70:snare 1.ogg
109,192,160025,1,0,0:0:0:0:
402,192,160100,128,0,160175:0:0:0:0:
36,192,160175,1,0,0:0:0:70:normal-hitnormal.wav
182,192,160175,1,0,0:0:0:70:snare 1.ogg
256,192,160250,1,0,0:0:0:70:snare 1.ogg
402,192,160325,1,0,0:0:0:70:snare 1.ogg
182,192,160325,128,0,160625:0:0:0:13:
36,192,160325,128,0,160625:0:0:0:13:
329,192,160400,1,0,0:0:0:70:snare 1.ogg
402,192,160475,1,0,0:0:0:0:
109,192,160550,128,0,160625:0:0:0:0:
475,192,160625,1,0,0:0:0:70:normal-hitnormal.wav
329,192,160625,1,0,0:0:0:70:snare 1.ogg
256,192,160700,1,0,0:0:0:70:snare 1.ogg
109,192,160775,1,0,0:0:0:70:snare 1.ogg
329,192,160775,128,0,161075:0:0:0:13:
475,192,160775,128,0,161075:0:0:0:13:
182,192,160850,1,0,0:0:0:70:snare 1.ogg
109,192,160925,1,0,0:0:0:0:
402,192,161000,128,0,161075:0:0:0:0:
36,192,161075,1,0,0:0:0:70:normal-hitnormal.wav
182,192,161075,1,0,0:0:0:70:snare 1.ogg
256,192,161150,1,0,0:0:0:70:snare 1.ogg
36,192,161225,1,0,0:0:0:0:
475,192,161225,1,0,0:0:0:0:
402,192,161225,1,0,0:0:0:70:snare 1.ogg
109,192,161225,1,0,0:0:0:70:snare 1.ogg
329,192,161300,128,0,161375:0:0:0:0:
182,192,161375,128,0,161450:0:0:0:0:
329,192,161450,128,0,161525:0:0:0:0:
475,192,161525,128,0,161600:0:0:0:0:
36,192,161525,128,0,161600:0:0:0:0:
475,192,161675,128,0,161750:0:0:0:0:
36,192,161675,128,0,161750:0:0:0:0:
182,192,161825,128,0,161900:0:0:0:0:
256,192,161825,128,0,162125:0:0:0:20:
329,192,161900,128,0,161975:0:0:0:0:
182,192,161975,128,0,162050:0:0:0:0:
329,192,162050,128,0,162125:0:0:0:0:
475,192,162125,128,0,162200:0:0:0:0:
36,192,162125,128,0,162200:0:0:0:0:
475,192,162275,128,0,162350:0:0:0:0:
36,192,162275,128,0,162350:0:0:0:0:
402,192,162425,128,0,162500:0:0:0:0:
109,192,162425,128,0,162500:0:0:0:0:
329,192,162575,128,0,162650:0:0:0:0:
182,192,162575,128,0,162650:0:0:0:0:
475,192,162650,128,0,162725:0:0:0:0:
402,192,162650,128,0,162725:0:0:0:0:
36,192,162725,128,0,162800:0:0:0:0:
109,192,162762,128,0,162837:0:0:0:0:
182,192,162800,128,0,162875:0:0:0:0:
256,192,162837,128,0,162912:0:0:0:0:
329,192,162875,128,0,162950:0:0:0:0:
402,192,162912,128,0,162987:0:0:0:0:
475,192,162950,128,0,163025:0:0:0:0:
36,192,162987,128,0,163062:0:0:0:0:
109,192,163025,128,0,163100:0:0:0:0:
182,192,163062,128,0,163137:0:0:0:0:
256,192,163100,128,0,163175:0:0:0:0:
329,192,163137,128,0,163212:0:0:0:0:
402,192,163175,128,0,163250:0:0:0:0:
475,192,163212,128,0,163287:0:0:0:0:
36,192,163250,128,0,163325:0:0:0:0:
109,192,163287,128,0,163362:0:0:0:0:
182,192,163325,128,0,163400:0:0:0:0:
256,192,163325,128,0,163475:0:0:0:20:
329,192,163475,128,0,163625:0:0:0:40:
402,192,163625,128,0,163775:0:0:0:40:
475,192,163850,128,0,164000:0:0:0:40:
329,192,164075,128,0,164225:0:0:0:40:
182,192,164225,128,0,164375:0:0:0:40:
36,192,164375,128,0,164675:0:0:0:40:
182,192,164525,128,0,164900:0:0:0:40:
329,192,164675,128,0,164975:0:0:0:40:
36,192,164825,128,0,165725:0:0:0:20:
475,192,164825,128,0,165125:0:0:0:20:
182,192,165050,128,0,165425:0:0:0:40:
329,192,165125,128,0,165275:0:0:0:40:
475,192,165275,128,0,165725:0:0:0:40:
329,192,165425,128,0,165725:0:0:0:40:
182,192,165575,128,0,165725:0:0:0:40:
109,192,165725,128,0,165875:0:0:0:0:
402,192,165725,1,0,0:0:0:20:
256,192,165875,128,0,166025:0:0:0:40:
402,192,166025,128,0,166175:0:0:0:40:
475,192,166250,128,0,166400:0:0:0:40:
329,192,166475,128,0,166925:0:0:0:40:
182,192,166625,128,0,166925:0:0:0:40:
36,192,166775,128,0,166925:0:0:0:40:
402,192,166925,128,0,167150:0:0:0:0:
256,192,167075,128,0,167300:0:0:0:40:
109,192,167225,128,0,167450:0:0:0:40:
402,192,167450,128,0,168125:0:0:0:40:
182,192,167525,128,0,167675:0:0:0:40:
36,192,167675,128,0,167825:0:0:0:40:
256,192,167825,128,0,167975:0:0:0:40:
109,192,167975,128,0,168125:0:0:0:40:
475,192,168125,128,0,168275:0:0:0:40:
256,192,168275,128,0,168425:0:0:0:40:
36,192,168425,128,0,168575:0:0:0:40:
256,192,168575,128,0,168725:0:0:0:40:
475,192,168725,128,0,168875:0:0:0:40:
182,192,168875,128,0,168950:0:0:0:0:
329,192,168950,128,0,169100:0:0:0:40:
36,192,169025,128,0,169100:0:0:0:0:
182,192,169100,128,0,169325:0:0:0:40:
402,192,169325,128,0,169925:0:0:0:40:
109,192,169475,128,0,169925:0:0:0:40:
329,192,169625,128,0,169925:0:0:0:40:
182,192,169775,128,0,169925:0:0:0:40:
475,192,169925,128,0,170225:0:0:0:40:
256,192,170075,128,0,170150:0:0:0:0:
36,192,170150,128,0,170525:0:0:0:40:
256,192,170300,128,0,170375:0:0:0:0:
475,192,170375,128,0,170525:0:0:0:40:
402,192,170525,128,0,170675:0:0:0:0:
109,192,170675,128,0,170825:0:0:0:0:
256,192,170825,128,0,170975:0:0:0:0:
109,192,170975,128,0,171125:0:0:0:0:
402,192,171050,128,0,171125:0:0:0:0:
475,192,171125,128,0,171275:0:0:0:0:
329,192,171275,128,0,171350:0:0:0:0:
182,192,171350,128,0,171500:0:0:0:0:
329,192,171575,128,0,171650:0:0:0:0:
182,192,171650,128,0,171800:0:0:0:0:
36,192,171725,128,0,172325:0:0:0:0:
475,192,171725,128,0,171875:0:0:0:40:
329,192,171875,128,0,172025:0:0:0:40:
182,192,172025,128,0,172175:0:0:0:40:
329,192,172175,128,0,172325:0:0:0:40:
475,192,172325,128,0,172925:0:0:0:0:
402,192,172325,128,0,172475:0:0:0:40:
256,192,172475,128,0,172625:0:0:0:40:
109,192,172625,128,0,172775:0:0:0:40:
256,192,172775,128,0,172925:0:0:0:40:
36,192,172925,128,0,173225:0:0:0:40:
182,192,173075,128,0,173225:0:0:0:40:
475,192,173225,128,0,173450:0:0:0:40:
109,192,173375,128,0,173450:0:0:0:0:
329,192,173450,128,0,173675:0:0:0:40:
256,192,173675,128,0,173825:0:0:0:0:
182,192,173825,128,0,173975:0:0:0:0:
109,192,173975,128,0,174125:0:0:0:0:
36,192,174125,128,0,174350:0:0:0:0:
182,192,174275,128,0,174350:0:0:0:0:
256,192,174425,128,0,174650:0:0:0:40:
402,192,174650,128,0,174875:0:0:0:40:
182,192,174875,128,0,175325:0:0:0:40:
109,192,175025,128,0,175325:0:0:0:40:
36,192,175175,128,0,175325:0:0:0:40:
329,192,175325,128,0,175475:0:0:0:40:
402,192,175475,128,0,175625:0:0:0:40:
475,192,175625,128,0,175775:0:0:0:40:
109,192,175775,128,0,175850:0:0:0:0:
256,192,175850,128,0,176075:0:0:0:40:
36,192,176075,128,0,176300:0:0:0:40:
182,192,176225,128,0,176450:0:0:0:40:
329,192,176375,128,0,176600:0:0:0:40:
475,192,176525,128,0,176750:0:0:0:40:
109,192,176675,128,0,176900:0:0:0:40:
329,192,176825,128,0,177050:0:0:0:40:
36,192,176975,128,0,177200:0:0:0:40:
475,192,177125,128,0,177350:0:0:0:40:
109,192,177275,128,0,177350:0:0:0:0:
402,192,177350,128,0,177575:0:0:0:40:
109,192,177500,128,0,177575:0:0:0:0:
329,192,177575,128,0,177725:0:0:0:40:
256,192,177725,128,0,178925:0:0:0:20:
36,192,177725,128,0,177875:0:0:0:20:
182,192,177875,128,0,178025:0:0:0:40:
329,192,178025,128,0,178175:0:0:0:40:
182,192,178175,128,0,178325:0:0:0:40:
475,192,178325,128,0,178475:0:0:0:40:
36,192,178475,128,0,178550:0:0:0:0:
329,192,178550,128,0,178700:0:0:0:40:
109,192,178700,128,0,178775:0:0:0:0:
182,192,178775,128,0,178925:0:0:0:40:
36,192,178925,128,0,179075:0:0:0:0:
329,192,179075,128,0,179225:0:0:0:0:
475,192,179225,128,0,179375:0:0:0:0:
109,192,179375,128,0,179825:0:0:0:40:
256,192,179525,128,0,179675:0:0:0:0:
329,192,179675,128,0,179750:0:0:0:0:
475,192,179750,128,0,179975:0:0:0:0:
36,192,179900,128,0,179975:0:0:0:0:
182,192,179975,128,0,180200:0:0:0:0:
329,192,180125,128,0,180425:0:0:0:40:
109,192,180275,128,0,180425:0:0:0:0:
402,192,180425,128,0,180725:0:0:0:40:
182,192,180575,128,0,180875:0:0:0:40:
475,192,180725,128,0,180950:0:0:0:40:
36,192,180875,128,0,181100:0:0:0:40:
182,192,181025,128,0,181250:0:0:0:40:
329,192,181175,128,0,181400:0:0:0:40:
475,192,181325,128,0,181550:0:0:0:40:
109,192,181475,128,0,181700:0:0:0:40:
256,192,181625,128,0,181850:0:0:0:40:
402,192,181775,128,0,182000:0:0:0:40:
475,192,181925,128,0,182150:0:0:0:40:
109,192,182075,128,0,182300:0:0:0:40:
402,192,182225,128,0,182450:0:0:0:40:
36,192,182375,128,0,182600:0:0:0:40:
329,192,182525,128,0,182750:0:0:0:40:
402,192,182675,128,0,182900:0:0:0:40:
475,192,182825,128,0,183050:0:0:0:0:
182,192,182975,128,0,183200:0:0:0:0:
109,192,183125,128,0,183350:0:0:0:40:
36,192,183275,128,0,183500:0:0:0:40:
475,192,183425,128,0,183650:0:0:0:40:
329,192,183575,128,0,183800:0:0:0:40:
182,192,183725,128,0,183950:0:0:0:40:
36,192,183875,128,0,184925:0:0:0:40:
182,192,184925,1,0,0:0:0:13:
475,192,184925,1,0,0:0:0:13:
329,192,184925,1,0,0:0:0:13:
329,192,185075,1,0,0:0:0:20:
109,192,185075,1,0,0:0:0:20:
182,192,185150,1,0,0:0:0:40:
402,192,185225,1,0,0:0:0:20:
256,192,185225,1,0,0:0:0:20:
256,192,185375,1,0,0:0:0:40:
109,192,185450,1,0,0:0:0:20:
402,192,185450,1,0,0:0:0:20:
475,192,185525,128,0,186050:0:0:0:0:
36,192,185525,1,0,0:0:0:13:
329,192,185525,1,0,0:0:0:13:
402,192,185675,128,0,186050:0:0:0:0:
256,192,185675,1,0,0:0:0:20:
329,192,185825,128,0,186050:0:0:0:0:
182,192,185825,1,0,0:0:0:20:
256,192,185975,128,0,186050:0:0:0:0:
109,192,185975,1,0,0:0:0:20:
475,192,186125,1,0,0:0:0:13:
36,192,186125,128,0,186725:0:0:0:13:
329,192,186125,1,0,0:0:0:13:
109,192,186275,128,0,186875:0:0:0:20:
256,192,186275,1,0,0:0:0:20:
402,192,186425,1,0,0:0:0:20:
182,192,186425,128,0,187025:0:0:0:20:
475,192,186575,1,0,0:0:0:20:
256,192,186575,128,0,187175:0:0:0:20:
329,192,186725,128,0,186875:0:0:0:40:
475,192,186875,128,0,187025:0:0:0:20:
36,192,186875,1,0,0:0:0:20:
402,192,187025,128,0,187175:0:0:0:20:
109,192,187025,1,0,0:0:0:20:
329,192,187175,128,0,187325:0:0:0:13:
475,192,187175,1,0,0:0:0:13:
182,192,187175,1,0,0:0:0:13:
36,192,187325,1,0,0:0:0:13:
402,192,187325,1,0,0:0:0:13:
256,192,187325,1,0,0:0:0:13:
256,192,187475,1,0,0:0:0:20:
109,192,187475,1,0,0:0:0:20:
36,192,187625,1,0,0:0:0:13:
402,192,187625,1,0,0:0:0:13:
182,192,187625,1,0,0:0:0:13:
402,192,187850,1,0,0:0:0:20:
256,192,187850,1,0,0:0:0:20:
475,192,187925,128,0,188075:0:0:0:0:
182,192,187925,1,0,0:0:0:13:
36,192,187925,1,0,0:0:0:13:
256,192,188075,128,0,188150:0:0:0:0:
402,192,188075,128,0,188225:0:0:0:0:
182,192,188225,128,0,188300:0:0:0:0:
329,192,188225,128,0,188375:0:0:0:0:
109,192,188375,128,0,188450:0:0:0:0:
256,192,188375,128,0,188525:0:0:0:0:
36,192,188525,128,0,188600:0:0:0:0:
182,192,188525,128,0,188675:0:0:0:0:
475,192,188525,128,0,188825:0:0:0:13:
329,192,188675,128,0,188825:0:0:0:40:
182,192,188825,128,0,188900:0:0:0:0:
36,192,188825,128,0,188900:0:0:0:0:
402,192,188825,128,0,189125:0:0:0:13:
256,192,188975,128,0,189125:0:0:0:40:
182,192,189125,128,0,189200:0:0:0:0:
36,192,189125,128,0,189200:0:0:0:0:
329,192,189125,128,0,189425:0:0:0:13:
475,192,189275,128,0,189425:0:0:0:40:
182,192,189425,128,0,189500:0:0:0:0:
36,192,189425,128,0,189500:0:0:0:0:
256,192,189425,128,0,189725:0:0:0:13:
402,192,189575,128,0,189725:0:0:0:40:
182,192,189725,1,0,0:0:0:10:
36,192,189725,1,0,0:0:0:10:
475,192,189725,128,0,189875:0:0:0:10:
329,192,189875,128,0,190025:0:0:0:20:
109,192,189875,1,0,0:0:0:20:
182,192,190025,1,0,0:0:0:13:
475,192,190025,128,0,190175:0:0:0:13:
329,192,190175,128,0,190325:0:0:0:20:
109,192,190175,1,0,0:0:0:20:
36,192,190325,128,0,190475:0:0:0:13:
475,192,190325,128,0,190475:0:0:0:13:
256,192,190325,1,0,0:0:0:13:
182,192,190475,128,0,190625:0:0:0:20:
402,192,190475,1,0,0:0:0:20:
329,192,190625,128,0,190700:0:0:0:0:
36,192,190625,1,0,0:0:0:13:
109,192,190625,128,0,190775:0:0:0:13:
402,192,190700,128,0,190775:0:0:0:0:
475,192,190775,128,0,190850:0:0:0:0:
256,192,190775,128,0,190925:0:0:0:20:
36,192,190925,1,0,0:0:0:13:
402,192,190925,128,0,191075:0:0:0:13:
329,192,190925,128,0,191075:0:0:0:13:
109,192,191075,128,0,191225:0:0:0:0:
256,192,191075,1,0,0:0:0:20:
329,192,191225,1,0,0:0:0:13:
182,192,191225,128,0,191375:0:0:0:13:
402,192,191225,1,0,0:0:0:13:
36,192,191375,128,0,191525:0:0:0:20:
256,192,191375,1,0,0:0:0:20:
475,192,191525,128,0,191600:0:0:0:0:
182,192,191525,128,0,191750:0:0:0:20:
475,192,191675,128,0,191750:0:0:0:0:
329,192,191750,128,0,191975:0:0:0:40:
109,192,191825,1,0,0:0:0:20:
256,192,191825,1,0,0:0:0:20:
182,192,191975,1,0,0:0:0:20:
475,192,191975,128,0,192125:0:0:0:20:
36,192,192125,1,0,0:0:0:10:
402,192,192125,1,0,0:0:0:10:
109,192,192125,128,0,192275:0:0:0:10:
329,192,192125,128,0,192275:0:0:0:10:
475,192,192275,1,0,0:0:0:20:
182,192,192275,128,0,192425:0:0:0:20:
402,192,192425,1,0,0:0:0:13:
109,192,192425,1,0,0:0:0:13:
256,192,192425,128,0,192575:0:0:0:13:
182,192,192575,1,0,0:0:0:20:
329,192,192575,128,0,192725:0:0:0:20:
109,192,192725,128,0,193025:0:0:0:13:
475,192,192725,1,0,0:0:0:13:
36,192,192725,1,0,0:0:0:13:
256,192,192875,128,0,193025:0:0:0:20:
402,192,192950,128,0,193025:0:0:0:20:
182,192,193100,128,0,193325:0:0:0:20:
256,192,193175,128,0,193325:0:0:0:20:
329,192,193250,128,0,193325:0:0:0:20:
475,192,193325,1,0,0:0:0:13:
402,192,193325,1,0,0:0:0:13:
109,192,193325,128,0,193475:0:0:0:13:
329,192,193475,1,0,0:0:0:20:
36,192,193475,128,0,193625:0:0:0:20:
475,192,193625,1,0,0:0:0:13:
182,192,193625,1,0,0:0:0:13:
256,192,193625,128,0,193775:0:0:0:13:
36,192,193775,1,0,0:0:0:13:
329,192,193775,1,0,0:0:0:13:
109,192,193775,128,0,193925:0:0:0:13:
182,192,193925,1,0,0:0:0:20:
402,192,193925,128,0,194075:0:0:0:20:
475,192,194075,1,0,0:0:0:13:
36,192,194075,1,0,0:0:0:13:
256,192,194075,128,0,194225:0:0:0:13:
402,192,194225,128,0,194300:0:0:0:0:
109,192,194225,128,0,194300:0:0:0:0:
329,192,194300,128,0,194375:0:0:0:0:
182,192,194300,128,0,194375:0:0:0:0:
402,192,194375,128,0,194450:0:0:0:0:
109,192,194375,128,0,194450:0:0:0:0:
329,192,194450,128,0,194525:0:0:0:0:
182,192,194450,128,0,194525:0:0:0:0:
36,192,194525,1,0,0:0:0:8:
256,192,194525,128,0,194825:0:0:0:8:
475,192,194525,1,0,0:0:0:8:
402,192,194675,1,0,0:0:0:20:
329,192,194675,128,0,194825:0:0:0:20:
109,192,194825,128,0,194975:0:0:0:13:
36,192,194825,1,0,0:0:0:13:
475,192,194825,1,0,0:0:0:13:
402,192,194975,1,0,0:0:0:20:
182,192,194975,128,0,195050:0:0:0:20:
329,192,195050,128,0,195425:0:0:0:40:
36,192,195125,1,0,0:0:0:40:
109,192,195275,1,0,0:0:0:20:
256,192,195275,128,0,195425:0:0:0:20:
475,192,195425,1,0,0:0:0:13:
36,192,195425,1,0,0:0:0:13:
182,192,195425,128,0,195725:0:0:0:13:
402,192,195575,1,0,0:0:0:20:
109,192,195575,128,0,195725:0:0:0:20:
475,192,195725,128,0,195875:0:0:0:0:
329,192,195725,128,0,195875:0:0:0:0:
36,192,195725,128,0,196325:0:0:0:13:
256,192,195875,1,0,0:0:0:20:
109,192,195875,128,0,196325:0:0:0:20:
402,192,196025,1,0,0:0:0:13:
329,192,196025,1,0,0:0:0:13:
182,192,196025,128,0,196325:0:0:0:13:
475,192,196175,1,0,0:0:0:20:
256,192,196175,128,0,196325:0:0:0:20:
329,192,196250,1,0,0:0:0:40:
475,192,196325,1,0,0:0:0:20:
402,192,196325,1,0,0:0:0:20:
329,192,196475,1,0,0:0:0:20:
256,192,196475,128,0,196925:0:0:0:20:
475,192,196625,1,0,0:0:0:20:
182,192,196625,128,0,196925:0:0:0:20:
402,192,196775,1,0,0:0:0:20:
109,192,196775,128,0,196925:0:0:0:20:
475,192,196925,1,0,0:0:0:13:
329,192,196925,1,0,0:0:0:13:
36,192,196925,128,0,197525:0:0:0:13:
402,192,197075,128,0,197525:0:0:0:40:
182,192,197225,1,0,0:0:0:13:
109,192,197225,1,0,0:0:0:13:
329,192,197225,128,0,197525:0:0:0:13:
256,192,197375,128,0,197525:0:0:0:40:
182,192,197450,1,0,0:0:0:40:
475,192,197525,1,0,0:0:0:20:
109,192,197525,1,0,0:0:0:20:
329,192,197675,128,0,197825:0:0:0:40:
475,192,197825,128,0,197975:0:0:0:13:
36,192,197825,1,0,0:0:0:13:
109,192,197825,1,0,0:0:0:13:
182,192,197975,1,0,0:0:0:13:
256,192,197975,1,0,0:0:0:13:
402,192,197975,128,0,198125:0:0:0:13:
329,192,198125,128,0,198425:0:0:0:20:
109,192,198125,1,0,0:0:0:20:
36,192,198275,1,0,0:0:0:20:
182,192,198275,128,0,198425:0:0:0:20:
109,192,198425,1,0,0:0:0:20:
402,192,198425,128,0,198725:0:0:0:20:
182,192,198575,1,0,0:0:0:20:
256,192,198575,128,0,198725:0:0:0:20:
36,192,198725,1,0,0:0:0:20:
475,192,198725,128,0,199025:0:0:0:20:
182,192,198875,128,0,198950:0:0:0:0:
329,192,198950,128,0,199100:0:0:0:0:
182,192,199025,128,0,199100:0:0:0:0:
109,192,199025,128,0,199325:0:0:0:20:
402,192,199175,128,0,199325:0:0:0:0:
256,192,199175,128,0,199325:0:0:0:20:
475,192,199325,1,0,0:0:0:20:
182,192,199325,128,0,199625:0:0:0:20:
402,192,199475,1,0,0:0:0:20:
329,192,199475,128,0,199625:0:0:0:20:
256,192,199625,1,0,0:0:0:20:
36,192,199625,1,0,0:0:0:20:
109,192,199775,1,0,0:0:0:20:
402,192,199775,128,0,200075:0:0:0:20:
182,192,199925,1,0,0:0:0:20:
256,192,199925,128,0,200075:0:0:0:20:
36,192,200075,128,0,200150:0:0:0:0:
475,192,200075,128,0,200375:0:0:0:20:
109,192,200150,128,0,200225:0:0:0:0:
182,192,200225,128,0,200300:0:0:0:0:
329,192,200225,128,0,200375:0:0:0:20:
402,192,200375,128,0,200525:0:0:0:0:
109,192,200375,128,0,200675:0:0:0:20:
329,192,200525,128,0,200675:0:0:0:0:
256,192,200525,128,0,200675:0:0:0:20:
475,192,200675,128,0,200750:0:0:0:0:
36,192,200675,128,0,200975:0:0:0:20:
402,192,200750,128,0,200825:0:0:0:0:
329,192,200825,128,0,200900:0:0:0:0:
182,192,200825,128,0,200975:0:0:0:20:
402,192,200975,128,0,201125:0:0:0:0:
256,192,200975,128,0,201275:0:0:0:20:
475,192,201125,128,0,201275:0:0:0:0:
109,192,201125,128,0,201275:0:0:0:20:
402,192,201275,128,0,201425:0:0:0:0:
329,192,201275,128,0,201425:0:0:0:20:
36,192,201350,128,0,201425:0:0:0:0:
109,192,201425,128,0,201500:0:0:0:0:
182,192,201500,128,0,201575:0:0:0:20:
402,192,201575,128,0,201650:0:0:0:0:
475,192,201575,128,0,201875:0:0:0:13:
329,192,201650,128,0,201725:0:0:0:0:
109,192,201650,1,0,0:0:0:20:
256,192,201725,128,0,201875:0:0:0:20:
36,192,201725,128,0,201875:0:0:0:0:
109,192,201875,128,0,201950:0:0:0:0:
329,192,201950,128,0,202025:0:0:0:0:
402,192,202025,128,0,202325:0:0:0:20:
36,192,202025,128,0,202175:0:0:0:0:
109,192,202175,1,0,0:0:0:20:
182,192,202175,128,0,202325:0:0:0:20:
36,192,202325,128,0,202550:0:0:0:0:
475,192,202325,1,0,0:0:0:13:
329,192,202325,128,0,202550:0:0:0:13:
256,192,202475,128,0,202550:0:0:0:0:
109,192,202550,128,0,202850:0:0:0:0:
329,192,202625,1,0,0:0:0:0:
402,192,202775,1,0,0:0:0:20:
329,192,202775,128,0,202925:0:0:0:20:
475,192,202850,1,0,0:0:0:40:
36,192,202925,1,0,0:0:0:13:
182,192,202925,1,0,0:0:0:13:
256,192,202925,128,0,203150:0:0:0:13:
329,192,203075,1,0,0:0:0:40:
109,192,203150,1,0,0:0:0:20:
402,192,203150,1,0,0:0:0:20:
182,192,203225,1,0,0:0:0:13:
475,192,203225,128,0,203525:0:0:0:13:
36,192,203225,128,0,203375:0:0:0:0:
329,192,203375,128,0,203525:0:0:0:20:
256,192,203375,1,0,0:0:0:20:
182,192,203450,1,0,0:0:0:40:
402,192,203525,128,0,203750:0:0:0:20:
109,192,203525,128,0,203750:0:0:0:20:
329,192,203750,128,0,203975:0:0:0:20:
182,192,203750,128,0,203975:0:0:0:20:
36,192,203825,1,0,0:0:0:40:
475,192,203900,1,0,0:0:0:40:
36,192,203975,1,0,0:0:0:20:
256,192,203975,128,0,204125:0:0:0:20:
475,192,204050,1,0,0:0:0:0:
109,192,204125,128,0,204200:0:0:0:20:
402,192,204125,128,0,204200:0:0:0:20:
329,192,204200,128,0,204275:0:0:0:20:
109,192,204275,128,0,204350:0:0:0:20:
402,192,204275,128,0,204350:0:0:0:20:
182,192,204350,128,0,204425:0:0:0:20:
256,192,204425,128,0,204500:0:0:0:20:
329,192,204500,128,0,204575:0:0:0:40:
182,192,204575,128,0,204650:0:0:0:40:
36,192,204650,128,0,204725:0:0:0:0:
256,192,204725,128,0,204800:0:0:0:0:
402,192,204725,128,0,204800:0:0:0:20:
109,192,204800,128,0,204875:0:0:0:0:
329,192,204875,128,0,204950:0:0:0:0:
182,192,204950,128,0,205025:0:0:0:20:
475,192,205025,128,0,205100:0:0:0:0:
36,192,205025,128,0,205325:0:0:0:13:
402,192,205025,128,0,205100:0:0:0:13:
329,192,205100,128,0,205175:0:0:0:0:
256,192,205175,128,0,205250:0:0:0:0:
182,192,205250,128,0,205325:0:0:0:0:
475,192,205325,128,0,205400:0:0:0:20:
109,192,205325,128,0,205625:0:0:0:20:
402,192,205400,128,0,205475:0:0:0:0:
329,192,205475,128,0,205550:0:0:0:0:
402,192,205550,128,0,205625:0:0:0:0:
475,192,205625,128,0,205700:0:0:0:0:
182,192,205700,128,0,205775:0:0:0:20:
256,192,205775,128,0,205850:0:0:0:20:
329,192,205850,128,0,205925:0:0:0:40:
475,192,205925,128,0,206000:0:0:0:0:
36,192,205925,128,0,206000:0:0:0:20:
402,192,206000,128,0,206075:0:0:0:40:
256,192,206075,128,0,206150:0:0:0:0:
109,192,206150,128,0,206225:0:0:0:40:
36,192,206225,128,0,206375:0:0:0:0:
402,192,206225,128,0,206300:0:0:0:0:
475,192,206225,128,0,206300:0:0:0:0:
329,192,206300,128,0,206375:0:0:0:0:
256,192,206375,128,0,206450:0:0:0:0:
182,192,206450,128,0,206525:0:0:0:0:
402,192,206525,128,0,206600:0:0:0:0:
475,192,206525,128,0,206600:0:0:0:20:
109,192,206600,128,0,206675:0:0:0:40:
182,192,206675,128,0,206750:0:0:0:40:
329,192,206675,128,0,206975:0:0:0:20:
36,192,206750,128,0,206825:0:0:0:20:
109,192,206825,128,0,206900:0:0:0:20:
182,192,206900,128,0,206975:0:0:0:40:
36,192,206975,128,0,207050:0:0:0:20:
402,192,206975,128,0,207275:0:0:0:20:
109,192,207050,128,0,207125:0:0:0:40:
182,192,207125,128,0,207200:0:0:0:20:
256,192,207200,128,0,207275:0:0:0:40:
109,192,207275,128,0,207350:0:0:0:0:
475,192,207275,128,0,207575:0:0:0:40:
36,192,207350,128,0,207425:0:0:0:0:
182,192,207425,128,0,207500:0:0:0:20:
329,192,207425,128,0,207575:0:0:0:20:
109,192,207500,128,0,207575:0:0:0:40:
256,192,207575,128,0,207650:0:0:0:40:
182,192,207650,128,0,207725:0:0:0:40:
475,192,207725,128,0,207800:0:0:0:20:
109,192,207725,128,0,208025:0:0:0:20:
402,192,207800,128,0,207875:0:0:0:40:
329,192,207875,128,0,207950:0:0:0:20:
256,192,207950,128,0,208025:0:0:0:40:
182,192,208025,128,0,208100:0:0:0:20:
475,192,208025,128,0,208325:0:0:0:20:
256,192,208100,128,0,208175:0:0:0:40:
329,192,208175,128,0,208250:0:0:0:20:
109,192,208175,128,0,208325:0:0:0:20:
256,192,208250,128,0,208325:0:0:0:40:
402,192,208325,128,0,208400:0:0:0:0:
36,192,208325,128,0,208400:0:0:0:20:
182,192,208400,128,0,208475:0:0:0:40:
329,192,208475,128,0,208550:0:0:0:20:
109,192,208550,128,0,208625:0:0:0:40:
475,192,208625,128,0,208700:0:0:0:0:
256,192,208625,128,0,208700:0:0:0:0:
402,192,208700,128,0,208775:0:0:0:40:
182,192,208775,128,0,208850:0:0:0:20:
329,192,208850,128,0,208925:0:0:0:40:
36,192,208925,128,0,209000:0:0:0:0:
256,192,208925,128,0,209000:0:0:0:20:
475,192,209000,128,0,209075:0:0:0:40:
402,192,209075,128,0,209150:0:0:0:20:
109,192,209150,128,0,209225:0:0:0:40:
182,192,209225,128,0,209300:0:0:0:20:
329,192,209300,128,0,209375:0:0:0:40:
402,192,209375,128,0,209450:0:0:0:0:
36,192,209375,128,0,209450:0:0:0:20:
109,192,209450,128,0,209525:0:0:0:40:
475,192,209525,128,0,209600:0:0:0:0:
329,192,209525,128,0,209600:0:0:0:20:
182,192,209600,128,0,209675:0:0:0:40:
256,192,209675,128,0,209750:0:0:0:40:
329,192,209750,128,0,209825:0:0:0:40:
182,192,209825,128,0,209900:0:0:0:0:
36,192,209825,128,0,209900:0:0:0:0:
329,192,209900,128,0,209975:0:0:0:40:
402,192,209975,128,0,210050:0:0:0:40:
475,192,210050,128,0,210125:0:0:0:40:
36,192,210125,128,0,210200:0:0:0:20:
256,192,210125,128,0,210425:0:0:0:20:
182,192,210200,128,0,210275:0:0:0:40:
329,192,210275,128,0,210350:0:0:0:40:
402,192,210350,128,0,210425:0:0:0:40:
475,192,210425,128,0,210500:0:0:0:0:
109,192,210425,128,0,210500:0:0:0:20:
182,192,210500,128,0,210575:0:0:0:40:
36,192,210575,128,0,210650:0:0:0:40:
109,192,210650,128,0,210725:0:0:0:40:
475,192,210725,128,0,210800:0:0:0:0:
329,192,210725,128,0,210800:0:0:0:0:
182,192,210725,128,0,210875:0:0:0:13:
475,192,210875,128,0,210950:0:0:0:0:
329,192,210875,128,0,210950:0:0:0:0:
36,192,210875,128,0,211025:0:0:0:13:
475,192,211025,128,0,211100:0:0:0:0:
329,192,211025,128,0,211100:0:0:0:0:
109,192,211025,128,0,211175:0:0:0:13:
475,192,211175,128,0,211250:0:0:0:0:
182,192,211175,128,0,211325:0:0:0:13:
329,192,211250,128,0,211325:0:0:0:0:
475,192,211325,128,0,211400:0:0:0:0:
109,192,211325,128,0,211400:0:0:0:20:
256,192,211475,128,0,211625:0:0:0:0:
36,192,211475,128,0,211550:0:0:0:20:
329,192,211625,128,0,211775:0:0:0:0:
182,192,211625,128,0,211700:0:0:0:20:
402,192,211775,128,0,211925:0:0:0:0:
109,192,211775,128,0,211850:0:0:0:20:
475,192,211925,128,0,212075:0:0:0:0:
36,192,211925,128,0,212000:0:0:0:20:
329,192,212075,128,0,212225:0:0:0:0:
109,192,212075,128,0,212150:0:0:0:20:
402,192,212225,128,0,212375:0:0:0:0:
182,192,212225,128,0,212300:0:0:0:20:
475,192,212375,128,0,212525:0:0:0:0:
256,192,212375,128,0,212450:0:0:0:20:
256,192,212525,128,0,212600:0:0:0:40:
36,192,212600,128,0,212675:0:0:0:40:
329,192,212675,128,0,212750:0:0:0:40:
475,192,212750,128,0,212825:0:0:0:40:
109,192,212825,128,0,212900:0:0:0:40:
402,192,212900,128,0,212975:0:0:0:40:
256,192,212975,128,0,213050:0:0:0:40:
36,192,213050,128,0,213125:0:0:0:40:
329,192,213125,128,0,213200:0:0:0:40:
109,192,213200,128,0,213275:0:0:0:40:
402,192,213275,128,0,213350:0:0:0:40:
182,192,213350,128,0,213425:0:0:0:40:
475,192,213425,128,0,213500:0:0:0:20:
36,192,213425,128,0,213500:0:0:0:20:
402,192,213500,128,0,213575:0:0:0:20:
109,192,213500,128,0,213575:0:0:0:20:
329,192,213575,128,0,213650:0:0:0:20:
182,192,213575,128,0,213650:0:0:0:20:
256,192,213650,128,0,213725:0:0:0:40:
109,192,213725,128,0,214025:0:0:0:10:
402,192,213725,128,0,214025:0:0:0:10:
36,192,213725,1,0,0:0:0:10:
475,192,213725,1,0,0:0:0:10:
329,192,214025,128,0,214100:0:0:0:0:
36,192,214025,1,0,0:0:0:20:
475,192,214100,128,0,214175:0:0:0:0:
256,192,214175,128,0,214250:0:0:0:0:
402,192,214250,128,0,214325:0:0:0:0:
182,192,214325,128,0,214400:0:0:0:0:
329,192,214400,128,0,214475:0:0:0:0:
109,192,214475,128,0,214550:0:0:0:0:
256,192,214550,128,0,214625:0:0:0:0:
36,192,214625,128,0,214700:0:0:0:0:
182,192,214700,128,0,214775:0:0:0:0:
475,192,214775,128,0,214850:0:0:0:0:
329,192,214850,128,0,214925:0:0:0:0:
182,192,214925,128,0,215000:0:0:0:0:
36,192,215000,128,0,215075:0:0:0:0:
182,192,215075,128,0,215150:0:0:0:0:
329,192,215150,128,0,215225:0:0:0:0:
182,192,215225,128,0,215300:0:0:0:0:
36,192,215300,128,0,215375:0:0:0:0:
256,192,215375,128,0,215450:0:0:0:0:
109,192,215450,128,0,215525:0:0:0:0:
329,192,215525,128,0,215600:0:0:0:0:
182,192,215600,128,0,215675:0:0:0:0:
402,192,215675,128,0,215750:0:0:0:0:
256,192,215750,128,0,215825:0:0:0:0:
475,192,215825,128,0,215900:0:0:0:0:
329,192,215900,128,0,215975:0:0:0:0:
182,192,215975,128,0,216050:0:0:0:0:
402,192,216050,128,0,216125:0:0:0:0:
256,192,216125,128,0,216200:0:0:0:0:
109,192,216200,128,0,216275:0:0:0:0:
182,192,216275,128,0,216350:0:0:0:0:
36,192,216350,128,0,216425:0:0:0:0:
256,192,216425,128,0,216500:0:0:0:0:
109,192,216500,128,0,216575:0:0:0:0:
329,192,216575,128,0,216650:0:0:0:0:
475,192,216650,128,0,216725:0:0:0:0:
256,192,216725,128,0,216800:0:0:0:0:
402,192,216800,128,0,216875:0:0:0:0:
182,192,216875,128,0,216950:0:0:0:0:
36,192,216950,128,0,217025:0:0:0:0:
256,192,217025,128,0,217100:0:0:0:0:
402,192,217100,128,0,217175:0:0:0:0:
182,192,217175,128,0,217250:0:0:0:0:
329,192,217250,128,0,217325:0:0:0:0:
475,192,217325,128,0,217400:0:0:0:0:
402,192,217400,128,0,217475:0:0:0:0:
256,192,217475,128,0,217550:0:0:0:0:
109,192,217550,128,0,217625:0:0:0:0:
36,192,217625,128,0,217700:0:0:0:0:
402,192,217700,128,0,217775:0:0:0:0:
256,192,217775,128,0,217850:0:0:0:0:
109,192,217850,128,0,217925:0:0:0:0:
329,192,217925,128,0,218000:0:0:0:0:
36,192,217925,128,0,218000:0:0:0:0:
402,192,218075,128,0,218150:0:0:0:0:
109,192,218075,128,0,218150:0:0:0:0:
182,192,218225,128,0,218300:0:0:0:0:
475,192,218225,128,0,218300:0:0:0:0:
402,192,218375,128,0,218450:0:0:0:0:
109,192,218375,128,0,218450:0:0:0:0:
329,192,218525,128,0,218600:0:0:0:0:
475,192,218525,128,0,218600:0:0:0:0:
36,192,218525,128,0,218600:0:0:0:0:
182,192,218525,128,0,218600:0:0:0:0:
402,192,218600,128,0,218675:0:0:0:0:
109,192,218675,128,0,218750:0:0:0:0:
36,192,218750,128,0,218825:0:0:0:0:
475,192,218825,128,0,218900:0:0:0:0:
329,192,218900,128,0,218975:0:0:0:0:
182,192,218975,128,0,219050:0:0:0:0:
36,192,219050,128,0,219125:0:0:0:0:
475,192,219125,128,0,219200:0:0:0:0:
402,192,219200,128,0,219275:0:0:0:0:
256,192,219275,128,0,219350:0:0:0:0:
109,192,219350,128,0,219425:0:0:0:0:
475,192,219425,128,0,219500:0:0:0:0:
36,192,219425,128,0,219500:0:0:0:0:
402,192,219500,128,0,219575:0:0:0:0:
256,192,219575,128,0,219650:0:0:0:0:
109,192,219650,128,0,219725:0:0:0:0:
182,192,219725,128,0,219800:0:0:0:0:
36,192,219800,128,0,219875:0:0:0:0:
256,192,219875,128,0,219950:0:0:0:0:
109,192,219950,128,0,220025:0:0:0:0:
329,192,220025,128,0,220100:0:0:0:0:
182,192,220100,128,0,220175:0:0:0:0:
402,192,220175,128,0,220250:0:0:0:0:
256,192,220250,128,0,220325:0:0:0:0:
475,192,220325,128,0,220400:0:0:0:0:
329,192,220400,128,0,220475:0:0:0:0:
36,192,220475,128,0,220550:0:0:0:0:
182,192,220550,128,0,220625:0:0:0:0:
475,192,220625,128,0,220700:0:0:0:0:
329,192,220625,128,0,220700:0:0:0:0:
256,192,220700,128,0,220775:0:0:0:0:
182,192,220775,128,0,220850:0:0:0:0:
36,192,220775,128,0,220850:0:0:0:0:
475,192,220850,128,0,220925:0:0:0:0:
329,192,220850,128,0,220925:0:0:0:0:
36,192,220925,128,0,221000:0:0:0:0:
182,192,220925,128,0,221000:0:0:0:0:
256,192,221000,128,0,221075:0:0:0:0:
402,192,221075,128,0,221150:0:0:0:0:
329,192,221075,128,0,221150:0:0:0:0:
182,192,221150,128,0,221225:0:0:0:0:
109,192,221150,128,0,221225:0:0:0:0:
402,192,221225,128,0,221300:0:0:0:0:
329,192,221225,128,0,221300:0:0:0:0:
256,192,221300,128,0,221375:0:0:0:0:
36,192,221375,128,0,221450:0:0:0:0:
109,192,221375,128,0,221450:0:0:0:0:
475,192,221450,128,0,221525:0:0:0:0:
402,192,221450,128,0,221525:0:0:0:0:
109,192,221525,128,0,221600:0:0:0:0:
36,192,221525,128,0,221600:0:0:0:0:
182,192,221600,128,0,221675:0:0:0:0:
329,192,221675,128,0,221750:0:0:0:0:
475,192,221750,128,0,221825:0:0:0:0:
256,192,221825,128,0,221900:0:0:0:0:
402,192,221900,128,0,221975:0:0:0:0:
182,192,221975,128,0,222050:0:0:0:0:
329,192,222050,128,0,222125:0:0:0:0:
36,192,222125,128,0,222200:0:0:0:0:
475,192,222125,128,0,222200:0:0:0:0:
109,192,222200,128,0,222275:0:0:0:0:
329,192,222275,128,0,222350:0:0:0:0:
182,192,222350,128,0,222425:0:0:0:0:
36,192,222425,128,0,222500:0:0:0:0:
475,192,222425,128,0,222500:0:0:0:0:
402,192,222500,128,0,222575:0:0:0:0:
182,192,222575,128,0,222650:0:0:0:0:
329,192,222650,128,0,222725:0:0:0:0:
475,192,222725,128,0,222800:0:0:0:0:
36,192,222725,128,0,222800:0:0:0:0:
256,192,222800,128,0,222875:0:0:0:0:
402,192,222875,128,0,222950:0:0:0:0:
109,192,222875,128,0,222950:0:0:0:0:
256,192,222950,128,0,223025:0:0:0:0:
475,192,223025,128,0,223100:0:0:0:0:
36,192,223025,128,0,223100:0:0:0:0:
402,192,223062,128,0,223137:0:0:0:0:
109,192,223062,128,0,223137:0:0:0:0:
329,192,223100,128,0,223175:0:0:0:0:
182,192,223100,128,0,223175:0:0:0:0:
256,192,223137,128,0,223212:0:0:0:0:
475,192,223175,128,0,223250:0:0:0:0:
36,192,223175,128,0,223250:0:0:0:0:
402,192,223212,128,0,223287:0:0:0:0:
109,192,223212,128,0,223287:0:0:0:0:
329,192,223250,128,0,223325:0:0:0:0:
182,192,223250,128,0,223325:0:0:0:0:
256,192,223287,128,0,223362:0:0:0:0:
475,192,223325,128,0,223400:0:0:0:0:
36,192,223325,128,0,223400:0:0:0:0:
475,192,239024,132,0,248042:0:0:0:0:
36,192,239024,128,0,245764:0:0:0:0:
329,192,239783,128,0,247283:0:0:0:0:
109,192,240542,128,0,244815:0:0:0:0:
402,192,241302,128,0,245005:0:0:0:0:
256,192,242061,128,0,243486:0:0:0:0:
256,192,243580,128,0,249561:0:0:0:0:
109,192,244910,128,0,250416:0:0:0:0:
402,192,245099,128,0,251460:0:0:0:0:
36,192,245859,128,0,252599:0:0:0:0:
182,192,246618,128,0,251840:0:0:0:0:
329,192,247378,128,0,251080:0:0:0:0:
475,192,248137,128,0,251840:0:0:0:0:
256,192,249656,128,0,252599:0:0:0:0:
329,192,251175,128,0,254118:0:0:0:0:
109,192,251175,128,0,252979:0:0:0:0:
402,192,251555,128,0,252220:0:0:0:0:
182,192,251935,128,0,253359:0:0:0:0:
475,192,251935,128,0,254118:0:0:0:0:
402,192,252315,128,0,253359:0:0:0:0:
256,192,252694,128,0,253739:0:0:0:0:
36,192,252694,128,0,254498:0:0:0:0:
109,192,253074,128,0,254878:0:0:0:0:
182,192,253454,128,0,255258:0:0:0:0:
402,192,253454,128,0,256777:0:0:0:0:
256,192,253834,128,0,255637:0:0:0:0:
475,192,254213,128,0,256017:0:0:0:0:
329,192,254213,128,0,255637:0:0:0:0:
36,192,254593,128,0,257156:0:0:0:0:
109,192,254973,128,0,257156:0:0:0:0:
182,192,255353,128,0,256397:0:0:0:0:
256,192,255732,128,0,257916:0:0:0:0:
329,192,255732,128,0,258675:0:0:0:0:
475,192,256112,128,0,258296:0:0:0:0:
182,192,256492,128,0,257536:0:0:0:0:
402,192,256872,128,0,257916:0:0:0:0:
109,192,257251,128,0,258675:0:0:0:0:
36,192,257251,128,0,261903:0:0:0:0:
182,192,257631,128,0,259055:0:0:0:0:
402,192,258011,128,0,260194:0:0:0:0:
256,192,258011,128,0,259435:0:0:0:0:
475,192,258391,128,0,259435:0:0:0:0:
329,192,258770,128,0,259815:0:0:0:0:
109,192,258770,128,0,261524:0:0:0:0:
182,192,259150,128,0,260574:0:0:0:0:
475,192,259530,128,0,260194:0:0:0:0:
256,192,259530,128,0,262473:0:0:0:0:
329,192,259910,128,0,261903:0:0:0:0:
475,192,260289,128,0,262473:0:0:0:0:
402,192,260289,128,0,261334:0:0:0:0:
182,192,260669,128,0,260954:0:0:0:0:
182,192,261049,128,0,262283:0:0:0:0:
402,192,261429,128,0,261524:0:0:0:0:
109,192,261618,128,0,262283:0:0:0:0:
402,192,261618,128,0,262473:0:0:0:0:
36,192,261998,128,0,262473:0:0:0:0:
329,192,261998,128,0,262473:0:0:0:0:
109,192,262378,128,0,262473:0:0:0:0:
182,192,262378,128,0,262473:0:0:0:0:
36,192,262568,128,0,262663:0:0:0:0:
109,192,262568,128,0,262663:0:0:0:0:
182,192,262568,128,0,262663:0:0:0:0:
329,192,262568,128,0,262663:0:0:0:0:
402,192,262568,128,0,262663:0:0:0:0:
475,192,262568,128,0,262663:0:0:0:0:
475,192,263327,128,0,265131:0:0:0:0:
36,192,263327,128,0,266270:0:0:0:0:
329,192,263327,128,0,263612:0:0:0:0:
182,192,263327,128,0,263992:0:0:0:0:
329,192,263707,128,0,270068:0:0:0:0:
182,192,264087,128,0,265511:0:0:0:0:
402,192,264467,128,0,265891:0:0:0:0:
109,192,264846,128,0,267410:0:0:0:0:
475,192,265226,128,0,267789:0:0:0:0:
182,192,265606,128,0,266650:0:0:0:0:
402,192,265986,128,0,267030:0:0:0:0:
36,192,266365,128,0,268929:0:0:0:0:
182,192,266745,128,0,268169:0:0:0:0:
402,192,267125,128,0,268549:0:0:0:0:
109,192,267505,128,0,269688:0:0:0:0:
475,192,267884,128,0,270448:0:0:0:0:
182,192,268264,128,0,273486:0:0:0:0:
402,192,268644,128,0,269308:0:0:0:0:
36,192,269024,128,0,270827:0:0:0:0:
402,192,269403,128,0,271207:0:0:0:0:
109,192,269783,128,0,271967:0:0:0:0:
329,192,270163,128,0,275005:0:0:0:0:
475,192,270542,128,0,272726:0:0:0:0:
36,192,270922,128,0,271967:0:0:0:0:
402,192,271302,128,0,272346:0:0:0:0:
256,192,271682,128,0,275384:0:0:0:0:
109,192,272061,128,0,272346:0:0:0:0:
36,192,272061,128,0,273106:0:0:0:0:
402,192,272441,128,0,272726:0:0:0:0:
109,192,272441,128,0,274055:0:0:0:0:
402,192,272821,128,0,273675:0:0:0:0:
475,192,272821,128,0,274435:0:0:0:0:
36,192,273201,128,0,275384:0:0:0:0:
182,192,273580,128,0,275384:0:0:0:0:
402,192,273770,128,0,275384:0:0:0:0:
109,192,274150,128,0,274815:0:0:0:0:
475,192,274530,128,0,275384:0:0:0:0:
109,192,274910,128,0,275384:0:0:0:0:
329,192,275099,128,0,275384:0:0:0:0:
36,192,275479,1,0,0:0:0:0:
109,192,275479,1,0,0:0:0:0:
182,192,275479,1,0,0:0:0:0:
329,192,275479,1,0,0:0:0:0:
402,192,275479,1,0,0:0:0:0:
475,192,275479,1,0,0:0:0:0:
329,192,275859,128,0,276903:0:0:0:0:
182,192,276239,128,0,276903:0:0:0:0:
402,192,276618,128,0,277663:0:0:0:0:
475,192,276618,128,0,279182:0:0:0:0:
182,192,276998,128,0,277663:0:0:0:0:
329,192,276998,128,0,278422:0:0:0:0:
109,192,277378,128,0,278802:0:0:0:0:
36,192,277378,128,0,278802:0:0:0:0:
182,192,277758,128,0,279372:0:0:0:0:
402,192,277758,128,0,278042:0:0:0:0:
256,192,278137,128,0,281840:0:0:0:0:
402,192,278137,128,0,278422:0:0:0:0:
402,192,278517,128,0,279372:0:0:0:0:
329,192,278517,128,0,279751:0:0:0:0:
109,192,278897,128,0,279751:0:0:0:0:
36,192,278897,128,0,280321:0:0:0:0:
475,192,279277,128,0,281460:0:0:0:0:
182,192,279467,128,0,284498:0:0:0:0:
402,192,279467,128,0,280701:0:0:0:0:
109,192,279846,128,0,281080:0:0:0:0:
329,192,279846,128,0,281840:0:0:0:0:
36,192,280416,128,0,283359:0:0:0:0:
402,192,280796,128,0,283739:0:0:0:0:
109,192,281175,128,0,282220:0:0:0:0:
475,192,281555,128,0,282979:0:0:0:0:
256,192,281935,128,0,282599:0:0:0:0:
329,192,281935,128,0,285637:0:0:0:0:
109,192,282315,128,0,284118:0:0:0:0:
256,192,282694,128,0,284498:0:0:0:0:
475,192,283074,128,0,284878:0:0:0:0:
36,192,283454,128,0,285637:0:0:0:0:
402,192,283834,128,0,285637:0:0:0:0:
109,192,284213,128,0,285637:0:0:0:0:
256,192,284593,128,0,285258:0:0:0:0:
182,192,284593,128,0,285637:0:0:0:0:
475,192,284973,128,0,285637:0:0:0:0:
256,192,285353,128,0,285637:0:0:0:0:
36,192,285732,128,0,285827:0:0:0:0:
109,192,285732,128,0,285827:0:0:0:0:
329,192,285732,128,0,285827:0:0:0:0:
256,192,285732,128,0,285827:0:0:0:0:
109,192,285922,128,0,286017:0:0:0:0:
182,192,285922,128,0,286017:0:0:0:0:
402,192,285922,128,0,286017:0:0:0:0:
329,192,285922,128,0,286017:0:0:0:0:
182,192,286302,128,0,286397:0:0:0:0:
256,192,286302,128,0,286397:0:0:0:0:
402,192,286302,128,0,286397:0:0:0:0:
475,192,286302,128,0,286397:0:0:0:0:
402,192,286682,128,0,286777:0:0:0:0:
109,192,286682,128,0,286777:0:0:0:0:
182,192,286682,128,0,287346:0:0:0:0:
329,192,286682,128,0,287346:0:0:0:0:
36,192,287061,128,0,287156:0:0:0:0:
109,192,287061,128,0,287156:0:0:0:0:
475,192,287061,128,0,287156:0:0:0:0:
402,192,287061,128,0,287156:0:0:0:0:
402,192,287251,128,0,287346:0:0:0:0:
475,192,287251,128,0,287346:0:0:0:0:
109,192,287251,128,0,287346:0:0:0:0:
36,192,287251,128,0,287346:0:0:0:0:
402,192,287631,128,0,289435:0:0:0:0:
109,192,287631,128,0,288675:0:0:0:0:
475,192,288011,128,0,289435:0:0:0:0:
256,192,288391,128,0,290194:0:0:0:0:
36,192,288770,128,0,291334:0:0:0:0:
109,192,288770,128,0,289815:0:0:0:0:
329,192,289150,128,0,289815:0:0:0:0:
182,192,289150,128,0,290574:0:0:0:0:
402,192,289530,128,0,290954:0:0:0:0:
475,192,289530,128,0,290954:0:0:0:0:
329,192,289910,128,0,291524:0:0:0:0:
109,192,289910,128,0,290194:0:0:0:0:
256,192,290289,128,0,292853:0:0:0:0:
109,192,290289,128,0,290574:0:0:0:0:
109,192,290669,128,0,291524:0:0:0:0:
182,192,290669,128,0,291903:0:0:0:0:
402,192,291049,128,0,291903:0:0:0:0:
475,192,291049,128,0,293232:0:0:0:0:
36,192,291429,128,0,292473:0:0:0:0:
329,192,291618,128,0,295131:0:0:0:0:
109,192,291618,128,0,292473:0:0:0:0:
402,192,291998,128,0,293232:0:0:0:0:
182,192,291998,128,0,293992:0:0:0:0:
36,192,292568,128,0,295891:0:0:0:0:
109,192,292568,128,0,293612:0:0:0:0:
256,192,292948,128,0,294372:0:0:0:0:
402,192,293327,128,0,293992:0:0:0:0:
475,192,293327,128,0,294751:0:0:0:0:
109,192,293707,128,0,296650:0:0:0:0:
182,192,294087,128,0,296650:0:0:0:0:
402,192,294087,128,0,295131:0:0:0:0:
256,192,294467,128,0,295511:0:0:0:0:
475,192,294846,128,0,297030:0:0:0:0:
329,192,295226,128,0,296270:0:0:0:0:
402,192,295226,128,0,297030:0:0:0:0:
256,192,295606,128,0,297789:0:0:0:0:
36,192,295986,128,0,297789:0:0:0:0:
329,192,296365,128,0,297410:0:0:0:0:
182,192,296745,128,0,297410:0:0:0:0:
109,192,296745,128,0,297789:0:0:0:0:
475,192,297125,128,0,297789:0:0:0:0:
402,192,297125,128,0,297789:0:0:0:0:
182,192,297505,128,0,297789:0:0:0:0:
329,192,297505,128,0,297789:0:0:0:0:
182,192,297884,128,0,297979:0:0:0:0:
402,192,297884,128,0,297979:0:0:0:0:
475,192,297884,128,0,297979:0:0:0:0:
256,192,297884,128,0,297979:0:0:0:0:
109,192,298074,128,0,298169:0:0:0:0:
329,192,298074,128,0,298169:0:0:0:0:
36,192,298074,128,0,298169:0:0:0:0:
256,192,298074,128,0,298169:0:0:0:0:
109,192,298454,128,0,298549:0:0:0:0:
36,192,298454,128,0,298549:0:0:0:0:
256,192,298454,128,0,298549:0:0:0:0:
329,192,298454,128,0,298549:0:0:0:0:
109,192,298644,128,0,298739:0:0:0:0:
182,192,298644,128,0,298739:0:0:0:0:
329,192,298644,128,0,298739:0:0:0:0:
402,192,298644,128,0,298739:0:0:0:0:
182,192,298834,128,0,298929:0:0:0:0:
402,192,298834,128,0,298929:0:0:0:0:
475,192,298834,128,0,298929:0:0:0:0:
256,192,298834,128,0,299498:0:0:0:0:
36,192,299213,128,0,299308:0:0:0:0:
182,192,299213,128,0,299308:0:0:0:0:
329,192,299213,128,0,299308:0:0:0:0:
475,192,299213,128,0,299308:0:0:0:0:
475,192,299403,128,0,299498:0:0:0:0:
329,192,299403,128,0,299498:0:0:0:0:
182,192,299403,128,0,299498:0:0:0:0:
36,192,299403,128,0,299498:0:0:0:0:
36,192,299783,128,0,302726:0:0:0:0:
475,192,299783,128,0,300827:0:0:0:0:
329,192,300163,128,0,301587:0:0:0:0:
109,192,300163,128,0,303486:0:0:0:0:
182,192,300542,128,0,301967:0:0:0:0:
256,192,300922,128,0,302346:0:0:0:0:
475,192,300922,128,0,303106:0:0:0:0:
402,192,301302,128,0,301587:0:0:0:0:
329,192,301682,128,0,301967:0:0:0:0:
402,192,301682,128,0,303106:0:0:0:0:
182,192,302061,128,0,302346:0:0:0:0:
329,192,302061,128,0,303865:0:0:0:0:
256,192,302441,128,0,302726:0:0:0:0:
182,192,302441,128,0,303486:0:0:0:0:
256,192,302821,128,0,305384:0:0:0:0:
36,192,302821,128,0,304245:0:0:0:0:
402,192,303201,128,0,303865:0:0:0:0:
475,192,303201,128,0,306144:0:0:0:0:
182,192,303580,128,0,304625:0:0:0:0:
109,192,303580,128,0,304245:0:0:0:0:
402,192,303960,128,0,304625:0:0:0:0:
329,192,303960,128,0,305005:0:0:0:0:
109,192,304340,128,0,306903:0:0:0:0:
36,192,304340,128,0,305764:0:0:0:0:
402,192,304720,128,0,305764:0:0:0:0:
182,192,304720,128,0,305005:0:0:0:0:
182,192,305099,128,0,305384:0:0:0:0:
329,192,305099,128,0,306524:0:0:0:0:
182,192,305479,128,0,308802:0:0:0:0:
256,192,305479,128,0,307663:0:0:0:0:
36,192,305859,128,0,308042:0:0:0:0:
402,192,305859,128,0,307283:0:0:0:0:
475,192,306239,128,0,308422:0:0:0:0:
329,192,306618,128,0,309182:0:0:0:0:
109,192,306998,128,0,309182:0:0:0:0:
402,192,307378,128,0,308802:0:0:0:0:
256,192,307758,128,0,310321:0:0:0:0:
36,192,308137,128,0,309941:0:0:0:0:
475,192,308517,128,0,310701:0:0:0:0:
182,192,308897,128,0,309561:0:0:0:0:
402,192,308897,128,0,309561:0:0:0:0:
329,192,309277,128,0,310701:0:0:0:0:
109,192,309277,128,0,310891:0:0:0:0:
402,192,309656,128,0,310701:0:0:0:0:
182,192,309656,128,0,310891:0:0:0:0:
36,192,310036,128,0,311840:0:0:0:0:
256,192,310416,128,0,311935:0:0:0:0:
475,192,310796,128,0,311935:0:0:0:0:
402,192,310796,128,0,311460:0:0:0:0:
329,192,310796,128,0,311460:0:0:0:0:
182,192,310986,128,0,311270:0:0:0:0:
109,192,310986,128,0,311270:0:0:0:0:
182,192,311365,128,0,311935:0:0:0:0:
109,192,311365,128,0,311935:0:0:0:0:
402,192,311555,128,0,311935:0:0:0:0:
329,192,311555,128,0,311935:0:0:0:0:
36,192,311935,128,0,312030:0:0:0:0:
36,192,312315,128,0,312410:0:0:0:0:
329,192,312694,128,0,312789:0:0:0:0:
109,192,312694,128,0,312789:0:0:0:0:
36,192,313074,128,0,313169:0:0:0:0:
402,192,313074,128,0,313169:0:0:0:0:
182,192,313074,128,0,313169:0:0:0:0:
402,192,313454,128,0,314498:0:0:0:0:
329,192,313454,128,0,315637:0:0:0:0:
109,192,313454,128,0,313739:0:0:0:0:
182,192,313454,128,0,315258:0:0:0:0:
256,192,313454,128,0,314118:0:0:0:0:
475,192,313454,128,0,316017:0:0:0:0:
36,192,313454,128,0,314878:0:0:0:0:
109,192,313834,128,0,314878:0:0:0:0:
256,192,314213,128,0,315258:0:0:0:0:
402,192,314593,128,0,315637:0:0:0:0:
36,192,314973,128,0,316017:0:0:0:0:
109,192,314973,128,0,316397:0:0:0:0:
256,192,315353,128,0,316777:0:0:0:0:
182,192,315353,128,0,316397:0:0:0:0:
329,192,315732,128,0,317156:0:0:0:0:
402,192,315732,128,0,317536:0:0:0:0:
36,192,316112,128,0,317916:0:0:0:0:
475,192,316112,128,0,317916:0:0:0:0:
109,192,316492,128,0,318675:0:0:0:0:
182,192,316492,128,0,316777:0:0:0:0:
256,192,316872,128,0,317156:0:0:0:0:
182,192,316872,128,0,319435:0:0:0:0:
329,192,317251,128,0,317536:0:0:0:0:
256,192,317251,128,0,317916:0:0:0:0:
402,192,317631,128,0,319055:0:0:0:0:
329,192,317631,128,0,319435:0:0:0:0:
36,192,318011,128,0,319435:0:0:0:0:
475,192,318011,128,0,318296:0:0:0:0:
256,192,318011,128,0,318865:0:0:0:0:
475,192,318391,128,0,319435:0:0:0:0:
109,192,318770,128,0,319435:0:0:0:0:
256,192,318960,128,0,319435:0:0:0:0:
402,192,319150,128,0,319435:0:0:0:0:
475,192,319530,128,0,320954:0:0:0:0:
36,192,319530,128,0,320954:0:0:0:0:
109,192,319530,128,0,319815:0:0:0:0:
182,192,319530,128,0,319815:0:0:0:0:
329,192,319530,128,0,320194:0:0:0:0:
402,192,319530,128,0,320194:0:0:0:0:
182,192,319910,128,0,320574:0:0:0:0:
109,192,319910,128,0,320574:0:0:0:0:
329,192,320289,128,0,320764:0:0:0:0:
402,192,320289,128,0,321334:0:0:0:0:
182,192,320669,128,0,321713:0:0:0:0:
109,192,320669,128,0,321334:0:0:0:0:
329,192,320859,128,0,321713:0:0:0:0:
475,192,321049,128,0,322853:0:0:0:0:
36,192,321049,128,0,322853:0:0:0:0:
109,192,321429,128,0,322283:0:0:0:0:
402,192,321429,128,0,322093:0:0:0:0:
329,192,321808,128,0,322473:0:0:0:0:
182,192,321808,128,0,322473:0:0:0:0:
402,192,322188,128,0,323232:0:0:0:0:
109,192,322378,128,0,323232:0:0:0:0:
329,192,322568,128,0,323612:0:0:0:0:
182,192,322568,128,0,323612:0:0:0:0:
475,192,322948,128,0,324561:0:0:0:0:
36,192,322948,128,0,323802:0:0:0:0:
402,192,323327,128,0,324561:0:0:0:0:
109,192,323327,128,0,323802:0:0:0:0:
329,192,323707,128,0,324182:0:0:0:0:
182,192,323707,128,0,324182:0:0:0:0:
109,192,323897,128,0,324941:0:0:0:0:
36,192,323897,128,0,324941:0:0:0:0:
329,192,324277,128,0,324941:0:0:0:0:
182,192,324277,128,0,324941:0:0:0:0:
475,192,324656,128,0,324941:0:0:0:0:
402,192,324656,128,0,324941:0:0:0:0:
182,192,325036,128,0,325131:0:0:0:0:
109,192,325036,128,0,325131:0:0:0:0:
36,192,325036,128,0,325131:0:0:0:0:
329,192,325036,128,0,325131:0:0:0:0:
402,192,325036,128,0,325131:0:0:0:0:
475,192,325036,128,0,325131:0:0:0:0:
36,192,325226,128,0,325511:0:0:0:0:
109,192,325226,128,0,325511:0:0:0:0:
182,192,325226,128,0,325511:0:0:0:0:
329,192,325226,128,0,325511:0:0:0:0:
402,192,325226,128,0,325511:0:0:0:0:
475,192,325226,128,0,325511:0:0:0:0:
329,192,325606,128,0,327789:0:0:0:0:
402,192,325606,128,0,326270:0:0:0:0:
475,192,325606,128,0,327030:0:0:0:0:
182,192,325606,128,0,326270:0:0:0:0:
256,192,325606,128,0,325891:0:0:0:0:
36,192,325606,128,0,326650:0:0:0:0:
109,192,325606,128,0,325891:0:0:0:0:
256,192,325986,128,0,326650:0:0:0:0:
109,192,325986,128,0,328169:0:0:0:0:
402,192,326365,128,0,327410:0:0:0:0:
182,192,326365,128,0,327030:0:0:0:0:
256,192,326745,128,0,327789:0:0:0:0:
36,192,326745,128,0,327410:0:0:0:0:
475,192,327125,128,0,328549:0:0:0:0:
182,192,327125,128,0,328359:0:0:0:0:
402,192,327505,128,0,328169:0:0:0:0:
36,192,327505,128,0,328549:0:0:0:0:
256,192,327884,128,0,328929:0:0:0:0:
329,192,327884,128,0,328359:0:0:0:0:
402,192,328264,128,0,329688:0:0:0:0:
109,192,328264,128,0,328929:0:0:0:0:
329,192,328454,128,0,330068:0:0:0:0:
182,192,328454,128,0,329308:0:0:0:0:
475,192,328644,128,0,329308:0:0:0:0:
36,192,328644,128,0,329688:0:0:0:0:
256,192,329024,128,0,331587:0:0:0:0:
109,192,329024,128,0,330068:0:0:0:0:
475,192,329403,128,0,330448:0:0:0:0:
182,192,329403,128,0,330448:0:0:0:0:
402,192,329783,128,0,331017:0:0:0:0:
36,192,329783,128,0,330827:0:0:0:0:
329,192,330163,128,0,331587:0:0:0:0:
109,192,330163,128,0,330827:0:0:0:0:
475,192,330542,128,0,331587:0:0:0:0:
182,192,330542,128,0,331017:0:0:0:0:
109,192,330922,128,0,331587:0:0:0:0:
36,192,330922,128,0,331587:0:0:0:0:
402,192,331112,128,0,331207:0:0:0:0:
182,192,331112,128,0,331207:0:0:0:0:
402,192,331302,128,0,331587:0:0:0:0:
182,192,331302,128,0,331587:0:0:0:0:
329,192,331682,128,0,333106:0:0:0:0:
36,192,331682,128,0,333486:0:0:0:0:
402,192,331682,128,0,331967:0:0:0:0:
475,192,331682,128,0,332346:0:0:0:0:
182,192,331682,128,0,331967:0:0:0:0:
109,192,331682,128,0,332251:0:0:0:0:
402,192,332061,128,0,332726:0:0:0:0:
182,192,332061,128,0,332726:0:0:0:0:
109,192,332346,128,0,333106:0:0:0:0:
475,192,332441,128,0,333486:0:0:0:0:
182,192,332821,128,0,334245:0:0:0:0:
402,192,332821,128,0,334245:0:0:0:0:
329,192,333201,128,0,333865:0:0:0:0:
109,192,333201,128,0,333865:0:0:0:0:
36,192,333580,128,0,334625:0:0:0:0:
475,192,333580,128,0,334625:0:0:0:0:
329,192,333960,128,0,335384:0:0:0:0:
109,192,333960,128,0,335005:0:0:0:0:
402,192,334340,128,0,335005:0:0:0:0:
182,192,334340,128,0,335384:0:0:0:0:
475,192,334720,128,0,337093:0:0:0:0:
256,192,334720,128,0,337473:0:0:0:0:
36,192,334720,128,0,337093:0:0:0:0:
402,192,335099,128,0,335764:0:0:0:0:
109,192,335099,128,0,335764:0:0:0:0:
329,192,335479,128,0,335954:0:0:0:0:
182,192,335479,128,0,335954:0:0:0:0:
402,192,335859,128,0,336334:0:0:0:0:
109,192,335859,128,0,336334:0:0:0:0:
329,192,336049,128,0,336334:0:0:0:0:
182,192,336049,128,0,336334:0:0:0:0:
329,192,336429,128,0,336713:0:0:0:0:
402,192,336429,128,0,336713:0:0:0:0:
109,192,336429,128,0,336713:0:0:0:0:
182,192,336429,128,0,336713:0:0:0:0:
329,192,336808,128,0,337473:0:0:0:0:
402,192,336808,128,0,337093:0:0:0:0:
109,192,336808,128,0,337093:0:0:0:0:
182,192,336808,128,0,337473:0:0:0:0:
402,192,337188,128,0,337283:0:0:0:0:
475,192,337188,128,0,337283:0:0:0:0:
109,192,337188,128,0,337283:0:0:0:0:
36,192,337188,128,0,337283:0:0:0:0:
475,192,337378,128,0,337473:0:0:0:0:
402,192,337378,128,0,337473:0:0:0:0:
36,192,337378,128,0,337473:0:0:0:0:
109,192,337378,128,0,337473:0:0:0:0:
256,192,337758,128,0,344688:0:0:0:0:
402,192,337758,128,0,342410:0:0:0:0:
475,192,337758,128,0,340511:0:0:0:0:
329,192,337758,128,0,338992:0:0:0:0:
36,192,337758,128,0,341650:0:0:0:0:
109,192,337758,128,0,338042:0:0:0:0:
182,192,337758,128,0,337853:0:0:0:0:
182,192,337948,128,0,338232:0:0:0:0:
109,192,338137,128,0,339372:0:0:0:0:
182,192,338327,128,0,338612:0:0:0:0:
182,192,338707,128,0,339561:0:0:0:0:
329,192,339087,128,0,339751:0:0:0:0:
109,192,339467,128,0,340701:0:0:0:0:
182,192,339656,128,0,340131:0:0:0:0:
329,192,339846,128,0,340321:0:0:0:0:
182,192,340226,128,0,340701:0:0:0:0:
329,192,340416,128,0,341080:0:0:0:0:
475,192,340606,128,0,342030:0:0:0:0:
109,192,340796,128,0,343739:0:0:0:0:
182,192,340796,128,0,341840:0:0:0:0:
329,192,341175,128,0,341460:0:0:0:0:
329,192,341555,128,0,342599:0:0:0:0:
36,192,341745,128,0,343739:0:0:0:0:
182,192,341935,128,0,343169:0:0:0:0:
475,192,342125,128,0,346017:0:0:0:0:
402,192,342505,128,0,342789:0:0:0:0:
329,192,342694,128,0,343359:0:0:0:0:
402,192,342884,128,0,345068:0:0:0:0:
182,192,343264,128,0,343549:0:0:0:0:
329,192,343454,128,0,344118:0:0:0:0:
182,192,343644,128,0,344498:0:0:0:0:
109,192,343834,128,0,348486:0:0:0:0:
36,192,343834,128,0,345258:0:0:0:0:
329,192,344213,128,0,344878:0:0:0:0:
182,192,344593,128,0,345827:0:0:0:0:
256,192,344783,128,0,345637:0:0:0:0:
329,192,344973,128,0,345448:0:0:0:0:
402,192,345163,128,0,349245:0:0:0:0:
36,192,345353,128,0,347156:0:0:0:0:
329,192,345542,128,0,346397:0:0:0:0:
256,192,345732,128,0,348106:0:0:0:0:
182,192,345922,128,0,346207:0:0:0:0:
475,192,346112,128,0,349245:0:0:0:0:
182,192,346302,128,0,346777:0:0:0:0:
329,192,346492,128,0,346777:0:0:0:0:
182,192,346872,128,0,346967:0:0:0:0:
329,192,346872,128,0,347726:0:0:0:0:
182,192,347061,128,0,347346:0:0:0:0:
36,192,347251,128,0,349815:0:0:0:0:
182,192,347441,128,0,348106:0:0:0:0:
329,192,347821,128,0,348865:0:0:0:0:
182,192,348201,128,0,348486:0:0:0:0:
256,192,348201,128,0,348865:0:0:0:0:
182,192,348580,128,0,349815:0:0:0:0:
109,192,348580,128,0,349815:0:0:0:0:
329,192,348960,128,0,349245:0:0:0:0:
256,192,348960,128,0,349815:0:0:0:0:
475,192,349340,128,0,349435:0:0:0:0:
402,192,349340,128,0,349435:0:0:0:0:
329,192,349340,128,0,349435:0:0:0:0:
329,192,349530,128,0,349815:0:0:0:0:
402,192,349530,128,0,349815:0:0:0:0:
475,192,349530,128,0,349815:0:0:0:0:
329,192,349910,1,0,0:0:0:0:
402,192,349910,1,0,0:0:0:0:
475,192,349910,1,0,0:0:0:0:
36,192,349910,1,0,0:0:0:0:
109,192,349910,1,0,0:0:0:0:
182,192,349910,1,0,0:0:0:0:
475,192,361302,132,0,362318:0:0:0:0:
36,192,361810,128,0,362064:0:0:0:0:
329,192,361810,128,0,362573:0:0:0:0:
109,192,362064,128,0,362318:0:0:0:0:
36,192,362318,128,0,362573:0:0:0:0:
182,192,362318,128,0,362827:0:0:0:0:
36,192,362827,128,0,363844:0:0:0:0:
256,192,363335,128,0,364098:0:0:0:0:
475,192,363844,128,0,364352:0:0:0:0:
329,192,364352,128,0,365878:0:0:0:0:
475,192,364861,128,0,365115:0:0:0:0:
182,192,364861,128,0,365624:0:0:0:0:
402,192,365115,128,0,365369:0:0:0:0:
475,192,365369,128,0,365624:0:0:0:0:
36,192,365369,128,0,365878:0:0:0:0:
402,192,365878,128,0,366895:0:0:0:0:
256,192,365878,128,0,366895:0:0:0:0:
109,192,365878,128,0,366895:0:0:0:0:
329,192,366386,128,0,367403:0:0:0:0:
36,192,366386,128,0,367403:0:0:0:0:
475,192,366895,128,0,367912:0:0:0:0:
182,192,366895,128,0,367403:0:0:0:0:
256,192,367403,128,0,368420:0:0:0:0:
36,192,367912,128,0,368166:0:0:0:0:
329,192,367912,128,0,368674:0:0:0:0:
109,192,368166,128,0,368420:0:0:0:0:
36,192,368420,128,0,368674:0:0:0:0:
402,192,368420,128,0,368929:0:0:0:0:
182,192,368929,128,0,369946:0:0:0:0:
256,192,369437,128,0,370708:0:0:0:0:
475,192,369946,128,0,370708:0:0:0:0:
329,192,369946,128,0,370708:0:0:0:0:
36,192,370454,128,0,371979:0:0:0:0:
475,192,370963,128,0,371217:0:0:0:0:
182,192,370963,128,0,371979:0:0:0:0:
402,192,371217,128,0,371471:0:0:0:0:
475,192,371471,128,0,371979:0:0:0:0:
329,192,371471,128,0,371979:0:0:0:0:
402,192,371979,128,0,372742:0:0:0:0:
256,192,371979,128,0,373505:0:0:0:0:
475,192,372488,128,0,372996:0:0:0:0:
329,192,372488,128,0,372996:0:0:0:0:
182,192,372488,128,0,373505:0:0:0:0:
402,192,372996,128,0,373505:0:0:0:0:
109,192,372996,128,0,373505:0:0:0:0:
36,192,373251,128,0,373505:0:0:0:0:
329,192,373505,128,0,374522:0:0:0:0:
36,192,374013,128,0,374268:0:0:0:0:
402,192,374013,128,0,374776:0:0:0:0:
109,192,374268,128,0,374522:0:0:0:0:
36,192,374522,128,0,374776:0:0:0:0:
475,192,374522,128,0,375030:0:0:0:0:
182,192,375030,128,0,376047:0:0:0:0:
109,192,375539,128,0,376556:0:0:0:0:
36,192,376047,128,0,376556:0:0:0:0:
256,192,376556,128,0,377573:0:0:0:0:
475,192,377064,128,0,377318:0:0:0:0:
182,192,377064,128,0,377827:0:0:0:0:
402,192,377318,128,0,377573:0:0:0:0:
475,192,377573,128,0,377827:0:0:0:0:
329,192,377573,128,0,378081:0:0:0:0:
402,192,378081,128,0,378335:0:0:0:0:
256,192,378081,128,0,379607:0:0:0:0:
36,192,378590,128,0,378844:0:0:0:0:
329,192,378590,128,0,379607:0:0:0:0:
109,192,379098,128,0,379352:0:0:0:0:
182,192,379098,128,0,379607:0:0:0:0:
475,192,379607,128,0,381132:0:0:0:0:
36,192,380115,128,0,380369:0:0:0:0:
329,192,380115,128,0,381132:0:0:0:0:
109,192,380369,128,0,380624:0:0:0:0:
36,192,380624,128,0,380878:0:0:0:0:
402,192,380624,128,0,380878:0:0:0:0:
36,192,381132,128,0,382657:0:0:0:0:
182,192,381640,128,0,382657:0:0:0:0:
109,192,382149,128,0,382403:0:0:0:0:
475,192,382657,128,0,384183:0:0:0:0:
256,192,383166,128,0,383420:0:0:0:0:
329,192,383166,128,0,384183:0:0:0:0:
182,192,383420,128,0,383674:0:0:0:0:
256,192,383674,128,0,383929:0:0:0:0:
402,192,383674,128,0,383929:0:0:0:0:
109,192,384183,128,0,386217:0:0:0:0:
475,192,384691,128,0,384946:0:0:0:0:
256,192,384691,128,0,385708:0:0:0:0:
402,192,384946,128,0,385200:0:0:0:0:
329,192,385200,128,0,385454:0:0:0:0:
36,192,385200,128,0,386725:0:0:0:0:
402,192,385454,128,0,385708:0:0:0:0:
182,192,385454,128,0,386725:0:0:0:0:
475,192,385708,128,0,388251:0:0:0:0:
329,192,385708,128,0,387234:0:0:0:0:
256,192,386217,128,0,386725:0:0:0:0:
402,192,386725,128,0,387742:0:0:0:0:
109,192,386725,128,0,387234:0:0:0:0:
182,192,387234,128,0,387742:0:0:0:0:
36,192,387234,128,0,387742:0:0:0:0:
256,192,387234,128,0,387742:0:0:0:0:
329,192,387742,128,0,388251:0:0:0:0:
109,192,387742,128,0,388251:0:0:0:0:
256,192,388251,128,0,388505:0:0:0:0:
36,192,388251,128,0,388505:0:0:0:0:
109,192,388505,128,0,389013:0:0:0:0:
329,192,388505,128,0,389013:0:0:0:0:
182,192,388759,128,0,389013:0:0:0:0:
402,192,388759,128,0,389013:0:0:0:0:
36,192,388759,128,0,389776:0:0:0:0:
256,192,388759,128,0,389776:0:0:0:0:
109,192,389268,128,0,389776:0:0:0:0:
182,192,389776,128,0,390030:0:0:0:0:
329,192,389776,128,0,390285:0:0:0:0:
475,192,389776,128,0,390285:0:0:0:0:
36,192,390285,128,0,391302:0:0:0:0:
182,192,390285,128,0,391302:0:0:0:0:
329,192,390793,128,0,391302:0:0:0:0:
402,192,391302,128,0,391810:0:0:0:0:
256,192,391302,128,0,391556:0:0:0:0:
475,192,391810,128,0,392573:0:0:0:0:
256,192,391810,128,0,394607:0:0:0:0:
109,192,391810,128,0,394607:0:0:0:0:
402,192,392318,128,0,392827:0:0:0:0:
475,192,392827,128,0,393844:0:0:0:0:
329,192,392827,1,0,0:0:0:0:
329,192,393081,128,0,393844:0:0:0:0:
182,192,393081,1,0,0:0:0:0:
36,192,393335,128,0,394352:0:0:0:0:
182,192,393335,128,0,394352:0:0:0:0:
402,192,393844,128,0,394352:0:0:0:0:
475,192,394352,128,0,394861:0:0:0:0:
329,192,394352,128,0,394861:0:0:0:0:
402,192,394861,128,0,395369:0:0:0:0:
36,192,394861,128,0,396386:0:0:0:0:
182,192,394861,128,0,396386:0:0:0:0:
329,192,395115,128,0,395878:0:0:0:0:
109,192,395115,128,0,397912:0:0:0:0:
475,192,395369,128,0,395878:0:0:0:0:
256,192,395878,128,0,396132:0:0:0:0:
329,192,396132,128,0,396895:0:0:0:0:
475,192,396132,128,0,396895:0:0:0:0:
256,192,396386,128,0,396640:0:0:0:0:
402,192,396386,128,0,396895:0:0:0:0:
256,192,396895,128,0,397149:0:0:0:0:
182,192,397149,128,0,397403:0:0:0:0:
402,192,397403,128,0,397657:0:0:0:0:
256,192,397403,128,0,397657:0:0:0:0:
329,192,397657,128,0,397912:0:0:0:0:
36,192,397912,128,0,398166:0:0:0:0:
402,192,397912,128,0,398166:0:0:0:0:
182,192,397912,128,0,398420:0:0:0:0:
475,192,397912,128,0,399437:0:0:0:0:
256,192,397912,128,0,400963:0:0:0:0:
109,192,398420,128,0,398674:0:0:0:0:
329,192,398420,128,0,398674:0:0:0:0:
36,192,398420,128,0,398674:0:0:0:0:
402,192,398420,128,0,398674:0:0:0:0:
182,192,398929,128,0,399183:0:0:0:0:
36,192,398929,128,0,399183:0:0:0:0:
402,192,398929,128,0,399183:0:0:0:0:
329,192,398929,128,0,399946:0:0:0:0:
36,192,399437,128,0,399691:0:0:0:0:
182,192,399437,128,0,399691:0:0:0:0:
109,192,399437,128,0,400454:0:0:0:0:
402,192,399437,128,0,399946:0:0:0:0:
182,192,399946,128,0,400454:0:0:0:0:
36,192,399946,128,0,400454:0:0:0:0:
475,192,400454,128,0,400963:0:0:0:0:
329,192,400454,128,0,400963:0:0:0:0:
182,192,400963,128,0,401725:0:0:0:0:
402,192,400963,128,0,401725:0:0:0:0:
36,192,400963,128,0,401471:0:0:0:0:
109,192,400963,128,0,401471:0:0:0:0:
329,192,401471,128,0,401725:0:0:0:0:
475,192,401471,1,0,0:0:0:0:
109,192,401979,128,0,402234:0:0:0:0:
402,192,401979,128,0,402234:0:0:0:0:
36,192,401979,128,0,402234:0:0:0:0:
475,192,401979,128,0,402234:0:0:0:0:
256,192,402234,128,0,402488:0:0:0:0:
36,192,402488,128,0,402742:0:0:0:0:
402,192,402488,128,0,402742:0:0:0:0:
475,192,402488,128,0,402742:0:0:0:0:
182,192,402488,128,0,403505:0:0:0:0:
329,192,402488,128,0,403505:0:0:0:0:
109,192,402488,128,0,402742:0:0:0:0:
256,192,402996,128,0,403251:0:0:0:0:
402,192,403505,128,0,404268:0:0:0:0:
256,192,403505,128,0,404268:0:0:0:0:
475,192,404013,128,0,405539:0:0:0:0:
109,192,404013,128,0,404522:0:0:0:0:
329,192,404013,128,0,405539:0:0:0:0:
36,192,404013,128,0,405030:0:0:0:0:
182,192,404013,128,0,405030:0:0:0:0:
256,192,404522,128,0,405030:0:0:0:0:
402,192,405030,128,0,405539:0:0:0:0:
36,192,405539,128,0,406047:0:0:0:0:
256,192,405539,128,0,406556:0:0:0:0:
109,192,405539,128,0,406556:0:0:0:0:
475,192,406047,128,0,406556:0:0:0:0:
402,192,406556,128,0,406810:0:0:0:0:
182,192,406556,128,0,407064:0:0:0:0:
109,192,406810,128,0,407318:0:0:0:0:
329,192,406810,1,0,0:0:0:0:
402,192,407064,128,0,407318:0:0:0:0:
36,192,407064,128,0,407573:0:0:0:0:
329,192,407064,128,0,408081:0:0:0:0:
475,192,407573,128,0,408081:0:0:0:0:
182,192,407573,128,0,408081:0:0:0:0:
402,192,408081,128,0,408335:0:0:0:0:
109,192,408081,128,0,408335:0:0:0:0:
36,192,408081,128,0,408590:0:0:0:0:
256,192,408081,128,0,410115:0:0:0:0:
475,192,408590,128,0,408844:0:0:0:0:
329,192,408590,128,0,408844:0:0:0:0:
109,192,408590,128,0,410115:0:0:0:0:
402,192,408590,128,0,410115:0:0:0:0:
182,192,409098,128,0,409352:0:0:0:0:
36,192,409098,128,0,409607:0:0:0:0:
329,192,409607,128,0,409861:0:0:0:0:
475,192,409607,128,0,410115:0:0:0:0:
36,192,410115,1,0,0:0:0:0:
182,192,410115,1,0,0:0:0:0:
329,192,410624,1,0,0:0:0:0:
402,192,410624,128,0,410878:0:0:0:0:
475,192,410624,128,0,410878:0:0:0:0:
256,192,410878,1,0,0:0:0:0:
329,192,411132,1,0,0:0:0:0:
402,192,411132,128,0,411386:0:0:0:0:
475,192,411132,128,0,411386:0:0:0:0:
36,192,411640,128,0,412657:0:0:0:0:
109,192,411895,128,0,412912:0:0:0:0:
182,192,412149,128,0,413166:0:0:0:0:
256,192,412403,128,0,413166:0:0:0:0:
329,192,412657,128,0,413166:0:0:0:0:
182,192,413674,1,0,0:0:0:0:
109,192,413674,128,0,413929:0:0:0:0:
36,192,413674,128,0,413929:0:0:0:0:
256,192,413929,1,0,0:0:0:0:
182,192,414183,1,0,0:0:0:0:
109,192,414183,128,0,414437:0:0:0:0:
36,192,414183,128,0,414437:0:0:0:0:
475,192,414691,128,0,415708:0:0:0:0:
402,192,414946,128,0,415708:0:0:0:0:
329,192,415200,128,0,415963:0:0:0:0:
256,192,415454,128,0,415963:0:0:0:0:
109,192,415708,128,0,416217:0:0:0:0:
36,192,415708,128,0,416217:0:0:0:0:
182,192,415708,128,0,416217:0:0:0:0:
329,192,416725,1,0,0:0:0:0:
402,192,416725,128,0,416979:0:0:0:0:
475,192,416725,128,0,416979:0:0:0:0:
256,192,416979,1,0,0:0:0:0:
329,192,417234,1,0,0:0:0:0:
402,192,417234,128,0,417488:0:0:0:0:
475,192,417234,128,0,417488:0:0:0:0:
36,192,417742,128,0,418759:0:0:0:0:
109,192,417996,128,0,419013:0:0:0:0:
475,192,418251,128,0,418378:0:0:0:0:
182,192,418251,128,0,419268:0:0:0:0:
256,192,418505,128,0,419268:0:0:0:0:
475,192,418759,128,0,418886:0:0:0:0:
329,192,418759,128,0,419268:0:0:0:0:
182,192,419776,1,0,0:0:0:0:
109,192,419776,128,0,420030:0:0:0:0:
36,192,419776,128,0,420030:0:0:0:0:
256,192,420030,1,0,0:0:0:0:
109,192,420285,128,0,420539:0:0:0:0:
36,192,420285,128,0,420539:0:0:0:0:
182,192,420285,1,0,0:0:0:0:
475,192,420793,128,0,421810:0:0:0:0:
402,192,421047,128,0,422064:0:0:0:0:
329,192,421301,128,0,422318:0:0:0:0:
256,192,421556,128,0,422318:0:0:0:0:
182,192,421810,128,0,422318:0:0:0:0:
109,192,422318,1,0,0:0:0:0:
36,192,422318,1,0,0:0:0:0:
329,192,422827,1,0,0:0:0:0:
402,192,422827,128,0,423081:0:0:0:0:
475,192,422827,128,0,423081:0:0:0:0:
256,192,423081,1,0,0:0:0:0:
329,192,423335,1,0,0:0:0:0:
402,192,423335,128,0,423590:0:0:0:0:
475,192,423335,128,0,423590:0:0:0:0:
36,192,423844,128,0,424352:0:0:0:0:
109,192,424098,128,0,424607:0:0:0:0:
475,192,424352,128,0,424861:0:0:0:0:
182,192,424352,128,0,424861:0:0:0:0:
402,192,424607,128,0,425115:0:0:0:0:
36,192,424607,128,0,425115:0:0:0:0:
329,192,424861,128,0,425369:0:0:0:0:
109,192,424861,128,0,425369:0:0:0:0:
475,192,425115,128,0,425624:0:0:0:0:
402,192,425369,128,0,425878:0:0:0:0:
256,192,425369,128,0,425878:0:0:0:0:
36,192,425624,128,0,426132:0:0:0:0:
109,192,425878,128,0,426386:0:0:0:0:
182,192,426132,128,0,426640:0:0:0:0:
256,192,426386,128,0,426895:0:0:0:0:
402,192,426386,128,0,426895:0:0:0:0:
109,192,426640,128,0,427149:0:0:0:0:
329,192,426640,128,0,427149:0:0:0:0:
475,192,426895,128,0,427403:0:0:0:0:
36,192,426895,128,0,427403:0:0:0:0:
402,192,427149,128,0,427657:0:0:0:0:
182,192,427149,128,0,427657:0:0:0:0:
329,192,427403,128,0,427912:0:0:0:0:
109,192,427403,128,0,427912:0:0:0:0:
36,192,427657,128,0,428166:0:0:0:0:
402,192,427912,128,0,428420:0:0:0:0:
182,192,427912,128,0,428420:0:0:0:0:
329,192,428166,128,0,428674:0:0:0:0:
256,192,428420,128,0,428929:0:0:0:0:
475,192,428420,128,0,428929:0:0:0:0:
182,192,428674,128,0,429183:0:0:0:0:
402,192,428674,128,0,429183:0:0:0:0:
109,192,428929,128,0,429437:0:0:0:0:
329,192,428929,128,0,429437:0:0:0:0:
36,192,429183,128,0,429691:0:0:0:0:
256,192,429183,128,0,429691:0:0:0:0:
475,192,429437,128,0,429946:0:0:0:0:
182,192,429437,128,0,429946:0:0:0:0:
402,192,429691,128,0,430200:0:0:0:0:
329,192,429946,128,0,430454:0:0:0:0:
109,192,429946,128,0,430454:0:0:0:0:
182,192,430200,128,0,430708:0:0:0:0:
256,192,430454,128,0,430963:0:0:0:0:
329,192,430708,128,0,431217:0:0:0:0:
182,192,430963,128,0,431471:0:0:0:0:
402,192,430963,128,0,431471:0:0:0:0:
109,192,431217,128,0,431725:0:0:0:0:
329,192,431471,128,0,431979:0:0:0:0:
36,192,431471,128,0,431979:0:0:0:0:
402,192,431725,128,0,432234:0:0:0:0:
182,192,431725,128,0,432234:0:0:0:0:
475,192,431979,128,0,432488:0:0:0:0:
256,192,431979,128,0,432488:0:0:0:0:
109,192,432234,128,0,432742:0:0:0:0:
329,192,432234,128,0,432742:0:0:0:0:
36,192,432488,128,0,432996:0:0:0:0:
182,192,432488,128,0,432996:0:0:0:0:
475,192,432742,128,0,433251:0:0:0:0:
109,192,432996,128,0,433505:0:0:0:0:
402,192,432996,128,0,433505:0:0:0:0:
182,192,433251,128,0,433759:0:0:0:0:
329,192,433505,128,0,434013:0:0:0:0:
36,192,433505,128,0,434013:0:0:0:0:
256,192,433759,128,0,434268:0:0:0:0:
109,192,433759,128,0,434268:0:0:0:0:
402,192,434013,128,0,434522:0:0:0:0:
182,192,434013,128,0,434522:0:0:0:0:
329,192,434268,128,0,434776:0:0:0:0:
36,192,434522,128,0,434776:0:0:0:0:
109,192,434522,128,0,434776:0:0:0:0:
475,192,434522,128,0,435030:0:0:0:0:
256,192,434522,128,0,437064:0:0:0:0:
182,192,435030,128,0,435157:0:0:0:0:
36,192,435030,128,0,435285:0:0:0:0:
109,192,435030,128,0,435285:0:0:0:0:
402,192,435539,128,0,435666:0:0:0:0:
36,192,435539,128,0,435793:0:0:0:0:
109,192,435539,128,0,435793:0:0:0:0:
475,192,436047,128,0,436174:0:0:0:0:
182,192,436047,128,0,436174:0:0:0:0:
36,192,436047,128,0,436556:0:0:0:0:
329,192,436047,128,0,436174:0:0:0:0:
475,192,436556,128,0,436683:0:0:0:0:
402,192,436556,128,0,436683:0:0:0:0:
109,192,436556,128,0,437064:0:0:0:0:
475,192,437064,128,0,437191:0:0:0:0:
329,192,437064,128,0,437318:0:0:0:0:
182,192,437064,128,0,437318:0:0:0:0:
402,192,437318,128,0,437446:0:0:0:0:
329,192,437573,128,0,437700:0:0:0:0:
182,192,437573,128,0,437700:0:0:0:0:
475,192,437573,128,0,438208:0:0:0:0:
109,192,437573,128,0,437827:0:0:0:0:
36,192,437573,128,0,437827:0:0:0:0:
256,192,437573,128,0,438335:0:0:0:0:
109,192,438081,128,0,438208:0:0:0:0:
402,192,438081,128,0,438208:0:0:0:0:
36,192,438081,128,0,438208:0:0:0:0:
109,192,438590,128,0,438971:0:0:0:0:
402,192,438590,128,0,438971:0:0:0:0:
475,192,438844,128,0,440115:0:0:0:0:
36,192,438844,128,0,440115:0:0:0:0:
402,192,439098,128,0,439225:0:0:0:0:
256,192,439098,128,0,439607:0:0:0:0:
109,192,439098,128,0,439225:0:0:0:0:
182,192,439098,128,0,440115:0:0:0:0:
329,192,439098,128,0,440115:0:0:0:0:
402,192,439607,128,0,439734:0:0:0:0:
109,192,439607,128,0,439734:0:0:0:0:
256,192,440115,128,0,440369:0:0:0:0:
109,192,440115,128,0,440624:0:0:0:0:
402,192,440115,128,0,440624:0:0:0:0:
475,192,440624,128,0,441640:0:0:0:0:
36,192,440624,128,0,441640:0:0:0:0:
256,192,440624,128,0,441640:0:0:0:0:
402,192,441132,128,0,441386:0:0:0:0:
109,192,441132,128,0,441386:0:0:0:0:
329,192,441640,128,0,441895:0:0:0:0:
182,192,441640,128,0,441895:0:0:0:0:
256,192,441895,128,0,442149:0:0:0:0:
109,192,442149,128,0,443674:0:0:0:0:
402,192,442149,128,0,443674:0:0:0:0:
182,192,442149,128,0,442657:0:0:0:0:
329,192,442149,128,0,442657:0:0:0:0:
256,192,442657,128,0,442912:0:0:0:0:
36,192,443166,128,0,443293:0:0:0:0:
475,192,443166,128,0,443293:0:0:0:0:
182,192,443166,128,0,443420:0:0:0:0:
329,192,443166,128,0,443420:0:0:0:0:
182,192,443674,128,0,443801:0:0:0:0:
36,192,443674,128,0,444183:0:0:0:0:
475,192,443674,128,0,445200:0:0:0:0:
329,192,443674,128,0,445200:0:0:0:0:
402,192,443929,128,0,445200:0:0:0:0:
109,192,444183,128,0,444691:0:0:0:0:
256,192,444691,128,0,444946:0:0:0:0:
36,192,444946,128,0,445708:0:0:0:0:
182,192,444946,128,0,445708:0:0:0:0:
256,192,445200,128,0,445963:0:0:0:0:
109,192,445200,128,0,445708:0:0:0:0:
329,192,445708,128,0,445963:0:0:0:0:
475,192,445708,128,0,445963:0:0:0:0:
182,192,445963,128,0,446471:0:0:0:0:
402,192,445963,128,0,446217:0:0:0:0:
109,192,446217,128,0,446725:0:0:0:0:
329,192,446217,128,0,446471:0:0:0:0:
36,192,446471,128,0,446979:0:0:0:0:
402,192,446471,128,0,446725:0:0:0:0:
256,192,446471,128,0,446725:0:0:0:0:
329,192,446725,128,0,446979:0:0:0:0:
475,192,446725,128,0,447742:0:0:0:0:
182,192,446725,128,0,448251:0:0:0:0:
109,192,447234,128,0,447742:0:0:0:0:
256,192,447742,128,0,447869:0:0:0:0:
402,192,447742,128,0,447996:0:0:0:0:
36,192,448251,128,0,450793:0:0:0:0:
402,192,448251,128,0,449268:0:0:0:0:
329,192,448505,128,0,449522:0:0:0:0:
256,192,448759,128,0,449776:0:0:0:0:
182,192,449013,128,0,449776:0:0:0:0:
109,192,449268,128,0,449776:0:0:0:0:
402,192,449776,128,0,449903:0:0:0:0:
329,192,449776,128,0,449903:0:0:0:0:
475,192,449776,128,0,452318:0:0:0:0:
109,192,450285,128,0,450539:0:0:0:0:
109,192,450793,1,0,0:0:0:0:
182,192,450793,128,0,451301:0:0:0:0:
402,192,450793,128,0,452318:0:0:0:0:
329,192,450793,1,0,0:0:0:0:
109,192,451047,128,0,452318:0:0:0:0:
256,192,451047,1,0,0:0:0:0:
329,192,451047,128,0,452318:0:0:0:0:
36,192,451301,128,0,451429:0:0:0:0:
256,192,451301,128,0,452318:0:0:0:0:
182,192,451810,128,0,451937:0:0:0:0:
36,192,451810,128,0,452318:0:0:0:0:
182,192,452318,128,0,452827:0:0:0:0:
402,192,452827,128,0,453844:0:0:0:0:
109,192,452827,128,0,453844:0:0:0:0:
256,192,452827,128,0,454352:0:0:0:0:
329,192,453844,128,0,453971:0:0:0:0:
182,192,453844,128,0,453971:0:0:0:0:
109,192,454352,128,0,454607:0:0:0:0:
402,192,454352,128,0,454607:0:0:0:0:
182,192,454352,128,0,455624:0:0:0:0:
329,192,454352,128,0,455624:0:0:0:0:
475,192,454861,128,0,455369:0:0:0:0:
36,192,454861,128,0,455369:0:0:0:0:
402,192,455115,128,0,455624:0:0:0:0:
109,192,455115,128,0,455624:0:0:0:0:
256,192,455369,128,0,455878:0:0:0:0:
475,192,455624,128,0,456132:0:0:0:0:
36,192,455624,128,0,456132:0:0:0:0:
182,192,455878,128,0,456386:0:0:0:0:
329,192,455878,128,0,456386:0:0:0:0:
109,192,455878,128,0,457149:0:0:0:0:
402,192,455878,128,0,457403:0:0:0:0:
36,192,456386,128,0,456513:0:0:0:0:
256,192,456386,128,0,458420:0:0:0:0:
329,192,456895,128,0,457022:0:0:0:0:
182,192,456895,128,0,457022:0:0:0:0:
36,192,457149,128,0,457403:0:0:0:0:
475,192,457403,128,0,457912:0:0:0:0:
329,192,457403,128,0,457530:0:0:0:0:
182,192,457403,128,0,457530:0:0:0:0:
402,192,457912,128,0,458420:0:0:0:0:
182,192,458420,128,0,458674:0:0:0:0:
329,192,458420,128,0,458674:0:0:0:0:
109,192,458420,128,0,458929:0:0:0:0:
256,192,458929,128,0,459056:0:0:0:0:
36,192,458929,128,0,459946:0:0:0:0:
109,192,459437,128,0,460200:0:0:0:0:
329,192,459437,1,0,0:0:0:0:
475,192,459437,128,0,459691:0:0:0:0:
402,192,459437,128,0,459691:0:0:0:0:
256,192,459691,1,0,0:0:0:0:
182,192,459946,128,0,460454:0:0:0:0:
329,192,459946,1,0,0:0:0:0:
475,192,459946,128,0,460200:0:0:0:0:
402,192,459946,128,0,460200:0:0:0:0:
256,192,460454,128,0,460581:0:0:0:0:
475,192,460454,128,0,461471:0:0:0:0:
402,192,460963,128,0,461725:0:0:0:0:
256,192,460963,1,0,0:0:0:0:
109,192,460963,128,0,461217:0:0:0:0:
36,192,460963,128,0,461217:0:0:0:0:
329,192,461471,128,0,461979:0:0:0:0:
182,192,461471,1,0,0:0:0:0:
109,192,461471,128,0,461725:0:0:0:0:
36,192,461471,128,0,461725:0:0:0:0:
182,192,461979,128,0,462107:0:0:0:0:
36,192,461979,128,0,462996:0:0:0:0:
109,192,462488,128,0,463251:0:0:0:0:
329,192,462488,1,0,0:0:0:0:
475,192,462488,128,0,462742:0:0:0:0:
402,192,462488,128,0,462742:0:0:0:0:
256,192,462742,1,0,0:0:0:0:
182,192,462996,128,0,463505:0:0:0:0:
329,192,462996,1,0,0:0:0:0:
475,192,462996,128,0,463251:0:0:0:0:
402,192,462996,128,0,463251:0:0:0:0:
329,192,463505,128,0,463632:0:0:0:0:
402,192,463505,128,0,463632:0:0:0:0:
475,192,463505,128,0,464522:0:0:0:0:
256,192,463505,128,0,464522:0:0:0:0:
402,192,464013,128,0,464522:0:0:0:0:
182,192,464013,1,0,0:0:0:0:
109,192,464013,128,0,464268:0:0:0:0:
36,192,464013,128,0,464268:0:0:0:0:
182,192,464522,1,0,0:0:0:0:
329,192,464522,1,0,0:0:0:0:
109,192,464522,128,0,464776:0:0:0:0:
36,192,464522,128,0,464776:0:0:0:0:
402,192,465030,128,0,465157:0:0:0:0:
256,192,465030,128,0,465157:0:0:0:0:
182,192,465030,128,0,466047:0:0:0:0:
109,192,465539,128,0,466301:0:0:0:0:
329,192,465539,1,0,0:0:0:0:
475,192,465539,128,0,465793:0:0:0:0:
402,192,465539,128,0,465793:0:0:0:0:
256,192,465793,1,0,0:0:0:0:
36,192,465793,128,0,466556:0:0:0:0:
329,192,466047,1,0,0:0:0:0:
402,192,466047,128,0,466301:0:0:0:0:
475,192,466047,128,0,466301:0:0:0:0:
182,192,466556,128,0,466683:0:0:0:0:
329,192,466556,128,0,467573:0:0:0:0:
402,192,467064,128,0,467827:0:0:0:0:
256,192,467064,1,0,0:0:0:0:
109,192,467064,128,0,467318:0:0:0:0:
36,192,467064,128,0,467318:0:0:0:0:
182,192,467573,1,0,0:0:0:0:
256,192,467573,1,0,0:0:0:0:
475,192,467573,128,0,468081:0:0:0:0:
109,192,467573,128,0,467827:0:0:0:0:
36,192,467573,128,0,467827:0:0:0:0:
256,192,468081,128,0,468208:0:0:0:0:
182,192,468081,128,0,469098:0:0:0:0:
36,192,468590,128,0,469352:0:0:0:0:
329,192,468590,1,0,0:0:0:0:
475,192,468590,128,0,468844:0:0:0:0:
402,192,468590,128,0,468844:0:0:0:0:
329,192,468844,1,0,0:0:0:0:
109,192,468844,128,0,469607:0:0:0:0:
329,192,469098,1,0,0:0:0:0:
402,192,469098,128,0,469352:0:0:0:0:
475,192,469098,128,0,469352:0:0:0:0:
329,192,469607,128,0,469734:0:0:0:0:
256,192,469607,128,0,471132:0:0:0:0:
475,192,469607,128,0,471132:0:0:0:0:
402,192,470115,128,0,471132:0:0:0:0:
182,192,470115,1,0,0:0:0:0:
109,192,470115,128,0,470369:0:0:0:0:
36,192,470115,128,0,470369:0:0:0:0:
329,192,470624,128,0,471132:0:0:0:0:
182,192,470624,1,0,0:0:0:0:
109,192,470624,128,0,470878:0:0:0:0:
36,192,470624,128,0,470878:0:0:0:0:
182,192,470878,128,0,471132:0:0:0:0:
109,192,471132,128,0,471259:0:0:0:0:
36,192,471132,128,0,472149:0:0:0:0:
109,192,471640,128,0,472403:0:0:0:0:
329,192,471640,1,0,0:0:0:0:
475,192,471640,128,0,472022:0:0:0:0:
402,192,471640,128,0,472022:0:0:0:0:
256,192,471895,1,0,0:0:0:0:
182,192,472149,128,0,472657:0:0:0:0:
329,192,472149,1,0,0:0:0:0:
475,192,472149,128,0,472530:0:0:0:0:
402,192,472149,128,0,472530:0:0:0:0:
475,192,472657,128,0,473674:0:0:0:0:
256,192,473166,1,0,0:0:0:0:
329,192,473166,1,0,0:0:0:0:
402,192,473166,128,0,473929:0:0:0:0:
109,192,473166,128,0,473547:0:0:0:0:
36,192,473166,128,0,473547:0:0:0:0:
256,192,473674,1,0,0:0:0:0:
182,192,473674,1,0,0:0:0:0:
329,192,473674,128,0,474183:0:0:0:0:
109,192,473674,128,0,474056:0:0:0:0:
36,192,473674,128,0,474056:0:0:0:0:
182,192,474183,128,0,474310:0:0:0:0:
36,192,474183,128,0,475200:0:0:0:0:
109,192,474691,128,0,475454:0:0:0:0:
329,192,474691,1,0,0:0:0:0:
475,192,474691,128,0,475073:0:0:0:0:
402,192,474691,128,0,475073:0:0:0:0:
256,192,474946,1,0,0:0:0:0:
182,192,475200,128,0,475708:0:0:0:0:
329,192,475200,1,0,0:0:0:0:
475,192,475200,128,0,475581:0:0:0:0:
402,192,475200,128,0,475581:0:0:0:0:
36,192,475708,128,0,475835:0:0:0:0:
109,192,475708,128,0,475835:0:0:0:0:
475,192,475708,128,0,477234:0:0:0:0:
256,192,475708,128,0,477234:0:0:0:0:
109,192,476217,128,0,476598:0:0:0:0:
182,192,476217,1,0,0:0:0:0:
402,192,476217,128,0,477234:0:0:0:0:
36,192,476217,128,0,476598:0:0:0:0:
109,192,476725,128,0,477107:0:0:0:0:
182,192,476725,1,0,0:0:0:0:
329,192,476725,128,0,477234:0:0:0:0:
36,192,476725,128,0,477107:0:0:0:0:
182,192,477234,128,0,477361:0:0:0:0:
36,192,477234,128,0,478251:0:0:0:0:
182,192,477742,128,0,478505:0:0:0:0:
329,192,477742,1,0,0:0:0:0:
475,192,477742,128,0,477996:0:0:0:0:
402,192,477742,128,0,477996:0:0:0:0:
256,192,477996,1,0,0:0:0:0:
109,192,478251,128,0,478759:0:0:0:0:
329,192,478251,1,0,0:0:0:0:
475,192,478251,128,0,478505:0:0:0:0:
402,192,478251,128,0,478505:0:0:0:0:
256,192,478759,128,0,478886:0:0:0:0:
475,192,478759,128,0,479776:0:0:0:0:
329,192,479268,128,0,480030:0:0:0:0:
256,192,479268,1,0,0:0:0:0:
109,192,479268,128,0,479522:0:0:0:0:
36,192,479268,128,0,479522:0:0:0:0:
402,192,479776,128,0,480285:0:0:0:0:
182,192,479776,1,0,0:0:0:0:
109,192,479776,128,0,480030:0:0:0:0:
36,192,479776,128,0,480030:0:0:0:0:
256,192,480285,128,0,480412:0:0:0:0:
182,192,480285,128,0,481301:0:0:0:0:
36,192,480793,128,0,481556:0:0:0:0:
329,192,480793,1,0,0:0:0:0:
475,192,480793,128,0,481047:0:0:0:0:
402,192,480793,128,0,481047:0:0:0:0:
256,192,481047,1,0,0:0:0:0:
109,192,481301,128,0,481810:0:0:0:0:
329,192,481301,1,0,0:0:0:0:
475,192,481301,128,0,481556:0:0:0:0:
402,192,481301,128,0,481556:0:0:0:0:
256,192,481810,128,0,481937:0:0:0:0:
475,192,481810,128,0,482318:0:0:0:0:
256,192,482318,128,0,482446:0:0:0:0:
109,192,482318,128,0,482827:0:0:0:0:
402,192,482318,128,0,482827:0:0:0:0:
329,192,482573,128,0,483335:0:0:0:0:
182,192,482573,128,0,483335:0:0:0:0:
475,192,482827,1,0,0:0:0:0:
36,192,482827,1,0,0:0:0:0:
402,192,483081,1,0,0:0:0:0:
109,192,483081,1,0,0:0:0:0:
256,192,483081,128,0,483844:0:0:0:0:
36,192,483335,128,0,484861:0:0:0:0:
475,192,483335,128,0,483844:0:0:0:0:
109,192,483335,128,0,486132:0:0:0:0:
402,192,483335,128,0,486132:0:0:0:0:
329,192,483844,1,0,0:0:0:0:
182,192,483844,128,0,484861:0:0:0:0:
475,192,484352,1,0,0:0:0:0:
256,192,484352,128,0,485369:0:0:0:0:
329,192,484352,128,0,484861:0:0:0:0:
475,192,484861,128,0,486386:0:0:0:0:
182,192,485369,1,0,0:0:0:0:
329,192,485369,128,0,486386:0:0:0:0:
36,192,485878,1,0,0:0:0:0:
182,192,485878,128,0,486386:0:0:0:0:
256,192,486132,1,0,0:0:0:0:
109,192,486386,1,0,0:0:0:0:
402,192,486386,1,0,0:0:0:0:
256,192,486386,128,0,487403:0:0:0:0:
36,192,486386,128,0,487912:0:0:0:0:
402,192,486895,1,0,0:0:0:0:
109,192,486895,128,0,487912:0:0:0:0:
329,192,487403,1,0,0:0:0:0:
182,192,487403,128,0,487912:0:0:0:0:
402,192,487403,128,0,487912:0:0:0:0:
329,192,487912,1,0,0:0:0:0:
475,192,487912,128,0,489437:0:0:0:0:
256,192,487912,128,0,488929:0:0:0:0:
182,192,488420,1,0,0:0:0:0:
402,192,488420,128,0,489437:0:0:0:0:
109,192,488929,128,0,489056:0:0:0:0:
182,192,488929,128,0,489056:0:0:0:0:
329,192,488929,128,0,489437:0:0:0:0:
36,192,488929,128,0,489056:0:0:0:0:
182,192,489437,1,0,0:0:0:0:
256,192,489437,1,0,0:0:0:0:
109,192,489437,128,0,490708:0:0:0:0:
36,192,489437,128,0,490963:0:0:0:0:
329,192,489946,1,0,0:0:0:0:
182,192,489946,128,0,490963:0:0:0:0:
402,192,490454,1,0,0:0:0:0:
256,192,490454,1,0,0:0:0:0:
475,192,490454,128,0,490963:0:0:0:0:
329,192,490708,1,0,0:0:0:0:
329,192,490963,1,0,0:0:0:0:
109,192,490963,1,0,0:0:0:0:
256,192,490963,128,0,492234:0:0:0:0:
402,192,490963,128,0,492488:0:0:0:0:
182,192,491471,128,0,492488:0:0:0:0:
109,192,491979,128,0,492488:0:0:0:0:
36,192,491979,128,0,492488:0:0:0:0:
256,192,492488,128,0,492615:0:0:0:0:
329,192,492488,128,0,494013:0:0:0:0:
475,192,492488,128,0,494013:0:0:0:0:
109,192,492742,128,0,493759:0:0:0:0:
402,192,492742,128,0,494013:0:0:0:0:
182,192,492996,128,0,493124:0:0:0:0:
256,192,493505,128,0,493632:0:0:0:0:
36,192,493759,128,0,494522:0:0:0:0:
182,192,493759,128,0,494522:0:0:0:0:
256,192,494013,128,0,494522:0:0:0:0:
109,192,494013,128,0,494522:0:0:0:0:
475,192,494522,128,0,498590:0:0:0:0:
329,192,494776,128,0,498590:0:0:0:0:
402,192,495030,128,0,498590:0:0:0:0:
182,192,495285,128,0,498590:0:0:0:0:
256,192,495539,128,0,498590:0:0:0:0:
