osu file format v14

[General]
AudioFilename: LN0.mp3
AudioLeadIn: 0
PreviewTime: 1088
Countdown: 0
SampleSet: Soft
StackLeniency: 0.7
Mode: 3
LetterboxInBreaks: 0
SpecialStyle: 0
WidescreenStoryboard: 0

[Editor]
DistanceSpacing: 0.9
BeatDivisor: 4
GridSize: 4
TimelineZoom: 1

[Metadata]
Title:LN Dan Phase I
TitleUnicode:LN Dan Phase I
Artist:osu!mania 7K Dan Course
ArtistUnicode:osu!mania 7K Dan Course
Creator:Jinjin
Version:0th Dan (Marathon)
Source:
Tags:tamiyasu tomoe aoba ringo crayon tulip kensuke ushio lit(var) okhap reimu instrumental renka if hitori omou namirin mawaru sora usagi kevin penkin the first layer mami kawada portamento chata dango daikazoku piano mimimememimi mr darling ddrkirby isq take it to limit silent siren yumeoi kyary pamyu harajuku iyahoi t athletic meet sound toy c-show panic holic blacky vs yooh xcross infection beast 12:30 ln
BeatmapID:966813
BeatmapSetID:450649

[Difficulty]
HPDrainRate:7
CircleSize:7
OverallDifficulty:5
ApproachRate:5
SliderMultiplier:1.4
SliderTickRate:1

[Events]
//Background and Video events
0,0,"LNDan_0.png",0,0
//Break Periods
2,97234,107455
2,217171,227098
2,297748,309784
//Storyboard Layer 0 (Background)
//Storyboard Layer 1 (Fail)
//Storyboard Layer 2 (Pass)
//Storyboard Layer 3 (Foreground)
//Storyboard Sound Samples

[TimingPoints]
7,540.540540540541,4,2,1,0,1,0
108655,857.142857142857,3,2,1,0,1,0
108655,-63.2911392405063,3,2,1,0,0,0
153815,631.578947368421,3,2,1,0,1,0
153815,-85.4700854700855,3,2,1,0,0,0
228298,666.666666666667,4,2,1,0,1,0
228298,-81.3008130081301,4,2,1,0,0,0
310984,500,3,2,1,0,1,0
310984,-107.52688172043,3,2,1,0,0,0

[HitObjects]
475,192,1358,128,0,1628:0:0:0:0:
329,192,1628,128,0,1898:0:0:0:0:
182,192,1898,128,0,2169:0:0:0:0:
256,192,2169,1,0,0:0:0:0:
475,192,2169,1,0,0:0:0:0:
36,192,2169,128,0,2439:0:0:0:0:
109,192,2439,1,0,0:0:0:0:
182,192,2574,1,0,0:0:0:0:
256,192,2709,1,0,0:0:0:0:
475,192,2709,128,0,2979:0:0:0:0:
182,192,2979,1,0,0:0:0:0:
402,192,2979,128,0,3250:0:0:0:0:
36,192,2979,1,0,0:0:0:0:
329,192,3250,128,0,4061:0:0:0:0:
36,192,3250,1,0,0:0:0:0:
182,192,3250,1,0,0:0:0:0:
109,192,3520,1,0,0:0:0:0:
182,192,3790,1,0,0:0:0:0:
475,192,3790,1,0,0:0:0:0:
109,192,4061,1,0,0:0:0:0:
36,192,4061,1,0,0:0:0:0:
475,192,4331,128,0,4601:0:0:0:0:
256,192,4331,1,0,0:0:0:0:
329,192,4331,1,0,0:0:0:0:
402,192,4601,1,0,0:0:0:0:
329,192,4736,1,0,0:0:0:0:
36,192,4871,128,0,5142:0:0:0:0:
182,192,4871,1,0,0:0:0:0:
109,192,5142,128,0,5412:0:0:0:0:
256,192,5142,1,0,0:0:0:0:
182,192,5412,128,0,5682:0:0:0:0:
329,192,5412,1,0,0:0:0:0:
475,192,5412,1,0,0:0:0:0:
256,192,5682,128,0,5952:0:0:0:0:
402,192,5682,1,0,0:0:0:0:
329,192,5952,128,0,6223:0:0:0:0:
182,192,5952,1,0,0:0:0:0:
36,192,5952,1,0,0:0:0:0:
402,192,6223,128,0,6493:0:0:0:0:
109,192,6223,1,0,0:0:0:0:
475,192,6493,128,0,6763:0:0:0:0:
182,192,6493,1,0,0:0:0:0:
329,192,6493,1,0,0:0:0:0:
256,192,6763,1,0,0:0:0:0:
109,192,7034,1,0,0:0:0:0:
402,192,7034,1,0,0:0:0:0:
182,192,7304,1,0,0:0:0:0:
329,192,7304,1,0,0:0:0:0:
256,192,7574,1,0,0:0:0:0:
475,192,7574,1,0,0:0:0:0:
36,192,7574,128,0,7844:0:0:0:0:
329,192,7844,1,0,0:0:0:0:
182,192,8115,1,0,0:0:0:0:
329,192,8385,1,0,0:0:0:0:
475,192,8655,1,0,0:0:0:0:
36,192,8655,1,0,0:0:0:0:
256,192,8655,1,0,0:0:0:0:
329,192,8925,1,0,0:0:0:0:
182,192,8925,128,0,9061:0:0:0:0:
182,192,9196,1,0,0:0:0:0:
329,192,9196,128,0,9331:0:0:0:0:
329,192,9466,1,0,0:0:0:0:
182,192,9466,128,0,9601:0:0:0:0:
182,192,9736,1,0,0:0:0:0:
329,192,9736,128,0,9871:0:0:0:0:
109,192,10007,1,0,0:0:0:0:
329,192,10007,128,0,10277:0:0:0:0:
36,192,10277,1,0,0:0:0:0:
475,192,10277,1,0,0:0:0:0:
182,192,10277,128,0,10547:0:0:0:0:
402,192,10547,128,0,10817:0:0:0:0:
109,192,10547,1,0,0:0:0:0:
475,192,10817,1,0,0:0:0:0:
36,192,10817,1,0,0:0:0:0:
182,192,10817,1,0,0:0:0:0:
256,192,10817,128,0,11088:0:0:0:0:
109,192,11088,1,0,0:0:0:0:
329,192,11088,128,0,11358:0:0:0:0:
182,192,11358,1,0,0:0:0:0:
402,192,11358,128,0,11628:0:0:0:0:
475,192,11628,1,0,0:0:0:0:
256,192,11628,128,0,11898:0:0:0:0:
109,192,11628,1,0,0:0:0:0:
402,192,11898,1,0,0:0:0:0:
182,192,11898,128,0,12169:0:0:0:0:
329,192,12169,1,0,0:0:0:0:
109,192,12169,128,0,12439:0:0:0:0:
256,192,12439,1,0,0:0:0:0:
36,192,12439,128,0,12709:0:0:0:0:
402,192,12439,1,0,0:0:0:0:
329,192,12709,1,0,0:0:0:0:
475,192,12709,128,0,12979:0:0:0:0:
256,192,12979,1,0,0:0:0:0:
402,192,12979,128,0,13250:0:0:0:0:
109,192,12979,1,0,0:0:0:0:
182,192,13250,1,0,0:0:0:0:
329,192,13250,128,0,13520:0:0:0:0:
109,192,13520,1,0,0:0:0:0:
256,192,13520,128,0,13790:0:0:0:0:
36,192,13790,1,0,0:0:0:0:
182,192,13790,128,0,14061:0:0:0:0:
402,192,13790,1,0,0:0:0:0:
109,192,14061,128,0,14601:0:0:0:0:
329,192,14061,1,0,0:0:0:0:
402,192,14331,1,0,0:0:0:0:
475,192,14601,1,0,0:0:0:0:
256,192,14601,128,0,14871:0:0:0:0:
329,192,14601,1,0,0:0:0:0:
402,192,14871,1,0,0:0:0:0:
475,192,15142,1,0,0:0:0:0:
256,192,15142,128,0,15412:0:0:0:0:
36,192,15142,1,0,0:0:0:0:
182,192,15412,128,0,15682:0:0:0:0:
402,192,15412,1,0,0:0:0:0:
109,192,15682,128,0,15952:0:0:0:0:
329,192,15682,1,0,0:0:0:0:
402,192,15952,1,0,0:0:0:0:
36,192,15952,1,0,0:0:0:0:
256,192,15952,128,0,16223:0:0:0:0:
329,192,16223,128,0,16493:0:0:0:0:
109,192,16223,1,0,0:0:0:0:
402,192,16493,128,0,16763:0:0:0:0:
182,192,16493,1,0,0:0:0:0:
475,192,16763,128,0,17034:0:0:0:0:
109,192,16763,1,0,0:0:0:0:
256,192,16763,1,0,0:0:0:0:
36,192,17034,128,0,17304:0:0:0:0:
182,192,17034,1,0,0:0:0:0:
109,192,17304,128,0,17574:0:0:0:0:
256,192,17304,1,0,0:0:0:0:
402,192,17304,1,0,0:0:0:0:
329,192,17574,1,0,0:0:0:0:
182,192,17574,128,0,17844:0:0:0:0:
256,192,17844,128,0,18115:0:0:0:0:
36,192,17844,1,0,0:0:0:0:
329,192,18115,128,0,18385:0:0:0:0:
475,192,18115,1,0,0:0:0:0:
109,192,18115,1,0,0:0:0:0:
402,192,18385,128,0,18925:0:0:0:0:
182,192,18385,1,0,0:0:0:0:
109,192,18655,1,0,0:0:0:0:
36,192,18925,1,0,0:0:0:0:
256,192,18925,128,0,19196:0:0:0:0:
182,192,18925,1,0,0:0:0:0:
329,192,19196,1,0,0:0:0:0:
182,192,19466,1,0,0:0:0:0:
402,192,19466,1,0,0:0:0:0:
475,192,19466,128,0,20007:0:0:0:0:
109,192,19736,1,0,0:0:0:0:
36,192,20007,1,0,0:0:0:0:
256,192,20007,128,0,20277:0:0:0:0:
109,192,20277,1,0,0:0:0:0:
329,192,20277,128,0,20547:0:0:0:0:
475,192,20277,1,0,0:0:0:0:
182,192,20547,1,0,0:0:0:0:
402,192,20547,128,0,21088:0:0:0:0:
256,192,20817,1,0,0:0:0:0:
182,192,21088,1,0,0:0:0:0:
36,192,21088,128,0,21358:0:0:0:0:
329,192,21088,1,0,0:0:0:0:
256,192,21358,1,0,0:0:0:0:
109,192,21358,128,0,21628:0:0:0:0:
329,192,21628,1,0,0:0:0:0:
182,192,21628,128,0,21898:0:0:0:0:
475,192,21628,1,0,0:0:0:0:
402,192,21898,1,0,0:0:0:0:
256,192,21898,128,0,22169:0:0:0:0:
329,192,22169,128,0,22439:0:0:0:0:
36,192,22169,1,0,0:0:0:0:
256,192,22439,1,0,0:0:0:0:
402,192,22439,128,0,22709:0:0:0:0:
109,192,22439,1,0,0:0:0:0:
182,192,22709,1,0,0:0:0:0:
475,192,22709,128,0,23250:0:0:0:0:
256,192,22979,1,0,0:0:0:0:
329,192,23250,1,0,0:0:0:0:
182,192,23250,1,0,0:0:0:0:
402,192,23520,1,0,0:0:0:0:
109,192,23520,1,0,0:0:0:0:
475,192,23790,1,0,0:0:0:0:
256,192,23790,1,0,0:0:0:0:
36,192,23790,1,0,0:0:0:0:
256,192,24061,1,0,0:0:0:0:
256,192,24331,1,0,0:0:0:0:
329,192,24601,1,0,0:0:0:0:
182,192,24601,1,0,0:0:0:0:
402,192,24871,128,0,25142:0:0:0:0:
36,192,24871,1,0,0:0:0:0:
475,192,24871,1,0,0:0:0:0:
329,192,25142,128,0,25412:0:0:0:0:
109,192,25142,1,0,0:0:0:0:
256,192,25412,128,0,25682:0:0:0:0:
36,192,25412,1,0,0:0:0:0:
182,192,25682,128,0,25952:0:0:0:0:
402,192,25682,1,0,0:0:0:0:
475,192,25682,1,0,0:0:0:0:
36,192,25952,1,0,0:0:0:0:
329,192,25952,1,0,0:0:0:0:
256,192,26223,1,0,0:0:0:0:
402,192,26223,1,0,0:0:0:0:
475,192,26493,1,0,0:0:0:0:
329,192,26493,1,0,0:0:0:0:
36,192,26493,128,0,26763:0:0:0:0:
256,192,26763,1,0,0:0:0:0:
109,192,26763,128,0,27034:0:0:0:0:
402,192,26763,1,0,0:0:0:0:
329,192,27034,1,0,0:0:0:0:
475,192,27034,1,0,0:0:0:0:
182,192,27034,128,0,27304:0:0:0:0:
402,192,27304,1,0,0:0:0:0:
256,192,27304,1,0,0:0:0:0:
182,192,27574,1,0,0:0:0:0:
36,192,27574,1,0,0:0:0:0:
329,192,27574,1,0,0:0:0:0:
182,192,27844,1,0,0:0:0:0:
36,192,28115,1,0,0:0:0:0:
256,192,28115,1,0,0:0:0:0:
475,192,28115,128,0,28385:0:0:0:0:
329,192,28385,1,0,0:0:0:0:
402,192,28655,1,0,0:0:0:0:
36,192,28655,1,0,0:0:0:0:
182,192,28655,128,0,28925:0:0:0:0:
475,192,28925,1,0,0:0:0:0:
256,192,28925,128,0,29196:0:0:0:0:
36,192,29196,1,0,0:0:0:0:
329,192,29196,128,0,29466:0:0:0:0:
182,192,29196,1,0,0:0:0:0:
109,192,29466,1,0,0:0:0:0:
402,192,29466,128,0,29736:0:0:0:0:
256,192,29466,1,0,0:0:0:0:
182,192,29736,1,0,0:0:0:0:
475,192,29736,128,0,30007:0:0:0:0:
329,192,29736,1,0,0:0:0:0:
36,192,30007,1,0,0:0:0:0:
256,192,30007,128,0,30277:0:0:0:0:
329,192,30277,1,0,0:0:0:0:
475,192,30277,1,0,0:0:0:0:
109,192,30277,128,0,30547:0:0:0:0:
402,192,30547,1,0,0:0:0:0:
182,192,30547,128,0,30817:0:0:0:0:
475,192,30817,1,0,0:0:0:0:
256,192,30817,128,0,31088:0:0:0:0:
109,192,30817,1,0,0:0:0:0:
182,192,31088,1,0,0:0:0:0:
402,192,31088,128,0,31358:0:0:0:0:
36,192,31088,1,0,0:0:0:0:
109,192,31358,1,0,0:0:0:0:
329,192,31358,128,0,31898:0:0:0:0:
256,192,31358,1,0,0:0:0:0:
182,192,31628,128,0,31898:0:0:0:0:
36,192,31628,1,0,0:0:0:0:
256,192,31898,128,0,32169:0:0:0:0:
475,192,31898,1,0,0:0:0:0:
109,192,31898,1,0,0:0:0:0:
182,192,32169,1,0,0:0:0:0:
402,192,32169,128,0,32439:0:0:0:0:
36,192,32439,128,0,34601:0:0:0:0:
256,192,32439,1,0,0:0:0:0:
329,192,32439,1,0,0:0:0:0:
402,192,32709,1,0,0:0:0:0:
182,192,32709,1,0,0:0:0:0:
329,192,32979,128,0,33250:0:0:0:0:
475,192,32979,1,0,0:0:0:0:
109,192,32979,1,0,0:0:0:0:
256,192,33250,128,0,33520:0:0:0:0:
402,192,33250,1,0,0:0:0:0:
475,192,33520,128,0,33790:0:0:0:0:
182,192,33520,1,0,0:0:0:0:
329,192,33520,1,0,0:0:0:0:
109,192,33790,1,0,0:0:0:0:
256,192,33790,1,0,0:0:0:0:
402,192,33790,128,0,34061:0:0:0:0:
475,192,34061,128,0,34331:0:0:0:0:
329,192,34061,1,0,0:0:0:0:
182,192,34061,1,0,0:0:0:0:
109,192,34331,1,0,0:0:0:0:
256,192,34331,128,0,34601:0:0:0:0:
182,192,34601,1,0,0:0:0:0:
402,192,34601,128,0,34871:0:0:0:0:
475,192,34601,1,0,0:0:0:0:
329,192,34871,128,0,35142:0:0:0:0:
109,192,34871,1,0,0:0:0:0:
402,192,35142,1,0,0:0:0:0:
256,192,35142,128,0,35412:0:0:0:0:
36,192,35142,1,0,0:0:0:0:
109,192,35412,128,0,35682:0:0:0:0:
329,192,35412,1,0,0:0:0:0:
475,192,35412,1,0,0:0:0:0:
402,192,35682,1,0,0:0:0:0:
182,192,35682,128,0,36223:0:0:0:0:
329,192,35952,1,0,0:0:0:0:
36,192,35952,128,0,36223:0:0:0:0:
475,192,35952,1,0,0:0:0:0:
256,192,36223,1,0,0:0:0:0:
109,192,36223,128,0,36493:0:0:0:0:
402,192,36223,1,0,0:0:0:0:
182,192,36493,128,0,36763:0:0:0:0:
329,192,36493,1,0,0:0:0:0:
36,192,36493,1,0,0:0:0:0:
475,192,36763,128,0,39736:0:0:0:0:
402,192,36763,1,0,0:0:0:0:
256,192,36763,128,0,37034:0:0:0:0:
109,192,37034,1,0,0:0:0:0:
182,192,37304,128,0,37574:0:0:0:0:
402,192,37304,1,0,0:0:0:0:
36,192,37304,1,0,0:0:0:0:
256,192,37574,1,0,0:0:0:0:
182,192,37844,128,0,38115:0:0:0:0:
36,192,37844,1,0,0:0:0:0:
329,192,37844,1,0,0:0:0:0:
109,192,38115,128,0,38385:0:0:0:0:
256,192,38115,1,0,0:0:0:0:
402,192,38115,1,0,0:0:0:0:
36,192,38385,128,0,38655:0:0:0:0:
329,192,38385,1,0,0:0:0:0:
182,192,38385,1,0,0:0:0:0:
256,192,38655,128,0,38925:0:0:0:0:
402,192,38655,1,0,0:0:0:0:
36,192,38925,1,0,0:0:0:0:
329,192,38925,1,0,0:0:0:0:
109,192,38925,128,0,39196:0:0:0:0:
402,192,39196,1,0,0:0:0:0:
182,192,39196,128,0,39466:0:0:0:0:
256,192,39466,128,0,39736:0:0:0:0:
36,192,39466,1,0,0:0:0:0:
109,192,39466,1,0,0:0:0:0:
182,192,39736,1,0,0:0:0:0:
402,192,39736,1,0,0:0:0:0:
329,192,39736,128,0,40007:0:0:0:0:
256,192,40007,1,0,0:0:0:0:
36,192,40007,128,0,40547:0:0:0:0:
256,192,40277,1,0,0:0:0:0:
475,192,40277,1,0,0:0:0:0:
402,192,40412,1,0,0:0:0:0:
109,192,40547,1,0,0:0:0:0:
329,192,40547,128,0,40817:0:0:0:0:
475,192,40817,1,0,0:0:0:0:
182,192,40817,1,0,0:0:0:0:
402,192,40817,128,0,41088:0:0:0:0:
329,192,41088,1,0,0:0:0:0:
36,192,41088,1,0,0:0:0:0:
109,192,41088,128,0,41358:0:0:0:0:
475,192,41358,1,0,0:0:0:0:
182,192,41358,128,0,41628:0:0:0:0:
256,192,41628,1,0,0:0:0:0:
402,192,41628,128,0,41898:0:0:0:0:
36,192,41898,1,0,0:0:0:0:
329,192,41898,128,0,42169:0:0:0:0:
182,192,41898,1,0,0:0:0:0:
402,192,42169,1,0,0:0:0:0:
256,192,42169,1,0,0:0:0:0:
109,192,42169,128,0,42439:0:0:0:0:
475,192,42439,1,0,0:0:0:0:
182,192,42439,128,0,42709:0:0:0:0:
402,192,42709,1,0,0:0:0:0:
256,192,42709,128,0,42979:0:0:0:0:
36,192,42979,1,0,0:0:0:0:
329,192,42979,128,0,43250:0:0:0:0:
182,192,42979,1,0,0:0:0:0:
109,192,43250,1,0,0:0:0:0:
475,192,43250,1,0,0:0:0:0:
256,192,43250,1,0,0:0:0:0:
36,192,43520,1,0,0:0:0:0:
182,192,43520,1,0,0:0:0:0:
402,192,43790,1,0,0:0:0:0:
475,192,43790,1,0,0:0:0:0:
109,192,43790,128,0,44061:0:0:0:0:
329,192,44061,1,0,0:0:0:0:
182,192,44061,128,0,44331:0:0:0:0:
402,192,44331,1,0,0:0:0:0:
36,192,44331,1,0,0:0:0:0:
256,192,44331,128,0,44601:0:0:0:0:
329,192,44601,1,0,0:0:0:0:
475,192,44601,128,0,44871:0:0:0:0:
256,192,44871,1,0,0:0:0:0:
36,192,44871,1,0,0:0:0:0:
402,192,44871,128,0,45142:0:0:0:0:
182,192,45142,1,0,0:0:0:0:
329,192,45142,128,0,45412:0:0:0:0:
36,192,45412,128,0,46493:0:0:0:0:
475,192,45412,1,0,0:0:0:0:
256,192,45412,128,0,45682:0:0:0:0:
109,192,45682,1,0,0:0:0:0:
329,192,45682,128,0,45952:0:0:0:0:
402,192,45952,128,0,46223:0:0:0:0:
182,192,45952,1,0,0:0:0:0:
256,192,46223,1,0,0:0:0:0:
475,192,46223,128,0,46493:0:0:0:0:
109,192,46493,128,0,47574:0:0:0:0:
182,192,46493,1,0,0:0:0:0:
402,192,46493,128,0,47304:0:0:0:0:
329,192,46763,1,0,0:0:0:0:
182,192,47034,1,0,0:0:0:0:
329,192,47304,1,0,0:0:0:0:
475,192,47574,128,0,48655:0:0:0:0:
329,192,47574,128,0,47844:0:0:0:0:
182,192,47574,1,0,0:0:0:0:
256,192,47844,1,0,0:0:0:0:
182,192,47844,128,0,48115:0:0:0:0:
329,192,48115,1,0,0:0:0:0:
109,192,48115,128,0,48385:0:0:0:0:
36,192,48385,128,0,48655:0:0:0:0:
256,192,48385,1,0,0:0:0:0:
182,192,48655,1,0,0:0:0:0:
109,192,48655,128,0,49466:0:0:0:0:
329,192,48655,128,0,48925:0:0:0:0:
256,192,48925,1,0,0:0:0:0:
402,192,48925,128,0,49196:0:0:0:0:
329,192,49196,1,0,0:0:0:0:
475,192,49196,128,0,49466:0:0:0:0:
256,192,49466,1,0,0:0:0:0:
402,192,49466,128,0,49736:0:0:0:0:
182,192,49736,1,0,0:0:0:0:
36,192,49736,128,0,50817:0:0:0:0:
329,192,49736,128,0,50007:0:0:0:0:
109,192,50007,1,0,0:0:0:0:
256,192,50007,128,0,50277:0:0:0:0:
475,192,50277,1,0,0:0:0:0:
182,192,50277,128,0,50547:0:0:0:0:
402,192,50547,1,0,0:0:0:0:
256,192,50547,128,0,50817:0:0:0:0:
329,192,50817,1,0,0:0:0:0:
475,192,50817,128,0,51088:0:0:0:0:
109,192,50817,1,0,0:0:0:0:
256,192,51088,1,0,0:0:0:0:
402,192,51088,128,0,51358:0:0:0:0:
182,192,51358,1,0,0:0:0:0:
329,192,51358,128,0,51628:0:0:0:0:
109,192,51628,1,0,0:0:0:0:
256,192,51628,128,0,51898:0:0:0:0:
36,192,51898,128,0,52169:0:0:0:0:
182,192,51898,128,0,52169:0:0:0:0:
402,192,51898,128,0,52169:0:0:0:0:
475,192,51898,128,0,52169:0:0:0:0:
256,192,52169,1,0,0:0:0:0:
36,192,52439,128,0,52709:0:0:0:0:
109,192,52439,128,0,52709:0:0:0:0:
329,192,52439,128,0,52709:0:0:0:0:
475,192,52439,128,0,52709:0:0:0:0:
182,192,52709,1,0,0:0:0:0:
475,192,52979,128,0,53250:0:0:0:0:
402,192,52979,128,0,53250:0:0:0:0:
109,192,52979,128,0,53250:0:0:0:0:
36,192,52979,128,0,53250:0:0:0:0:
329,192,53250,1,0,0:0:0:0:
109,192,53520,128,0,53790:0:0:0:0:
182,192,53520,128,0,53790:0:0:0:0:
475,192,53520,128,0,53790:0:0:0:0:
329,192,53520,128,0,53790:0:0:0:0:
256,192,53790,1,0,0:0:0:0:
402,192,54061,1,0,0:0:0:0:
256,192,54061,1,0,0:0:0:0:
475,192,54061,128,0,55142:0:0:0:0:
36,192,54061,128,0,54601:0:0:0:0:
182,192,54331,1,0,0:0:0:0:
256,192,54601,1,0,0:0:0:0:
402,192,54601,128,0,54871:0:0:0:0:
36,192,54871,1,0,0:0:0:0:
182,192,54871,128,0,55142:0:0:0:0:
109,192,55142,1,0,0:0:0:0:
256,192,55142,1,0,0:0:0:0:
402,192,55142,128,0,55412:0:0:0:0:
329,192,55412,128,0,55682:0:0:0:0:
182,192,55412,1,0,0:0:0:0:
475,192,55682,1,0,0:0:0:0:
256,192,55682,128,0,55952:0:0:0:0:
109,192,55682,1,0,0:0:0:0:
182,192,55952,128,0,56223:0:0:0:0:
402,192,55952,1,0,0:0:0:0:
36,192,56223,128,0,57304:0:0:0:0:
475,192,56223,128,0,56763:0:0:0:0:
256,192,56223,1,0,0:0:0:0:
329,192,56493,1,0,0:0:0:0:
256,192,56763,1,0,0:0:0:0:
109,192,56763,128,0,57034:0:0:0:0:
402,192,56763,1,0,0:0:0:0:
475,192,57034,1,0,0:0:0:0:
329,192,57034,128,0,57304:0:0:0:0:
109,192,57304,128,0,57574:0:0:0:0:
256,192,57304,1,0,0:0:0:0:
402,192,57304,1,0,0:0:0:0:
182,192,57574,128,0,57844:0:0:0:0:
329,192,57574,1,0,0:0:0:0:
402,192,57844,1,0,0:0:0:0:
36,192,57844,1,0,0:0:0:0:
256,192,57844,128,0,58115:0:0:0:0:
329,192,58115,128,0,58385:0:0:0:0:
109,192,58115,1,0,0:0:0:0:
256,192,58385,1,0,0:0:0:0:
182,192,58385,1,0,0:0:0:0:
36,192,58385,128,0,59466:0:0:0:0:
402,192,58385,128,0,58655:0:0:0:0:
182,192,58655,1,0,0:0:0:0:
475,192,58655,128,0,58925:0:0:0:0:
402,192,58925,128,0,59196:0:0:0:0:
182,192,58925,1,0,0:0:0:0:
329,192,59196,128,0,59466:0:0:0:0:
182,192,59196,1,0,0:0:0:0:
475,192,59466,128,0,60547:0:0:0:0:
182,192,59466,128,0,60007:0:0:0:0:
256,192,59466,1,0,0:0:0:0:
402,192,59466,1,0,0:0:0:0:
329,192,59736,1,0,0:0:0:0:
36,192,60007,128,0,60277:0:0:0:0:
329,192,60007,1,0,0:0:0:0:
109,192,60277,128,0,60547:0:0:0:0:
329,192,60277,1,0,0:0:0:0:
256,192,60547,1,0,0:0:0:0:
475,192,60817,1,0,0:0:0:0:
36,192,60817,1,0,0:0:0:0:
182,192,61088,1,0,0:0:0:0:
329,192,61088,1,0,0:0:0:0:
475,192,61358,1,0,0:0:0:0:
36,192,61358,1,0,0:0:0:0:
182,192,61628,1,0,0:0:0:0:
329,192,61628,1,0,0:0:0:0:
182,192,61898,1,0,0:0:0:0:
329,192,62034,1,0,0:0:0:0:
256,192,62169,1,0,0:0:0:0:
36,192,62169,1,0,0:0:0:0:
475,192,62169,128,0,62439:0:0:0:0:
402,192,62439,128,0,62709:0:0:0:0:
109,192,62439,1,0,0:0:0:0:
182,192,62709,1,0,0:0:0:0:
36,192,62709,128,0,66493:0:0:0:0:
329,192,62709,128,0,62979:0:0:0:0:
475,192,62709,1,0,0:0:0:0:
256,192,62979,1,0,0:0:0:0:
182,192,63250,1,0,0:0:0:0:
475,192,63250,1,0,0:0:0:0:
402,192,63250,128,0,63520:0:0:0:0:
256,192,63520,1,0,0:0:0:0:
182,192,63790,1,0,0:0:0:0:
329,192,63790,1,0,0:0:0:0:
475,192,63790,128,0,64061:0:0:0:0:
256,192,64061,1,0,0:0:0:0:
402,192,64061,128,0,64331:0:0:0:0:
182,192,64331,1,0,0:0:0:0:
329,192,64331,128,0,64601:0:0:0:0:
475,192,64331,1,0,0:0:0:0:
109,192,64601,1,0,0:0:0:0:
256,192,64601,128,0,64871:0:0:0:0:
182,192,64871,1,0,0:0:0:0:
475,192,64871,1,0,0:0:0:0:
402,192,65142,1,0,0:0:0:0:
109,192,65142,128,0,65412:0:0:0:0:
256,192,65412,1,0,0:0:0:0:
475,192,65412,1,0,0:0:0:0:
182,192,65682,1,0,0:0:0:0:
402,192,65682,128,0,65952:0:0:0:0:
109,192,65952,1,0,0:0:0:0:
329,192,65952,128,0,66223:0:0:0:0:
182,192,66223,1,0,0:0:0:0:
402,192,66223,128,0,66493:0:0:0:0:
109,192,66493,128,0,66763:0:0:0:0:
256,192,66493,1,0,0:0:0:0:
475,192,66493,128,0,66763:0:0:0:0:
182,192,66763,128,0,67034:0:0:0:0:
329,192,66763,128,0,67034:0:0:0:0:
256,192,67034,128,0,71088:0:0:0:0:
402,192,67034,1,0,0:0:0:0:
475,192,67034,128,0,69196:0:0:0:0:
109,192,67304,128,0,67439:0:0:0:0:
402,192,67304,128,0,67439:0:0:0:0:
182,192,67439,128,0,67574:0:0:0:0:
329,192,67439,128,0,67574:0:0:0:0:
109,192,67574,128,0,67709:0:0:0:0:
402,192,67574,128,0,67709:0:0:0:0:
182,192,67844,1,0,0:0:0:0:
329,192,67844,1,0,0:0:0:0:
36,192,68115,1,0,0:0:0:0:
402,192,68115,1,0,0:0:0:0:
329,192,68385,1,0,0:0:0:0:
109,192,68385,1,0,0:0:0:0:
182,192,68655,1,0,0:0:0:0:
402,192,68655,1,0,0:0:0:0:
109,192,68925,1,0,0:0:0:0:
329,192,68925,1,0,0:0:0:0:
402,192,69196,1,0,0:0:0:0:
182,192,69196,1,0,0:0:0:0:
329,192,69466,128,0,69601:0:0:0:0:
109,192,69466,128,0,69601:0:0:0:0:
402,192,69601,128,0,69736:0:0:0:0:
182,192,69601,128,0,69736:0:0:0:0:
329,192,69736,128,0,69871:0:0:0:0:
109,192,69736,128,0,69871:0:0:0:0:
402,192,70007,1,0,0:0:0:0:
182,192,70007,1,0,0:0:0:0:
329,192,70277,1,0,0:0:0:0:
109,192,70277,1,0,0:0:0:0:
182,192,70547,1,0,0:0:0:0:
402,192,70547,1,0,0:0:0:0:
329,192,70817,1,0,0:0:0:0:
36,192,70817,1,0,0:0:0:0:
109,192,71088,1,0,0:0:0:0:
402,192,71088,1,0,0:0:0:0:
475,192,71358,128,0,75142:0:0:0:0:
329,192,71358,1,0,0:0:0:0:
182,192,71358,128,0,71628:0:0:0:0:
256,192,71628,1,0,0:0:0:0:
329,192,71898,1,0,0:0:0:0:
109,192,71898,128,0,72169:0:0:0:0:
36,192,71898,1,0,0:0:0:0:
256,192,72169,1,0,0:0:0:0:
329,192,72439,1,0,0:0:0:0:
36,192,72439,128,0,72709:0:0:0:0:
182,192,72439,1,0,0:0:0:0:
256,192,72709,1,0,0:0:0:0:
329,192,72979,1,0,0:0:0:0:
36,192,72979,1,0,0:0:0:0:
182,192,72979,128,0,73250:0:0:0:0:
256,192,73250,128,0,73520:0:0:0:0:
402,192,73250,1,0,0:0:0:0:
329,192,73520,1,0,0:0:0:0:
109,192,73520,1,0,0:0:0:0:
182,192,73790,1,0,0:0:0:0:
402,192,73790,128,0,74061:0:0:0:0:
256,192,74061,128,0,74331:0:0:0:0:
36,192,74061,1,0,0:0:0:0:
182,192,74061,1,0,0:0:0:0:
329,192,74331,1,0,0:0:0:0:
109,192,74331,128,0,74601:0:0:0:0:
182,192,74601,128,0,74871:0:0:0:0:
402,192,74601,1,0,0:0:0:0:
109,192,74871,128,0,75142:0:0:0:0:
329,192,74871,1,0,0:0:0:0:
36,192,75142,128,0,75412:0:0:0:0:
256,192,75142,1,0,0:0:0:0:
402,192,75142,128,0,75412:0:0:0:0:
329,192,75412,128,0,75682:0:0:0:0:
182,192,75412,128,0,75682:0:0:0:0:
109,192,75682,1,0,0:0:0:0:
36,192,75682,128,0,77574:0:0:0:0:
256,192,75682,128,0,77574:0:0:0:0:
402,192,75952,128,0,76088:0:0:0:0:
109,192,75952,128,0,76088:0:0:0:0:
329,192,76088,128,0,76223:0:0:0:0:
182,192,76088,128,0,76223:0:0:0:0:
402,192,76223,128,0,76358:0:0:0:0:
109,192,76223,128,0,76358:0:0:0:0:
182,192,76493,1,0,0:0:0:0:
329,192,76493,1,0,0:0:0:0:
109,192,76763,1,0,0:0:0:0:
475,192,76763,1,0,0:0:0:0:
182,192,77034,1,0,0:0:0:0:
402,192,77034,1,0,0:0:0:0:
109,192,77304,1,0,0:0:0:0:
329,192,77304,1,0,0:0:0:0:
182,192,77574,1,0,0:0:0:0:
402,192,77574,1,0,0:0:0:0:
109,192,77844,1,0,0:0:0:0:
329,192,77844,1,0,0:0:0:0:
475,192,78115,1,0,0:0:0:0:
36,192,78115,1,0,0:0:0:0:
182,192,78115,128,0,78385:0:0:0:0:
402,192,78385,1,0,0:0:0:0:
109,192,78385,1,0,0:0:0:0:
256,192,78385,128,0,78655:0:0:0:0:
475,192,78655,1,0,0:0:0:0:
36,192,78655,1,0,0:0:0:0:
329,192,78655,128,0,78925:0:0:0:0:
256,192,78925,1,0,0:0:0:0:
109,192,78925,1,0,0:0:0:0:
402,192,78925,1,0,0:0:0:0:
182,192,79196,1,0,0:0:0:0:
182,192,79331,1,0,0:0:0:0:
36,192,79466,1,0,0:0:0:0:
256,192,79466,1,0,0:0:0:0:
329,192,79466,128,0,79736:0:0:0:0:
402,192,79736,128,0,80007:0:0:0:0:
182,192,79736,1,0,0:0:0:0:
36,192,80007,128,0,83790:0:0:0:0:
475,192,80007,128,0,80277:0:0:0:0:
256,192,80007,1,0,0:0:0:0:
329,192,80007,1,0,0:0:0:0:
182,192,80277,1,0,0:0:0:0:
329,192,80547,1,0,0:0:0:0:
256,192,80547,1,0,0:0:0:0:
109,192,80547,128,0,80817:0:0:0:0:
402,192,80817,1,0,0:0:0:0:
182,192,81088,1,0,0:0:0:0:
329,192,81088,1,0,0:0:0:0:
475,192,81088,128,0,81358:0:0:0:0:
256,192,81358,1,0,0:0:0:0:
402,192,81358,128,0,81628:0:0:0:0:
182,192,81628,1,0,0:0:0:0:
329,192,81628,128,0,81898:0:0:0:0:
475,192,81628,1,0,0:0:0:0:
109,192,81898,1,0,0:0:0:0:
256,192,81898,128,0,82169:0:0:0:0:
402,192,82169,1,0,0:0:0:0:
475,192,82169,1,0,0:0:0:0:
329,192,82439,1,0,0:0:0:0:
182,192,82439,128,0,82709:0:0:0:0:
109,192,82709,1,0,0:0:0:0:
402,192,82709,1,0,0:0:0:0:
182,192,82979,1,0,0:0:0:0:
329,192,82979,128,0,83250:0:0:0:0:
256,192,83250,1,0,0:0:0:0:
402,192,83250,128,0,83520:0:0:0:0:
109,192,83250,1,0,0:0:0:0:
329,192,83520,1,0,0:0:0:0:
475,192,83520,128,0,83790:0:0:0:0:
402,192,83790,1,0,0:0:0:0:
109,192,83790,128,0,84061:0:0:0:0:
256,192,83790,128,0,84061:0:0:0:0:
182,192,84061,128,0,84331:0:0:0:0:
329,192,84061,128,0,84331:0:0:0:0:
36,192,84061,1,0,0:0:0:0:
256,192,84331,128,0,88385:0:0:0:0:
475,192,84331,128,0,86493:0:0:0:0:
402,192,84331,1,0,0:0:0:0:
109,192,84331,1,0,0:0:0:0:
36,192,84601,128,0,84736:0:0:0:0:
329,192,84601,128,0,84736:0:0:0:0:
182,192,84736,128,0,84871:0:0:0:0:
402,192,84736,128,0,84871:0:0:0:0:
36,192,84871,128,0,85007:0:0:0:0:
329,192,84871,128,0,85007:0:0:0:0:
182,192,85142,1,0,0:0:0:0:
402,192,85142,1,0,0:0:0:0:
329,192,85412,1,0,0:0:0:0:
109,192,85412,1,0,0:0:0:0:
182,192,85682,1,0,0:0:0:0:
402,192,85682,1,0,0:0:0:0:
329,192,85952,1,0,0:0:0:0:
109,192,85952,1,0,0:0:0:0:
182,192,86223,1,0,0:0:0:0:
402,192,86223,1,0,0:0:0:0:
329,192,86493,1,0,0:0:0:0:
109,192,86493,1,0,0:0:0:0:
475,192,86763,128,0,86898:0:0:0:0:
36,192,86763,128,0,86898:0:0:0:0:
329,192,86898,128,0,87034:0:0:0:0:
182,192,86898,128,0,87034:0:0:0:0:
475,192,87034,128,0,87169:0:0:0:0:
36,192,87034,128,0,87169:0:0:0:0:
329,192,87304,1,0,0:0:0:0:
182,192,87304,1,0,0:0:0:0:
36,192,87574,1,0,0:0:0:0:
475,192,87574,1,0,0:0:0:0:
402,192,87844,1,0,0:0:0:0:
109,192,87844,1,0,0:0:0:0:
182,192,88115,1,0,0:0:0:0:
329,192,88115,1,0,0:0:0:0:
402,192,88385,1,0,0:0:0:0:
109,192,88385,1,0,0:0:0:0:
182,192,88655,1,0,0:0:0:0:
329,192,88655,1,0,0:0:0:0:
36,192,88655,128,0,91628:0:0:0:0:
475,192,88655,128,0,89196:0:0:0:0:
256,192,88925,1,0,0:0:0:0:
109,192,89196,1,0,0:0:0:0:
402,192,89196,128,0,89736:0:0:0:0:
256,192,89466,1,0,0:0:0:0:
182,192,89736,1,0,0:0:0:0:
109,192,89736,1,0,0:0:0:0:
329,192,89736,128,0,90007:0:0:0:0:
256,192,90007,1,0,0:0:0:0:
182,192,90277,128,0,90547:0:0:0:0:
475,192,90277,1,0,0:0:0:0:
109,192,90547,128,0,90817:0:0:0:0:
329,192,90547,128,0,91088:0:0:0:0:
256,192,90817,1,0,0:0:0:0:
475,192,90817,1,0,0:0:0:0:
402,192,91088,128,0,91358:0:0:0:0:
182,192,91088,1,0,0:0:0:0:
329,192,91358,128,0,91628:0:0:0:0:
109,192,91358,1,0,0:0:0:0:
256,192,91358,1,0,0:0:0:0:
402,192,91628,128,0,91898:0:0:0:0:
182,192,91628,1,0,0:0:0:0:
36,192,91898,1,0,0:0:0:0:
256,192,91898,128,0,92169:0:0:0:0:
475,192,91898,128,0,92169:0:0:0:0:
109,192,91898,1,0,0:0:0:0:
402,192,92169,128,0,92439:0:0:0:0:
182,192,92169,128,0,92439:0:0:0:0:
256,192,92439,128,0,92709:0:0:0:0:
36,192,92439,128,0,92709:0:0:0:0:
475,192,92439,1,0,0:0:0:0:
329,192,92709,128,0,92979:0:0:0:0:
109,192,92709,128,0,92979:0:0:0:0:
256,192,92979,128,0,95142:0:0:0:0:
182,192,92979,1,0,0:0:0:0:
402,192,92979,1,0,0:0:0:0:
475,192,92979,128,0,95142:0:0:0:0:
36,192,93520,1,0,0:0:0:0:
109,192,93520,1,0,0:0:0:0:
402,192,93520,1,0,0:0:0:0:
182,192,93790,1,0,0:0:0:0:
329,192,93790,1,0,0:0:0:0:
109,192,94061,1,0,0:0:0:0:
36,192,94061,1,0,0:0:0:0:
109,192,94331,1,0,0:0:0:0:
402,192,94331,1,0,0:0:0:0:
329,192,94601,1,0,0:0:0:0:
36,192,94601,1,0,0:0:0:0:
182,192,94601,1,0,0:0:0:0:
329,192,94871,1,0,0:0:0:0:
109,192,94871,1,0,0:0:0:0:
182,192,95142,1,0,0:0:0:0:
256,192,95412,1,0,0:0:0:0:
109,192,95412,1,0,0:0:0:0:
402,192,95412,1,0,0:0:0:0:
256,192,95682,1,0,0:0:0:0:
402,192,95682,1,0,0:0:0:0:
109,192,95682,1,0,0:0:0:0:
182,192,95952,1,0,0:0:0:0:
329,192,95952,1,0,0:0:0:0:
109,192,96223,1,0,0:0:0:0:
402,192,96223,1,0,0:0:0:0:
256,192,96223,1,0,0:0:0:0:
329,192,96493,1,0,0:0:0:0:
182,192,96493,1,0,0:0:0:0:
402,192,96763,1,0,0:0:0:0:
475,192,96763,1,0,0:0:0:0:
109,192,96763,1,0,0:0:0:0:
36,192,96763,1,0,0:0:0:0:
256,192,97034,1,0,0:0:0:0:
475,192,108655,132,0,109083:0:0:0:0:
36,192,108655,128,0,110369:0:0:0:0:
256,192,109083,128,0,109512:0:0:0:0:
402,192,109512,128,0,109940:0:0:0:0:
182,192,109940,128,0,110369:0:0:0:0:
475,192,110369,128,0,111226:0:0:0:0:
329,192,110369,1,0,0:0:0:0:
402,192,111012,1,0,0:0:0:0:
402,192,111226,128,0,111655:0:0:0:0:
36,192,111226,128,0,112940:0:0:0:0:
182,192,111655,128,0,112083:0:0:0:0:
329,192,112083,128,0,112512:0:0:0:0:
182,192,112512,128,0,112940:0:0:0:0:
475,192,112940,128,0,113797:0:0:0:0:
256,192,112940,1,0,0:0:0:0:
182,192,113583,1,0,0:0:0:0:
182,192,113797,128,0,114226:0:0:0:0:
329,192,113797,128,0,115512:0:0:0:0:
36,192,114226,128,0,114655:0:0:0:0:
109,192,114655,128,0,115083:0:0:0:0:
36,192,115083,128,0,115512:0:0:0:0:
475,192,115512,128,0,116369:0:0:0:0:
256,192,115512,1,0,0:0:0:0:
329,192,116155,1,0,0:0:0:0:
329,192,116369,128,0,117226:0:0:0:0:
182,192,116369,128,0,117226:0:0:0:0:
36,192,116369,128,0,117226:0:0:0:0:
109,192,117226,128,0,118083:0:0:0:0:
402,192,117226,128,0,118083:0:0:0:0:
256,192,117226,128,0,118083:0:0:0:0:
475,192,118083,128,0,118940:0:0:0:0:
329,192,118083,128,0,118940:0:0:0:0:
182,192,118083,128,0,118940:0:0:0:0:
402,192,118940,128,0,119369:0:0:0:0:
36,192,118940,128,0,120655:0:0:0:0:
109,192,119369,128,0,119797:0:0:0:0:
329,192,119797,128,0,120226:0:0:0:0:
109,192,120226,128,0,120655:0:0:0:0:
475,192,120655,128,0,121512:0:0:0:0:
402,192,121297,1,0,0:0:0:0:
402,192,121512,128,0,123226:0:0:0:0:
36,192,121940,128,0,122369:0:0:0:0:
182,192,122369,128,0,122797:0:0:0:0:
36,192,122797,128,0,123226:0:0:0:0:
256,192,123226,128,0,124083:0:0:0:0:
475,192,123226,1,0,0:0:0:0:
182,192,123869,1,0,0:0:0:0:
182,192,124083,128,0,125797:0:0:0:0:
36,192,124512,128,0,124940:0:0:0:0:
329,192,124940,128,0,125369:0:0:0:0:
36,192,125369,128,0,125797:0:0:0:0:
402,192,125797,128,0,126655:0:0:0:0:
182,192,126440,1,0,0:0:0:0:
329,192,126655,128,0,127512:0:0:0:0:
182,192,126655,128,0,127512:0:0:0:0:
36,192,126655,128,0,127512:0:0:0:0:
109,192,127512,128,0,128369:0:0:0:0:
402,192,127512,128,0,128369:0:0:0:0:
256,192,127512,128,0,128369:0:0:0:0:
475,192,128369,128,0,129226:0:0:0:0:
182,192,128369,128,0,129226:0:0:0:0:
329,192,128369,128,0,129226:0:0:0:0:
36,192,129226,128,0,130940:0:0:0:0:
402,192,129226,128,0,130940:0:0:0:0:
109,192,129226,128,0,130940:0:0:0:0:
256,192,129226,128,0,130940:0:0:0:0:
109,192,131797,128,0,133940:0:0:0:0:
402,192,131797,128,0,132655:0:0:0:0:
475,192,131797,128,0,133940:0:0:0:0:
256,192,131797,128,0,133940:0:0:0:0:
329,192,134369,128,0,135226:0:0:0:0:
475,192,134369,128,0,135226:0:0:0:0:
36,192,134369,128,0,136940:0:0:0:0:
182,192,134369,128,0,136940:0:0:0:0:
402,192,135226,128,0,136083:0:0:0:0:
329,192,136083,128,0,136940:0:0:0:0:
256,192,136083,128,0,136940:0:0:0:0:
109,192,136940,128,0,138655:0:0:0:0:
402,192,136940,128,0,139512:0:0:0:0:
475,192,136940,128,0,139512:0:0:0:0:
36,192,139512,128,0,141226:0:0:0:0:
402,192,142083,128,0,144655:0:0:0:0:
36,192,142083,128,0,144655:0:0:0:0:
109,192,142083,128,0,144655:0:0:0:0:
256,192,142083,128,0,144655:0:0:0:0:
329,192,144655,128,0,145512:0:0:0:0:
182,192,144655,128,0,145512:0:0:0:0:
475,192,144655,128,0,145512:0:0:0:0:
402,192,145512,128,0,146797:0:0:0:0:
256,192,145512,128,0,146797:0:0:0:0:
109,192,145512,128,0,146797:0:0:0:0:
475,192,146797,128,0,147226:0:0:0:0:
329,192,146797,128,0,147226:0:0:0:0:
36,192,146797,1,0,0:0:0:0:
256,192,147226,128,0,148940:0:0:0:0:
109,192,147226,128,0,148940:0:0:0:0:
36,192,147226,128,0,148940:0:0:0:0:
329,192,148940,128,0,149047:0:0:0:0:
475,192,149797,128,0,149905:0:0:0:0:
256,192,151083,128,0,153815:0:0:0:0:
329,192,153815,1,0,0:0:0:0:
36,192,153815,128,0,155077:0:0:0:0:
182,192,153815,128,0,155077:0:0:0:0:
402,192,153815,128,0,153893:0:0:0:0:
329,192,154129,1,0,0:0:0:0:
256,192,154129,1,0,0:0:0:0:
109,192,154445,1,0,0:0:0:0:
475,192,154445,1,0,0:0:0:0:
402,192,154446,128,0,154525:0:0:0:0:
329,192,154761,1,0,0:0:0:0:
256,192,154761,1,0,0:0:0:0:
109,192,155077,1,0,0:0:0:0:
475,192,155077,1,0,0:0:0:0:
402,192,155078,128,0,155157:0:0:0:0:
109,192,155393,128,0,155472:0:0:0:0:
402,192,155550,1,0,0:0:0:0:
475,192,155550,1,0,0:0:0:0:
36,192,155708,1,0,0:0:0:0:
475,192,155708,128,0,156971:0:0:0:0:
402,192,155708,128,0,156971:0:0:0:0:
256,192,155709,128,0,155788:0:0:0:0:
182,192,156024,1,0,0:0:0:0:
109,192,156024,1,0,0:0:0:0:
329,192,156340,1,0,0:0:0:0:
36,192,156340,1,0,0:0:0:0:
256,192,156341,128,0,156420:0:0:0:0:
182,192,156655,1,0,0:0:0:0:
109,192,156655,1,0,0:0:0:0:
36,192,156971,1,0,0:0:0:0:
182,192,156971,1,0,0:0:0:0:
329,192,156972,128,0,157051:0:0:0:0:
329,192,157287,1,0,0:0:0:0:
109,192,157445,1,0,0:0:0:0:
36,192,157445,1,0,0:0:0:0:
256,192,157603,1,0,0:0:0:0:
36,192,157603,128,0,158866:0:0:0:0:
109,192,157603,128,0,158866:0:0:0:0:
402,192,157604,128,0,157683:0:0:0:0:
182,192,157919,1,0,0:0:0:0:
329,192,157919,1,0,0:0:0:0:
256,192,158235,1,0,0:0:0:0:
182,192,158235,1,0,0:0:0:0:
402,192,158236,128,0,158315:0:0:0:0:
329,192,158550,1,0,0:0:0:0:
475,192,158550,1,0,0:0:0:0:
182,192,158866,1,0,0:0:0:0:
402,192,158867,1,0,0:0:0:0:
475,192,158867,128,0,158946:0:0:0:0:
256,192,159182,1,0,0:0:0:0:
402,192,159340,1,0,0:0:0:0:
475,192,159340,1,0,0:0:0:0:
475,192,159498,128,0,159815:0:0:0:0:
36,192,159498,1,0,0:0:0:0:
182,192,159498,128,0,159815:0:0:0:0:
329,192,159498,128,0,159815:0:0:0:0:
256,192,159815,128,0,160129:0:0:0:0:
109,192,159815,128,0,160129:0:0:0:0:
329,192,160129,128,0,160445:0:0:0:0:
182,192,160129,128,0,160445:0:0:0:0:
475,192,160129,128,0,160445:0:0:0:0:
36,192,160445,128,0,160761:0:0:0:0:
256,192,160445,128,0,160761:0:0:0:0:
329,192,160761,128,0,161077:0:0:0:0:
109,192,160761,128,0,161077:0:0:0:0:
402,192,161077,128,0,161392:0:0:0:0:
182,192,161077,128,0,161392:0:0:0:0:
256,192,161392,1,0,0:0:0:0:
329,192,161392,128,0,162655:0:0:0:0:
475,192,161392,128,0,162655:0:0:0:0:
36,192,161393,128,0,161472:0:0:0:0:
256,192,161708,1,0,0:0:0:0:
109,192,161708,1,0,0:0:0:0:
182,192,162024,1,0,0:0:0:0:
402,192,162024,1,0,0:0:0:0:
36,192,162025,128,0,162104:0:0:0:0:
256,192,162340,1,0,0:0:0:0:
109,192,162340,1,0,0:0:0:0:
402,192,162655,1,0,0:0:0:0:
36,192,162655,1,0,0:0:0:0:
182,192,162657,128,0,162736:0:0:0:0:
475,192,162971,1,0,0:0:0:0:
109,192,163129,1,0,0:0:0:0:
329,192,163129,1,0,0:0:0:0:
36,192,163287,1,0,0:0:0:0:
109,192,163287,128,0,164550:0:0:0:0:
329,192,163287,128,0,164550:0:0:0:0:
182,192,163288,128,0,163367:0:0:0:0:
475,192,163603,1,0,0:0:0:0:
256,192,163603,1,0,0:0:0:0:
402,192,163919,1,0,0:0:0:0:
36,192,163919,1,0,0:0:0:0:
182,192,163920,128,0,163999:0:0:0:0:
36,192,164235,1,0,0:0:0:0:
182,192,164235,1,0,0:0:0:0:
475,192,164550,1,0,0:0:0:0:
402,192,164550,1,0,0:0:0:0:
256,192,164551,128,0,164630:0:0:0:0:
182,192,164866,1,0,0:0:0:0:
36,192,165024,1,0,0:0:0:0:
109,192,165024,1,0,0:0:0:0:
256,192,165182,1,0,0:0:0:0:
109,192,165182,128,0,166445:0:0:0:0:
36,192,165182,128,0,166445:0:0:0:0:
402,192,165183,128,0,165262:0:0:0:0:
329,192,165498,1,0,0:0:0:0:
182,192,165498,1,0,0:0:0:0:
475,192,165815,1,0,0:0:0:0:
256,192,165815,1,0,0:0:0:0:
402,192,165815,128,0,165893:0:0:0:0:
182,192,166129,1,0,0:0:0:0:
329,192,166129,1,0,0:0:0:0:
329,192,166445,1,0,0:0:0:0:
402,192,166445,1,0,0:0:0:0:
475,192,166446,128,0,166525:0:0:0:0:
256,192,166761,1,0,0:0:0:0:
182,192,166919,1,0,0:0:0:0:
36,192,166919,1,0,0:0:0:0:
329,192,167077,128,0,167392:0:0:0:0:
182,192,167077,128,0,167392:0:0:0:0:
36,192,167077,128,0,167392:0:0:0:0:
256,192,167392,128,0,167708:0:0:0:0:
402,192,167392,128,0,167708:0:0:0:0:
475,192,167708,128,0,168024:0:0:0:0:
182,192,167708,128,0,168024:0:0:0:0:
109,192,167708,128,0,168024:0:0:0:0:
329,192,168024,128,0,168340:0:0:0:0:
36,192,168024,128,0,168340:0:0:0:0:
402,192,168340,128,0,168655:0:0:0:0:
109,192,168340,128,0,168655:0:0:0:0:
475,192,168655,128,0,168971:0:0:0:0:
182,192,168655,128,0,168971:0:0:0:0:
402,192,168971,128,0,170235:0:0:0:0:
256,192,168971,1,0,0:0:0:0:
329,192,168971,128,0,170235:0:0:0:0:
36,192,168972,128,0,169051:0:0:0:0:
109,192,169287,1,0,0:0:0:0:
256,192,169287,1,0,0:0:0:0:
475,192,169603,1,0,0:0:0:0:
182,192,169603,1,0,0:0:0:0:
36,192,169604,128,0,169683:0:0:0:0:
109,192,169919,1,0,0:0:0:0:
182,192,169919,1,0,0:0:0:0:
475,192,170235,1,0,0:0:0:0:
36,192,170235,1,0,0:0:0:0:
109,192,170235,1,0,0:0:0:0:
256,192,170236,128,0,170315:0:0:0:0:
475,192,170550,1,0,0:0:0:0:
109,192,170708,1,0,0:0:0:0:
256,192,170708,1,0,0:0:0:0:
329,192,170866,1,0,0:0:0:0:
256,192,170866,128,0,172129:0:0:0:0:
36,192,170866,1,0,0:0:0:0:
109,192,170866,128,0,172129:0:0:0:0:
402,192,170867,128,0,170946:0:0:0:0:
329,192,171182,1,0,0:0:0:0:
182,192,171182,1,0,0:0:0:0:
182,192,171498,1,0,0:0:0:0:
36,192,171498,1,0,0:0:0:0:
475,192,171499,128,0,171578:0:0:0:0:
402,192,171815,1,0,0:0:0:0:
329,192,171815,1,0,0:0:0:0:
402,192,172129,1,0,0:0:0:0:
36,192,172129,1,0,0:0:0:0:
475,192,172130,128,0,172209:0:0:0:0:
256,192,172445,1,0,0:0:0:0:
36,192,172603,1,0,0:0:0:0:
109,192,172603,1,0,0:0:0:0:
109,192,172761,128,0,174024:0:0:0:0:
36,192,172761,128,0,174024:0:0:0:0:
256,192,172761,1,0,0:0:0:0:
402,192,172762,128,0,172841:0:0:0:0:
182,192,173077,1,0,0:0:0:0:
329,192,173077,1,0,0:0:0:0:
256,192,173392,1,0,0:0:0:0:
475,192,173392,1,0,0:0:0:0:
402,192,173393,128,0,173472:0:0:0:0:
329,192,173708,1,0,0:0:0:0:
182,192,173708,1,0,0:0:0:0:
256,192,174024,1,0,0:0:0:0:
402,192,174024,1,0,0:0:0:0:
475,192,174025,128,0,174104:0:0:0:0:
256,192,174340,1,0,0:0:0:0:
109,192,174498,1,0,0:0:0:0:
36,192,174498,1,0,0:0:0:0:
109,192,174655,128,0,174971:0:0:0:0:
256,192,174655,128,0,174971:0:0:0:0:
36,192,174655,128,0,174971:0:0:0:0:
329,192,174971,128,0,175287:0:0:0:0:
182,192,174971,128,0,175287:0:0:0:0:
475,192,175287,128,0,175603:0:0:0:0:
256,192,175287,128,0,175603:0:0:0:0:
402,192,175287,128,0,175603:0:0:0:0:
36,192,175603,128,0,175919:0:0:0:0:
182,192,175603,128,0,175919:0:0:0:0:
329,192,175919,128,0,176235:0:0:0:0:
109,192,175919,128,0,176235:0:0:0:0:
402,192,176235,128,0,176550:0:0:0:0:
182,192,176235,128,0,176550:0:0:0:0:
329,192,176550,128,0,177815:0:0:0:0:
36,192,176550,128,0,177815:0:0:0:0:
109,192,176551,128,0,176630:0:0:0:0:
475,192,176866,1,0,0:0:0:0:
256,192,176866,1,0,0:0:0:0:
402,192,177182,1,0,0:0:0:0:
182,192,177182,1,0,0:0:0:0:
109,192,177183,128,0,177262:0:0:0:0:
256,192,177498,1,0,0:0:0:0:
109,192,177498,1,0,0:0:0:0:
402,192,177815,1,0,0:0:0:0:
475,192,177815,1,0,0:0:0:0:
182,192,177815,128,0,177893:0:0:0:0:
109,192,178129,1,0,0:0:0:0:
329,192,178287,1,0,0:0:0:0:
402,192,178287,1,0,0:0:0:0:
36,192,178445,1,0,0:0:0:0:
329,192,178445,128,0,179708:0:0:0:0:
402,192,178445,128,0,179708:0:0:0:0:
182,192,178446,128,0,178525:0:0:0:0:
256,192,178761,1,0,0:0:0:0:
109,192,178761,1,0,0:0:0:0:
36,192,179077,1,0,0:0:0:0:
475,192,179077,1,0,0:0:0:0:
182,192,179078,128,0,179157:0:0:0:0:
182,192,179392,1,0,0:0:0:0:
109,192,179392,1,0,0:0:0:0:
182,192,179708,1,0,0:0:0:0:
36,192,179708,1,0,0:0:0:0:
475,192,179708,1,0,0:0:0:0:
256,192,179709,128,0,179788:0:0:0:0:
109,192,180024,1,0,0:0:0:0:
36,192,180182,1,0,0:0:0:0:
182,192,180182,1,0,0:0:0:0:
475,192,180340,1,0,0:0:0:0:
182,192,180340,128,0,181603:0:0:0:0:
36,192,180340,128,0,181603:0:0:0:0:
402,192,180341,128,0,180420:0:0:0:0:
256,192,180655,1,0,0:0:0:0:
109,192,180655,1,0,0:0:0:0:
475,192,180971,1,0,0:0:0:0:
256,192,180971,1,0,0:0:0:0:
402,192,180972,128,0,181051:0:0:0:0:
329,192,181287,1,0,0:0:0:0:
109,192,181287,1,0,0:0:0:0:
402,192,181603,1,0,0:0:0:0:
256,192,181603,1,0,0:0:0:0:
475,192,181604,128,0,181683:0:0:0:0:
329,192,181919,1,0,0:0:0:0:
475,192,182077,1,0,0:0:0:0:
402,192,182077,1,0,0:0:0:0:
475,192,182235,128,0,182550:0:0:0:0:
402,192,182235,128,0,182550:0:0:0:0:
256,192,182235,128,0,182550:0:0:0:0:
182,192,182550,128,0,182866:0:0:0:0:
36,192,182550,128,0,182866:0:0:0:0:
475,192,182866,128,0,183182:0:0:0:0:
329,192,182866,128,0,183182:0:0:0:0:
256,192,182866,128,0,183182:0:0:0:0:
109,192,183182,128,0,183498:0:0:0:0:
182,192,183182,128,0,183498:0:0:0:0:
329,192,183498,128,0,183815:0:0:0:0:
256,192,183498,128,0,183815:0:0:0:0:
182,192,183815,1,0,0:0:0:0:
475,192,183815,128,0,184129:0:0:0:0:
402,192,183815,128,0,184129:0:0:0:0:
109,192,183971,1,0,0:0:0:0:
182,192,184129,1,0,0:0:0:0:
256,192,184129,128,0,186024:0:0:0:0:
36,192,184129,128,0,186024:0:0:0:0:
182,192,184445,1,0,0:0:0:0:
109,192,184445,1,0,0:0:0:0:
475,192,184761,1,0,0:0:0:0:
402,192,184761,1,0,0:0:0:0:
109,192,185077,1,0,0:0:0:0:
182,192,185077,1,0,0:0:0:0:
475,192,185392,1,0,0:0:0:0:
402,192,185392,1,0,0:0:0:0:
182,192,185708,1,0,0:0:0:0:
109,192,185708,1,0,0:0:0:0:
475,192,186024,128,0,186655:0:0:0:0:
329,192,186024,128,0,186655:0:0:0:0:
182,192,186025,128,0,186104:0:0:0:0:
402,192,186025,128,0,186104:0:0:0:0:
36,192,186340,1,0,0:0:0:0:
109,192,186340,1,0,0:0:0:0:
109,192,186655,128,0,187603:0:0:0:0:
256,192,186655,128,0,187603:0:0:0:0:
182,192,186657,128,0,186736:0:0:0:0:
36,192,186657,128,0,186736:0:0:0:0:
475,192,186971,1,0,0:0:0:0:
402,192,186971,1,0,0:0:0:0:
36,192,187287,1,0,0:0:0:0:
182,192,187287,1,0,0:0:0:0:
475,192,187603,128,0,187919:0:0:0:0:
402,192,187603,128,0,187919:0:0:0:0:
36,192,187919,128,0,189815:0:0:0:0:
256,192,187919,128,0,189815:0:0:0:0:
109,192,187920,128,0,187999:0:0:0:0:
182,192,187920,128,0,187999:0:0:0:0:
402,192,188235,1,0,0:0:0:0:
475,192,188235,1,0,0:0:0:0:
109,192,188550,1,0,0:0:0:0:
182,192,188550,1,0,0:0:0:0:
402,192,188866,1,0,0:0:0:0:
475,192,188866,1,0,0:0:0:0:
109,192,189182,1,0,0:0:0:0:
182,192,189182,1,0,0:0:0:0:
402,192,189498,1,0,0:0:0:0:
329,192,189498,1,0,0:0:0:0:
182,192,189815,1,0,0:0:0:0:
402,192,189815,1,0,0:0:0:0:
329,192,189815,128,0,191708:0:0:0:0:
475,192,189815,128,0,191708:0:0:0:0:
36,192,190129,1,0,0:0:0:0:
109,192,190129,1,0,0:0:0:0:
402,192,190445,1,0,0:0:0:0:
182,192,190445,1,0,0:0:0:0:
109,192,190761,1,0,0:0:0:0:
36,192,190761,1,0,0:0:0:0:
256,192,191077,1,0,0:0:0:0:
109,192,191077,1,0,0:0:0:0:
182,192,191392,1,0,0:0:0:0:
402,192,191392,1,0,0:0:0:0:
109,192,191708,128,0,193603:0:0:0:0:
402,192,191708,128,0,193603:0:0:0:0:
36,192,191709,128,0,191788:0:0:0:0:
182,192,191709,128,0,191788:0:0:0:0:
329,192,192024,1,0,0:0:0:0:
256,192,192024,1,0,0:0:0:0:
182,192,192340,1,0,0:0:0:0:
36,192,192340,1,0,0:0:0:0:
475,192,192655,1,0,0:0:0:0:
329,192,192655,1,0,0:0:0:0:
329,192,192971,1,0,0:0:0:0:
256,192,192971,1,0,0:0:0:0:
36,192,193287,1,0,0:0:0:0:
182,192,193287,1,0,0:0:0:0:
182,192,193603,128,0,194235:0:0:0:0:
36,192,193603,128,0,194235:0:0:0:0:
329,192,193604,128,0,193683:0:0:0:0:
475,192,193604,128,0,193683:0:0:0:0:
109,192,193919,1,0,0:0:0:0:
402,192,193919,1,0,0:0:0:0:
256,192,194235,128,0,195182:0:0:0:0:
329,192,194235,128,0,195182:0:0:0:0:
402,192,194236,128,0,194315:0:0:0:0:
475,192,194236,128,0,194315:0:0:0:0:
36,192,194550,1,0,0:0:0:0:
109,192,194550,1,0,0:0:0:0:
475,192,194866,1,0,0:0:0:0:
402,192,194866,1,0,0:0:0:0:
36,192,195182,128,0,195498:0:0:0:0:
109,192,195182,128,0,195498:0:0:0:0:
182,192,195183,128,0,195262:0:0:0:0:
402,192,195498,128,0,197392:0:0:0:0:
475,192,195498,128,0,197392:0:0:0:0:
256,192,195499,128,0,195578:0:0:0:0:
329,192,195499,128,0,195578:0:0:0:0:
109,192,195815,1,0,0:0:0:0:
182,192,195815,1,0,0:0:0:0:
256,192,196129,1,0,0:0:0:0:
329,192,196129,1,0,0:0:0:0:
36,192,196445,1,0,0:0:0:0:
109,192,196445,1,0,0:0:0:0:
182,192,196761,1,0,0:0:0:0:
109,192,196761,1,0,0:0:0:0:
329,192,197077,1,0,0:0:0:0:
256,192,197077,1,0,0:0:0:0:
36,192,197392,1,0,0:0:0:0:
109,192,197392,1,0,0:0:0:0:
182,192,197392,128,0,199287:0:0:0:0:
329,192,197392,128,0,199287:0:0:0:0:
402,192,197708,1,0,0:0:0:0:
256,192,197708,1,0,0:0:0:0:
475,192,198024,1,0,0:0:0:0:
36,192,198024,1,0,0:0:0:0:
109,192,198340,1,0,0:0:0:0:
256,192,198340,1,0,0:0:0:0:
256,192,198655,1,0,0:0:0:0:
402,192,198655,1,0,0:0:0:0:
36,192,198972,128,0,199051:0:0:0:0:
475,192,198972,128,0,199051:0:0:0:0:
109,192,199287,128,0,201182:0:0:0:0:
402,192,199287,128,0,201182:0:0:0:0:
475,192,199288,128,0,199367:0:0:0:0:
256,192,199288,128,0,199367:0:0:0:0:
182,192,199603,1,0,0:0:0:0:
36,192,199603,1,0,0:0:0:0:
475,192,199919,1,0,0:0:0:0:
329,192,199919,1,0,0:0:0:0:
182,192,200235,1,0,0:0:0:0:
256,192,200235,1,0,0:0:0:0:
475,192,200550,1,0,0:0:0:0:
329,192,200550,1,0,0:0:0:0:
36,192,200866,1,0,0:0:0:0:
182,192,200866,1,0,0:0:0:0:
475,192,201182,128,0,201815:0:0:0:0:
256,192,201182,128,0,201815:0:0:0:0:
329,192,201183,128,0,201262:0:0:0:0:
109,192,201498,1,0,0:0:0:0:
36,192,201498,1,0,0:0:0:0:
182,192,201815,128,0,202761:0:0:0:0:
329,192,201815,128,0,202761:0:0:0:0:
402,192,201815,128,0,201893:0:0:0:0:
109,192,201815,128,0,201893:0:0:0:0:
109,192,202129,1,0,0:0:0:0:
36,192,202129,1,0,0:0:0:0:
402,192,202445,1,0,0:0:0:0:
475,192,202445,1,0,0:0:0:0:
36,192,202761,128,0,203077:0:0:0:0:
475,192,202761,128,0,203077:0:0:0:0:
329,192,203077,128,0,204971:0:0:0:0:
256,192,203077,128,0,204971:0:0:0:0:
182,192,203078,128,0,203157:0:0:0:0:
402,192,203078,128,0,203157:0:0:0:0:
109,192,203392,1,0,0:0:0:0:
36,192,203392,1,0,0:0:0:0:
182,192,203708,1,0,0:0:0:0:
402,192,203708,1,0,0:0:0:0:
109,192,204024,1,0,0:0:0:0:
36,192,204024,1,0,0:0:0:0:
402,192,204340,1,0,0:0:0:0:
475,192,204340,1,0,0:0:0:0:
36,192,204657,128,0,204736:0:0:0:0:
109,192,204657,128,0,204736:0:0:0:0:
402,192,204971,128,0,205603:0:0:0:0:
475,192,204971,128,0,205603:0:0:0:0:
182,192,204972,128,0,205051:0:0:0:0:
109,192,204972,128,0,205051:0:0:0:0:
256,192,205287,1,0,0:0:0:0:
182,192,205287,1,0,0:0:0:0:
36,192,205603,128,0,206866:0:0:0:0:
109,192,205603,128,0,206866:0:0:0:0:
256,192,205604,128,0,205683:0:0:0:0:
329,192,205604,128,0,205683:0:0:0:0:
402,192,205919,1,0,0:0:0:0:
329,192,205919,1,0,0:0:0:0:
402,192,206235,1,0,0:0:0:0:
475,192,206235,1,0,0:0:0:0:
182,192,206550,1,0,0:0:0:0:
329,192,206550,1,0,0:0:0:0:
182,192,206866,128,0,208761:0:0:0:0:
329,192,206866,128,0,208761:0:0:0:0:
475,192,206867,128,0,206946:0:0:0:0:
109,192,207182,1,0,0:0:0:0:
402,192,207182,1,0,0:0:0:0:
109,192,207498,1,0,0:0:0:0:
36,192,207498,1,0,0:0:0:0:
402,192,207815,1,0,0:0:0:0:
256,192,207815,1,0,0:0:0:0:
36,192,208129,1,0,0:0:0:0:
109,192,208129,1,0,0:0:0:0:
256,192,208446,128,0,208525:0:0:0:0:
402,192,208446,128,0,208525:0:0:0:0:
475,192,208761,128,0,209392:0:0:0:0:
402,192,208761,128,0,209392:0:0:0:0:
109,192,208762,128,0,208841:0:0:0:0:
36,192,208762,128,0,208841:0:0:0:0:
256,192,209077,1,0,0:0:0:0:
109,192,209077,1,0,0:0:0:0:
182,192,209392,128,0,210340:0:0:0:0:
256,192,209392,128,0,210340:0:0:0:0:
36,192,209393,128,0,209472:0:0:0:0:
329,192,209393,128,0,209472:0:0:0:0:
402,192,209708,1,0,0:0:0:0:
109,192,209708,1,0,0:0:0:0:
329,192,210024,1,0,0:0:0:0:
475,192,210024,1,0,0:0:0:0:
109,192,210340,128,0,210655:0:0:0:0:
402,192,210340,128,0,210655:0:0:0:0:
475,192,210655,128,0,212550:0:0:0:0:
256,192,210655,128,0,212550:0:0:0:0:
36,192,210657,128,0,210736:0:0:0:0:
329,192,210971,1,0,0:0:0:0:
182,192,210971,1,0,0:0:0:0:
402,192,211287,1,0,0:0:0:0:
109,192,211287,1,0,0:0:0:0:
182,192,211603,1,0,0:0:0:0:
329,192,211603,1,0,0:0:0:0:
109,192,211919,1,0,0:0:0:0:
36,192,211919,1,0,0:0:0:0:
182,192,212235,1,0,0:0:0:0:
329,192,212235,1,0,0:0:0:0:
329,192,212550,1,0,0:0:0:0:
36,192,212550,1,0,0:0:0:0:
109,192,212550,128,0,214445:0:0:0:0:
182,192,212550,128,0,214445:0:0:0:0:
475,192,212866,1,0,0:0:0:0:
402,192,212866,1,0,0:0:0:0:
329,192,213182,1,0,0:0:0:0:
256,192,213182,1,0,0:0:0:0:
475,192,213498,1,0,0:0:0:0:
402,192,213498,1,0,0:0:0:0:
256,192,213815,1,0,0:0:0:0:
36,192,213815,1,0,0:0:0:0:
475,192,214129,1,0,0:0:0:0:
402,192,214129,1,0,0:0:0:0:
475,192,214445,128,0,216971:0:0:0:0:
36,192,214446,128,0,214525:0:0:0:0:
256,192,214446,128,0,214525:0:0:0:0:
402,192,214446,128,0,214525:0:0:0:0:
329,192,228298,5,0,0:0:0:0:
182,192,228298,128,0,228798:0:0:0:0:
109,192,228631,128,0,230964:0:0:0:0:
182,192,228964,128,0,230464:0:0:0:0:
256,192,229298,128,0,230131:0:0:0:0:
329,192,229631,128,0,229798:0:0:0:0:
329,192,229964,128,0,230964:0:0:0:0:
256,192,230298,128,0,230964:0:0:0:0:
182,192,230631,128,0,230964:0:0:0:0:
402,192,230964,128,0,232131:0:0:0:0:
182,192,231298,128,0,233131:0:0:0:0:
256,192,231631,128,0,232798:0:0:0:0:
329,192,231964,128,0,232464:0:0:0:0:
402,192,232298,128,0,233631:0:0:0:0:
329,192,232631,128,0,233631:0:0:0:0:
256,192,232964,128,0,233631:0:0:0:0:
182,192,233298,128,0,233631:0:0:0:0:
475,192,233631,128,0,236298:0:0:0:0:
36,192,233964,128,0,235798:0:0:0:0:
109,192,234298,128,0,235464:0:0:0:0:
182,192,234631,128,0,235131:0:0:0:0:
256,192,234964,128,0,236298:0:0:0:0:
182,192,235298,128,0,236298:0:0:0:0:
109,192,235631,128,0,236298:0:0:0:0:
36,192,235964,128,0,236298:0:0:0:0:
402,192,236298,128,0,238298:0:0:0:0:
329,192,236631,128,0,238298:0:0:0:0:
256,192,236964,128,0,237798:0:0:0:0:
182,192,237298,128,0,238298:0:0:0:0:
109,192,237631,128,0,238298:0:0:0:0:
256,192,237964,1,0,0:0:0:0:
256,192,238298,1,0,0:0:0:0:
256,192,238464,1,0,0:0:0:0:
256,192,238631,1,0,0:0:0:0:
256,192,238798,1,0,0:0:0:0:
329,192,238964,128,0,240798:0:0:0:0:
475,192,238964,128,0,241464:0:0:0:0:
36,192,238964,128,0,242798:0:0:0:0:
182,192,238964,128,0,240131:0:0:0:0:
182,192,240298,128,0,242464:0:0:0:0:
329,192,240964,128,0,241964:0:0:0:0:
475,192,241631,128,0,243798:0:0:0:0:
329,192,242131,128,0,245464:0:0:0:0:
182,192,242631,128,0,244131:0:0:0:0:
36,192,242964,128,0,244798:0:0:0:0:
475,192,243964,128,0,245131:0:0:0:0:
182,192,244298,128,0,246464:0:0:0:0:
36,192,244964,128,0,246131:0:0:0:0:
475,192,245298,128,0,247798:0:0:0:0:
329,192,245631,128,0,246798:0:0:0:0:
36,192,246298,128,0,249464:0:0:0:0:
182,192,246631,128,0,249464:0:0:0:0:
329,192,246964,128,0,247298:0:0:0:0:
329,192,247464,128,0,249464:0:0:0:0:
475,192,247964,128,0,248131:0:0:0:0:
475,192,248298,128,0,249464:0:0:0:0:
329,192,249631,128,0,251464:0:0:0:0:
402,192,249631,128,0,252131:0:0:0:0:
109,192,249631,128,0,253464:0:0:0:0:
182,192,249631,128,0,250798:0:0:0:0:
182,192,250964,128,0,253131:0:0:0:0:
329,192,251631,128,0,252631:0:0:0:0:
402,192,252298,128,0,255464:0:0:0:0:
329,192,252798,128,0,254131:0:0:0:0:
182,192,253298,128,0,254464:0:0:0:0:
109,192,253631,128,0,256131:0:0:0:0:
329,192,254298,128,0,254798:0:0:0:0:
182,192,254631,128,0,256631:0:0:0:0:
329,192,254964,128,0,256464:0:0:0:0:
402,192,255631,128,0,257464:0:0:0:0:
109,192,256298,128,0,257464:0:0:0:0:
329,192,256631,128,0,256798:0:0:0:0:
182,192,256798,128,0,257131:0:0:0:0:
329,192,256964,128,0,259964:0:0:0:0:
182,192,257298,128,0,259964:0:0:0:0:
402,192,257631,128,0,259964:0:0:0:0:
109,192,257631,128,0,259964:0:0:0:0:
256,192,258298,1,0,0:0:0:0:
256,192,258964,1,0,0:0:0:0:
256,192,259631,1,0,0:0:0:0:
256,192,259964,1,0,0:0:0:0:
256,192,260131,1,0,0:0:0:0:
256,192,260298,128,0,260798:0:0:0:0:
182,192,260631,128,0,261798:0:0:0:0:
256,192,260964,128,0,261464:0:0:0:0:
329,192,261298,128,0,262464:0:0:0:0:
256,192,261631,128,0,262131:0:0:0:0:
182,192,261964,128,0,263131:0:0:0:0:
256,192,262298,128,0,262798:0:0:0:0:
329,192,262631,128,0,263798:0:0:0:0:
256,192,262964,128,0,263464:0:0:0:0:
182,192,263298,128,0,264464:0:0:0:0:
256,192,263631,128,0,264131:0:0:0:0:
329,192,263964,128,0,265131:0:0:0:0:
256,192,264298,128,0,264798:0:0:0:0:
182,192,264631,128,0,265464:0:0:0:0:
256,192,264964,128,0,265464:0:0:0:0:
329,192,265298,128,0,265464:0:0:0:0:
36,192,265631,1,0,0:0:0:0:
475,192,265631,128,0,266798:0:0:0:0:
329,192,265631,1,0,0:0:0:0:
182,192,265631,1,0,0:0:0:0:
402,192,265964,128,0,267131:0:0:0:0:
329,192,266298,128,0,267464:0:0:0:0:
182,192,266631,1,0,0:0:0:0:
475,192,266964,128,0,268131:0:0:0:0:
402,192,267298,128,0,268464:0:0:0:0:
329,192,267631,128,0,268798:0:0:0:0:
182,192,267964,1,0,0:0:0:0:
475,192,268298,128,0,270798:0:0:0:0:
402,192,268631,128,0,270798:0:0:0:0:
329,192,268964,128,0,270798:0:0:0:0:
256,192,269298,128,0,270798:0:0:0:0:
182,192,269631,128,0,270798:0:0:0:0:
36,192,270298,1,0,0:0:0:0:
109,192,270631,1,0,0:0:0:0:
36,192,270964,128,0,272131:0:0:0:0:
109,192,271298,128,0,272464:0:0:0:0:
182,192,271631,128,0,272798:0:0:0:0:
329,192,271964,1,0,0:0:0:0:
36,192,272298,128,0,273464:0:0:0:0:
109,192,272631,128,0,273798:0:0:0:0:
182,192,272964,128,0,274131:0:0:0:0:
329,192,273298,1,0,0:0:0:0:
36,192,273631,128,0,276131:0:0:0:0:
109,192,273964,128,0,276131:0:0:0:0:
182,192,274298,128,0,276131:0:0:0:0:
256,192,274631,128,0,276131:0:0:0:0:
329,192,274964,128,0,276131:0:0:0:0:
475,192,275631,1,0,0:0:0:0:
402,192,275964,1,0,0:0:0:0:
475,192,276298,128,0,278298:0:0:0:0:
329,192,276631,128,0,276964:0:0:0:0:
36,192,276964,128,0,278964:0:0:0:0:
182,192,277298,128,0,277631:0:0:0:0:
402,192,277631,128,0,278298:0:0:0:0:
256,192,277964,128,0,278298:0:0:0:0:
109,192,278298,128,0,278964:0:0:0:0:
329,192,278631,128,0,278964:0:0:0:0:
475,192,278964,128,0,280964:0:0:0:0:
182,192,279298,128,0,279631:0:0:0:0:
329,192,279631,128,0,280964:0:0:0:0:
109,192,279964,128,0,280298:0:0:0:0:
182,192,280298,128,0,280964:0:0:0:0:
36,192,280964,128,0,281631:0:0:0:0:
475,192,281298,128,0,281631:0:0:0:0:
402,192,281631,128,0,282798:0:0:0:0:
329,192,281964,128,0,283131:0:0:0:0:
109,192,282298,128,0,283464:0:0:0:0:
182,192,282631,128,0,283798:0:0:0:0:
402,192,282964,128,0,284298:0:0:0:0:
329,192,283298,128,0,284298:0:0:0:0:
109,192,283631,128,0,284298:0:0:0:0:
182,192,283964,128,0,284298:0:0:0:0:
475,192,284298,128,0,286798:0:0:0:0:
329,192,284631,128,0,285464:0:0:0:0:
36,192,284964,128,0,286798:0:0:0:0:
182,192,285298,128,0,286464:0:0:0:0:
329,192,285631,128,0,285798:0:0:0:0:
329,192,285964,128,0,286798:0:0:0:0:
256,192,286298,128,0,286798:0:0:0:0:
182,192,286631,128,0,286798:0:0:0:0:
182,192,286964,1,0,0:0:0:0:
36,192,286964,128,0,292298:0:0:0:0:
329,192,286964,1,0,0:0:0:0:
475,192,286964,1,0,0:0:0:0:
256,192,287131,1,0,0:0:0:0:
182,192,287298,1,0,0:0:0:0:
475,192,287631,128,0,287742:0:0:0:0:
329,192,287631,128,0,287742:0:0:0:0:
182,192,287964,1,0,0:0:0:0:
329,192,288131,1,0,0:0:0:0:
182,192,288298,1,0,0:0:0:0:
182,192,288631,1,0,0:0:0:0:
475,192,288964,128,0,289075:0:0:0:0:
329,192,288964,128,0,289075:0:0:0:0:
182,192,289298,1,0,0:0:0:0:
182,192,289631,1,0,0:0:0:0:
256,192,289798,1,0,0:0:0:0:
182,192,289964,1,0,0:0:0:0:
475,192,290298,128,0,290409:0:0:0:0:
329,192,290298,128,0,290409:0:0:0:0:
182,192,290631,1,0,0:0:0:0:
475,192,290798,128,0,290909:0:0:0:0:
329,192,290798,128,0,290909:0:0:0:0:
182,192,290964,1,0,0:0:0:0:
475,192,291131,128,0,291242:0:0:0:0:
329,192,291131,128,0,291242:0:0:0:0:
182,192,291298,1,0,0:0:0:0:
475,192,291631,128,0,291742:0:0:0:0:
329,192,291631,128,0,291742:0:0:0:0:
182,192,291964,1,0,0:0:0:0:
109,192,292298,1,0,0:0:0:0:
182,192,292464,1,0,0:0:0:0:
109,192,292631,1,0,0:0:0:0:
329,192,292964,128,0,293353:0:0:0:0:
109,192,293298,1,0,0:0:0:0:
329,192,293464,128,0,294186:0:0:0:0:
109,192,293631,1,0,0:0:0:0:
109,192,293964,1,0,0:0:0:0:
329,192,294298,128,0,295520:0:0:0:0:
109,192,294631,1,0,0:0:0:0:
109,192,294964,1,0,0:0:0:0:
182,192,295131,1,0,0:0:0:0:
109,192,295298,1,0,0:0:0:0:
329,192,295631,128,0,296020:0:0:0:0:
109,192,295964,1,0,0:0:0:0:
329,192,296131,128,0,296353:0:0:0:0:
109,192,296298,1,0,0:0:0:0:
329,192,296464,128,0,296853:0:0:0:0:
109,192,296631,128,0,297548:0:0:0:0:
329,192,296964,128,0,297048:0:0:0:0:
329,192,297131,128,0,297214:0:0:0:0:
329,192,297298,128,0,297381:0:0:0:0:
329,192,297464,128,0,297548:0:0:0:0:
256,192,310984,5,0,0:0:0:0:
475,192,310984,128,0,311484:0:0:0:0:
36,192,310984,128,0,311484:0:0:0:0:
182,192,311234,128,0,311734:0:0:0:0:
329,192,311234,128,0,311734:0:0:0:0:
402,192,312484,128,0,312984:0:0:0:0:
109,192,312484,128,0,312984:0:0:0:0:
256,192,312734,1,0,0:0:0:0:
36,192,312984,128,0,313234:0:0:0:0:
475,192,312984,128,0,313234:0:0:0:0:
475,192,313984,128,0,314484:0:0:0:0:
36,192,313984,128,0,314484:0:0:0:0:
256,192,313984,1,0,0:0:0:0:
182,192,314234,128,0,314734:0:0:0:0:
329,192,314234,128,0,314734:0:0:0:0:
402,192,315484,128,0,315984:0:0:0:0:
109,192,315484,128,0,315984:0:0:0:0:
256,192,315734,1,0,0:0:0:0:
475,192,315984,128,0,316234:0:0:0:0:
36,192,315984,128,0,316234:0:0:0:0:
329,192,316984,128,0,317734:0:0:0:0:
64,192,316984,128,0,318484:0:0:0:0:
402,192,317234,1,0,0:0:0:0:
256,192,317484,1,0,0:0:0:0:
329,192,317984,128,0,318234:0:0:0:0:
475,192,318484,128,0,319984:0:0:0:0:
402,192,318734,1,0,0:0:0:0:
256,192,318984,1,0,0:0:0:0:
109,192,319234,128,0,319984:0:0:0:0:
402,192,319234,1,0,0:0:0:0:
402,192,319484,128,0,319734:0:0:0:0:
36,192,319984,128,0,321484:0:0:0:0:
109,192,320234,1,0,0:0:0:0:
256,192,320484,1,0,0:0:0:0:
402,192,320734,128,0,321484:0:0:0:0:
109,192,320734,1,0,0:0:0:0:
256,192,321484,128,0,322484:0:0:0:0:
448,192,321484,128,0,321984:0:0:0:0:
36,192,321984,128,0,322484:0:0:0:0:
475,192,322984,128,0,323984:0:0:0:0:
36,192,322984,128,0,323234:0:0:0:0:
329,192,323484,128,0,323734:0:0:0:0:
475,192,324234,1,0,0:0:0:0:
475,192,324484,128,0,324734:0:0:0:0:
64,192,324484,128,0,325984:0:0:0:0:
182,192,324984,128,0,325234:0:0:0:0:
256,192,325484,128,0,325984:0:0:0:0:
329,192,325484,1,0,0:0:0:0:
320,192,325984,128,0,327484:0:0:0:0:
36,192,326234,128,0,326484:0:0:0:0:
475,192,326484,128,0,326734:0:0:0:0:
402,192,326984,128,0,327234:0:0:0:0:
109,192,327234,128,0,327484:0:0:0:0:
256,192,327484,128,0,328984:0:0:0:0:
64,192,327484,128,0,330484:0:0:0:0:
192,192,327484,128,0,327984:0:0:0:0:
448,192,327984,128,0,328984:0:0:0:0:
182,192,328984,128,0,329484:0:0:0:0:
475,192,329234,128,0,329734:0:0:0:0:
182,192,329984,128,0,330484:0:0:0:0:
256,192,330234,128,0,330484:0:0:0:0:
475,192,330484,128,0,330984:0:0:0:0:
320,192,330484,128,0,331984:0:0:0:0:
182,192,330734,128,0,331234:0:0:0:0:
36,192,331484,128,0,331984:0:0:0:0:
109,192,331734,128,0,331984:0:0:0:0:
402,192,331984,128,0,332484:0:0:0:0:
192,192,331984,128,0,333484:0:0:0:0:
329,192,332234,128,0,332734:0:0:0:0:
36,192,333484,128,0,333984:0:0:0:0:
329,192,333484,1,0,0:0:0:0:
448,192,333484,128,0,333984:0:0:0:0:
182,192,333984,1,0,0:0:0:0:
320,192,333984,128,0,334484:0:0:0:0:
36,192,334484,1,0,0:0:0:0:
448,192,334484,1,0,0:0:0:0:
192,192,334484,128,0,334984:0:0:0:0:
329,192,334984,128,0,335484:0:0:0:0:
36,192,334984,128,0,336234:0:0:0:0:
182,192,335234,128,0,335734:0:0:0:0:
475,192,335984,128,0,336484:0:0:0:0:
36,192,336484,128,0,336984:0:0:0:0:
320,192,336484,128,0,337984:0:0:0:0:
182,192,336734,128,0,337234:0:0:0:0:
402,192,337484,128,0,337984:0:0:0:0:
475,192,337734,128,0,337984:0:0:0:0:
64,192,337984,128,0,339484:0:0:0:0:
182,192,338234,128,0,339484:0:0:0:0:
329,192,338734,128,0,339484:0:0:0:0:
475,192,338984,128,0,339484:0:0:0:0:
109,192,339234,1,0,0:0:0:0:
402,192,339234,1,0,0:0:0:0:
256,192,340484,1,0,0:0:0:0:
475,192,340484,128,0,340984:0:0:0:0:
64,192,340984,128,0,343734:0:0:0:0:
109,192,341734,128,0,342484:0:0:0:0:
182,192,341734,128,0,342484:0:0:0:0:
402,192,342484,128,0,343734:0:0:0:0:
320,192,342484,128,0,345484:0:0:0:0:
475,192,343734,1,0,0:0:0:0:
475,192,343984,1,0,0:0:0:0:
475,192,344234,1,0,0:0:0:0:
475,192,344484,1,0,0:0:0:0:
256,192,344984,128,0,346984:0:0:0:0:
36,192,345234,128,0,346234:0:0:0:0:
329,192,346234,128,0,346984:0:0:0:0:
64,192,346984,128,0,349984:0:0:0:0:
402,192,347734,1,0,0:0:0:0:
256,192,347734,1,0,0:0:0:0:
402,192,347984,128,0,348484:0:0:0:0:
256,192,347984,128,0,348484:0:0:0:0:
329,192,348234,1,0,0:0:0:0:
402,192,348984,128,0,349484:0:0:0:0:
256,192,348984,128,0,349484:0:0:0:0:
329,192,349234,1,0,0:0:0:0:
475,192,349734,1,0,0:0:0:0:
256,192,349984,128,0,350734:0:0:0:0:
448,192,349984,128,0,351484:0:0:0:0:
109,192,350734,1,0,0:0:0:0:
36,192,351234,1,0,0:0:0:0:
36,192,351484,128,0,353484:0:0:0:0:
109,192,351984,128,0,352734:0:0:0:0:
256,192,352234,128,0,352734:0:0:0:0:
402,192,352484,128,0,352734:0:0:0:0:
256,192,352984,128,0,353484:0:0:0:0:
109,192,353234,128,0,353484:0:0:0:0:
256,192,353984,1,0,0:0:0:0:
36,192,354234,128,0,354984:0:0:0:0:
402,192,354234,1,0,0:0:0:0:
256,192,354484,128,0,354984:0:0:0:0:
475,192,354734,128,0,354984:0:0:0:0:
182,192,354734,128,0,354984:0:0:0:0:
109,192,355484,128,0,355734:0:0:0:0:
402,192,355484,128,0,356234:0:0:0:0:
256,192,355484,128,0,355984:0:0:0:0:
329,192,356484,128,0,357984:0:0:0:0:
475,192,356484,128,0,357984:0:0:0:0:
36,192,356484,128,0,357234:0:0:0:0:
182,192,356484,128,0,357484:0:0:0:0:
256,192,356984,1,0,0:0:0:0:
36,192,357984,128,0,358984:0:0:0:0:
182,192,358234,128,0,358484:0:0:0:0:
329,192,358484,128,0,358734:0:0:0:0:
475,192,358734,128,0,358984:0:0:0:0:
182,192,358984,128,0,361984:0:0:0:0:
256,192,359984,1,0,0:0:0:0:
109,192,359984,1,0,0:0:0:0:
402,192,359984,128,0,360484:0:0:0:0:
475,192,360484,128,0,361984:0:0:0:0:
36,192,360484,128,0,361984:0:0:0:0:
402,192,361984,128,0,362734:0:0:0:0:
109,192,361984,128,0,362734:0:0:0:0:
475,192,362734,128,0,363484:0:0:0:0:
329,192,362734,128,0,362984:0:0:0:0:
36,192,363234,128,0,363484:0:0:0:0:
109,192,363484,128,0,364484:0:0:0:0:
192,192,363484,1,0,0:0:0:0:
256,192,363984,128,0,364484:0:0:0:0:
475,192,363984,128,0,364484:0:0:0:0:
329,192,364234,128,0,364734:0:0:0:0:
402,192,364484,128,0,364984:0:0:0:0:
329,192,364984,128,0,365984:0:0:0:0:
182,192,364984,128,0,366234:0:0:0:0:
64,192,364984,128,0,366484:0:0:0:0:
475,192,364984,128,0,365734:0:0:0:0:
329,192,366484,128,0,366984:0:0:0:0:
182,192,366734,128,0,367234:0:0:0:0:
402,192,366984,128,0,367984:0:0:0:0:
36,192,366984,128,0,367484:0:0:0:0:
256,192,367734,128,0,367984:0:0:0:0:
36,192,367984,128,0,368484:0:0:0:0:
402,192,368734,1,0,0:0:0:0:
475,192,368984,1,0,0:0:0:0:
402,192,369234,1,0,0:0:0:0:
256,192,369484,128,0,369984:0:0:0:0:
36,192,369484,128,0,369984:0:0:0:0:
402,192,369984,128,0,370484:0:0:0:0:
182,192,369984,128,0,370484:0:0:0:0:
329,192,370484,128,0,370984:0:0:0:0:
109,192,370484,128,0,370984:0:0:0:0:
36,192,370984,128,0,372484:0:0:0:0:
475,192,370984,128,0,371484:0:0:0:0:
256,192,371734,1,0,0:0:0:0:
402,192,371984,128,0,372234:0:0:0:0:
475,192,371984,128,0,372234:0:0:0:0:
182,192,372234,128,0,372484:0:0:0:0:
256,192,372234,128,0,372484:0:0:0:0:
64,192,372984,1,0,0:0:0:0:
109,192,373234,1,0,0:0:0:0:
475,192,373484,128,0,373984:0:0:0:0:
256,192,373734,1,0,0:0:0:0:
475,192,374234,1,0,0:0:0:0:
402,192,374484,1,0,0:0:0:0:
475,192,374734,128,0,374984:0:0:0:0:
402,192,374984,128,0,375234:0:0:0:0:
329,192,375234,128,0,375484:0:0:0:0:
182,192,375484,128,0,375984:0:0:0:0:
256,192,375484,128,0,376484:0:0:0:0:
64,192,375484,128,0,376984:0:0:0:0:
182,192,376484,1,0,0:0:0:0:
256,192,376984,128,0,378234:0:0:0:0:
109,192,377734,1,0,0:0:0:0:
36,192,377734,1,0,0:0:0:0:
402,192,377984,1,0,0:0:0:0:
475,192,377984,1,0,0:0:0:0:
109,192,378484,1,0,0:0:0:0:
36,192,378484,1,0,0:0:0:0:
256,192,379234,1,0,0:0:0:0:
36,192,379484,1,0,0:0:0:0:
109,192,379484,128,0,379984:0:0:0:0:
402,192,379484,128,0,379984:0:0:0:0:
329,192,379484,1,0,0:0:0:0:
256,192,379734,1,0,0:0:0:0:
36,192,379984,1,0,0:0:0:0:
329,192,379984,1,0,0:0:0:0:
182,192,379984,128,0,380734:0:0:0:0:
475,192,379984,128,0,380734:0:0:0:0:
329,192,380734,1,0,0:0:0:0:
36,192,380734,1,0,0:0:0:0:
256,192,380984,1,0,0:0:0:0:
36,192,381234,1,0,0:0:0:0:
448,192,381234,1,0,0:0:0:0:
448,192,381484,128,0,381984:0:0:0:0:
36,192,381984,128,0,382484:0:0:0:0:
256,192,381984,128,0,382984:0:0:0:0:
182,192,381984,1,0,0:0:0:0:
475,192,382484,128,0,382984:0:0:0:0:
64,192,382984,128,0,384484:0:0:0:0:
329,192,382984,128,0,383484:0:0:0:0:
182,192,383484,128,0,383984:0:0:0:0:
256,192,383734,1,0,0:0:0:0:
402,192,383984,128,0,384484:0:0:0:0:
475,192,384234,1,0,0:0:0:0:
182,192,384484,1,0,0:0:0:0:
109,192,384484,128,0,385984:0:0:0:0:
329,192,384984,1,0,0:0:0:0:
256,192,384984,128,0,385984:0:0:0:0:
475,192,385484,128,0,385984:0:0:0:0:
402,192,385484,128,0,385984:0:0:0:0:
329,192,385734,128,0,385984:0:0:0:0:
36,192,385984,128,0,389484:0:0:0:0:
109,192,386484,128,0,388484:0:0:0:0:
182,192,386984,128,0,388984:0:0:0:0:
475,192,387484,128,0,388484:0:0:0:0:
329,192,387984,128,0,389484:0:0:0:0:
402,192,388484,128,0,389984:0:0:0:0:
475,192,388984,128,0,390484:0:0:0:0:
