osu file format v14

[General]
AudioFilename: audio.mp3
AudioLeadIn: 0
PreviewTime: 316528
Countdown: 0
SampleSet: Soft
StackLeniency: 0.7
Mode: 3
LetterboxInBreaks: 0
SpecialStyle: 0
WidescreenStoryboard: 0

[Editor]
DistanceSpacing: 0.8
BeatDivisor: 4
GridSize: 4
TimelineZoom: 2.1

[Metadata]
Title:Extra Level (Regular)
TitleUnicode:Extra Level (Regular)
Artist:osu!mania 7K Dan Course
ArtistUnicode:osu!mania 7K Dan Course
Creator:Jinjin
Version:Gamma Dan (Marathon)
Source:
Tags:goreshit satori de pon! chroma sayonara planet wars dj technorch nijuu leaf wizdomiot
BeatmapID:1019920
BeatmapSetID:477431

[Difficulty]
HPDrainRate:8
CircleSize:7
OverallDifficulty:8.5
ApproachRate:5
SliderMultiplier:1.4
SliderTickRate:1

[Events]
//Background and Video events
0,0,"gammabg.jpg",0,0
//Break Periods
2,141626,151949
2,271206,280328
2,400728,411533
//Storyboard Layer 0 (Background)
//Storyboard Layer 1 (Fail)
//Storyboard Layer 2 (Pass)
//Storyboard Layer 3 (Foreground)
//Storyboard Sound Samples

[TimingPoints]
99,666.666666666667,4,2,0,0,1,0
99,-54.9450549450549,4,2,0,0,0,0
10703,255.31914893617,4,2,0,0,1,0
10703,-117.647058823529,4,2,0,0,0,0
152614,267.857142857143,4,2,0,0,1,0
152614,-112.359550561798,4,2,0,0,0,0
281528,500,4,2,0,0,1,0
281528,-59.8802395209581,4,2,0,0,0,0
292528,375,4,2,0,0,1,0
292528,-80,4,2,0,0,0,0
411833,300,3,2,0,5,1,0
411833,-100,3,2,0,5,0,0

[HitObjects]
36,192,99,5,2,1:0:0:0:
109,192,99,1,2,1:0:0:0:
475,192,99,128,2,432:2:0:0:0:
256,192,432,128,2,515:2:0:0:0:
402,192,515,128,2,765:2:0:0:0:
475,192,765,128,2,2682:2:0:0:0:
36,192,1432,1,2,1:0:0:0:
109,192,1432,1,2,1:0:0:0:
329,192,2599,1,0,0:0:0:0:
256,192,2599,1,2,1:0:0:0:
182,192,2682,1,2,1:0:0:0:
402,192,2682,128,2,2765:2:0:0:0:
109,192,2765,1,2,1:0:0:0:
36,192,2765,1,2,1:0:0:0:
329,192,2765,128,2,4015:2:0:0:0:
475,192,4015,128,2,4099:2:0:0:0:
109,192,4099,1,2,1:0:0:0:
36,192,4099,1,2,1:0:0:0:
256,192,4099,128,2,5432:2:0:0:0:
36,192,5432,1,2,1:0:0:0:
109,192,5432,1,2,1:0:0:0:
475,192,5432,128,2,6765:2:0:0:0:
402,192,6765,128,2,8099:2:0:0:0:
109,192,6765,1,2,1:0:0:0:
36,192,6765,1,2,1:0:0:0:
329,192,7932,1,0,0:0:0:0:
256,192,7932,1,2,1:0:0:0:
182,192,8015,1,2,1:0:0:0:
109,192,8099,1,2,1:0:0:0:
36,192,8099,1,2,1:0:0:0:
329,192,8099,128,2,9432:2:0:0:0:
475,192,9432,128,2,10265:2:0:0:0:
109,192,9432,1,2,1:0:0:0:
36,192,9432,1,2,1:0:0:0:
256,192,9599,1,2,1:0:0:0:
402,192,9599,1,2,1:0:0:0:
329,192,9765,1,2,1:0:0:0:
182,192,9765,1,2,1:0:0:0:
256,192,9932,1,2,1:0:0:0:
109,192,9932,1,2,1:0:0:0:
36,192,10099,1,2,2:0:0:0:
109,192,10182,1,2,2:0:0:0:
182,192,10265,1,2,2:0:0:0:
256,192,10349,1,2,2:0:0:0:
182,192,10432,1,2,2:0:0:0:
256,192,10515,1,2,2:0:0:0:
329,192,10599,1,2,2:0:0:0:
402,192,10640,1,2,2:0:0:0:
475,192,10703,1,0,0:0:0:0:
182,192,10703,1,2,0:0:0:0:
109,192,10703,1,2,0:0:0:0:
329,192,10766,1,0,0:0:0:0:
256,192,10830,1,0,0:0:0:0:
36,192,10830,1,0,0:0:0:0:
329,192,10894,1,0,0:0:0:0:
109,192,10958,1,2,0:0:0:0:
182,192,10958,1,2,0:0:0:0:
402,192,10958,1,0,0:0:0:0:
475,192,11022,1,0,0:0:0:0:
329,192,11085,1,0,0:0:0:0:
256,192,11085,1,0,0:0:0:0:
182,192,11149,1,0,0:0:0:0:
402,192,11213,1,0,0:0:0:0:
109,192,11213,1,2,0:0:0:0:
36,192,11213,1,2,0:0:0:0:
256,192,11277,1,0,0:0:0:0:
182,192,11341,1,0,0:0:0:0:
475,192,11341,1,0,0:0:0:0:
402,192,11405,1,0,0:0:0:0:
36,192,11468,1,0,0:0:0:0:
182,192,11468,1,2,0:0:0:0:
475,192,11468,1,2,0:0:0:0:
256,192,11532,1,0,0:0:0:0:
402,192,11596,1,0,0:0:0:0:
109,192,11596,1,0,0:0:0:0:
329,192,11660,1,0,0:0:0:0:
36,192,11724,1,2,0:0:0:0:
182,192,11724,1,0,0:0:0:0:
256,192,11724,1,2,0:0:0:0:
109,192,11788,1,0,0:0:0:0:
475,192,11851,1,0,0:0:0:0:
182,192,11851,1,0,0:0:0:0:
402,192,11915,1,0,0:0:0:0:
329,192,11979,1,0,0:0:0:0:
109,192,11979,1,2,0:0:0:0:
36,192,11979,1,2,0:0:0:0:
182,192,12043,1,0,0:0:0:0:
256,192,12107,1,0,0:0:0:0:
475,192,12107,1,0,0:0:0:0:
329,192,12171,1,0,0:0:0:0:
182,192,12234,1,2,0:0:0:0:
402,192,12234,1,2,0:0:0:0:
36,192,12234,1,0,0:0:0:0:
329,192,12298,1,0,0:0:0:0:
109,192,12362,1,0,0:0:0:0:
475,192,12362,1,0,0:0:0:0:
329,192,12426,1,0,0:0:0:0:
182,192,12490,1,2,0:0:0:0:
36,192,12490,1,2,0:0:0:0:
402,192,12490,1,0,0:0:0:0:
109,192,12554,1,0,0:0:0:0:
256,192,12617,1,0,0:0:0:0:
475,192,12617,1,0,0:0:0:0:
36,192,12681,1,0,0:0:0:0:
329,192,12745,1,2,0:0:0:0:
402,192,12745,1,2,0:0:0:0:
109,192,12745,1,0,0:0:0:0:
182,192,12809,1,0,0:0:0:0:
475,192,12873,1,0,0:0:0:0:
36,192,12873,1,0,0:0:0:0:
329,192,12937,1,0,0:0:0:0:
256,192,13000,1,2,0:0:0:0:
182,192,13000,1,2,0:0:0:0:
36,192,13000,1,0,0:0:0:0:
402,192,13064,1,0,0:0:0:0:
109,192,13128,1,0,0:0:0:0:
329,192,13128,1,0,0:0:0:0:
256,192,13192,1,0,0:0:0:0:
329,192,13256,1,0,0:0:0:0:
182,192,13256,1,2,0:0:0:0:
475,192,13256,1,2,0:0:0:0:
402,192,13320,1,0,0:0:0:0:
109,192,13383,1,0,0:0:0:0:
256,192,13383,1,0,0:0:0:0:
36,192,13447,1,0,0:0:0:0:
182,192,13511,1,2,0:0:0:0:
329,192,13511,1,2,0:0:0:0:
475,192,13511,1,0,0:0:0:0:
402,192,13575,1,0,0:0:0:0:
256,192,13639,1,0,0:0:0:0:
109,192,13639,1,0,0:0:0:0:
182,192,13702,1,0,0:0:0:0:
256,192,13766,1,2,0:0:0:0:
36,192,13766,1,0,0:0:0:0:
402,192,13766,1,2,0:0:0:0:
329,192,13830,1,0,0:0:0:0:
109,192,13894,1,0,0:0:0:0:
182,192,13894,1,0,0:0:0:0:
256,192,13958,1,0,0:0:0:0:
329,192,14022,1,2,0:0:0:0:
36,192,14022,1,0,0:0:0:0:
402,192,14022,1,2,0:0:0:0:
182,192,14085,1,0,0:0:0:0:
256,192,14149,1,0,0:0:0:0:
475,192,14149,1,0,0:0:0:0:
402,192,14213,1,0,0:0:0:0:
329,192,14277,1,0,0:0:0:0:
182,192,14277,1,2,0:0:0:0:
109,192,14277,1,2,0:0:0:0:
256,192,14341,1,0,0:0:0:0:
475,192,14405,1,0,0:0:0:0:
109,192,14405,1,0,0:0:0:0:
329,192,14468,1,0,0:0:0:0:
402,192,14532,1,0,0:0:0:0:
182,192,14532,1,2,0:0:0:0:
36,192,14532,1,2,0:0:0:0:
329,192,14596,1,0,0:0:0:0:
256,192,14660,1,0,0:0:0:0:
109,192,14660,1,2,0:0:0:0:
402,192,14660,1,2,0:0:0:0:
182,192,14724,1,0,0:0:0:0:
329,192,14788,1,2,0:0:0:0:
475,192,14788,1,0,0:0:0:0:
36,192,14788,1,2,0:0:0:0:
256,192,14851,1,0,0:0:0:0:
182,192,14915,1,0,0:0:0:0:
109,192,14915,1,0,0:0:0:0:
256,192,14979,1,0,0:0:0:0:
36,192,15043,1,0,0:0:0:0:
402,192,15043,1,2,0:0:0:0:
329,192,15043,1,2,0:0:0:0:
475,192,15107,1,0,0:0:0:0:
256,192,15171,1,0,0:0:0:0:
109,192,15171,1,0,0:0:0:0:
182,192,15234,1,0,0:0:0:0:
402,192,15298,1,2,0:0:0:0:
329,192,15298,1,2,0:0:0:0:
109,192,15298,1,0,0:0:0:0:
256,192,15362,1,0,0:0:0:0:
182,192,15426,1,0,0:0:0:0:
475,192,15426,1,0,0:0:0:0:
402,192,15490,1,0,0:0:0:0:
329,192,15554,1,2,0:0:0:0:
256,192,15554,1,0,0:0:0:0:
36,192,15554,1,2,0:0:0:0:
182,192,15617,1,0,0:0:0:0:
109,192,15681,1,0,0:0:0:0:
329,192,15681,1,0,0:0:0:0:
402,192,15745,1,0,0:0:0:0:
36,192,15809,1,0,0:0:0:0:
256,192,15809,1,2,0:0:0:0:
475,192,15809,1,2,0:0:0:0:
329,192,15873,1,0,0:0:0:0:
402,192,15937,1,0,0:0:0:0:
109,192,15937,1,0,0:0:0:0:
182,192,16000,1,0,0:0:0:0:
256,192,16064,1,0,0:0:0:0:
329,192,16064,1,2,0:0:0:0:
36,192,16064,1,2,0:0:0:0:
182,192,16128,1,0,0:0:0:0:
109,192,16192,1,0,0:0:0:0:
402,192,16192,1,0,0:0:0:0:
329,192,16256,1,0,0:0:0:0:
182,192,16320,1,2,0:0:0:0:
256,192,16320,1,2,0:0:0:0:
36,192,16320,1,0,0:0:0:0:
329,192,16383,1,0,0:0:0:0:
109,192,16447,1,0,0:0:0:0:
402,192,16447,1,0,0:0:0:0:
475,192,16511,1,0,0:0:0:0:
329,192,16575,1,2,0:0:0:0:
256,192,16575,1,2,0:0:0:0:
36,192,16575,1,0,0:0:0:0:
182,192,16639,1,0,0:0:0:0:
109,192,16702,1,0,0:0:0:0:
402,192,16702,1,0,0:0:0:0:
256,192,16766,1,0,0:0:0:0:
329,192,16830,1,2,0:0:0:0:
36,192,16830,1,0,0:0:0:0:
475,192,16830,1,2,0:0:0:0:
182,192,16894,1,0,0:0:0:0:
256,192,16958,1,0,0:0:0:0:
109,192,16958,1,0,0:0:0:0:
402,192,17022,1,0,0:0:0:0:
329,192,17085,1,2,0:0:0:0:
182,192,17085,1,2,0:0:0:0:
475,192,17085,1,0,0:0:0:0:
256,192,17149,1,0,0:0:0:0:
36,192,17213,1,0,0:0:0:0:
182,192,17213,1,0,0:0:0:0:
109,192,17277,1,0,0:0:0:0:
182,192,17341,1,0,0:0:0:0:
329,192,17341,1,2,0:0:0:0:
402,192,17341,1,2,0:0:0:0:
256,192,17405,1,0,0:0:0:0:
36,192,17468,1,0,0:0:0:0:
109,192,17468,1,0,0:0:0:0:
182,192,17532,1,0,0:0:0:0:
329,192,17596,1,2,0:0:0:0:
402,192,17596,1,0,0:0:0:0:
475,192,17596,1,2,0:0:0:0:
256,192,17660,1,0,0:0:0:0:
329,192,17724,1,0,0:0:0:0:
109,192,17724,1,0,0:0:0:0:
256,192,17788,1,0,0:0:0:0:
402,192,17851,1,0,2:0:0:0:
36,192,17851,1,0,2:0:0:0:
475,192,17851,1,2,0:0:0:0:
109,192,17915,1,0,2:0:0:0:
329,192,17915,1,0,2:0:0:0:
182,192,17979,1,0,2:0:0:0:
256,192,17979,1,0,2:0:0:0:
329,192,18043,1,0,2:0:0:0:
109,192,18043,1,0,2:0:0:0:
36,192,18107,1,0,2:0:0:0:
402,192,18107,1,0,2:0:0:0:
109,192,18171,1,0,2:0:0:0:
475,192,18171,1,0,2:0:0:0:
182,192,18234,1,0,2:0:0:0:
402,192,18234,1,0,2:0:0:0:
329,192,18298,1,0,2:0:0:0:
256,192,18298,1,0,2:0:0:0:
182,192,18362,1,0,2:0:0:0:
402,192,18362,1,0,2:0:0:0:
475,192,18426,1,0,2:0:0:0:
109,192,18426,1,0,2:0:0:0:
402,192,18490,1,0,2:0:0:0:
36,192,18490,1,0,2:0:0:0:
109,192,18554,1,0,2:0:0:0:
329,192,18554,1,0,2:0:0:0:
182,192,18617,1,0,2:0:0:0:
256,192,18617,1,0,2:0:0:0:
109,192,18681,1,0,2:0:0:0:
329,192,18681,1,0,2:0:0:0:
402,192,18745,1,0,2:0:0:0:
36,192,18745,1,0,2:0:0:0:
109,192,18809,1,0,2:0:0:0:
475,192,18809,1,0,2:0:0:0:
182,192,18873,1,0,2:0:0:0:
402,192,18873,1,0,2:0:0:0:
256,192,18873,1,4,2:0:0:0:
329,192,18937,1,0,0:0:0:0:
256,192,19000,1,0,0:0:0:0:
36,192,19000,1,0,0:0:0:0:
182,192,19064,1,0,0:0:0:0:
402,192,19128,1,8,2:0:0:0:
256,192,19128,1,8,2:0:0:0:
109,192,19128,1,8,2:0:0:0:
475,192,19128,1,2,0:0:0:0:
329,192,19192,1,0,0:0:0:0:
182,192,19256,1,0,0:0:0:0:
36,192,19256,1,0,0:0:0:0:
256,192,19320,1,0,0:0:0:0:
329,192,19383,1,2,0:0:0:0:
475,192,19383,1,0,0:0:0:0:
109,192,19383,1,2,0:0:0:0:
402,192,19447,1,0,0:0:0:0:
256,192,19511,1,0,0:0:0:0:
36,192,19511,1,0,0:0:0:0:
329,192,19575,1,0,0:0:0:0:
182,192,19639,1,8,2:0:0:0:
109,192,19639,1,2,0:0:0:0:
402,192,19639,1,8,2:0:0:0:
475,192,19639,1,8,2:0:0:0:
256,192,19702,1,0,0:0:0:0:
329,192,19766,1,0,0:0:0:0:
36,192,19766,1,0,0:0:0:0:
402,192,19830,1,0,0:0:0:0:
475,192,19894,1,0,0:0:0:0:
256,192,19894,1,2,0:0:0:0:
182,192,19894,1,2,0:0:0:0:
329,192,19958,1,0,0:0:0:0:
109,192,20022,1,0,0:0:0:0:
36,192,20022,1,0,0:0:0:0:
256,192,20085,1,0,0:0:0:0:
182,192,20149,1,8,2:0:0:0:
36,192,20149,1,8,2:0:0:0:
402,192,20149,1,8,2:0:0:0:
475,192,20149,1,2,0:0:0:0:
109,192,20213,1,0,0:0:0:0:
329,192,20277,1,0,0:0:0:0:
256,192,20277,1,0,0:0:0:0:
182,192,20341,1,0,0:0:0:0:
36,192,20405,1,0,0:0:0:0:
475,192,20405,1,2,0:0:0:0:
402,192,20405,1,2,0:0:0:0:
329,192,20468,1,0,0:0:0:0:
109,192,20532,1,0,0:0:0:0:
256,192,20532,1,0,0:0:0:0:
182,192,20596,1,0,0:0:0:0:
329,192,20660,1,8,2:0:0:0:
402,192,20660,1,8,2:0:0:0:
475,192,20660,1,2,0:0:0:0:
36,192,20660,1,8,2:0:0:0:
109,192,20724,1,0,0:0:0:0:
256,192,20788,1,0,0:0:0:0:
402,192,20788,1,0,0:0:0:0:
329,192,20851,1,0,0:0:0:0:
182,192,20915,1,2,0:0:0:0:
36,192,20915,1,2,0:0:0:0:
475,192,20915,1,0,0:0:0:0:
402,192,20979,1,0,0:0:0:0:
109,192,21043,1,0,0:0:0:0:
329,192,21043,1,0,0:0:0:0:
182,192,21107,1,0,0:0:0:0:
256,192,21171,1,8,2:0:0:0:
402,192,21171,1,8,2:0:0:0:
475,192,21171,1,2,0:0:0:0:
36,192,21171,1,8,2:0:0:0:
182,192,21234,1,0,0:0:0:0:
329,192,21298,1,0,0:0:0:0:
109,192,21298,1,0,0:0:0:0:
256,192,21362,1,0,0:0:0:0:
182,192,21426,1,0,0:0:0:0:
402,192,21426,1,2,0:0:0:0:
475,192,21426,1,2,0:0:0:0:
329,192,21490,1,0,0:0:0:0:
36,192,21554,1,0,0:0:0:0:
109,192,21554,1,0,0:0:0:0:
402,192,21617,1,0,0:0:0:0:
182,192,21681,1,8,2:0:0:0:
256,192,21681,1,2,0:0:0:0:
329,192,21681,1,8,2:0:0:0:
475,192,21681,1,8,2:0:0:0:
36,192,21745,1,0,0:0:0:0:
109,192,21809,1,0,0:0:0:0:
402,192,21809,1,0,0:0:0:0:
256,192,21873,1,0,0:0:0:0:
329,192,21937,1,2,0:0:0:0:
182,192,21937,1,2,0:0:0:0:
475,192,21937,1,0,0:0:0:0:
402,192,22000,1,0,0:0:0:0:
256,192,22064,1,0,0:0:0:0:
109,192,22064,1,0,0:0:0:0:
182,192,22128,1,0,0:0:0:0:
329,192,22192,1,8,2:0:0:0:
402,192,22192,1,8,2:0:0:0:
475,192,22192,1,2,0:0:0:0:
36,192,22192,1,8,2:0:0:0:
256,192,22256,1,0,0:0:0:0:
109,192,22320,1,0,0:0:0:0:
329,192,22320,1,0,0:0:0:0:
182,192,22383,1,0,0:0:0:0:
256,192,22447,1,2,0:0:0:0:
36,192,22447,1,2,0:0:0:0:
402,192,22447,1,0,0:0:0:0:
329,192,22511,1,0,0:0:0:0:
109,192,22575,1,0,0:0:0:0:
475,192,22575,1,0,0:0:0:0:
329,192,22639,1,0,0:0:0:0:
402,192,22702,1,2,0:0:0:0:
256,192,22702,1,8,2:0:0:0:
182,192,22702,1,8,2:0:0:0:
36,192,22702,1,8,2:0:0:0:
329,192,22766,1,0,0:0:0:0:
475,192,22830,1,8,2:0:0:0:
402,192,22830,1,8,2:0:0:0:
182,192,22830,1,2,0:0:0:0:
109,192,22830,1,8,2:0:0:0:
329,192,22894,1,0,0:0:0:0:
256,192,22958,1,2,0:0:0:0:
36,192,22958,1,2,0:0:0:0:
402,192,22958,1,0,0:0:0:0:
182,192,23022,1,0,0:0:0:0:
256,192,23085,1,0,0:0:0:0:
109,192,23085,1,0,0:0:0:0:
329,192,23149,1,0,0:0:0:0:
182,192,23213,1,8,2:0:0:0:
402,192,23213,1,8,2:0:0:0:
475,192,23213,1,8,2:0:0:0:
36,192,23213,1,2,0:0:0:0:
256,192,23277,1,0,0:0:0:0:
329,192,23341,1,0,0:0:0:0:
109,192,23341,1,0,0:0:0:0:
182,192,23405,1,0,0:0:0:0:
36,192,23468,1,0,0:0:0:0:
475,192,23468,1,2,0:0:0:0:
402,192,23468,1,2,0:0:0:0:
329,192,23532,1,0,0:0:0:0:
256,192,23596,1,0,0:0:0:0:
109,192,23596,1,0,0:0:0:0:
182,192,23660,1,0,0:0:0:0:
329,192,23724,1,8,2:0:0:0:
36,192,23724,1,8,2:0:0:0:
402,192,23724,1,8,2:0:0:0:
475,192,23724,1,2,0:0:0:0:
256,192,23788,1,0,0:0:0:0:
182,192,23851,1,0,0:0:0:0:
402,192,23851,1,0,0:0:0:0:
329,192,23915,1,0,0:0:0:0:
475,192,23979,1,0,0:0:0:0:
36,192,23979,1,2,0:0:0:0:
109,192,23979,1,2,0:0:0:0:
256,192,24043,1,0,0:0:0:0:
402,192,24107,1,0,0:0:0:0:
109,192,24107,1,0,0:0:0:0:
182,192,24171,1,0,0:0:0:0:
256,192,24234,1,2,0:0:0:0:
329,192,24234,1,8,2:0:0:0:
475,192,24234,1,8,2:0:0:0:
36,192,24234,1,8,2:0:0:0:
402,192,24298,1,0,0:0:0:0:
109,192,24362,1,0,0:0:0:0:
182,192,24362,1,0,0:0:0:0:
256,192,24426,1,0,0:0:0:0:
329,192,24490,1,2,0:0:0:0:
36,192,24490,1,2,0:0:0:0:
475,192,24490,1,0,0:0:0:0:
402,192,24554,1,0,0:0:0:0:
256,192,24617,1,0,0:0:0:0:
109,192,24617,1,0,0:0:0:0:
182,192,24681,1,0,0:0:0:0:
256,192,24745,1,8,2:0:0:0:
329,192,24745,1,2,0:0:0:0:
475,192,24745,1,8,2:0:0:0:
36,192,24745,1,8,2:0:0:0:
402,192,24809,1,0,0:0:0:0:
256,192,24873,1,0,0:0:0:0:
109,192,24873,1,0,0:0:0:0:
182,192,24937,1,0,0:0:0:0:
36,192,25000,1,0,0:0:0:0:
329,192,25000,1,2,0:0:0:0:
475,192,25000,1,2,0:0:0:0:
402,192,25064,1,0,0:0:0:0:
109,192,25128,1,0,0:0:0:0:
475,192,25128,1,0,0:0:0:0:
182,192,25192,1,0,0:0:0:0:
256,192,25256,1,8,2:0:0:0:
329,192,25256,1,8,2:0:0:0:
36,192,25256,1,8,2:0:0:0:
402,192,25256,1,2,0:0:0:0:
109,192,25320,1,0,0:0:0:0:
182,192,25383,1,0,0:0:0:0:
475,192,25383,1,0,0:0:0:0:
402,192,25447,1,0,0:0:0:0:
329,192,25511,1,0,0:0:0:0:
36,192,25511,1,2,0:0:0:0:
109,192,25511,1,2,0:0:0:0:
182,192,25575,1,0,0:0:0:0:
256,192,25639,1,0,0:0:0:0:
402,192,25639,1,0,0:0:0:0:
329,192,25702,1,0,0:0:0:0:
182,192,25766,1,2,0:0:0:0:
109,192,25766,1,8,2:0:0:0:
402,192,25766,1,8,2:0:0:0:
475,192,25766,1,8,2:0:0:0:
256,192,25830,1,0,0:0:0:0:
109,192,25894,1,0,0:0:0:0:
402,192,25894,1,0,0:0:0:0:
182,192,25958,1,0,0:0:0:0:
36,192,26022,1,0,2:0:0:0:
256,192,26022,1,0,2:0:0:0:
475,192,26022,1,2,0:0:0:0:
109,192,26085,1,0,2:0:0:0:
329,192,26085,1,0,2:0:0:0:
182,192,26149,1,0,2:0:0:0:
402,192,26149,1,0,2:0:0:0:
475,192,26213,1,0,2:0:0:0:
256,192,26213,1,0,2:0:0:0:
329,192,26277,1,0,2:0:0:0:
109,192,26277,1,0,2:0:0:0:
182,192,26341,1,0,2:0:0:0:
402,192,26341,1,0,2:0:0:0:
256,192,26405,1,0,2:0:0:0:
475,192,26405,1,0,2:0:0:0:
329,192,26468,1,0,2:0:0:0:
109,192,26468,1,0,2:0:0:0:
182,192,26532,1,0,2:0:0:0:
402,192,26532,1,0,2:0:0:0:
329,192,26596,1,0,2:0:0:0:
109,192,26596,1,0,2:0:0:0:
256,192,26660,1,0,2:0:0:0:
36,192,26660,1,0,2:0:0:0:
402,192,26724,1,0,2:0:0:0:
182,192,26724,1,0,2:0:0:0:
109,192,26788,1,0,2:0:0:0:
329,192,26788,1,0,2:0:0:0:
256,192,26851,1,0,2:0:0:0:
36,192,26851,1,0,2:0:0:0:
182,192,26915,1,0,2:0:0:0:
402,192,26915,1,0,2:0:0:0:
329,192,26979,1,0,2:0:0:0:
109,192,26979,1,0,2:0:0:0:
256,192,27043,1,0,2:0:0:0:
36,192,27043,1,0,2:0:0:0:
475,192,27043,1,4,2:0:0:0:
182,192,27043,1,8,0:0:0:0:
402,192,27107,1,0,0:0:0:0:
329,192,27171,1,8,0:0:0:0:
109,192,27171,1,0,0:0:0:0:
475,192,27171,1,8,0:0:0:0:
256,192,27234,1,0,0:0:0:0:
402,192,27298,1,2,0:0:0:0:
36,192,27298,1,8,2:0:0:0:
329,192,27298,1,8,2:0:0:0:
182,192,27298,1,8,2:0:0:0:
109,192,27362,1,0,0:0:0:0:
256,192,27426,1,8,0:0:0:0:
475,192,27426,1,0,0:0:0:0:
329,192,27426,1,8,0:0:0:0:
402,192,27490,1,0,0:0:0:0:
182,192,27554,1,8,0:0:0:0:
36,192,27554,1,2,0:0:0:0:
475,192,27554,1,8,0:0:0:0:
109,192,27617,1,0,0:0:0:0:
329,192,27681,1,0,0:0:0:0:
256,192,27681,1,0,0:0:0:0:
402,192,27745,1,0,0:0:0:0:
182,192,27809,1,8,0:0:0:0:
36,192,27809,1,2,0:0:0:0:
475,192,27809,1,8,2:0:0:0:
256,192,27809,1,8,0:0:0:0:
329,192,27873,1,0,0:0:0:0:
256,192,27937,1,8,0:0:0:0:
109,192,27937,1,8,0:0:0:0:
402,192,27937,1,0,0:0:0:0:
329,192,28000,1,0,0:0:0:0:
182,192,28064,1,8,0:0:0:0:
36,192,28064,1,2,0:0:0:0:
475,192,28064,1,8,0:0:0:0:
402,192,28128,1,0,0:0:0:0:
256,192,28192,1,8,0:0:0:0:
109,192,28192,1,0,0:0:0:0:
329,192,28192,1,8,0:0:0:0:
402,192,28256,1,0,0:0:0:0:
475,192,28320,1,8,2:0:0:0:
182,192,28320,1,8,2:0:0:0:
36,192,28320,1,2,0:0:0:0:
329,192,28320,1,8,2:0:0:0:
256,192,28383,1,0,0:0:0:0:
402,192,28447,1,8,0:0:0:0:
475,192,28447,1,8,0:0:0:0:
109,192,28447,1,0,0:0:0:0:
256,192,28511,1,0,0:0:0:0:
182,192,28575,1,8,0:0:0:0:
36,192,28575,1,2,0:0:0:0:
329,192,28575,1,8,0:0:0:0:
256,192,28639,1,0,0:0:0:0:
109,192,28702,1,0,0:0:0:0:
475,192,28702,1,0,0:0:0:0:
329,192,28766,1,0,0:0:0:0:
256,192,28830,1,2,0:0:0:0:
182,192,28830,1,8,0:0:0:0:
36,192,28830,1,8,0:0:0:0:
402,192,28830,1,8,2:0:0:0:
329,192,28894,1,0,0:0:0:0:
475,192,28958,1,8,0:0:0:0:
109,192,28958,1,0,0:0:0:0:
256,192,28958,1,8,0:0:0:0:
182,192,29022,1,0,0:0:0:0:
36,192,29085,1,2,0:0:0:0:
256,192,29085,1,8,0:0:0:0:
402,192,29085,1,8,0:0:0:0:
329,192,29149,1,0,0:0:0:0:
182,192,29213,1,8,0:0:0:0:
109,192,29213,1,8,0:0:0:0:
475,192,29213,1,0,0:0:0:0:
402,192,29277,1,0,0:0:0:0:
256,192,29341,1,8,2:0:0:0:
36,192,29341,1,2,0:0:0:0:
475,192,29341,1,8,2:0:0:0:
182,192,29341,1,8,2:0:0:0:
329,192,29405,1,0,0:0:0:0:
402,192,29468,1,0,0:0:0:0:
256,192,29468,1,8,0:0:0:0:
109,192,29468,1,8,0:0:0:0:
329,192,29532,1,0,0:0:0:0:
36,192,29596,1,8,0:0:0:0:
182,192,29596,1,8,0:0:0:0:
475,192,29596,1,2,0:0:0:0:
256,192,29660,1,0,0:0:0:0:
109,192,29724,1,0,0:0:0:0:
329,192,29724,1,0,0:0:0:0:
402,192,29788,1,0,0:0:0:0:
36,192,29851,1,2,0:0:0:0:
475,192,29851,1,8,2:0:0:0:
329,192,29851,1,8,0:0:0:0:
256,192,29851,1,8,0:0:0:0:
182,192,29915,1,0,0:0:0:0:
256,192,29979,1,8,0:0:0:0:
402,192,29979,1,0,0:0:0:0:
109,192,29979,1,8,0:0:0:0:
329,192,30043,1,0,0:0:0:0:
475,192,30107,1,0,0:0:0:0:
182,192,30107,1,2,0:0:0:0:
36,192,30107,1,2,0:0:0:0:
402,192,30171,1,0,0:0:0:0:
329,192,30234,1,0,0:0:0:0:
109,192,30234,1,0,0:0:0:0:
256,192,30298,1,0,0:0:0:0:
182,192,30362,1,2,0:0:0:0:
36,192,30362,1,8,2:0:0:0:
475,192,30362,1,8,2:0:0:0:
329,192,30362,1,8,2:0:0:0:
402,192,30426,1,0,0:0:0:0:
256,192,30490,1,0,0:0:0:0:
109,192,30490,1,0,0:0:0:0:
182,192,30554,1,0,0:0:0:0:
36,192,30617,1,2,0:0:0:0:
329,192,30617,1,2,0:0:0:0:
475,192,30617,1,0,0:0:0:0:
402,192,30681,1,0,0:0:0:0:
256,192,30745,1,0,0:0:0:0:
109,192,30745,1,0,0:0:0:0:
182,192,30809,1,0,0:0:0:0:
36,192,30873,1,8,2:0:0:0:
475,192,30873,1,2,0:0:0:0:
329,192,30873,1,8,2:0:0:0:
402,192,30873,1,8,2:0:0:0:
256,192,30937,1,0,0:0:0:0:
182,192,31000,1,8,2:0:0:0:
109,192,31000,1,8,2:0:0:0:
402,192,31000,1,8,2:0:0:0:
475,192,31000,1,2,0:0:0:0:
256,192,31064,1,0,0:0:0:0:
329,192,31128,1,8,0:0:0:0:
36,192,31128,1,8,0:0:0:0:
475,192,31128,1,2,0:0:0:0:
402,192,31192,1,0,0:0:0:0:
182,192,31256,1,8,0:0:0:0:
256,192,31256,1,2,0:0:0:0:
109,192,31256,1,8,0:0:0:0:
329,192,31320,1,0,0:0:0:0:
402,192,31383,1,8,2:0:0:0:
36,192,31383,1,8,2:0:0:0:
475,192,31383,1,2,0:0:0:0:
182,192,31383,1,8,2:0:0:0:
256,192,31447,1,0,0:0:0:0:
329,192,31511,1,8,0:0:0:0:
109,192,31511,1,8,0:0:0:0:
475,192,31511,1,0,0:0:0:0:
402,192,31575,1,0,0:0:0:0:
256,192,31639,1,2,0:0:0:0:
182,192,31639,1,8,0:0:0:0:
36,192,31639,1,8,0:0:0:0:
329,192,31702,1,0,0:0:0:0:
475,192,31766,1,0,0:0:0:0:
109,192,31766,1,0,0:0:0:0:
402,192,31830,1,0,0:0:0:0:
329,192,31894,1,2,0:0:0:0:
182,192,31894,1,8,0:0:0:0:
36,192,31894,1,8,0:0:0:0:
475,192,31894,1,8,2:0:0:0:
256,192,31958,1,0,0:0:0:0:
109,192,32022,1,0,0:0:0:0:
402,192,32022,1,8,0:0:0:0:
475,192,32022,1,8,0:0:0:0:
329,192,32085,1,0,0:0:0:0:
256,192,32149,1,8,0:0:0:0:
182,192,32149,1,8,0:0:0:0:
36,192,32149,1,2,0:0:0:0:
402,192,32213,1,0,0:0:0:0:
329,192,32277,1,8,0:0:0:0:
109,192,32277,1,8,0:0:0:0:
475,192,32277,1,0,0:0:0:0:
256,192,32341,1,0,0:0:0:0:
36,192,32405,1,8,2:0:0:0:
329,192,32405,1,8,2:0:0:0:
475,192,32405,1,2,0:0:0:0:
109,192,32405,1,8,2:0:0:0:
402,192,32468,1,0,0:0:0:0:
256,192,32532,1,8,0:0:0:0:
182,192,32532,1,8,0:0:0:0:
475,192,32532,1,0,0:0:0:0:
329,192,32596,1,0,0:0:0:0:
402,192,32660,1,2,0:0:0:0:
109,192,32660,1,8,0:0:0:0:
36,192,32660,1,8,0:0:0:0:
329,192,32724,1,0,0:0:0:0:
182,192,32788,1,0,0:0:0:0:
475,192,32788,1,0,0:0:0:0:
402,192,32851,1,0,0:0:0:0:
329,192,32915,1,8,0:0:0:0:
109,192,32915,1,2,0:0:0:0:
36,192,32915,1,8,2:0:0:0:
475,192,32915,1,8,0:0:0:0:
256,192,32979,1,0,0:0:0:0:
402,192,33043,1,0,0:0:0:0:
182,192,33043,1,8,0:0:0:0:
36,192,33043,1,8,0:0:0:0:
256,192,33107,1,0,0:0:0:0:
36,192,33171,1,8,0:0:0:0:
182,192,33171,1,8,0:0:0:0:
329,192,33171,1,2,0:0:0:0:
402,192,33234,1,0,0:0:0:0:
256,192,33298,1,8,0:0:0:0:
109,192,33298,1,8,0:0:0:0:
475,192,33298,1,0,0:0:0:0:
329,192,33362,1,0,0:0:0:0:
402,192,33426,1,8,2:0:0:0:
182,192,33426,1,8,2:0:0:0:
36,192,33426,1,8,2:0:0:0:
475,192,33426,1,2,0:0:0:0:
329,192,33490,1,0,0:0:0:0:
256,192,33554,1,8,0:0:0:0:
109,192,33554,1,8,0:0:0:0:
475,192,33554,1,0,0:0:0:0:
182,192,33617,1,0,0:0:0:0:
256,192,33681,1,8,0:0:0:0:
402,192,33681,1,2,0:0:0:0:
109,192,33681,1,8,0:0:0:0:
329,192,33745,1,0,0:0:0:0:
36,192,33809,1,0,0:0:0:0:
402,192,33809,1,0,0:0:0:0:
256,192,33873,1,0,0:0:0:0:
329,192,33937,1,2,0:0:0:0:
109,192,33937,1,8,0:0:0:0:
475,192,33937,1,8,2:0:0:0:
182,192,33937,1,8,0:0:0:0:
402,192,34000,1,0,0:0:0:0:
256,192,34064,1,8,0:0:0:0:
36,192,34064,1,8,0:0:0:0:
475,192,34064,1,0,0:0:0:0:
329,192,34128,1,0,0:0:0:0:
402,192,34192,1,0,0:0:0:0:
182,192,34192,1,2,0:0:0:0:
109,192,34192,1,2,0:0:0:0:
256,192,34256,1,0,0:0:0:0:
36,192,34320,1,0,0:0:0:0:
475,192,34320,1,0,0:0:0:0:
182,192,34383,1,0,0:0:0:0:
109,192,34447,1,8,2:0:0:0:
256,192,34447,1,8,2:0:0:0:
329,192,34447,1,8,2:0:0:0:
475,192,34447,1,2,0:0:0:0:
402,192,34511,1,0,0:0:0:0:
182,192,34575,1,0,0:0:0:0:
36,192,34575,1,0,0:0:0:0:
256,192,34639,1,0,0:0:0:0:
109,192,34702,1,2,0:0:0:0:
329,192,34702,1,2,0:0:0:0:
475,192,34702,1,0,0:0:0:0:
402,192,34766,1,0,0:0:0:0:
182,192,34830,1,0,0:0:0:0:
36,192,34830,1,0,0:0:0:0:
475,192,34830,1,2,0:0:0:0:
329,192,34894,1,2,0:0:0:0:
402,192,34894,1,0,0:0:0:0:
475,192,34958,1,0,0:0:0:0:
256,192,34958,1,0,0:0:0:0:
182,192,34958,1,2,0:0:0:0:
329,192,35022,1,0,0:0:0:0:
36,192,35022,1,0,0:0:0:0:
256,192,35085,1,2,0:0:0:0:
109,192,35085,1,2,0:0:0:0:
402,192,35085,1,0,0:0:0:0:
329,192,35149,1,0,0:0:0:0:
475,192,35213,1,2,0:0:0:0:
182,192,35213,1,8,0:0:0:0:
36,192,35213,1,8,0:0:0:0:
402,192,35277,1,0,0:0:0:0:
256,192,35341,1,8,0:0:0:0:
109,192,35341,1,0,0:0:0:0:
329,192,35341,1,8,0:0:0:0:
182,192,35405,1,0,0:0:0:0:
329,192,35468,1,8,2:0:0:0:
36,192,35468,1,8,2:0:0:0:
475,192,35468,1,2,0:0:0:0:
402,192,35468,1,8,2:0:0:0:
256,192,35532,1,0,0:0:0:0:
109,192,35596,1,8,0:0:0:0:
182,192,35596,1,8,0:0:0:0:
402,192,35596,1,0,0:0:0:0:
329,192,35660,1,0,0:0:0:0:
475,192,35724,1,2,0:0:0:0:
256,192,35724,1,8,0:0:0:0:
36,192,35724,1,8,0:0:0:0:
402,192,35788,1,0,0:0:0:0:
329,192,35851,1,0,0:0:0:0:
109,192,35851,1,0,0:0:0:0:
182,192,35915,1,0,0:0:0:0:
36,192,35979,1,2,0:0:0:0:
256,192,35979,1,8,2:0:0:0:
402,192,35979,1,8,0:0:0:0:
475,192,35979,1,8,0:0:0:0:
182,192,36043,1,0,0:0:0:0:
329,192,36107,1,8,0:0:0:0:
109,192,36107,1,0,0:0:0:0:
256,192,36107,1,8,0:0:0:0:
182,192,36171,1,0,0:0:0:0:
256,192,36234,1,8,0:0:0:0:
36,192,36234,1,8,0:0:0:0:
475,192,36234,1,2,0:0:0:0:
109,192,36298,1,0,0:0:0:0:
182,192,36362,1,8,0:0:0:0:
329,192,36362,1,8,0:0:0:0:
36,192,36362,1,0,0:0:0:0:
402,192,36426,1,0,0:0:0:0:
109,192,36490,1,8,2:0:0:0:
182,192,36490,1,8,2:0:0:0:
329,192,36490,1,8,2:0:0:0:
36,192,36490,1,2,0:0:0:0:
256,192,36554,1,0,0:0:0:0:
182,192,36617,1,0,0:0:0:0:
402,192,36617,1,8,0:0:0:0:
475,192,36617,1,8,0:0:0:0:
329,192,36681,1,0,0:0:0:0:
36,192,36745,1,8,0:0:0:0:
182,192,36745,1,8,0:0:0:0:
475,192,36745,1,2,0:0:0:0:
329,192,36809,1,0,0:0:0:0:
256,192,36873,1,0,0:0:0:0:
109,192,36873,1,0,0:0:0:0:
182,192,36937,1,0,0:0:0:0:
256,192,37000,1,2,0:0:0:0:
109,192,37000,1,8,2:0:0:0:
475,192,37000,1,8,0:0:0:0:
402,192,37000,1,8,0:0:0:0:
36,192,37064,1,0,0:0:0:0:
182,192,37128,1,8,0:0:0:0:
109,192,37128,1,8,0:0:0:0:
329,192,37128,1,0,0:0:0:0:
256,192,37192,1,0,0:0:0:0:
182,192,37256,1,8,0:0:0:0:
36,192,37256,1,8,0:0:0:0:
402,192,37256,1,2,0:0:0:0:
109,192,37320,1,0,0:0:0:0:
182,192,37383,1,8,0:0:0:0:
475,192,37383,1,0,0:0:0:0:
256,192,37383,1,8,0:0:0:0:
402,192,37447,1,0,0:0:0:0:
329,192,37511,1,8,2:0:0:0:
109,192,37511,1,8,2:0:0:0:
36,192,37511,1,2,0:0:0:0:
475,192,37511,1,8,2:0:0:0:
256,192,37575,1,0,0:0:0:0:
182,192,37639,1,0,0:0:0:0:
402,192,37639,1,8,0:0:0:0:
475,192,37639,1,8,0:0:0:0:
329,192,37702,1,0,0:0:0:0:
256,192,37766,1,8,0:0:0:0:
36,192,37766,1,2,0:0:0:0:
475,192,37766,1,8,0:0:0:0:
109,192,37830,1,0,0:0:0:0:
329,192,37894,1,0,0:0:0:0:
402,192,37894,1,0,0:0:0:0:
256,192,37958,1,0,0:0:0:0:
182,192,38022,1,8,0:0:0:0:
109,192,38022,1,8,0:0:0:0:
475,192,38022,1,8,2:0:0:0:
329,192,38022,1,2,0:0:0:0:
256,192,38085,1,0,0:0:0:0:
36,192,38149,1,8,0:0:0:0:
182,192,38149,1,8,0:0:0:0:
402,192,38149,1,0,0:0:0:0:
329,192,38213,1,0,0:0:0:0:
109,192,38277,1,2,0:0:0:0:
256,192,38277,1,2,0:0:0:0:
475,192,38277,1,2,0:0:0:0:
402,192,38341,1,0,0:0:0:0:
329,192,38405,1,0,0:0:0:0:
182,192,38405,1,0,0:0:0:0:
256,192,38468,1,0,0:0:0:0:
109,192,38532,1,8,2:0:0:0:
36,192,38532,1,2,0:0:0:0:
402,192,38532,1,8,2:0:0:0:
475,192,38532,1,8,2:0:0:0:
329,192,38596,1,0,0:0:0:0:
256,192,38660,1,0,0:0:0:0:
109,192,38660,1,0,0:0:0:0:
182,192,38724,1,0,0:0:0:0:
36,192,38788,1,0,0:0:0:0:
329,192,38788,1,2,0:0:0:0:
402,192,38788,1,2,0:0:0:0:
475,192,38851,1,0,0:0:0:0:
256,192,38915,1,0,0:0:0:0:
109,192,38915,1,0,0:0:0:0:
182,192,38979,1,0,0:0:0:0:
109,192,39043,1,8,2:0:0:0:
329,192,39043,1,8,2:0:0:0:
402,192,39043,1,8,2:0:0:0:
36,192,39043,1,2,0:0:0:0:
256,192,39107,1,0,0:0:0:0:
182,192,39171,1,2,0:0:0:0:
475,192,39171,1,0,0:0:0:0:
329,192,39171,1,2,0:0:0:0:
402,192,39234,1,0,0:0:0:0:
329,192,39298,1,2,0:0:0:0:
36,192,39298,1,8,0:0:0:0:
109,192,39298,1,8,0:0:0:0:
402,192,39362,1,0,0:0:0:0:
475,192,39426,1,0,0:0:0:0:
182,192,39426,1,8,0:0:0:0:
256,192,39426,1,8,0:0:0:0:
329,192,39490,1,0,0:0:0:0:
36,192,39554,1,2,0:0:0:0:
109,192,39554,1,8,2:0:0:0:
256,192,39554,1,8,2:0:0:0:
475,192,39554,1,8,2:0:0:0:
182,192,39617,1,0,0:0:0:0:
475,192,39681,1,0,0:0:0:0:
109,192,39681,1,8,0:0:0:0:
256,192,39681,1,8,0:0:0:0:
329,192,39745,1,0,0:0:0:0:
182,192,39809,1,8,0:0:0:0:
36,192,39809,1,8,0:0:0:0:
402,192,39809,1,2,0:0:0:0:
256,192,39873,1,0,0:0:0:0:
329,192,39937,1,0,0:0:0:0:
109,192,39937,1,0,0:0:0:0:
475,192,40000,1,0,0:0:0:0:
402,192,40064,1,8,0:0:0:0:
182,192,40064,1,2,0:0:0:0:
36,192,40064,1,8,2:0:0:0:
329,192,40064,1,8,0:0:0:0:
256,192,40128,1,0,0:0:0:0:
109,192,40192,1,8,0:0:0:0:
329,192,40192,1,8,0:0:0:0:
475,192,40192,1,0,0:0:0:0:
182,192,40256,1,0,0:0:0:0:
256,192,40320,1,8,0:0:0:0:
402,192,40320,1,8,0:0:0:0:
36,192,40320,1,2,0:0:0:0:
329,192,40383,1,0,0:0:0:0:
182,192,40447,1,8,0:0:0:0:
109,192,40447,1,8,0:0:0:0:
402,192,40447,1,0,0:0:0:0:
475,192,40511,1,0,0:0:0:0:
256,192,40575,1,8,2:0:0:0:
329,192,40575,1,8,2:0:0:0:
36,192,40575,1,8,2:0:0:0:
402,192,40575,1,2,0:0:0:0:
182,192,40639,1,0,0:0:0:0:
109,192,40702,1,8,0:0:0:0:
256,192,40702,1,8,0:0:0:0:
475,192,40702,1,0,0:0:0:0:
329,192,40766,1,0,0:0:0:0:
402,192,40830,1,2,0:0:0:0:
36,192,40830,1,8,0:0:0:0:
182,192,40830,1,8,0:0:0:0:
256,192,40894,1,0,0:0:0:0:
109,192,40958,1,0,0:0:0:0:
475,192,40958,1,0,0:0:0:0:
182,192,41022,1,0,0:0:0:0:
256,192,41085,1,2,0:0:0:0:
36,192,41085,1,8,2:0:0:0:
402,192,41085,1,8,0:0:0:0:
475,192,41085,1,8,0:0:0:0:
329,192,41149,1,0,0:0:0:0:
182,192,41213,1,8,0:0:0:0:
109,192,41213,1,8,0:0:0:0:
475,192,41213,1,0,0:0:0:0:
402,192,41277,1,0,0:0:0:0:
329,192,41341,1,8,0:0:0:0:
256,192,41341,1,8,0:0:0:0:
36,192,41341,1,2,0:0:0:0:
182,192,41405,1,0,0:0:0:0:
109,192,41468,1,0,0:0:0:0:
329,192,41468,1,8,0:0:0:0:
475,192,41468,1,8,0:0:0:0:
402,192,41532,1,0,0:0:0:0:
256,192,41596,1,8,2:0:0:0:
36,192,41596,1,2,0:0:0:0:
182,192,41596,1,8,2:0:0:0:
475,192,41596,1,8,2:0:0:0:
329,192,41660,1,0,0:0:0:0:
182,192,41724,1,8,0:0:0:0:
402,192,41724,1,0,0:0:0:0:
109,192,41724,1,8,0:0:0:0:
256,192,41788,1,0,0:0:0:0:
36,192,41851,1,8,0:0:0:0:
329,192,41851,1,8,0:0:0:0:
475,192,41851,1,2,0:0:0:0:
402,192,41915,1,0,0:0:0:0:
182,192,41979,1,0,0:0:0:0:
109,192,41979,1,0,0:0:0:0:
256,192,42043,1,0,0:0:0:0:
36,192,42107,1,8,2:0:0:0:
329,192,42107,1,2,0:0:0:0:
475,192,42107,1,8,0:0:0:0:
402,192,42107,1,8,0:0:0:0:
182,192,42171,1,0,0:0:0:0:
109,192,42234,1,8,0:0:0:0:
475,192,42234,1,0,0:0:0:0:
256,192,42234,1,8,0:0:0:0:
329,192,42298,1,2,0:0:0:0:
402,192,42298,1,0,0:0:0:0:
182,192,42362,1,0,0:0:0:0:
36,192,42362,1,2,0:0:0:0:
256,192,42362,1,2,0:0:0:0:
329,192,42426,1,2,0:0:0:0:
256,192,42490,1,2,0:0:0:0:
109,192,42490,1,2,0:0:0:0:
475,192,42554,1,2,0:0:0:0:
36,192,42617,1,8,2:0:0:0:
402,192,42617,1,8,2:0:0:0:
329,192,42681,1,2,0:0:0:0:
256,192,42745,1,2,0:0:0:0:
109,192,42745,1,2,0:0:0:0:
182,192,42809,1,2,0:0:0:0:
36,192,42873,1,2,0:0:0:0:
329,192,42873,1,2,0:0:0:0:
475,192,42873,1,0,0:0:0:0:
402,192,42937,1,2,0:0:0:0:
256,192,43000,1,2,0:0:0:0:
109,192,43000,1,2,0:0:0:0:
182,192,43064,1,2,0:0:0:0:
36,192,43128,1,2,0:0:0:0:
256,192,43128,1,2,0:0:0:0:
475,192,43128,1,0,0:0:0:0:
402,192,43192,1,2,0:0:0:0:
329,192,43256,1,2,0:0:0:0:
109,192,43256,1,2,0:0:0:0:
182,192,43320,1,2,0:0:0:0:
475,192,43320,1,2,0:0:0:0:
36,192,43383,1,0,0:0:0:0:
256,192,43383,1,2,0:0:0:0:
402,192,43383,1,2,0:0:0:0:
329,192,43447,1,0,0:0:0:0:
182,192,43511,1,0,0:0:0:0:
109,192,43511,1,0,0:0:0:0:
256,192,43575,1,0,0:0:0:0:
36,192,43639,1,2,0:0:0:0:
402,192,43639,1,8,2:0:0:0:
475,192,43639,1,8,2:0:0:0:
329,192,43639,1,8,2:0:0:0:
182,192,43702,1,0,0:0:0:0:
256,192,43766,1,0,0:0:0:0:
109,192,43766,1,0,0:0:0:0:
329,192,43830,1,0,0:0:0:0:
402,192,43894,1,0,0:0:0:0:
182,192,43894,1,2,0:0:0:0:
36,192,43894,1,2,0:0:0:0:
256,192,43958,1,0,0:0:0:0:
329,192,44022,1,0,0:0:0:0:
109,192,44022,1,0,0:0:0:0:
182,192,44085,1,0,0:0:0:0:
256,192,44149,1,8,2:0:0:0:
36,192,44149,1,2,0:0:0:0:
402,192,44149,1,8,2:0:0:0:
475,192,44149,1,8,2:0:0:0:
329,192,44213,1,0,0:0:0:0:
402,192,44277,1,0,0:0:0:0:
109,192,44277,1,0,0:0:0:0:
329,192,44341,1,0,0:0:0:0:
36,192,44405,1,2,0:0:0:0:
256,192,44405,1,2,0:0:0:0:
475,192,44405,1,0,0:0:0:0:
402,192,44468,1,0,0:0:0:0:
182,192,44532,1,0,0:0:0:0:
109,192,44532,1,0,0:0:0:0:
475,192,44596,1,0,0:0:0:0:
329,192,44660,1,8,2:0:0:0:
256,192,44660,1,8,2:0:0:0:
36,192,44660,1,2,0:0:0:0:
402,192,44660,1,8,2:0:0:0:
182,192,44724,1,0,0:0:0:0:
109,192,44788,1,0,0:0:0:0:
475,192,44788,1,0,0:0:0:0:
36,192,44851,1,0,0:0:0:0:
182,192,44915,1,2,0:0:0:0:
256,192,44915,1,2,0:0:0:0:
329,192,44915,1,0,0:0:0:0:
402,192,44979,1,0,0:0:0:0:
109,192,45043,1,0,0:0:0:0:
256,192,45043,1,0,0:0:0:0:
329,192,45107,1,0,0:0:0:0:
182,192,45171,1,8,2:0:0:0:
402,192,45171,1,8,2:0:0:0:
475,192,45171,1,8,2:0:0:0:
36,192,45171,1,2,0:0:0:0:
109,192,45234,1,0,0:0:0:0:
256,192,45298,1,0,0:0:0:0:
329,192,45298,1,0,0:0:0:0:
182,192,45362,1,0,0:0:0:0:
402,192,45426,1,0,0:0:0:0:
36,192,45426,1,2,0:0:0:0:
109,192,45426,1,2,0:0:0:0:
329,192,45490,1,0,0:0:0:0:
256,192,45554,1,0,0:0:0:0:
182,192,45554,1,0,0:0:0:0:
36,192,45617,1,0,0:0:0:0:
109,192,45681,1,2,0:0:0:0:
256,192,45681,1,8,2:0:0:0:
402,192,45681,1,8,2:0:0:0:
475,192,45681,1,8,2:0:0:0:
182,192,45745,1,0,0:0:0:0:
329,192,45809,1,0,0:0:0:0:
36,192,45809,1,0,0:0:0:0:
109,192,45873,1,0,0:0:0:0:
182,192,45937,1,2,0:0:0:0:
475,192,45937,1,0,0:0:0:0:
36,192,45937,1,2,0:0:0:0:
256,192,46000,1,0,0:0:0:0:
109,192,46064,1,0,0:0:0:0:
329,192,46064,1,0,0:0:0:0:
402,192,46128,1,0,0:0:0:0:
475,192,46192,1,8,2:0:0:0:
256,192,46192,1,8,2:0:0:0:
36,192,46192,1,2,0:0:0:0:
182,192,46192,1,8,2:0:0:0:
329,192,46256,1,0,0:0:0:0:
402,192,46320,1,0,0:0:0:0:
109,192,46320,1,0,0:0:0:0:
182,192,46383,1,0,0:0:0:0:
36,192,46447,1,2,0:0:0:0:
256,192,46447,1,2,0:0:0:0:
475,192,46447,1,0,0:0:0:0:
402,192,46511,1,0,0:0:0:0:
329,192,46575,1,0,0:0:0:0:
109,192,46575,1,0,0:0:0:0:
182,192,46639,1,0,0:0:0:0:
402,192,46702,1,8,2:0:0:0:
256,192,46702,1,8,2:0:0:0:
36,192,46702,1,8,2:0:0:0:
475,192,46702,1,2,0:0:0:0:
109,192,46766,1,0,0:0:0:0:
182,192,46830,1,0,0:0:0:0:
36,192,46830,1,0,0:0:0:0:
329,192,46894,1,0,0:0:0:0:
402,192,46958,1,0,0:0:0:0:
109,192,46958,1,2,0:0:0:0:
475,192,46958,1,2,0:0:0:0:
256,192,47022,1,0,0:0:0:0:
329,192,47085,1,0,0:0:0:0:
36,192,47085,1,0,0:0:0:0:
109,192,47149,1,0,0:0:0:0:
182,192,47213,1,8,2:0:0:0:
36,192,47213,1,2,0:0:0:0:
402,192,47213,1,8,2:0:0:0:
256,192,47213,1,8,2:0:0:0:
329,192,47277,1,0,0:0:0:0:
182,192,47341,1,2,0:0:0:0:
109,192,47341,1,8,2:0:0:0:
402,192,47341,1,8,2:0:0:0:
475,192,47341,1,8,2:0:0:0:
256,192,47405,1,0,0:0:0:0:
36,192,47468,1,0,0:0:0:0:
329,192,47468,1,2,0:0:0:0:
182,192,47468,1,2,0:0:0:0:
256,192,47532,1,0,0:0:0:0:
109,192,47596,1,0,0:0:0:0:
329,192,47596,1,0,0:0:0:0:
402,192,47660,1,0,0:0:0:0:
182,192,47724,1,8,2:0:0:0:
36,192,47724,1,8,2:0:0:0:
256,192,47724,1,2,0:0:0:0:
475,192,47724,1,8,2:0:0:0:
109,192,47788,1,0,0:0:0:0:
36,192,47851,1,0,0:0:0:0:
329,192,47851,1,0,0:0:0:0:
256,192,47915,1,0,0:0:0:0:
402,192,47979,1,2,0:0:0:0:
109,192,47979,1,0,0:0:0:0:
475,192,47979,1,2,0:0:0:0:
329,192,48043,1,0,0:0:0:0:
182,192,48107,1,0,0:0:0:0:
36,192,48107,1,0,0:0:0:0:
256,192,48171,1,0,0:0:0:0:
109,192,48234,1,8,2:0:0:0:
329,192,48234,1,2,0:0:0:0:
475,192,48234,1,8,2:0:0:0:
402,192,48234,1,8,2:0:0:0:
182,192,48298,1,0,0:0:0:0:
256,192,48362,1,0,0:0:0:0:
36,192,48362,1,0,0:0:0:0:
109,192,48426,1,0,0:0:0:0:
36,192,48490,1,2,0:0:0:0:
402,192,48490,1,2,0:0:0:0:
475,192,48490,1,0,0:0:0:0:
182,192,48554,1,0,0:0:0:0:
256,192,48617,1,0,0:0:0:0:
329,192,48617,1,0,0:0:0:0:
109,192,48681,1,0,0:0:0:0:
182,192,48745,1,2,0:0:0:0:
36,192,48745,1,8,2:0:0:0:
475,192,48745,1,8,2:0:0:0:
402,192,48745,1,8,2:0:0:0:
329,192,48809,1,0,0:0:0:0:
256,192,48873,1,0,0:0:0:0:
109,192,48873,1,0,0:0:0:0:
182,192,48937,1,0,0:0:0:0:
329,192,49000,1,2,0:0:0:0:
402,192,49000,1,0,0:0:0:0:
109,192,49000,1,2,0:0:0:0:
256,192,49064,1,0,0:0:0:0:
182,192,49128,1,0,0:0:0:0:
36,192,49128,1,0,0:0:0:0:
256,192,49192,1,0,0:0:0:0:
109,192,49256,1,8,2:0:0:0:
402,192,49256,1,8,2:0:0:0:
475,192,49256,1,8,2:0:0:0:
329,192,49256,1,2,0:0:0:0:
182,192,49320,1,0,0:0:0:0:
256,192,49383,1,0,0:0:0:0:
36,192,49383,1,0,0:0:0:0:
109,192,49447,1,0,0:0:0:0:
36,192,49511,1,2,0:0:0:0:
329,192,49511,1,2,0:0:0:0:
475,192,49511,1,0,0:0:0:0:
402,192,49575,1,0,0:0:0:0:
109,192,49639,1,0,0:0:0:0:
256,192,49639,1,0,0:0:0:0:
182,192,49702,1,0,0:0:0:0:
329,192,49766,1,8,2:0:0:0:
475,192,49766,1,8,2:0:0:0:
36,192,49766,1,8,2:0:0:0:
109,192,49766,1,2,0:0:0:0:
402,192,49830,1,0,0:0:0:0:
256,192,49894,1,0,0:0:0:0:
182,192,49894,1,0,0:0:0:0:
329,192,49958,1,0,0:0:0:0:
109,192,50022,1,2,0:0:0:0:
36,192,50022,1,2,0:0:0:0:
475,192,50022,1,0,0:0:0:0:
402,192,50085,1,0,0:0:0:0:
329,192,50149,1,0,0:0:0:0:
182,192,50149,1,0,0:0:0:0:
256,192,50213,1,0,0:0:0:0:
36,192,50277,1,2,0:0:0:0:
109,192,50277,1,8,2:0:0:0:
329,192,50277,1,8,2:0:0:0:
402,192,50277,1,8,2:0:0:0:
182,192,50341,1,0,0:0:0:0:
256,192,50405,1,0,0:0:0:0:
109,192,50405,1,0,0:0:0:0:
182,192,50468,1,0,0:0:0:0:
36,192,50532,1,2,0:0:0:0:
256,192,50532,1,0,2:0:0:0:
475,192,50532,1,0,2:0:0:0:
402,192,50596,1,0,2:0:0:0:
182,192,50596,1,0,2:0:0:0:
109,192,50660,1,0,2:0:0:0:
329,192,50660,1,0,2:0:0:0:
36,192,50724,1,0,2:0:0:0:
256,192,50724,1,0,2:0:0:0:
329,192,50788,1,0,2:0:0:0:
109,192,50788,1,0,2:0:0:0:
402,192,50851,1,0,2:0:0:0:
182,192,50851,1,0,2:0:0:0:
475,192,50915,1,0,2:0:0:0:
256,192,50915,1,0,2:0:0:0:
182,192,50979,1,0,2:0:0:0:
402,192,50979,1,0,2:0:0:0:
109,192,51043,1,0,2:0:0:0:
329,192,51043,1,0,2:0:0:0:
36,192,51107,1,0,2:0:0:0:
256,192,51107,1,0,2:0:0:0:
109,192,51171,1,0,2:0:0:0:
329,192,51171,1,0,2:0:0:0:
182,192,51234,1,0,2:0:0:0:
402,192,51234,1,0,2:0:0:0:
256,192,51298,1,0,2:0:0:0:
475,192,51298,1,0,2:0:0:0:
182,192,51362,1,0,2:0:0:0:
402,192,51362,1,0,2:0:0:0:
329,192,51426,1,0,2:0:0:0:
109,192,51426,1,0,2:0:0:0:
36,192,51490,1,0,2:0:0:0:
256,192,51490,1,0,2:0:0:0:
109,192,51554,1,2,2:0:0:0:
475,192,51554,1,2,0:0:0:0:
329,192,51554,1,0,2:0:0:0:
256,192,51617,1,0,0:0:0:0:
182,192,51681,1,0,0:0:0:0:
36,192,51681,1,0,0:0:0:0:
256,192,51745,1,0,0:0:0:0:
402,192,51809,1,2,0:0:0:0:
109,192,51809,1,8,2:0:0:0:
475,192,51809,1,8,2:0:0:0:
329,192,51809,1,8,2:0:0:0:
182,192,51873,1,0,0:0:0:0:
329,192,51937,1,0,0:0:0:0:
36,192,51937,1,0,0:0:0:0:
109,192,52000,1,0,0:0:0:0:
256,192,52064,1,2,0:0:0:0:
182,192,52064,1,2,0:0:0:0:
475,192,52064,1,0,0:0:0:0:
402,192,52128,1,0,0:0:0:0:
329,192,52192,1,0,0:0:0:0:
109,192,52192,1,0,0:0:0:0:
182,192,52256,1,0,0:0:0:0:
36,192,52320,1,8,2:0:0:0:
329,192,52320,1,8,2:0:0:0:
475,192,52320,1,8,2:0:0:0:
402,192,52320,1,2,0:0:0:0:
256,192,52383,1,0,0:0:0:0:
109,192,52447,1,0,0:0:0:0:
182,192,52447,1,0,0:0:0:0:
329,192,52511,1,0,0:0:0:0:
36,192,52575,1,2,0:0:0:0:
182,192,52575,1,2,0:0:0:0:
256,192,52575,1,0,0:0:0:0:
402,192,52639,1,0,0:0:0:0:
475,192,52702,1,0,0:0:0:0:
109,192,52702,1,0,0:0:0:0:
329,192,52766,1,0,0:0:0:0:
256,192,52830,1,2,0:0:0:0:
36,192,52830,1,8,2:0:0:0:
182,192,52830,1,8,2:0:0:0:
402,192,52830,1,8,2:0:0:0:
109,192,52894,1,0,0:0:0:0:
329,192,52958,1,0,0:0:0:0:
475,192,52958,1,0,0:0:0:0:
402,192,53022,1,0,0:0:0:0:
256,192,53085,1,2,0:0:0:0:
182,192,53085,1,0,0:0:0:0:
36,192,53085,1,2,0:0:0:0:
329,192,53149,1,0,0:0:0:0:
109,192,53213,1,0,0:0:0:0:
475,192,53213,1,0,0:0:0:0:
182,192,53277,1,0,0:0:0:0:
256,192,53341,1,2,0:0:0:0:
36,192,53341,1,8,2:0:0:0:
402,192,53341,1,8,2:0:0:0:
109,192,53341,1,8,2:0:0:0:
329,192,53405,1,0,0:0:0:0:
475,192,53468,1,0,0:0:0:0:
182,192,53468,1,0,0:0:0:0:
256,192,53532,1,0,0:0:0:0:
109,192,53596,1,0,0:0:0:0:
329,192,53596,1,2,0:0:0:0:
402,192,53596,1,2,0:0:0:0:
182,192,53660,1,0,0:0:0:0:
256,192,53724,1,0,0:0:0:0:
36,192,53724,1,0,0:0:0:0:
109,192,53788,1,0,0:0:0:0:
402,192,53851,1,8,2:0:0:0:
475,192,53851,1,8,2:0:0:0:
182,192,53851,1,8,2:0:0:0:
329,192,53851,1,2,0:0:0:0:
256,192,53915,1,0,0:0:0:0:
109,192,53979,1,0,0:0:0:0:
36,192,53979,1,0,0:0:0:0:
182,192,54043,1,0,0:0:0:0:
36,192,54107,1,2,0:0:0:0:
329,192,54107,1,2,0:0:0:0:
402,192,54107,1,0,0:0:0:0:
475,192,54171,1,0,0:0:0:0:
256,192,54234,1,0,0:0:0:0:
109,192,54234,1,0,0:0:0:0:
182,192,54298,1,0,0:0:0:0:
329,192,54362,1,2,0:0:0:0:
402,192,54362,1,8,2:0:0:0:
36,192,54362,1,8,2:0:0:0:
475,192,54362,1,8,2:0:0:0:
109,192,54426,1,0,0:0:0:0:
256,192,54490,1,0,0:0:0:0:
475,192,54490,1,0,0:0:0:0:
402,192,54554,1,0,0:0:0:0:
329,192,54617,1,0,0:0:0:0:
182,192,54617,1,2,0:0:0:0:
36,192,54617,1,2,0:0:0:0:
402,192,54681,1,0,0:0:0:0:
256,192,54745,1,0,0:0:0:0:
109,192,54745,1,0,0:0:0:0:
182,192,54809,1,0,0:0:0:0:
329,192,54873,1,2,0:0:0:0:
402,192,54873,1,8,2:0:0:0:
475,192,54873,1,8,2:0:0:0:
36,192,54873,1,8,2:0:0:0:
256,192,54937,1,0,0:0:0:0:
182,192,55000,1,0,0:0:0:0:
109,192,55000,1,0,0:0:0:0:
329,192,55064,1,0,0:0:0:0:
402,192,55128,1,0,0:0:0:0:
256,192,55128,1,2,0:0:0:0:
36,192,55128,1,2,0:0:0:0:
182,192,55192,1,0,0:0:0:0:
329,192,55256,1,0,0:0:0:0:
109,192,55256,1,0,0:0:0:0:
256,192,55320,1,0,0:0:0:0:
475,192,55383,1,8,2:0:0:0:
182,192,55383,1,2,0:0:0:0:
402,192,55383,1,8,2:0:0:0:
36,192,55383,1,8,2:0:0:0:
109,192,55447,1,0,0:0:0:0:
256,192,55511,1,2,0:0:0:0:
329,192,55511,1,8,2:0:0:0:
36,192,55511,1,8,2:0:0:0:
182,192,55511,1,8,2:0:0:0:
402,192,55575,1,0,0:0:0:0:
475,192,55639,1,2,0:0:0:0:
182,192,55639,1,2,0:0:0:0:
36,192,55639,1,0,0:0:0:0:
256,192,55702,1,0,0:0:0:0:
109,192,55766,1,0,0:0:0:0:
329,192,55766,1,0,0:0:0:0:
402,192,55830,1,0,0:0:0:0:
475,192,55894,1,8,2:0:0:0:
256,192,55894,1,2,0:0:0:0:
36,192,55894,1,8,2:0:0:0:
182,192,55894,1,8,2:0:0:0:
329,192,55958,1,0,0:0:0:0:
402,192,56022,1,0,0:0:0:0:
109,192,56022,1,0,0:0:0:0:
182,192,56085,1,0,0:0:0:0:
36,192,56149,1,0,0:0:0:0:
256,192,56149,1,2,0:0:0:0:
329,192,56149,1,2,0:0:0:0:
475,192,56213,1,0,0:0:0:0:
402,192,56277,1,0,0:0:0:0:
109,192,56277,1,0,0:0:0:0:
182,192,56341,1,0,0:0:0:0:
329,192,56405,1,8,2:0:0:0:
36,192,56405,1,8,2:0:0:0:
256,192,56405,1,2,0:0:0:0:
475,192,56405,1,8,2:0:0:0:
402,192,56468,1,0,0:0:0:0:
329,192,56532,1,0,0:0:0:0:
109,192,56532,1,0,0:0:0:0:
182,192,56596,1,0,0:0:0:0:
36,192,56660,1,0,0:0:0:0:
256,192,56660,1,2,0:0:0:0:
475,192,56660,1,2,0:0:0:0:
402,192,56724,1,0,0:0:0:0:
329,192,56788,1,0,0:0:0:0:
109,192,56788,1,0,0:0:0:0:
182,192,56851,1,0,0:0:0:0:
256,192,56915,1,8,2:0:0:0:
36,192,56915,1,8,2:0:0:0:
402,192,56915,1,2,0:0:0:0:
475,192,56915,1,8,2:0:0:0:
329,192,56979,1,0,0:0:0:0:
182,192,57043,1,0,0:0:0:0:
109,192,57043,1,0,0:0:0:0:
256,192,57107,1,0,0:0:0:0:
36,192,57171,1,2,0:0:0:0:
329,192,57171,1,2,0:0:0:0:
475,192,57171,1,0,0:0:0:0:
402,192,57234,1,0,0:0:0:0:
256,192,57298,1,0,0:0:0:0:
109,192,57298,1,0,0:0:0:0:
182,192,57362,1,0,0:0:0:0:
36,192,57426,1,2,0:0:0:0:
329,192,57426,1,8,2:0:0:0:
475,192,57426,1,8,2:0:0:0:
256,192,57426,1,8,2:0:0:0:
402,192,57490,1,0,0:0:0:0:
182,192,57554,1,0,0:0:0:0:
109,192,57554,1,0,0:0:0:0:
256,192,57617,1,0,0:0:0:0:
329,192,57681,1,2,0:0:0:0:
36,192,57681,1,0,0:0:0:0:
402,192,57681,1,2,0:0:0:0:
182,192,57745,1,0,0:0:0:0:
256,192,57809,1,0,0:0:0:0:
475,192,57809,1,0,0:0:0:0:
402,192,57873,1,0,0:0:0:0:
329,192,57937,1,8,2:0:0:0:
109,192,57937,1,8,2:0:0:0:
182,192,57937,1,8,2:0:0:0:
36,192,57937,1,2,0:0:0:0:
256,192,58000,1,0,0:0:0:0:
402,192,58064,1,0,0:0:0:0:
475,192,58064,1,0,0:0:0:0:
329,192,58128,1,0,0:0:0:0:
109,192,58192,1,2,0:0:0:0:
36,192,58192,1,2,0:0:0:0:
256,192,58192,1,0,0:0:0:0:
182,192,58256,1,0,0:0:0:0:
256,192,58320,1,0,0:0:0:0:
402,192,58320,1,0,0:0:0:0:
475,192,58383,1,0,0:0:0:0:
329,192,58447,1,8,2:0:0:0:
182,192,58447,1,2,0:0:0:0:
402,192,58447,1,8,2:0:0:0:
36,192,58447,1,8,2:0:0:0:
256,192,58511,1,0,0:0:0:0:
109,192,58575,1,0,0:0:0:0:
182,192,58639,1,0,0:0:0:0:
475,192,58702,1,0,2:0:0:0:
36,192,58702,1,0,2:0:0:0:
256,192,58702,1,2,0:0:0:0:
402,192,58766,1,0,2:0:0:0:
109,192,58766,1,0,2:0:0:0:
329,192,58830,1,0,2:0:0:0:
182,192,58830,1,0,2:0:0:0:
475,192,58894,1,0,2:0:0:0:
36,192,58894,1,0,2:0:0:0:
402,192,58958,1,0,2:0:0:0:
109,192,58958,1,0,2:0:0:0:
329,192,59022,1,0,2:0:0:0:
182,192,59022,1,0,2:0:0:0:
475,192,59085,1,0,2:0:0:0:
36,192,59085,1,0,2:0:0:0:
402,192,59149,1,0,2:0:0:0:
109,192,59149,1,0,2:0:0:0:
329,192,59213,1,0,2:0:0:0:
182,192,59213,1,0,2:0:0:0:
475,192,59277,1,0,2:0:0:0:
36,192,59277,1,0,2:0:0:0:
402,192,59341,1,0,2:0:0:0:
109,192,59341,1,0,2:0:0:0:
329,192,59405,1,0,2:0:0:0:
182,192,59405,1,0,2:0:0:0:
475,192,59468,1,0,2:0:0:0:
36,192,59468,1,0,2:0:0:0:
402,192,59532,1,0,2:0:0:0:
109,192,59532,1,0,2:0:0:0:
182,192,59596,1,0,2:0:0:0:
329,192,59596,1,0,2:0:0:0:
475,192,59660,1,0,2:0:0:0:
36,192,59660,1,0,2:0:0:0:
109,192,59724,1,8,0:0:0:0:
402,192,59724,1,8,2:0:0:0:
256,192,59724,1,8,0:0:0:0:
329,192,59788,1,0,0:0:0:0:
36,192,59851,1,8,0:0:0:0:
182,192,59851,1,8,0:0:0:0:
475,192,59851,1,0,0:0:0:0:
402,192,59915,1,0,0:0:0:0:
256,192,59979,1,2,0:0:0:0:
109,192,59979,1,8,2:0:0:0:
329,192,59979,1,8,2:0:0:0:
475,192,59979,1,8,2:0:0:0:
182,192,60043,1,0,0:0:0:0:
36,192,60107,1,0,0:0:0:0:
475,192,60107,1,8,0:0:0:0:
402,192,60107,1,8,0:0:0:0:
256,192,60171,1,0,0:0:0:0:
329,192,60234,1,2,0:0:0:0:
109,192,60234,1,8,0:0:0:0:
182,192,60234,1,8,0:0:0:0:
256,192,60298,1,0,0:0:0:0:
36,192,60362,1,0,0:0:0:0:
182,192,60362,1,0,0:0:0:0:
329,192,60426,1,0,0:0:0:0:
402,192,60490,1,8,0:0:0:0:
109,192,60490,1,2,0:0:0:0:
182,192,60490,1,8,2:0:0:0:
475,192,60490,1,8,0:0:0:0:
256,192,60554,1,0,0:0:0:0:
329,192,60617,1,8,0:0:0:0:
182,192,60617,1,8,0:0:0:0:
36,192,60617,1,0,0:0:0:0:
475,192,60681,1,0,0:0:0:0:
402,192,60745,1,8,0:0:0:0:
256,192,60745,1,8,0:0:0:0:
109,192,60745,1,2,0:0:0:0:
182,192,60809,1,0,0:0:0:0:
329,192,60873,1,8,0:0:0:0:
402,192,60873,1,8,0:0:0:0:
36,192,60873,1,0,0:0:0:0:
109,192,60937,1,0,0:0:0:0:
36,192,61000,1,2,0:0:0:0:
182,192,61000,1,8,2:0:0:0:
475,192,61000,1,8,2:0:0:0:
256,192,61000,1,8,2:0:0:0:
402,192,61064,1,0,0:0:0:0:
329,192,61128,1,8,0:0:0:0:
109,192,61128,1,0,0:0:0:0:
475,192,61128,1,8,0:0:0:0:
402,192,61192,1,0,0:0:0:0:
256,192,61256,1,8,0:0:0:0:
182,192,61256,1,8,0:0:0:0:
475,192,61256,1,2,0:0:0:0:
402,192,61320,1,0,0:0:0:0:
329,192,61383,1,0,0:0:0:0:
109,192,61383,1,0,0:0:0:0:
256,192,61447,1,0,0:0:0:0:
402,192,61511,1,8,0:0:0:0:
475,192,61511,1,8,0:0:0:0:
36,192,61511,1,8,2:0:0:0:
182,192,61511,1,2,0:0:0:0:
329,192,61575,1,0,0:0:0:0:
256,192,61639,1,8,0:0:0:0:
109,192,61639,1,8,0:0:0:0:
402,192,61639,1,0,0:0:0:0:
329,192,61702,1,0,0:0:0:0:
256,192,61766,1,8,0:0:0:0:
36,192,61766,1,2,0:0:0:0:
475,192,61766,1,8,0:0:0:0:
402,192,61830,1,0,0:0:0:0:
329,192,61894,1,8,0:0:0:0:
109,192,61894,1,0,0:0:0:0:
256,192,61894,1,8,0:0:0:0:
182,192,61958,1,0,0:0:0:0:
36,192,62022,1,2,0:0:0:0:
256,192,62022,1,8,2:0:0:0:
475,192,62022,1,8,2:0:0:0:
109,192,62022,1,8,2:0:0:0:
402,192,62085,1,0,0:0:0:0:
329,192,62149,1,8,0:0:0:0:
109,192,62149,1,0,0:0:0:0:
475,192,62149,1,8,0:0:0:0:
182,192,62213,1,0,0:0:0:0:
256,192,62277,1,8,0:0:0:0:
36,192,62277,1,2,0:0:0:0:
402,192,62277,1,8,0:0:0:0:
329,192,62341,1,0,0:0:0:0:
109,192,62405,1,0,0:0:0:0:
402,192,62405,1,0,0:0:0:0:
182,192,62468,1,0,0:0:0:0:
36,192,62532,1,2,0:0:0:0:
329,192,62532,1,8,2:0:0:0:
475,192,62532,1,8,0:0:0:0:
402,192,62532,1,8,0:0:0:0:
256,192,62596,1,0,0:0:0:0:
182,192,62660,1,8,0:0:0:0:
109,192,62660,1,8,0:0:0:0:
402,192,62660,1,0,0:0:0:0:
329,192,62724,1,0,0:0:0:0:
475,192,62788,5,0,0:0:0:0:
36,192,62788,1,8,0:0:0:0:
109,192,62915,1,8,0:0:0:0:
256,192,62915,1,0,0:0:0:0:
402,192,63043,1,8,0:0:0:0:
36,192,63043,1,0,0:0:0:0:
475,192,63171,1,0,0:0:0:0:
329,192,63171,1,8,0:0:0:0:
182,192,63298,1,0,0:0:0:0:
256,192,63298,1,8,0:0:0:0:
109,192,63426,1,8,0:0:0:0:
475,192,63426,1,0,0:0:0:0:
256,192,63554,1,2,0:0:0:0:
329,192,63585,1,2,0:0:0:0:
402,192,63617,1,2,0:0:0:0:
475,192,63649,1,2,0:0:0:0:
36,192,63681,1,2,0:0:0:0:
109,192,63713,1,2,0:0:0:0:
182,192,63745,1,2,0:0:0:0:
256,192,63777,1,2,0:0:0:0:
329,192,63809,1,2,0:0:0:0:
402,192,63809,1,8,0:0:0:0:
36,192,63809,1,8,0:0:0:0:
109,192,63873,1,0,0:0:0:0:
182,192,63937,1,8,0:0:0:0:
256,192,63937,1,8,0:0:0:0:
475,192,63937,1,0,0:0:0:0:
402,192,64000,1,0,0:0:0:0:
329,192,64064,1,2,0:0:0:0:
109,192,64064,1,8,2:0:0:0:
36,192,64064,1,8,2:0:0:0:
475,192,64064,1,8,2:0:0:0:
256,192,64128,1,0,0:0:0:0:
402,192,64192,1,0,0:0:0:0:
36,192,64192,1,8,0:0:0:0:
182,192,64192,1,8,0:0:0:0:
109,192,64256,1,0,0:0:0:0:
329,192,64320,1,8,0:0:0:0:
256,192,64320,1,8,0:0:0:0:
475,192,64320,1,2,0:0:0:0:
402,192,64383,1,0,0:0:0:0:
182,192,64447,1,0,0:0:0:0:
36,192,64447,1,0,0:0:0:0:
256,192,64511,1,0,0:0:0:0:
329,192,64575,1,8,0:0:0:0:
109,192,64575,1,8,2:0:0:0:
475,192,64575,1,2,0:0:0:0:
402,192,64575,1,8,0:0:0:0:
256,192,64639,1,0,0:0:0:0:
182,192,64702,1,8,0:0:0:0:
36,192,64702,1,8,0:0:0:0:
329,192,64702,1,0,0:0:0:0:
402,192,64766,1,0,0:0:0:0:
109,192,64830,1,2,0:0:0:0:
256,192,64830,1,8,0:0:0:0:
475,192,64830,1,8,0:0:0:0:
329,192,64894,1,0,0:0:0:0:
402,192,64958,1,0,0:0:0:0:
182,192,64958,1,8,0:0:0:0:
36,192,64958,1,8,0:0:0:0:
256,192,65022,1,0,0:0:0:0:
109,192,65085,1,8,2:0:0:0:
329,192,65085,1,8,2:0:0:0:
475,192,65085,1,8,2:0:0:0:
182,192,65085,1,2,0:0:0:0:
256,192,65149,1,0,0:0:0:0:
402,192,65213,1,8,0:0:0:0:
109,192,65213,1,0,0:0:0:0:
329,192,65213,1,8,0:0:0:0:
182,192,65277,1,0,0:0:0:0:
329,192,65341,1,8,0:0:0:0:
36,192,65341,1,2,0:0:0:0:
475,192,65341,1,8,0:0:0:0:
402,192,65405,1,0,0:0:0:0:
256,192,65468,1,0,0:0:0:0:
109,192,65468,1,0,0:0:0:0:
182,192,65532,1,0,0:0:0:0:
329,192,65596,1,8,0:0:0:0:
402,192,65596,1,8,0:0:0:0:
36,192,65596,1,2,0:0:0:0:
475,192,65596,1,8,2:0:0:0:
256,192,65660,1,0,0:0:0:0:
109,192,65724,1,8,0:0:0:0:
182,192,65724,1,8,0:0:0:0:
402,192,65724,1,0,0:0:0:0:
329,192,65788,1,0,0:0:0:0:
256,192,65851,1,8,0:0:0:0:
36,192,65851,1,2,0:0:0:0:
475,192,65851,1,8,0:0:0:0:
402,192,65915,1,0,0:0:0:0:
329,192,65979,1,8,0:0:0:0:
109,192,65979,1,8,0:0:0:0:
475,192,65979,1,0,0:0:0:0:
182,192,66043,1,0,0:0:0:0:
402,192,66107,1,8,2:0:0:0:
36,192,66107,1,8,2:0:0:0:
256,192,66107,1,2,0:0:0:0:
329,192,66107,1,8,2:0:0:0:
109,192,66171,1,0,0:0:0:0:
182,192,66234,1,8,0:0:0:0:
402,192,66234,1,8,0:0:0:0:
36,192,66234,1,0,0:0:0:0:
256,192,66298,1,0,0:0:0:0:
109,192,66362,1,8,0:0:0:0:
329,192,66362,1,8,0:0:0:0:
475,192,66362,1,2,0:0:0:0:
402,192,66426,1,0,0:0:0:0:
256,192,66490,1,0,0:0:0:0:
182,192,66490,1,0,0:0:0:0:
329,192,66554,1,0,0:0:0:0:
475,192,66617,1,8,0:0:0:0:
402,192,66617,1,8,0:0:0:0:
109,192,66617,1,8,2:0:0:0:
36,192,66617,1,2,0:0:0:0:
256,192,66681,1,0,0:0:0:0:
329,192,66745,1,0,0:0:0:0:
182,192,66745,1,8,0:0:0:0:
36,192,66745,1,8,0:0:0:0:
109,192,66809,1,0,0:0:0:0:
475,192,66873,5,0,0:0:0:0:
402,192,66873,1,8,0:0:0:0:
182,192,67000,1,8,0:0:0:0:
36,192,67000,1,0,0:0:0:0:
256,192,67128,1,8,0:0:0:0:
402,192,67128,1,0,0:0:0:0:
329,192,67256,1,8,0:0:0:0:
109,192,67256,1,0,0:0:0:0:
182,192,67383,1,8,0:0:0:0:
475,192,67383,1,0,0:0:0:0:
402,192,67511,1,8,0:0:0:0:
36,192,67511,1,0,0:0:0:0:
329,192,67639,1,2,0:0:0:0:
256,192,67671,1,2,0:0:0:0:
182,192,67702,1,2,0:0:0:0:
109,192,67734,1,2,0:0:0:0:
36,192,67766,1,2,0:0:0:0:
475,192,67798,1,2,0:0:0:0:
402,192,67830,1,2,0:0:0:0:
329,192,67862,1,2,0:0:0:0:
256,192,67894,1,2,0:0:0:0:
182,192,67894,1,8,0:0:0:0:
109,192,67894,1,8,0:0:0:0:
402,192,67958,1,0,0:0:0:0:
329,192,68022,1,8,0:0:0:0:
36,192,68022,1,0,0:0:0:0:
475,192,68022,1,8,0:0:0:0:
402,192,68085,1,0,0:0:0:0:
256,192,68149,1,8,2:0:0:0:
109,192,68149,1,2,0:0:0:0:
182,192,68149,1,8,2:0:0:0:
475,192,68149,1,8,2:0:0:0:
402,192,68213,1,0,0:0:0:0:
329,192,68277,1,0,0:0:0:0:
36,192,68277,1,8,0:0:0:0:
182,192,68277,1,8,0:0:0:0:
256,192,68341,1,0,0:0:0:0:
109,192,68405,1,2,0:0:0:0:
402,192,68405,1,8,0:0:0:0:
475,192,68405,1,8,0:0:0:0:
329,192,68468,1,0,0:0:0:0:
256,192,68532,1,0,0:0:0:0:
36,192,68532,1,0,0:0:0:0:
182,192,68596,1,0,0:0:0:0:
109,192,68660,1,8,0:0:0:0:
256,192,68660,1,8,0:0:0:0:
402,192,68660,1,2,0:0:0:0:
475,192,68660,1,8,2:0:0:0:
329,192,68724,1,0,0:0:0:0:
182,192,68788,1,8,0:0:0:0:
36,192,68788,1,8,0:0:0:0:
402,192,68788,1,0,0:0:0:0:
256,192,68851,1,0,0:0:0:0:
109,192,68915,1,8,0:0:0:0:
329,192,68915,1,8,0:0:0:0:
475,192,68915,1,2,0:0:0:0:
402,192,68979,1,0,0:0:0:0:
256,192,69043,1,8,0:0:0:0:
36,192,69043,1,0,0:0:0:0:
182,192,69043,1,8,0:0:0:0:
329,192,69107,1,0,0:0:0:0:
109,192,69171,1,2,0:0:0:0:
402,192,69171,1,8,2:0:0:0:
475,192,69171,1,8,2:0:0:0:
182,192,69171,1,8,2:0:0:0:
329,192,69234,1,0,0:0:0:0:
256,192,69298,1,8,0:0:0:0:
36,192,69298,1,0,0:0:0:0:
402,192,69298,1,8,0:0:0:0:
182,192,69362,1,0,0:0:0:0:
329,192,69426,1,8,0:0:0:0:
109,192,69426,1,8,0:0:0:0:
475,192,69426,1,2,0:0:0:0:
402,192,69490,1,0,0:0:0:0:
256,192,69554,1,0,0:0:0:0:
36,192,69554,1,0,0:0:0:0:
109,192,69617,1,0,0:0:0:0:
329,192,69681,1,8,0:0:0:0:
475,192,69681,1,8,2:0:0:0:
182,192,69681,1,8,0:0:0:0:
36,192,69681,1,2,0:0:0:0:
402,192,69745,1,0,0:0:0:0:
256,192,69809,1,8,0:0:0:0:
182,192,69809,1,8,0:0:0:0:
36,192,69809,1,0,0:0:0:0:
329,192,69873,1,0,0:0:0:0:
402,192,69937,1,8,0:0:0:0:
109,192,69937,1,2,0:0:0:0:
475,192,69937,1,8,0:0:0:0:
182,192,70000,1,0,0:0:0:0:
256,192,70064,1,8,0:0:0:0:
329,192,70064,1,8,0:0:0:0:
36,192,70064,1,0,0:0:0:0:
182,192,70128,1,0,0:0:0:0:
329,192,70192,1,2,0:0:0:0:
475,192,70192,1,8,2:0:0:0:
402,192,70192,1,8,2:0:0:0:
109,192,70192,1,8,2:0:0:0:
256,192,70256,1,0,0:0:0:0:
36,192,70320,1,0,0:0:0:0:
182,192,70320,1,8,0:0:0:0:
402,192,70320,1,8,0:0:0:0:
329,192,70383,1,0,0:0:0:0:
475,192,70447,1,2,0:0:0:0:
182,192,70447,1,8,0:0:0:0:
256,192,70447,1,8,0:0:0:0:
329,192,70511,1,0,0:0:0:0:
402,192,70575,1,0,0:0:0:0:
109,192,70575,1,0,0:0:0:0:
329,192,70639,1,0,0:0:0:0:
256,192,70702,1,8,0:0:0:0:
182,192,70702,1,8,0:0:0:0:
36,192,70702,1,2,0:0:0:0:
402,192,70702,1,8,2:0:0:0:
109,192,70766,1,0,0:0:0:0:
256,192,70830,1,8,0:0:0:0:
329,192,70830,1,8,0:0:0:0:
475,192,70830,1,0,0:0:0:0:
182,192,70894,1,0,0:0:0:0:
402,192,70958,5,8,0:0:0:0:
109,192,70958,1,0,0:0:0:0:
329,192,71085,1,0,0:0:0:0:
182,192,71085,1,8,0:0:0:0:
36,192,71213,1,8,0:0:0:0:
402,192,71213,1,0,0:0:0:0:
329,192,71341,1,0,0:0:0:0:
256,192,71341,1,8,0:0:0:0:
402,192,71468,1,0,0:0:0:0:
182,192,71468,1,8,0:0:0:0:
256,192,71596,1,8,0:0:0:0:
36,192,71596,1,0,0:0:0:0:
475,192,71724,1,2,0:0:0:0:
402,192,71756,1,2,0:0:0:0:
329,192,71788,1,2,0:0:0:0:
182,192,71820,1,2,0:0:0:0:
109,192,71851,1,2,0:0:0:0:
36,192,71883,1,2,0:0:0:0:
475,192,71915,1,2,0:0:0:0:
402,192,71947,1,2,0:0:0:0:
329,192,71979,1,2,0:0:0:0:
256,192,71979,1,8,0:0:0:0:
109,192,71979,1,8,0:0:0:0:
182,192,72043,1,0,0:0:0:0:
329,192,72107,1,8,0:0:0:0:
475,192,72107,1,0,0:0:0:0:
402,192,72107,1,8,0:0:0:0:
256,192,72171,1,0,0:0:0:0:
182,192,72234,1,8,2:0:0:0:
36,192,72234,1,8,2:0:0:0:
329,192,72234,1,8,2:0:0:0:
109,192,72234,1,2,0:0:0:0:
256,192,72298,1,0,0:0:0:0:
402,192,72362,1,8,0:0:0:0:
109,192,72362,1,0,0:0:0:0:
475,192,72362,1,8,0:0:0:0:
329,192,72426,1,0,0:0:0:0:
182,192,72490,1,8,0:0:0:0:
36,192,72490,1,8,0:0:0:0:
402,192,72490,1,2,0:0:0:0:
256,192,72554,1,0,0:0:0:0:
329,192,72617,1,0,0:0:0:0:
109,192,72617,1,0,0:0:0:0:
402,192,72681,1,0,0:0:0:0:
182,192,72745,1,8,0:0:0:0:
36,192,72745,1,2,0:0:0:0:
256,192,72745,1,8,0:0:0:0:
475,192,72745,1,0,0:0:0:0:
329,192,72809,1,0,0:0:0:0:
402,192,72873,1,0,0:0:0:0:
109,192,72873,1,8,0:0:0:0:
182,192,72873,1,8,0:0:0:0:
256,192,72937,1,0,0:0:0:0:
36,192,73000,1,2,0:0:0:0:
329,192,73000,1,8,0:0:0:0:
475,192,73000,1,8,0:0:0:0:
402,192,73064,1,0,0:0:0:0:
256,192,73128,1,8,0:0:0:0:
109,192,73128,1,0,0:0:0:0:
182,192,73128,1,8,0:0:0:0:
329,192,73192,1,0,0:0:0:0:
402,192,73256,1,8,2:0:0:0:
182,192,73256,1,2,0:0:0:0:
36,192,73256,1,8,2:0:0:0:
475,192,73256,1,8,2:0:0:0:
256,192,73320,1,0,0:0:0:0:
329,192,73383,1,8,0:0:0:0:
109,192,73383,1,8,0:0:0:0:
475,192,73383,1,0,0:0:0:0:
256,192,73447,1,0,0:0:0:0:
402,192,73447,1,0,0:0:0:0:
475,192,73511,1,2,0:0:0:0:
182,192,73511,1,8,0:0:0:0:
36,192,73511,1,8,0:0:0:0:
256,192,73575,1,0,0:0:0:0:
109,192,73639,1,0,0:0:0:0:
329,192,73639,1,0,0:0:0:0:
256,192,73702,1,0,0:0:0:0:
182,192,73766,1,2,0:0:0:0:
36,192,73766,1,8,2:0:0:0:
402,192,73766,1,8,0:0:0:0:
329,192,73766,1,8,0:0:0:0:
475,192,73830,1,0,0:0:0:0:
402,192,73894,1,0,0:0:0:0:
256,192,73894,1,8,0:0:0:0:
109,192,73894,1,8,0:0:0:0:
182,192,73958,1,0,0:0:0:0:
109,192,74022,1,8,0:0:0:0:
36,192,74022,1,8,0:0:0:0:
256,192,74022,1,2,0:0:0:0:
329,192,74085,1,0,0:0:0:0:
475,192,74149,1,8,0:0:0:0:
182,192,74149,1,0,0:0:0:0:
402,192,74149,1,8,0:0:0:0:
329,192,74213,1,0,0:0:0:0:
256,192,74277,1,8,2:0:0:0:
109,192,74277,1,8,2:0:0:0:
36,192,74277,1,2,0:0:0:0:
402,192,74277,1,8,2:0:0:0:
182,192,74341,1,0,0:0:0:0:
329,192,74405,1,8,0:0:0:0:
109,192,74405,1,0,0:0:0:0:
475,192,74405,1,8,0:0:0:0:
402,192,74468,1,0,0:0:0:0:
329,192,74532,1,8,0:0:0:0:
182,192,74532,1,8,0:0:0:0:
36,192,74532,1,2,0:0:0:0:
256,192,74596,1,0,0:0:0:0:
109,192,74660,1,0,0:0:0:0:
329,192,74660,1,0,0:0:0:0:
182,192,74724,1,0,0:0:0:0:
256,192,74788,1,0,0:0:0:0:
36,192,74788,1,2,0:0:0:0:
402,192,74788,1,8,0:0:0:0:
475,192,74788,1,8,0:0:0:0:
329,192,74851,1,0,0:0:0:0:
182,192,74915,1,8,0:0:0:0:
109,192,74915,1,8,0:0:0:0:
402,192,74915,1,0,0:0:0:0:
256,192,74979,1,0,0:0:0:0:
475,192,75043,5,2,0:0:0:0:
402,192,75043,1,0,0:0:0:0:
36,192,75107,1,0,0:0:0:0:
109,192,75107,1,2,0:0:0:0:
182,192,75171,1,0,0:0:0:0:
329,192,75171,1,2,0:0:0:0:
256,192,75234,1,2,0:0:0:0:
402,192,75234,1,0,0:0:0:0:
475,192,75298,1,0,0:0:0:0:
109,192,75298,1,2,0:0:0:0:
182,192,75362,1,2,0:0:0:0:
36,192,75362,1,0,0:0:0:0:
475,192,75426,1,0,0:0:0:0:
402,192,75426,1,2,0:0:0:0:
329,192,75490,1,0,0:0:0:0:
256,192,75490,1,2,0:0:0:0:
182,192,75554,1,2,0:0:0:0:
109,192,75585,1,2,0:0:0:0:
36,192,75617,1,2,0:0:0:0:
475,192,75649,1,2,0:0:0:0:
402,192,75681,1,2,0:0:0:0:
329,192,75713,1,2,0:0:0:0:
256,192,75745,1,2,0:0:0:0:
182,192,75777,1,2,0:0:0:0:
109,192,75809,1,2,0:0:0:0:
36,192,75841,1,2,0:0:0:0:
475,192,75873,1,2,0:0:0:0:
402,192,75905,1,2,0:0:0:0:
329,192,75937,1,2,0:0:0:0:
256,192,75968,1,2,0:0:0:0:
182,192,76000,1,2,0:0:0:0:
109,192,76032,1,2,0:0:0:0:
329,192,76064,5,8,2:0:0:0:
402,192,76064,1,8,2:0:0:0:
475,192,76064,1,8,2:0:0:0:
36,192,76064,1,2,0:0:0:0:
402,192,76320,1,8,2:0:0:0:
329,192,76320,1,8,2:0:0:0:
256,192,76320,1,8,2:0:0:0:
329,192,76575,1,8,2:0:0:0:
402,192,76575,1,8,2:0:0:0:
475,192,76575,1,8,2:0:0:0:
329,192,76830,1,8,2:0:0:0:
182,192,76830,1,8,2:0:0:0:
256,192,76830,1,8,2:0:0:0:
182,192,77085,1,8,2:0:0:0:
109,192,77085,1,8,2:0:0:0:
36,192,77085,1,8,2:0:0:0:
109,192,77341,1,8,2:0:0:0:
182,192,77341,1,8,2:0:0:0:
256,192,77341,1,8,2:0:0:0:
182,192,77596,1,8,2:0:0:0:
109,192,77596,1,8,2:0:0:0:
36,192,77596,1,8,2:0:0:0:
329,192,77851,1,8,2:0:0:0:
475,192,77851,1,8,2:0:0:0:
402,192,77851,1,8,2:0:0:0:
109,192,77979,1,8,2:0:0:0:
182,192,77979,1,8,2:0:0:0:
36,192,77979,1,8,2:0:0:0:
329,192,78043,1,8,2:0:0:0:
256,192,78043,1,8,2:0:0:0:
475,192,78107,1,8,2:0:0:0:
402,192,78107,1,8,2:0:0:0:
109,192,78107,1,8,2:0:0:0:
256,192,78362,1,8,2:0:0:0:
182,192,78362,1,8,2:0:0:0:
109,192,78362,1,8,2:0:0:0:
329,192,78617,1,8,2:0:0:0:
402,192,78617,1,8,2:0:0:0:
475,192,78617,1,8,2:0:0:0:
182,192,78873,1,8,2:0:0:0:
109,192,78873,1,8,2:0:0:0:
36,192,78873,1,8,2:0:0:0:
329,192,79128,1,8,2:0:0:0:
402,192,79128,1,8,2:0:0:0:
475,192,79128,1,8,2:0:0:0:
256,192,79383,1,8,2:0:0:0:
329,192,79383,1,8,2:0:0:0:
402,192,79383,1,8,2:0:0:0:
109,192,79639,1,8,2:0:0:0:
182,192,79639,1,8,2:0:0:0:
256,192,79639,1,8,2:0:0:0:
109,192,79894,1,8,2:0:0:0:
36,192,79894,1,8,2:0:0:0:
256,192,79894,1,8,2:0:0:0:
475,192,80022,1,8,2:0:0:0:
182,192,80022,1,8,2:0:0:0:
329,192,80022,1,8,2:0:0:0:
402,192,80149,1,8,2:0:0:0:
109,192,80149,1,8,2:0:0:0:
36,192,80149,1,8,2:0:0:0:
256,192,80405,1,8,2:0:0:0:
36,192,80405,1,8,2:0:0:0:
182,192,80405,1,8,2:0:0:0:
329,192,80660,1,8,2:0:0:0:
402,192,80660,1,8,2:0:0:0:
475,192,80660,1,8,2:0:0:0:
256,192,80915,1,8,2:0:0:0:
182,192,80915,1,8,2:0:0:0:
36,192,80915,1,8,2:0:0:0:
109,192,81171,1,8,2:0:0:0:
329,192,81171,1,8,2:0:0:0:
475,192,81171,1,8,2:0:0:0:
402,192,81426,1,8,2:0:0:0:
182,192,81426,1,8,2:0:0:0:
36,192,81426,1,8,2:0:0:0:
109,192,81681,1,8,2:0:0:0:
329,192,81681,1,8,2:0:0:0:
475,192,81681,1,8,2:0:0:0:
402,192,81937,1,8,2:0:0:0:
182,192,81937,1,8,2:0:0:0:
36,192,81937,1,8,2:0:0:0:
109,192,82064,1,8,2:0:0:0:
475,192,82064,1,8,2:0:0:0:
256,192,82064,1,8,2:0:0:0:
329,192,82128,1,8,2:0:0:0:
402,192,82128,1,8,2:0:0:0:
182,192,82192,1,8,2:0:0:0:
36,192,82192,1,8,2:0:0:0:
256,192,82192,1,8,2:0:0:0:
475,192,82447,1,8,2:0:0:0:
36,192,82447,1,8,2:0:0:0:
256,192,82447,1,8,2:0:0:0:
109,192,82702,1,8,2:0:0:0:
182,192,82702,1,8,2:0:0:0:
402,192,82702,1,8,2:0:0:0:
256,192,82958,1,8,2:0:0:0:
36,192,82958,1,8,2:0:0:0:
475,192,82958,1,8,2:0:0:0:
402,192,83213,1,8,2:0:0:0:
329,192,83213,1,8,2:0:0:0:
109,192,83213,1,8,2:0:0:0:
182,192,83341,1,0,2:0:0:0:
256,192,83405,1,0,2:0:0:0:
329,192,83468,1,2,0:0:0:0:
109,192,83468,1,0,2:0:0:0:
402,192,83468,1,0,2:0:0:0:
256,192,83532,1,0,2:0:0:0:
182,192,83596,1,0,2:0:0:0:
36,192,83660,1,0,2:0:0:0:
109,192,83724,1,2,0:0:0:0:
402,192,83724,1,0,0:0:0:0:
182,192,83788,1,0,2:0:0:0:
329,192,83851,1,0,0:0:0:0:
36,192,83851,1,2,0:0:0:0:
109,192,83915,1,0,2:0:0:0:
256,192,83979,1,2,0:0:0:0:
402,192,83979,1,2,0:0:0:0:
475,192,83979,1,2,0:0:0:0:
329,192,84043,1,0,2:0:0:0:
182,192,84107,1,2,0:0:0:0:
36,192,84107,1,2,0:0:0:0:
109,192,84107,1,2,0:0:0:0:
256,192,84171,1,0,2:0:0:0:
475,192,84234,1,8,2:0:0:0:
402,192,84234,1,8,2:0:0:0:
329,192,84234,1,8,2:0:0:0:
36,192,84234,1,2,0:0:0:0:
109,192,84234,1,2,0:0:0:0:
256,192,84362,1,0,2:0:0:0:
182,192,84362,1,0,2:0:0:0:
329,192,84490,1,8,2:0:0:0:
36,192,84490,1,2,0:0:0:0:
402,192,84490,1,8,2:0:0:0:
475,192,84490,1,8,2:0:0:0:
109,192,84490,1,2,0:0:0:0:
256,192,84617,1,0,2:0:0:0:
182,192,84617,1,0,2:0:0:0:
109,192,84745,1,2,0:0:0:0:
36,192,84745,1,2,0:0:0:0:
329,192,84745,1,8,2:0:0:0:
402,192,84745,1,8,2:0:0:0:
475,192,84745,1,8,2:0:0:0:
182,192,84873,1,0,2:0:0:0:
256,192,84873,1,0,2:0:0:0:
109,192,85000,1,2,0:0:0:0:
36,192,85000,1,2,0:0:0:0:
329,192,85000,1,8,2:0:0:0:
475,192,85000,1,8,2:0:0:0:
402,192,85000,1,8,2:0:0:0:
182,192,85128,1,0,2:0:0:0:
256,192,85128,1,0,2:0:0:0:
329,192,85256,1,8,2:0:0:0:
109,192,85256,1,2,0:0:0:0:
36,192,85256,1,2,0:0:0:0:
402,192,85256,1,8,2:0:0:0:
475,192,85256,1,8,2:0:0:0:
256,192,85383,1,0,2:0:0:0:
182,192,85383,1,0,2:0:0:0:
36,192,85511,1,2,0:0:0:0:
109,192,85511,1,2,0:0:0:0:
329,192,85511,1,8,2:0:0:0:
402,192,85511,1,8,2:0:0:0:
475,192,85511,1,8,2:0:0:0:
256,192,85639,1,0,2:0:0:0:
182,192,85639,1,0,2:0:0:0:
36,192,85766,1,2,0:0:0:0:
109,192,85766,1,2,0:0:0:0:
329,192,85766,1,8,2:0:0:0:
402,192,85766,1,8,2:0:0:0:
475,192,85766,1,8,2:0:0:0:
256,192,85894,1,0,2:0:0:0:
182,192,85894,1,0,2:0:0:0:
109,192,86022,1,2,0:0:0:0:
36,192,86022,1,2,0:0:0:0:
329,192,86022,1,8,2:0:0:0:
402,192,86022,1,8,2:0:0:0:
475,192,86022,1,8,2:0:0:0:
36,192,86149,1,0,2:0:0:0:
109,192,86149,1,2,0:0:0:0:
182,192,86149,1,2,0:0:0:0:
256,192,86213,1,0,2:0:0:0:
329,192,86213,1,0,2:0:0:0:
475,192,86277,1,2,0:0:0:0:
109,192,86277,1,8,2:0:0:0:
36,192,86277,1,8,2:0:0:0:
402,192,86277,1,2,0:0:0:0:
182,192,86277,1,8,2:0:0:0:
256,192,86405,1,0,2:0:0:0:
329,192,86405,1,0,2:0:0:0:
36,192,86532,1,8,2:0:0:0:
109,192,86532,1,8,2:0:0:0:
182,192,86532,1,8,2:0:0:0:
402,192,86532,1,2,0:0:0:0:
475,192,86532,1,2,0:0:0:0:
256,192,86660,1,0,2:0:0:0:
329,192,86660,1,0,2:0:0:0:
182,192,86788,1,8,2:0:0:0:
109,192,86788,1,8,2:0:0:0:
36,192,86788,1,8,2:0:0:0:
402,192,86788,1,2,0:0:0:0:
475,192,86788,1,2,0:0:0:0:
329,192,86915,1,0,2:0:0:0:
256,192,86915,1,0,2:0:0:0:
182,192,87043,1,8,2:0:0:0:
109,192,87043,1,8,2:0:0:0:
36,192,87043,1,8,2:0:0:0:
402,192,87043,1,2,0:0:0:0:
475,192,87043,1,2,0:0:0:0:
329,192,87171,1,0,2:0:0:0:
256,192,87171,1,0,2:0:0:0:
182,192,87298,1,8,2:0:0:0:
109,192,87298,1,8,2:0:0:0:
36,192,87298,1,8,2:0:0:0:
402,192,87298,1,2,0:0:0:0:
475,192,87298,1,2,0:0:0:0:
329,192,87426,1,0,2:0:0:0:
256,192,87426,1,0,2:0:0:0:
182,192,87554,1,8,2:0:0:0:
36,192,87554,1,8,2:0:0:0:
109,192,87554,1,8,2:0:0:0:
402,192,87554,1,2,0:0:0:0:
475,192,87554,1,2,0:0:0:0:
329,192,87681,1,0,2:0:0:0:
256,192,87681,1,0,2:0:0:0:
182,192,87809,1,8,2:0:0:0:
109,192,87809,1,8,2:0:0:0:
36,192,87809,1,8,2:0:0:0:
402,192,87809,1,2,0:0:0:0:
475,192,87809,1,2,0:0:0:0:
329,192,87937,1,0,2:0:0:0:
256,192,87937,1,0,2:0:0:0:
182,192,88064,1,8,2:0:0:0:
36,192,88064,1,8,2:0:0:0:
109,192,88064,1,8,2:0:0:0:
402,192,88064,1,2,0:0:0:0:
475,192,88064,1,2,0:0:0:0:
329,192,88192,1,8,2:0:0:0:
256,192,88192,1,8,2:0:0:0:
36,192,88192,1,2,0:0:0:0:
402,192,88192,1,2,0:0:0:0:
182,192,88192,1,8,2:0:0:0:
36,192,88320,1,2,0:0:0:0:
182,192,88320,1,2,0:0:0:0:
256,192,88320,1,8,2:0:0:0:
402,192,88320,1,8,2:0:0:0:
475,192,88320,1,8,2:0:0:0:
329,192,88447,1,0,2:0:0:0:
109,192,88447,1,0,2:0:0:0:
256,192,88575,1,2,0:0:0:0:
36,192,88575,1,2,0:0:0:0:
182,192,88575,1,8,2:0:0:0:
402,192,88575,1,8,2:0:0:0:
475,192,88575,1,8,2:0:0:0:
329,192,88702,1,0,2:0:0:0:
109,192,88702,1,0,2:0:0:0:
256,192,88830,1,8,2:0:0:0:
182,192,88830,1,2,0:0:0:0:
36,192,88830,1,2,0:0:0:0:
402,192,88830,1,8,2:0:0:0:
475,192,88830,1,8,2:0:0:0:
329,192,88958,1,0,2:0:0:0:
109,192,88958,1,0,2:0:0:0:
182,192,89085,1,2,0:0:0:0:
36,192,89085,1,2,0:0:0:0:
256,192,89085,1,8,2:0:0:0:
402,192,89085,1,8,2:0:0:0:
475,192,89085,1,8,2:0:0:0:
329,192,89213,1,0,2:0:0:0:
109,192,89213,1,0,2:0:0:0:
256,192,89341,1,8,2:0:0:0:
182,192,89341,1,2,0:0:0:0:
36,192,89341,1,2,0:0:0:0:
402,192,89341,1,8,2:0:0:0:
475,192,89341,1,8,2:0:0:0:
329,192,89468,1,0,2:0:0:0:
109,192,89468,1,0,2:0:0:0:
256,192,89596,1,8,2:0:0:0:
182,192,89596,1,2,0:0:0:0:
36,192,89596,1,2,0:0:0:0:
402,192,89596,1,8,2:0:0:0:
475,192,89596,1,8,2:0:0:0:
329,192,89724,1,0,2:0:0:0:
109,192,89724,1,0,2:0:0:0:
256,192,89851,1,8,2:0:0:0:
182,192,89851,1,2,0:0:0:0:
36,192,89851,1,2,0:0:0:0:
402,192,89851,1,8,2:0:0:0:
475,192,89851,1,8,2:0:0:0:
109,192,89979,1,0,2:0:0:0:
329,192,89979,1,0,2:0:0:0:
256,192,90107,1,8,2:0:0:0:
182,192,90107,1,2,0:0:0:0:
36,192,90107,1,2,0:0:0:0:
402,192,90107,1,8,2:0:0:0:
475,192,90107,1,8,2:0:0:0:
329,192,90234,5,0,2:0:0:0:
109,192,90234,1,2,0:0:0:0:
182,192,90234,1,2,0:0:0:0:
256,192,90298,1,2,0:0:0:0:
475,192,90298,1,2,0:0:0:0:
402,192,90362,1,2,0:0:0:0:
329,192,90362,1,2,0:0:0:0:
182,192,90362,1,8,2:0:0:0:
109,192,90362,1,8,2:0:0:0:
36,192,90362,1,8,2:0:0:0:
256,192,90490,1,0,2:0:0:0:
475,192,90490,1,0,2:0:0:0:
402,192,90617,1,2,0:0:0:0:
329,192,90617,1,2,0:0:0:0:
182,192,90617,1,8,2:0:0:0:
36,192,90617,1,8,2:0:0:0:
109,192,90617,1,8,2:0:0:0:
256,192,90745,1,0,2:0:0:0:
475,192,90745,1,0,2:0:0:0:
402,192,90873,1,2,0:0:0:0:
329,192,90873,1,2,0:0:0:0:
182,192,90873,1,8,2:0:0:0:
36,192,90873,1,8,2:0:0:0:
109,192,90873,1,8,2:0:0:0:
256,192,91000,1,0,2:0:0:0:
475,192,91000,1,0,2:0:0:0:
402,192,91128,1,2,0:0:0:0:
329,192,91128,1,2,0:0:0:0:
182,192,91128,1,8,2:0:0:0:
36,192,91128,1,8,2:0:0:0:
109,192,91128,1,8,2:0:0:0:
256,192,91256,1,0,2:0:0:0:
475,192,91256,1,0,2:0:0:0:
475,192,91383,5,0,2:0:0:0:
402,192,91383,1,2,0:0:0:0:
36,192,91383,1,0,0:0:0:0:
329,192,91447,1,0,2:0:0:0:
256,192,91447,1,2,0:0:0:0:
182,192,91511,1,2,0:0:0:0:
109,192,91511,1,0,2:0:0:0:
36,192,91575,1,0,2:0:0:0:
256,192,91575,1,2,0:0:0:0:
329,192,91639,1,0,2:0:0:0:
402,192,91639,1,2,0:0:0:0:
475,192,91702,1,2,0:0:0:0:
182,192,91702,1,0,2:0:0:0:
402,192,91766,1,2,0:0:0:0:
329,192,91766,1,0,2:0:0:0:
256,192,91830,1,2,0:0:0:0:
182,192,91830,1,0,2:0:0:0:
109,192,91894,1,2,0:0:0:0:
36,192,91894,1,0,2:0:0:0:
329,192,91894,1,2,3:0:0:0:
402,192,91926,1,2,3:0:0:0:
475,192,91958,1,2,3:0:0:0:
36,192,91990,1,2,3:0:0:0:
109,192,92022,1,2,3:0:0:0:
182,192,92054,1,2,3:0:0:0:
256,192,92085,1,2,3:0:0:0:
329,192,92117,1,2,3:0:0:0:
402,192,92149,1,2,3:0:0:0:
475,192,92181,1,2,3:0:0:0:
36,192,92213,1,2,3:0:0:0:
109,192,92245,1,2,3:0:0:0:
182,192,92277,1,2,3:0:0:0:
256,192,92309,1,2,3:0:0:0:
329,192,92341,1,2,3:0:0:0:
402,192,92373,1,2,3:0:0:0:
475,192,92405,1,2,3:0:0:0:
109,192,92405,1,8,2:0:0:0:
36,192,92405,1,8,2:0:0:0:
182,192,92405,1,8,2:0:0:0:
256,192,92532,1,0,2:0:0:0:
329,192,92532,1,0,2:0:0:0:
182,192,92660,1,8,2:0:0:0:
109,192,92660,1,8,2:0:0:0:
36,192,92660,1,8,2:0:0:0:
402,192,92660,1,2,0:0:0:0:
475,192,92660,1,2,0:0:0:0:
329,192,92788,1,0,2:0:0:0:
256,192,92788,1,0,2:0:0:0:
475,192,92915,1,2,0:0:0:0:
402,192,92915,1,2,0:0:0:0:
109,192,92915,1,8,2:0:0:0:
182,192,92915,1,8,2:0:0:0:
36,192,92915,1,8,2:0:0:0:
329,192,93043,1,0,2:0:0:0:
256,192,93043,1,0,2:0:0:0:
182,192,93171,1,8,2:0:0:0:
109,192,93171,1,8,2:0:0:0:
36,192,93171,1,8,2:0:0:0:
402,192,93171,1,2,0:0:0:0:
475,192,93171,1,2,0:0:0:0:
329,192,93298,1,0,2:0:0:0:
256,192,93298,1,0,2:0:0:0:
182,192,93426,1,8,2:0:0:0:
109,192,93426,1,8,2:0:0:0:
36,192,93426,1,8,2:0:0:0:
402,192,93426,1,2,0:0:0:0:
475,192,93426,1,2,0:0:0:0:
256,192,93554,1,0,2:0:0:0:
329,192,93554,1,0,2:0:0:0:
36,192,93681,1,8,2:0:0:0:
109,192,93681,1,8,2:0:0:0:
182,192,93681,1,8,2:0:0:0:
402,192,93681,1,2,0:0:0:0:
475,192,93681,1,2,0:0:0:0:
256,192,93809,1,0,2:0:0:0:
329,192,93809,1,0,2:0:0:0:
36,192,93937,1,8,2:0:0:0:
109,192,93937,1,8,2:0:0:0:
182,192,93937,1,8,2:0:0:0:
402,192,93937,1,2,0:0:0:0:
475,192,93937,1,2,0:0:0:0:
256,192,94064,1,0,2:0:0:0:
329,192,94064,1,0,2:0:0:0:
36,192,94192,1,8,2:0:0:0:
109,192,94192,1,8,2:0:0:0:
182,192,94192,1,8,2:0:0:0:
402,192,94192,1,2,0:0:0:0:
475,192,94192,1,2,0:0:0:0:
256,192,94320,1,2,0:0:0:0:
402,192,94320,1,2,0:0:0:0:
475,192,94320,1,0,2:0:0:0:
329,192,94383,1,2,0:0:0:0:
109,192,94383,1,2,0:0:0:0:
36,192,94447,1,8,2:0:0:0:
182,192,94447,1,8,2:0:0:0:
402,192,94447,1,2,0:0:0:0:
475,192,94447,1,2,0:0:0:0:
256,192,94447,1,8,2:0:0:0:
109,192,94575,1,0,2:0:0:0:
329,192,94575,1,0,2:0:0:0:
36,192,94702,1,8,2:0:0:0:
182,192,94702,1,8,2:0:0:0:
256,192,94702,1,8,2:0:0:0:
402,192,94702,1,2,0:0:0:0:
475,192,94702,1,2,0:0:0:0:
329,192,94830,1,0,2:0:0:0:
109,192,94830,1,0,2:0:0:0:
36,192,94958,1,8,2:0:0:0:
182,192,94958,1,8,2:0:0:0:
256,192,94958,1,8,2:0:0:0:
402,192,94958,1,2,0:0:0:0:
475,192,94958,1,2,0:0:0:0:
329,192,95085,1,0,2:0:0:0:
109,192,95085,1,0,2:0:0:0:
182,192,95213,1,8,2:0:0:0:
36,192,95213,1,8,2:0:0:0:
256,192,95213,1,8,2:0:0:0:
402,192,95213,1,2,0:0:0:0:
475,192,95213,1,2,0:0:0:0:
329,192,95341,1,0,2:0:0:0:
109,192,95341,1,0,2:0:0:0:
36,192,95468,1,8,2:0:0:0:
182,192,95468,1,8,2:0:0:0:
256,192,95468,1,8,2:0:0:0:
402,192,95468,1,2,0:0:0:0:
475,192,95468,1,2,0:0:0:0:
329,192,95596,1,0,2:0:0:0:
109,192,95596,1,0,2:0:0:0:
36,192,95724,1,8,2:0:0:0:
182,192,95724,1,8,2:0:0:0:
256,192,95724,1,8,2:0:0:0:
402,192,95724,1,2,0:0:0:0:
475,192,95724,1,2,0:0:0:0:
109,192,95851,1,0,2:0:0:0:
329,192,95851,1,0,2:0:0:0:
475,192,95979,1,2,0:0:0:0:
402,192,95979,1,2,0:0:0:0:
256,192,95979,1,8,2:0:0:0:
182,192,95979,1,8,2:0:0:0:
36,192,95979,1,8,2:0:0:0:
109,192,96107,1,0,2:0:0:0:
329,192,96107,1,0,2:0:0:0:
182,192,96234,1,8,2:0:0:0:
36,192,96234,1,8,2:0:0:0:
256,192,96234,1,8,2:0:0:0:
475,192,96234,1,2,0:0:0:0:
402,192,96234,1,2,0:0:0:0:
182,192,96362,1,2,0:0:0:0:
329,192,96362,1,8,2:0:0:0:
109,192,96362,1,2,0:0:0:0:
402,192,96362,1,8,2:0:0:0:
475,192,96362,1,8,2:0:0:0:
402,192,96490,1,2,0:0:0:0:
475,192,96490,1,2,0:0:0:0:
256,192,96490,1,8,2:0:0:0:
182,192,96490,1,8,2:0:0:0:
109,192,96490,1,8,2:0:0:0:
36,192,96617,1,0,2:0:0:0:
329,192,96617,1,0,2:0:0:0:
109,192,96745,1,8,2:0:0:0:
182,192,96745,1,8,2:0:0:0:
256,192,96745,1,8,2:0:0:0:
402,192,96745,1,2,0:0:0:0:
475,192,96745,1,2,0:0:0:0:
329,192,96873,1,0,2:0:0:0:
36,192,96873,1,0,2:0:0:0:
182,192,97000,1,8,2:0:0:0:
256,192,97000,1,8,2:0:0:0:
402,192,97000,1,2,0:0:0:0:
475,192,97000,1,2,0:0:0:0:
109,192,97000,1,8,2:0:0:0:
36,192,97128,1,0,2:0:0:0:
329,192,97128,1,0,2:0:0:0:
475,192,97256,1,2,0:0:0:0:
109,192,97256,1,8,2:0:0:0:
402,192,97256,1,2,0:0:0:0:
182,192,97256,1,8,2:0:0:0:
256,192,97256,1,8,2:0:0:0:
36,192,97383,1,0,2:0:0:0:
329,192,97383,1,0,2:0:0:0:
182,192,97511,1,8,2:0:0:0:
256,192,97511,1,8,2:0:0:0:
402,192,97511,1,2,0:0:0:0:
475,192,97511,1,2,0:0:0:0:
109,192,97511,1,8,2:0:0:0:
36,192,97639,1,0,2:0:0:0:
329,192,97639,1,0,2:0:0:0:
475,192,97766,1,2,0:0:0:0:
109,192,97766,1,8,2:0:0:0:
402,192,97766,1,2,0:0:0:0:
182,192,97766,1,8,2:0:0:0:
256,192,97766,1,8,2:0:0:0:
36,192,97894,1,0,2:0:0:0:
329,192,97894,1,0,2:0:0:0:
182,192,98022,1,8,2:0:0:0:
256,192,98022,1,8,2:0:0:0:
402,192,98022,1,2,0:0:0:0:
475,192,98022,1,2,0:0:0:0:
109,192,98022,1,8,2:0:0:0:
36,192,98149,1,0,2:0:0:0:
329,192,98149,1,0,2:0:0:0:
475,192,98277,1,2,0:0:0:0:
109,192,98277,1,8,2:0:0:0:
402,192,98277,1,2,0:0:0:0:
182,192,98277,1,8,2:0:0:0:
256,192,98277,1,8,2:0:0:0:
402,192,98405,5,2,0:0:0:0:
329,192,98405,1,2,0:0:0:0:
109,192,98405,1,0,2:0:0:0:
182,192,98468,1,2,0:0:0:0:
475,192,98468,1,2,0:0:0:0:
109,192,98532,1,2,0:0:0:0:
36,192,98532,1,2,0:0:0:0:
256,192,98532,1,8,2:0:0:0:
329,192,98532,1,8,2:0:0:0:
402,192,98532,1,8,2:0:0:0:
475,192,98660,1,0,2:0:0:0:
182,192,98660,1,0,2:0:0:0:
36,192,98788,1,2,0:0:0:0:
109,192,98788,1,2,0:0:0:0:
256,192,98788,1,8,2:0:0:0:
402,192,98788,1,8,2:0:0:0:
329,192,98788,1,8,2:0:0:0:
182,192,98915,1,0,2:0:0:0:
475,192,98915,1,0,2:0:0:0:
36,192,99043,1,2,0:0:0:0:
109,192,99043,1,2,0:0:0:0:
256,192,99043,1,8,2:0:0:0:
329,192,99043,1,8,2:0:0:0:
402,192,99043,1,8,2:0:0:0:
182,192,99171,1,0,2:0:0:0:
475,192,99171,1,0,2:0:0:0:
402,192,99298,1,8,2:0:0:0:
329,192,99298,1,8,2:0:0:0:
256,192,99298,1,8,2:0:0:0:
109,192,99298,1,2,0:0:0:0:
36,192,99298,1,2,0:0:0:0:
182,192,99426,1,0,2:0:0:0:
475,192,99426,1,0,2:0:0:0:
36,192,99554,5,2,0:0:0:0:
109,192,99554,1,0,0:0:0:0:
182,192,99617,1,2,0:0:0:0:
256,192,99617,1,0,0:0:0:0:
329,192,99681,1,2,0:0:0:0:
402,192,99681,1,0,0:0:0:0:
475,192,99745,1,0,0:0:0:0:
256,192,99745,1,2,0:0:0:0:
182,192,99809,1,0,0:0:0:0:
109,192,99809,1,2,0:0:0:0:
36,192,99873,1,2,0:0:0:0:
329,192,99873,1,0,0:0:0:0:
109,192,99937,1,2,0:0:0:0:
182,192,99937,1,0,0:0:0:0:
256,192,100000,1,0,0:0:0:0:
329,192,100000,1,2,0:0:0:0:
402,192,100064,1,2,0:0:0:0:
475,192,100064,1,0,0:0:0:0:
402,192,100320,1,0,2:0:0:0:
329,192,100320,1,0,2:0:0:0:
36,192,100447,1,2,0:0:0:0:
109,192,100447,1,2,0:0:0:0:
182,192,100511,1,2,0:0:0:0:
256,192,100511,1,2,0:0:0:0:
329,192,100575,1,8,0:0:0:0:
402,192,100575,1,8,0:0:0:0:
36,192,100575,1,2,0:0:0:0:
109,192,100639,1,0,0:0:0:0:
182,192,100702,1,8,0:0:0:0:
256,192,100702,1,8,0:0:0:0:
36,192,100702,1,0,0:0:0:0:
402,192,100766,1,0,0:0:0:0:
475,192,100830,1,8,2:0:0:0:
329,192,100830,1,8,2:0:0:0:
109,192,100830,1,2,0:0:0:0:
182,192,100830,1,8,2:0:0:0:
256,192,100894,1,0,0:0:0:0:
182,192,100958,1,8,0:0:0:0:
36,192,100958,1,8,0:0:0:0:
402,192,100958,1,0,0:0:0:0:
256,192,101022,1,0,0:0:0:0:
109,192,101085,1,2,0:0:0:0:
329,192,101085,1,8,0:0:0:0:
475,192,101085,1,8,0:0:0:0:
402,192,101149,1,0,0:0:0:0:
256,192,101213,1,0,0:0:0:0:
36,192,101213,1,0,0:0:0:0:
182,192,101277,1,0,0:0:0:0:
109,192,101341,1,8,0:0:0:0:
329,192,101341,1,2,0:0:0:0:
475,192,101341,1,8,2:0:0:0:
36,192,101341,1,8,0:0:0:0:
182,192,101405,1,0,0:0:0:0:
402,192,101468,1,8,0:0:0:0:
109,192,101468,1,0,0:0:0:0:
256,192,101468,1,8,0:0:0:0:
329,192,101532,1,0,0:0:0:0:
182,192,101596,1,8,0:0:0:0:
36,192,101596,1,8,0:0:0:0:
402,192,101596,1,2,0:0:0:0:
256,192,101660,1,0,0:0:0:0:
329,192,101724,1,8,0:0:0:0:
109,192,101724,1,0,0:0:0:0:
475,192,101724,1,8,0:0:0:0:
402,192,101788,1,0,0:0:0:0:
256,192,101851,1,8,2:0:0:0:
182,192,101851,1,2,0:0:0:0:
36,192,101851,1,8,2:0:0:0:
475,192,101851,1,8,2:0:0:0:
402,192,101915,1,0,0:0:0:0:
329,192,101979,1,8,0:0:0:0:
109,192,101979,1,8,0:0:0:0:
475,192,101979,1,0,0:0:0:0:
256,192,102043,1,0,0:0:0:0:
402,192,102107,1,8,0:0:0:0:
36,192,102107,1,2,0:0:0:0:
329,192,102107,1,8,0:0:0:0:
182,192,102171,1,0,0:0:0:0:
109,192,102234,1,0,0:0:0:0:
475,192,102234,1,0,0:0:0:0:
402,192,102298,1,0,0:0:0:0:
329,192,102362,1,8,0:0:0:0:
182,192,102362,1,2,0:0:0:0:
475,192,102362,1,8,0:0:0:0:
256,192,102362,1,8,2:0:0:0:
36,192,102426,1,0,0:0:0:0:
109,192,102490,1,8,0:0:0:0:
402,192,102490,1,0,0:0:0:0:
182,192,102490,1,8,0:0:0:0:
329,192,102554,1,0,0:0:0:0:
256,192,102617,1,8,0:0:0:0:
36,192,102617,1,8,0:0:0:0:
402,192,102617,1,2,0:0:0:0:
109,192,102681,1,0,0:0:0:0:
182,192,102745,1,8,0:0:0:0:
329,192,102745,1,8,0:0:0:0:
475,192,102745,1,0,0:0:0:0:
402,192,102809,1,0,0:0:0:0:
256,192,102873,1,8,2:0:0:0:
36,192,102873,1,8,2:0:0:0:
109,192,102873,1,2,0:0:0:0:
475,192,102873,1,8,2:0:0:0:
182,192,102937,1,0,0:0:0:0:
329,192,103000,1,8,0:0:0:0:
109,192,103000,1,0,0:0:0:0:
402,192,103000,1,8,0:0:0:0:
256,192,103064,1,0,0:0:0:0:
36,192,103128,1,8,0:0:0:0:
475,192,103128,1,2,0:0:0:0:
329,192,103128,1,8,0:0:0:0:
109,192,103192,1,0,0:0:0:0:
256,192,103256,1,0,0:0:0:0:
402,192,103256,1,0,0:0:0:0:
329,192,103320,1,0,0:0:0:0:
182,192,103383,1,8,0:0:0:0:
36,192,103383,1,8,0:0:0:0:
475,192,103383,1,2,0:0:0:0:
402,192,103447,1,0,0:0:0:0:
329,192,103511,1,8,0:0:0:0:
109,192,103511,1,0,0:0:0:0:
256,192,103511,1,8,0:0:0:0:
182,192,103575,1,0,0:0:0:0:
329,192,103639,1,8,0:0:0:0:
475,192,103639,1,0,0:0:0:0:
36,192,103639,1,2,0:0:0:0:
402,192,103766,1,0,0:0:0:0:
256,192,103766,1,8,0:0:0:0:
329,192,103894,1,0,0:0:0:0:
182,192,103894,1,8,0:0:0:0:
256,192,104022,1,0,0:0:0:0:
109,192,104022,1,8,0:0:0:0:
36,192,104149,1,8,0:0:0:0:
182,192,104149,1,0,0:0:0:0:
109,192,104277,1,0,0:0:0:0:
256,192,104277,1,8,0:0:0:0:
475,192,104405,1,8,2:0:0:0:
402,192,104405,1,8,2:0:0:0:
182,192,104405,1,2,0:0:0:0:
256,192,104468,1,2,0:0:0:0:
109,192,104532,1,8,2:0:0:0:
36,192,104532,1,8,2:0:0:0:
329,192,104532,1,2,0:0:0:0:
402,192,104596,1,2,0:0:0:0:
475,192,104660,1,2,0:0:0:0:
256,192,104660,1,8,0:0:0:0:
36,192,104660,1,8,0:0:0:0:
402,192,104724,1,0,0:0:0:0:
329,192,104788,1,8,0:0:0:0:
109,192,104788,1,0,0:0:0:0:
475,192,104788,1,8,0:0:0:0:
182,192,104851,1,0,0:0:0:0:
36,192,104915,1,8,2:0:0:0:
256,192,104915,1,8,2:0:0:0:
402,192,104915,1,8,2:0:0:0:
109,192,104915,1,2,0:0:0:0:
329,192,104979,1,0,0:0:0:0:
182,192,105043,1,8,0:0:0:0:
475,192,105043,1,0,0:0:0:0:
36,192,105043,1,8,0:0:0:0:
402,192,105107,1,0,0:0:0:0:
329,192,105171,1,8,0:0:0:0:
109,192,105171,1,2,0:0:0:0:
475,192,105171,1,8,0:0:0:0:
182,192,105234,1,0,0:0:0:0:
256,192,105298,1,0,0:0:0:0:
36,192,105298,1,0,0:0:0:0:
182,192,105362,1,0,0:0:0:0:
109,192,105426,1,0,0:0:0:0:
329,192,105426,1,8,0:0:0:0:
475,192,105426,1,2,0:0:0:0:
402,192,105426,1,8,0:0:0:0:
256,192,105490,1,0,0:0:0:0:
182,192,105554,1,8,0:0:0:0:
36,192,105554,1,8,0:0:0:0:
402,192,105554,1,0,0:0:0:0:
256,192,105617,1,0,0:0:0:0:
329,192,105681,1,8,0:0:0:0:
109,192,105681,1,2,0:0:0:0:
475,192,105681,1,8,0:0:0:0:
402,192,105745,1,0,0:0:0:0:
182,192,105809,1,8,0:0:0:0:
36,192,105809,1,8,0:0:0:0:
475,192,105809,1,0,0:0:0:0:
256,192,105873,1,0,0:0:0:0:
329,192,105937,1,2,0:0:0:0:
109,192,105937,1,8,2:0:0:0:
402,192,105937,1,8,2:0:0:0:
475,192,105937,1,8,2:0:0:0:
182,192,106000,1,0,0:0:0:0:
256,192,106064,1,8,0:0:0:0:
36,192,106064,1,0,0:0:0:0:
402,192,106064,1,8,0:0:0:0:
182,192,106128,1,0,0:0:0:0:
329,192,106192,1,8,0:0:0:0:
109,192,106192,1,8,0:0:0:0:
475,192,106192,1,2,0:0:0:0:
402,192,106256,1,0,0:0:0:0:
182,192,106320,1,0,0:0:0:0:
36,192,106320,1,0,0:0:0:0:
109,192,106383,1,0,0:0:0:0:
402,192,106447,1,8,0:0:0:0:
475,192,106447,1,8,0:0:0:0:
256,192,106447,1,2,0:0:0:0:
36,192,106447,1,8,2:0:0:0:
329,192,106511,1,0,0:0:0:0:
182,192,106575,1,8,0:0:0:0:
109,192,106575,1,8,0:0:0:0:
402,192,106575,1,0,0:0:0:0:
256,192,106639,1,0,0:0:0:0:
329,192,106702,1,8,2:0:0:0:
109,192,106702,1,8,0:0:0:0:
475,192,106702,1,2,0:0:0:0:
36,192,106702,1,8,0:0:0:0:
402,192,106766,1,0,0:0:0:0:
256,192,106830,1,8,0:0:0:0:
182,192,106830,1,8,0:0:0:0:
329,192,106894,1,0,0:0:0:0:
402,192,106958,1,8,2:0:0:0:
109,192,106958,1,8,2:0:0:0:
36,192,106958,1,2,0:0:0:0:
475,192,106958,1,8,2:0:0:0:
182,192,107022,1,0,0:0:0:0:
256,192,107085,1,8,0:0:0:0:
475,192,107085,1,0,0:0:0:0:
109,192,107085,1,8,0:0:0:0:
402,192,107149,1,0,0:0:0:0:
329,192,107213,1,8,0:0:0:0:
109,192,107213,1,2,0:0:0:0:
475,192,107213,1,8,0:0:0:0:
182,192,107277,1,0,0:0:0:0:
256,192,107341,1,0,0:0:0:0:
36,192,107341,1,0,0:0:0:0:
109,192,107405,1,0,0:0:0:0:
182,192,107468,1,8,2:0:0:0:
402,192,107468,1,8,0:0:0:0:
475,192,107468,1,2,0:0:0:0:
329,192,107468,1,8,0:0:0:0:
256,192,107532,1,0,0:0:0:0:
109,192,107596,1,8,0:0:0:0:
329,192,107596,1,8,0:0:0:0:
475,192,107596,1,0,0:0:0:0:
402,192,107660,1,0,0:0:0:0:
182,192,107724,1,0,0:0:0:0:
36,192,107724,1,8,0:0:0:0:
329,192,107724,1,2,0:0:0:0:
109,192,107851,1,8,0:0:0:0:
256,192,107851,1,0,0:0:0:0:
182,192,107979,1,8,0:0:0:0:
329,192,107979,1,0,0:0:0:0:
109,192,108107,1,8,0:0:0:0:
256,192,108107,1,0,0:0:0:0:
329,192,108234,1,2,0:0:0:0:
182,192,108234,1,2,0:0:0:0:
402,192,108234,1,0,0:0:0:0:
475,192,108362,1,8,0:0:0:0:
36,192,108362,1,2,0:0:0:0:
402,192,108426,1,8,0:0:0:0:
109,192,108426,1,2,0:0:0:0:
329,192,108490,1,8,0:0:0:0:
182,192,108490,1,2,0:0:0:0:
256,192,108617,1,2,0:0:0:0:
109,192,108617,1,2,0:0:0:0:
402,192,108617,1,0,0:0:0:0:
182,192,108745,1,2,0:0:0:0:
36,192,108745,1,8,0:0:0:0:
329,192,108745,1,8,0:0:0:0:
402,192,108809,1,0,0:0:0:0:
109,192,108809,1,0,0:0:0:0:
256,192,108873,1,8,0:0:0:0:
329,192,108873,1,8,0:0:0:0:
475,192,108873,1,0,0:0:0:0:
402,192,108937,1,0,0:0:0:0:
256,192,109000,1,8,2:0:0:0:
36,192,109000,1,2,0:0:0:0:
109,192,109000,1,8,2:0:0:0:
475,192,109000,1,8,2:0:0:0:
182,192,109064,1,0,0:0:0:0:
329,192,109128,1,8,0:0:0:0:
475,192,109128,1,8,0:0:0:0:
109,192,109128,1,0,0:0:0:0:
402,192,109192,1,0,0:0:0:0:
256,192,109256,1,8,0:0:0:0:
182,192,109256,1,8,0:0:0:0:
36,192,109256,1,2,0:0:0:0:
109,192,109320,1,0,0:0:0:0:
329,192,109383,1,0,0:0:0:0:
475,192,109383,1,0,0:0:0:0:
402,192,109447,1,0,0:0:0:0:
256,192,109511,1,8,0:0:0:0:
36,192,109511,1,2,0:0:0:0:
182,192,109511,1,8,0:0:0:0:
475,192,109511,1,8,2:0:0:0:
109,192,109575,1,0,0:0:0:0:
329,192,109639,1,8,0:0:0:0:
402,192,109639,1,8,0:0:0:0:
182,192,109639,1,0,0:0:0:0:
256,192,109702,1,0,0:0:0:0:
182,192,109766,1,8,0:0:0:0:
36,192,109766,1,8,0:0:0:0:
402,192,109766,1,2,0:0:0:0:
256,192,109830,1,0,0:0:0:0:
329,192,109894,1,8,0:0:0:0:
109,192,109894,1,0,0:0:0:0:
475,192,109894,1,8,0:0:0:0:
402,192,109958,1,0,0:0:0:0:
182,192,110022,1,8,2:0:0:0:
36,192,110022,1,8,2:0:0:0:
256,192,110022,1,2,0:0:0:0:
475,192,110022,1,8,2:0:0:0:
109,192,110085,1,0,0:0:0:0:
182,192,110149,1,0,0:0:0:0:
402,192,110149,1,8,0:0:0:0:
329,192,110149,1,8,0:0:0:0:
256,192,110213,1,0,0:0:0:0:
109,192,110277,1,8,0:0:0:0:
36,192,110277,1,8,0:0:0:0:
402,192,110277,1,2,0:0:0:0:
182,192,110341,1,0,0:0:0:0:
109,192,110405,1,0,0:0:0:0:
475,192,110405,1,0,0:0:0:0:
402,192,110468,1,0,0:0:0:0:
256,192,110532,1,8,0:0:0:0:
36,192,110532,1,2,0:0:0:0:
182,192,110532,1,8,0:0:0:0:
475,192,110532,1,8,2:0:0:0:
109,192,110596,1,0,0:0:0:0:
329,192,110660,1,8,0:0:0:0:
402,192,110660,1,8,0:0:0:0:
36,192,110660,1,0,0:0:0:0:
182,192,110724,1,0,0:0:0:0:
256,192,110788,1,2,0:0:0:0:
109,192,110788,1,8,0:0:0:0:
36,192,110788,1,8,0:0:0:0:
329,192,110851,1,0,0:0:0:0:
402,192,110915,1,8,0:0:0:0:
182,192,110915,1,0,0:0:0:0:
475,192,110915,1,8,0:0:0:0:
329,192,110979,1,0,0:0:0:0:
109,192,111043,1,8,2:0:0:0:
36,192,111043,1,8,2:0:0:0:
256,192,111043,1,2,0:0:0:0:
402,192,111043,1,8,2:0:0:0:
182,192,111107,1,0,0:0:0:0:
329,192,111171,1,8,0:0:0:0:
475,192,111171,1,8,0:0:0:0:
109,192,111171,1,0,0:0:0:0:
256,192,111234,1,0,0:0:0:0:
182,192,111298,1,8,0:0:0:0:
36,192,111298,1,8,0:0:0:0:
402,192,111298,1,2,0:0:0:0:
256,192,111362,1,0,0:0:0:0:
329,192,111426,1,0,0:0:0:0:
109,192,111426,1,0,0:0:0:0:
182,192,111490,1,0,0:0:0:0:
256,192,111554,1,8,2:0:0:0:
36,192,111554,1,2,0:0:0:0:
402,192,111554,1,8,0:0:0:0:
475,192,111554,1,8,0:0:0:0:
329,192,111617,1,0,0:0:0:0:
182,192,111681,1,2,0:0:0:0:
109,192,111681,1,2,0:0:0:0:
402,192,111681,1,0,0:0:0:0:
256,192,111745,1,0,0:0:0:0:
329,192,111809,1,8,0:0:0:0:
475,192,111809,1,0,0:0:0:0:
36,192,111809,1,2,0:0:0:0:
402,192,111937,1,0,0:0:0:0:
256,192,111937,1,8,0:0:0:0:
36,192,112064,1,0,0:0:0:0:
182,192,112064,1,8,0:0:0:0:
256,192,112192,1,8,0:0:0:0:
402,192,112192,1,0,0:0:0:0:
329,192,112320,1,8,0:0:0:0:
475,192,112320,1,0,0:0:0:0:
402,192,112447,1,2,0:0:0:0:
256,192,112447,1,2,0:0:0:0:
182,192,112447,1,8,0:0:0:0:
329,192,112575,1,8,2:0:0:0:
109,192,112575,1,8,2:0:0:0:
475,192,112575,1,2,0:0:0:0:
475,192,112702,1,2,0:0:0:0:
329,192,112702,1,8,2:0:0:0:
109,192,112702,1,8,2:0:0:0:
182,192,112830,1,8,0:0:0:0:
36,192,112830,1,2,0:0:0:0:
402,192,112830,1,8,0:0:0:0:
256,192,112894,1,0,0:0:0:0:
329,192,112958,1,8,0:0:0:0:
109,192,112958,1,0,0:0:0:0:
475,192,112958,1,8,0:0:0:0:
402,192,113022,1,0,0:0:0:0:
256,192,113085,1,8,2:0:0:0:
182,192,113085,1,2,0:0:0:0:
36,192,113085,1,8,2:0:0:0:
475,192,113085,1,8,2:0:0:0:
402,192,113149,1,0,0:0:0:0:
329,192,113213,1,8,0:0:0:0:
109,192,113213,1,0,0:0:0:0:
475,192,113213,1,8,0:0:0:0:
182,192,113277,1,0,0:0:0:0:
256,192,113341,1,8,0:0:0:0:
36,192,113341,1,2,0:0:0:0:
402,192,113341,1,8,0:0:0:0:
329,192,113405,1,0,0:0:0:0:
475,192,113468,1,0,0:0:0:0:
182,192,113468,1,0,0:0:0:0:
402,192,113532,1,0,0:0:0:0:
256,192,113596,1,8,0:0:0:0:
109,192,113596,1,8,0:0:0:0:
36,192,113596,1,2,0:0:0:0:
475,192,113596,1,8,2:0:0:0:
182,192,113660,1,0,0:0:0:0:
256,192,113724,1,8,0:0:0:0:
402,192,113724,1,8,0:0:0:0:
109,192,113724,1,0,0:0:0:0:
182,192,113788,1,0,0:0:0:0:
329,192,113851,1,8,0:0:0:0:
36,192,113851,1,2,0:0:0:0:
475,192,113851,1,8,0:0:0:0:
402,192,113915,1,0,0:0:0:0:
256,192,113979,1,8,0:0:0:0:
109,192,113979,1,8,0:0:0:0:
475,192,113979,1,0,0:0:0:0:
182,192,114043,1,0,0:0:0:0:
329,192,114107,1,2,0:0:0:0:
36,192,114107,1,8,2:0:0:0:
402,192,114107,1,8,2:0:0:0:
109,192,114107,1,8,2:0:0:0:
256,192,114171,1,0,0:0:0:0:
182,192,114234,1,8,0:0:0:0:
475,192,114234,1,0,0:0:0:0:
36,192,114234,1,8,0:0:0:0:
109,192,114298,1,0,0:0:0:0:
256,192,114362,1,8,0:0:0:0:
402,192,114362,1,8,0:0:0:0:
36,192,114362,1,2,0:0:0:0:
329,192,114426,1,0,0:0:0:0:
182,192,114490,1,0,0:0:0:0:
109,192,114490,1,0,0:0:0:0:
256,192,114554,1,0,0:0:0:0:
36,192,114617,1,8,2:0:0:0:
329,192,114617,1,8,0:0:0:0:
402,192,114617,1,8,0:0:0:0:
475,192,114617,1,2,0:0:0:0:
256,192,114681,1,0,0:0:0:0:
182,192,114745,1,8,0:0:0:0:
109,192,114745,1,8,0:0:0:0:
402,192,114745,1,0,0:0:0:0:
256,192,114809,1,0,0:0:0:0:
329,192,114873,1,8,0:0:0:0:
36,192,114873,1,0,0:0:0:0:
475,192,114873,1,8,0:0:0:0:
182,192,114937,1,0,0:0:0:0:
402,192,115000,1,0,0:0:0:0:
256,192,115000,1,8,0:0:0:0:
109,192,115000,1,8,0:0:0:0:
182,192,115064,1,0,0:0:0:0:
36,192,115128,1,8,2:0:0:0:
329,192,115128,1,8,2:0:0:0:
475,192,115128,1,8,2:0:0:0:
109,192,115128,1,2,0:0:0:0:
182,192,115192,1,0,0:0:0:0:
256,192,115256,1,8,0:0:0:0:
402,192,115256,1,8,0:0:0:0:
36,192,115256,1,0,0:0:0:0:
109,192,115320,1,0,0:0:0:0:
36,192,115383,1,8,0:0:0:0:
329,192,115383,1,8,0:0:0:0:
475,192,115383,1,2,0:0:0:0:
402,192,115447,1,0,0:0:0:0:
182,192,115511,1,0,0:0:0:0:
109,192,115511,1,0,0:0:0:0:
256,192,115575,1,0,0:0:0:0:
329,192,115639,1,8,0:0:0:0:
182,192,115639,1,2,0:0:0:0:
475,192,115639,1,8,0:0:0:0:
36,192,115702,1,8,2:0:0:0:
109,192,115702,1,0,0:0:0:0:
256,192,115766,1,8,0:0:0:0:
402,192,115766,1,0,0:0:0:0:
182,192,115766,1,8,0:0:0:0:
109,192,115830,1,0,0:0:0:0:
36,192,115830,1,0,0:0:0:0:
475,192,115894,1,2,0:0:0:0:
329,192,115894,1,8,0:0:0:0:
256,192,115894,1,0,0:0:0:0:
402,192,116022,1,8,0:0:0:0:
182,192,116022,1,0,0:0:0:0:
329,192,116149,1,8,0:0:0:0:
109,192,116149,1,0,0:0:0:0:
256,192,116277,1,8,0:0:0:0:
36,192,116277,1,0,0:0:0:0:
109,192,116405,1,0,0:0:0:0:
329,192,116405,1,8,0:0:0:0:
182,192,116405,1,2,0:0:0:0:
475,192,116532,1,2,0:0:0:0:
402,192,116564,1,2,0:0:0:0:
329,192,116596,1,2,0:0:0:0:
182,192,116628,1,2,0:0:0:0:
36,192,116660,1,2,0:0:0:0:
109,192,116788,1,2,0:0:0:0:
402,192,116788,1,8,2:0:0:0:
256,192,116788,1,2,0:0:0:0:
182,192,116915,1,2,0:0:0:0:
329,192,116915,1,2,0:0:0:0:
36,192,116915,1,8,0:0:0:0:
475,192,116915,1,8,0:0:0:0:
109,192,116979,1,0,0:0:0:0:
256,192,117043,1,8,0:0:0:0:
402,192,117043,1,8,0:0:0:0:
475,192,117043,1,0,0:0:0:0:
329,192,117107,1,0,0:0:0:0:
182,192,117171,1,8,2:0:0:0:
36,192,117171,1,2,0:0:0:0:
402,192,117171,1,8,2:0:0:0:
475,192,117171,1,8,2:0:0:0:
329,192,117234,1,0,0:0:0:0:
256,192,117298,1,8,0:0:0:0:
109,192,117298,1,0,0:0:0:0:
402,192,117298,1,8,0:0:0:0:
182,192,117362,1,0,0:0:0:0:
329,192,117426,1,8,0:0:0:0:
36,192,117426,1,2,0:0:0:0:
256,192,117426,1,8,0:0:0:0:
475,192,117426,1,8,2:0:0:0:
402,192,117490,1,0,0:0:0:0:
329,192,117554,1,0,0:0:0:0:
109,192,117554,1,0,0:0:0:0:
182,192,117617,1,0,0:0:0:0:
36,192,117681,1,8,2:0:0:0:
256,192,117681,1,2,0:0:0:0:
402,192,117681,1,8,0:0:0:0:
475,192,117681,1,8,0:0:0:0:
329,192,117745,1,0,0:0:0:0:
182,192,117809,1,8,0:0:0:0:
109,192,117809,1,8,0:0:0:0:
475,192,117809,1,0,0:0:0:0:
256,192,117873,1,0,0:0:0:0:
402,192,117937,1,8,0:0:0:0:
329,192,117937,1,8,0:0:0:0:
36,192,117937,1,8,2:0:0:0:
182,192,117937,1,2,0:0:0:0:
109,192,118000,1,0,0:0:0:0:
256,192,118064,1,8,0:0:0:0:
475,192,118064,1,0,0:0:0:0:
182,192,118064,1,8,0:0:0:0:
402,192,118128,1,0,0:0:0:0:
329,192,118192,1,8,2:0:0:0:
109,192,118192,1,8,2:0:0:0:
182,192,118192,1,2,0:0:0:0:
36,192,118192,1,8,2:0:0:0:
256,192,118256,1,0,0:0:0:0:
402,192,118320,1,8,0:0:0:0:
109,192,118320,1,0,0:0:0:0:
475,192,118320,1,8,0:0:0:0:
182,192,118383,1,0,0:0:0:0:
329,192,118447,1,8,0:0:0:0:
36,192,118447,1,2,0:0:0:0:
256,192,118447,1,8,0:0:0:0:
475,192,118447,1,8,2:0:0:0:
402,192,118511,1,0,0:0:0:0:
329,192,118575,1,0,0:0:0:0:
109,192,118575,1,0,0:0:0:0:
182,192,118639,1,0,0:0:0:0:
256,192,118702,1,8,2:0:0:0:
36,192,118702,1,2,0:0:0:0:
402,192,118702,1,8,0:0:0:0:
475,192,118702,1,8,0:0:0:0:
329,192,118766,1,0,0:0:0:0:
182,192,118830,1,8,0:0:0:0:
109,192,118830,1,8,0:0:0:0:
402,192,118830,1,0,0:0:0:0:
256,192,118894,1,0,0:0:0:0:
329,192,118958,1,2,0:0:0:0:
36,192,118958,1,8,0:0:0:0:
475,192,118958,1,8,2:0:0:0:
109,192,118958,1,8,0:0:0:0:
182,192,119022,1,0,0:0:0:0:
402,192,119085,1,0,0:0:0:0:
109,192,119085,1,8,0:0:0:0:
256,192,119085,1,8,0:0:0:0:
329,192,119149,1,0,0:0:0:0:
182,192,119213,1,8,2:0:0:0:
36,192,119213,1,8,2:0:0:0:
402,192,119213,1,2,0:0:0:0:
475,192,119213,1,8,2:0:0:0:
256,192,119277,1,0,0:0:0:0:
109,192,119341,1,8,0:0:0:0:
329,192,119341,1,8,0:0:0:0:
475,192,119341,1,0,0:0:0:0:
402,192,119405,1,0,0:0:0:0:
329,192,119468,1,8,2:0:0:0:
256,192,119468,1,8,0:0:0:0:
36,192,119468,1,2,0:0:0:0:
182,192,119468,1,8,0:0:0:0:
109,192,119532,1,0,0:0:0:0:
182,192,119596,1,0,0:0:0:0:
402,192,119596,1,0,0:0:0:0:
329,192,119660,1,0,0:0:0:0:
256,192,119724,1,2,0:0:0:0:
109,192,119724,1,8,0:0:0:0:
36,192,119724,1,8,0:0:0:0:
475,192,119724,1,8,2:0:0:0:
182,192,119788,1,0,0:0:0:0:
109,192,119851,1,0,0:0:0:0:
329,192,119851,1,8,0:0:0:0:
402,192,119851,1,8,0:0:0:0:
182,192,119915,1,0,0:0:0:0:
256,192,119979,1,0,0:0:0:0:
36,192,119979,1,8,0:0:0:0:
109,192,119979,1,8,0:0:0:0:
329,192,120043,1,0,0:0:0:0:
402,192,120107,1,0,0:0:0:0:
182,192,120107,1,0,0:0:0:0:
256,192,120171,1,0,0:0:0:0:
329,192,120234,1,8,2:0:0:0:
109,192,120234,1,8,2:0:0:0:
36,192,120234,1,8,2:0:0:0:
475,192,120234,1,2,0:0:0:0:
402,192,120298,1,0,0:0:0:0:
256,192,120362,1,0,0:0:0:0:
182,192,120362,1,0,0:0:0:0:
329,192,120426,1,0,0:0:0:0:
36,192,120490,1,2,0:0:0:0:
182,192,120490,1,2,0:0:0:0:
475,192,120490,1,0,0:0:0:0:
402,192,120554,1,0,0:0:0:0:
329,192,120617,1,0,0:0:0:0:
109,192,120617,1,0,0:0:0:0:
256,192,120681,1,0,0:0:0:0:
182,192,120745,1,8,2:0:0:0:
402,192,120745,1,8,2:0:0:0:
36,192,120745,1,8,2:0:0:0:
329,192,120745,1,8,0:0:0:0:
109,192,120809,1,0,0:0:0:0:
329,192,120873,1,8,2:0:0:0:
182,192,120873,1,8,2:0:0:0:
475,192,120873,1,8,2:0:0:0:
256,192,120873,1,2,0:0:0:0:
402,192,120937,1,0,0:0:0:0:
256,192,121000,1,2,0:0:0:0:
109,192,121000,1,8,0:0:0:0:
36,192,121000,1,8,0:0:0:0:
475,192,121000,1,8,2:0:0:0:
182,192,121064,1,0,0:0:0:0:
329,192,121128,1,8,0:0:0:0:
109,192,121128,1,0,0:0:0:0:
402,192,121128,1,8,0:0:0:0:
256,192,121192,1,0,0:0:0:0:
182,192,121256,1,8,2:0:0:0:
36,192,121256,1,2,0:0:0:0:
402,192,121256,1,8,2:0:0:0:
475,192,121256,1,8,2:0:0:0:
329,192,121320,1,0,0:0:0:0:
256,192,121383,1,8,0:0:0:0:
109,192,121383,1,8,0:0:0:0:
402,192,121383,1,0,0:0:0:0:
182,192,121447,1,0,0:0:0:0:
329,192,121511,1,2,0:0:0:0:
36,192,121511,1,8,0:0:0:0:
109,192,121511,1,8,0:0:0:0:
475,192,121511,1,8,2:0:0:0:
402,192,121575,1,0,0:0:0:0:
256,192,121639,1,0,0:0:0:0:
182,192,121639,1,0,0:0:0:0:
329,192,121702,1,0,0:0:0:0:
182,192,121766,1,2,0:0:0:0:
36,192,121766,1,8,2:0:0:0:
402,192,121766,1,8,0:0:0:0:
475,192,121766,1,8,0:0:0:0:
256,192,121830,1,0,0:0:0:0:
329,192,121894,1,8,0:0:0:0:
109,192,121894,1,8,0:0:0:0:
475,192,121894,1,0,0:0:0:0:
402,192,121958,1,0,0:0:0:0:
256,192,122022,1,8,0:0:0:0:
182,192,122022,1,8,0:0:0:0:
36,192,122022,1,2,0:0:0:0:
475,192,122022,1,8,2:0:0:0:
329,192,122085,1,0,0:0:0:0:
402,192,122149,1,0,0:0:0:0:
109,192,122149,1,8,0:0:0:0:
182,192,122149,1,8,0:0:0:0:
256,192,122213,1,0,0:0:0:0:
329,192,122277,1,8,2:0:0:0:
109,192,122277,1,2,0:0:0:0:
36,192,122277,1,8,2:0:0:0:
475,192,122277,1,8,2:0:0:0:
402,192,122341,1,0,0:0:0:0:
256,192,122405,1,8,0:0:0:0:
182,192,122405,1,8,0:0:0:0:
475,192,122405,1,0,0:0:0:0:
109,192,122468,1,0,0:0:0:0:
36,192,122532,1,8,0:0:0:0:
329,192,122532,1,2,0:0:0:0:
475,192,122532,1,8,2:0:0:0:
182,192,122532,1,8,0:0:0:0:
402,192,122596,1,0,0:0:0:0:
256,192,122660,1,0,0:0:0:0:
109,192,122660,1,0,0:0:0:0:
182,192,122724,1,0,0:0:0:0:
329,192,122788,1,8,0:0:0:0:
475,192,122788,1,8,2:0:0:0:
256,192,122788,1,8,0:0:0:0:
36,192,122788,1,2,0:0:0:0:
109,192,122851,1,0,0:0:0:0:
182,192,122915,1,8,0:0:0:0:
402,192,122915,1,0,0:0:0:0:
36,192,122915,1,8,0:0:0:0:
256,192,122979,1,0,0:0:0:0:
109,192,123043,1,8,0:0:0:0:
329,192,123043,1,2,0:0:0:0:
475,192,123043,1,8,2:0:0:0:
182,192,123043,1,8,0:0:0:0:
402,192,123107,1,0,0:0:0:0:
256,192,123171,1,8,0:0:0:0:
36,192,123171,1,0,0:0:0:0:
475,192,123171,1,8,0:0:0:0:
329,192,123234,1,0,0:0:0:0:
402,192,123298,1,8,2:0:0:0:
182,192,123298,1,8,2:0:0:0:
109,192,123298,1,2,0:0:0:0:
256,192,123298,1,8,2:0:0:0:
475,192,123362,1,0,0:0:0:0:
329,192,123426,1,8,0:0:0:0:
182,192,123426,1,8,0:0:0:0:
36,192,123426,1,0,0:0:0:0:
256,192,123490,1,0,0:0:0:0:
329,192,123554,1,8,0:0:0:0:
475,192,123554,1,2,0:0:0:0:
109,192,123554,1,8,2:0:0:0:
402,192,123554,1,8,0:0:0:0:
36,192,123617,1,0,0:0:0:0:
109,192,123681,1,0,0:0:0:0:
256,192,123681,1,0,0:0:0:0:
329,192,123745,1,0,0:0:0:0:
402,192,123809,1,8,0:0:0:0:
182,192,123809,1,2,0:0:0:0:
475,192,123809,1,8,0:0:0:0:
36,192,123809,1,8,2:0:0:0:
109,192,123873,1,0,0:0:0:0:
36,192,123937,1,0,0:0:0:0:
182,192,123937,1,8,0:0:0:0:
329,192,123937,1,8,0:0:0:0:
402,192,124000,1,0,0:0:0:0:
475,192,124064,1,0,0:0:0:0:
329,192,124064,1,2,0:0:0:0:
402,192,124128,1,0,0:0:0:0:
256,192,124128,1,2,0:0:0:0:
182,192,124192,1,2,0:0:0:0:
36,192,124192,1,0,0:0:0:0:
109,192,124256,1,0,0:0:0:0:
256,192,124256,1,2,0:0:0:0:
329,192,124320,1,2,0:0:0:0:
475,192,124320,1,0,0:0:0:0:
402,192,124383,1,0,0:0:0:0:
256,192,124383,1,2,0:0:0:0:
182,192,124447,1,2,0:0:0:0:
36,192,124447,1,0,0:0:0:0:
109,192,124511,1,0,0:0:0:0:
256,192,124511,1,2,0:0:0:0:
475,192,124575,1,2,0:0:0:0:
402,192,124607,1,2,0:0:0:0:
329,192,124639,1,2,0:0:0:0:
256,192,124671,1,2,0:0:0:0:
182,192,124702,1,2,0:0:0:0:
36,192,124734,1,2,0:0:0:0:
109,192,124766,1,2,0:0:0:0:
182,192,124798,1,2,0:0:0:0:
256,192,124830,1,2,0:0:0:0:
329,192,124862,1,2,0:0:0:0:
475,192,124894,1,2,0:0:0:0:
402,192,124926,1,2,0:0:0:0:
329,192,124958,1,2,0:0:0:0:
256,192,124990,1,2,0:0:0:0:
182,192,125022,1,2,0:0:0:0:
109,192,125054,1,2,0:0:0:0:
36,192,125085,1,2,0:0:0:0:
329,192,125085,1,8,2:0:0:0:
475,192,125085,1,8,2:0:0:0:
402,192,125085,1,8,2:0:0:0:
256,192,125213,1,0,2:0:0:0:
182,192,125213,1,0,2:0:0:0:
109,192,125341,1,2,0:0:0:0:
329,192,125341,1,8,2:0:0:0:
402,192,125341,1,8,2:0:0:0:
475,192,125341,1,8,2:0:0:0:
36,192,125341,1,2,0:0:0:0:
182,192,125468,1,0,2:0:0:0:
256,192,125468,1,0,2:0:0:0:
109,192,125596,1,2,0:0:0:0:
36,192,125596,1,2,0:0:0:0:
329,192,125596,1,8,2:0:0:0:
402,192,125596,1,8,2:0:0:0:
475,192,125596,1,8,2:0:0:0:
182,192,125724,1,0,2:0:0:0:
256,192,125724,1,0,2:0:0:0:
109,192,125851,1,2,0:0:0:0:
36,192,125851,1,2,0:0:0:0:
329,192,125851,1,8,2:0:0:0:
402,192,125851,1,8,2:0:0:0:
475,192,125851,1,8,2:0:0:0:
182,192,125979,1,0,2:0:0:0:
256,192,125979,1,0,2:0:0:0:
109,192,126107,1,2,0:0:0:0:
36,192,126107,1,2,0:0:0:0:
329,192,126107,1,8,2:0:0:0:
402,192,126107,1,8,2:0:0:0:
475,192,126107,1,8,2:0:0:0:
256,192,126234,1,0,2:0:0:0:
182,192,126234,1,0,2:0:0:0:
109,192,126362,1,2,0:0:0:0:
36,192,126362,1,2,0:0:0:0:
329,192,126362,1,8,2:0:0:0:
402,192,126362,1,8,2:0:0:0:
475,192,126362,1,8,2:0:0:0:
256,192,126490,1,0,2:0:0:0:
182,192,126490,1,0,2:0:0:0:
109,192,126617,1,2,0:0:0:0:
36,192,126617,1,2,0:0:0:0:
402,192,126617,1,8,2:0:0:0:
329,192,126617,1,8,2:0:0:0:
475,192,126617,1,8,2:0:0:0:
256,192,126745,1,0,2:0:0:0:
182,192,126745,1,0,2:0:0:0:
109,192,126873,1,2,0:0:0:0:
36,192,126873,1,2,0:0:0:0:
329,192,126873,1,8,2:0:0:0:
402,192,126873,1,8,2:0:0:0:
475,192,126873,1,8,2:0:0:0:
256,192,127000,1,2,0:0:0:0:
182,192,127000,1,2,0:0:0:0:
36,192,127000,1,0,2:0:0:0:
329,192,127064,1,2,0:0:0:0:
402,192,127064,1,2,0:0:0:0:
475,192,127128,1,2,0:0:0:0:
256,192,127128,1,2,0:0:0:0:
182,192,127128,1,8,2:0:0:0:
36,192,127128,1,8,2:0:0:0:
109,192,127128,1,8,2:0:0:0:
402,192,127256,1,0,2:0:0:0:
329,192,127256,1,0,2:0:0:0:
256,192,127383,1,2,0:0:0:0:
182,192,127383,1,8,2:0:0:0:
36,192,127383,1,8,2:0:0:0:
109,192,127383,1,8,2:0:0:0:
475,192,127383,1,2,0:0:0:0:
329,192,127511,1,0,2:0:0:0:
402,192,127511,1,0,2:0:0:0:
475,192,127639,1,2,0:0:0:0:
182,192,127639,1,8,2:0:0:0:
36,192,127639,1,8,2:0:0:0:
109,192,127639,1,8,2:0:0:0:
256,192,127639,1,2,0:0:0:0:
329,192,127766,1,0,2:0:0:0:
402,192,127766,1,0,2:0:0:0:
109,192,127894,1,8,2:0:0:0:
256,192,127894,1,2,0:0:0:0:
36,192,127894,1,8,2:0:0:0:
475,192,127894,1,2,0:0:0:0:
182,192,127894,1,8,2:0:0:0:
329,192,128022,1,0,2:0:0:0:
402,192,128022,1,0,2:0:0:0:
475,192,128149,1,2,0:0:0:0:
182,192,128149,1,8,2:0:0:0:
36,192,128149,1,8,2:0:0:0:
109,192,128149,1,8,2:0:0:0:
256,192,128149,1,2,0:0:0:0:
329,192,128277,1,0,2:0:0:0:
402,192,128277,1,0,2:0:0:0:
109,192,128405,1,8,2:0:0:0:
256,192,128405,1,2,0:0:0:0:
36,192,128405,1,8,2:0:0:0:
475,192,128405,1,2,0:0:0:0:
182,192,128405,1,8,2:0:0:0:
329,192,128532,1,0,2:0:0:0:
402,192,128532,1,0,2:0:0:0:
475,192,128660,1,2,0:0:0:0:
182,192,128660,1,8,2:0:0:0:
36,192,128660,1,8,2:0:0:0:
109,192,128660,1,8,2:0:0:0:
256,192,128660,1,2,0:0:0:0:
329,192,128788,1,0,2:0:0:0:
402,192,128788,1,0,2:0:0:0:
109,192,128915,1,8,2:0:0:0:
256,192,128915,1,2,0:0:0:0:
36,192,128915,1,8,2:0:0:0:
475,192,128915,1,2,0:0:0:0:
182,192,128915,1,8,2:0:0:0:
329,192,129043,1,2,0:0:0:0:
256,192,129043,1,8,2:0:0:0:
109,192,129043,1,8,2:0:0:0:
402,192,129043,1,8,2:0:0:0:
182,192,129171,1,2,0:0:0:0:
36,192,129171,1,8,2:0:0:0:
402,192,129171,1,8,2:0:0:0:
475,192,129171,1,8,2:0:0:0:
256,192,129171,1,2,0:0:0:0:
109,192,129298,1,0,2:0:0:0:
329,192,129298,1,0,2:0:0:0:
182,192,129426,1,2,0:0:0:0:
36,192,129426,1,8,2:0:0:0:
475,192,129426,1,8,2:0:0:0:
256,192,129426,1,2,0:0:0:0:
402,192,129426,1,8,2:0:0:0:
109,192,129554,1,0,2:0:0:0:
329,192,129554,1,0,2:0:0:0:
256,192,129681,1,2,0:0:0:0:
402,192,129681,1,8,2:0:0:0:
475,192,129681,1,8,2:0:0:0:
182,192,129681,1,2,0:0:0:0:
36,192,129681,1,8,2:0:0:0:
109,192,129809,1,0,2:0:0:0:
329,192,129809,1,0,2:0:0:0:
182,192,129937,1,2,0:0:0:0:
36,192,129937,1,8,2:0:0:0:
475,192,129937,1,8,2:0:0:0:
256,192,129937,1,2,0:0:0:0:
402,192,129937,1,8,2:0:0:0:
329,192,130064,1,0,2:0:0:0:
109,192,130064,1,0,2:0:0:0:
256,192,130192,1,2,0:0:0:0:
402,192,130192,1,8,2:0:0:0:
475,192,130192,1,8,2:0:0:0:
182,192,130192,1,2,0:0:0:0:
36,192,130192,1,8,2:0:0:0:
109,192,130320,1,0,2:0:0:0:
329,192,130320,1,0,2:0:0:0:
182,192,130447,1,2,0:0:0:0:
36,192,130447,1,8,2:0:0:0:
475,192,130447,1,8,2:0:0:0:
256,192,130447,1,2,0:0:0:0:
402,192,130447,1,8,2:0:0:0:
109,192,130575,1,0,2:0:0:0:
329,192,130575,1,0,2:0:0:0:
256,192,130702,1,2,0:0:0:0:
402,192,130702,1,8,2:0:0:0:
475,192,130702,1,8,2:0:0:0:
182,192,130702,1,2,0:0:0:0:
36,192,130702,1,8,2:0:0:0:
109,192,130830,1,0,2:0:0:0:
329,192,130830,1,0,2:0:0:0:
182,192,130958,1,2,0:0:0:0:
36,192,130958,1,8,2:0:0:0:
475,192,130958,1,8,2:0:0:0:
256,192,130958,1,2,0:0:0:0:
402,192,130958,1,8,2:0:0:0:
329,192,131085,1,2,0:0:0:0:
109,192,131085,1,2,0:0:0:0:
475,192,131085,1,0,2:0:0:0:
182,192,131149,1,2,0:0:0:0:
402,192,131149,1,2,0:0:0:0:
109,192,131213,1,2,0:0:0:0:
36,192,131213,1,2,0:0:0:0:
329,192,131213,1,8,2:0:0:0:
256,192,131213,1,8,2:0:0:0:
475,192,131213,1,8,2:0:0:0:
402,192,131341,1,0,2:0:0:0:
182,192,131341,1,0,2:0:0:0:
256,192,131468,1,8,2:0:0:0:
475,192,131468,1,8,2:0:0:0:
329,192,131468,1,8,2:0:0:0:
109,192,131468,1,2,0:0:0:0:
36,192,131468,1,2,0:0:0:0:
182,192,131596,1,0,2:0:0:0:
402,192,131596,1,0,2:0:0:0:
109,192,131724,1,2,0:0:0:0:
36,192,131724,1,2,0:0:0:0:
329,192,131724,1,8,2:0:0:0:
256,192,131724,1,8,2:0:0:0:
475,192,131724,1,8,2:0:0:0:
182,192,131851,1,0,2:0:0:0:
402,192,131851,1,0,2:0:0:0:
256,192,131979,1,8,2:0:0:0:
475,192,131979,1,8,2:0:0:0:
329,192,131979,1,8,2:0:0:0:
109,192,131979,1,2,0:0:0:0:
36,192,131979,1,2,0:0:0:0:
182,192,132107,1,0,2:0:0:0:
402,192,132107,1,0,2:0:0:0:
402,192,132234,1,0,0:0:0:0:
256,192,132234,1,2,0:0:0:0:
329,192,132298,1,2,0:0:0:0:
475,192,132298,1,0,0:0:0:0:
256,192,132362,1,2,0:0:0:0:
109,192,132362,1,0,0:0:0:0:
182,192,132426,1,2,0:0:0:0:
36,192,132426,1,0,0:0:0:0:
256,192,132490,1,2,0:0:0:0:
402,192,132490,1,0,0:0:0:0:
329,192,132554,1,2,0:0:0:0:
475,192,132554,1,0,0:0:0:0:
256,192,132617,1,2,0:0:0:0:
109,192,132617,1,0,0:0:0:0:
182,192,132681,1,2,0:0:0:0:
36,192,132681,1,0,0:0:0:0:
329,192,132745,1,2,0:0:0:0:
402,192,132777,1,2,0:0:0:0:
475,192,132809,1,2,0:0:0:0:
36,192,132841,1,2,0:0:0:0:
109,192,132873,1,2,0:0:0:0:
182,192,132905,1,2,0:0:0:0:
256,192,132937,1,2,0:0:0:0:
475,192,132968,1,2,0:0:0:0:
402,192,133000,1,2,0:0:0:0:
329,192,133032,1,2,0:0:0:0:
256,192,133064,1,2,0:0:0:0:
36,192,133096,1,2,0:0:0:0:
109,192,133128,1,2,0:0:0:0:
182,192,133160,1,2,0:0:0:0:
256,192,133192,1,2,0:0:0:0:
329,192,133224,1,2,0:0:0:0:
402,192,133256,1,2,0:0:0:0:
475,192,133256,1,0,0:0:0:0:
36,192,133256,1,0,0:0:0:0:
109,192,133256,1,0,0:0:0:0:
182,192,133383,1,0,0:0:0:0:
256,192,133383,1,0,0:0:0:0:
329,192,133511,1,8,2:0:0:0:
402,192,133511,1,8,2:0:0:0:
475,192,133511,1,0,0:0:0:0:
182,192,133639,1,0,0:0:0:0:
109,192,133639,1,0,0:0:0:0:
256,192,133766,1,8,2:0:0:0:
329,192,133766,1,8,2:0:0:0:
402,192,133766,1,0,0:0:0:0:
109,192,133894,1,0,0:0:0:0:
36,192,133894,1,0,0:0:0:0:
182,192,134022,1,8,2:0:0:0:
256,192,134022,1,8,2:0:0:0:
329,192,134022,1,0,0:0:0:0:
402,192,134149,1,0,0:0:0:0:
475,192,134149,1,0,0:0:0:0:
256,192,134277,1,0,0:0:0:0:
182,192,134277,1,8,2:0:0:0:
109,192,134277,1,8,2:0:0:0:
329,192,134405,1,0,0:0:0:0:
402,192,134405,1,0,0:0:0:0:
182,192,134532,1,0,0:0:0:0:
109,192,134532,1,8,2:0:0:0:
36,192,134532,1,8,2:0:0:0:
256,192,134660,1,0,0:0:0:0:
329,192,134660,1,0,0:0:0:0:
402,192,134788,1,8,2:0:0:0:
475,192,134788,1,8,2:0:0:0:
36,192,134788,1,0,0:0:0:0:
182,192,134915,1,0,0:0:0:0:
256,192,134915,1,0,0:0:0:0:
329,192,135043,1,8,2:0:0:0:
402,192,135043,1,8,2:0:0:0:
475,192,135043,1,0,0:0:0:0:
182,192,135171,1,8,2:0:0:0:
256,192,135171,1,0,0:0:0:0:
36,192,135234,1,8,2:0:0:0:
475,192,135234,1,0,0:0:0:0:
109,192,135298,1,8,2:0:0:0:
329,192,135298,1,8,2:0:0:0:
402,192,135298,1,0,0:0:0:0:
182,192,135426,1,0,0:0:0:0:
256,192,135426,1,0,0:0:0:0:
109,192,135554,1,8,2:0:0:0:
36,192,135554,1,8,2:0:0:0:
475,192,135554,1,0,0:0:0:0:
329,192,135681,1,0,0:0:0:0:
402,192,135681,1,0,0:0:0:0:
109,192,135809,1,8,2:0:0:0:
182,192,135809,1,8,2:0:0:0:
256,192,135809,1,0,0:0:0:0:
402,192,135937,1,0,0:0:0:0:
475,192,135937,1,0,0:0:0:0:
329,192,136064,1,0,0:0:0:0:
256,192,136064,1,8,2:0:0:0:
182,192,136064,1,8,2:0:0:0:
109,192,136192,1,0,0:0:0:0:
36,192,136192,1,0,0:0:0:0:
256,192,136320,1,8,2:0:0:0:
329,192,136320,1,8,2:0:0:0:
402,192,136320,1,0,0:0:0:0:
182,192,136447,1,0,0:0:0:0:
109,192,136447,1,0,0:0:0:0:
329,192,136575,1,8,2:0:0:0:
402,192,136575,1,8,2:0:0:0:
475,192,136575,1,0,0:0:0:0:
256,192,136702,1,0,0:0:0:0:
182,192,136702,1,0,0:0:0:0:
109,192,136830,1,8,2:0:0:0:
36,192,136830,1,8,2:0:0:0:
329,192,136830,1,0,0:0:0:0:
402,192,136958,1,0,0:0:0:0:
475,192,136958,1,0,0:0:0:0:
256,192,137085,1,8,2:0:0:0:
182,192,137085,1,8,2:0:0:0:
109,192,137085,1,0,0:0:0:0:
329,192,137213,1,8,2:0:0:0:
402,192,137213,1,0,0:0:0:0:
256,192,137277,1,8,2:0:0:0:
36,192,137277,1,0,0:0:0:0:
109,192,137341,1,8,2:0:0:0:
182,192,137341,1,8,2:0:0:0:
475,192,137341,1,0,0:0:0:0:
36,192,137596,1,8,0:0:0:0:
256,192,137596,1,8,2:0:0:0:
402,192,137596,1,8,2:0:0:0:
109,192,137851,1,8,0:0:0:0:
256,192,137851,1,8,2:0:0:0:
402,192,137851,1,8,2:0:0:0:
182,192,138107,1,8,0:0:0:0:
256,192,138107,1,8,2:0:0:0:
402,192,138107,1,8,2:0:0:0:
329,192,138362,1,8,2:0:0:0:
475,192,138362,1,8,2:0:0:0:
36,192,138362,1,8,0:0:0:0:
109,192,138617,1,8,0:0:0:0:
329,192,138617,1,8,2:0:0:0:
475,192,138617,1,8,2:0:0:0:
182,192,138873,1,8,0:0:0:0:
329,192,138873,1,8,2:0:0:0:
475,192,138873,1,8,2:0:0:0:
256,192,139128,1,8,0:0:0:0:
329,192,139128,1,8,2:0:0:0:
475,192,139128,1,8,2:0:0:0:
109,192,139383,1,2,0:0:0:0:
36,192,139383,1,0,0:0:0:0:
256,192,139511,1,0,0:0:0:0:
329,192,139511,1,2,0:0:0:0:
182,192,139639,1,2,0:0:0:0:
109,192,139639,1,0,0:0:0:0:
329,192,139766,1,0,0:0:0:0:
402,192,139766,1,2,0:0:0:0:
256,192,139894,1,2,0:0:0:0:
182,192,139894,1,0,0:0:0:0:
402,192,140022,1,0,0:0:0:0:
475,192,140022,1,2,0:0:0:0:
329,192,140149,1,2,0:0:0:0:
256,192,140149,1,0,0:0:0:0:
109,192,140277,1,2,0:0:0:0:
36,192,140277,1,0,0:0:0:0:
475,192,140405,1,0,0:0:0:0:
402,192,140405,1,2,0:0:0:0:
329,192,140468,1,2,0:0:0:0:
256,192,140468,1,0,0:0:0:0:
182,192,140532,1,2,0:0:0:0:
109,192,140532,1,0,0:0:0:0:
36,192,140596,1,2,0:0:0:0:
256,192,140596,1,0,0:0:0:0:
402,192,140660,1,0,0:0:0:0:
329,192,140660,1,2,0:0:0:0:
256,192,140724,1,0,0:0:0:0:
182,192,140724,1,2,0:0:0:0:
109,192,140788,1,2,0:0:0:0:
36,192,140788,1,0,0:0:0:0:
402,192,140788,1,0,0:0:0:0:
182,192,140851,1,2,0:0:0:0:
329,192,140851,1,0,0:0:0:0:
256,192,140915,128,2,141426:0:0:0:0:
36,192,141426,1,0,0:0:0:0:
475,192,141426,1,0,0:0:0:0:
109,192,153149,5,0,0:0:0:0:
182,192,153194,128,0,153417:0:0:0:0:
256,192,153417,128,0,153685:0:0:0:0:
402,192,153551,1,0,0:0:0:0:
109,192,153551,1,0,0:0:0:0:
475,192,153618,1,0,0:0:0:0:
36,192,153618,1,0,0:0:0:0:
402,192,153685,1,0,0:0:0:0:
182,192,153685,1,0,0:0:0:0:
109,192,153685,1,0,0:0:0:0:
329,192,153685,128,0,154489:0:0:0:0:
36,192,154221,1,0,0:0:0:0:
109,192,154254,1,0,0:0:0:0:
182,192,154288,1,0,0:0:0:0:
256,192,154321,1,0,0:0:0:0:
36,192,154355,1,0,0:0:0:0:
182,192,154489,1,0,0:0:0:0:
475,192,154489,128,0,154555:0:0:0:0:
109,192,154622,1,0,0:0:0:0:
475,192,154622,128,0,155426:0:0:0:0:
402,192,154622,1,0,0:0:0:0:
182,192,154622,1,0,0:0:0:0:
109,192,155158,1,0,0:0:0:0:
109,192,155426,1,0,0:0:0:0:
36,192,155426,128,0,155560:0:0:0:0:
402,192,155560,1,0,0:0:0:0:
256,192,155560,1,0,0:0:0:0:
182,192,155560,128,0,155694:0:0:0:0:
109,192,155694,1,0,0:0:0:0:
329,192,155694,128,0,155828:0:0:0:0:
109,192,155828,1,0,0:0:0:0:
36,192,155828,1,0,0:0:0:0:
475,192,155828,128,0,156096:0:0:0:0:
256,192,155828,1,0,0:0:0:0:
402,192,156096,1,0,0:0:0:0:
402,192,156163,1,0,0:0:0:0:
36,192,156230,1,0,0:0:0:0:
329,192,156230,1,0,0:0:0:0:
109,192,156297,1,0,0:0:0:0:
256,192,156297,128,0,156497:0:0:0:0:
402,192,156364,1,0,0:0:0:0:
475,192,156364,1,0,0:0:0:0:
182,192,156364,1,0,0:0:0:0:
329,192,156497,1,0,0:0:0:0:
109,192,156497,128,0,156631:0:0:0:0:
475,192,156631,128,0,156765:0:0:0:0:
182,192,156765,1,0,0:0:0:0:
36,192,156765,1,0,0:0:0:0:
329,192,156765,128,0,157033:0:0:0:0:
256,192,156765,1,0,0:0:0:0:
36,192,157033,128,0,157167:0:0:0:0:
182,192,157167,1,0,0:0:0:0:
475,192,157167,1,0,0:0:0:0:
109,192,157167,128,0,157301:0:0:0:0:
256,192,157234,1,0,0:0:0:0:
329,192,157301,1,0,0:0:0:0:
475,192,157301,1,0,0:0:0:0:
182,192,157301,128,0,157435:0:0:0:0:
402,192,157368,1,0,0:0:0:0:
36,192,157435,1,0,0:0:0:0:
329,192,157435,1,0,0:0:0:0:
256,192,157435,128,0,157971:0:0:0:0:
109,192,157502,1,0,0:0:0:0:
182,192,157569,1,0,0:0:0:0:
475,192,157569,1,0,0:0:0:0:
329,192,157636,1,0,0:0:0:0:
109,192,157703,1,0,0:0:0:0:
182,192,157770,1,0,0:0:0:0:
475,192,157837,1,0,0:0:0:0:
36,192,157837,1,0,0:0:0:0:
329,192,157837,1,0,0:0:0:0:
109,192,157904,1,0,0:0:0:0:
182,192,157904,1,0,0:0:0:0:
402,192,157904,1,0,0:0:0:0:
329,192,157971,128,0,158774:0:0:0:0:
36,192,158372,1,0,0:0:0:0:
109,192,158439,1,0,0:0:0:0:
256,192,158506,1,0,0:0:0:0:
182,192,158506,1,0,0:0:0:0:
109,192,158640,1,0,0:0:0:0:
475,192,158774,128,0,158841:0:0:0:0:
182,192,158908,1,0,0:0:0:0:
402,192,158908,1,0,0:0:0:0:
36,192,158908,1,0,0:0:0:0:
475,192,158908,128,0,159712:0:0:0:0:
109,192,159444,1,0,0:0:0:0:
36,192,159712,1,0,0:0:0:0:
182,192,159712,128,0,159846:0:0:0:0:
256,192,159846,1,0,0:0:0:0:
109,192,159846,1,0,0:0:0:0:
402,192,159846,128,0,159980:0:0:0:0:
36,192,159980,1,0,0:0:0:0:
329,192,159980,128,0,160114:0:0:0:0:
109,192,160013,1,0,0:0:0:0:
182,192,160047,1,0,0:0:0:0:
256,192,160080,1,0,0:0:0:0:
109,192,160114,1,0,0:0:0:0:
475,192,160114,1,0,0:0:0:0:
402,192,160114,128,0,160381:0:0:0:0:
36,192,160114,1,0,0:0:0:0:
256,192,160381,128,0,160515:0:0:0:0:
182,192,160515,1,0,0:0:0:0:
36,192,160515,1,0,0:0:0:0:
329,192,160515,128,0,160783:0:0:0:0:
475,192,160582,1,0,0:0:0:0:
402,192,160582,1,0,0:0:0:0:
36,192,160649,1,0,0:0:0:0:
256,192,160649,1,0,0:0:0:0:
182,192,160649,1,0,0:0:0:0:
109,192,160783,128,0,160917:0:0:0:0:
475,192,160783,1,0,0:0:0:0:
256,192,160917,128,0,161051:0:0:0:0:
402,192,161051,1,0,0:0:0:0:
475,192,161051,1,0,0:0:0:0:
36,192,161051,128,0,162256:0:0:0:0:
182,192,161051,1,0,0:0:0:0:
109,192,161118,1,0,0:0:0:0:
256,192,161185,1,0,0:0:0:0:
182,192,161252,1,0,0:0:0:0:
329,192,161319,1,0,0:0:0:0:
256,192,161386,1,0,0:0:0:0:
109,192,161453,1,0,0:0:0:0:
402,192,161453,1,0,0:0:0:0:
329,192,161520,1,0,0:0:0:0:
256,192,161587,1,0,0:0:0:0:
475,192,161587,1,0,0:0:0:0:
109,192,161654,1,0,0:0:0:0:
402,192,161654,1,0,0:0:0:0:
329,192,161721,1,0,0:0:0:0:
256,192,161721,1,0,0:0:0:0:
182,192,161788,1,0,0:0:0:0:
109,192,161788,1,0,0:0:0:0:
402,192,161855,1,0,0:0:0:0:
329,192,161855,1,0,0:0:0:0:
256,192,161922,1,0,0:0:0:0:
182,192,161922,1,0,0:0:0:0:
475,192,161989,1,0,0:0:0:0:
402,192,161989,1,0,0:0:0:0:
329,192,162055,1,0,0:0:0:0:
256,192,162055,1,0,0:0:0:0:
109,192,162122,1,0,0:0:0:0:
182,192,162122,1,0,0:0:0:0:
329,192,162189,1,0,0:0:0:0:
256,192,162189,1,0,0:0:0:0:
109,192,162256,1,0,0:0:0:0:
475,192,162256,1,0,0:0:0:0:
182,192,162256,1,0,0:0:0:0:
402,192,162323,1,0,0:0:0:0:
36,192,162390,1,0,0:0:0:0:
329,192,162390,1,0,0:0:0:0:
256,192,162457,1,0,0:0:0:0:
475,192,162524,1,0,0:0:0:0:
402,192,162524,1,0,0:0:0:0:
182,192,162524,1,0,0:0:0:0:
109,192,162591,1,0,0:0:0:0:
329,192,162658,1,0,0:0:0:0:
402,192,162658,1,0,0:0:0:0:
36,192,162658,1,0,0:0:0:0:
182,192,162725,1,0,0:0:0:0:
256,192,162725,1,0,0:0:0:0:
109,192,162792,1,0,0:0:0:0:
36,192,162792,1,0,0:0:0:0:
475,192,162792,1,0,0:0:0:0:
182,192,162859,1,0,0:0:0:0:
402,192,162859,1,0,0:0:0:0:
109,192,162926,1,0,0:0:0:0:
329,192,162926,1,0,0:0:0:0:
36,192,162993,1,0,0:0:0:0:
256,192,162993,1,0,0:0:0:0:
402,192,163060,1,0,0:0:0:0:
329,192,163060,1,0,0:0:0:0:
182,192,163060,1,0,0:0:0:0:
475,192,163060,1,0,0:0:0:0:
109,192,163127,1,0,0:0:0:0:
182,192,163194,1,0,0:0:0:0:
256,192,163194,1,0,0:0:0:0:
36,192,163194,1,0,0:0:0:0:
109,192,163261,1,0,0:0:0:0:
329,192,163261,1,0,0:0:0:0:
402,192,163261,1,0,0:0:0:0:
256,192,163328,1,0,0:0:0:0:
475,192,163328,1,0,0:0:0:0:
182,192,163395,1,0,0:0:0:0:
402,192,163395,1,0,0:0:0:0:
329,192,163462,1,0,0:0:0:0:
36,192,163462,1,0,0:0:0:0:
256,192,163529,1,0,0:0:0:0:
402,192,163596,1,0,0:0:0:0:
475,192,163596,1,0,0:0:0:0:
182,192,163596,1,0,0:0:0:0:
109,192,163663,1,0,0:0:0:0:
329,192,163730,1,0,0:0:0:0:
36,192,163730,1,0,0:0:0:0:
182,192,163797,1,0,0:0:0:0:
402,192,163797,1,0,0:0:0:0:
256,192,163797,1,0,0:0:0:0:
109,192,163797,1,0,0:0:0:0:
36,192,163864,1,0,0:0:0:0:
329,192,163864,1,0,0:0:0:0:
475,192,163864,1,0,0:0:0:0:
182,192,163930,1,0,0:0:0:0:
402,192,163930,1,0,0:0:0:0:
36,192,163997,1,0,0:0:0:0:
109,192,163997,1,0,0:0:0:0:
329,192,163997,1,0,0:0:0:0:
256,192,164064,1,0,0:0:0:0:
475,192,164131,1,0,0:0:0:0:
402,192,164131,1,0,0:0:0:0:
182,192,164131,1,0,0:0:0:0:
329,192,164198,1,0,0:0:0:0:
256,192,164198,1,0,0:0:0:0:
109,192,164198,1,0,0:0:0:0:
402,192,164265,1,0,0:0:0:0:
36,192,164265,1,0,0:0:0:0:
182,192,164332,1,0,0:0:0:0:
256,192,164399,1,0,0:0:0:0:
109,192,164399,1,0,0:0:0:0:
475,192,164399,1,0,0:0:0:0:
402,192,164466,1,0,0:0:0:0:
36,192,164533,1,0,0:0:0:0:
329,192,164533,1,0,0:0:0:0:
256,192,164600,1,0,0:0:0:0:
329,192,164667,1,0,0:0:0:0:
475,192,164667,1,0,0:0:0:0:
182,192,164667,1,0,0:0:0:0:
109,192,164734,1,0,0:0:0:0:
182,192,164801,1,0,0:0:0:0:
402,192,164801,1,0,0:0:0:0:
36,192,164801,1,0,0:0:0:0:
329,192,164868,1,0,0:0:0:0:
256,192,164868,1,0,0:0:0:0:
109,192,164935,1,0,0:0:0:0:
475,192,164935,1,0,0:0:0:0:
182,192,165002,1,0,0:0:0:0:
402,192,165002,1,0,0:0:0:0:
36,192,165069,1,0,0:0:0:0:
329,192,165069,1,0,0:0:0:0:
109,192,165136,1,0,0:0:0:0:
256,192,165136,1,0,0:0:0:0:
329,192,165203,1,0,0:0:0:0:
402,192,165203,1,0,0:0:0:0:
182,192,165203,1,0,0:0:0:0:
475,192,165203,1,0,0:0:0:0:
256,192,165270,1,0,0:0:0:0:
182,192,165337,1,0,0:0:0:0:
36,192,165337,1,0,0:0:0:0:
329,192,165404,1,0,0:0:0:0:
402,192,165404,1,0,0:0:0:0:
109,192,165471,1,0,0:0:0:0:
475,192,165471,1,0,0:0:0:0:
182,192,165538,1,0,0:0:0:0:
402,192,165538,1,0,0:0:0:0:
36,192,165605,1,0,0:0:0:0:
329,192,165605,1,0,0:0:0:0:
256,192,165672,1,0,0:0:0:0:
475,192,165739,1,0,0:0:0:0:
402,192,165739,1,0,0:0:0:0:
182,192,165739,1,0,0:0:0:0:
109,192,165805,1,0,0:0:0:0:
329,192,165872,1,0,0:0:0:0:
36,192,165872,1,0,0:0:0:0:
182,192,165939,1,0,0:0:0:0:
256,192,165939,1,0,0:0:0:0:
109,192,166006,1,0,0:0:0:0:
475,192,166006,1,0,0:0:0:0:
36,192,166073,1,0,0:0:0:0:
402,192,166073,1,0,0:0:0:0:
182,192,166140,1,0,0:0:0:0:
329,192,166140,1,0,0:0:0:0:
402,192,166207,1,0,0:0:0:0:
109,192,166207,1,0,0:0:0:0:
256,192,166207,1,0,0:0:0:0:
329,192,166274,1,0,0:0:0:0:
182,192,166274,1,0,0:0:0:0:
329,192,166408,1,0,0:0:0:0:
182,192,166408,1,0,0:0:0:0:
402,192,166475,1,0,0:0:0:0:
109,192,166475,1,0,0:0:0:0:
256,192,166475,1,0,0:0:0:0:
475,192,166542,1,0,0:0:0:0:
329,192,166542,1,0,0:0:0:0:
36,192,166542,1,0,0:0:0:0:
109,192,166609,1,0,0:0:0:0:
475,192,166676,1,0,0:0:0:0:
182,192,166676,1,0,0:0:0:0:
256,192,166743,1,0,0:0:0:0:
329,192,166810,1,0,0:0:0:0:
36,192,166810,1,0,0:0:0:0:
109,192,166810,1,0,0:0:0:0:
402,192,166877,1,0,0:0:0:0:
182,192,166944,1,0,0:0:0:0:
109,192,166944,1,0,0:0:0:0:
475,192,166944,1,0,0:0:0:0:
329,192,167011,1,0,0:0:0:0:
256,192,167011,1,0,0:0:0:0:
402,192,167078,1,0,0:0:0:0:
475,192,167078,1,0,0:0:0:0:
36,192,167078,1,0,0:0:0:0:
329,192,167145,1,0,0:0:0:0:
109,192,167145,1,0,0:0:0:0:
402,192,167212,1,0,0:0:0:0:
182,192,167212,1,0,0:0:0:0:
256,192,167279,1,0,0:0:0:0:
475,192,167279,1,0,0:0:0:0:
109,192,167346,1,0,0:0:0:0:
182,192,167346,1,0,0:0:0:0:
36,192,167346,1,0,0:0:0:0:
329,192,167346,1,0,0:0:0:0:
402,192,167413,1,0,0:0:0:0:
329,192,167480,1,0,0:0:0:0:
256,192,167480,1,0,0:0:0:0:
475,192,167480,1,0,0:0:0:0:
402,192,167547,1,0,0:0:0:0:
109,192,167547,1,0,0:0:0:0:
182,192,167547,1,0,0:0:0:0:
256,192,167614,1,0,0:0:0:0:
36,192,167614,1,0,0:0:0:0:
109,192,167680,1,0,0:0:0:0:
329,192,167680,1,0,0:0:0:0:
475,192,167747,1,0,0:0:0:0:
182,192,167747,1,0,0:0:0:0:
256,192,167814,1,0,0:0:0:0:
329,192,167881,1,0,0:0:0:0:
36,192,167881,1,0,0:0:0:0:
109,192,167881,1,0,0:0:0:0:
402,192,167948,1,0,0:0:0:0:
475,192,168015,1,0,0:0:0:0:
182,192,168015,1,0,0:0:0:0:
36,192,168082,1,0,0:0:0:0:
329,192,168082,1,0,0:0:0:0:
256,192,168082,1,0,0:0:0:0:
402,192,168082,1,0,0:0:0:0:
475,192,168149,1,0,0:0:0:0:
109,192,168149,1,0,0:0:0:0:
182,192,168149,1,0,0:0:0:0:
36,192,168216,1,0,0:0:0:0:
329,192,168216,1,0,0:0:0:0:
182,192,168283,1,0,0:0:0:0:
475,192,168283,1,0,0:0:0:0:
402,192,168283,1,0,0:0:0:0:
256,192,168350,1,0,0:0:0:0:
36,192,168417,1,0,0:0:0:0:
329,192,168417,1,0,0:0:0:0:
109,192,168417,1,0,0:0:0:0:
402,192,168484,1,0,0:0:0:0:
182,192,168484,1,0,0:0:0:0:
256,192,168484,1,0,0:0:0:0:
109,192,168551,1,0,0:0:0:0:
475,192,168551,1,0,0:0:0:0:
329,192,168618,1,0,0:0:0:0:
256,192,168685,1,0,0:0:0:0:
36,192,168685,1,0,0:0:0:0:
182,192,168685,1,0,0:0:0:0:
329,192,168752,1,0,0:0:0:0:
402,192,168819,1,0,0:0:0:0:
109,192,168819,1,0,0:0:0:0:
36,192,168819,1,0,0:0:0:0:
475,192,168886,1,0,0:0:0:0:
256,192,168953,1,0,0:0:0:0:
182,192,168953,1,0,0:0:0:0:
36,192,168953,1,0,0:0:0:0:
402,192,169087,1,0,0:0:0:0:
182,192,169087,1,0,0:0:0:0:
109,192,169087,1,0,0:0:0:0:
329,192,169154,1,0,0:0:0:0:
256,192,169221,1,0,0:0:0:0:
475,192,169221,1,0,0:0:0:0:
182,192,169288,1,0,0:0:0:0:
109,192,169355,1,0,0:0:0:0:
475,192,169355,1,0,0:0:0:0:
402,192,169355,1,0,0:0:0:0:
36,192,169422,1,0,0:0:0:0:
256,192,169489,1,0,0:0:0:0:
329,192,169489,1,0,0:0:0:0:
475,192,169489,1,0,0:0:0:0:
109,192,169555,1,0,0:0:0:0:
182,192,169622,1,0,0:0:0:0:
402,192,169622,1,0,0:0:0:0:
329,192,169622,1,0,0:0:0:0:
36,192,169689,1,0,0:0:0:0:
182,192,169756,1,0,0:0:0:0:
109,192,169756,1,0,0:0:0:0:
329,192,169823,1,0,0:0:0:0:
256,192,169823,1,0,0:0:0:0:
475,192,169890,1,0,0:0:0:0:
402,192,169890,1,0,0:0:0:0:
109,192,169957,1,0,0:0:0:0:
36,192,169957,1,0,0:0:0:0:
256,192,170024,1,0,0:0:0:0:
182,192,170024,1,0,0:0:0:0:
402,192,170091,1,0,0:0:0:0:
329,192,170091,1,0,0:0:0:0:
36,192,170158,1,0,0:0:0:0:
109,192,170158,1,0,0:0:0:0:
475,192,170158,1,0,0:0:0:0:
329,192,170225,1,0,0:0:0:0:
256,192,170225,1,0,0:0:0:0:
182,192,170225,1,0,0:0:0:0:
36,192,170292,1,0,0:0:0:0:
475,192,170292,1,0,0:0:0:0:
402,192,170292,1,0,0:0:0:0:
256,192,170359,1,0,0:0:0:0:
109,192,170359,1,0,0:0:0:0:
182,192,170359,1,0,0:0:0:0:
475,192,170426,1,0,0:0:0:0:
402,192,170426,1,0,0:0:0:0:
329,192,170426,1,0,0:0:0:0:
182,192,170493,1,0,0:0:0:0:
109,192,170493,1,0,0:0:0:0:
36,192,170493,1,0,0:0:0:0:
402,192,170560,1,0,0:0:0:0:
475,192,170560,1,0,0:0:0:0:
256,192,170560,1,0,0:0:0:0:
329,192,170560,1,0,0:0:0:0:
402,192,170828,1,0,0:0:0:0:
182,192,170828,1,0,0:0:0:0:
36,192,170828,1,0,0:0:0:0:
36,192,170917,1,0,0:0:0:0:
182,192,170917,1,0,0:0:0:0:
402,192,170917,1,0,0:0:0:0:
182,192,171006,1,0,0:0:0:0:
36,192,171006,1,0,0:0:0:0:
402,192,171006,1,0,0:0:0:0:
475,192,171096,1,0,0:0:0:0:
329,192,171096,1,0,0:0:0:0:
109,192,171096,1,0,0:0:0:0:
475,192,171185,1,0,0:0:0:0:
329,192,171185,1,0,0:0:0:0:
109,192,171185,1,0,0:0:0:0:
475,192,171274,1,0,0:0:0:0:
329,192,171274,1,0,0:0:0:0:
109,192,171274,1,0,0:0:0:0:
256,192,171364,1,0,0:0:0:0:
402,192,171364,1,0,0:0:0:0:
36,192,171364,1,0,0:0:0:0:
182,192,171364,1,0,0:0:0:0:
475,192,171542,1,0,0:0:0:0:
256,192,171542,1,0,0:0:0:0:
109,192,171542,1,0,0:0:0:0:
329,192,171542,1,0,0:0:0:0:
329,192,171721,1,0,0:0:0:0:
402,192,171721,1,0,0:0:0:0:
36,192,171721,1,0,0:0:0:0:
182,192,171721,1,0,0:0:0:0:
402,192,171899,1,0,0:0:0:0:
475,192,171899,1,0,0:0:0:0:
109,192,171899,1,0,0:0:0:0:
256,192,171899,1,0,0:0:0:0:
36,192,171966,1,0,0:0:0:0:
329,192,172033,1,0,0:0:0:0:
109,192,172033,1,0,0:0:0:0:
402,192,172100,1,0,0:0:0:0:
182,192,172100,1,0,0:0:0:0:
256,192,172167,1,0,0:0:0:0:
109,192,172234,1,0,0:0:0:0:
329,192,172234,1,0,0:0:0:0:
182,192,172301,1,0,0:0:0:0:
402,192,172301,1,0,0:0:0:0:
475,192,172368,1,0,0:0:0:0:
329,192,172435,1,0,0:0:0:0:
36,192,172435,1,0,0:0:0:0:
256,192,172502,1,0,0:0:0:0:
475,192,172502,1,0,0:0:0:0:
402,192,172569,1,0,0:0:0:0:
36,192,172636,1,0,0:0:0:0:
329,192,172636,1,0,0:0:0:0:
475,192,172703,1,0,0:0:0:0:
256,192,172703,1,0,0:0:0:0:
182,192,172770,1,0,0:0:0:0:
329,192,172837,1,0,0:0:0:0:
109,192,172837,1,0,0:0:0:0:
256,192,172904,1,0,0:0:0:0:
36,192,172904,1,0,0:0:0:0:
475,192,172971,1,0,0:0:0:0:
329,192,173038,1,0,0:0:0:0:
36,192,173038,1,0,0:0:0:0:
402,192,173105,1,0,0:0:0:0:
109,192,173105,1,0,0:0:0:0:
182,192,173172,1,0,0:0:0:0:
475,192,173239,1,0,0:0:0:0:
256,192,173239,1,0,0:0:0:0:
36,192,173305,1,0,0:0:0:0:
329,192,173305,1,0,0:0:0:0:
402,192,173372,1,0,0:0:0:0:
36,192,173439,1,0,0:0:0:0:
475,192,173439,1,0,0:0:0:0:
109,192,173506,1,0,0:0:0:0:
329,192,173506,1,0,0:0:0:0:
182,192,173573,1,0,0:0:0:0:
475,192,173573,1,0,0:0:0:0:
256,192,173640,1,0,0:0:0:0:
402,192,173640,1,0,0:0:0:0:
36,192,173707,1,0,0:0:0:0:
329,192,173707,1,0,0:0:0:0:
475,192,173774,1,0,0:0:0:0:
256,192,173774,1,0,0:0:0:0:
402,192,173841,1,0,0:0:0:0:
182,192,173841,1,0,0:0:0:0:
329,192,173908,1,0,0:0:0:0:
109,192,173908,1,0,0:0:0:0:
256,192,173975,1,0,0:0:0:0:
36,192,173975,1,0,0:0:0:0:
475,192,174042,1,0,0:0:0:0:
402,192,174042,1,0,0:0:0:0:
36,192,174109,1,0,0:0:0:0:
109,192,174176,1,0,0:0:0:0:
182,192,174176,1,0,0:0:0:0:
256,192,174243,1,0,0:0:0:0:
329,192,174243,1,0,0:0:0:0:
475,192,174310,1,0,0:0:0:0:
36,192,174377,1,0,0:0:0:0:
109,192,174377,1,0,0:0:0:0:
475,192,174444,1,0,0:0:0:0:
256,192,174444,1,0,0:0:0:0:
402,192,174511,1,0,0:0:0:0:
182,192,174578,1,0,0:0:0:0:
36,192,174578,1,0,0:0:0:0:
256,192,174645,1,0,0:0:0:0:
475,192,174645,1,0,0:0:0:0:
329,192,174712,1,0,0:0:0:0:
402,192,174779,1,0,0:0:0:0:
182,192,174779,1,0,0:0:0:0:
109,192,174846,1,0,0:0:0:0:
36,192,174846,1,0,0:0:0:0:
402,192,174913,1,0,0:0:0:0:
182,192,174980,1,0,0:0:0:0:
256,192,174980,1,0,0:0:0:0:
475,192,175047,1,0,0:0:0:0:
109,192,175047,1,0,0:0:0:0:
402,192,175114,1,0,0:0:0:0:
256,192,175180,1,0,0:0:0:0:
36,192,175180,1,0,0:0:0:0:
475,192,175247,1,0,0:0:0:0:
182,192,175247,1,0,0:0:0:0:
329,192,175314,1,0,0:0:0:0:
182,192,175381,1,0,0:0:0:0:
475,192,175381,1,0,0:0:0:0:
36,192,175448,1,0,0:0:0:0:
109,192,175448,1,0,0:0:0:0:
256,192,175515,1,0,0:0:0:0:
182,192,175582,1,0,0:0:0:0:
402,192,175582,1,0,0:0:0:0:
329,192,175649,1,0,0:0:0:0:
36,192,175649,1,0,0:0:0:0:
475,192,175716,1,0,0:0:0:0:
109,192,175783,1,0,0:0:0:0:
329,192,175783,1,0,0:0:0:0:
256,192,175850,1,0,0:0:0:0:
182,192,175850,1,0,0:0:0:0:
36,192,175917,1,0,0:0:0:0:
329,192,175984,1,0,0:0:0:0:
402,192,175984,1,0,0:0:0:0:
475,192,176051,1,0,0:0:0:0:
256,192,176051,1,0,0:0:0:0:
36,192,176118,1,0,0:0:0:0:
109,192,176118,1,0,0:0:0:0:
402,192,176185,1,0,0:0:0:0:
329,192,176185,1,0,0:0:0:0:
182,192,176185,1,0,0:0:0:0:
36,192,176252,1,0,0:0:0:0:
475,192,176319,1,0,0:0:0:0:
402,192,176386,1,0,0:0:0:0:
329,192,176453,1,0,0:0:0:0:
256,192,176520,1,0,0:0:0:0:
182,192,176587,1,0,0:0:0:0:
109,192,176654,1,0,0:0:0:0:
475,192,176721,1,0,0:0:0:0:
36,192,176721,1,0,0:0:0:0:
402,192,176788,1,0,0:0:0:0:
182,192,176788,1,0,0:0:0:0:
475,192,176855,1,0,0:0:0:0:
109,192,176855,1,0,0:0:0:0:
402,192,176922,1,0,0:0:0:0:
329,192,176922,1,0,0:0:0:0:
36,192,176989,1,0,0:0:0:0:
256,192,176989,1,0,0:0:0:0:
109,192,177055,1,0,0:0:0:0:
475,192,177055,1,0,0:0:0:0:
182,192,177122,1,0,0:0:0:0:
402,192,177122,1,0,0:0:0:0:
256,192,177189,1,0,0:0:0:0:
36,192,177189,1,0,0:0:0:0:
329,192,177256,1,0,0:0:0:0:
182,192,177256,1,0,0:0:0:0:
36,192,177323,1,0,0:0:0:0:
109,192,177390,1,0,0:0:0:0:
475,192,177390,1,0,0:0:0:0:
182,192,177457,1,0,0:0:0:0:
402,192,177457,1,0,0:0:0:0:
329,192,177524,1,0,0:0:0:0:
36,192,177591,1,0,0:0:0:0:
256,192,177591,1,0,0:0:0:0:
475,192,177658,1,0,0:0:0:0:
182,192,177658,1,0,0:0:0:0:
402,192,177725,1,0,0:0:0:0:
109,192,177725,1,0,0:0:0:0:
475,192,177792,1,0,0:0:0:0:
36,192,177792,1,0,0:0:0:0:
182,192,177859,1,0,0:0:0:0:
402,192,177926,1,0,0:0:0:0:
109,192,177926,1,0,0:0:0:0:
182,192,177993,1,0,0:0:0:0:
329,192,177993,1,0,0:0:0:0:
256,192,178060,1,0,0:0:0:0:
109,192,178127,1,0,0:0:0:0:
475,192,178127,1,0,0:0:0:0:
329,192,178194,1,0,0:0:0:0:
402,192,178194,1,0,0:0:0:0:
256,192,178261,1,0,0:0:0:0:
36,192,178261,1,0,0:0:0:0:
402,192,178328,1,0,0:0:0:0:
329,192,178328,1,0,0:0:0:0:
109,192,178395,1,0,0:0:0:0:
36,192,178462,1,0,0:0:0:0:
182,192,178462,1,0,0:0:0:0:
475,192,178529,1,0,0:0:0:0:
402,192,178529,1,0,0:0:0:0:
329,192,178596,1,0,0:0:0:0:
182,192,178663,1,0,0:0:0:0:
36,192,178663,1,0,0:0:0:0:
402,192,178730,1,0,0:0:0:0:
256,192,178730,1,0,0:0:0:0:
36,192,178797,1,0,0:0:0:0:
182,192,178797,1,0,0:0:0:0:
475,192,178797,1,0,0:0:0:0:
329,192,178864,1,0,0:0:0:0:
256,192,178864,1,0,0:0:0:0:
402,192,178930,1,0,0:0:0:0:
182,192,178997,1,0,0:0:0:0:
109,192,178997,1,0,0:0:0:0:
256,192,179064,1,0,0:0:0:0:
329,192,179064,1,0,0:0:0:0:
402,192,179131,1,0,0:0:0:0:
182,192,179198,1,0,0:0:0:0:
475,192,179198,1,0,0:0:0:0:
109,192,179265,1,0,0:0:0:0:
256,192,179265,1,0,0:0:0:0:
36,192,179332,1,0,0:0:0:0:
182,192,179399,1,0,0:0:0:0:
475,192,179399,1,0,0:0:0:0:
402,192,179466,1,0,0:0:0:0:
329,192,179533,1,0,0:0:0:0:
256,192,179600,1,0,0:0:0:0:
475,192,179667,1,0,0:0:0:0:
182,192,179667,1,0,0:0:0:0:
329,192,179734,1,0,0:0:0:0:
109,192,179734,1,0,0:0:0:0:
475,192,179801,1,0,0:0:0:0:
36,192,179801,1,0,0:0:0:0:
182,192,179868,1,0,0:0:0:0:
329,192,179868,1,0,0:0:0:0:
402,192,179935,1,0,0:0:0:0:
256,192,179935,1,0,0:0:0:0:
109,192,179935,1,0,0:0:0:0:
475,192,180136,1,0,0:0:0:0:
329,192,180136,1,0,0:0:0:0:
36,192,180136,1,0,0:0:0:0:
182,192,180136,1,0,0:0:0:0:
256,192,180337,1,0,0:0:0:0:
402,192,180337,1,0,0:0:0:0:
329,192,180337,1,0,0:0:0:0:
109,192,180337,1,0,0:0:0:0:
182,192,180337,1,0,0:0:0:0:
475,192,180471,1,0,0:0:0:0:
256,192,180471,1,0,0:0:0:0:
36,192,180471,1,0,0:0:0:0:
182,192,180538,1,0,0:0:0:0:
402,192,180605,1,0,0:0:0:0:
475,192,180605,1,0,0:0:0:0:
256,192,180672,1,0,0:0:0:0:
329,192,180672,1,0,0:0:0:0:
36,192,180739,1,0,0:0:0:0:
109,192,180805,1,0,0:0:0:0:
182,192,180805,1,0,0:0:0:0:
402,192,180872,1,0,0:0:0:0:
475,192,180872,1,0,0:0:0:0:
329,192,180939,1,0,0:0:0:0:
256,192,181006,1,0,0:0:0:0:
36,192,181006,1,0,0:0:0:0:
109,192,181073,1,0,0:0:0:0:
182,192,181073,1,0,0:0:0:0:
475,192,181140,1,0,0:0:0:0:
256,192,181207,1,0,0:0:0:0:
329,192,181207,1,0,0:0:0:0:
402,192,181274,1,0,0:0:0:0:
36,192,181274,1,0,0:0:0:0:
182,192,181341,1,0,0:0:0:0:
256,192,181408,1,0,0:0:0:0:
475,192,181408,1,0,0:0:0:0:
109,192,181475,1,0,0:0:0:0:
329,192,181475,1,0,0:0:0:0:
36,192,181542,1,0,0:0:0:0:
109,192,181609,1,0,0:0:0:0:
182,192,181609,1,0,0:0:0:0:
256,192,181676,1,0,0:0:0:0:
475,192,181676,1,0,0:0:0:0:
329,192,181743,1,0,0:0:0:0:
402,192,181810,1,0,0:0:0:0:
36,192,181810,1,0,0:0:0:0:
256,192,181877,1,0,0:0:0:0:
182,192,181877,1,0,0:0:0:0:
475,192,181944,1,0,0:0:0:0:
402,192,182011,1,0,0:0:0:0:
329,192,182011,1,0,0:0:0:0:
182,192,182078,1,0,0:0:0:0:
36,192,182078,1,0,0:0:0:0:
256,192,182145,1,0,0:0:0:0:
109,192,182145,1,0,0:0:0:0:
329,192,182212,1,0,0:0:0:0:
182,192,182212,1,0,0:0:0:0:
402,192,182279,1,0,0:0:0:0:
256,192,182279,1,0,0:0:0:0:
475,192,182346,1,0,0:0:0:0:
329,192,182346,1,0,0:0:0:0:
402,192,182413,1,0,0:0:0:0:
256,192,182413,1,0,0:0:0:0:
329,192,182480,1,0,0:0:0:0:
182,192,182480,1,0,0:0:0:0:
256,192,182547,1,0,0:0:0:0:
109,192,182547,1,0,0:0:0:0:
182,192,182614,1,0,0:0:0:0:
36,192,182614,1,0,0:0:0:0:
475,192,182680,1,0,0:0:0:0:
329,192,182747,1,0,0:0:0:0:
402,192,182747,1,0,0:0:0:0:
256,192,182814,1,0,0:0:0:0:
109,192,182814,1,0,0:0:0:0:
36,192,182881,1,0,0:0:0:0:
475,192,182948,1,0,0:0:0:0:
402,192,183015,1,0,0:0:0:0:
109,192,183082,1,0,0:0:0:0:
182,192,183149,1,0,0:0:0:0:
36,192,183149,1,0,0:0:0:0:
329,192,183216,1,0,0:0:0:0:
475,192,183216,1,0,0:0:0:0:
402,192,183283,1,0,0:0:0:0:
256,192,183350,1,0,0:0:0:0:
109,192,183350,1,0,0:0:0:0:
182,192,183417,1,0,0:0:0:0:
36,192,183417,1,0,0:0:0:0:
475,192,183484,1,0,0:0:0:0:
256,192,183551,1,0,0:0:0:0:
402,192,183551,1,0,0:0:0:0:
329,192,183618,1,0,0:0:0:0:
109,192,183618,1,0,0:0:0:0:
36,192,183685,1,0,0:0:0:0:
182,192,183752,1,0,0:0:0:0:
475,192,183752,1,0,0:0:0:0:
256,192,183819,1,0,0:0:0:0:
402,192,183819,1,0,0:0:0:0:
109,192,183886,1,0,0:0:0:0:
329,192,183953,1,0,0:0:0:0:
36,192,183953,1,0,0:0:0:0:
182,192,184020,1,0,0:0:0:0:
475,192,184020,1,0,0:0:0:0:
402,192,184087,1,0,0:0:0:0:
256,192,184154,1,0,0:0:0:0:
109,192,184154,1,0,0:0:0:0:
329,192,184221,1,0,0:0:0:0:
36,192,184221,1,0,0:0:0:0:
475,192,184288,1,0,0:0:0:0:
182,192,184355,1,0,0:0:0:0:
402,192,184355,1,0,0:0:0:0:
256,192,184422,1,0,0:0:0:0:
109,192,184422,1,0,0:0:0:0:
36,192,184489,1,0,0:0:0:0:
329,192,184555,1,0,0:0:0:0:
475,192,184555,1,0,0:0:0:0:
182,192,184622,1,0,0:0:0:0:
402,192,184622,1,0,0:0:0:0:
256,192,184689,1,0,0:0:0:0:
109,192,184689,1,0,0:0:0:0:
402,192,184756,1,0,0:0:0:0:
182,192,184756,1,0,0:0:0:0:
36,192,184823,1,0,0:0:0:0:
109,192,184890,1,0,0:0:0:0:
256,192,184890,1,0,0:0:0:0:
475,192,184957,1,0,0:0:0:0:
329,192,184957,1,0,0:0:0:0:
182,192,185024,1,0,0:0:0:0:
402,192,185091,1,0,0:0:0:0:
36,192,185091,1,0,0:0:0:0:
475,192,185158,1,0,0:0:0:0:
256,192,185158,1,0,0:0:0:0:
329,192,185225,1,0,0:0:0:0:
402,192,185292,1,0,0:0:0:0:
182,192,185292,1,0,0:0:0:0:
36,192,185359,1,0,0:0:0:0:
109,192,185426,1,0,0:0:0:0:
256,192,185426,1,0,0:0:0:0:
109,192,185493,1,0,0:0:0:0:
329,192,185493,1,0,0:0:0:0:
475,192,185560,1,0,0:0:0:0:
182,192,185560,1,0,0:0:0:0:
36,192,185627,1,0,0:0:0:0:
109,192,185694,1,0,0:0:0:0:
256,192,185694,1,0,0:0:0:0:
402,192,185761,1,0,0:0:0:0:
329,192,185761,1,0,0:0:0:0:
182,192,185828,1,0,0:0:0:0:
109,192,185895,1,0,0:0:0:0:
36,192,185895,1,0,0:0:0:0:
475,192,185962,1,0,0:0:0:0:
256,192,185962,1,0,0:0:0:0:
329,192,186029,1,0,0:0:0:0:
402,192,186096,1,0,0:0:0:0:
182,192,186096,1,0,0:0:0:0:
36,192,186163,1,0,0:0:0:0:
475,192,186230,1,0,0:0:0:0:
256,192,186230,1,0,0:0:0:0:
475,192,186297,1,0,0:0:0:0:
329,192,186297,1,0,0:0:0:0:
109,192,186364,1,0,0:0:0:0:
182,192,186364,1,0,0:0:0:0:
36,192,186430,1,0,0:0:0:0:
402,192,186497,1,0,0:0:0:0:
256,192,186497,1,0,0:0:0:0:
109,192,186564,1,0,0:0:0:0:
329,192,186564,1,0,0:0:0:0:
182,192,186631,1,0,0:0:0:0:
402,192,186698,1,0,0:0:0:0:
36,192,186698,1,0,0:0:0:0:
475,192,186765,1,0,0:0:0:0:
256,192,186765,1,0,0:0:0:0:
329,192,186832,1,0,0:0:0:0:
36,192,186899,1,0,0:0:0:0:
109,192,186899,1,0,0:0:0:0:
256,192,186966,1,0,0:0:0:0:
182,192,186966,1,0,0:0:0:0:
475,192,187033,1,0,0:0:0:0:
329,192,187033,1,0,0:0:0:0:
402,192,187100,1,0,0:0:0:0:
256,192,187167,1,0,0:0:0:0:
36,192,187167,1,0,0:0:0:0:
182,192,187234,1,0,0:0:0:0:
402,192,187301,1,0,0:0:0:0:
329,192,187301,1,0,0:0:0:0:
36,192,187368,1,0,0:0:0:0:
475,192,187368,1,0,0:0:0:0:
256,192,187435,1,0,0:0:0:0:
109,192,187435,1,0,0:0:0:0:
182,192,187502,1,0,0:0:0:0:
329,192,187569,1,0,0:0:0:0:
402,192,187636,1,0,0:0:0:0:
36,192,187703,1,0,0:0:0:0:
182,192,187770,1,0,0:0:0:0:
256,192,187837,1,0,0:0:0:0:
329,192,187837,1,0,0:0:0:0:
402,192,187904,1,0,0:0:0:0:
475,192,187904,1,0,0:0:0:0:
36,192,187971,1,0,0:0:0:0:
109,192,187971,1,0,0:0:0:0:
182,192,188038,1,0,0:0:0:0:
329,192,188105,1,0,0:0:0:0:
402,192,188172,1,0,0:0:0:0:
182,192,188239,1,0,0:0:0:0:
475,192,188239,1,0,0:0:0:0:
329,192,188305,1,0,0:0:0:0:
109,192,188305,1,0,0:0:0:0:
36,192,188305,1,0,0:0:0:0:
256,192,188372,1,0,0:0:0:0:
182,192,188372,1,0,0:0:0:0:
329,192,188406,1,0,0:0:0:0:
402,192,188439,1,0,0:0:0:0:
109,192,188439,1,0,0:0:0:0:
36,192,188439,1,0,0:0:0:0:
475,192,188473,1,0,0:0:0:0:
256,192,188506,128,0,189042:0:0:0:0:
329,192,188506,1,0,0:0:0:0:
182,192,188506,1,0,0:0:0:0:
182,192,189042,1,0,0:0:0:0:
475,192,189042,1,0,0:0:0:0:
109,192,189042,1,0,0:0:0:0:
329,192,189042,1,0,0:0:0:0:
402,192,189109,1,0,0:0:0:0:
36,192,189109,1,0,0:0:0:0:
475,192,189176,1,0,0:0:0:0:
182,192,189176,1,0,0:0:0:0:
329,192,189243,1,0,0:0:0:0:
109,192,189243,1,0,0:0:0:0:
402,192,189310,1,0,0:0:0:0:
256,192,189310,1,0,0:0:0:0:
475,192,189377,1,0,0:0:0:0:
182,192,189377,1,0,0:0:0:0:
36,192,189444,1,0,0:0:0:0:
256,192,189444,1,0,0:0:0:0:
109,192,189511,1,0,0:0:0:0:
329,192,189511,1,0,0:0:0:0:
36,192,189578,1,0,0:0:0:0:
256,192,189578,1,0,0:0:0:0:
402,192,189578,1,0,0:0:0:0:
182,192,189578,1,0,0:0:0:0:
329,192,189645,1,0,0:0:0:0:
475,192,189645,1,0,0:0:0:0:
182,192,189712,1,0,0:0:0:0:
36,192,189712,1,0,0:0:0:0:
402,192,189779,1,0,0:0:0:0:
109,192,189779,1,0,0:0:0:0:
475,192,189846,1,0,0:0:0:0:
182,192,189846,1,0,0:0:0:0:
402,192,189913,1,0,0:0:0:0:
256,192,189913,1,0,0:0:0:0:
109,192,189980,1,0,0:0:0:0:
329,192,189980,1,0,0:0:0:0:
256,192,190047,1,0,0:0:0:0:
182,192,190047,1,0,0:0:0:0:
109,192,190114,1,0,0:0:0:0:
329,192,190114,1,0,0:0:0:0:
475,192,190180,1,0,0:0:0:0:
36,192,190180,1,0,0:0:0:0:
256,192,190247,1,0,0:0:0:0:
402,192,190247,1,0,0:0:0:0:
109,192,190247,1,0,0:0:0:0:
182,192,190247,1,0,0:0:0:0:
329,192,190314,1,0,0:0:0:0:
36,192,190314,1,0,0:0:0:0:
402,192,190381,1,0,0:0:0:0:
256,192,190381,1,0,0:0:0:0:
109,192,190448,1,0,0:0:0:0:
475,192,190448,1,0,0:0:0:0:
36,192,190515,1,0,0:0:0:0:
256,192,190515,1,0,0:0:0:0:
329,192,190582,1,0,0:0:0:0:
182,192,190582,1,0,0:0:0:0:
36,192,190649,1,0,0:0:0:0:
475,192,190649,1,0,0:0:0:0:
402,192,190649,1,0,0:0:0:0:
109,192,190649,1,0,0:0:0:0:
182,192,190716,1,0,0:0:0:0:
256,192,190716,1,0,0:0:0:0:
36,192,190783,1,0,0:0:0:0:
329,192,190783,1,0,0:0:0:0:
109,192,190850,1,0,0:0:0:0:
402,192,190850,1,0,0:0:0:0:
475,192,190917,1,0,0:0:0:0:
256,192,190917,1,0,0:0:0:0:
36,192,190984,1,0,0:0:0:0:
402,192,190984,1,0,0:0:0:0:
329,192,191051,1,0,0:0:0:0:
109,192,191051,1,0,0:0:0:0:
256,192,191118,1,0,0:0:0:0:
182,192,191118,1,0,0:0:0:0:
109,192,191185,1,0,0:0:0:0:
329,192,191185,1,0,0:0:0:0:
402,192,191252,1,0,0:0:0:0:
36,192,191252,1,0,0:0:0:0:
475,192,191319,1,0,0:0:0:0:
182,192,191319,1,0,0:0:0:0:
109,192,191386,1,0,0:0:0:0:
329,192,191386,1,0,0:0:0:0:
402,192,191453,1,0,0:0:0:0:
256,192,191453,1,0,0:0:0:0:
475,192,191520,1,0,0:0:0:0:
182,192,191520,1,0,0:0:0:0:
36,192,191587,1,0,0:0:0:0:
256,192,191587,1,0,0:0:0:0:
329,192,191654,1,0,0:0:0:0:
109,192,191654,1,0,0:0:0:0:
256,192,191721,1,0,0:0:0:0:
36,192,191721,1,0,0:0:0:0:
182,192,191721,1,0,0:0:0:0:
402,192,191721,1,0,0:0:0:0:
329,192,191788,1,0,0:0:0:0:
475,192,191788,1,0,0:0:0:0:
36,192,191855,1,0,0:0:0:0:
182,192,191855,1,0,0:0:0:0:
402,192,191922,1,0,0:0:0:0:
109,192,191922,1,0,0:0:0:0:
182,192,191989,1,0,0:0:0:0:
475,192,191989,1,0,0:0:0:0:
256,192,192055,1,0,0:0:0:0:
402,192,192055,1,0,0:0:0:0:
329,192,192122,1,0,0:0:0:0:
109,192,192122,1,0,0:0:0:0:
256,192,192189,1,0,0:0:0:0:
182,192,192189,1,0,0:0:0:0:
109,192,192256,1,0,0:0:0:0:
329,192,192256,1,0,0:0:0:0:
36,192,192323,1,0,0:0:0:0:
475,192,192323,1,0,0:0:0:0:
109,192,192390,1,0,0:0:0:0:
256,192,192390,1,0,0:0:0:0:
402,192,192390,1,0,0:0:0:0:
182,192,192390,1,0,0:0:0:0:
329,192,192457,1,0,0:0:0:0:
36,192,192457,1,0,0:0:0:0:
402,192,192524,1,0,0:0:0:0:
256,192,192524,1,0,0:0:0:0:
109,192,192591,1,0,0:0:0:0:
475,192,192591,1,0,0:0:0:0:
256,192,192658,1,0,0:0:0:0:
36,192,192658,1,0,0:0:0:0:
329,192,192725,1,0,0:0:0:0:
182,192,192725,1,0,0:0:0:0:
402,192,192792,1,0,0:0:0:0:
36,192,192792,1,0,0:0:0:0:
475,192,192792,1,0,0:0:0:0:
109,192,192792,1,0,0:0:0:0:
256,192,192859,1,0,0:0:0:0:
182,192,192859,1,0,0:0:0:0:
329,192,192926,1,0,0:0:0:0:
36,192,192926,1,0,0:0:0:0:
109,192,192993,1,0,0:0:0:0:
402,192,192993,1,0,0:0:0:0:
256,192,193060,1,0,0:0:0:0:
475,192,193060,1,0,0:0:0:0:
36,192,193127,1,0,0:0:0:0:
402,192,193127,1,0,0:0:0:0:
329,192,193194,1,0,0:0:0:0:
109,192,193194,1,0,0:0:0:0:
182,192,193261,1,0,0:0:0:0:
256,192,193261,1,0,0:0:0:0:
36,192,193328,1,0,0:0:0:0:
402,192,193328,1,0,0:0:0:0:
475,192,193395,1,0,0:0:0:0:
109,192,193395,1,0,0:0:0:0:
329,192,193462,1,0,0:0:0:0:
36,192,193462,1,0,0:0:0:0:
182,192,193529,1,0,0:0:0:0:
402,192,193529,1,0,0:0:0:0:
256,192,193596,1,0,0:0:0:0:
109,192,193596,1,0,0:0:0:0:
329,192,193663,1,0,0:0:0:0:
36,192,193663,1,0,0:0:0:0:
256,192,193730,1,0,0:0:0:0:
475,192,193730,1,0,0:0:0:0:
402,192,193797,1,0,0:0:0:0:
182,192,193797,1,0,0:0:0:0:
329,192,193864,1,0,0:0:0:0:
109,192,193864,1,0,0:0:0:0:
256,192,193864,1,0,0:0:0:0:
475,192,193864,1,0,0:0:0:0:
36,192,193930,1,0,0:0:0:0:
182,192,193930,1,0,0:0:0:0:
329,192,193997,1,0,0:0:0:0:
475,192,193997,1,0,0:0:0:0:
402,192,194064,1,0,0:0:0:0:
109,192,194064,1,0,0:0:0:0:
36,192,194131,1,0,0:0:0:0:
329,192,194131,1,0,0:0:0:0:
109,192,194198,1,0,0:0:0:0:
256,192,194198,1,0,0:0:0:0:
402,192,194265,1,0,0:0:0:0:
182,192,194265,1,0,0:0:0:0:
329,192,194332,1,0,0:0:0:0:
256,192,194332,1,0,0:0:0:0:
182,192,194399,1,0,0:0:0:0:
402,192,194399,1,0,0:0:0:0:
36,192,194466,1,0,0:0:0:0:
475,192,194466,1,0,0:0:0:0:
109,192,194533,1,0,0:0:0:0:
329,192,194533,1,0,0:0:0:0:
402,192,194533,1,0,0:0:0:0:
256,192,194533,1,0,0:0:0:0:
475,192,194600,1,0,0:0:0:0:
182,192,194600,1,0,0:0:0:0:
256,192,194667,1,0,0:0:0:0:
109,192,194667,1,0,0:0:0:0:
36,192,194734,1,0,0:0:0:0:
402,192,194734,1,0,0:0:0:0:
475,192,194801,1,0,0:0:0:0:
256,192,194801,1,0,0:0:0:0:
329,192,194868,1,0,0:0:0:0:
182,192,194868,1,0,0:0:0:0:
36,192,194935,1,0,0:0:0:0:
402,192,194935,1,0,0:0:0:0:
109,192,194935,1,0,0:0:0:0:
475,192,194935,1,0,0:0:0:0:
329,192,195002,1,0,0:0:0:0:
256,192,195002,1,0,0:0:0:0:
475,192,195069,1,0,0:0:0:0:
182,192,195069,1,0,0:0:0:0:
109,192,195136,1,0,0:0:0:0:
402,192,195136,1,0,0:0:0:0:
36,192,195203,1,0,0:0:0:0:
256,192,195203,1,0,0:0:0:0:
109,192,195270,1,0,0:0:0:0:
475,192,195270,1,0,0:0:0:0:
402,192,195337,1,0,0:0:0:0:
182,192,195337,1,0,0:0:0:0:
256,192,195404,1,0,0:0:0:0:
329,192,195404,1,0,0:0:0:0:
36,192,195471,1,0,0:0:0:0:
475,192,195471,1,0,0:0:0:0:
182,192,195471,1,0,0:0:0:0:
402,192,195471,1,0,0:0:0:0:
109,192,195538,1,0,0:0:0:0:
256,192,195538,1,0,0:0:0:0:
36,192,195605,1,0,0:0:0:0:
329,192,195605,1,0,0:0:0:0:
402,192,195672,1,0,0:0:0:0:
182,192,195672,1,0,0:0:0:0:
109,192,195739,1,0,0:0:0:0:
256,192,195739,1,0,0:0:0:0:
36,192,195805,1,0,0:0:0:0:
329,192,195805,1,0,0:0:0:0:
182,192,195872,1,0,0:0:0:0:
402,192,195872,1,0,0:0:0:0:
109,192,195872,1,0,0:0:0:0:
256,192,195872,1,0,0:0:0:0:
475,192,195872,1,0,0:0:0:0:
36,192,195939,1,0,0:0:0:0:
329,192,195939,1,0,0:0:0:0:
182,192,196006,1,0,0:0:0:0:
475,192,196006,1,0,0:0:0:0:
256,192,196073,1,0,0:0:0:0:
36,192,196073,1,0,0:0:0:0:
475,192,196140,1,0,0:0:0:0:
329,192,196140,1,0,0:0:0:0:
109,192,196207,1,0,0:0:0:0:
402,192,196207,1,0,0:0:0:0:
182,192,196274,1,0,0:0:0:0:
256,192,196274,1,0,0:0:0:0:
36,192,196274,1,0,0:0:0:0:
329,192,196274,1,0,0:0:0:0:
475,192,196341,1,0,0:0:0:0:
109,192,196341,1,0,0:0:0:0:
182,192,196408,1,0,0:0:0:0:
402,192,196408,1,0,0:0:0:0:
256,192,196475,1,0,0:0:0:0:
329,192,196475,1,0,0:0:0:0:
402,192,196542,1,0,0:0:0:0:
182,192,196542,1,0,0:0:0:0:
475,192,196609,1,0,0:0:0:0:
36,192,196609,1,0,0:0:0:0:
402,192,196676,1,0,0:0:0:0:
256,192,196676,1,0,0:0:0:0:
109,192,196676,1,0,0:0:0:0:
329,192,196676,1,0,0:0:0:0:
182,192,196743,1,0,0:0:0:0:
475,192,196743,1,0,0:0:0:0:
109,192,196810,1,0,0:0:0:0:
256,192,196810,1,0,0:0:0:0:
402,192,196877,1,0,0:0:0:0:
36,192,196877,1,0,0:0:0:0:
256,192,196944,1,0,0:0:0:0:
475,192,196944,1,0,0:0:0:0:
182,192,197011,1,0,0:0:0:0:
329,192,197011,1,0,0:0:0:0:
109,192,197078,1,0,0:0:0:0:
475,192,197078,1,0,0:0:0:0:
36,192,197078,1,0,0:0:0:0:
402,192,197078,1,0,0:0:0:0:
256,192,197145,1,0,0:0:0:0:
329,192,197145,1,0,0:0:0:0:
182,192,197212,1,0,0:0:0:0:
402,192,197212,1,0,0:0:0:0:
329,192,197279,1,0,0:0:0:0:
109,192,197279,1,0,0:0:0:0:
475,192,197346,1,0,0:0:0:0:
256,192,197346,1,0,0:0:0:0:
36,192,197346,1,0,0:0:0:0:
182,192,197413,1,0,0:0:0:0:
402,192,197413,1,0,0:0:0:0:
109,192,197413,1,0,0:0:0:0:
329,192,197413,1,0,0:0:0:0:
256,192,197480,1,0,0:0:0:0:
36,192,197480,1,0,0:0:0:0:
475,192,197480,1,0,0:0:0:0:
182,192,197547,1,0,0:0:0:0:
109,192,197547,1,0,0:0:0:0:
329,192,197547,1,0,0:0:0:0:
402,192,197547,1,0,0:0:0:0:
475,192,197614,1,0,0:0:0:0:
256,192,197614,1,0,0:0:0:0:
36,192,197614,1,0,0:0:0:0:
329,192,197747,1,0,0:0:0:0:
109,192,197747,1,0,0:0:0:0:
475,192,197814,1,0,0:0:0:0:
402,192,197814,1,0,0:0:0:0:
182,192,197814,1,0,0:0:0:0:
329,192,197881,1,0,0:0:0:0:
109,192,197881,1,0,0:0:0:0:
36,192,197881,1,0,0:0:0:0:
256,192,197881,1,0,0:0:0:0:
109,192,198015,1,0,0:0:0:0:
182,192,198015,1,0,0:0:0:0:
475,192,198015,1,0,0:0:0:0:
256,192,198082,1,0,0:0:0:0:
36,192,198082,1,0,0:0:0:0:
329,192,198082,1,0,0:0:0:0:
402,192,198149,1,0,0:0:0:0:
182,192,198149,1,0,0:0:0:0:
475,192,198149,1,0,0:0:0:0:
36,192,198283,1,0,0:0:0:0:
256,192,198283,1,0,0:0:0:0:
109,192,198283,1,0,0:0:0:0:
402,192,198417,1,0,0:0:0:0:
182,192,198417,1,0,0:0:0:0:
36,192,198484,1,0,0:0:0:0:
329,192,198484,1,0,0:0:0:0:
256,192,198551,1,0,0:0:0:0:
182,192,198551,1,0,0:0:0:0:
109,192,198551,1,0,0:0:0:0:
329,192,198618,1,0,0:0:0:0:
402,192,198618,1,0,0:0:0:0:
36,192,198685,1,0,0:0:0:0:
329,192,198819,1,0,0:0:0:0:
109,192,198819,1,0,0:0:0:0:
475,192,198886,1,0,0:0:0:0:
402,192,198886,1,0,0:0:0:0:
182,192,198886,1,0,0:0:0:0:
329,192,198953,1,0,0:0:0:0:
109,192,198953,1,0,0:0:0:0:
256,192,198953,1,0,0:0:0:0:
36,192,198953,1,0,0:0:0:0:
182,192,199087,1,0,0:0:0:0:
109,192,199087,1,0,0:0:0:0:
475,192,199087,1,0,0:0:0:0:
36,192,199154,1,0,0:0:0:0:
256,192,199154,1,0,0:0:0:0:
329,192,199154,1,0,0:0:0:0:
182,192,199221,1,0,0:0:0:0:
402,192,199221,1,0,0:0:0:0:
475,192,199221,1,0,0:0:0:0:
329,192,199355,1,0,0:0:0:0:
256,192,199355,1,0,0:0:0:0:
109,192,199355,1,0,0:0:0:0:
36,192,199489,1,0,0:0:0:0:
182,192,199489,1,0,0:0:0:0:
256,192,199555,1,0,0:0:0:0:
329,192,199555,1,0,0:0:0:0:
475,192,199622,1,0,0:0:0:0:
182,192,199622,1,0,0:0:0:0:
109,192,199622,1,0,0:0:0:0:
329,192,199689,1,0,0:0:0:0:
402,192,199689,1,0,0:0:0:0:
182,192,199756,1,0,0:0:0:0:
475,192,199756,1,0,0:0:0:0:
256,192,199756,1,0,0:0:0:0:
109,192,199823,1,0,0:0:0:0:
475,192,199890,1,0,0:0:0:0:
402,192,199890,1,0,0:0:0:0:
36,192,199890,1,0,0:0:0:0:
109,192,199957,1,0,0:0:0:0:
256,192,199957,1,0,0:0:0:0:
329,192,199957,1,0,0:0:0:0:
36,192,200024,1,0,0:0:0:0:
475,192,200024,1,0,0:0:0:0:
182,192,200024,1,0,0:0:0:0:
329,192,200091,1,0,0:0:0:0:
475,192,200158,1,0,0:0:0:0:
109,192,200158,1,0,0:0:0:0:
402,192,200158,1,0,0:0:0:0:
329,192,200225,1,0,0:0:0:0:
256,192,200225,1,0,0:0:0:0:
36,192,200292,1,0,0:0:0:0:
109,192,200292,1,0,0:0:0:0:
182,192,200292,1,0,0:0:0:0:
402,192,200359,1,0,0:0:0:0:
256,192,200426,1,0,0:0:0:0:
329,192,200426,1,0,0:0:0:0:
475,192,200426,1,0,0:0:0:0:
36,192,200493,1,0,0:0:0:0:
182,192,200493,1,0,0:0:0:0:
109,192,200493,1,0,0:0:0:0:
256,192,200560,1,0,0:0:0:0:
475,192,200560,1,0,0:0:0:0:
329,192,200560,1,0,0:0:0:0:
402,192,200627,1,0,0:0:0:0:
475,192,200694,1,0,0:0:0:0:
109,192,200694,1,0,0:0:0:0:
36,192,200694,1,0,0:0:0:0:
256,192,200761,1,0,0:0:0:0:
329,192,200761,1,0,0:0:0:0:
182,192,200761,1,0,0:0:0:0:
109,192,200828,1,0,0:0:0:0:
36,192,200828,1,0,0:0:0:0:
475,192,200828,1,0,0:0:0:0:
402,192,200895,1,0,0:0:0:0:
329,192,200895,1,0,0:0:0:0:
182,192,200895,1,0,0:0:0:0:
475,192,200962,1,0,0:0:0:0:
256,192,200962,1,0,0:0:0:0:
109,192,200962,1,0,0:0:0:0:
36,192,200962,1,0,0:0:0:0:
182,192,201029,1,0,0:0:0:0:
329,192,201029,1,0,0:0:0:0:
36,192,201096,1,0,0:0:0:0:
475,192,201096,1,0,0:0:0:0:
402,192,201096,1,0,0:0:0:0:
329,192,201163,1,0,0:0:0:0:
256,192,201163,1,0,0:0:0:0:
109,192,201163,1,0,0:0:0:0:
182,192,201163,1,0,0:0:0:0:
475,192,201230,1,0,0:0:0:0:
402,192,201230,1,0,0:0:0:0:
36,192,201230,1,0,0:0:0:0:
329,192,201297,1,0,0:0:0:0:
109,192,201297,1,0,0:0:0:0:
182,192,201297,1,0,0:0:0:0:
402,192,201364,1,0,0:0:0:0:
475,192,201364,1,0,0:0:0:0:
36,192,201364,1,0,0:0:0:0:
256,192,201364,1,0,0:0:0:0:
475,192,201497,1,0,0:0:0:0:
402,192,201497,1,0,0:0:0:0:
36,192,201497,1,0,0:0:0:0:
256,192,201497,1,0,0:0:0:0:
329,192,201765,1,0,0:0:0:0:
402,192,201765,1,0,0:0:0:0:
475,192,201765,1,0,0:0:0:0:
256,192,201765,1,0,0:0:0:0:
36,192,201765,1,0,0:0:0:0:
109,192,201765,1,0,0:0:0:0:
182,192,201765,1,0,0:0:0:0:
329,192,202033,1,0,0:0:0:0:
36,192,202033,1,0,0:0:0:0:
109,192,202100,1,0,0:0:0:0:
475,192,202167,1,0,0:0:0:0:
402,192,202167,1,0,0:0:0:0:
182,192,202167,1,0,0:0:0:0:
256,192,202234,1,0,0:0:0:0:
329,192,202301,1,0,0:0:0:0:
109,192,202301,1,0,0:0:0:0:
475,192,202368,1,0,0:0:0:0:
182,192,202368,1,0,0:0:0:0:
36,192,202435,1,0,0:0:0:0:
402,192,202435,1,0,0:0:0:0:
256,192,202435,1,0,0:0:0:0:
329,192,202502,1,0,0:0:0:0:
475,192,202569,1,0,0:0:0:0:
182,192,202569,1,0,0:0:0:0:
36,192,202636,1,0,0:0:0:0:
256,192,202636,1,0,0:0:0:0:
182,192,202703,1,0,0:0:0:0:
109,192,202703,1,0,0:0:0:0:
329,192,202703,1,0,0:0:0:0:
402,192,202770,1,0,0:0:0:0:
36,192,202837,1,0,0:0:0:0:
256,192,202837,1,0,0:0:0:0:
109,192,202904,1,0,0:0:0:0:
329,192,202904,1,0,0:0:0:0:
256,192,202971,1,0,0:0:0:0:
182,192,202971,1,0,0:0:0:0:
402,192,202971,1,0,0:0:0:0:
475,192,203038,1,0,0:0:0:0:
402,192,203105,1,0,0:0:0:0:
36,192,203105,1,0,0:0:0:0:
256,192,203172,1,0,0:0:0:0:
109,192,203172,1,0,0:0:0:0:
329,192,203239,1,0,0:0:0:0:
475,192,203239,1,0,0:0:0:0:
182,192,203239,1,0,0:0:0:0:
256,192,203305,1,0,0:0:0:0:
36,192,203372,1,0,0:0:0:0:
329,192,203372,1,0,0:0:0:0:
109,192,203439,1,0,0:0:0:0:
402,192,203439,1,0,0:0:0:0:
475,192,203506,1,0,0:0:0:0:
182,192,203506,1,0,0:0:0:0:
36,192,203506,1,0,0:0:0:0:
256,192,203506,1,0,0:0:0:0:
329,192,203640,1,0,0:0:0:0:
475,192,203640,1,0,0:0:0:0:
36,192,203640,1,0,0:0:0:0:
256,192,203640,1,0,0:0:0:0:
329,192,203908,1,0,0:0:0:0:
402,192,203908,1,0,0:0:0:0:
475,192,203908,1,0,0:0:0:0:
256,192,203908,1,0,0:0:0:0:
36,192,203908,1,0,0:0:0:0:
109,192,203908,1,0,0:0:0:0:
182,192,203908,1,0,0:0:0:0:
475,192,204176,1,0,0:0:0:0:
109,192,204176,1,0,0:0:0:0:
182,192,204243,1,0,0:0:0:0:
36,192,204310,1,0,0:0:0:0:
402,192,204310,1,0,0:0:0:0:
256,192,204310,1,0,0:0:0:0:
329,192,204377,1,0,0:0:0:0:
475,192,204444,1,0,0:0:0:0:
182,192,204444,1,0,0:0:0:0:
402,192,204511,1,0,0:0:0:0:
256,192,204511,1,0,0:0:0:0:
36,192,204578,1,0,0:0:0:0:
109,192,204578,1,0,0:0:0:0:
329,192,204578,1,0,0:0:0:0:
402,192,204645,1,0,0:0:0:0:
182,192,204712,1,0,0:0:0:0:
256,192,204712,1,0,0:0:0:0:
109,192,204779,1,0,0:0:0:0:
329,192,204779,1,0,0:0:0:0:
182,192,204846,1,0,0:0:0:0:
36,192,204846,1,0,0:0:0:0:
402,192,204846,1,0,0:0:0:0:
475,192,204913,1,0,0:0:0:0:
256,192,204980,1,0,0:0:0:0:
329,192,204980,1,0,0:0:0:0:
109,192,205047,1,0,0:0:0:0:
402,192,205047,1,0,0:0:0:0:
329,192,205114,1,0,0:0:0:0:
182,192,205114,1,0,0:0:0:0:
475,192,205114,1,0,0:0:0:0:
36,192,205180,1,0,0:0:0:0:
109,192,205247,1,0,0:0:0:0:
256,192,205247,1,0,0:0:0:0:
182,192,205314,1,0,0:0:0:0:
329,192,205314,1,0,0:0:0:0:
36,192,205381,1,0,0:0:0:0:
256,192,205381,1,0,0:0:0:0:
402,192,205381,1,0,0:0:0:0:
475,192,205448,1,0,0:0:0:0:
329,192,205515,1,0,0:0:0:0:
109,192,205515,1,0,0:0:0:0:
402,192,205582,1,0,0:0:0:0:
182,192,205582,1,0,0:0:0:0:
475,192,205649,1,0,0:0:0:0:
329,192,205649,1,0,0:0:0:0:
36,192,205649,1,0,0:0:0:0:
256,192,205649,1,0,0:0:0:0:
402,192,205783,1,0,0:0:0:0:
475,192,205783,1,0,0:0:0:0:
36,192,205783,1,0,0:0:0:0:
329,192,205783,1,0,0:0:0:0:
329,192,206051,1,0,0:0:0:0:
402,192,206051,1,0,0:0:0:0:
475,192,206051,1,0,0:0:0:0:
256,192,206051,1,0,0:0:0:0:
36,192,206051,1,0,0:0:0:0:
109,192,206051,1,0,0:0:0:0:
182,192,206051,1,0,0:0:0:0:
402,192,206319,1,0,0:0:0:0:
182,192,206319,1,0,0:0:0:0:
475,192,206386,1,0,0:0:0:0:
256,192,206386,1,0,0:0:0:0:
36,192,206453,1,0,0:0:0:0:
109,192,206453,1,0,0:0:0:0:
329,192,206453,1,0,0:0:0:0:
402,192,206520,1,0,0:0:0:0:
182,192,206587,1,0,0:0:0:0:
256,192,206587,1,0,0:0:0:0:
36,192,206654,1,0,0:0:0:0:
329,192,206654,1,0,0:0:0:0:
256,192,206721,1,0,0:0:0:0:
109,192,206721,1,0,0:0:0:0:
402,192,206721,1,0,0:0:0:0:
475,192,206788,1,0,0:0:0:0:
329,192,206855,1,0,0:0:0:0:
36,192,206855,1,0,0:0:0:0:
402,192,206922,1,0,0:0:0:0:
109,192,206922,1,0,0:0:0:0:
475,192,206989,1,0,0:0:0:0:
329,192,206989,1,0,0:0:0:0:
182,192,206989,1,0,0:0:0:0:
256,192,207055,1,0,0:0:0:0:
402,192,207122,1,0,0:0:0:0:
109,192,207122,1,0,0:0:0:0:
475,192,207189,1,0,0:0:0:0:
182,192,207189,1,0,0:0:0:0:
36,192,207256,1,0,0:0:0:0:
109,192,207256,1,0,0:0:0:0:
256,192,207256,1,0,0:0:0:0:
329,192,207323,1,0,0:0:0:0:
475,192,207390,1,0,0:0:0:0:
182,192,207390,1,0,0:0:0:0:
36,192,207457,1,0,0:0:0:0:
256,192,207457,1,0,0:0:0:0:
182,192,207524,1,0,0:0:0:0:
109,192,207524,1,0,0:0:0:0:
329,192,207524,1,0,0:0:0:0:
402,192,207591,1,0,0:0:0:0:
329,192,207658,1,0,0:0:0:0:
475,192,207658,1,0,0:0:0:0:
256,192,207725,1,0,0:0:0:0:
36,192,207725,1,0,0:0:0:0:
329,192,207792,1,0,0:0:0:0:
475,192,207792,1,0,0:0:0:0:
109,192,207792,1,0,0:0:0:0:
182,192,207792,1,0,0:0:0:0:
109,192,207926,1,0,0:0:0:0:
475,192,207926,1,0,0:0:0:0:
256,192,207926,1,0,0:0:0:0:
402,192,207926,1,0,0:0:0:0:
329,192,208194,1,0,0:0:0:0:
402,192,208194,1,0,0:0:0:0:
475,192,208194,1,0,0:0:0:0:
256,192,208194,1,0,0:0:0:0:
36,192,208194,1,0,0:0:0:0:
109,192,208194,1,0,0:0:0:0:
182,192,208194,1,0,0:0:0:0:
182,192,208462,1,0,0:0:0:0:
256,192,208462,1,0,0:0:0:0:
329,192,208529,1,0,0:0:0:0:
36,192,208596,1,0,0:0:0:0:
109,192,208596,1,0,0:0:0:0:
402,192,208596,1,0,0:0:0:0:
475,192,208663,1,0,0:0:0:0:
182,192,208730,1,0,0:0:0:0:
329,192,208730,1,0,0:0:0:0:
256,192,208797,1,0,0:0:0:0:
402,192,208797,1,0,0:0:0:0:
329,192,208864,1,0,0:0:0:0:
109,192,208864,1,0,0:0:0:0:
475,192,208864,1,0,0:0:0:0:
36,192,208930,1,0,0:0:0:0:
182,192,208997,1,0,0:0:0:0:
402,192,208997,1,0,0:0:0:0:
256,192,209064,1,0,0:0:0:0:
475,192,209064,1,0,0:0:0:0:
402,192,209131,1,0,0:0:0:0:
329,192,209131,1,0,0:0:0:0:
36,192,209131,1,0,0:0:0:0:
109,192,209198,1,0,0:0:0:0:
182,192,209265,1,0,0:0:0:0:
475,192,209265,1,0,0:0:0:0:
256,192,209332,1,0,0:0:0:0:
36,192,209332,1,0,0:0:0:0:
402,192,209399,1,0,0:0:0:0:
329,192,209399,1,0,0:0:0:0:
109,192,209399,1,0,0:0:0:0:
182,192,209466,1,0,0:0:0:0:
256,192,209533,1,0,0:0:0:0:
36,192,209533,1,0,0:0:0:0:
475,192,209600,1,0,0:0:0:0:
109,192,209600,1,0,0:0:0:0:
256,192,209667,1,0,0:0:0:0:
402,192,209667,1,0,0:0:0:0:
182,192,209667,1,0,0:0:0:0:
329,192,209734,1,0,0:0:0:0:
109,192,209801,1,0,0:0:0:0:
402,192,209801,1,0,0:0:0:0:
256,192,209868,1,0,0:0:0:0:
475,192,209868,1,0,0:0:0:0:
329,192,209935,1,0,0:0:0:0:
109,192,209935,1,0,0:0:0:0:
36,192,209935,1,0,0:0:0:0:
182,192,209935,1,0,0:0:0:0:
256,192,210069,1,0,0:0:0:0:
329,192,210069,1,0,0:0:0:0:
36,192,210069,1,0,0:0:0:0:
182,192,210069,1,0,0:0:0:0:
329,192,210337,1,0,0:0:0:0:
402,192,210337,1,0,0:0:0:0:
475,192,210337,1,0,0:0:0:0:
256,192,210337,1,0,0:0:0:0:
36,192,210337,1,0,0:0:0:0:
109,192,210337,1,0,0:0:0:0:
182,192,210337,1,0,0:0:0:0:
36,192,210605,1,0,0:0:0:0:
109,192,210672,1,0,0:0:0:0:
475,192,210739,1,0,0:0:0:0:
329,192,210739,1,0,0:0:0:0:
182,192,210739,1,0,0:0:0:0:
402,192,210739,1,0,0:0:0:0:
256,192,210805,1,0,0:0:0:0:
109,192,210872,1,0,0:0:0:0:
182,192,210939,1,0,0:0:0:0:
475,192,211006,1,0,0:0:0:0:
36,192,211006,1,0,0:0:0:0:
256,192,211006,1,0,0:0:0:0:
402,192,211006,1,0,0:0:0:0:
329,192,211073,1,0,0:0:0:0:
182,192,211140,1,0,0:0:0:0:
256,192,211207,1,0,0:0:0:0:
109,192,211274,1,0,0:0:0:0:
36,192,211274,1,0,0:0:0:0:
329,192,211274,1,0,0:0:0:0:
475,192,211274,1,0,0:0:0:0:
402,192,211341,1,0,0:0:0:0:
256,192,211408,1,0,0:0:0:0:
329,192,211475,1,0,0:0:0:0:
109,192,211542,1,0,0:0:0:0:
36,192,211542,1,0,0:0:0:0:
402,192,211542,1,0,0:0:0:0:
182,192,211542,1,0,0:0:0:0:
475,192,211609,1,0,0:0:0:0:
36,192,211676,1,0,0:0:0:0:
109,192,211743,1,0,0:0:0:0:
475,192,211810,1,0,0:0:0:0:
329,192,211810,1,0,0:0:0:0:
182,192,211810,1,0,0:0:0:0:
402,192,211810,1,0,0:0:0:0:
256,192,211877,1,0,0:0:0:0:
329,192,211944,1,0,0:0:0:0:
402,192,212011,1,0,0:0:0:0:
182,192,212078,1,0,0:0:0:0:
329,192,212078,1,0,0:0:0:0:
256,192,212078,1,0,0:0:0:0:
109,192,212078,1,0,0:0:0:0:
36,192,212145,1,0,0:0:0:0:
109,192,212212,1,0,0:0:0:0:
182,192,212279,1,0,0:0:0:0:
475,192,212346,1,0,0:0:0:0:
36,192,212346,1,0,0:0:0:0:
256,192,212346,1,0,0:0:0:0:
402,192,212346,1,0,0:0:0:0:
329,192,212413,1,0,0:0:0:0:
402,192,212480,1,0,0:0:0:0:
475,192,212547,1,0,0:0:0:0:
182,192,212614,1,0,0:0:0:0:
109,192,212614,1,0,0:0:0:0:
256,192,212614,1,0,0:0:0:0:
329,192,212614,1,0,0:0:0:0:
36,192,212680,1,0,0:0:0:0:
109,192,212747,1,0,0:0:0:0:
182,192,212814,1,0,0:0:0:0:
475,192,212881,1,0,0:0:0:0:
36,192,212881,1,0,0:0:0:0:
256,192,212881,1,0,0:0:0:0:
402,192,212881,1,0,0:0:0:0:
329,192,212948,1,0,0:0:0:0:
402,192,213015,1,0,0:0:0:0:
475,192,213082,1,0,0:0:0:0:
182,192,213149,1,0,0:0:0:0:
109,192,213149,1,0,0:0:0:0:
256,192,213149,1,0,0:0:0:0:
329,192,213149,1,0,0:0:0:0:
36,192,213216,1,0,0:0:0:0:
109,192,213283,1,0,0:0:0:0:
182,192,213350,1,0,0:0:0:0:
402,192,213417,1,0,0:0:0:0:
36,192,213417,1,0,0:0:0:0:
256,192,213417,1,0,0:0:0:0:
475,192,213417,1,0,0:0:0:0:
329,192,213484,1,0,0:0:0:0:
402,192,213551,1,0,0:0:0:0:
475,192,213618,1,0,0:0:0:0:
182,192,213685,1,0,0:0:0:0:
109,192,213685,1,0,0:0:0:0:
256,192,213685,1,0,0:0:0:0:
329,192,213685,1,0,0:0:0:0:
36,192,213752,1,0,0:0:0:0:
109,192,213819,1,0,0:0:0:0:
182,192,213886,1,0,0:0:0:0:
475,192,213953,1,0,0:0:0:0:
36,192,213953,1,0,0:0:0:0:
256,192,213953,1,0,0:0:0:0:
402,192,213953,1,0,0:0:0:0:
329,192,214020,1,0,0:0:0:0:
402,192,214087,1,0,0:0:0:0:
475,192,214154,1,0,0:0:0:0:
182,192,214221,1,0,0:0:0:0:
109,192,214221,1,0,0:0:0:0:
256,192,214221,1,0,0:0:0:0:
329,192,214221,1,0,0:0:0:0:
36,192,214288,1,0,0:0:0:0:
109,192,214355,1,0,0:0:0:0:
182,192,214422,1,0,0:0:0:0:
475,192,214489,1,0,0:0:0:0:
36,192,214489,1,0,0:0:0:0:
256,192,214489,1,0,0:0:0:0:
402,192,214489,1,0,0:0:0:0:
329,192,214555,1,0,0:0:0:0:
402,192,214622,1,0,0:0:0:0:
475,192,214689,1,0,0:0:0:0:
329,192,214756,1,0,0:0:0:0:
256,192,214756,1,0,0:0:0:0:
36,192,214756,1,0,0:0:0:0:
109,192,214823,1,0,0:0:0:0:
402,192,214890,1,0,0:0:0:0:
329,192,214890,1,0,0:0:0:0:
182,192,214890,1,0,0:0:0:0:
109,192,214957,1,0,0:0:0:0:
36,192,215024,1,0,0:0:0:0:
256,192,215024,1,0,0:0:0:0:
475,192,215024,1,0,0:0:0:0:
402,192,215091,1,0,0:0:0:0:
109,192,215158,1,0,0:0:0:0:
182,192,215158,1,0,0:0:0:0:
329,192,215158,1,0,0:0:0:0:
402,192,215225,1,0,0:0:0:0:
475,192,215292,1,0,0:0:0:0:
256,192,215292,1,0,0:0:0:0:
36,192,215292,1,0,0:0:0:0:
182,192,215359,1,0,0:0:0:0:
402,192,215426,1,0,0:0:0:0:
109,192,215426,1,0,0:0:0:0:
329,192,215426,1,0,0:0:0:0:
182,192,215493,1,0,0:0:0:0:
36,192,215560,1,0,0:0:0:0:
256,192,215560,1,0,0:0:0:0:
475,192,215560,1,0,0:0:0:0:
329,192,215627,1,0,0:0:0:0:
402,192,215694,1,0,0:0:0:0:
109,192,215694,1,0,0:0:0:0:
182,192,215694,1,0,0:0:0:0:
329,192,215761,1,0,0:0:0:0:
36,192,215828,1,0,0:0:0:0:
182,192,215828,1,0,0:0:0:0:
256,192,215828,1,0,0:0:0:0:
402,192,215895,1,0,0:0:0:0:
109,192,215962,1,0,0:0:0:0:
256,192,215962,1,0,0:0:0:0:
475,192,215962,1,0,0:0:0:0:
402,192,216029,1,0,0:0:0:0:
475,192,216096,1,0,0:0:0:0:
182,192,216096,1,0,0:0:0:0:
329,192,216096,1,0,0:0:0:0:
109,192,216163,1,0,0:0:0:0:
256,192,216230,1,0,0:0:0:0:
329,192,216230,1,0,0:0:0:0:
36,192,216230,1,0,0:0:0:0:
109,192,216297,1,0,0:0:0:0:
402,192,216364,1,0,0:0:0:0:
329,192,216364,1,0,0:0:0:0:
182,192,216364,1,0,0:0:0:0:
36,192,216430,1,0,0:0:0:0:
475,192,216497,1,0,0:0:0:0:
402,192,216497,1,0,0:0:0:0:
109,192,216497,1,0,0:0:0:0:
36,192,216564,1,0,0:0:0:0:
256,192,216631,1,0,0:0:0:0:
182,192,216631,1,0,0:0:0:0:
329,192,216631,1,0,0:0:0:0:
475,192,216698,1,0,0:0:0:0:
256,192,216765,1,0,0:0:0:0:
36,192,216765,1,0,0:0:0:0:
402,192,216765,1,0,0:0:0:0:
475,192,216832,1,0,0:0:0:0:
109,192,216899,1,0,0:0:0:0:
256,192,216899,1,0,0:0:0:0:
182,192,216899,1,0,0:0:0:0:
475,192,216966,1,0,0:0:0:0:
402,192,216966,1,0,0:0:0:0:
329,192,216966,1,0,0:0:0:0:
182,192,217033,1,0,0:0:0:0:
109,192,217033,1,0,0:0:0:0:
36,192,217033,1,0,0:0:0:0:
402,192,217100,1,0,0:0:0:0:
329,192,217100,1,0,0:0:0:0:
256,192,217100,1,0,0:0:0:0:
475,192,217167,1,0,0:0:0:0:
109,192,217167,1,0,0:0:0:0:
36,192,217167,1,0,0:0:0:0:
329,192,217234,1,0,0:0:0:0:
256,192,217234,1,0,0:0:0:0:
182,192,217234,1,0,0:0:0:0:
475,192,217301,1,0,0:0:0:0:
402,192,217301,1,0,0:0:0:0:
36,192,217301,1,0,0:0:0:0:
256,192,217368,1,0,0:0:0:0:
182,192,217368,1,0,0:0:0:0:
109,192,217368,1,0,0:0:0:0:
475,192,217435,1,0,0:0:0:0:
402,192,217435,1,0,0:0:0:0:
329,192,217435,1,0,0:0:0:0:
182,192,217502,1,0,0:0:0:0:
109,192,217502,1,0,0:0:0:0:
36,192,217502,1,0,0:0:0:0:
402,192,217569,1,0,0:0:0:0:
329,192,217569,1,0,0:0:0:0:
256,192,217569,1,0,0:0:0:0:
36,192,217636,1,0,0:0:0:0:
109,192,217636,1,0,0:0:0:0:
475,192,217636,1,0,0:0:0:0:
329,192,217703,1,0,0:0:0:0:
256,192,217703,1,0,0:0:0:0:
182,192,217703,1,0,0:0:0:0:
36,192,217770,1,0,0:0:0:0:
475,192,217770,1,0,0:0:0:0:
402,192,217770,1,0,0:0:0:0:
256,192,217837,1,0,0:0:0:0:
182,192,217837,1,0,0:0:0:0:
109,192,217837,1,0,0:0:0:0:
475,192,217904,1,0,0:0:0:0:
402,192,217904,1,0,0:0:0:0:
329,192,217904,1,0,0:0:0:0:
109,192,217971,1,0,0:0:0:0:
256,192,217971,1,0,0:0:0:0:
36,192,217971,1,0,0:0:0:0:
182,192,217971,1,0,0:0:0:0:
475,192,218038,1,0,0:0:0:0:
402,192,218038,1,0,0:0:0:0:
329,192,218038,1,0,0:0:0:0:
182,192,218105,1,0,0:0:0:0:
109,192,218105,1,0,0:0:0:0:
36,192,218105,1,0,0:0:0:0:
402,192,218172,1,0,0:0:0:0:
329,192,218172,1,0,0:0:0:0:
256,192,218172,1,0,0:0:0:0:
182,192,218239,1,0,0:0:0:0:
109,192,218239,1,0,0:0:0:0:
36,192,218239,1,0,0:0:0:0:
475,192,218305,1,0,0:0:0:0:
402,192,218305,1,0,0:0:0:0:
329,192,218305,1,0,0:0:0:0:
182,192,218372,1,0,0:0:0:0:
109,192,218372,1,0,0:0:0:0:
36,192,218372,1,0,0:0:0:0:
402,192,218439,1,0,0:0:0:0:
329,192,218439,1,0,0:0:0:0:
256,192,218439,1,0,0:0:0:0:
475,192,218506,1,0,0:0:0:0:
36,192,218506,1,0,0:0:0:0:
182,192,218506,1,0,0:0:0:0:
109,192,218506,1,0,0:0:0:0:
109,192,219578,1,0,0:0:0:0:
182,192,219622,128,0,219846:0:0:0:0:
256,192,219846,128,0,220114:0:0:0:0:
36,192,220114,1,0,0:0:0:0:
329,192,220114,128,0,220917:0:0:0:0:
109,192,220247,1,0,0:0:0:0:
182,192,220381,1,0,0:0:0:0:
256,192,220515,1,0,0:0:0:0:
402,192,220649,1,0,0:0:0:0:
36,192,220783,1,0,0:0:0:0:
182,192,220917,1,0,0:0:0:0:
475,192,220917,128,0,220984:0:0:0:0:
36,192,221051,1,0,0:0:0:0:
475,192,221051,128,0,221855:0:0:0:0:
109,192,221185,1,0,0:0:0:0:
182,192,221319,1,0,0:0:0:0:
256,192,221453,1,0,0:0:0:0:
329,192,221587,1,0,0:0:0:0:
402,192,221721,1,0,0:0:0:0:
329,192,221855,1,0,0:0:0:0:
36,192,221855,128,0,221989:0:0:0:0:
256,192,221989,1,0,0:0:0:0:
182,192,221989,128,0,222122:0:0:0:0:
36,192,222122,1,0,0:0:0:0:
329,192,222122,128,0,222256:0:0:0:0:
109,192,222256,1,0,0:0:0:0:
475,192,222256,128,0,222524:0:0:0:0:
182,192,222390,1,0,0:0:0:0:
256,192,222524,1,0,0:0:0:0:
402,192,222524,1,0,0:0:0:0:
402,192,222591,1,0,0:0:0:0:
36,192,222658,1,0,0:0:0:0:
329,192,222658,1,0,0:0:0:0:
256,192,222725,128,0,222926:0:0:0:0:
402,192,222792,1,0,0:0:0:0:
329,192,222926,1,0,0:0:0:0:
109,192,222926,128,0,223060:0:0:0:0:
256,192,223060,1,0,0:0:0:0:
475,192,223060,128,0,223194:0:0:0:0:
36,192,223194,1,0,0:0:0:0:
329,192,223194,128,0,223462:0:0:0:0:
182,192,223328,1,0,0:0:0:0:
256,192,223462,1,0,0:0:0:0:
36,192,223462,128,0,223596:0:0:0:0:
329,192,223596,1,0,0:0:0:0:
109,192,223596,128,0,223730:0:0:0:0:
402,192,223730,1,0,0:0:0:0:
182,192,223730,128,0,223864:0:0:0:0:
36,192,223864,1,0,0:0:0:0:
256,192,223864,128,0,224399:0:0:0:0:
109,192,223997,1,0,0:0:0:0:
182,192,224131,1,0,0:0:0:0:
402,192,224265,1,0,0:0:0:0:
109,192,224399,1,0,0:0:0:0:
329,192,224399,128,0,225203:0:0:0:0:
182,192,224533,1,0,0:0:0:0:
256,192,224667,1,0,0:0:0:0:
402,192,224801,1,0,0:0:0:0:
475,192,224935,1,0,0:0:0:0:
402,192,225069,1,0,0:0:0:0:
256,192,225203,1,0,0:0:0:0:
475,192,225203,128,0,225270:0:0:0:0:
36,192,225337,1,0,0:0:0:0:
475,192,225337,128,0,226140:0:0:0:0:
109,192,225471,1,0,0:0:0:0:
182,192,225605,1,0,0:0:0:0:
256,192,225739,1,0,0:0:0:0:
329,192,225872,1,0,0:0:0:0:
256,192,226006,1,0,0:0:0:0:
109,192,226140,1,0,0:0:0:0:
182,192,226140,128,0,226274:0:0:0:0:
36,192,226274,1,0,0:0:0:0:
402,192,226274,128,0,226408:0:0:0:0:
182,192,226408,1,0,0:0:0:0:
329,192,226408,128,0,226542:0:0:0:0:
256,192,226542,1,0,0:0:0:0:
402,192,226542,128,0,226810:0:0:0:0:
329,192,226676,1,0,0:0:0:0:
475,192,226810,1,0,0:0:0:0:
256,192,226810,128,0,226944:0:0:0:0:
36,192,226944,1,0,0:0:0:0:
329,192,226944,128,0,227212:0:0:0:0:
182,192,227078,1,0,0:0:0:0:
402,192,227212,1,0,0:0:0:0:
109,192,227212,128,0,227346:0:0:0:0:
475,192,227346,1,0,0:0:0:0:
256,192,227346,128,0,227480:0:0:0:0:
109,192,227480,1,0,0:0:0:0:
36,192,227480,128,0,228149:0:0:0:0:
182,192,227614,1,0,0:0:0:0:
256,192,227747,1,0,0:0:0:0:
329,192,227881,1,0,0:0:0:0:
402,192,228015,1,0,0:0:0:0:
109,192,228685,1,0,0:0:0:0:
36,192,228685,1,0,0:0:0:0:
182,192,228685,1,0,0:0:0:0:
329,192,228685,128,0,229489:0:0:0:0:
402,192,228685,1,0,0:0:0:0:
36,192,229221,1,0,0:0:0:0:
109,192,229254,1,0,0:0:0:0:
182,192,229288,1,0,0:0:0:0:
256,192,229321,1,0,0:0:0:0:
36,192,229355,1,0,0:0:0:0:
182,192,229489,1,0,0:0:0:0:
475,192,229489,128,0,229555:0:0:0:0:
109,192,229622,1,0,0:0:0:0:
182,192,229622,1,0,0:0:0:0:
402,192,229622,1,0,0:0:0:0:
475,192,229622,128,0,230426:0:0:0:0:
109,192,230158,1,0,0:0:0:0:
109,192,230426,1,0,0:0:0:0:
36,192,230426,128,0,230560:0:0:0:0:
182,192,230560,128,0,230694:0:0:0:0:
256,192,230560,1,0,0:0:0:0:
402,192,230560,1,0,0:0:0:0:
109,192,230694,1,0,0:0:0:0:
329,192,230694,128,0,230828:0:0:0:0:
475,192,230828,128,0,231096:0:0:0:0:
36,192,230828,1,0,0:0:0:0:
109,192,230828,1,0,0:0:0:0:
256,192,230828,1,0,0:0:0:0:
402,192,231096,1,0,0:0:0:0:
402,192,231163,1,0,0:0:0:0:
329,192,231230,1,0,0:0:0:0:
36,192,231230,1,0,0:0:0:0:
256,192,231297,128,0,231497:0:0:0:0:
109,192,231297,1,0,0:0:0:0:
402,192,231364,1,0,0:0:0:0:
475,192,231364,1,0,0:0:0:0:
182,192,231364,1,0,0:0:0:0:
109,192,231497,128,0,231631:0:0:0:0:
329,192,231497,1,0,0:0:0:0:
475,192,231631,128,0,231765:0:0:0:0:
182,192,231765,1,0,0:0:0:0:
256,192,231765,1,0,0:0:0:0:
329,192,231765,128,0,232033:0:0:0:0:
36,192,231765,1,0,0:0:0:0:
36,192,232033,128,0,232167:0:0:0:0:
109,192,232167,128,0,232301:0:0:0:0:
475,192,232167,1,0,0:0:0:0:
182,192,232167,1,0,0:0:0:0:
256,192,232234,1,0,0:0:0:0:
475,192,232301,1,0,0:0:0:0:
329,192,232301,1,0,0:0:0:0:
182,192,232301,128,0,232435:0:0:0:0:
402,192,232368,1,0,0:0:0:0:
329,192,232435,1,0,0:0:0:0:
256,192,232435,128,0,232971:0:0:0:0:
36,192,232435,1,0,0:0:0:0:
109,192,232502,1,0,0:0:0:0:
475,192,232569,1,0,0:0:0:0:
182,192,232569,1,0,0:0:0:0:
329,192,232636,1,0,0:0:0:0:
109,192,232703,1,0,0:0:0:0:
182,192,232770,1,0,0:0:0:0:
329,192,232837,1,0,0:0:0:0:
475,192,232837,1,0,0:0:0:0:
36,192,232837,1,0,0:0:0:0:
402,192,232904,1,0,0:0:0:0:
182,192,232904,1,0,0:0:0:0:
109,192,232904,1,0,0:0:0:0:
475,192,232971,1,0,0:0:0:0:
329,192,232971,128,0,234712:0:0:0:0:
36,192,233038,1,0,0:0:0:0:
109,192,233105,1,0,0:0:0:0:
182,192,233172,1,0,0:0:0:0:
402,192,233239,1,0,0:0:0:0:
256,192,233239,1,0,0:0:0:0:
475,192,233239,1,0,0:0:0:0:
36,192,233305,1,0,0:0:0:0:
109,192,233372,1,0,0:0:0:0:
182,192,233439,1,0,0:0:0:0:
475,192,233506,1,0,0:0:0:0:
256,192,233506,1,0,0:0:0:0:
402,192,233506,1,0,0:0:0:0:
109,192,233573,1,0,0:0:0:0:
256,192,233640,1,0,0:0:0:0:
36,192,233707,1,0,0:0:0:0:
475,192,233774,1,0,0:0:0:0:
182,192,233774,1,0,0:0:0:0:
402,192,233774,1,0,0:0:0:0:
109,192,233841,1,0,0:0:0:0:
256,192,233908,1,0,0:0:0:0:
36,192,233975,1,0,0:0:0:0:
402,192,234042,1,0,0:0:0:0:
182,192,234042,1,0,0:0:0:0:
475,192,234042,1,0,0:0:0:0:
109,192,234109,1,0,0:0:0:0:
402,192,234176,1,0,0:0:0:0:
182,192,234243,1,0,0:0:0:0:
256,192,234310,1,0,0:0:0:0:
36,192,234310,1,0,0:0:0:0:
475,192,234310,1,0,0:0:0:0:
109,192,234377,1,0,0:0:0:0:
402,192,234444,1,0,0:0:0:0:
182,192,234511,1,0,0:0:0:0:
256,192,234578,1,0,0:0:0:0:
36,192,234578,1,0,0:0:0:0:
475,192,234578,1,0,0:0:0:0:
402,192,234645,1,0,0:0:0:0:
256,192,234712,1,0,0:0:0:0:
36,192,234712,128,0,234846:0:0:0:0:
402,192,234846,1,0,0:0:0:0:
329,192,234846,1,0,0:0:0:0:
475,192,234846,1,0,0:0:0:0:
182,192,234846,128,0,234980:0:0:0:0:
109,192,234846,1,0,0:0:0:0:
256,192,234913,1,0,0:0:0:0:
109,192,234980,1,0,0:0:0:0:
329,192,234980,128,0,235114:0:0:0:0:
36,192,235047,1,0,0:0:0:0:
182,192,235114,1,0,0:0:0:0:
256,192,235114,1,0,0:0:0:0:
475,192,235114,128,0,236721:0:0:0:0:
402,192,235180,1,0,0:0:0:0:
329,192,235180,1,0,0:0:0:0:
182,192,235247,1,0,0:0:0:0:
109,192,235247,1,0,0:0:0:0:
329,192,235314,1,0,0:0:0:0:
256,192,235314,1,0,0:0:0:0:
109,192,235381,1,0,0:0:0:0:
36,192,235381,1,0,0:0:0:0:
256,192,235448,1,0,0:0:0:0:
182,192,235448,1,0,0:0:0:0:
402,192,235515,1,0,0:0:0:0:
329,192,235515,1,0,0:0:0:0:
256,192,235582,1,0,0:0:0:0:
182,192,235582,1,0,0:0:0:0:
36,192,235649,1,0,0:0:0:0:
109,192,235649,1,0,0:0:0:0:
329,192,235716,1,0,0:0:0:0:
256,192,235716,1,0,0:0:0:0:
109,192,235783,1,0,0:0:0:0:
182,192,235783,1,0,0:0:0:0:
402,192,235850,1,0,0:0:0:0:
329,192,235850,1,0,0:0:0:0:
182,192,235917,1,0,0:0:0:0:
256,192,235917,1,0,0:0:0:0:
36,192,235984,1,0,0:0:0:0:
109,192,235984,1,0,0:0:0:0:
256,192,236051,1,0,0:0:0:0:
182,192,236051,1,0,0:0:0:0:
402,192,236118,1,0,0:0:0:0:
329,192,236118,1,0,0:0:0:0:
182,192,236185,1,0,0:0:0:0:
109,192,236185,1,0,0:0:0:0:
329,192,236252,1,0,0:0:0:0:
256,192,236252,1,0,0:0:0:0:
109,192,236319,1,0,0:0:0:0:
36,192,236319,1,0,0:0:0:0:
256,192,236386,1,0,0:0:0:0:
182,192,236386,1,0,0:0:0:0:
402,192,236453,1,0,0:0:0:0:
329,192,236453,1,0,0:0:0:0:
256,192,236520,1,0,0:0:0:0:
182,192,236520,1,0,0:0:0:0:
36,192,236587,1,0,0:0:0:0:
109,192,236587,1,0,0:0:0:0:
329,192,236654,1,0,0:0:0:0:
256,192,236654,1,0,0:0:0:0:
182,192,236721,1,0,0:0:0:0:
402,192,236721,1,0,0:0:0:0:
36,192,236721,1,0,0:0:0:0:
109,192,236721,1,0,0:0:0:0:
36,192,236989,128,0,237122:0:0:0:0:
256,192,237122,128,0,237256:0:0:0:0:
475,192,237256,1,0,0:0:0:0:
402,192,237256,1,0,0:0:0:0:
36,192,237256,1,0,0:0:0:0:
182,192,237323,1,0,0:0:0:0:
256,192,237390,1,0,0:0:0:0:
329,192,237390,1,0,0:0:0:0:
109,192,237457,1,0,0:0:0:0:
475,192,237457,1,0,0:0:0:0:
182,192,237524,1,0,0:0:0:0:
36,192,237524,1,0,0:0:0:0:
402,192,237524,1,0,0:0:0:0:
256,192,237591,1,0,0:0:0:0:
109,192,237658,1,0,0:0:0:0:
329,192,237658,1,0,0:0:0:0:
182,192,237725,1,0,0:0:0:0:
402,192,237792,1,0,0:0:0:0:
36,192,237792,1,0,0:0:0:0:
475,192,237859,1,0,0:0:0:0:
256,192,237859,1,0,0:0:0:0:
182,192,237859,1,0,0:0:0:0:
109,192,237926,1,0,0:0:0:0:
329,192,237926,1,0,0:0:0:0:
36,192,237993,1,0,0:0:0:0:
475,192,237993,1,0,0:0:0:0:
109,192,238060,1,0,0:0:0:0:
329,192,238060,1,0,0:0:0:0:
402,192,238060,1,0,0:0:0:0:
182,192,238060,1,0,0:0:0:0:
256,192,238127,1,0,0:0:0:0:
402,192,238194,1,0,0:0:0:0:
475,192,238194,1,0,0:0:0:0:
36,192,238194,1,0,0:0:0:0:
256,192,238261,1,0,0:0:0:0:
182,192,238261,1,0,0:0:0:0:
36,192,238328,1,0,0:0:0:0:
329,192,238328,1,0,0:0:0:0:
182,192,238395,1,0,0:0:0:0:
329,192,238462,1,0,0:0:0:0:
256,192,238462,1,0,0:0:0:0:
109,192,238529,1,0,0:0:0:0:
475,192,238529,1,0,0:0:0:0:
36,192,238596,1,0,0:0:0:0:
402,192,238596,1,0,0:0:0:0:
182,192,238596,1,0,0:0:0:0:
256,192,238663,1,0,0:0:0:0:
329,192,238730,1,0,0:0:0:0:
182,192,238797,1,0,0:0:0:0:
475,192,238864,1,0,0:0:0:0:
402,192,238864,1,0,0:0:0:0:
36,192,238864,1,0,0:0:0:0:
329,192,238930,1,0,0:0:0:0:
182,192,238930,1,0,0:0:0:0:
256,192,238930,1,0,0:0:0:0:
475,192,238997,1,0,0:0:0:0:
402,192,238997,1,0,0:0:0:0:
109,192,238997,1,0,0:0:0:0:
329,192,239064,1,0,0:0:0:0:
182,192,239064,1,0,0:0:0:0:
256,192,239064,1,0,0:0:0:0:
402,192,239131,1,0,0:0:0:0:
36,192,239131,1,0,0:0:0:0:
109,192,239131,1,0,0:0:0:0:
329,192,239198,1,0,0:0:0:0:
36,192,239265,1,0,0:0:0:0:
182,192,239265,1,0,0:0:0:0:
475,192,239265,1,0,0:0:0:0:
256,192,239332,1,0,0:0:0:0:
109,192,239332,1,0,0:0:0:0:
329,192,239399,1,0,0:0:0:0:
182,192,239399,1,0,0:0:0:0:
475,192,239399,1,0,0:0:0:0:
402,192,239466,1,0,0:0:0:0:
36,192,239533,1,0,0:0:0:0:
329,192,239533,1,0,0:0:0:0:
109,192,239600,1,0,0:0:0:0:
256,192,239600,1,0,0:0:0:0:
402,192,239667,1,0,0:0:0:0:
36,192,239667,1,0,0:0:0:0:
182,192,239667,1,0,0:0:0:0:
475,192,239667,1,0,0:0:0:0:
256,192,239734,1,0,0:0:0:0:
475,192,239801,1,0,0:0:0:0:
109,192,239801,1,0,0:0:0:0:
329,192,239801,1,0,0:0:0:0:
182,192,239868,1,0,0:0:0:0:
402,192,239868,1,0,0:0:0:0:
256,192,239935,1,0,0:0:0:0:
36,192,239935,1,0,0:0:0:0:
329,192,240002,1,0,0:0:0:0:
109,192,240002,1,0,0:0:0:0:
36,192,240069,1,0,0:0:0:0:
475,192,240069,1,0,0:0:0:0:
182,192,240069,1,0,0:0:0:0:
402,192,240136,1,0,0:0:0:0:
256,192,240136,1,0,0:0:0:0:
182,192,240203,1,0,0:0:0:0:
109,192,240203,1,0,0:0:0:0:
329,192,240203,1,0,0:0:0:0:
256,192,240270,1,0,0:0:0:0:
329,192,240337,1,0,0:0:0:0:
402,192,240337,1,0,0:0:0:0:
182,192,240404,1,0,0:0:0:0:
109,192,240404,1,0,0:0:0:0:
475,192,240471,1,0,0:0:0:0:
36,192,240471,1,0,0:0:0:0:
402,192,240538,1,0,0:0:0:0:
36,192,240605,1,0,0:0:0:0:
329,192,240605,1,0,0:0:0:0:
256,192,240672,1,0,0:0:0:0:
109,192,240672,1,0,0:0:0:0:
475,192,240739,1,0,0:0:0:0:
402,192,240739,1,0,0:0:0:0:
182,192,240739,1,0,0:0:0:0:
256,192,240805,1,0,0:0:0:0:
109,192,240872,1,0,0:0:0:0:
329,192,240872,1,0,0:0:0:0:
182,192,240939,1,0,0:0:0:0:
402,192,240939,1,0,0:0:0:0:
475,192,241006,1,0,0:0:0:0:
256,192,241006,1,0,0:0:0:0:
36,192,241006,1,0,0:0:0:0:
402,192,241073,1,0,0:0:0:0:
329,192,241073,1,0,0:0:0:0:
109,192,241073,1,0,0:0:0:0:
36,192,241140,1,0,0:0:0:0:
475,192,241140,1,0,0:0:0:0:
182,192,241140,1,0,0:0:0:0:
109,192,241207,1,0,0:0:0:0:
402,192,241207,1,0,0:0:0:0:
256,192,241207,1,0,0:0:0:0:
329,192,241274,1,0,0:0:0:0:
475,192,241274,1,0,0:0:0:0:
182,192,241274,1,0,0:0:0:0:
36,192,241274,1,0,0:0:0:0:
256,192,241341,1,0,0:0:0:0:
402,192,241408,1,0,0:0:0:0:
182,192,241408,1,0,0:0:0:0:
329,192,241475,1,0,0:0:0:0:
109,192,241475,1,0,0:0:0:0:
36,192,241542,1,0,0:0:0:0:
475,192,241542,1,0,0:0:0:0:
182,192,241542,1,0,0:0:0:0:
256,192,241542,1,0,0:0:0:0:
256,192,241810,1,0,0:0:0:0:
329,192,241810,1,0,0:0:0:0:
182,192,241810,1,0,0:0:0:0:
402,192,241877,1,0,0:0:0:0:
109,192,241877,1,0,0:0:0:0:
475,192,241944,1,0,0:0:0:0:
256,192,241944,1,0,0:0:0:0:
329,192,241944,1,0,0:0:0:0:
182,192,241944,1,0,0:0:0:0:
36,192,241944,1,0,0:0:0:0:
475,192,242212,1,0,0:0:0:0:
36,192,242212,1,0,0:0:0:0:
402,192,242245,1,0,0:0:0:0:
109,192,242245,1,0,0:0:0:0:
329,192,242279,1,0,0:0:0:0:
182,192,242279,1,0,0:0:0:0:
256,192,242312,1,0,0:0:0:0:
402,192,242346,1,0,0:0:0:0:
475,192,242346,1,0,0:0:0:0:
109,192,242346,1,0,0:0:0:0:
36,192,242346,1,0,0:0:0:0:
329,192,242413,1,0,0:0:0:0:
109,192,242480,1,0,0:0:0:0:
256,192,242480,1,0,0:0:0:0:
182,192,242547,1,0,0:0:0:0:
475,192,242614,1,0,0:0:0:0:
36,192,242614,1,0,0:0:0:0:
109,192,242680,1,0,0:0:0:0:
329,192,242747,1,0,0:0:0:0:
182,192,242747,1,0,0:0:0:0:
475,192,242814,1,0,0:0:0:0:
256,192,242814,1,0,0:0:0:0:
36,192,242881,1,0,0:0:0:0:
109,192,242881,1,0,0:0:0:0:
402,192,242881,1,0,0:0:0:0:
329,192,242948,1,0,0:0:0:0:
475,192,243015,1,0,0:0:0:0:
256,192,243015,1,0,0:0:0:0:
402,192,243082,1,0,0:0:0:0:
182,192,243082,1,0,0:0:0:0:
475,192,243149,1,0,0:0:0:0:
329,192,243149,1,0,0:0:0:0:
36,192,243149,1,0,0:0:0:0:
256,192,243216,1,0,0:0:0:0:
402,192,243216,1,0,0:0:0:0:
109,192,243216,1,0,0:0:0:0:
329,192,243283,1,0,0:0:0:0:
475,192,243283,1,0,0:0:0:0:
182,192,243283,1,0,0:0:0:0:
109,192,243350,1,0,0:0:0:0:
36,192,243350,1,0,0:0:0:0:
256,192,243350,1,0,0:0:0:0:
182,192,243417,1,0,0:0:0:0:
475,192,243417,1,0,0:0:0:0:
402,192,243417,1,0,0:0:0:0:
329,192,243484,1,0,0:0:0:0:
109,192,243551,1,0,0:0:0:0:
36,192,243551,1,0,0:0:0:0:
256,192,243551,1,0,0:0:0:0:
329,192,243618,1,0,0:0:0:0:
182,192,243618,1,0,0:0:0:0:
402,192,243685,1,0,0:0:0:0:
475,192,243685,1,0,0:0:0:0:
109,192,243685,1,0,0:0:0:0:
256,192,243752,1,0,0:0:0:0:
36,192,243819,1,0,0:0:0:0:
182,192,243819,1,0,0:0:0:0:
109,192,243886,1,0,0:0:0:0:
329,192,243886,1,0,0:0:0:0:
256,192,243953,1,0,0:0:0:0:
182,192,243953,1,0,0:0:0:0:
475,192,243953,1,0,0:0:0:0:
402,192,244020,1,0,0:0:0:0:
109,192,244087,1,0,0:0:0:0:
36,192,244087,1,0,0:0:0:0:
256,192,244087,1,0,0:0:0:0:
182,192,244154,1,0,0:0:0:0:
329,192,244154,1,0,0:0:0:0:
475,192,244221,1,0,0:0:0:0:
109,192,244221,1,0,0:0:0:0:
402,192,244288,1,0,0:0:0:0:
256,192,244288,1,0,0:0:0:0:
36,192,244355,1,0,0:0:0:0:
182,192,244355,1,0,0:0:0:0:
109,192,244422,1,0,0:0:0:0:
329,192,244422,1,0,0:0:0:0:
182,192,244489,1,0,0:0:0:0:
402,192,244489,1,0,0:0:0:0:
475,192,244489,1,0,0:0:0:0:
256,192,244489,1,0,0:0:0:0:
109,192,244555,1,0,0:0:0:0:
36,192,244622,1,0,0:0:0:0:
256,192,244622,1,0,0:0:0:0:
182,192,244689,1,0,0:0:0:0:
329,192,244689,1,0,0:0:0:0:
109,192,244756,1,0,0:0:0:0:
475,192,244756,1,0,0:0:0:0:
256,192,244823,1,0,0:0:0:0:
182,192,244890,1,0,0:0:0:0:
36,192,244890,1,0,0:0:0:0:
329,192,244957,1,0,0:0:0:0:
109,192,244957,1,0,0:0:0:0:
256,192,245024,1,0,0:0:0:0:
475,192,245024,1,0,0:0:0:0:
182,192,245024,1,0,0:0:0:0:
402,192,245091,1,0,0:0:0:0:
256,192,245158,1,0,0:0:0:0:
36,192,245158,1,0,0:0:0:0:
329,192,245225,1,0,0:0:0:0:
182,192,245225,1,0,0:0:0:0:
36,192,245292,1,0,0:0:0:0:
475,192,245292,1,0,0:0:0:0:
109,192,245292,1,0,0:0:0:0:
402,192,245359,1,0,0:0:0:0:
256,192,245359,1,0,0:0:0:0:
182,192,245426,1,0,0:0:0:0:
329,192,245426,1,0,0:0:0:0:
109,192,245493,1,0,0:0:0:0:
36,192,245493,1,0,0:0:0:0:
475,192,245560,1,0,0:0:0:0:
329,192,245560,1,0,0:0:0:0:
182,192,245560,1,0,0:0:0:0:
402,192,245627,1,0,0:0:0:0:
109,192,245694,1,0,0:0:0:0:
36,192,245694,1,0,0:0:0:0:
256,192,245694,1,0,0:0:0:0:
182,192,245761,1,0,0:0:0:0:
329,192,245761,1,0,0:0:0:0:
475,192,245828,1,0,0:0:0:0:
109,192,245828,1,0,0:0:0:0:
36,192,245828,1,0,0:0:0:0:
329,192,245895,1,0,0:0:0:0:
256,192,245962,1,0,0:0:0:0:
182,192,245962,1,0,0:0:0:0:
402,192,246029,1,0,0:0:0:0:
36,192,246029,1,0,0:0:0:0:
475,192,246096,1,0,0:0:0:0:
109,192,246096,1,0,0:0:0:0:
329,192,246096,1,0,0:0:0:0:
256,192,246163,1,0,0:0:0:0:
402,192,246230,1,0,0:0:0:0:
182,192,246230,1,0,0:0:0:0:
329,192,246297,1,0,0:0:0:0:
475,192,246364,1,0,0:0:0:0:
109,192,246364,1,0,0:0:0:0:
256,192,246430,1,0,0:0:0:0:
36,192,246430,1,0,0:0:0:0:
329,192,246430,1,0,0:0:0:0:
182,192,246497,1,0,0:0:0:0:
402,192,246497,1,0,0:0:0:0:
475,192,246564,1,0,0:0:0:0:
36,192,246564,1,0,0:0:0:0:
182,192,246631,1,0,0:0:0:0:
329,192,246631,1,0,0:0:0:0:
109,192,246631,1,0,0:0:0:0:
402,192,246631,1,0,0:0:0:0:
256,192,246698,1,0,0:0:0:0:
36,192,246765,1,0,0:0:0:0:
475,192,246765,1,0,0:0:0:0:
109,192,246765,1,0,0:0:0:0:
256,192,246832,1,0,0:0:0:0:
329,192,246832,1,0,0:0:0:0:
182,192,246899,1,0,0:0:0:0:
475,192,246899,1,0,0:0:0:0:
329,192,246966,1,0,0:0:0:0:
256,192,247033,1,0,0:0:0:0:
182,192,247033,1,0,0:0:0:0:
36,192,247100,1,0,0:0:0:0:
402,192,247100,1,0,0:0:0:0:
329,192,247167,1,0,0:0:0:0:
475,192,247167,1,0,0:0:0:0:
109,192,247167,1,0,0:0:0:0:
256,192,247234,1,0,0:0:0:0:
182,192,247301,1,0,0:0:0:0:
329,192,247368,1,0,0:0:0:0:
109,192,247435,1,0,0:0:0:0:
36,192,247435,1,0,0:0:0:0:
475,192,247435,1,0,0:0:0:0:
182,192,247502,1,0,0:0:0:0:
329,192,247502,1,0,0:0:0:0:
256,192,247502,1,0,0:0:0:0:
36,192,247569,1,0,0:0:0:0:
402,192,247569,1,0,0:0:0:0:
109,192,247569,1,0,0:0:0:0:
329,192,247636,1,0,0:0:0:0:
256,192,247636,1,0,0:0:0:0:
182,192,247636,1,0,0:0:0:0:
402,192,247703,1,0,0:0:0:0:
109,192,247703,1,0,0:0:0:0:
475,192,247703,1,0,0:0:0:0:
182,192,247770,1,0,0:0:0:0:
329,192,247837,1,0,0:0:0:0:
36,192,247837,1,0,0:0:0:0:
475,192,247837,1,0,0:0:0:0:
402,192,247904,1,0,0:0:0:0:
256,192,247904,1,0,0:0:0:0:
182,192,247971,1,0,0:0:0:0:
329,192,247971,1,0,0:0:0:0:
36,192,247971,1,0,0:0:0:0:
109,192,248038,1,0,0:0:0:0:
182,192,248105,1,0,0:0:0:0:
475,192,248105,1,0,0:0:0:0:
256,192,248172,1,0,0:0:0:0:
402,192,248172,1,0,0:0:0:0:
36,192,248239,1,0,0:0:0:0:
475,192,248239,1,0,0:0:0:0:
329,192,248239,1,0,0:0:0:0:
109,192,248239,1,0,0:0:0:0:
256,192,248305,1,0,0:0:0:0:
36,192,248372,1,0,0:0:0:0:
402,192,248372,1,0,0:0:0:0:
182,192,248372,1,0,0:0:0:0:
109,192,248439,1,0,0:0:0:0:
329,192,248439,1,0,0:0:0:0:
256,192,248506,1,0,0:0:0:0:
475,192,248506,1,0,0:0:0:0:
402,192,248573,1,0,0:0:0:0:
182,192,248573,1,0,0:0:0:0:
329,192,248640,1,0,0:0:0:0:
36,192,248640,1,0,0:0:0:0:
475,192,248640,1,0,0:0:0:0:
109,192,248707,1,0,0:0:0:0:
256,192,248707,1,0,0:0:0:0:
329,192,248774,1,0,0:0:0:0:
402,192,248774,1,0,0:0:0:0:
182,192,248774,1,0,0:0:0:0:
256,192,248841,1,0,0:0:0:0:
182,192,248908,1,0,0:0:0:0:
109,192,248908,1,0,0:0:0:0:
329,192,248975,1,0,0:0:0:0:
402,192,248975,1,0,0:0:0:0:
475,192,249042,1,0,0:0:0:0:
36,192,249042,1,0,0:0:0:0:
109,192,249109,1,0,0:0:0:0:
182,192,249176,1,0,0:0:0:0:
475,192,249176,1,0,0:0:0:0:
256,192,249243,1,0,0:0:0:0:
402,192,249243,1,0,0:0:0:0:
109,192,249310,1,0,0:0:0:0:
36,192,249310,1,0,0:0:0:0:
329,192,249310,1,0,0:0:0:0:
256,192,249377,1,0,0:0:0:0:
402,192,249444,1,0,0:0:0:0:
182,192,249444,1,0,0:0:0:0:
329,192,249511,1,0,0:0:0:0:
109,192,249511,1,0,0:0:0:0:
256,192,249578,1,0,0:0:0:0:
475,192,249578,1,0,0:0:0:0:
36,192,249578,1,0,0:0:0:0:
402,192,249645,1,0,0:0:0:0:
182,192,249645,1,0,0:0:0:0:
109,192,249645,1,0,0:0:0:0:
329,192,249712,1,0,0:0:0:0:
36,192,249712,1,0,0:0:0:0:
475,192,249712,1,0,0:0:0:0:
109,192,249779,1,0,0:0:0:0:
402,192,249779,1,0,0:0:0:0:
256,192,249779,1,0,0:0:0:0:
475,192,249846,1,0,0:0:0:0:
36,192,249846,1,0,0:0:0:0:
182,192,249846,1,0,0:0:0:0:
329,192,249846,1,0,0:0:0:0:
256,192,249913,1,0,0:0:0:0:
329,192,249980,1,0,0:0:0:0:
109,192,249980,1,0,0:0:0:0:
402,192,250047,1,0,0:0:0:0:
182,192,250047,1,0,0:0:0:0:
256,192,250114,1,0,0:0:0:0:
36,192,250114,1,0,0:0:0:0:
475,192,250114,1,0,0:0:0:0:
329,192,250114,1,0,0:0:0:0:
256,192,250381,1,0,0:0:0:0:
182,192,250381,1,0,0:0:0:0:
329,192,250381,1,0,0:0:0:0:
402,192,250448,1,0,0:0:0:0:
109,192,250448,1,0,0:0:0:0:
475,192,250515,1,0,0:0:0:0:
329,192,250515,1,0,0:0:0:0:
182,192,250515,1,0,0:0:0:0:
256,192,250515,1,0,0:0:0:0:
36,192,250515,1,0,0:0:0:0:
36,192,250783,1,0,0:0:0:0:
475,192,250783,1,0,0:0:0:0:
402,192,250817,1,0,0:0:0:0:
109,192,250817,1,0,0:0:0:0:
182,192,250850,1,0,0:0:0:0:
329,192,250850,1,0,0:0:0:0:
256,192,250884,1,0,0:0:0:0:
109,192,250917,1,0,0:0:0:0:
36,192,250917,1,0,0:0:0:0:
402,192,250917,1,0,0:0:0:0:
475,192,250917,1,0,0:0:0:0:
182,192,250984,1,0,0:0:0:0:
402,192,251051,1,0,0:0:0:0:
256,192,251051,1,0,0:0:0:0:
329,192,251118,1,0,0:0:0:0:
475,192,251185,1,0,0:0:0:0:
36,192,251185,1,0,0:0:0:0:
402,192,251252,1,0,0:0:0:0:
329,192,251319,1,0,0:0:0:0:
182,192,251319,1,0,0:0:0:0:
256,192,251386,1,0,0:0:0:0:
36,192,251386,1,0,0:0:0:0:
109,192,251453,1,0,0:0:0:0:
475,192,251453,1,0,0:0:0:0:
402,192,251453,1,0,0:0:0:0:
182,192,251520,1,0,0:0:0:0:
256,192,251587,1,0,0:0:0:0:
36,192,251587,1,0,0:0:0:0:
109,192,251654,1,0,0:0:0:0:
329,192,251654,1,0,0:0:0:0:
36,192,251721,1,0,0:0:0:0:
475,192,251721,1,0,0:0:0:0:
182,192,251721,1,0,0:0:0:0:
109,192,251788,1,0,0:0:0:0:
402,192,251788,1,0,0:0:0:0:
256,192,251788,1,0,0:0:0:0:
182,192,251855,1,0,0:0:0:0:
329,192,251855,1,0,0:0:0:0:
36,192,251855,1,0,0:0:0:0:
475,192,251922,1,0,0:0:0:0:
256,192,251922,1,0,0:0:0:0:
402,192,251922,1,0,0:0:0:0:
36,192,251989,1,0,0:0:0:0:
109,192,251989,1,0,0:0:0:0:
329,192,251989,1,0,0:0:0:0:
182,192,252055,1,0,0:0:0:0:
475,192,252122,1,0,0:0:0:0:
256,192,252122,1,0,0:0:0:0:
402,192,252122,1,0,0:0:0:0:
329,192,252189,1,0,0:0:0:0:
182,192,252189,1,0,0:0:0:0:
36,192,252256,1,0,0:0:0:0:
402,192,252256,1,0,0:0:0:0:
109,192,252256,1,0,0:0:0:0:
256,192,252323,1,0,0:0:0:0:
329,192,252390,1,0,0:0:0:0:
475,192,252390,1,0,0:0:0:0:
402,192,252457,1,0,0:0:0:0:
182,192,252457,1,0,0:0:0:0:
256,192,252524,1,0,0:0:0:0:
329,192,252524,1,0,0:0:0:0:
36,192,252524,1,0,0:0:0:0:
109,192,252591,1,0,0:0:0:0:
402,192,252658,1,0,0:0:0:0:
256,192,252658,1,0,0:0:0:0:
475,192,252658,1,0,0:0:0:0:
329,192,252725,1,0,0:0:0:0:
182,192,252725,1,0,0:0:0:0:
402,192,252792,1,0,0:0:0:0:
36,192,252792,1,0,0:0:0:0:
256,192,252859,1,0,0:0:0:0:
109,192,252859,1,0,0:0:0:0:
329,192,252926,1,0,0:0:0:0:
475,192,252926,1,0,0:0:0:0:
182,192,252993,1,0,0:0:0:0:
402,192,252993,1,0,0:0:0:0:
256,192,253060,1,0,0:0:0:0:
36,192,253060,1,0,0:0:0:0:
109,192,253060,1,0,0:0:0:0:
329,192,253060,1,0,0:0:0:0:
402,192,253127,1,0,0:0:0:0:
256,192,253194,1,0,0:0:0:0:
475,192,253194,1,0,0:0:0:0:
329,192,253261,1,0,0:0:0:0:
182,192,253261,1,0,0:0:0:0:
402,192,253328,1,0,0:0:0:0:
36,192,253328,1,0,0:0:0:0:
256,192,253395,1,0,0:0:0:0:
475,192,253462,1,0,0:0:0:0:
329,192,253462,1,0,0:0:0:0:
402,192,253529,1,0,0:0:0:0:
182,192,253529,1,0,0:0:0:0:
256,192,253596,1,0,0:0:0:0:
329,192,253596,1,0,0:0:0:0:
36,192,253596,1,0,0:0:0:0:
109,192,253663,1,0,0:0:0:0:
475,192,253730,1,0,0:0:0:0:
256,192,253730,1,0,0:0:0:0:
109,192,253797,1,0,0:0:0:0:
329,192,253797,1,0,0:0:0:0:
36,192,253864,1,0,0:0:0:0:
475,192,253864,1,0,0:0:0:0:
402,192,253864,1,0,0:0:0:0:
182,192,253930,1,0,0:0:0:0:
256,192,253930,1,0,0:0:0:0:
329,192,253997,1,0,0:0:0:0:
36,192,253997,1,0,0:0:0:0:
475,192,254064,1,0,0:0:0:0:
182,192,254064,1,0,0:0:0:0:
402,192,254131,1,0,0:0:0:0:
256,192,254131,1,0,0:0:0:0:
36,192,254131,1,0,0:0:0:0:
475,192,254198,1,0,0:0:0:0:
182,192,254198,1,0,0:0:0:0:
256,192,254265,1,0,0:0:0:0:
402,192,254265,1,0,0:0:0:0:
109,192,254265,1,0,0:0:0:0:
329,192,254265,1,0,0:0:0:0:
36,192,254265,1,0,0:0:0:0:
36,192,254399,1,0,0:0:0:0:
109,192,254466,1,0,0:0:0:0:
182,192,254533,1,0,0:0:0:0:
256,192,254600,1,0,0:0:0:0:
329,192,254667,1,0,0:0:0:0:
182,192,254734,1,0,0:0:0:0:
256,192,254801,1,0,0:0:0:0:
109,192,254868,1,0,0:0:0:0:
475,192,254935,1,0,0:0:0:0:
36,192,254935,1,0,0:0:0:0:
182,192,254935,1,0,0:0:0:0:
329,192,255002,1,0,0:0:0:0:
256,192,255069,1,0,0:0:0:0:
402,192,255136,1,0,0:0:0:0:
475,192,255203,1,0,0:0:0:0:
36,192,255270,1,0,0:0:0:0:
182,192,255337,1,0,0:0:0:0:
256,192,255404,1,0,0:0:0:0:
475,192,255471,1,0,0:0:0:0:
36,192,255471,1,0,0:0:0:0:
402,192,255471,1,0,0:0:0:0:
109,192,255538,1,0,0:0:0:0:
329,192,255605,1,0,0:0:0:0:
182,192,255672,1,0,0:0:0:0:
256,192,255739,1,0,0:0:0:0:
36,192,255805,1,0,0:0:0:0:
475,192,255872,1,0,0:0:0:0:
109,192,255939,1,0,0:0:0:0:
36,192,256006,1,0,0:0:0:0:
402,192,256006,1,0,0:0:0:0:
182,192,256006,1,0,0:0:0:0:
256,192,256073,1,0,0:0:0:0:
329,192,256140,1,0,0:0:0:0:
402,192,256207,1,0,0:0:0:0:
475,192,256274,1,0,0:0:0:0:
36,192,256341,1,0,0:0:0:0:
109,192,256408,1,0,0:0:0:0:
182,192,256475,1,0,0:0:0:0:
36,192,256542,1,0,0:0:0:0:
475,192,256542,1,0,0:0:0:0:
329,192,256542,1,0,0:0:0:0:
256,192,256542,1,0,0:0:0:0:
402,192,256609,1,0,0:0:0:0:
36,192,256676,1,0,0:0:0:0:
182,192,256676,1,0,0:0:0:0:
256,192,256743,1,0,0:0:0:0:
329,192,256810,1,0,0:0:0:0:
402,192,256877,1,0,0:0:0:0:
475,192,256944,1,0,0:0:0:0:
36,192,257011,1,0,0:0:0:0:
402,192,257078,1,0,0:0:0:0:
256,192,257078,1,0,0:0:0:0:
109,192,257078,1,0,0:0:0:0:
182,192,257145,1,0,0:0:0:0:
329,192,257212,1,0,0:0:0:0:
402,192,257279,1,0,0:0:0:0:
36,192,257346,1,0,0:0:0:0:
475,192,257346,1,0,0:0:0:0:
109,192,257346,1,0,0:0:0:0:
182,192,257413,1,0,0:0:0:0:
256,192,257480,1,0,0:0:0:0:
329,192,257547,1,0,0:0:0:0:
36,192,257614,1,0,0:0:0:0:
182,192,257614,1,0,0:0:0:0:
475,192,257614,1,0,0:0:0:0:
402,192,257680,1,0,0:0:0:0:
329,192,257747,1,0,0:0:0:0:
256,192,257814,1,0,0:0:0:0:
36,192,257881,1,0,0:0:0:0:
182,192,257881,1,0,0:0:0:0:
402,192,257881,1,0,0:0:0:0:
329,192,257948,1,0,0:0:0:0:
36,192,258015,1,0,0:0:0:0:
256,192,258015,1,0,0:0:0:0:
182,192,258082,1,0,0:0:0:0:
475,192,258149,1,0,0:0:0:0:
402,192,258149,1,0,0:0:0:0:
109,192,258149,1,0,0:0:0:0:
182,192,258216,1,0,0:0:0:0:
256,192,258283,1,0,0:0:0:0:
329,192,258350,1,0,0:0:0:0:
109,192,258417,1,0,0:0:0:0:
36,192,258417,1,0,0:0:0:0:
256,192,258417,1,0,0:0:0:0:
182,192,258484,1,0,0:0:0:0:
256,192,258551,1,0,0:0:0:0:
329,192,258618,1,0,0:0:0:0:
475,192,258685,1,0,0:0:0:0:
402,192,258685,1,0,0:0:0:0:
36,192,258685,1,0,0:0:0:0:
109,192,258752,1,0,0:0:0:0:
475,192,258819,1,0,0:0:0:0:
182,192,258819,1,0,0:0:0:0:
256,192,258886,1,0,0:0:0:0:
329,192,258953,1,0,0:0:0:0:
182,192,259020,1,0,0:0:0:0:
256,192,259087,1,0,0:0:0:0:
109,192,259154,1,0,0:0:0:0:
475,192,259221,1,0,0:0:0:0:
36,192,259221,1,0,0:0:0:0:
182,192,259221,1,0,0:0:0:0:
329,192,259288,1,0,0:0:0:0:
36,192,259355,1,0,0:0:0:0:
256,192,259355,1,0,0:0:0:0:
402,192,259422,1,0,0:0:0:0:
475,192,259489,1,0,0:0:0:0:
36,192,259555,1,0,0:0:0:0:
182,192,259622,1,0,0:0:0:0:
256,192,259689,1,0,0:0:0:0:
36,192,259756,1,0,0:0:0:0:
475,192,259756,1,0,0:0:0:0:
402,192,259756,1,0,0:0:0:0:
109,192,259823,1,0,0:0:0:0:
475,192,259890,1,0,0:0:0:0:
329,192,259890,1,0,0:0:0:0:
182,192,259957,1,0,0:0:0:0:
256,192,260024,1,0,0:0:0:0:
36,192,260091,1,0,0:0:0:0:
475,192,260158,1,0,0:0:0:0:
109,192,260225,1,0,0:0:0:0:
402,192,260292,1,0,0:0:0:0:
36,192,260292,1,0,0:0:0:0:
182,192,260292,1,0,0:0:0:0:
256,192,260359,1,0,0:0:0:0:
329,192,260426,1,0,0:0:0:0:
402,192,260493,1,0,0:0:0:0:
182,192,260560,1,0,0:0:0:0:
256,192,260560,1,0,0:0:0:0:
475,192,260560,1,0,0:0:0:0:
36,192,260627,1,0,0:0:0:0:
109,192,260694,1,0,0:0:0:0:
182,192,260761,1,0,0:0:0:0:
36,192,260828,1,0,0:0:0:0:
475,192,260828,1,0,0:0:0:0:
329,192,260828,1,0,0:0:0:0:
402,192,260895,1,0,0:0:0:0:
475,192,260962,1,0,0:0:0:0:
182,192,260962,1,0,0:0:0:0:
256,192,261029,1,0,0:0:0:0:
109,192,261096,1,0,0:0:0:0:
36,192,261096,1,0,0:0:0:0:
329,192,261096,1,0,0:0:0:0:
402,192,261163,1,0,0:0:0:0:
256,192,261230,1,0,0:0:0:0:
475,192,261230,1,0,0:0:0:0:
36,192,261297,1,0,0:0:0:0:
109,192,261364,1,0,0:0:0:0:
182,192,261430,1,0,0:0:0:0:
475,192,261497,1,0,0:0:0:0:
329,192,261497,1,0,0:0:0:0:
402,192,261564,1,0,0:0:0:0:
36,192,261631,1,0,0:0:0:0:
475,192,261631,1,0,0:0:0:0:
109,192,261631,1,0,0:0:0:0:
182,192,261698,1,0,0:0:0:0:
109,192,261765,1,0,0:0:0:0:
256,192,261765,1,0,0:0:0:0:
329,192,261832,1,0,0:0:0:0:
182,192,261899,1,0,0:0:0:0:
36,192,261899,1,0,0:0:0:0:
475,192,261899,1,0,0:0:0:0:
402,192,261966,1,0,0:0:0:0:
182,192,262033,1,0,0:0:0:0:
329,192,262033,1,0,0:0:0:0:
256,192,262100,1,0,0:0:0:0:
36,192,262167,1,0,0:0:0:0:
109,192,262167,1,0,0:0:0:0:
402,192,262167,1,0,0:0:0:0:
329,192,262234,1,0,0:0:0:0:
402,192,262301,1,0,0:0:0:0:
475,192,262301,1,0,0:0:0:0:
256,192,262301,1,0,0:0:0:0:
182,192,262368,1,0,0:0:0:0:
109,192,262435,1,0,0:0:0:0:
182,192,262502,1,0,0:0:0:0:
475,192,262569,1,0,0:0:0:0:
36,192,262569,1,0,0:0:0:0:
256,192,262569,1,0,0:0:0:0:
402,192,262569,1,0,0:0:0:0:
109,192,262636,1,0,0:0:0:0:
329,192,262636,1,0,0:0:0:0:
36,192,262703,1,0,0:0:0:0:
256,192,262703,1,0,0:0:0:0:
475,192,262703,1,0,0:0:0:0:
402,192,262770,1,0,0:0:0:0:
109,192,262770,1,0,0:0:0:0:
329,192,262770,1,0,0:0:0:0:
182,192,262770,1,0,0:0:0:0:
36,192,262837,1,0,0:0:0:0:
475,192,262837,1,0,0:0:0:0:
256,192,262837,1,0,0:0:0:0:
109,192,262904,1,0,0:0:0:0:
182,192,262904,1,0,0:0:0:0:
329,192,262904,1,0,0:0:0:0:
402,192,262971,1,0,0:0:0:0:
256,192,262971,1,0,0:0:0:0:
36,192,262971,1,0,0:0:0:0:
109,192,263038,1,0,0:0:0:0:
402,192,263105,1,0,0:0:0:0:
475,192,263105,1,0,0:0:0:0:
182,192,263105,1,0,0:0:0:0:
36,192,263172,1,0,0:0:0:0:
256,192,263172,1,0,0:0:0:0:
109,192,263239,1,0,0:0:0:0:
475,192,263239,1,0,0:0:0:0:
329,192,263239,1,0,0:0:0:0:
182,192,263305,1,0,0:0:0:0:
36,192,263372,1,0,0:0:0:0:
402,192,263372,1,0,0:0:0:0:
256,192,263372,1,0,0:0:0:0:
475,192,263439,1,0,0:0:0:0:
109,192,263439,1,0,0:0:0:0:
36,192,263506,1,0,0:0:0:0:
402,192,263506,1,0,0:0:0:0:
182,192,263506,1,0,0:0:0:0:
329,192,263573,1,0,0:0:0:0:
182,192,263640,1,0,0:0:0:0:
109,192,263640,1,0,0:0:0:0:
256,192,263640,1,0,0:0:0:0:
402,192,263707,1,0,0:0:0:0:
256,192,263774,1,0,0:0:0:0:
475,192,263774,1,0,0:0:0:0:
36,192,263841,1,0,0:0:0:0:
475,192,263908,1,0,0:0:0:0:
329,192,263908,1,0,0:0:0:0:
182,192,263908,1,0,0:0:0:0:
109,192,263975,1,0,0:0:0:0:
256,192,263975,1,0,0:0:0:0:
36,192,264042,1,0,0:0:0:0:
402,192,264042,1,0,0:0:0:0:
109,192,264109,1,0,0:0:0:0:
256,192,264176,1,0,0:0:0:0:
475,192,264176,1,0,0:0:0:0:
329,192,264176,1,0,0:0:0:0:
402,192,264243,1,0,0:0:0:0:
182,192,264243,1,0,0:0:0:0:
109,192,264310,1,0,0:0:0:0:
329,192,264310,1,0,0:0:0:0:
256,192,264310,1,0,0:0:0:0:
36,192,264377,1,0,0:0:0:0:
402,192,264444,1,0,0:0:0:0:
475,192,264444,1,0,0:0:0:0:
329,192,264511,1,0,0:0:0:0:
109,192,264511,1,0,0:0:0:0:
36,192,264578,1,0,0:0:0:0:
182,192,264578,1,0,0:0:0:0:
256,192,264645,1,0,0:0:0:0:
109,192,264712,1,0,0:0:0:0:
475,192,264712,1,0,0:0:0:0:
329,192,264712,1,0,0:0:0:0:
182,192,264779,1,0,0:0:0:0:
402,192,264779,1,0,0:0:0:0:
256,192,264846,1,0,0:0:0:0:
475,192,264846,1,0,0:0:0:0:
36,192,264913,1,0,0:0:0:0:
402,192,264980,1,0,0:0:0:0:
329,192,264980,1,0,0:0:0:0:
109,192,264980,1,0,0:0:0:0:
475,192,265047,1,0,0:0:0:0:
182,192,265047,1,0,0:0:0:0:
109,192,265114,1,0,0:0:0:0:
329,192,265114,1,0,0:0:0:0:
256,192,265114,1,0,0:0:0:0:
36,192,265180,1,0,0:0:0:0:
402,192,265247,1,0,0:0:0:0:
475,192,265247,1,0,0:0:0:0:
182,192,265247,1,0,0:0:0:0:
36,192,265314,1,0,0:0:0:0:
256,192,265314,1,0,0:0:0:0:
109,192,265381,1,0,0:0:0:0:
182,192,265381,1,0,0:0:0:0:
329,192,265381,1,0,0:0:0:0:
402,192,265448,1,0,0:0:0:0:
256,192,265515,1,0,0:0:0:0:
182,192,265515,1,0,0:0:0:0:
475,192,265515,1,0,0:0:0:0:
329,192,265582,1,0,0:0:0:0:
36,192,265582,1,0,0:0:0:0:
402,192,265649,1,0,0:0:0:0:
475,192,265649,1,0,0:0:0:0:
109,192,265649,1,0,0:0:0:0:
256,192,265649,1,0,0:0:0:0:
182,192,265716,1,0,0:0:0:0:
36,192,265783,1,0,0:0:0:0:
475,192,265783,1,0,0:0:0:0:
329,192,265783,1,0,0:0:0:0:
256,192,265850,1,0,0:0:0:0:
402,192,265850,1,0,0:0:0:0:
329,192,265917,1,0,0:0:0:0:
36,192,265917,1,0,0:0:0:0:
109,192,265917,1,0,0:0:0:0:
182,192,265984,1,0,0:0:0:0:
109,192,266051,1,0,0:0:0:0:
402,192,266051,1,0,0:0:0:0:
256,192,266051,1,0,0:0:0:0:
36,192,266118,1,0,0:0:0:0:
329,192,266118,1,0,0:0:0:0:
256,192,266185,1,0,0:0:0:0:
182,192,266185,1,0,0:0:0:0:
475,192,266185,1,0,0:0:0:0:
109,192,266252,1,0,0:0:0:0:
402,192,266252,1,0,0:0:0:0:
475,192,266319,1,0,0:0:0:0:
36,192,266319,1,0,0:0:0:0:
329,192,266319,1,0,0:0:0:0:
109,192,266386,1,0,0:0:0:0:
256,192,266386,1,0,0:0:0:0:
36,192,266453,1,0,0:0:0:0:
402,192,266453,1,0,0:0:0:0:
182,192,266453,1,0,0:0:0:0:
475,192,266520,1,0,0:0:0:0:
329,192,266520,1,0,0:0:0:0:
109,192,266587,1,0,0:0:0:0:
256,192,266587,1,0,0:0:0:0:
402,192,266587,1,0,0:0:0:0:
329,192,266654,1,0,0:0:0:0:
182,192,266654,1,0,0:0:0:0:
36,192,266721,1,0,0:0:0:0:
402,192,266721,1,0,0:0:0:0:
109,192,266721,1,0,0:0:0:0:
475,192,266721,1,0,0:0:0:0:
182,192,266788,1,0,0:0:0:0:
256,192,266855,1,0,0:0:0:0:
36,192,266855,1,0,0:0:0:0:
329,192,266888,1,0,0:0:0:0:
109,192,266888,1,0,0:0:0:0:
402,192,266922,1,0,0:0:0:0:
182,192,266922,1,0,0:0:0:0:
256,192,266955,1,0,0:0:0:0:
475,192,266955,1,0,0:0:0:0:
109,192,266989,1,0,0:0:0:0:
329,192,266989,1,0,0:0:0:0:
36,192,266989,1,0,0:0:0:0:
256,192,267122,1,0,0:0:0:0:
475,192,267122,1,0,0:0:0:0:
182,192,267156,1,0,0:0:0:0:
402,192,267156,1,0,0:0:0:0:
109,192,267189,1,0,0:0:0:0:
329,192,267189,1,0,0:0:0:0:
36,192,267223,1,0,0:0:0:0:
256,192,267223,1,0,0:0:0:0:
402,192,267256,1,0,0:0:0:0:
475,192,267256,1,0,0:0:0:0:
182,192,267256,1,0,0:0:0:0:
329,192,267323,1,0,0:0:0:0:
109,192,267323,1,0,0:0:0:0:
36,192,267390,1,0,0:0:0:0:
475,192,267390,1,0,0:0:0:0:
182,192,267390,1,0,0:0:0:0:
109,192,267457,1,0,0:0:0:0:
402,192,267457,1,0,0:0:0:0:
256,192,267457,1,0,0:0:0:0:
36,192,267524,1,0,0:0:0:0:
475,192,267524,1,0,0:0:0:0:
329,192,267524,1,0,0:0:0:0:
109,192,267591,1,0,0:0:0:0:
182,192,267591,1,0,0:0:0:0:
475,192,267658,1,0,0:0:0:0:
329,192,267658,1,0,0:0:0:0:
256,192,267658,1,0,0:0:0:0:
182,192,267725,1,0,0:0:0:0:
402,192,267725,1,0,0:0:0:0:
109,192,267725,1,0,0:0:0:0:
475,192,267792,1,0,0:0:0:0:
256,192,267792,1,0,0:0:0:0:
36,192,267792,1,0,0:0:0:0:
402,192,267859,1,0,0:0:0:0:
329,192,267859,1,0,0:0:0:0:
36,192,267926,1,0,0:0:0:0:
182,192,267926,1,0,0:0:0:0:
109,192,267926,1,0,0:0:0:0:
329,192,267993,1,0,0:0:0:0:
256,192,267993,1,0,0:0:0:0:
402,192,268060,1,0,0:0:0:0:
475,192,268060,1,0,0:0:0:0:
109,192,268127,1,0,0:0:0:0:
36,192,268127,1,0,0:0:0:0:
475,192,268194,1,0,0:0:0:0:
329,192,268194,1,0,0:0:0:0:
182,192,268194,1,0,0:0:0:0:
109,192,268261,1,0,0:0:0:0:
256,192,268261,1,0,0:0:0:0:
475,192,268328,1,0,0:0:0:0:
402,192,268328,1,0,0:0:0:0:
36,192,268328,1,0,0:0:0:0:
256,192,268395,1,0,0:0:0:0:
182,192,268395,1,0,0:0:0:0:
109,192,268462,1,0,0:0:0:0:
402,192,268462,1,0,0:0:0:0:
329,192,268462,1,0,0:0:0:0:
36,192,268529,1,0,0:0:0:0:
475,192,268529,1,0,0:0:0:0:
182,192,268529,1,0,0:0:0:0:
402,192,268596,1,0,0:0:0:0:
109,192,268596,1,0,0:0:0:0:
256,192,268596,1,0,0:0:0:0:
329,192,268663,1,0,0:0:0:0:
36,192,268663,1,0,0:0:0:0:
256,192,268730,1,0,0:0:0:0:
182,192,268730,1,0,0:0:0:0:
475,192,268730,1,0,0:0:0:0:
402,192,268797,1,0,0:0:0:0:
329,192,268797,1,0,0:0:0:0:
109,192,268797,1,0,0:0:0:0:
36,192,268864,1,0,0:0:0:0:
475,192,268864,1,0,0:0:0:0:
182,192,268930,1,0,0:0:0:0:
256,192,268930,1,0,0:0:0:0:
36,192,268997,1,0,0:0:0:0:
109,192,268997,1,0,0:0:0:0:
329,192,268997,1,0,0:0:0:0:
182,192,269064,1,0,0:0:0:0:
402,192,269064,1,0,0:0:0:0:
256,192,269131,1,0,0:0:0:0:
475,192,269131,1,0,0:0:0:0:
329,192,269198,1,0,0:0:0:0:
36,192,269198,1,0,0:0:0:0:
256,192,269265,1,0,0:0:0:0:
402,192,269265,1,0,0:0:0:0:
109,192,269265,1,0,0:0:0:0:
182,192,269332,1,0,0:0:0:0:
402,192,269399,1,0,0:0:0:0:
329,192,269399,1,0,0:0:0:0:
256,192,269399,1,0,0:0:0:0:
109,192,269466,1,0,0:0:0:0:
36,192,269466,1,0,0:0:0:0:
182,192,269466,1,0,0:0:0:0:
402,192,269533,1,0,0:0:0:0:
475,192,269533,1,0,0:0:0:0:
329,192,269533,1,0,0:0:0:0:
109,192,269600,1,0,0:0:0:0:
182,192,269600,1,0,0:0:0:0:
256,192,269600,1,0,0:0:0:0:
36,192,269667,1,0,0:0:0:0:
475,192,269667,1,0,0:0:0:0:
402,192,269667,1,0,0:0:0:0:
182,192,269734,1,0,0:0:0:0:
256,192,269734,1,0,0:0:0:0:
329,192,269734,1,0,0:0:0:0:
475,192,269801,1,0,0:0:0:0:
36,192,269801,1,0,0:0:0:0:
109,192,269801,1,0,0:0:0:0:
256,192,269868,1,0,0:0:0:0:
329,192,269868,1,0,0:0:0:0:
402,192,269868,1,0,0:0:0:0:
36,192,269935,1,0,0:0:0:0:
109,192,269935,1,0,0:0:0:0:
182,192,269935,1,0,0:0:0:0:
329,192,270002,1,0,0:0:0:0:
402,192,270002,1,0,0:0:0:0:
475,192,270002,1,0,0:0:0:0:
109,192,270069,1,0,0:0:0:0:
182,192,270069,1,0,0:0:0:0:
256,192,270069,1,0,0:0:0:0:
36,192,270136,1,0,0:0:0:0:
475,192,270136,1,0,0:0:0:0:
402,192,270136,1,0,0:0:0:0:
329,192,270203,1,0,0:0:0:0:
256,192,270203,1,0,0:0:0:0:
182,192,270203,1,0,0:0:0:0:
402,192,270270,1,0,0:0:0:0:
475,192,270270,1,0,0:0:0:0:
109,192,270270,1,0,0:0:0:0:
36,192,270270,1,0,0:0:0:0:
329,192,270337,1,0,0:0:0:0:
256,192,270337,1,0,0:0:0:0:
182,192,270337,1,0,0:0:0:0:
109,192,270404,1,0,0:0:0:0:
36,192,270404,1,0,0:0:0:0:
402,192,270404,1,0,0:0:0:0:
475,192,270404,1,0,0:0:0:0:
329,192,270471,1,0,0:0:0:0:
256,192,270471,1,0,0:0:0:0:
182,192,270471,1,0,0:0:0:0:
109,192,270538,1,0,0:0:0:0:
36,192,270538,1,0,0:0:0:0:
402,192,270538,1,0,0:0:0:0:
475,192,270538,1,0,0:0:0:0:
329,192,270605,1,0,0:0:0:0:
256,192,270605,1,0,0:0:0:0:
182,192,270605,1,0,0:0:0:0:
402,192,270672,1,0,0:0:0:0:
475,192,270672,1,0,0:0:0:0:
109,192,270672,1,0,0:0:0:0:
36,192,270672,1,0,0:0:0:0:
329,192,270739,1,0,0:0:0:0:
256,192,270739,1,0,0:0:0:0:
182,192,270739,1,0,0:0:0:0:
402,192,270805,1,0,0:0:0:0:
475,192,270805,1,0,0:0:0:0:
109,192,270805,1,0,0:0:0:0:
36,192,270805,1,0,0:0:0:0:
329,192,270872,1,0,0:0:0:0:
256,192,270872,1,0,0:0:0:0:
182,192,270872,1,0,0:0:0:0:
402,192,270939,1,0,0:0:0:0:
475,192,270939,1,0,0:0:0:0:
109,192,270939,1,0,0:0:0:0:
36,192,270939,1,0,0:0:0:0:
329,192,271006,1,0,0:0:0:0:
475,192,271006,1,0,0:0:0:0:
256,192,271006,1,0,0:0:0:0:
36,192,271006,1,0,0:0:0:0:
182,192,271006,1,0,0:0:0:0:
36,192,281528,5,0,0:0:0:0:
475,192,281528,1,0,0:0:0:0:
182,192,283194,1,0,0:0:0:0:
329,192,283194,1,0,0:0:0:0:
182,192,283361,1,0,0:0:0:0:
329,192,283361,1,0,0:0:0:0:
182,192,283528,1,0,0:0:0:0:
329,192,283528,1,0,0:0:0:0:
109,192,285528,1,0,0:0:0:0:
402,192,285528,1,0,0:0:0:0:
256,192,287194,1,0,0:0:0:0:
256,192,287361,1,0,0:0:0:0:
256,192,287528,1,0,0:0:0:0:
182,192,289528,1,0,0:0:0:0:
329,192,289528,1,0,0:0:0:0:
256,192,292528,5,0,0:0:0:0:
475,192,292528,1,0,0:0:0:0:
36,192,292528,1,0,0:0:0:0:
109,192,292621,1,0,0:0:0:0:
402,192,292715,1,0,0:0:0:0:
182,192,292715,1,0,0:0:0:0:
329,192,292809,1,0,0:0:0:0:
329,192,292903,1,0,0:0:0:0:
109,192,292903,1,0,0:0:0:0:
256,192,292903,1,0,0:0:0:0:
182,192,292996,1,0,0:0:0:0:
329,192,293090,1,0,0:0:0:0:
475,192,293090,1,0,0:0:0:0:
256,192,293184,1,0,0:0:0:0:
402,192,293184,1,0,0:0:0:0:
36,192,293278,1,0,0:0:0:0:
109,192,293278,1,0,0:0:0:0:
256,192,293278,1,0,0:0:0:0:
329,192,293371,1,0,0:0:0:0:
475,192,293465,1,0,0:0:0:0:
182,192,293465,1,0,0:0:0:0:
109,192,293559,1,0,0:0:0:0:
256,192,293559,1,0,0:0:0:0:
475,192,293653,1,0,0:0:0:0:
109,192,293653,1,0,0:0:0:0:
402,192,293653,1,0,0:0:0:0:
329,192,293746,1,0,0:0:0:0:
402,192,293840,1,0,0:0:0:0:
182,192,293840,1,0,0:0:0:0:
36,192,293934,1,0,0:0:0:0:
256,192,293934,1,0,0:0:0:0:
475,192,294028,1,0,0:0:0:0:
329,192,294028,1,0,0:0:0:0:
109,192,294028,1,0,0:0:0:0:
36,192,294028,1,0,0:0:0:0:
329,192,294121,1,0,0:0:0:0:
475,192,294121,1,0,0:0:0:0:
182,192,294215,1,0,0:0:0:0:
402,192,294309,1,0,0:0:0:0:
256,192,294309,1,0,0:0:0:0:
36,192,294403,1,0,0:0:0:0:
475,192,294403,1,0,0:0:0:0:
36,192,294496,1,0,0:0:0:0:
475,192,294496,1,0,0:0:0:0:
182,192,294590,1,0,0:0:0:0:
329,192,294590,1,0,0:0:0:0:
182,192,294684,1,0,0:0:0:0:
329,192,294684,1,0,0:0:0:0:
36,192,294778,128,0,295059:0:0:0:0:
109,192,294778,128,0,295059:0:0:0:0:
475,192,294778,1,0,0:0:0:0:
329,192,294965,1,0,0:0:0:0:
36,192,295153,128,0,295434:0:0:0:0:
109,192,295153,128,0,295434:0:0:0:0:
475,192,295153,1,0,0:0:0:0:
329,192,295340,1,0,0:0:0:0:
475,192,295528,1,0,0:0:0:0:
36,192,295528,1,0,0:0:0:0:
109,192,295528,1,0,0:0:0:0:
402,192,295621,1,0,0:0:0:0:
182,192,295715,1,0,0:0:0:0:
329,192,295715,1,0,0:0:0:0:
475,192,295809,1,0,0:0:0:0:
256,192,295809,1,0,0:0:0:0:
109,192,295903,1,0,0:0:0:0:
36,192,295903,1,0,0:0:0:0:
475,192,295903,1,0,0:0:0:0:
256,192,295996,1,0,0:0:0:0:
402,192,295996,1,0,0:0:0:0:
182,192,296090,1,0,0:0:0:0:
256,192,296184,1,0,0:0:0:0:
402,192,296184,1,0,0:0:0:0:
402,192,296278,1,0,0:0:0:0:
36,192,296278,1,0,0:0:0:0:
109,192,296278,1,0,0:0:0:0:
182,192,296371,1,0,0:0:0:0:
329,192,296465,1,0,0:0:0:0:
475,192,296465,1,0,0:0:0:0:
109,192,296559,1,0,0:0:0:0:
109,192,296653,1,0,0:0:0:0:
256,192,296653,1,0,0:0:0:0:
402,192,296653,1,0,0:0:0:0:
256,192,296746,1,0,0:0:0:0:
402,192,296746,1,0,0:0:0:0:
36,192,296840,1,0,0:0:0:0:
182,192,296840,1,0,0:0:0:0:
36,192,296934,1,0,0:0:0:0:
182,192,296934,1,0,0:0:0:0:
329,192,297028,1,0,0:0:0:0:
402,192,297028,1,0,0:0:0:0:
475,192,297028,1,0,0:0:0:0:
402,192,297121,1,0,0:0:0:0:
475,192,297121,1,0,0:0:0:0:
36,192,297215,1,0,0:0:0:0:
109,192,297215,1,0,0:0:0:0:
36,192,297309,1,0,0:0:0:0:
109,192,297309,1,0,0:0:0:0:
256,192,297403,1,0,0:0:0:0:
402,192,297403,1,0,0:0:0:0:
475,192,297403,1,0,0:0:0:0:
182,192,297496,1,0,0:0:0:0:
36,192,297590,1,0,0:0:0:0:
402,192,297590,1,0,0:0:0:0:
329,192,297590,1,0,0:0:0:0:
109,192,297684,1,0,0:0:0:0:
402,192,297684,1,0,0:0:0:0:
475,192,297684,1,0,0:0:0:0:
36,192,297778,1,0,0:0:0:0:
182,192,297778,1,0,0:0:0:0:
256,192,297778,1,0,0:0:0:0:
36,192,297965,1,0,0:0:0:0:
182,192,297965,1,0,0:0:0:0:
256,192,297965,1,0,0:0:0:0:
36,192,298059,1,0,0:0:0:0:
256,192,298059,1,0,0:0:0:0:
182,192,298059,1,0,0:0:0:0:
36,192,298153,1,0,0:0:0:0:
182,192,298153,1,0,0:0:0:0:
256,192,298153,1,0,0:0:0:0:
109,192,298340,1,0,0:0:0:0:
329,192,298340,1,0,0:0:0:0:
36,192,298528,1,0,0:0:0:0:
402,192,298528,1,0,0:0:0:0:
475,192,298528,1,0,0:0:0:0:
182,192,298528,1,0,0:0:0:0:
402,192,298621,1,0,0:0:0:0:
109,192,298715,1,0,0:0:0:0:
329,192,298809,1,0,0:0:0:0:
36,192,298903,1,0,0:0:0:0:
329,192,298903,1,0,0:0:0:0:
475,192,298903,1,0,0:0:0:0:
109,192,298996,1,0,0:0:0:0:
256,192,299090,1,0,0:0:0:0:
402,192,299184,1,0,0:0:0:0:
402,192,299278,1,0,0:0:0:0:
36,192,299278,1,0,0:0:0:0:
109,192,299278,1,0,0:0:0:0:
182,192,299371,1,0,0:0:0:0:
256,192,299465,1,0,0:0:0:0:
475,192,299465,1,0,0:0:0:0:
109,192,299559,1,0,0:0:0:0:
402,192,299653,1,0,0:0:0:0:
182,192,299653,1,0,0:0:0:0:
109,192,299653,1,0,0:0:0:0:
329,192,299746,1,0,0:0:0:0:
36,192,299840,1,0,0:0:0:0:
475,192,299840,1,0,0:0:0:0:
182,192,299934,1,0,0:0:0:0:
402,192,300028,1,0,0:0:0:0:
182,192,300028,1,0,0:0:0:0:
109,192,300028,1,0,0:0:0:0:
402,192,300121,1,0,0:0:0:0:
109,192,300215,1,0,0:0:0:0:
256,192,300215,1,0,0:0:0:0:
109,192,300309,1,0,0:0:0:0:
329,192,300403,1,0,0:0:0:0:
475,192,300403,1,0,0:0:0:0:
329,192,300496,1,0,0:0:0:0:
36,192,300590,1,0,0:0:0:0:
182,192,300590,1,0,0:0:0:0:
36,192,300684,1,0,0:0:0:0:
402,192,300778,1,0,0:0:0:0:
256,192,300778,1,0,0:0:0:0:
182,192,300871,1,0,0:0:0:0:
109,192,300965,1,0,0:0:0:0:
182,192,301059,1,0,0:0:0:0:
402,192,301153,1,0,0:0:0:0:
256,192,301153,1,0,0:0:0:0:
182,192,301246,1,0,0:0:0:0:
109,192,301340,1,0,0:0:0:0:
182,192,301434,1,0,0:0:0:0:
402,192,301528,1,0,0:0:0:0:
256,192,301528,1,0,0:0:0:0:
329,192,301621,1,0,0:0:0:0:
402,192,301621,1,0,0:0:0:0:
109,192,301715,1,0,0:0:0:0:
182,192,301715,1,0,0:0:0:0:
109,192,301809,1,0,0:0:0:0:
182,192,301809,1,0,0:0:0:0:
402,192,301903,1,0,0:0:0:0:
475,192,301903,1,0,0:0:0:0:
402,192,301996,1,0,0:0:0:0:
475,192,301996,1,0,0:0:0:0:
109,192,302090,1,0,0:0:0:0:
36,192,302090,1,0,0:0:0:0:
109,192,302184,1,0,0:0:0:0:
36,192,302184,1,0,0:0:0:0:
329,192,302278,1,0,0:0:0:0:
475,192,302278,1,0,0:0:0:0:
329,192,302371,1,0,0:0:0:0:
475,192,302371,1,0,0:0:0:0:
36,192,302465,1,0,0:0:0:0:
182,192,302465,1,0,0:0:0:0:
36,192,302559,1,0,0:0:0:0:
182,192,302559,1,0,0:0:0:0:
402,192,302653,1,0,0:0:0:0:
475,192,302653,1,0,0:0:0:0:
402,192,302746,1,0,0:0:0:0:
475,192,302746,1,0,0:0:0:0:
182,192,302840,1,0,0:0:0:0:
109,192,302840,1,0,0:0:0:0:
109,192,302934,1,0,0:0:0:0:
182,192,302934,1,0,0:0:0:0:
329,192,303028,1,0,0:0:0:0:
475,192,303028,1,0,0:0:0:0:
256,192,303028,128,0,303778:0:0:0:0:
402,192,303778,1,0,0:0:0:0:
182,192,303778,1,0,0:0:0:0:
109,192,303778,128,0,304528:0:0:0:0:
329,192,304528,1,0,0:0:0:0:
475,192,304528,1,0,0:0:0:0:
36,192,304621,1,0,0:0:0:0:
182,192,304621,1,0,0:0:0:0:
329,192,304715,1,0,0:0:0:0:
402,192,304715,1,0,0:0:0:0:
36,192,304809,1,0,0:0:0:0:
109,192,304809,1,0,0:0:0:0:
182,192,304903,1,0,0:0:0:0:
256,192,304903,1,0,0:0:0:0:
475,192,304903,1,0,0:0:0:0:
329,192,305090,1,0,0:0:0:0:
475,192,305090,1,0,0:0:0:0:
36,192,305184,1,0,0:0:0:0:
182,192,305184,1,0,0:0:0:0:
256,192,305278,1,0,0:0:0:0:
329,192,305278,1,0,0:0:0:0:
402,192,305278,1,0,0:0:0:0:
36,192,305371,1,0,0:0:0:0:
109,192,305371,1,0,0:0:0:0:
402,192,305465,1,0,0:0:0:0:
475,192,305465,1,0,0:0:0:0:
256,192,305653,1,0,0:0:0:0:
402,192,305653,1,0,0:0:0:0:
475,192,305653,1,0,0:0:0:0:
109,192,305746,1,0,0:0:0:0:
182,192,305746,1,0,0:0:0:0:
475,192,305840,1,0,0:0:0:0:
402,192,305840,1,0,0:0:0:0:
109,192,305934,1,0,0:0:0:0:
182,192,305934,1,0,0:0:0:0:
329,192,306028,1,0,0:0:0:0:
256,192,306028,1,0,0:0:0:0:
402,192,306028,1,0,0:0:0:0:
329,192,306121,1,0,0:0:0:0:
402,192,306121,1,0,0:0:0:0:
36,192,306215,1,0,0:0:0:0:
109,192,306215,1,0,0:0:0:0:
36,192,306309,1,0,0:0:0:0:
109,192,306309,1,0,0:0:0:0:
402,192,306403,1,0,0:0:0:0:
256,192,306403,1,0,0:0:0:0:
475,192,306403,1,0,0:0:0:0:
329,192,306590,1,0,0:0:0:0:
402,192,306590,1,0,0:0:0:0:
329,192,306684,1,0,0:0:0:0:
402,192,306684,1,0,0:0:0:0:
256,192,306778,1,0,0:0:0:0:
36,192,306778,1,0,0:0:0:0:
109,192,306778,1,0,0:0:0:0:
36,192,306871,1,0,0:0:0:0:
109,192,306871,1,0,0:0:0:0:
402,192,306965,1,0,0:0:0:0:
475,192,306965,1,0,0:0:0:0:
256,192,307153,1,0,0:0:0:0:
402,192,307153,1,0,0:0:0:0:
475,192,307153,1,0,0:0:0:0:
402,192,307246,1,0,0:0:0:0:
475,192,307246,1,0,0:0:0:0:
402,192,307340,1,0,0:0:0:0:
475,192,307340,1,0,0:0:0:0:
402,192,307434,1,0,0:0:0:0:
475,192,307434,1,0,0:0:0:0:
256,192,307528,1,0,0:0:0:0:
36,192,307528,1,0,0:0:0:0:
109,192,307528,1,0,0:0:0:0:
402,192,307621,1,0,0:0:0:0:
475,192,307621,1,0,0:0:0:0:
182,192,307715,1,0,0:0:0:0:
329,192,307715,1,0,0:0:0:0:
402,192,307809,1,0,0:0:0:0:
475,192,307809,1,0,0:0:0:0:
36,192,307903,1,0,0:0:0:0:
109,192,307903,1,0,0:0:0:0:
256,192,307903,1,0,0:0:0:0:
402,192,308090,1,0,0:0:0:0:
475,192,308090,1,0,0:0:0:0:
182,192,308184,1,0,0:0:0:0:
329,192,308184,1,0,0:0:0:0:
256,192,308278,1,0,0:0:0:0:
36,192,308278,1,0,0:0:0:0:
109,192,308278,1,0,0:0:0:0:
182,192,308371,1,0,0:0:0:0:
329,192,308371,1,0,0:0:0:0:
402,192,308465,1,0,0:0:0:0:
475,192,308465,1,0,0:0:0:0:
256,192,308653,1,0,0:0:0:0:
182,192,308653,1,0,0:0:0:0:
36,192,308653,1,0,0:0:0:0:
36,192,308746,1,0,0:0:0:0:
182,192,308746,1,0,0:0:0:0:
329,192,308840,1,0,0:0:0:0:
475,192,308840,1,0,0:0:0:0:
475,192,308934,1,0,0:0:0:0:
329,192,308934,1,0,0:0:0:0:
36,192,309028,1,0,0:0:0:0:
109,192,309028,1,0,0:0:0:0:
182,192,309028,1,0,0:0:0:0:
182,192,309121,1,0,0:0:0:0:
402,192,309121,1,0,0:0:0:0:
402,192,309215,1,0,0:0:0:0:
329,192,309215,1,0,0:0:0:0:
36,192,309309,1,0,0:0:0:0:
109,192,309309,1,0,0:0:0:0:
182,192,309309,1,0,0:0:0:0:
402,192,309403,1,0,0:0:0:0:
182,192,309403,1,0,0:0:0:0:
329,192,309496,1,0,0:0:0:0:
402,192,309496,1,0,0:0:0:0:
36,192,309590,1,0,0:0:0:0:
109,192,309590,1,0,0:0:0:0:
182,192,309590,1,0,0:0:0:0:
402,192,309684,1,0,0:0:0:0:
182,192,309684,1,0,0:0:0:0:
329,192,309778,1,0,0:0:0:0:
402,192,309778,1,0,0:0:0:0:
36,192,309871,1,0,0:0:0:0:
109,192,309871,1,0,0:0:0:0:
182,192,309871,1,0,0:0:0:0:
402,192,309965,1,0,0:0:0:0:
182,192,309965,1,0,0:0:0:0:
329,192,310059,1,0,0:0:0:0:
402,192,310059,1,0,0:0:0:0:
36,192,310153,1,0,0:0:0:0:
109,192,310153,1,0,0:0:0:0:
182,192,310153,1,0,0:0:0:0:
36,192,310246,1,0,0:0:0:0:
109,192,310246,1,0,0:0:0:0:
182,192,310246,1,0,0:0:0:0:
475,192,310340,1,0,0:0:0:0:
329,192,310340,1,0,0:0:0:0:
402,192,310340,1,0,0:0:0:0:
402,192,310434,1,0,0:0:0:0:
329,192,310434,1,0,0:0:0:0:
475,192,310434,1,0,0:0:0:0:
36,192,310528,1,0,0:0:0:0:
109,192,310528,1,0,0:0:0:0:
256,192,310528,1,0,0:0:0:0:
36,192,310621,1,0,0:0:0:0:
182,192,310621,1,0,0:0:0:0:
256,192,310715,1,0,0:0:0:0:
402,192,310715,1,0,0:0:0:0:
182,192,310809,1,0,0:0:0:0:
329,192,310809,1,0,0:0:0:0:
402,192,310809,1,0,0:0:0:0:
475,192,310903,1,0,0:0:0:0:
109,192,310903,1,0,0:0:0:0:
36,192,310903,1,0,0:0:0:0:
182,192,311090,1,0,0:0:0:0:
36,192,311090,1,0,0:0:0:0:
402,192,311090,1,0,0:0:0:0:
256,192,311090,1,0,0:0:0:0:
329,192,311184,1,0,0:0:0:0:
402,192,311184,1,0,0:0:0:0:
109,192,311278,1,0,0:0:0:0:
182,192,311278,1,0,0:0:0:0:
329,192,311371,1,0,0:0:0:0:
109,192,311371,1,0,0:0:0:0:
402,192,311465,1,0,0:0:0:0:
36,192,311465,1,0,0:0:0:0:
475,192,311465,1,0,0:0:0:0:
256,192,311465,1,0,0:0:0:0:
182,192,311653,1,0,0:0:0:0:
109,192,311653,1,0,0:0:0:0:
475,192,311653,1,0,0:0:0:0:
329,192,311653,1,0,0:0:0:0:
329,192,311746,1,0,0:0:0:0:
402,192,311746,1,0,0:0:0:0:
36,192,311840,1,0,0:0:0:0:
182,192,311840,1,0,0:0:0:0:
256,192,311934,1,0,0:0:0:0:
109,192,311934,1,0,0:0:0:0:
402,192,311934,1,0,0:0:0:0:
402,192,312028,1,0,0:0:0:0:
182,192,312028,1,0,0:0:0:0:
329,192,312028,1,0,0:0:0:0:
329,192,312121,1,0,0:0:0:0:
36,192,312121,1,0,0:0:0:0:
109,192,312121,1,0,0:0:0:0:
36,192,312215,1,0,0:0:0:0:
182,192,312215,1,0,0:0:0:0:
475,192,312215,1,0,0:0:0:0:
329,192,312309,1,0,0:0:0:0:
402,192,312309,1,0,0:0:0:0:
402,192,312403,1,0,0:0:0:0:
256,192,312403,1,0,0:0:0:0:
109,192,312403,1,0,0:0:0:0:
36,192,312403,1,0,0:0:0:0:
36,192,312590,1,0,0:0:0:0:
182,192,312590,1,0,0:0:0:0:
475,192,312590,1,0,0:0:0:0:
329,192,312684,1,0,0:0:0:0:
475,192,312684,1,0,0:0:0:0:
402,192,312778,1,0,0:0:0:0:
109,192,312778,1,0,0:0:0:0:
256,192,312778,1,0,0:0:0:0:
109,192,312871,1,0,0:0:0:0:
182,192,312871,1,0,0:0:0:0:
36,192,312965,1,0,0:0:0:0:
256,192,312965,1,0,0:0:0:0:
475,192,312965,1,0,0:0:0:0:
329,192,312965,1,0,0:0:0:0:
256,192,313153,1,0,0:0:0:0:
109,192,313153,1,0,0:0:0:0:
475,192,313153,1,0,0:0:0:0:
402,192,313153,1,0,0:0:0:0:
109,192,313246,1,0,0:0:0:0:
256,192,313246,1,0,0:0:0:0:
402,192,313246,1,0,0:0:0:0:
182,192,313340,1,0,0:0:0:0:
329,192,313340,1,0,0:0:0:0:
402,192,313434,1,0,0:0:0:0:
109,192,313434,1,0,0:0:0:0:
256,192,313434,1,0,0:0:0:0:
475,192,313528,1,0,0:0:0:0:
36,192,313528,1,0,0:0:0:0:
182,192,313528,1,0,0:0:0:0:
329,192,313621,1,0,0:0:0:0:
475,192,313621,1,0,0:0:0:0:
109,192,313715,1,0,0:0:0:0:
256,192,313715,1,0,0:0:0:0:
329,192,313809,1,0,0:0:0:0:
109,192,313809,1,0,0:0:0:0:
182,192,313809,1,0,0:0:0:0:
36,192,313903,1,0,0:0:0:0:
402,192,313903,1,0,0:0:0:0:
475,192,313903,1,0,0:0:0:0:
256,192,313903,1,0,0:0:0:0:
36,192,314090,1,0,0:0:0:0:
182,192,314090,1,0,0:0:0:0:
475,192,314090,1,0,0:0:0:0:
109,192,314184,1,0,0:0:0:0:
256,192,314184,1,0,0:0:0:0:
109,192,314278,1,0,0:0:0:0:
402,192,314278,1,0,0:0:0:0:
182,192,314371,1,0,0:0:0:0:
329,192,314371,1,0,0:0:0:0:
402,192,314371,1,0,0:0:0:0:
109,192,314465,1,0,0:0:0:0:
256,192,314465,1,0,0:0:0:0:
36,192,314465,1,0,0:0:0:0:
475,192,314465,1,0,0:0:0:0:
182,192,314653,1,0,0:0:0:0:
36,192,314653,1,0,0:0:0:0:
402,192,314653,1,0,0:0:0:0:
256,192,314653,1,0,0:0:0:0:
329,192,314746,1,0,0:0:0:0:
36,192,314746,1,0,0:0:0:0:
109,192,314746,1,0,0:0:0:0:
182,192,314840,1,0,0:0:0:0:
329,192,314840,1,0,0:0:0:0:
402,192,314934,1,0,0:0:0:0:
109,192,314934,1,0,0:0:0:0:
182,192,315028,1,0,0:0:0:0:
475,192,315028,1,0,0:0:0:0:
256,192,315028,1,0,0:0:0:0:
36,192,315028,1,0,0:0:0:0:
329,192,315074,1,0,0:0:0:0:
109,192,315121,1,0,0:0:0:0:
402,192,315121,1,0,0:0:0:0:
182,192,315168,1,0,0:0:0:0:
256,192,315215,1,0,0:0:0:0:
402,192,315262,1,0,0:0:0:0:
182,192,315309,1,0,0:0:0:0:
329,192,315309,1,0,0:0:0:0:
109,192,315356,1,0,0:0:0:0:
256,192,315403,1,0,0:0:0:0:
329,192,315449,1,0,0:0:0:0:
36,192,315496,1,0,0:0:0:0:
475,192,315496,1,0,0:0:0:0:
109,192,315543,1,0,0:0:0:0:
402,192,315543,1,0,0:0:0:0:
182,192,315590,1,0,0:0:0:0:
329,192,315637,1,0,0:0:0:0:
36,192,315684,1,0,0:0:0:0:
402,192,315684,1,0,0:0:0:0:
109,192,315731,1,0,0:0:0:0:
475,192,315778,1,0,0:0:0:0:
182,192,315778,1,0,0:0:0:0:
402,192,315824,1,0,0:0:0:0:
36,192,315871,1,0,0:0:0:0:
256,192,315871,1,0,0:0:0:0:
182,192,315918,1,0,0:0:0:0:
109,192,315965,1,0,0:0:0:0:
329,192,316012,1,0,0:0:0:0:
182,192,316059,1,0,0:0:0:0:
402,192,316059,1,0,0:0:0:0:
109,192,316106,1,0,0:0:0:0:
475,192,316153,1,0,0:0:0:0:
256,192,316153,1,0,0:0:0:0:
36,192,316153,1,0,0:0:0:0:
402,192,316199,1,0,0:0:0:0:
109,192,316246,1,0,0:0:0:0:
329,192,316246,1,0,0:0:0:0:
182,192,316293,1,0,0:0:0:0:
256,192,316340,1,0,0:0:0:0:
329,192,316387,1,0,0:0:0:0:
182,192,316434,1,0,0:0:0:0:
402,192,316434,1,0,0:0:0:0:
109,192,316481,1,0,0:0:0:0:
256,192,316528,1,0,0:0:0:0:
475,192,316528,1,0,0:0:0:0:
36,192,316528,1,0,0:0:0:0:
402,192,316574,1,0,0:0:0:0:
329,192,316621,1,0,0:0:0:0:
182,192,316668,1,0,0:0:0:0:
402,192,316715,1,0,0:0:0:0:
109,192,316762,1,0,0:0:0:0:
256,192,316809,1,0,0:0:0:0:
329,192,316856,1,0,0:0:0:0:
36,192,316903,1,0,0:0:0:0:
475,192,316903,1,0,0:0:0:0:
182,192,316949,1,0,0:0:0:0:
402,192,316996,1,0,0:0:0:0:
256,192,317043,1,0,0:0:0:0:
109,192,317090,1,0,0:0:0:0:
402,192,317137,1,0,0:0:0:0:
182,192,317184,1,0,0:0:0:0:
329,192,317231,1,0,0:0:0:0:
36,192,317278,1,0,0:0:0:0:
475,192,317278,1,0,0:0:0:0:
109,192,317324,1,0,0:0:0:0:
256,192,317371,1,0,0:0:0:0:
402,192,317418,1,0,0:0:0:0:
182,192,317465,1,0,0:0:0:0:
329,192,317512,1,0,0:0:0:0:
109,192,317559,1,0,0:0:0:0:
182,192,317606,1,0,0:0:0:0:
256,192,317653,1,0,0:0:0:0:
475,192,317653,1,0,0:0:0:0:
402,192,317699,1,0,0:0:0:0:
182,192,317746,1,0,0:0:0:0:
36,192,317793,1,0,0:0:0:0:
329,192,317840,1,0,0:0:0:0:
109,192,317887,1,0,0:0:0:0:
256,192,317934,1,0,0:0:0:0:
402,192,317981,1,0,0:0:0:0:
182,192,318028,1,0,0:0:0:0:
475,192,318028,1,0,0:0:0:0:
329,192,318074,1,0,0:0:0:0:
109,192,318121,1,0,0:0:0:0:
256,192,318168,1,0,0:0:0:0:
36,192,318215,1,0,0:0:0:0:
109,192,318262,1,0,0:0:0:0:
402,192,318309,1,0,0:0:0:0:
182,192,318356,1,0,0:0:0:0:
256,192,318403,1,0,0:0:0:0:
475,192,318403,1,0,0:0:0:0:
402,192,318449,1,0,0:0:0:0:
109,192,318496,1,0,0:0:0:0:
329,192,318543,1,0,0:0:0:0:
182,192,318590,1,0,0:0:0:0:
402,192,318637,1,0,0:0:0:0:
256,192,318684,1,0,0:0:0:0:
109,192,318731,1,0,0:0:0:0:
475,192,318778,1,0,0:0:0:0:
36,192,318778,1,0,0:0:0:0:
329,192,318824,1,0,0:0:0:0:
182,192,318871,1,0,0:0:0:0:
256,192,318918,1,0,0:0:0:0:
402,192,318965,1,0,0:0:0:0:
109,192,319012,1,0,0:0:0:0:
329,192,319059,1,0,0:0:0:0:
182,192,319106,1,0,0:0:0:0:
36,192,319153,1,0,0:0:0:0:
475,192,319153,1,0,0:0:0:0:
329,192,319199,1,0,0:0:0:0:
109,192,319246,1,0,0:0:0:0:
402,192,319293,1,0,0:0:0:0:
182,192,319340,1,0,0:0:0:0:
256,192,319340,1,0,0:0:0:0:
329,192,319387,1,0,0:0:0:0:
475,192,319434,1,0,0:0:0:0:
109,192,319434,1,0,0:0:0:0:
402,192,319481,1,0,0:0:0:0:
329,192,319528,1,0,0:0:0:0:
256,192,319528,1,0,0:0:0:0:
36,192,319574,1,0,0:0:0:0:
109,192,319621,1,0,0:0:0:0:
475,192,319668,1,0,0:0:0:0:
182,192,319715,1,0,0:0:0:0:
402,192,319762,1,0,0:0:0:0:
256,192,319809,1,0,0:0:0:0:
109,192,319856,1,0,0:0:0:0:
36,192,319903,1,0,0:0:0:0:
475,192,319903,1,0,0:0:0:0:
329,192,319949,1,0,0:0:0:0:
182,192,319996,1,0,0:0:0:0:
402,192,320043,1,0,0:0:0:0:
256,192,320090,1,0,0:0:0:0:
109,192,320137,1,0,0:0:0:0:
182,192,320184,1,0,0:0:0:0:
329,192,320231,1,0,0:0:0:0:
36,192,320278,1,0,0:0:0:0:
475,192,320278,1,0,0:0:0:0:
256,192,320324,1,0,0:0:0:0:
109,192,320371,1,0,0:0:0:0:
402,192,320418,1,0,0:0:0:0:
182,192,320465,1,0,0:0:0:0:
329,192,320512,1,0,0:0:0:0:
256,192,320559,1,0,0:0:0:0:
109,192,320606,1,0,0:0:0:0:
36,192,320653,1,0,0:0:0:0:
475,192,320653,1,0,0:0:0:0:
329,192,320699,1,0,0:0:0:0:
182,192,320746,1,0,0:0:0:0:
402,192,320793,1,0,0:0:0:0:
256,192,320840,1,0,0:0:0:0:
109,192,320887,1,0,0:0:0:0:
329,192,320934,1,0,0:0:0:0:
182,192,320981,1,0,0:0:0:0:
256,192,321028,1,0,0:0:0:0:
36,192,321028,1,0,0:0:0:0:
475,192,321028,1,0,0:0:0:0:
402,192,321074,1,0,0:0:0:0:
182,192,321121,1,0,0:0:0:0:
329,192,321121,1,0,0:0:0:0:
109,192,321168,1,0,0:0:0:0:
475,192,321215,1,0,0:0:0:0:
402,192,321262,1,0,0:0:0:0:
256,192,321309,1,0,0:0:0:0:
36,192,321309,1,0,0:0:0:0:
109,192,321356,1,0,0:0:0:0:
329,192,321403,1,0,0:0:0:0:
182,192,321403,1,0,0:0:0:0:
402,192,321449,1,0,0:0:0:0:
36,192,321496,1,0,0:0:0:0:
109,192,321543,1,0,0:0:0:0:
475,192,321590,1,0,0:0:0:0:
256,192,321590,1,0,0:0:0:0:
402,192,321637,1,0,0:0:0:0:
329,192,321684,1,0,0:0:0:0:
182,192,321684,1,0,0:0:0:0:
109,192,321731,1,0,0:0:0:0:
475,192,321778,1,0,0:0:0:0:
402,192,321824,1,0,0:0:0:0:
256,192,321871,1,0,0:0:0:0:
36,192,321871,1,0,0:0:0:0:
109,192,321918,1,0,0:0:0:0:
329,192,321965,1,0,0:0:0:0:
182,192,321965,1,0,0:0:0:0:
402,192,322012,1,0,0:0:0:0:
36,192,322059,1,0,0:0:0:0:
109,192,322106,1,0,0:0:0:0:
475,192,322153,1,0,0:0:0:0:
256,192,322153,1,0,0:0:0:0:
402,192,322199,1,0,0:0:0:0:
329,192,322246,1,0,0:0:0:0:
182,192,322246,1,0,0:0:0:0:
109,192,322293,1,0,0:0:0:0:
36,192,322340,1,0,0:0:0:0:
256,192,322340,1,0,0:0:0:0:
329,192,322387,1,0,0:0:0:0:
109,192,322434,1,0,0:0:0:0:
402,192,322434,1,0,0:0:0:0:
182,192,322481,1,0,0:0:0:0:
36,192,322528,1,0,0:0:0:0:
256,192,322528,1,0,0:0:0:0:
475,192,322528,1,0,0:0:0:0:
329,192,322574,1,0,0:0:0:0:
109,192,322621,1,0,0:0:0:0:
402,192,322668,1,0,0:0:0:0:
182,192,322715,1,0,0:0:0:0:
329,192,322762,1,0,0:0:0:0:
109,192,322809,1,0,0:0:0:0:
256,192,322856,1,0,0:0:0:0:
402,192,322903,1,0,0:0:0:0:
36,192,322903,1,0,0:0:0:0:
475,192,322903,1,0,0:0:0:0:
182,192,322949,1,0,0:0:0:0:
329,192,322996,1,0,0:0:0:0:
109,192,323043,1,0,0:0:0:0:
402,192,323090,1,0,0:0:0:0:
256,192,323137,1,0,0:0:0:0:
182,192,323184,1,0,0:0:0:0:
329,192,323231,1,0,0:0:0:0:
36,192,323278,1,0,0:0:0:0:
402,192,323278,1,0,0:0:0:0:
475,192,323278,1,0,0:0:0:0:
109,192,323324,1,0,0:0:0:0:
256,192,323371,1,0,0:0:0:0:
182,192,323418,1,0,0:0:0:0:
329,192,323465,1,0,0:0:0:0:
109,192,323512,1,0,0:0:0:0:
256,192,323559,1,0,0:0:0:0:
402,192,323606,1,0,0:0:0:0:
329,192,323653,1,0,0:0:0:0:
36,192,323653,1,0,0:0:0:0:
182,192,323653,1,0,0:0:0:0:
475,192,323699,1,0,0:0:0:0:
256,192,323746,1,0,0:0:0:0:
109,192,323793,1,0,0:0:0:0:
329,192,323840,1,0,0:0:0:0:
182,192,323887,1,0,0:0:0:0:
256,192,323934,1,0,0:0:0:0:
402,192,323981,1,0,0:0:0:0:
36,192,324028,1,0,0:0:0:0:
109,192,324028,1,0,0:0:0:0:
475,192,324028,1,0,0:0:0:0:
329,192,324074,1,0,0:0:0:0:
182,192,324121,1,0,0:0:0:0:
402,192,324168,1,0,0:0:0:0:
256,192,324215,1,0,0:0:0:0:
109,192,324262,1,0,0:0:0:0:
329,192,324309,1,0,0:0:0:0:
402,192,324356,1,0,0:0:0:0:
475,192,324403,1,0,0:0:0:0:
36,192,324403,1,0,0:0:0:0:
182,192,324403,1,0,0:0:0:0:
256,192,324449,1,0,0:0:0:0:
109,192,324496,1,0,0:0:0:0:
402,192,324543,1,0,0:0:0:0:
182,192,324590,1,0,0:0:0:0:
329,192,324637,1,0,0:0:0:0:
256,192,324684,1,0,0:0:0:0:
109,192,324731,1,0,0:0:0:0:
402,192,324778,1,0,0:0:0:0:
475,192,324778,1,0,0:0:0:0:
36,192,324778,1,0,0:0:0:0:
329,192,324824,1,0,0:0:0:0:
182,192,324871,1,0,0:0:0:0:
256,192,324918,1,0,0:0:0:0:
402,192,324965,1,0,0:0:0:0:
109,192,325012,1,0,0:0:0:0:
329,192,325059,1,0,0:0:0:0:
182,192,325106,1,0,0:0:0:0:
256,192,325153,1,0,0:0:0:0:
475,192,325153,1,0,0:0:0:0:
36,192,325153,1,0,0:0:0:0:
402,192,325199,1,0,0:0:0:0:
109,192,325246,1,0,0:0:0:0:
329,192,325293,1,0,0:0:0:0:
182,192,325340,1,0,0:0:0:0:
402,192,325387,1,0,0:0:0:0:
329,192,325434,1,0,0:0:0:0:
109,192,325481,1,0,0:0:0:0:
256,192,325528,1,0,0:0:0:0:
475,192,325528,1,0,0:0:0:0:
182,192,325528,1,0,0:0:0:0:
402,192,325574,1,0,0:0:0:0:
36,192,325621,1,0,0:0:0:0:
329,192,325621,1,0,0:0:0:0:
109,192,325668,1,0,0:0:0:0:
475,192,325715,1,0,0:0:0:0:
182,192,325715,1,0,0:0:0:0:
402,192,325762,1,0,0:0:0:0:
36,192,325809,1,0,0:0:0:0:
329,192,325809,1,0,0:0:0:0:
109,192,325856,1,0,0:0:0:0:
475,192,325903,1,0,0:0:0:0:
182,192,325903,1,0,0:0:0:0:
402,192,325949,1,0,0:0:0:0:
36,192,325996,1,0,0:0:0:0:
329,192,325996,1,0,0:0:0:0:
109,192,326043,1,0,0:0:0:0:
475,192,326090,1,0,0:0:0:0:
182,192,326090,1,0,0:0:0:0:
402,192,326137,1,0,0:0:0:0:
36,192,326184,1,0,0:0:0:0:
329,192,326184,1,0,0:0:0:0:
109,192,326231,1,0,0:0:0:0:
329,192,326278,1,0,0:0:0:0:
182,192,326278,1,0,0:0:0:0:
402,192,326324,1,0,0:0:0:0:
182,192,326371,1,0,0:0:0:0:
475,192,326371,1,0,0:0:0:0:
109,192,326418,1,0,0:0:0:0:
329,192,326465,1,0,0:0:0:0:
36,192,326465,1,0,0:0:0:0:
402,192,326512,1,0,0:0:0:0:
182,192,326559,1,0,0:0:0:0:
475,192,326559,1,0,0:0:0:0:
109,192,326606,1,0,0:0:0:0:
329,192,326653,1,0,0:0:0:0:
36,192,326653,1,0,0:0:0:0:
402,192,326699,1,0,0:0:0:0:
182,192,326746,1,0,0:0:0:0:
475,192,326746,1,0,0:0:0:0:
109,192,326793,1,0,0:0:0:0:
329,192,326840,1,0,0:0:0:0:
36,192,326840,1,0,0:0:0:0:
402,192,326887,1,0,0:0:0:0:
182,192,326934,1,0,0:0:0:0:
475,192,326934,1,0,0:0:0:0:
109,192,326981,1,0,0:0:0:0:
256,192,327028,1,0,0:0:0:0:
329,192,327028,1,0,0:0:0:0:
36,192,327028,1,0,0:0:0:0:
402,192,327028,1,0,0:0:0:0:
182,192,327074,1,0,0:0:0:0:
402,192,327121,1,0,0:0:0:0:
109,192,327121,1,0,0:0:0:0:
329,192,327168,1,0,0:0:0:0:
36,192,327215,1,0,0:0:0:0:
256,192,327215,1,0,0:0:0:0:
109,192,327262,1,0,0:0:0:0:
329,192,327309,1,0,0:0:0:0:
182,192,327309,1,0,0:0:0:0:
402,192,327356,1,0,0:0:0:0:
256,192,327403,1,0,0:0:0:0:
475,192,327403,1,0,0:0:0:0:
182,192,327449,1,0,0:0:0:0:
402,192,327496,1,0,0:0:0:0:
109,192,327496,1,0,0:0:0:0:
329,192,327543,1,0,0:0:0:0:
36,192,327590,1,0,0:0:0:0:
256,192,327590,1,0,0:0:0:0:
109,192,327637,1,0,0:0:0:0:
329,192,327684,1,0,0:0:0:0:
182,192,327684,1,0,0:0:0:0:
402,192,327731,1,0,0:0:0:0:
182,192,327778,1,0,0:0:0:0:
256,192,327778,1,0,0:0:0:0:
475,192,327778,1,0,0:0:0:0:
109,192,327824,1,0,0:0:0:0:
329,192,327871,1,0,0:0:0:0:
36,192,327871,1,0,0:0:0:0:
182,192,327918,1,0,0:0:0:0:
402,192,327918,1,0,0:0:0:0:
109,192,327965,1,0,0:0:0:0:
475,192,327965,1,0,0:0:0:0:
329,192,328012,1,0,0:0:0:0:
36,192,328012,1,0,0:0:0:0:
182,192,328059,1,0,0:0:0:0:
402,192,328059,1,0,0:0:0:0:
109,192,328106,1,0,0:0:0:0:
475,192,328106,1,0,0:0:0:0:
329,192,328153,1,0,0:0:0:0:
36,192,328153,1,0,0:0:0:0:
182,192,328199,1,0,0:0:0:0:
402,192,328199,1,0,0:0:0:0:
109,192,328246,1,0,0:0:0:0:
475,192,328246,1,0,0:0:0:0:
329,192,328293,1,0,0:0:0:0:
36,192,328293,1,0,0:0:0:0:
182,192,328340,1,0,0:0:0:0:
402,192,328340,1,0,0:0:0:0:
109,192,328387,1,0,0:0:0:0:
475,192,328387,1,0,0:0:0:0:
329,192,328434,1,0,0:0:0:0:
36,192,328434,1,0,0:0:0:0:
182,192,328481,1,0,0:0:0:0:
402,192,328481,1,0,0:0:0:0:
256,192,328528,1,0,0:0:0:0:
36,192,328528,1,0,0:0:0:0:
475,192,328528,1,0,0:0:0:0:
109,192,328528,1,0,0:0:0:0:
182,192,328621,1,0,0:0:0:0:
182,192,328715,1,0,0:0:0:0:
256,192,328809,1,0,0:0:0:0:
109,192,328809,1,0,0:0:0:0:
475,192,328809,1,0,0:0:0:0:
402,192,328809,1,0,0:0:0:0:
329,192,328903,1,0,0:0:0:0:
329,192,328996,1,0,0:0:0:0:
182,192,329090,1,0,0:0:0:0:
36,192,329090,1,0,0:0:0:0:
256,192,329090,1,0,0:0:0:0:
475,192,329090,1,0,0:0:0:0:
402,192,329090,1,0,0:0:0:0:
36,192,329184,1,0,0:0:0:0:
475,192,329278,1,0,0:0:0:0:
329,192,329278,1,0,0:0:0:0:
109,192,329278,1,0,0:0:0:0:
402,192,329278,1,0,0:0:0:0:
182,192,329278,1,0,0:0:0:0:
329,192,329371,1,0,0:0:0:0:
402,192,329371,1,0,0:0:0:0:
182,192,329465,1,0,0:0:0:0:
109,192,329465,1,0,0:0:0:0:
402,192,329465,1,0,0:0:0:0:
329,192,329465,1,0,0:0:0:0:
109,192,329559,1,0,0:0:0:0:
182,192,329559,1,0,0:0:0:0:
256,192,329653,1,0,0:0:0:0:
475,192,329653,1,0,0:0:0:0:
109,192,329746,1,0,0:0:0:0:
402,192,329746,1,0,0:0:0:0:
329,192,329746,1,0,0:0:0:0:
182,192,329746,1,0,0:0:0:0:
256,192,329840,1,0,0:0:0:0:
36,192,329840,1,0,0:0:0:0:
402,192,329934,1,0,0:0:0:0:
329,192,329934,1,0,0:0:0:0:
182,192,329934,1,0,0:0:0:0:
109,192,329934,1,0,0:0:0:0:
36,192,330028,1,0,0:0:0:0:
402,192,330028,1,0,0:0:0:0:
109,192,330028,1,0,0:0:0:0:
475,192,330028,1,0,0:0:0:0:
256,192,330028,1,0,0:0:0:0:
182,192,330121,1,0,0:0:0:0:
182,192,330215,1,0,0:0:0:0:
402,192,330309,1,0,0:0:0:0:
109,192,330309,1,0,0:0:0:0:
256,192,330309,1,0,0:0:0:0:
475,192,330309,1,0,0:0:0:0:
329,192,330403,1,0,0:0:0:0:
329,192,330496,1,0,0:0:0:0:
256,192,330590,1,0,0:0:0:0:
36,192,330590,1,0,0:0:0:0:
182,192,330590,1,0,0:0:0:0:
475,192,330590,1,0,0:0:0:0:
402,192,330590,1,0,0:0:0:0:
36,192,330684,1,0,0:0:0:0:
402,192,330778,1,0,0:0:0:0:
109,192,330778,1,0,0:0:0:0:
182,192,330778,1,0,0:0:0:0:
475,192,330778,1,0,0:0:0:0:
329,192,330824,1,0,0:0:0:0:
256,192,330871,1,0,0:0:0:0:
402,192,330918,1,0,0:0:0:0:
182,192,330965,1,0,0:0:0:0:
109,192,330965,1,0,0:0:0:0:
329,192,330965,1,0,0:0:0:0:
109,192,331059,1,0,0:0:0:0:
182,192,331059,1,0,0:0:0:0:
256,192,331153,1,0,0:0:0:0:
475,192,331153,1,0,0:0:0:0:
402,192,331246,1,0,0:0:0:0:
182,192,331246,1,0,0:0:0:0:
109,192,331246,1,0,0:0:0:0:
329,192,331246,1,0,0:0:0:0:
256,192,331340,1,0,0:0:0:0:
36,192,331340,1,0,0:0:0:0:
329,192,331434,1,0,0:0:0:0:
402,192,331434,1,0,0:0:0:0:
109,192,331434,1,0,0:0:0:0:
182,192,331434,1,0,0:0:0:0:
109,192,331528,1,0,0:0:0:0:
36,192,331528,1,0,0:0:0:0:
402,192,331528,1,0,0:0:0:0:
256,192,331528,1,0,0:0:0:0:
475,192,331528,1,0,0:0:0:0:
182,192,331621,1,0,0:0:0:0:
182,192,331715,1,0,0:0:0:0:
402,192,331809,1,0,0:0:0:0:
109,192,331809,1,0,0:0:0:0:
256,192,331809,1,0,0:0:0:0:
475,192,331809,1,0,0:0:0:0:
329,192,331903,1,0,0:0:0:0:
329,192,331996,1,0,0:0:0:0:
475,192,332090,1,0,0:0:0:0:
402,192,332090,1,0,0:0:0:0:
256,192,332090,1,0,0:0:0:0:
36,192,332090,1,0,0:0:0:0:
182,192,332090,1,0,0:0:0:0:
36,192,332184,1,0,0:0:0:0:
329,192,332278,1,0,0:0:0:0:
109,192,332278,1,0,0:0:0:0:
182,192,332278,1,0,0:0:0:0:
475,192,332278,1,0,0:0:0:0:
256,192,332371,1,0,0:0:0:0:
402,192,332371,1,0,0:0:0:0:
329,192,332465,1,0,0:0:0:0:
36,192,332465,1,0,0:0:0:0:
475,192,332465,1,0,0:0:0:0:
109,192,332465,1,0,0:0:0:0:
182,192,332559,1,0,0:0:0:0:
256,192,332653,1,0,0:0:0:0:
475,192,332653,1,0,0:0:0:0:
402,192,332746,1,0,0:0:0:0:
182,192,332746,1,0,0:0:0:0:
109,192,332746,1,0,0:0:0:0:
329,192,332746,1,0,0:0:0:0:
256,192,332840,1,0,0:0:0:0:
36,192,332840,1,0,0:0:0:0:
329,192,332934,1,0,0:0:0:0:
402,192,332934,1,0,0:0:0:0:
109,192,332934,1,0,0:0:0:0:
182,192,332934,1,0,0:0:0:0:
475,192,333028,1,0,0:0:0:0:
36,192,333028,1,0,0:0:0:0:
402,192,333028,1,0,0:0:0:0:
256,192,333028,1,0,0:0:0:0:
109,192,333074,1,0,0:0:0:0:
329,192,333121,1,0,0:0:0:0:
182,192,333121,1,0,0:0:0:0:
402,192,333168,1,0,0:0:0:0:
109,192,333215,1,0,0:0:0:0:
475,192,333215,1,0,0:0:0:0:
36,192,333262,1,0,0:0:0:0:
402,192,333309,1,0,0:0:0:0:
109,192,333356,1,0,0:0:0:0:
329,192,333356,1,0,0:0:0:0:
182,192,333403,1,0,0:0:0:0:
402,192,333449,1,0,0:0:0:0:
109,192,333496,1,0,0:0:0:0:
475,192,333496,1,0,0:0:0:0:
36,192,333543,1,0,0:0:0:0:
402,192,333590,1,0,0:0:0:0:
109,192,333637,1,0,0:0:0:0:
329,192,333637,1,0,0:0:0:0:
182,192,333684,1,0,0:0:0:0:
402,192,333731,1,0,0:0:0:0:
256,192,333778,1,0,0:0:0:0:
329,192,333778,1,0,0:0:0:0:
36,192,333778,1,0,0:0:0:0:
109,192,333824,1,0,0:0:0:0:
402,192,333871,1,0,0:0:0:0:
182,192,333918,1,0,0:0:0:0:
475,192,333918,1,0,0:0:0:0:
109,192,333965,1,0,0:0:0:0:
402,192,334012,1,0,0:0:0:0:
36,192,334059,1,0,0:0:0:0:
329,192,334059,1,0,0:0:0:0:
109,192,334106,1,0,0:0:0:0:
256,192,334153,1,0,0:0:0:0:
402,192,334153,1,0,0:0:0:0:
182,192,334199,1,0,0:0:0:0:
475,192,334199,1,0,0:0:0:0:
109,192,334246,1,0,0:0:0:0:
402,192,334293,1,0,0:0:0:0:
329,192,334340,1,0,0:0:0:0:
36,192,334340,1,0,0:0:0:0:
109,192,334387,1,0,0:0:0:0:
256,192,334434,1,0,0:0:0:0:
329,192,334481,1,0,0:0:0:0:
36,192,334528,1,0,0:0:0:0:
109,192,334528,1,0,0:0:0:0:
182,192,334528,1,0,0:0:0:0:
475,192,334528,1,0,0:0:0:0:
402,192,334528,1,0,0:0:0:0:
36,192,334621,1,0,0:0:0:0:
109,192,334621,1,0,0:0:0:0:
36,192,334715,1,0,0:0:0:0:
109,192,334715,1,0,0:0:0:0:
256,192,334809,1,0,0:0:0:0:
182,192,334809,1,0,0:0:0:0:
329,192,334809,1,0,0:0:0:0:
475,192,334809,1,0,0:0:0:0:
402,192,334809,1,0,0:0:0:0:
402,192,334903,1,0,0:0:0:0:
475,192,334903,1,0,0:0:0:0:
402,192,334996,1,0,0:0:0:0:
475,192,334996,1,0,0:0:0:0:
109,192,335090,1,0,0:0:0:0:
36,192,335090,1,0,0:0:0:0:
182,192,335090,1,0,0:0:0:0:
329,192,335090,1,0,0:0:0:0:
256,192,335090,1,0,0:0:0:0:
36,192,335184,1,0,0:0:0:0:
475,192,335278,1,0,0:0:0:0:
402,192,335278,1,0,0:0:0:0:
256,192,335278,1,0,0:0:0:0:
109,192,335278,1,0,0:0:0:0:
182,192,335278,1,0,0:0:0:0:
402,192,335371,1,0,0:0:0:0:
475,192,335371,1,0,0:0:0:0:
36,192,335465,1,0,0:0:0:0:
329,192,335465,1,0,0:0:0:0:
182,192,335559,1,0,0:0:0:0:
109,192,335559,1,0,0:0:0:0:
256,192,335559,1,0,0:0:0:0:
475,192,335653,1,0,0:0:0:0:
402,192,335653,1,0,0:0:0:0:
182,192,335746,1,0,0:0:0:0:
329,192,335746,1,0,0:0:0:0:
36,192,335840,1,0,0:0:0:0:
256,192,335840,1,0,0:0:0:0:
475,192,335840,1,0,0:0:0:0:
329,192,335934,1,0,0:0:0:0:
182,192,335934,1,0,0:0:0:0:
256,192,336028,1,0,0:0:0:0:
402,192,336028,1,0,0:0:0:0:
475,192,336028,1,0,0:0:0:0:
109,192,336028,1,0,0:0:0:0:
36,192,336028,1,0,0:0:0:0:
36,192,336121,1,0,0:0:0:0:
109,192,336121,1,0,0:0:0:0:
36,192,336215,1,0,0:0:0:0:
109,192,336215,1,0,0:0:0:0:
256,192,336309,1,0,0:0:0:0:
182,192,336309,1,0,0:0:0:0:
329,192,336309,1,0,0:0:0:0:
475,192,336309,1,0,0:0:0:0:
402,192,336309,1,0,0:0:0:0:
402,192,336403,1,0,0:0:0:0:
475,192,336403,1,0,0:0:0:0:
402,192,336496,1,0,0:0:0:0:
475,192,336496,1,0,0:0:0:0:
109,192,336590,1,0,0:0:0:0:
36,192,336590,1,0,0:0:0:0:
182,192,336590,1,0,0:0:0:0:
329,192,336590,1,0,0:0:0:0:
256,192,336590,1,0,0:0:0:0:
36,192,336684,1,0,0:0:0:0:
109,192,336778,1,0,0:0:0:0:
475,192,336778,1,0,0:0:0:0:
182,192,336778,1,0,0:0:0:0:
402,192,336778,1,0,0:0:0:0:
256,192,336778,1,0,0:0:0:0:
329,192,336871,1,0,0:0:0:0:
402,192,336871,1,0,0:0:0:0:
329,192,336965,1,0,0:0:0:0:
182,192,336965,1,0,0:0:0:0:
109,192,336965,1,0,0:0:0:0:
36,192,336965,1,0,0:0:0:0:
256,192,337059,1,0,0:0:0:0:
475,192,337153,1,0,0:0:0:0:
329,192,337153,1,0,0:0:0:0:
182,192,337153,1,0,0:0:0:0:
36,192,337153,1,0,0:0:0:0:
402,192,337246,1,0,0:0:0:0:
256,192,337246,1,0,0:0:0:0:
109,192,337246,1,0,0:0:0:0:
475,192,337340,1,0,0:0:0:0:
36,192,337340,1,0,0:0:0:0:
182,192,337434,1,0,0:0:0:0:
329,192,337434,1,0,0:0:0:0:
256,192,337434,1,0,0:0:0:0:
475,192,337528,1,0,0:0:0:0:
402,192,337528,1,0,0:0:0:0:
109,192,337528,1,0,0:0:0:0:
36,192,337528,1,0,0:0:0:0:
36,192,337621,1,0,0:0:0:0:
109,192,337621,1,0,0:0:0:0:
109,192,337715,1,0,0:0:0:0:
36,192,337715,1,0,0:0:0:0:
402,192,337809,1,0,0:0:0:0:
475,192,337809,1,0,0:0:0:0:
182,192,337809,1,0,0:0:0:0:
329,192,337809,1,0,0:0:0:0:
256,192,337809,1,0,0:0:0:0:
402,192,337903,1,0,0:0:0:0:
475,192,337903,1,0,0:0:0:0:
402,192,337996,1,0,0:0:0:0:
475,192,337996,1,0,0:0:0:0:
109,192,338090,1,0,0:0:0:0:
36,192,338090,1,0,0:0:0:0:
182,192,338090,1,0,0:0:0:0:
329,192,338090,1,0,0:0:0:0:
256,192,338090,1,0,0:0:0:0:
36,192,338184,1,0,0:0:0:0:
182,192,338278,1,0,0:0:0:0:
109,192,338278,1,0,0:0:0:0:
256,192,338278,1,0,0:0:0:0:
475,192,338278,1,0,0:0:0:0:
402,192,338278,1,0,0:0:0:0:
256,192,338371,1,0,0:0:0:0:
329,192,338371,1,0,0:0:0:0:
182,192,338465,1,0,0:0:0:0:
402,192,338465,1,0,0:0:0:0:
475,192,338465,1,0,0:0:0:0:
256,192,338559,1,0,0:0:0:0:
36,192,338559,1,0,0:0:0:0:
109,192,338559,1,0,0:0:0:0:
402,192,338653,1,0,0:0:0:0:
182,192,338653,1,0,0:0:0:0:
475,192,338653,1,0,0:0:0:0:
36,192,338746,1,0,0:0:0:0:
475,192,338746,1,0,0:0:0:0:
329,192,338746,1,0,0:0:0:0:
109,192,338840,1,0,0:0:0:0:
182,192,338840,1,0,0:0:0:0:
256,192,338840,1,0,0:0:0:0:
329,192,338934,1,0,0:0:0:0:
36,192,338934,1,0,0:0:0:0:
402,192,339028,1,0,0:0:0:0:
109,192,339028,1,0,0:0:0:0:
475,192,339028,1,0,0:0:0:0:
182,192,339074,1,0,0:0:0:0:
36,192,339121,1,0,0:0:0:0:
256,192,339121,1,0,0:0:0:0:
329,192,339168,1,0,0:0:0:0:
109,192,339215,1,0,0:0:0:0:
402,192,339215,1,0,0:0:0:0:
329,192,339262,1,0,0:0:0:0:
475,192,339309,1,0,0:0:0:0:
256,192,339309,1,0,0:0:0:0:
182,192,339356,1,0,0:0:0:0:
402,192,339403,1,0,0:0:0:0:
109,192,339403,1,0,0:0:0:0:
329,192,339449,1,0,0:0:0:0:
256,192,339496,1,0,0:0:0:0:
36,192,339496,1,0,0:0:0:0:
182,192,339543,1,0,0:0:0:0:
329,192,339590,1,0,0:0:0:0:
109,192,339590,1,0,0:0:0:0:
402,192,339637,1,0,0:0:0:0:
182,192,339684,1,0,0:0:0:0:
475,192,339684,1,0,0:0:0:0:
109,192,339731,1,0,0:0:0:0:
402,192,339778,1,0,0:0:0:0:
36,192,339778,1,0,0:0:0:0:
329,192,339824,1,0,0:0:0:0:
475,192,339871,1,0,0:0:0:0:
109,192,339871,1,0,0:0:0:0:
182,192,339918,1,0,0:0:0:0:
402,192,339965,1,0,0:0:0:0:
256,192,339965,1,0,0:0:0:0:
109,192,340012,1,0,0:0:0:0:
329,192,340059,1,0,0:0:0:0:
36,192,340059,1,0,0:0:0:0:
402,192,340106,1,0,0:0:0:0:
182,192,340153,1,0,0:0:0:0:
475,192,340153,1,0,0:0:0:0:
109,192,340199,1,0,0:0:0:0:
36,192,340246,1,0,0:0:0:0:
329,192,340246,1,0,0:0:0:0:
475,192,340293,1,0,0:0:0:0:
109,192,340340,1,0,0:0:0:0:
256,192,340340,1,0,0:0:0:0:
402,192,340387,1,0,0:0:0:0:
36,192,340434,1,0,0:0:0:0:
182,192,340434,1,0,0:0:0:0:
329,192,340481,1,0,0:0:0:0:
256,192,340528,1,0,0:0:0:0:
109,192,340528,1,0,0:0:0:0:
475,192,340528,1,0,0:0:0:0:
182,192,340621,1,0,0:0:0:0:
329,192,340621,1,0,0:0:0:0:
109,192,340715,1,0,0:0:0:0:
36,192,340715,1,0,0:0:0:0:
402,192,340715,1,0,0:0:0:0:
182,192,340809,1,0,0:0:0:0:
329,192,340809,1,0,0:0:0:0:
36,192,340903,1,0,0:0:0:0:
402,192,340903,1,0,0:0:0:0:
475,192,340903,1,0,0:0:0:0:
256,192,340903,1,0,0:0:0:0:
329,192,340996,1,0,0:0:0:0:
182,192,340996,1,0,0:0:0:0:
256,192,341090,1,0,0:0:0:0:
475,192,341090,1,0,0:0:0:0:
109,192,341090,1,0,0:0:0:0:
182,192,341184,1,0,0:0:0:0:
402,192,341184,1,0,0:0:0:0:
329,192,341278,1,0,0:0:0:0:
475,192,341278,1,0,0:0:0:0:
109,192,341278,1,0,0:0:0:0:
36,192,341278,1,0,0:0:0:0:
402,192,341371,1,0,0:0:0:0:
256,192,341371,1,0,0:0:0:0:
109,192,341465,1,0,0:0:0:0:
329,192,341465,1,0,0:0:0:0:
36,192,341465,1,0,0:0:0:0:
182,192,341559,1,0,0:0:0:0:
256,192,341559,1,0,0:0:0:0:
402,192,341653,1,0,0:0:0:0:
109,192,341653,1,0,0:0:0:0:
475,192,341653,1,0,0:0:0:0:
182,192,341746,1,0,0:0:0:0:
329,192,341746,1,0,0:0:0:0:
36,192,341840,1,0,0:0:0:0:
256,192,341840,1,0,0:0:0:0:
475,192,341840,1,0,0:0:0:0:
329,192,341934,1,0,0:0:0:0:
109,192,341934,1,0,0:0:0:0:
402,192,342028,1,0,0:0:0:0:
475,192,342028,1,0,0:0:0:0:
256,192,342028,1,0,0:0:0:0:
182,192,342028,1,0,0:0:0:0:
109,192,342121,1,0,0:0:0:0:
329,192,342121,1,0,0:0:0:0:
182,192,342215,1,0,0:0:0:0:
36,192,342215,1,0,0:0:0:0:
475,192,342215,1,0,0:0:0:0:
256,192,342309,1,0,0:0:0:0:
402,192,342309,1,0,0:0:0:0:
36,192,342403,1,0,0:0:0:0:
475,192,342403,1,0,0:0:0:0:
329,192,342403,1,0,0:0:0:0:
109,192,342403,1,0,0:0:0:0:
256,192,342496,1,0,0:0:0:0:
182,192,342496,1,0,0:0:0:0:
36,192,342590,1,0,0:0:0:0:
475,192,342590,1,0,0:0:0:0:
402,192,342590,1,0,0:0:0:0:
109,192,342684,1,0,0:0:0:0:
329,192,342684,1,0,0:0:0:0:
182,192,342778,1,0,0:0:0:0:
402,192,342778,1,0,0:0:0:0:
475,192,342778,1,0,0:0:0:0:
256,192,342778,1,0,0:0:0:0:
109,192,342871,1,0,0:0:0:0:
329,192,342871,1,0,0:0:0:0:
182,192,342965,1,0,0:0:0:0:
475,192,342965,1,0,0:0:0:0:
36,192,342965,1,0,0:0:0:0:
256,192,343059,1,0,0:0:0:0:
402,192,343059,1,0,0:0:0:0:
36,192,343153,1,0,0:0:0:0:
475,192,343153,1,0,0:0:0:0:
329,192,343153,1,0,0:0:0:0:
109,192,343153,1,0,0:0:0:0:
402,192,343246,1,0,0:0:0:0:
182,192,343246,1,0,0:0:0:0:
475,192,343340,1,0,0:0:0:0:
36,192,343340,1,0,0:0:0:0:
256,192,343340,1,0,0:0:0:0:
329,192,343434,1,0,0:0:0:0:
109,192,343434,1,0,0:0:0:0:
182,192,343528,1,0,0:0:0:0:
402,192,343528,1,0,0:0:0:0:
475,192,343528,1,0,0:0:0:0:
256,192,343528,1,0,0:0:0:0:
36,192,343621,1,0,0:0:0:0:
475,192,343621,1,0,0:0:0:0:
109,192,343715,1,0,0:0:0:0:
182,192,343715,1,0,0:0:0:0:
329,192,343715,1,0,0:0:0:0:
402,192,343809,1,0,0:0:0:0:
182,192,343809,1,0,0:0:0:0:
36,192,343903,1,0,0:0:0:0:
109,192,343903,1,0,0:0:0:0:
475,192,343903,1,0,0:0:0:0:
256,192,343903,1,0,0:0:0:0:
182,192,343996,1,0,0:0:0:0:
475,192,343996,1,0,0:0:0:0:
36,192,344090,1,0,0:0:0:0:
256,192,344090,1,0,0:0:0:0:
329,192,344137,1,0,0:0:0:0:
475,192,344184,1,0,0:0:0:0:
36,192,344184,1,0,0:0:0:0:
402,192,344231,1,0,0:0:0:0:
329,192,344278,1,0,0:0:0:0:
109,192,344278,1,0,0:0:0:0:
182,192,344278,1,0,0:0:0:0:
402,192,344371,1,0,0:0:0:0:
256,192,344371,1,0,0:0:0:0:
36,192,344465,1,0,0:0:0:0:
109,192,344465,1,0,0:0:0:0:
329,192,344465,1,0,0:0:0:0:
36,192,344559,1,0,0:0:0:0:
475,192,344559,1,0,0:0:0:0:
182,192,344653,1,0,0:0:0:0:
109,192,344653,1,0,0:0:0:0:
402,192,344653,1,0,0:0:0:0:
256,192,344653,1,0,0:0:0:0:
36,192,344746,1,0,0:0:0:0:
402,192,344746,1,0,0:0:0:0:
256,192,344840,1,0,0:0:0:0:
109,192,344840,1,0,0:0:0:0:
329,192,344840,1,0,0:0:0:0:
402,192,344934,1,0,0:0:0:0:
182,192,344934,1,0,0:0:0:0:
109,192,345028,1,0,0:0:0:0:
36,192,345028,1,0,0:0:0:0:
256,192,345028,1,0,0:0:0:0:
475,192,345028,1,0,0:0:0:0:
329,192,345028,1,0,0:0:0:0:
402,192,345121,1,0,0:0:0:0:
36,192,345121,1,0,0:0:0:0:
329,192,345215,1,0,0:0:0:0:
256,192,345215,1,0,0:0:0:0:
182,192,345215,1,0,0:0:0:0:
329,192,345309,1,0,0:0:0:0:
109,192,345309,1,0,0:0:0:0:
402,192,345403,1,0,0:0:0:0:
182,192,345403,1,0,0:0:0:0:
36,192,345403,1,0,0:0:0:0:
475,192,345403,1,0,0:0:0:0:
256,192,345496,1,0,0:0:0:0:
36,192,345496,1,0,0:0:0:0:
182,192,345590,1,0,0:0:0:0:
475,192,345590,1,0,0:0:0:0:
402,192,345637,1,0,0:0:0:0:
329,192,345684,1,0,0:0:0:0:
109,192,345684,1,0,0:0:0:0:
256,192,345731,1,0,0:0:0:0:
475,192,345778,1,0,0:0:0:0:
36,192,345778,1,0,0:0:0:0:
402,192,345778,1,0,0:0:0:0:
402,192,345871,1,0,0:0:0:0:
182,192,345871,1,0,0:0:0:0:
329,192,345871,1,0,0:0:0:0:
36,192,345965,1,0,0:0:0:0:
109,192,345965,1,0,0:0:0:0:
256,192,345965,1,0,0:0:0:0:
109,192,346059,1,0,0:0:0:0:
329,192,346059,1,0,0:0:0:0:
475,192,346153,128,0,346528:0:0:0:0:
182,192,346153,1,0,0:0:0:0:
402,192,346153,1,0,0:0:0:0:
256,192,346153,1,0,0:0:0:0:
329,192,346246,1,0,0:0:0:0:
36,192,346246,1,0,0:0:0:0:
36,192,346340,1,0,0:0:0:0:
182,192,346340,1,0,0:0:0:0:
109,192,346434,1,0,0:0:0:0:
256,192,346434,1,0,0:0:0:0:
402,192,346434,1,0,0:0:0:0:
182,192,346528,1,0,0:0:0:0:
109,192,346528,1,0,0:0:0:0:
402,192,346528,1,0,0:0:0:0:
329,192,346528,1,0,0:0:0:0:
256,192,346621,1,0,0:0:0:0:
475,192,346621,1,0,0:0:0:0:
36,192,346715,1,0,0:0:0:0:
109,192,346715,1,0,0:0:0:0:
402,192,346715,1,0,0:0:0:0:
329,192,346809,1,0,0:0:0:0:
182,192,346809,1,0,0:0:0:0:
36,192,346903,1,0,0:0:0:0:
402,192,346903,1,0,0:0:0:0:
475,192,346903,1,0,0:0:0:0:
256,192,346903,1,0,0:0:0:0:
182,192,346996,1,0,0:0:0:0:
109,192,346996,1,0,0:0:0:0:
256,192,347090,1,0,0:0:0:0:
329,192,347090,1,0,0:0:0:0:
475,192,347090,1,0,0:0:0:0:
182,192,347184,1,0,0:0:0:0:
402,192,347184,1,0,0:0:0:0:
109,192,347278,1,0,0:0:0:0:
36,192,347278,1,0,0:0:0:0:
475,192,347278,1,0,0:0:0:0:
329,192,347278,1,0,0:0:0:0:
256,192,347371,1,0,0:0:0:0:
182,192,347371,1,0,0:0:0:0:
36,192,347465,1,0,0:0:0:0:
402,192,347465,1,0,0:0:0:0:
475,192,347465,1,0,0:0:0:0:
109,192,347559,1,0,0:0:0:0:
329,192,347559,1,0,0:0:0:0:
182,192,347653,1,0,0:0:0:0:
36,192,347653,1,0,0:0:0:0:
475,192,347653,1,0,0:0:0:0:
256,192,347653,1,0,0:0:0:0:
109,192,347746,1,0,0:0:0:0:
329,192,347746,1,0,0:0:0:0:
402,192,347840,1,0,0:0:0:0:
182,192,347840,1,0,0:0:0:0:
475,192,347840,1,0,0:0:0:0:
109,192,347934,1,0,0:0:0:0:
256,192,347934,1,0,0:0:0:0:
36,192,348028,1,0,0:0:0:0:
329,192,348028,1,0,0:0:0:0:
475,192,348028,1,0,0:0:0:0:
182,192,348028,1,0,0:0:0:0:
256,192,348121,1,0,0:0:0:0:
402,192,348121,1,0,0:0:0:0:
475,192,348215,1,0,0:0:0:0:
36,192,348215,1,0,0:0:0:0:
109,192,348215,1,0,0:0:0:0:
329,192,348309,1,0,0:0:0:0:
182,192,348309,1,0,0:0:0:0:
402,192,348403,1,0,0:0:0:0:
36,192,348403,1,0,0:0:0:0:
475,192,348403,1,0,0:0:0:0:
256,192,348403,1,0,0:0:0:0:
109,192,348496,1,0,0:0:0:0:
182,192,348496,1,0,0:0:0:0:
36,192,348590,1,0,0:0:0:0:
329,192,348590,1,0,0:0:0:0:
402,192,348590,1,0,0:0:0:0:
475,192,348684,1,0,0:0:0:0:
182,192,348684,1,0,0:0:0:0:
36,192,348778,1,0,0:0:0:0:
256,192,348778,1,0,0:0:0:0:
402,192,348778,1,0,0:0:0:0:
109,192,348778,1,0,0:0:0:0:
182,192,348871,1,0,0:0:0:0:
329,192,348871,1,0,0:0:0:0:
36,192,348965,1,0,0:0:0:0:
256,192,348965,1,0,0:0:0:0:
475,192,348965,1,0,0:0:0:0:
182,192,349059,1,0,0:0:0:0:
402,192,349059,1,0,0:0:0:0:
109,192,349153,1,0,0:0:0:0:
36,192,349153,1,0,0:0:0:0:
475,192,349153,1,0,0:0:0:0:
329,192,349153,1,0,0:0:0:0:
182,192,349246,1,0,0:0:0:0:
402,192,349246,1,0,0:0:0:0:
36,192,349340,1,0,0:0:0:0:
256,192,349340,1,0,0:0:0:0:
475,192,349340,1,0,0:0:0:0:
109,192,349434,1,0,0:0:0:0:
329,192,349434,1,0,0:0:0:0:
256,192,349528,1,0,0:0:0:0:
182,192,349528,1,0,0:0:0:0:
475,192,349528,1,0,0:0:0:0:
402,192,349528,1,0,0:0:0:0:
109,192,349574,1,0,0:0:0:0:
36,192,349621,1,0,0:0:0:0:
329,192,349621,1,0,0:0:0:0:
475,192,349715,1,0,0:0:0:0:
182,192,349715,1,0,0:0:0:0:
402,192,349762,1,0,0:0:0:0:
256,192,349809,1,0,0:0:0:0:
329,192,349809,1,0,0:0:0:0:
36,192,349903,1,0,0:0:0:0:
109,192,349903,1,0,0:0:0:0:
475,192,349903,1,0,0:0:0:0:
256,192,349949,1,0,0:0:0:0:
182,192,349996,1,0,0:0:0:0:
329,192,349996,1,0,0:0:0:0:
36,192,350090,1,0,0:0:0:0:
475,192,350090,1,0,0:0:0:0:
256,192,350090,1,0,0:0:0:0:
109,192,350137,1,0,0:0:0:0:
402,192,350184,1,0,0:0:0:0:
182,192,350184,1,0,0:0:0:0:
329,192,350278,1,0,0:0:0:0:
36,192,350278,1,0,0:0:0:0:
256,192,350278,1,0,0:0:0:0:
109,192,350324,1,0,0:0:0:0:
475,192,350371,1,0,0:0:0:0:
182,192,350371,1,0,0:0:0:0:
329,192,350418,1,0,0:0:0:0:
36,192,350465,1,0,0:0:0:0:
256,192,350465,1,0,0:0:0:0:
402,192,350465,1,0,0:0:0:0:
109,192,350512,1,0,0:0:0:0:
329,192,350559,1,0,0:0:0:0:
182,192,350606,1,0,0:0:0:0:
36,192,350653,1,0,0:0:0:0:
402,192,350653,1,0,0:0:0:0:
475,192,350653,1,0,0:0:0:0:
256,192,350653,1,0,0:0:0:0:
109,192,350699,1,0,0:0:0:0:
182,192,350746,1,0,0:0:0:0:
329,192,350746,1,0,0:0:0:0:
109,192,350840,1,0,0:0:0:0:
475,192,350840,1,0,0:0:0:0:
36,192,350840,1,0,0:0:0:0:
329,192,350887,1,0,0:0:0:0:
182,192,350934,1,0,0:0:0:0:
36,192,351028,1,0,0:0:0:0:
402,192,351028,1,0,0:0:0:0:
475,192,351028,1,0,0:0:0:0:
109,192,351074,1,0,0:0:0:0:
329,192,351121,1,0,0:0:0:0:
182,192,351121,1,0,0:0:0:0:
36,192,351215,1,0,0:0:0:0:
402,192,351215,1,0,0:0:0:0:
329,192,351262,1,0,0:0:0:0:
109,192,351309,1,0,0:0:0:0:
256,192,351309,1,0,0:0:0:0:
36,192,351403,1,0,0:0:0:0:
402,192,351403,1,0,0:0:0:0:
475,192,351403,1,0,0:0:0:0:
182,192,351403,1,0,0:0:0:0:
329,192,351449,1,0,0:0:0:0:
109,192,351496,1,0,0:0:0:0:
256,192,351496,1,0,0:0:0:0:
402,192,351590,1,0,0:0:0:0:
182,192,351590,1,0,0:0:0:0:
475,192,351590,1,0,0:0:0:0:
329,192,351637,1,0,0:0:0:0:
36,192,351684,1,0,0:0:0:0:
109,192,351684,1,0,0:0:0:0:
256,192,351778,1,0,0:0:0:0:
475,192,351778,1,0,0:0:0:0:
182,192,351778,1,0,0:0:0:0:
402,192,351824,1,0,0:0:0:0:
329,192,351871,1,0,0:0:0:0:
36,192,351871,1,0,0:0:0:0:
109,192,351918,1,0,0:0:0:0:
256,192,351965,1,0,0:0:0:0:
475,192,351965,1,0,0:0:0:0:
182,192,351965,1,0,0:0:0:0:
402,192,352012,1,0,0:0:0:0:
109,192,352059,1,0,0:0:0:0:
329,192,352059,1,0,0:0:0:0:
36,192,352106,1,0,0:0:0:0:
182,192,352153,1,0,0:0:0:0:
475,192,352153,1,0,0:0:0:0:
402,192,352199,1,0,0:0:0:0:
256,192,352246,1,0,0:0:0:0:
329,192,352246,1,0,0:0:0:0:
36,192,352340,1,0,0:0:0:0:
182,192,352340,1,0,0:0:0:0:
402,192,352340,1,0,0:0:0:0:
256,192,352434,1,0,0:0:0:0:
329,192,352434,1,0,0:0:0:0:
402,192,352528,1,0,0:0:0:0:
36,192,352528,1,0,0:0:0:0:
475,192,352528,1,0,0:0:0:0:
109,192,352574,1,0,0:0:0:0:
182,192,352621,1,0,0:0:0:0:
329,192,352621,1,0,0:0:0:0:
402,192,352668,1,0,0:0:0:0:
36,192,352715,1,0,0:0:0:0:
256,192,352715,1,0,0:0:0:0:
182,192,352762,1,0,0:0:0:0:
329,192,352809,1,0,0:0:0:0:
109,192,352809,1,0,0:0:0:0:
402,192,352856,1,0,0:0:0:0:
36,192,352903,1,0,0:0:0:0:
256,192,352903,1,0,0:0:0:0:
475,192,352903,1,0,0:0:0:0:
182,192,352996,1,0,0:0:0:0:
329,192,352996,1,0,0:0:0:0:
109,192,353090,1,0,0:0:0:0:
36,192,353090,1,0,0:0:0:0:
402,192,353090,1,0,0:0:0:0:
182,192,353137,1,0,0:0:0:0:
256,192,353184,1,0,0:0:0:0:
329,192,353231,1,0,0:0:0:0:
36,192,353278,1,0,0:0:0:0:
402,192,353278,1,0,0:0:0:0:
475,192,353278,1,0,0:0:0:0:
109,192,353324,1,0,0:0:0:0:
329,192,353371,1,0,0:0:0:0:
182,192,353371,1,0,0:0:0:0:
109,192,353465,1,0,0:0:0:0:
475,192,353465,1,0,0:0:0:0:
256,192,353465,1,0,0:0:0:0:
402,192,353512,1,0,0:0:0:0:
182,192,353559,1,0,0:0:0:0:
329,192,353559,1,0,0:0:0:0:
256,192,353653,1,0,0:0:0:0:
475,192,353653,1,0,0:0:0:0:
36,192,353653,1,0,0:0:0:0:
109,192,353699,1,0,0:0:0:0:
402,192,353746,1,0,0:0:0:0:
182,192,353746,1,0,0:0:0:0:
329,192,353793,1,0,0:0:0:0:
475,192,353840,1,0,0:0:0:0:
109,192,353840,1,0,0:0:0:0:
256,192,353840,1,0,0:0:0:0:
402,192,353934,1,0,0:0:0:0:
182,192,353934,1,0,0:0:0:0:
475,192,354028,1,0,0:0:0:0:
329,192,354028,1,0,0:0:0:0:
109,192,354028,1,0,0:0:0:0:
36,192,354028,1,0,0:0:0:0:
182,192,354074,1,0,0:0:0:0:
256,192,354121,1,0,0:0:0:0:
402,192,354121,1,0,0:0:0:0:
475,192,354215,1,0,0:0:0:0:
36,192,354215,1,0,0:0:0:0:
109,192,354215,1,0,0:0:0:0:
182,192,354262,1,0,0:0:0:0:
402,192,354309,1,0,0:0:0:0:
329,192,354356,1,0,0:0:0:0:
475,192,354403,1,0,0:0:0:0:
36,192,354403,1,0,0:0:0:0:
256,192,354403,1,0,0:0:0:0:
109,192,354449,1,0,0:0:0:0:
329,192,354496,1,0,0:0:0:0:
182,192,354496,1,0,0:0:0:0:
402,192,354543,1,0,0:0:0:0:
36,192,354590,1,0,0:0:0:0:
256,192,354590,1,0,0:0:0:0:
475,192,354590,1,0,0:0:0:0:
182,192,354637,1,0,0:0:0:0:
329,192,354684,1,0,0:0:0:0:
109,192,354684,1,0,0:0:0:0:
475,192,354778,1,0,0:0:0:0:
36,192,354778,1,0,0:0:0:0:
402,192,354778,1,0,0:0:0:0:
109,192,354824,1,0,0:0:0:0:
182,192,354871,1,0,0:0:0:0:
329,192,354871,1,0,0:0:0:0:
36,192,354965,1,0,0:0:0:0:
475,192,354965,1,0,0:0:0:0:
256,192,354965,1,0,0:0:0:0:
402,192,355012,1,0,0:0:0:0:
182,192,355059,1,0,0:0:0:0:
329,192,355059,1,0,0:0:0:0:
36,192,355153,128,0,355528:0:0:0:0:
256,192,355153,1,0,0:0:0:0:
475,192,355153,1,0,0:0:0:0:
182,192,355246,1,0,0:0:0:0:
402,192,355246,1,0,0:0:0:0:
475,192,355340,1,0,0:0:0:0:
109,192,355340,1,0,0:0:0:0:
329,192,355340,1,0,0:0:0:0:
182,192,355434,1,0,0:0:0:0:
256,192,355434,1,0,0:0:0:0:
109,192,355528,1,0,0:0:0:0:
402,192,355528,1,0,0:0:0:0:
475,192,355528,1,0,0:0:0:0:
329,192,355574,1,0,0:0:0:0:
36,192,355621,1,0,0:0:0:0:
256,192,355621,1,0,0:0:0:0:
182,192,355668,1,0,0:0:0:0:
109,192,355715,1,0,0:0:0:0:
329,192,355715,1,0,0:0:0:0:
402,192,355762,1,0,0:0:0:0:
475,192,355809,1,0,0:0:0:0:
256,192,355809,1,0,0:0:0:0:
182,192,355856,1,0,0:0:0:0:
329,192,355903,1,0,0:0:0:0:
36,192,355903,1,0,0:0:0:0:
402,192,355949,1,0,0:0:0:0:
182,192,355996,1,0,0:0:0:0:
475,192,355996,1,0,0:0:0:0:
109,192,356043,1,0,0:0:0:0:
256,192,356090,1,0,0:0:0:0:
36,192,356090,1,0,0:0:0:0:
329,192,356137,1,0,0:0:0:0:
109,192,356184,1,0,0:0:0:0:
402,192,356184,1,0,0:0:0:0:
182,192,356231,1,0,0:0:0:0:
36,192,356278,1,0,0:0:0:0:
475,192,356278,1,0,0:0:0:0:
256,192,356278,1,0,0:0:0:0:
109,192,356324,1,0,0:0:0:0:
329,192,356371,1,0,0:0:0:0:
182,192,356418,1,0,0:0:0:0:
402,192,356465,1,0,0:0:0:0:
36,192,356465,1,0,0:0:0:0:
256,192,356512,1,0,0:0:0:0:
182,192,356559,1,0,0:0:0:0:
109,192,356559,1,0,0:0:0:0:
475,192,356559,1,0,0:0:0:0:
329,192,356606,1,0,0:0:0:0:
36,192,356653,1,0,0:0:0:0:
402,192,356699,1,0,0:0:0:0:
109,192,356746,1,0,0:0:0:0:
256,192,356746,1,0,0:0:0:0:
329,192,356793,1,0,0:0:0:0:
475,192,356840,1,0,0:0:0:0:
36,192,356840,1,0,0:0:0:0:
182,192,356840,1,0,0:0:0:0:
402,192,356887,1,0,0:0:0:0:
109,192,356934,1,0,0:0:0:0:
329,192,356934,1,0,0:0:0:0:
256,192,356981,1,0,0:0:0:0:
402,192,357028,1,0,0:0:0:0:
475,192,357028,1,0,0:0:0:0:
36,192,357028,1,0,0:0:0:0:
109,192,357074,1,0,0:0:0:0:
329,192,357121,1,0,0:0:0:0:
182,192,357121,1,0,0:0:0:0:
402,192,357168,1,0,0:0:0:0:
109,192,357215,1,0,0:0:0:0:
475,192,357215,1,0,0:0:0:0:
182,192,357262,1,0,0:0:0:0:
402,192,357309,1,0,0:0:0:0:
256,192,357309,1,0,0:0:0:0:
475,192,357356,1,0,0:0:0:0:
182,192,357403,1,0,0:0:0:0:
329,192,357403,1,0,0:0:0:0:
109,192,357449,1,0,0:0:0:0:
402,192,357496,1,0,0:0:0:0:
36,192,357496,1,0,0:0:0:0:
329,192,357543,1,0,0:0:0:0:
109,192,357590,1,0,0:0:0:0:
475,192,357590,1,0,0:0:0:0:
182,192,357637,1,0,0:0:0:0:
402,192,357684,1,0,0:0:0:0:
256,192,357684,1,0,0:0:0:0:
109,192,357731,1,0,0:0:0:0:
329,192,357778,1,0,0:0:0:0:
475,192,357778,1,0,0:0:0:0:
36,192,357778,1,0,0:0:0:0:
182,192,357824,1,0,0:0:0:0:
402,192,357871,1,0,0:0:0:0:
109,192,357918,1,0,0:0:0:0:
475,192,357965,1,0,0:0:0:0:
256,192,357965,1,0,0:0:0:0:
329,192,358012,1,0,0:0:0:0:
109,192,358059,1,0,0:0:0:0:
402,192,358059,1,0,0:0:0:0:
36,192,358059,1,0,0:0:0:0:
182,192,358106,1,0,0:0:0:0:
475,192,358153,1,0,0:0:0:0:
256,192,358199,1,0,0:0:0:0:
109,192,358246,1,0,0:0:0:0:
329,192,358246,1,0,0:0:0:0:
182,192,358293,1,0,0:0:0:0:
36,192,358340,1,0,0:0:0:0:
475,192,358340,1,0,0:0:0:0:
256,192,358387,1,0,0:0:0:0:
402,192,358434,1,0,0:0:0:0:
109,192,358434,1,0,0:0:0:0:
182,192,358481,1,0,0:0:0:0:
329,192,358528,1,0,0:0:0:0:
36,192,358528,1,0,0:0:0:0:
475,192,358528,1,0,0:0:0:0:
109,192,358574,1,0,0:0:0:0:
402,192,358621,1,0,0:0:0:0:
256,192,358621,1,0,0:0:0:0:
329,192,358715,1,0,0:0:0:0:
109,192,358715,1,0,0:0:0:0:
402,192,358762,1,0,0:0:0:0:
182,192,358809,1,0,0:0:0:0:
475,192,358809,1,0,0:0:0:0:
109,192,358903,1,0,0:0:0:0:
36,192,358903,1,0,0:0:0:0:
256,192,358903,1,0,0:0:0:0:
182,192,358996,1,0,0:0:0:0:
329,192,358996,1,0,0:0:0:0:
36,192,359090,1,0,0:0:0:0:
256,192,359090,1,0,0:0:0:0:
475,192,359090,1,0,0:0:0:0:
109,192,359137,1,0,0:0:0:0:
402,192,359184,1,0,0:0:0:0:
182,192,359184,1,0,0:0:0:0:
329,192,359231,1,0,0:0:0:0:
109,192,359278,1,0,0:0:0:0:
36,192,359278,1,0,0:0:0:0:
256,192,359278,1,0,0:0:0:0:
182,192,359371,1,0,0:0:0:0:
329,192,359371,1,0,0:0:0:0:
36,192,359465,1,0,0:0:0:0:
475,192,359465,1,0,0:0:0:0:
402,192,359512,1,0,0:0:0:0:
182,192,359559,1,0,0:0:0:0:
329,192,359559,1,0,0:0:0:0:
36,192,359653,1,0,0:0:0:0:
256,192,359653,1,0,0:0:0:0:
475,192,359653,1,0,0:0:0:0:
109,192,359699,1,0,0:0:0:0:
402,192,359746,1,0,0:0:0:0:
182,192,359746,1,0,0:0:0:0:
329,192,359840,1,0,0:0:0:0:
36,192,359840,1,0,0:0:0:0:
256,192,359840,1,0,0:0:0:0:
402,192,359887,1,0,0:0:0:0:
475,192,359934,1,0,0:0:0:0:
182,192,359934,1,0,0:0:0:0:
329,192,360028,1,0,0:0:0:0:
109,192,360028,1,0,0:0:0:0:
36,192,360028,1,0,0:0:0:0:
256,192,360074,1,0,0:0:0:0:
475,192,360121,1,0,0:0:0:0:
182,192,360121,1,0,0:0:0:0:
36,192,360215,1,0,0:0:0:0:
256,192,360215,1,0,0:0:0:0:
402,192,360215,1,0,0:0:0:0:
109,192,360262,1,0,0:0:0:0:
329,192,360309,1,0,0:0:0:0:
182,192,360309,1,0,0:0:0:0:
402,192,360356,1,0,0:0:0:0:
256,192,360403,1,0,0:0:0:0:
36,192,360403,1,0,0:0:0:0:
475,192,360403,1,0,0:0:0:0:
109,192,360449,1,0,0:0:0:0:
402,192,360496,1,0,0:0:0:0:
182,192,360496,1,0,0:0:0:0:
329,192,360543,1,0,0:0:0:0:
109,192,360590,1,0,0:0:0:0:
256,192,360590,1,0,0:0:0:0:
36,192,360637,1,0,0:0:0:0:
182,192,360684,1,0,0:0:0:0:
329,192,360684,1,0,0:0:0:0:
402,192,360731,1,0,0:0:0:0:
256,192,360778,1,0,0:0:0:0:
36,192,360778,1,0,0:0:0:0:
475,192,360778,1,0,0:0:0:0:
109,192,360824,1,0,0:0:0:0:
329,192,360871,1,0,0:0:0:0:
182,192,360871,1,0,0:0:0:0:
402,192,360965,128,0,361153:0:0:0:0:
36,192,360965,1,0,0:0:0:0:
256,192,360965,1,0,0:0:0:0:
182,192,361059,1,0,0:0:0:0:
329,192,361059,1,0,0:0:0:0:
109,192,361153,1,0,0:0:0:0:
36,192,361153,1,0,0:0:0:0:
475,192,361153,1,0,0:0:0:0:
256,192,361246,1,0,0:0:0:0:
402,192,361246,1,0,0:0:0:0:
36,192,361340,1,0,0:0:0:0:
329,192,361340,1,0,0:0:0:0:
109,192,361387,1,0,0:0:0:0:
402,192,361434,1,0,0:0:0:0:
182,192,361434,1,0,0:0:0:0:
36,192,361528,1,0,0:0:0:0:
256,192,361528,1,0,0:0:0:0:
475,192,361528,1,0,0:0:0:0:
329,192,361574,1,0,0:0:0:0:
182,192,361574,1,0,0:0:0:0:
402,192,361621,1,0,0:0:0:0:
109,192,361621,1,0,0:0:0:0:
256,192,361668,1,0,0:0:0:0:
36,192,361715,1,0,0:0:0:0:
475,192,361715,1,0,0:0:0:0:
109,192,361762,1,0,0:0:0:0:
402,192,361762,1,0,0:0:0:0:
182,192,361809,1,0,0:0:0:0:
329,192,361809,1,0,0:0:0:0:
256,192,361856,1,0,0:0:0:0:
36,192,361903,1,0,0:0:0:0:
475,192,361903,1,0,0:0:0:0:
182,192,361949,1,0,0:0:0:0:
329,192,361949,1,0,0:0:0:0:
109,192,361996,1,0,0:0:0:0:
402,192,361996,1,0,0:0:0:0:
256,192,362043,1,0,0:0:0:0:
475,192,362090,1,0,0:0:0:0:
36,192,362090,1,0,0:0:0:0:
109,192,362137,1,0,0:0:0:0:
402,192,362137,1,0,0:0:0:0:
182,192,362184,1,0,0:0:0:0:
329,192,362184,1,0,0:0:0:0:
256,192,362231,1,0,0:0:0:0:
475,192,362278,1,0,0:0:0:0:
36,192,362278,1,0,0:0:0:0:
182,192,362324,1,0,0:0:0:0:
329,192,362324,1,0,0:0:0:0:
109,192,362371,1,0,0:0:0:0:
402,192,362371,1,0,0:0:0:0:
256,192,362418,1,0,0:0:0:0:
329,192,362465,1,0,0:0:0:0:
182,192,362465,1,0,0:0:0:0:
475,192,362512,1,0,0:0:0:0:
36,192,362512,1,0,0:0:0:0:
402,192,362559,1,0,0:0:0:0:
109,192,362559,1,0,0:0:0:0:
256,192,362606,1,0,0:0:0:0:
182,192,362653,1,0,0:0:0:0:
329,192,362653,1,0,0:0:0:0:
475,192,362699,1,0,0:0:0:0:
36,192,362699,1,0,0:0:0:0:
402,192,362746,1,0,0:0:0:0:
109,192,362746,1,0,0:0:0:0:
182,192,362793,1,0,0:0:0:0:
329,192,362793,1,0,0:0:0:0:
256,192,362840,1,0,0:0:0:0:
402,192,362887,1,0,0:0:0:0:
109,192,362887,1,0,0:0:0:0:
182,192,362934,1,0,0:0:0:0:
329,192,362934,1,0,0:0:0:0:
256,192,362981,1,0,0:0:0:0:
475,192,363028,1,0,0:0:0:0:
109,192,363028,1,0,0:0:0:0:
36,192,363028,1,0,0:0:0:0:
402,192,363074,1,0,0:0:0:0:
182,192,363074,1,0,0:0:0:0:
256,192,363121,1,0,0:0:0:0:
329,192,363168,1,0,0:0:0:0:
402,192,363215,1,0,0:0:0:0:
475,192,363215,1,0,0:0:0:0:
36,192,363215,1,0,0:0:0:0:
109,192,363262,1,0,0:0:0:0:
256,192,363309,1,0,0:0:0:0:
402,192,363356,1,0,0:0:0:0:
109,192,363403,1,0,0:0:0:0:
36,192,363403,1,0,0:0:0:0:
475,192,363403,1,0,0:0:0:0:
182,192,363449,1,0,0:0:0:0:
256,192,363496,1,0,0:0:0:0:
329,192,363543,1,0,0:0:0:0:
402,192,363590,1,0,0:0:0:0:
36,192,363590,1,0,0:0:0:0:
475,192,363590,1,0,0:0:0:0:
109,192,363637,1,0,0:0:0:0:
256,192,363684,1,0,0:0:0:0:
402,192,363731,1,0,0:0:0:0:
475,192,363778,1,0,0:0:0:0:
36,192,363778,1,0,0:0:0:0:
329,192,363824,1,0,0:0:0:0:
182,192,363824,1,0,0:0:0:0:
402,192,363871,1,0,0:0:0:0:
109,192,363871,1,0,0:0:0:0:
256,192,363918,1,0,0:0:0:0:
329,192,363965,1,0,0:0:0:0:
182,192,363965,1,0,0:0:0:0:
36,192,364012,1,0,0:0:0:0:
475,192,364012,1,0,0:0:0:0:
256,192,364059,1,0,0:0:0:0:
402,192,364106,1,0,0:0:0:0:
329,192,364153,1,0,0:0:0:0:
182,192,364153,1,0,0:0:0:0:
36,192,364199,1,0,0:0:0:0:
402,192,364246,1,0,0:0:0:0:
109,192,364246,1,0,0:0:0:0:
256,192,364293,1,0,0:0:0:0:
182,192,364340,1,0,0:0:0:0:
329,192,364340,1,0,0:0:0:0:
36,192,364387,1,0,0:0:0:0:
475,192,364387,1,0,0:0:0:0:
109,192,364434,1,0,0:0:0:0:
402,192,364434,1,0,0:0:0:0:
182,192,364481,1,0,0:0:0:0:
329,192,364481,1,0,0:0:0:0:
256,192,364528,1,0,0:0:0:0:
36,192,364528,1,0,0:0:0:0:
475,192,364590,1,0,0:0:0:0:
109,192,364621,1,0,0:0:0:0:
329,192,364653,1,0,0:0:0:0:
182,192,364715,1,0,0:0:0:0:
402,192,364715,1,0,0:0:0:0:
36,192,364778,1,0,0:0:0:0:
256,192,364809,1,0,0:0:0:0:
329,192,364840,1,0,0:0:0:0:
475,192,364903,1,0,0:0:0:0:
109,192,364903,1,0,0:0:0:0:
182,192,364903,1,0,0:0:0:0:
256,192,364965,1,0,0:0:0:0:
402,192,364996,1,0,0:0:0:0:
36,192,365028,1,0,0:0:0:0:
329,192,365090,1,0,0:0:0:0:
182,192,365090,1,0,0:0:0:0:
109,192,365153,1,0,0:0:0:0:
402,192,365184,1,0,0:0:0:0:
256,192,365215,1,0,0:0:0:0:
475,192,365278,1,0,0:0:0:0:
36,192,365278,1,0,0:0:0:0:
182,192,365278,1,0,0:0:0:0:
402,192,365340,1,0,0:0:0:0:
109,192,365371,1,0,0:0:0:0:
256,192,365403,1,0,0:0:0:0:
182,192,365465,1,0,0:0:0:0:
329,192,365465,1,0,0:0:0:0:
109,192,365528,1,0,0:0:0:0:
402,192,365559,1,0,0:0:0:0:
256,192,365590,1,0,0:0:0:0:
36,192,365653,1,0,0:0:0:0:
475,192,365653,1,0,0:0:0:0:
182,192,365653,1,0,0:0:0:0:
109,192,365715,1,0,0:0:0:0:
402,192,365746,1,0,0:0:0:0:
256,192,365778,1,0,0:0:0:0:
329,192,365840,1,0,0:0:0:0:
182,192,365840,1,0,0:0:0:0:
475,192,365903,1,0,0:0:0:0:
109,192,365934,1,0,0:0:0:0:
402,192,365965,1,0,0:0:0:0:
36,192,366028,1,0,0:0:0:0:
256,192,366028,1,0,0:0:0:0:
475,192,366028,1,0,0:0:0:0:
182,192,366090,1,0,0:0:0:0:
329,192,366121,1,0,0:0:0:0:
475,192,366153,1,0,0:0:0:0:
402,192,366215,1,0,0:0:0:0:
109,192,366215,1,0,0:0:0:0:
329,192,366278,1,0,0:0:0:0:
182,192,366309,1,0,0:0:0:0:
36,192,366340,1,0,0:0:0:0:
256,192,366403,1,0,0:0:0:0:
475,192,366403,1,0,0:0:0:0:
329,192,366403,1,0,0:0:0:0:
109,192,366465,1,0,0:0:0:0:
402,192,366496,1,0,0:0:0:0:
36,192,366528,1,0,0:0:0:0:
329,192,366590,1,0,0:0:0:0:
182,192,366590,1,0,0:0:0:0:
475,192,366653,1,0,0:0:0:0:
109,192,366684,1,0,0:0:0:0:
402,192,366715,1,0,0:0:0:0:
36,192,366778,1,0,0:0:0:0:
256,192,366778,1,0,0:0:0:0:
182,192,366778,1,0,0:0:0:0:
109,192,366840,1,0,0:0:0:0:
329,192,366871,1,0,0:0:0:0:
475,192,366903,1,0,0:0:0:0:
402,192,366965,1,0,0:0:0:0:
182,192,366965,1,0,0:0:0:0:
36,192,367028,1,0,0:0:0:0:
256,192,367059,1,0,0:0:0:0:
109,192,367090,1,0,0:0:0:0:
329,192,367153,1,0,0:0:0:0:
475,192,367153,1,0,0:0:0:0:
402,192,367153,1,0,0:0:0:0:
182,192,367215,1,0,0:0:0:0:
36,192,367246,1,0,0:0:0:0:
256,192,367278,1,0,0:0:0:0:
109,192,367340,1,0,0:0:0:0:
402,192,367340,1,0,0:0:0:0:
475,192,367403,1,0,0:0:0:0:
329,192,367434,1,0,0:0:0:0:
256,192,367465,1,0,0:0:0:0:
182,192,367528,1,0,0:0:0:0:
36,192,367528,1,0,0:0:0:0:
109,192,367528,1,0,0:0:0:0:
475,192,367590,1,0,0:0:0:0:
329,192,367621,1,0,0:0:0:0:
36,192,367653,1,0,0:0:0:0:
109,192,367715,1,0,0:0:0:0:
256,192,367715,1,0,0:0:0:0:
329,192,367778,1,0,0:0:0:0:
402,192,367809,1,0,0:0:0:0:
182,192,367840,1,0,0:0:0:0:
475,192,367903,1,0,0:0:0:0:
109,192,367903,1,0,0:0:0:0:
256,192,367903,1,0,0:0:0:0:
329,192,367965,1,0,0:0:0:0:
36,192,367996,1,0,0:0:0:0:
182,192,368028,1,0,0:0:0:0:
256,192,368090,1,0,0:0:0:0:
402,192,368090,1,0,0:0:0:0:
329,192,368153,1,0,0:0:0:0:
109,192,368184,1,0,0:0:0:0:
182,192,368215,1,0,0:0:0:0:
329,192,368278,1,0,0:0:0:0:
475,192,368278,1,0,0:0:0:0:
402,192,368278,1,0,0:0:0:0:
256,192,368340,1,0,0:0:0:0:
36,192,368371,1,0,0:0:0:0:
109,192,368403,1,0,0:0:0:0:
182,192,368465,1,0,0:0:0:0:
402,192,368465,1,0,0:0:0:0:
475,192,368528,1,0,0:0:0:0:
329,192,368559,1,0,0:0:0:0:
36,192,368590,1,0,0:0:0:0:
109,192,368653,1,0,0:0:0:0:
256,192,368653,1,0,0:0:0:0:
402,192,368653,1,0,0:0:0:0:
329,192,368715,1,0,0:0:0:0:
475,192,368746,1,0,0:0:0:0:
36,192,368778,1,0,0:0:0:0:
402,192,368840,1,0,0:0:0:0:
182,192,368840,1,0,0:0:0:0:
256,192,368903,1,0,0:0:0:0:
36,192,368934,1,0,0:0:0:0:
475,192,368965,1,0,0:0:0:0:
109,192,369028,1,0,0:0:0:0:
329,192,369028,1,0,0:0:0:0:
256,192,369090,1,0,0:0:0:0:
329,192,369184,1,0,0:0:0:0:
109,192,369356,1,0,0:0:0:0:
402,192,369465,1,0,0:0:0:0:
182,192,369559,1,0,0:0:0:0:
256,192,369653,1,0,0:0:0:0:
256,192,369746,1,0,0:0:0:0:
109,192,369840,1,0,0:0:0:0:
329,192,369903,1,0,0:0:0:0:
329,192,369988,1,0,0:0:0:0:
182,192,370106,1,0,0:0:0:0:
402,192,370246,1,0,0:0:0:0:
329,192,370387,1,0,0:0:0:0:
36,192,370528,1,0,0:0:0:0:
402,192,370528,1,0,0:0:0:0:
475,192,370528,1,0,0:0:0:0:
256,192,370528,1,0,0:0:0:0:
109,192,370574,1,0,0:0:0:0:
182,192,370621,1,0,0:0:0:0:
329,192,370668,1,0,0:0:0:0:
475,192,370715,1,0,0:0:0:0:
256,192,370715,1,0,0:0:0:0:
109,192,370762,1,0,0:0:0:0:
402,192,370809,1,0,0:0:0:0:
329,192,370856,1,0,0:0:0:0:
36,192,370903,1,0,0:0:0:0:
182,192,370903,1,0,0:0:0:0:
475,192,370903,1,0,0:0:0:0:
256,192,370949,1,0,0:0:0:0:
402,192,370996,1,0,0:0:0:0:
109,192,371043,1,0,0:0:0:0:
182,192,371090,1,0,0:0:0:0:
329,192,371090,1,0,0:0:0:0:
36,192,371137,1,0,0:0:0:0:
475,192,371184,1,0,0:0:0:0:
256,192,371231,1,0,0:0:0:0:
402,192,371278,1,0,0:0:0:0:
36,192,371278,1,0,0:0:0:0:
182,192,371278,1,0,0:0:0:0:
329,192,371324,1,0,0:0:0:0:
109,192,371371,1,0,0:0:0:0:
256,192,371418,1,0,0:0:0:0:
402,192,371465,1,0,0:0:0:0:
475,192,371465,1,0,0:0:0:0:
182,192,371512,1,0,0:0:0:0:
329,192,371559,1,0,0:0:0:0:
109,192,371606,1,0,0:0:0:0:
36,192,371653,1,0,0:0:0:0:
475,192,371653,1,0,0:0:0:0:
256,192,371653,1,0,0:0:0:0:
402,192,371699,1,0,0:0:0:0:
182,192,371746,1,0,0:0:0:0:
329,192,371793,1,0,0:0:0:0:
36,192,371840,1,0,0:0:0:0:
256,192,371840,1,0,0:0:0:0:
475,192,371887,1,0,0:0:0:0:
402,192,371934,1,0,0:0:0:0:
182,192,371981,1,0,0:0:0:0:
256,192,372028,1,0,0:0:0:0:
36,192,372028,1,0,0:0:0:0:
109,192,372028,1,0,0:0:0:0:
329,192,372074,1,0,0:0:0:0:
475,192,372121,1,0,0:0:0:0:
182,192,372168,1,0,0:0:0:0:
402,192,372215,1,0,0:0:0:0:
109,192,372215,1,0,0:0:0:0:
329,192,372262,1,0,0:0:0:0:
36,192,372309,1,0,0:0:0:0:
256,192,372356,1,0,0:0:0:0:
475,192,372403,1,0,0:0:0:0:
402,192,372403,1,0,0:0:0:0:
182,192,372403,1,0,0:0:0:0:
109,192,372449,1,0,0:0:0:0:
329,192,372496,1,0,0:0:0:0:
256,192,372543,1,0,0:0:0:0:
475,192,372590,1,0,0:0:0:0:
36,192,372590,1,0,0:0:0:0:
182,192,372637,1,0,0:0:0:0:
329,192,372684,1,0,0:0:0:0:
402,192,372731,1,0,0:0:0:0:
256,192,372778,1,0,0:0:0:0:
36,192,372778,1,0,0:0:0:0:
475,192,372778,1,0,0:0:0:0:
182,192,372824,1,0,0:0:0:0:
329,192,372871,1,0,0:0:0:0:
109,192,372918,1,0,0:0:0:0:
256,192,372965,1,0,0:0:0:0:
402,192,372965,1,0,0:0:0:0:
36,192,373012,1,0,0:0:0:0:
329,192,373059,1,0,0:0:0:0:
182,192,373106,1,0,0:0:0:0:
109,192,373153,1,0,0:0:0:0:
256,192,373153,1,0,0:0:0:0:
475,192,373153,1,0,0:0:0:0:
402,192,373199,1,0,0:0:0:0:
329,192,373246,1,0,0:0:0:0:
36,192,373293,1,0,0:0:0:0:
182,192,373340,1,0,0:0:0:0:
475,192,373340,1,0,0:0:0:0:
109,192,373387,1,0,0:0:0:0:
256,192,373434,1,0,0:0:0:0:
329,192,373481,1,0,0:0:0:0:
36,192,373528,1,0,0:0:0:0:
182,192,373528,1,0,0:0:0:0:
402,192,373528,1,0,0:0:0:0:
256,192,373574,1,0,0:0:0:0:
475,192,373621,1,0,0:0:0:0:
109,192,373668,1,0,0:0:0:0:
182,192,373715,1,0,0:0:0:0:
329,192,373715,1,0,0:0:0:0:
402,192,373762,1,0,0:0:0:0:
36,192,373809,1,0,0:0:0:0:
182,192,373856,1,0,0:0:0:0:
475,192,373903,1,0,0:0:0:0:
329,192,373903,1,0,0:0:0:0:
256,192,373903,1,0,0:0:0:0:
109,192,373949,1,0,0:0:0:0:
402,192,373996,1,0,0:0:0:0:
36,192,374043,1,0,0:0:0:0:
182,192,374090,1,0,0:0:0:0:
329,192,374090,1,0,0:0:0:0:
256,192,374137,1,0,0:0:0:0:
475,192,374184,1,0,0:0:0:0:
402,192,374231,1,0,0:0:0:0:
329,192,374278,1,0,0:0:0:0:
36,192,374278,1,0,0:0:0:0:
182,192,374278,1,0,0:0:0:0:
109,192,374324,1,0,0:0:0:0:
475,192,374371,1,0,0:0:0:0:
256,192,374418,1,0,0:0:0:0:
182,192,374465,1,0,0:0:0:0:
36,192,374465,1,0,0:0:0:0:
402,192,374512,1,0,0:0:0:0:
329,192,374559,1,0,0:0:0:0:
256,192,374606,1,0,0:0:0:0:
36,192,374653,1,0,0:0:0:0:
475,192,374653,1,0,0:0:0:0:
182,192,374653,1,0,0:0:0:0:
402,192,374699,1,0,0:0:0:0:
109,192,374746,1,0,0:0:0:0:
256,192,374793,1,0,0:0:0:0:
182,192,374840,1,0,0:0:0:0:
475,192,374840,1,0,0:0:0:0:
329,192,374887,1,0,0:0:0:0:
402,192,374934,1,0,0:0:0:0:
109,192,374981,1,0,0:0:0:0:
36,192,375028,1,0,0:0:0:0:
256,192,375028,1,0,0:0:0:0:
182,192,375028,1,0,0:0:0:0:
475,192,375028,1,0,0:0:0:0:
329,192,375121,1,0,0:0:0:0:
402,192,375121,1,0,0:0:0:0:
109,192,375121,1,0,0:0:0:0:
182,192,375215,1,0,0:0:0:0:
256,192,375215,1,0,0:0:0:0:
475,192,375215,1,0,0:0:0:0:
36,192,375309,1,0,0:0:0:0:
109,192,375309,1,0,0:0:0:0:
329,192,375309,1,0,0:0:0:0:
402,192,375309,1,0,0:0:0:0:
182,192,375403,1,0,0:0:0:0:
256,192,375403,1,0,0:0:0:0:
475,192,375403,1,0,0:0:0:0:
109,192,375496,1,0,0:0:0:0:
36,192,375496,1,0,0:0:0:0:
329,192,375496,1,0,0:0:0:0:
182,192,375590,1,0,0:0:0:0:
256,192,375590,1,0,0:0:0:0:
402,192,375590,1,0,0:0:0:0:
475,192,375590,1,0,0:0:0:0:
36,192,375684,1,0,0:0:0:0:
109,192,375684,1,0,0:0:0:0:
329,192,375684,1,0,0:0:0:0:
256,192,375778,1,0,0:0:0:0:
402,192,375778,1,0,0:0:0:0:
475,192,375778,1,0,0:0:0:0:
36,192,375871,1,0,0:0:0:0:
109,192,375871,1,0,0:0:0:0:
182,192,375871,1,0,0:0:0:0:
329,192,375871,1,0,0:0:0:0:
256,192,375965,1,0,0:0:0:0:
402,192,375965,1,0,0:0:0:0:
475,192,375965,1,0,0:0:0:0:
182,192,376059,1,0,0:0:0:0:
329,192,376059,1,0,0:0:0:0:
109,192,376153,1,0,0:0:0:0:
36,192,376153,1,0,0:0:0:0:
402,192,376153,1,0,0:0:0:0:
256,192,376153,1,0,0:0:0:0:
109,192,376246,1,0,0:0:0:0:
36,192,376246,1,0,0:0:0:0:
402,192,376246,1,0,0:0:0:0:
256,192,376246,1,0,0:0:0:0:
256,192,376340,1,0,0:0:0:0:
109,192,376340,1,0,0:0:0:0:
475,192,376340,1,0,0:0:0:0:
402,192,376340,1,0,0:0:0:0:
256,192,376434,1,0,0:0:0:0:
109,192,376434,1,0,0:0:0:0:
475,192,376434,1,0,0:0:0:0:
402,192,376434,1,0,0:0:0:0:
329,192,376528,1,0,0:0:0:0:
36,192,376528,1,0,0:0:0:0:
475,192,376528,1,0,0:0:0:0:
182,192,376528,1,0,0:0:0:0:
402,192,376574,1,0,0:0:0:0:
109,192,376621,1,0,0:0:0:0:
256,192,376668,1,0,0:0:0:0:
329,192,376715,1,0,0:0:0:0:
475,192,376715,1,0,0:0:0:0:
182,192,376762,1,0,0:0:0:0:
402,192,376809,1,0,0:0:0:0:
109,192,376856,1,0,0:0:0:0:
36,192,376903,1,0,0:0:0:0:
256,192,376903,1,0,0:0:0:0:
475,192,376903,1,0,0:0:0:0:
329,192,376949,1,0,0:0:0:0:
182,192,376996,1,0,0:0:0:0:
402,192,377043,1,0,0:0:0:0:
109,192,377090,1,0,0:0:0:0:
256,192,377090,1,0,0:0:0:0:
36,192,377137,1,0,0:0:0:0:
329,192,377184,1,0,0:0:0:0:
182,192,377231,1,0,0:0:0:0:
256,192,377278,1,0,0:0:0:0:
402,192,377278,1,0,0:0:0:0:
475,192,377278,1,0,0:0:0:0:
36,192,377324,1,0,0:0:0:0:
109,192,377371,1,0,0:0:0:0:
329,192,377418,1,0,0:0:0:0:
256,192,377465,1,0,0:0:0:0:
475,192,377465,1,0,0:0:0:0:
182,192,377512,1,0,0:0:0:0:
402,192,377559,1,0,0:0:0:0:
109,192,377606,1,0,0:0:0:0:
36,192,377653,1,0,0:0:0:0:
329,192,377653,1,0,0:0:0:0:
475,192,377653,1,0,0:0:0:0:
182,192,377699,1,0,0:0:0:0:
256,192,377746,1,0,0:0:0:0:
402,192,377793,1,0,0:0:0:0:
109,192,377840,1,0,0:0:0:0:
36,192,377840,1,0,0:0:0:0:
182,192,377887,1,0,0:0:0:0:
329,192,377934,1,0,0:0:0:0:
256,192,377981,1,0,0:0:0:0:
36,192,378028,1,0,0:0:0:0:
402,192,378028,1,0,0:0:0:0:
475,192,378028,1,0,0:0:0:0:
182,192,378074,1,0,0:0:0:0:
329,192,378121,1,0,0:0:0:0:
109,192,378168,1,0,0:0:0:0:
256,192,378215,1,0,0:0:0:0:
475,192,378215,1,0,0:0:0:0:
402,192,378262,1,0,0:0:0:0:
182,192,378309,1,0,0:0:0:0:
109,192,378356,1,0,0:0:0:0:
329,192,378403,1,0,0:0:0:0:
36,192,378403,1,0,0:0:0:0:
475,192,378403,1,0,0:0:0:0:
182,192,378449,1,0,0:0:0:0:
402,192,378496,1,0,0:0:0:0:
109,192,378543,1,0,0:0:0:0:
256,192,378590,1,0,0:0:0:0:
475,192,378590,1,0,0:0:0:0:
182,192,378637,1,0,0:0:0:0:
329,192,378684,1,0,0:0:0:0:
109,192,378731,1,0,0:0:0:0:
256,192,378778,1,0,0:0:0:0:
402,192,378778,1,0,0:0:0:0:
475,192,378778,1,0,0:0:0:0:
36,192,378824,1,0,0:0:0:0:
329,192,378871,1,0,0:0:0:0:
109,192,378918,1,0,0:0:0:0:
475,192,378965,1,0,0:0:0:0:
182,192,378965,1,0,0:0:0:0:
402,192,379012,1,0,0:0:0:0:
36,192,379059,1,0,0:0:0:0:
329,192,379106,1,0,0:0:0:0:
109,192,379153,1,0,0:0:0:0:
256,192,379153,1,0,0:0:0:0:
475,192,379153,1,0,0:0:0:0:
402,192,379199,1,0,0:0:0:0:
182,192,379246,1,0,0:0:0:0:
36,192,379293,1,0,0:0:0:0:
109,192,379340,1,0,0:0:0:0:
329,192,379340,1,0,0:0:0:0:
256,192,379387,1,0,0:0:0:0:
402,192,379434,1,0,0:0:0:0:
182,192,379481,1,0,0:0:0:0:
329,192,379528,1,0,0:0:0:0:
475,192,379528,1,0,0:0:0:0:
36,192,379528,1,0,0:0:0:0:
256,192,379574,1,0,0:0:0:0:
109,192,379621,1,0,0:0:0:0:
182,192,379668,1,0,0:0:0:0:
329,192,379715,1,0,0:0:0:0:
475,192,379715,1,0,0:0:0:0:
256,192,379762,1,0,0:0:0:0:
109,192,379809,1,0,0:0:0:0:
402,192,379856,1,0,0:0:0:0:
475,192,379903,1,0,0:0:0:0:
36,192,379903,1,0,0:0:0:0:
182,192,379903,1,0,0:0:0:0:
329,192,379949,1,0,0:0:0:0:
109,192,379996,1,0,0:0:0:0:
256,192,380043,1,0,0:0:0:0:
402,192,380090,1,0,0:0:0:0:
182,192,380090,1,0,0:0:0:0:
329,192,380137,1,0,0:0:0:0:
109,192,380184,1,0,0:0:0:0:
475,192,380231,1,0,0:0:0:0:
402,192,380278,1,0,0:0:0:0:
36,192,380278,1,0,0:0:0:0:
256,192,380278,1,0,0:0:0:0:
182,192,380324,1,0,0:0:0:0:
329,192,380371,1,0,0:0:0:0:
109,192,380418,1,0,0:0:0:0:
256,192,380465,1,0,0:0:0:0:
475,192,380465,1,0,0:0:0:0:
402,192,380512,1,0,0:0:0:0:
182,192,380559,1,0,0:0:0:0:
329,192,380606,1,0,0:0:0:0:
36,192,380653,1,0,0:0:0:0:
256,192,380653,1,0,0:0:0:0:
475,192,380653,1,0,0:0:0:0:
109,192,380699,1,0,0:0:0:0:
402,192,380746,1,0,0:0:0:0:
182,192,380793,1,0,0:0:0:0:
475,192,380840,1,0,0:0:0:0:
329,192,380840,1,0,0:0:0:0:
109,192,380887,1,0,0:0:0:0:
402,192,380934,1,0,0:0:0:0:
182,192,380981,1,0,0:0:0:0:
256,192,381028,1,0,0:0:0:0:
109,192,381028,1,0,0:0:0:0:
475,192,381028,1,0,0:0:0:0:
36,192,381028,1,0,0:0:0:0:
329,192,381121,1,0,0:0:0:0:
402,192,381121,1,0,0:0:0:0:
182,192,381121,1,0,0:0:0:0:
256,192,381215,1,0,0:0:0:0:
36,192,381215,1,0,0:0:0:0:
109,192,381215,1,0,0:0:0:0:
182,192,381309,1,0,0:0:0:0:
329,192,381309,1,0,0:0:0:0:
402,192,381309,1,0,0:0:0:0:
475,192,381309,1,0,0:0:0:0:
36,192,381403,1,0,0:0:0:0:
109,192,381403,1,0,0:0:0:0:
256,192,381403,1,0,0:0:0:0:
329,192,381496,1,0,0:0:0:0:
402,192,381496,1,0,0:0:0:0:
475,192,381496,1,0,0:0:0:0:
256,192,381590,1,0,0:0:0:0:
109,192,381590,1,0,0:0:0:0:
36,192,381590,1,0,0:0:0:0:
182,192,381590,1,0,0:0:0:0:
329,192,381684,1,0,0:0:0:0:
402,192,381684,1,0,0:0:0:0:
475,192,381684,1,0,0:0:0:0:
182,192,381778,1,0,0:0:0:0:
256,192,381778,1,0,0:0:0:0:
36,192,381778,1,0,0:0:0:0:
109,192,381871,1,0,0:0:0:0:
329,192,381871,1,0,0:0:0:0:
402,192,381871,1,0,0:0:0:0:
475,192,381871,1,0,0:0:0:0:
256,192,381965,1,0,0:0:0:0:
36,192,381965,1,0,0:0:0:0:
182,192,382059,1,0,0:0:0:0:
329,192,382059,1,0,0:0:0:0:
256,192,382153,1,0,0:0:0:0:
402,192,382153,1,0,0:0:0:0:
109,192,382153,1,0,0:0:0:0:
36,192,382153,1,0,0:0:0:0:
109,192,382246,1,0,0:0:0:0:
402,192,382246,1,0,0:0:0:0:
256,192,382246,1,0,0:0:0:0:
36,192,382246,1,0,0:0:0:0:
402,192,382340,1,0,0:0:0:0:
109,192,382340,1,0,0:0:0:0:
256,192,382340,1,0,0:0:0:0:
475,192,382340,1,0,0:0:0:0:
402,192,382434,1,0,0:0:0:0:
109,192,382434,1,0,0:0:0:0:
256,192,382434,1,0,0:0:0:0:
475,192,382434,1,0,0:0:0:0:
36,192,382528,1,0,0:0:0:0:
182,192,382528,1,0,0:0:0:0:
475,192,382528,1,0,0:0:0:0:
402,192,382528,1,0,0:0:0:0:
329,192,382574,1,0,0:0:0:0:
256,192,382621,1,0,0:0:0:0:
109,192,382668,1,0,0:0:0:0:
182,192,382715,1,0,0:0:0:0:
329,192,382715,1,0,0:0:0:0:
402,192,382762,1,0,0:0:0:0:
109,192,382809,1,0,0:0:0:0:
256,192,382856,1,0,0:0:0:0:
182,192,382903,1,0,0:0:0:0:
36,192,382903,1,0,0:0:0:0:
475,192,382903,1,0,0:0:0:0:
329,192,382949,1,0,0:0:0:0:
402,192,382996,1,0,0:0:0:0:
109,192,383043,1,0,0:0:0:0:
182,192,383090,1,0,0:0:0:0:
256,192,383090,1,0,0:0:0:0:
329,192,383137,1,0,0:0:0:0:
36,192,383184,1,0,0:0:0:0:
182,192,383231,1,0,0:0:0:0:
109,192,383278,1,0,0:0:0:0:
475,192,383278,1,0,0:0:0:0:
402,192,383278,1,0,0:0:0:0:
329,192,383324,1,0,0:0:0:0:
256,192,383371,1,0,0:0:0:0:
36,192,383418,1,0,0:0:0:0:
182,192,383465,1,0,0:0:0:0:
402,192,383465,1,0,0:0:0:0:
109,192,383512,1,0,0:0:0:0:
329,192,383559,1,0,0:0:0:0:
256,192,383606,1,0,0:0:0:0:
475,192,383653,1,0,0:0:0:0:
36,192,383653,1,0,0:0:0:0:
182,192,383653,1,0,0:0:0:0:
402,192,383699,1,0,0:0:0:0:
329,192,383746,1,0,0:0:0:0:
109,192,383793,1,0,0:0:0:0:
36,192,383840,1,0,0:0:0:0:
182,192,383840,1,0,0:0:0:0:
402,192,383887,1,0,0:0:0:0:
256,192,383934,1,0,0:0:0:0:
329,192,383981,1,0,0:0:0:0:
109,192,384028,1,0,0:0:0:0:
475,192,384028,1,0,0:0:0:0:
182,192,384028,1,0,0:0:0:0:
402,192,384074,1,0,0:0:0:0:
256,192,384121,1,0,0:0:0:0:
182,192,384168,1,0,0:0:0:0:
36,192,384215,1,0,0:0:0:0:
109,192,384215,1,0,0:0:0:0:
256,192,384262,1,0,0:0:0:0:
329,192,384309,1,0,0:0:0:0:
402,192,384356,1,0,0:0:0:0:
475,192,384403,1,0,0:0:0:0:
36,192,384403,1,0,0:0:0:0:
182,192,384403,1,0,0:0:0:0:
256,192,384449,1,0,0:0:0:0:
402,192,384496,1,0,0:0:0:0:
109,192,384543,1,0,0:0:0:0:
329,192,384590,1,0,0:0:0:0:
182,192,384590,1,0,0:0:0:0:
256,192,384637,1,0,0:0:0:0:
36,192,384684,1,0,0:0:0:0:
402,192,384731,1,0,0:0:0:0:
109,192,384778,1,0,0:0:0:0:
475,192,384778,1,0,0:0:0:0:
182,192,384778,1,0,0:0:0:0:
329,192,384824,1,0,0:0:0:0:
256,192,384871,1,0,0:0:0:0:
182,192,384918,1,0,0:0:0:0:
36,192,384965,1,0,0:0:0:0:
109,192,384965,1,0,0:0:0:0:
329,192,385012,1,0,0:0:0:0:
402,192,385059,1,0,0:0:0:0:
182,192,385106,1,0,0:0:0:0:
36,192,385153,1,0,0:0:0:0:
475,192,385153,1,0,0:0:0:0:
256,192,385153,1,0,0:0:0:0:
329,192,385199,1,0,0:0:0:0:
109,192,385246,1,0,0:0:0:0:
402,192,385293,1,0,0:0:0:0:
182,192,385340,1,0,0:0:0:0:
256,192,385340,1,0,0:0:0:0:
475,192,385387,1,0,0:0:0:0:
329,192,385434,1,0,0:0:0:0:
256,192,385481,1,0,0:0:0:0:
402,192,385528,1,0,0:0:0:0:
182,192,385528,1,0,0:0:0:0:
36,192,385528,1,0,0:0:0:0:
475,192,385574,1,0,0:0:0:0:
109,192,385621,1,0,0:0:0:0:
329,192,385668,1,0,0:0:0:0:
256,192,385715,1,0,0:0:0:0:
182,192,385715,1,0,0:0:0:0:
402,192,385762,1,0,0:0:0:0:
475,192,385809,1,0,0:0:0:0:
109,192,385856,1,0,0:0:0:0:
329,192,385903,1,0,0:0:0:0:
182,192,385903,1,0,0:0:0:0:
402,192,385903,1,0,0:0:0:0:
36,192,385949,1,0,0:0:0:0:
256,192,385996,1,0,0:0:0:0:
109,192,386043,1,0,0:0:0:0:
475,192,386090,1,0,0:0:0:0:
329,192,386090,1,0,0:0:0:0:
182,192,386137,1,0,0:0:0:0:
36,192,386184,1,0,0:0:0:0:
256,192,386231,1,0,0:0:0:0:
109,192,386278,1,0,0:0:0:0:
402,192,386278,1,0,0:0:0:0:
329,192,386278,1,0,0:0:0:0:
475,192,386324,1,0,0:0:0:0:
182,192,386371,1,0,0:0:0:0:
256,192,386418,1,0,0:0:0:0:
329,192,386465,1,0,0:0:0:0:
36,192,386465,1,0,0:0:0:0:
402,192,386512,1,0,0:0:0:0:
256,192,386559,1,0,0:0:0:0:
182,192,386606,1,0,0:0:0:0:
329,192,386653,1,0,0:0:0:0:
109,192,386653,1,0,0:0:0:0:
475,192,386653,1,0,0:0:0:0:
36,192,386699,1,0,0:0:0:0:
256,192,386746,1,0,0:0:0:0:
402,192,386793,1,0,0:0:0:0:
329,192,386840,1,0,0:0:0:0:
182,192,386840,1,0,0:0:0:0:
475,192,386887,1,0,0:0:0:0:
36,192,386934,1,0,0:0:0:0:
182,192,386981,1,0,0:0:0:0:
109,192,387028,1,0,0:0:0:0:
329,192,387028,1,0,0:0:0:0:
475,192,387028,1,0,0:0:0:0:
256,192,387028,1,0,0:0:0:0:
182,192,387121,1,0,0:0:0:0:
36,192,387121,1,0,0:0:0:0:
402,192,387121,1,0,0:0:0:0:
256,192,387215,1,0,0:0:0:0:
329,192,387215,1,0,0:0:0:0:
109,192,387215,1,0,0:0:0:0:
36,192,387309,1,0,0:0:0:0:
475,192,387309,1,0,0:0:0:0:
182,192,387309,1,0,0:0:0:0:
402,192,387309,1,0,0:0:0:0:
256,192,387403,1,0,0:0:0:0:
329,192,387403,1,0,0:0:0:0:
109,192,387403,1,0,0:0:0:0:
402,192,387496,1,0,0:0:0:0:
182,192,387496,1,0,0:0:0:0:
475,192,387496,1,0,0:0:0:0:
36,192,387590,1,0,0:0:0:0:
109,192,387590,1,0,0:0:0:0:
256,192,387590,1,0,0:0:0:0:
329,192,387590,1,0,0:0:0:0:
182,192,387684,1,0,0:0:0:0:
402,192,387684,1,0,0:0:0:0:
475,192,387684,1,0,0:0:0:0:
36,192,387778,1,0,0:0:0:0:
109,192,387778,1,0,0:0:0:0:
256,192,387778,1,0,0:0:0:0:
329,192,387871,1,0,0:0:0:0:
402,192,387871,1,0,0:0:0:0:
475,192,387871,1,0,0:0:0:0:
182,192,387871,1,0,0:0:0:0:
36,192,387965,1,0,0:0:0:0:
109,192,387965,1,0,0:0:0:0:
256,192,387965,1,0,0:0:0:0:
329,192,388059,1,0,0:0:0:0:
402,192,388059,1,0,0:0:0:0:
475,192,388059,1,0,0:0:0:0:
36,192,388153,1,0,0:0:0:0:
109,192,388153,1,0,0:0:0:0:
182,192,388153,1,0,0:0:0:0:
256,192,388153,1,0,0:0:0:0:
36,192,388246,1,0,0:0:0:0:
109,192,388246,1,0,0:0:0:0:
182,192,388246,1,0,0:0:0:0:
256,192,388246,1,0,0:0:0:0:
475,192,388340,1,0,0:0:0:0:
329,192,388340,1,0,0:0:0:0:
256,192,388340,1,0,0:0:0:0:
402,192,388340,1,0,0:0:0:0:
256,192,388434,1,0,0:0:0:0:
475,192,388434,1,0,0:0:0:0:
402,192,388434,1,0,0:0:0:0:
329,192,388434,1,0,0:0:0:0:
182,192,388528,1,0,0:0:0:0:
109,192,388528,1,0,0:0:0:0:
36,192,388528,1,0,0:0:0:0:
475,192,388528,1,0,0:0:0:0:
256,192,388574,1,0,0:0:0:0:
329,192,388621,1,0,0:0:0:0:
182,192,388668,1,0,0:0:0:0:
402,192,388715,1,0,0:0:0:0:
109,192,388715,1,0,0:0:0:0:
256,192,388762,1,0,0:0:0:0:
475,192,388809,1,0,0:0:0:0:
329,192,388856,1,0,0:0:0:0:
402,192,388903,1,0,0:0:0:0:
36,192,388903,1,0,0:0:0:0:
182,192,388903,1,0,0:0:0:0:
256,192,388949,1,0,0:0:0:0:
475,192,388996,1,0,0:0:0:0:
182,192,389043,1,0,0:0:0:0:
109,192,389090,1,0,0:0:0:0:
329,192,389090,1,0,0:0:0:0:
402,192,389137,1,0,0:0:0:0:
256,192,389184,1,0,0:0:0:0:
109,192,389231,1,0,0:0:0:0:
182,192,389278,1,0,0:0:0:0:
329,192,389278,1,0,0:0:0:0:
475,192,389278,1,0,0:0:0:0:
36,192,389324,1,0,0:0:0:0:
256,192,389371,1,0,0:0:0:0:
109,192,389418,1,0,0:0:0:0:
182,192,389465,1,0,0:0:0:0:
402,192,389465,1,0,0:0:0:0:
475,192,389512,1,0,0:0:0:0:
256,192,389559,1,0,0:0:0:0:
109,192,389606,1,0,0:0:0:0:
402,192,389653,1,0,0:0:0:0:
182,192,389653,1,0,0:0:0:0:
475,192,389653,1,0,0:0:0:0:
329,192,389699,1,0,0:0:0:0:
36,192,389746,1,0,0:0:0:0:
109,192,389793,1,0,0:0:0:0:
402,192,389840,1,0,0:0:0:0:
256,192,389840,1,0,0:0:0:0:
182,192,389887,1,0,0:0:0:0:
36,192,389934,1,0,0:0:0:0:
256,192,389981,1,0,0:0:0:0:
329,192,390028,1,0,0:0:0:0:
475,192,390028,1,0,0:0:0:0:
109,192,390028,1,0,0:0:0:0:
182,192,390074,1,0,0:0:0:0:
256,192,390121,1,0,0:0:0:0:
402,192,390168,1,0,0:0:0:0:
36,192,390215,1,0,0:0:0:0:
182,192,390215,1,0,0:0:0:0:
329,192,390262,1,0,0:0:0:0:
109,192,390309,1,0,0:0:0:0:
256,192,390356,1,0,0:0:0:0:
182,192,390403,1,0,0:0:0:0:
475,192,390403,1,0,0:0:0:0:
402,192,390403,1,0,0:0:0:0:
329,192,390449,1,0,0:0:0:0:
36,192,390496,1,0,0:0:0:0:
182,192,390543,1,0,0:0:0:0:
256,192,390590,1,0,0:0:0:0:
402,192,390590,1,0,0:0:0:0:
475,192,390637,1,0,0:0:0:0:
329,192,390684,1,0,0:0:0:0:
36,192,390731,1,0,0:0:0:0:
402,192,390778,1,0,0:0:0:0:
109,192,390778,1,0,0:0:0:0:
182,192,390778,1,0,0:0:0:0:
256,192,390824,1,0,0:0:0:0:
329,192,390871,1,0,0:0:0:0:
36,192,390918,1,0,0:0:0:0:
475,192,390965,1,0,0:0:0:0:
109,192,390965,1,0,0:0:0:0:
402,192,391012,1,0,0:0:0:0:
182,192,391059,1,0,0:0:0:0:
329,192,391106,1,0,0:0:0:0:
109,192,391153,1,0,0:0:0:0:
256,192,391153,1,0,0:0:0:0:
475,192,391153,1,0,0:0:0:0:
402,192,391199,1,0,0:0:0:0:
182,192,391246,1,0,0:0:0:0:
256,192,391293,1,0,0:0:0:0:
329,192,391340,1,0,0:0:0:0:
36,192,391340,1,0,0:0:0:0:
109,192,391387,1,0,0:0:0:0:
256,192,391434,1,0,0:0:0:0:
402,192,391481,1,0,0:0:0:0:
109,192,391528,1,0,0:0:0:0:
329,192,391528,1,0,0:0:0:0:
475,192,391528,1,0,0:0:0:0:
36,192,391528,1,0,0:0:0:0:
182,192,391621,1,0,0:0:0:0:
256,192,391621,1,0,0:0:0:0:
402,192,391621,1,0,0:0:0:0:
36,192,391715,1,0,0:0:0:0:
109,192,391715,1,0,0:0:0:0:
329,192,391715,1,0,0:0:0:0:
182,192,391809,1,0,0:0:0:0:
256,192,391809,1,0,0:0:0:0:
475,192,391809,1,0,0:0:0:0:
182,192,391903,1,0,0:0:0:0:
329,192,391903,1,0,0:0:0:0:
402,192,391903,1,0,0:0:0:0:
36,192,391903,1,0,0:0:0:0:
109,192,391996,1,0,0:0:0:0:
256,192,391996,1,0,0:0:0:0:
475,192,391996,1,0,0:0:0:0:
329,192,392090,1,0,0:0:0:0:
402,192,392090,1,0,0:0:0:0:
182,192,392090,1,0,0:0:0:0:
36,192,392184,1,0,0:0:0:0:
109,192,392184,1,0,0:0:0:0:
256,192,392184,1,0,0:0:0:0:
329,192,392278,1,0,0:0:0:0:
402,192,392278,1,0,0:0:0:0:
475,192,392278,1,0,0:0:0:0:
109,192,392278,1,0,0:0:0:0:
182,192,392371,1,0,0:0:0:0:
256,192,392371,1,0,0:0:0:0:
36,192,392371,1,0,0:0:0:0:
329,192,392465,1,0,0:0:0:0:
402,192,392465,1,0,0:0:0:0:
109,192,392465,1,0,0:0:0:0:
256,192,392559,1,0,0:0:0:0:
36,192,392559,1,0,0:0:0:0:
475,192,392559,1,0,0:0:0:0:
182,192,392653,1,0,0:0:0:0:
329,192,392653,1,0,0:0:0:0:
402,192,392653,1,0,0:0:0:0:
475,192,392653,1,0,0:0:0:0:
36,192,392746,1,0,0:0:0:0:
109,192,392746,1,0,0:0:0:0:
256,192,392746,1,0,0:0:0:0:
182,192,392840,1,0,0:0:0:0:
402,192,392840,1,0,0:0:0:0:
475,192,392840,1,0,0:0:0:0:
256,192,392934,1,0,0:0:0:0:
36,192,392934,1,0,0:0:0:0:
329,192,392934,1,0,0:0:0:0:
109,192,393028,1,0,0:0:0:0:
329,192,393028,1,0,0:0:0:0:
402,192,393028,1,0,0:0:0:0:
182,192,393074,1,0,0:0:0:0:
36,192,393121,1,0,0:0:0:0:
475,192,393121,1,0,0:0:0:0:
256,192,393121,1,0,0:0:0:0:
109,192,393168,1,0,0:0:0:0:
402,192,393215,1,0,0:0:0:0:
182,192,393215,1,0,0:0:0:0:
329,192,393262,1,0,0:0:0:0:
256,192,393309,1,0,0:0:0:0:
475,192,393309,1,0,0:0:0:0:
36,192,393309,1,0,0:0:0:0:
402,192,393356,1,0,0:0:0:0:
329,192,393403,1,0,0:0:0:0:
109,192,393403,1,0,0:0:0:0:
182,192,393449,1,0,0:0:0:0:
256,192,393496,1,0,0:0:0:0:
36,192,393496,1,0,0:0:0:0:
475,192,393496,1,0,0:0:0:0:
109,192,393543,1,0,0:0:0:0:
182,192,393590,1,0,0:0:0:0:
402,192,393590,1,0,0:0:0:0:
329,192,393637,1,0,0:0:0:0:
475,192,393684,1,0,0:0:0:0:
256,192,393684,1,0,0:0:0:0:
36,192,393684,1,0,0:0:0:0:
402,192,393731,1,0,0:0:0:0:
329,192,393778,1,0,0:0:0:0:
109,192,393778,1,0,0:0:0:0:
182,192,393824,1,0,0:0:0:0:
256,192,393871,1,0,0:0:0:0:
36,192,393871,1,0,0:0:0:0:
475,192,393871,1,0,0:0:0:0:
109,192,393918,1,0,0:0:0:0:
182,192,393965,1,0,0:0:0:0:
402,192,393965,1,0,0:0:0:0:
329,192,394012,1,0,0:0:0:0:
475,192,394059,1,0,0:0:0:0:
256,192,394059,1,0,0:0:0:0:
36,192,394059,1,0,0:0:0:0:
402,192,394106,1,0,0:0:0:0:
329,192,394153,1,0,0:0:0:0:
109,192,394153,1,0,0:0:0:0:
182,192,394199,1,0,0:0:0:0:
256,192,394246,1,0,0:0:0:0:
36,192,394246,1,0,0:0:0:0:
475,192,394246,1,0,0:0:0:0:
109,192,394293,1,0,0:0:0:0:
182,192,394340,1,0,0:0:0:0:
402,192,394340,1,0,0:0:0:0:
329,192,394387,1,0,0:0:0:0:
475,192,394434,1,0,0:0:0:0:
256,192,394434,1,0,0:0:0:0:
36,192,394434,1,0,0:0:0:0:
402,192,394481,1,0,0:0:0:0:
109,192,394528,1,0,0:0:0:0:
329,192,394528,1,0,0:0:0:0:
182,192,394574,1,0,0:0:0:0:
256,192,394621,1,0,0:0:0:0:
475,192,394621,1,0,0:0:0:0:
109,192,394668,1,0,0:0:0:0:
182,192,394715,1,0,0:0:0:0:
402,192,394715,1,0,0:0:0:0:
329,192,394762,1,0,0:0:0:0:
475,192,394809,1,0,0:0:0:0:
36,192,394809,1,0,0:0:0:0:
182,192,394856,1,0,0:0:0:0:
402,192,394903,1,0,0:0:0:0:
109,192,394903,1,0,0:0:0:0:
256,192,394949,1,0,0:0:0:0:
475,192,394996,1,0,0:0:0:0:
36,192,394996,1,0,0:0:0:0:
182,192,395043,1,0,0:0:0:0:
256,192,395090,1,0,0:0:0:0:
402,192,395090,1,0,0:0:0:0:
109,192,395137,1,0,0:0:0:0:
329,192,395184,1,0,0:0:0:0:
475,192,395184,1,0,0:0:0:0:
182,192,395231,1,0,0:0:0:0:
402,192,395278,1,0,0:0:0:0:
36,192,395278,1,0,0:0:0:0:
256,192,395324,1,0,0:0:0:0:
475,192,395371,1,0,0:0:0:0:
109,192,395371,1,0,0:0:0:0:
329,192,395418,1,0,0:0:0:0:
36,192,395465,1,0,0:0:0:0:
182,192,395465,1,0,0:0:0:0:
402,192,395512,1,0,0:0:0:0:
109,192,395559,1,0,0:0:0:0:
329,192,395559,1,0,0:0:0:0:
182,192,395606,1,0,0:0:0:0:
256,192,395653,1,0,0:0:0:0:
475,192,395653,1,0,0:0:0:0:
36,192,395699,1,0,0:0:0:0:
109,192,395746,1,0,0:0:0:0:
402,192,395746,1,0,0:0:0:0:
329,192,395793,1,0,0:0:0:0:
475,192,395840,1,0,0:0:0:0:
182,192,395840,1,0,0:0:0:0:
256,192,395887,1,0,0:0:0:0:
329,192,395934,1,0,0:0:0:0:
36,192,395934,1,0,0:0:0:0:
402,192,395934,1,0,0:0:0:0:
182,192,395981,1,0,0:0:0:0:
109,192,396028,1,0,0:0:0:0:
475,192,396028,1,0,0:0:0:0:
402,192,396074,1,0,0:0:0:0:
256,192,396121,1,0,0:0:0:0:
36,192,396121,1,0,0:0:0:0:
109,192,396168,1,0,0:0:0:0:
329,192,396215,1,0,0:0:0:0:
475,192,396215,1,0,0:0:0:0:
182,192,396262,1,0,0:0:0:0:
36,192,396309,1,0,0:0:0:0:
402,192,396309,1,0,0:0:0:0:
256,192,396356,1,0,0:0:0:0:
475,192,396403,1,0,0:0:0:0:
109,192,396403,1,0,0:0:0:0:
329,192,396449,1,0,0:0:0:0:
182,192,396496,1,0,0:0:0:0:
402,192,396543,1,0,0:0:0:0:
256,192,396590,1,0,0:0:0:0:
36,192,396590,1,0,0:0:0:0:
182,192,396637,1,0,0:0:0:0:
329,192,396684,1,0,0:0:0:0:
475,192,396684,1,0,0:0:0:0:
109,192,396731,1,0,0:0:0:0:
36,192,396778,1,0,0:0:0:0:
256,192,396778,1,0,0:0:0:0:
402,192,396778,1,0,0:0:0:0:
182,192,396824,1,0,0:0:0:0:
475,192,396871,1,0,0:0:0:0:
329,192,396871,1,0,0:0:0:0:
109,192,396918,1,0,0:0:0:0:
36,192,396965,1,0,0:0:0:0:
256,192,396965,1,0,0:0:0:0:
402,192,397012,1,0,0:0:0:0:
109,192,397059,1,0,0:0:0:0:
329,192,397059,1,0,0:0:0:0:
182,192,397106,1,0,0:0:0:0:
36,192,397153,1,0,0:0:0:0:
475,192,397153,1,0,0:0:0:0:
256,192,397199,1,0,0:0:0:0:
109,192,397246,1,0,0:0:0:0:
182,192,397246,1,0,0:0:0:0:
402,192,397246,1,0,0:0:0:0:
329,192,397293,1,0,0:0:0:0:
36,192,397340,1,0,0:0:0:0:
475,192,397340,1,0,0:0:0:0:
182,192,397387,1,0,0:0:0:0:
256,192,397434,1,0,0:0:0:0:
402,192,397434,1,0,0:0:0:0:
109,192,397481,1,0,0:0:0:0:
182,192,397528,1,0,0:0:0:0:
475,192,397528,1,0,0:0:0:0:
329,192,397574,1,0,0:0:0:0:
402,192,397621,1,0,0:0:0:0:
36,192,397621,1,0,0:0:0:0:
256,192,397668,1,0,0:0:0:0:
475,192,397715,1,0,0:0:0:0:
109,192,397715,1,0,0:0:0:0:
329,192,397762,1,0,0:0:0:0:
36,192,397809,1,0,0:0:0:0:
182,192,397809,1,0,0:0:0:0:
402,192,397856,1,0,0:0:0:0:
109,192,397903,1,0,0:0:0:0:
475,192,397903,1,0,0:0:0:0:
256,192,397949,1,0,0:0:0:0:
182,192,397996,1,0,0:0:0:0:
402,192,397996,1,0,0:0:0:0:
329,192,398043,1,0,0:0:0:0:
475,192,398090,1,0,0:0:0:0:
36,192,398090,1,0,0:0:0:0:
182,192,398137,1,0,0:0:0:0:
109,192,398184,1,0,0:0:0:0:
402,192,398184,1,0,0:0:0:0:
256,192,398231,1,0,0:0:0:0:
36,192,398278,1,0,0:0:0:0:
475,192,398278,1,0,0:0:0:0:
329,192,398324,1,0,0:0:0:0:
402,192,398371,1,0,0:0:0:0:
109,192,398371,1,0,0:0:0:0:
256,192,398418,1,0,0:0:0:0:
475,192,398465,1,0,0:0:0:0:
36,192,398465,1,0,0:0:0:0:
182,192,398512,1,0,0:0:0:0:
402,192,398559,1,0,0:0:0:0:
329,192,398559,1,0,0:0:0:0:
109,192,398606,1,0,0:0:0:0:
256,192,398653,1,0,0:0:0:0:
475,192,398653,1,0,0:0:0:0:
182,192,398699,1,0,0:0:0:0:
402,192,398746,1,0,0:0:0:0:
329,192,398746,1,0,0:0:0:0:
36,192,398746,1,0,0:0:0:0:
109,192,398793,1,0,0:0:0:0:
256,192,398840,1,0,0:0:0:0:
475,192,398840,1,0,0:0:0:0:
402,192,398887,1,0,0:0:0:0:
36,192,398934,1,0,0:0:0:0:
182,192,398934,1,0,0:0:0:0:
329,192,398981,1,0,0:0:0:0:
109,192,399028,1,0,0:0:0:0:
475,192,399028,1,0,0:0:0:0:
256,192,399074,1,0,0:0:0:0:
182,192,399121,1,0,0:0:0:0:
402,192,399121,1,0,0:0:0:0:
329,192,399168,1,0,0:0:0:0:
475,192,399215,1,0,0:0:0:0:
36,192,399215,1,0,0:0:0:0:
182,192,399262,1,0,0:0:0:0:
402,192,399309,1,0,0:0:0:0:
109,192,399309,1,0,0:0:0:0:
256,192,399356,1,0,0:0:0:0:
36,192,399403,1,0,0:0:0:0:
475,192,399403,1,0,0:0:0:0:
329,192,399449,1,0,0:0:0:0:
109,192,399496,1,0,0:0:0:0:
182,192,399496,1,0,0:0:0:0:
402,192,399543,1,0,0:0:0:0:
475,192,399590,1,0,0:0:0:0:
256,192,399590,1,0,0:0:0:0:
109,192,399637,1,0,0:0:0:0:
36,192,399684,1,0,0:0:0:0:
329,192,399684,1,0,0:0:0:0:
182,192,399731,1,0,0:0:0:0:
256,192,399778,1,0,0:0:0:0:
402,192,399778,1,0,0:0:0:0:
109,192,399824,1,0,0:0:0:0:
329,192,399871,1,0,0:0:0:0:
475,192,399871,1,0,0:0:0:0:
182,192,399918,1,0,0:0:0:0:
402,192,399965,1,0,0:0:0:0:
36,192,399965,1,0,0:0:0:0:
256,192,400012,1,0,0:0:0:0:
475,192,400059,1,0,0:0:0:0:
109,192,400059,1,0,0:0:0:0:
329,192,400106,1,0,0:0:0:0:
36,192,400153,1,0,0:0:0:0:
182,192,400153,1,0,0:0:0:0:
256,192,400199,1,0,0:0:0:0:
109,192,400246,1,0,0:0:0:0:
402,192,400246,1,0,0:0:0:0:
329,192,400293,1,0,0:0:0:0:
36,192,400340,1,0,0:0:0:0:
182,192,400340,1,0,0:0:0:0:
475,192,400340,1,0,0:0:0:0:
256,192,400387,1,0,0:0:0:0:
109,192,400434,1,0,0:0:0:0:
402,192,400434,1,0,0:0:0:0:
329,192,400481,1,0,0:0:0:0:
475,192,400528,1,0,0:0:0:0:
256,192,400528,1,0,0:0:0:0:
182,192,400528,1,0,0:0:0:0:
36,192,400528,1,0,0:0:0:0:
36,192,412733,5,0,0:0:0:0:
402,192,412733,1,0,0:0:0:0:
329,192,412733,1,0,0:0:0:0:
475,192,412733,1,0,0:0:0:0:
109,192,412733,1,0,0:0:0:0:
256,192,412733,1,0,0:0:0:0:
182,192,412883,1,0,0:0:0:0:
256,192,413033,1,0,0:0:0:0:
109,192,413183,1,0,0:0:0:0:
36,192,413333,1,0,0:0:0:0:
329,192,413483,1,0,0:0:0:0:
475,192,413633,1,0,0:0:0:0:
256,192,413783,1,0,0:0:0:0:
402,192,413933,1,0,0:0:0:0:
329,192,414083,1,0,0:0:0:0:
182,192,414233,1,0,0:0:0:0:
256,192,414383,1,0,0:0:0:0:
109,192,414383,1,0,0:0:0:0:
329,192,414458,1,0,0:0:0:0:
182,192,414458,1,0,0:0:0:0:
475,192,414533,1,0,0:0:0:0:
36,192,414533,1,0,0:0:0:0:
256,192,414533,1,0,0:0:0:0:
402,192,414533,1,0,0:0:0:0:
402,192,414683,1,0,0:0:0:0:
475,192,414683,1,0,0:0:0:0:
36,192,414683,1,0,0:0:0:0:
256,192,414683,1,0,0:0:0:0:
182,192,414983,1,0,0:0:0:0:
329,192,415133,1,0,0:0:0:0:
402,192,415283,1,0,0:0:0:0:
109,192,415433,1,0,0:0:0:0:
475,192,415433,1,0,0:0:0:0:
402,192,415583,1,0,0:0:0:0:
182,192,415583,1,0,0:0:0:0:
329,192,415733,1,0,0:0:0:0:
109,192,415733,1,0,0:0:0:0:
402,192,415883,1,0,0:0:0:0:
256,192,416033,1,0,0:0:0:0:
329,192,416183,1,0,0:0:0:0:
182,192,416333,1,0,0:0:0:0:
36,192,416333,1,0,0:0:0:0:
402,192,416333,1,0,0:0:0:0:
256,192,416483,1,0,0:0:0:0:
109,192,416633,1,0,0:0:0:0:
329,192,416783,1,0,0:0:0:0:
182,192,416933,1,0,0:0:0:0:
402,192,417083,1,0,0:0:0:0:
36,192,417233,1,0,0:0:0:0:
109,192,417233,1,0,0:0:0:0:
256,192,417233,1,0,0:0:0:0:
329,192,417383,1,0,0:0:0:0:
402,192,417533,1,0,0:0:0:0:
256,192,417683,1,0,0:0:0:0:
109,192,417833,1,0,0:0:0:0:
329,192,417983,1,0,0:0:0:0:
182,192,417983,1,0,0:0:0:0:
402,192,418058,1,0,0:0:0:0:
256,192,418058,1,0,0:0:0:0:
475,192,418133,1,0,0:0:0:0:
36,192,418133,1,0,0:0:0:0:
109,192,418133,1,0,0:0:0:0:
329,192,418133,1,0,0:0:0:0:
475,192,418283,1,0,0:0:0:0:
36,192,418283,1,0,0:0:0:0:
109,192,418283,1,0,0:0:0:0:
329,192,418283,1,0,0:0:0:0:
256,192,418433,1,0,0:0:0:0:
182,192,418583,1,0,0:0:0:0:
256,192,418733,1,0,0:0:0:0:
329,192,418883,1,0,0:0:0:0:
256,192,418995,1,0,0:0:0:0:
109,192,418995,1,0,0:0:0:0:
36,192,419033,1,0,0:0:0:0:
182,192,419033,1,0,0:0:0:0:
475,192,419033,1,0,0:0:0:0:
329,192,419183,1,0,0:0:0:0:
182,192,419333,1,0,0:0:0:0:
36,192,419333,1,0,0:0:0:0:
402,192,419333,1,0,0:0:0:0:
109,192,419483,1,0,0:0:0:0:
256,192,419483,1,0,0:0:0:0:
182,192,419633,1,0,0:0:0:0:
36,192,419633,1,0,0:0:0:0:
329,192,419633,1,0,0:0:0:0:
402,192,419783,1,0,0:0:0:0:
109,192,419933,1,0,0:0:0:0:
36,192,419933,1,0,0:0:0:0:
182,192,419933,1,0,0:0:0:0:
475,192,419933,1,0,0:0:0:0:
256,192,419933,1,0,0:0:0:0:
329,192,420083,1,0,0:0:0:0:
402,192,420233,1,0,0:0:0:0:
36,192,420233,1,0,0:0:0:0:
256,192,420383,1,0,0:0:0:0:
182,192,420533,1,0,0:0:0:0:
36,192,420533,1,0,0:0:0:0:
329,192,420683,1,0,0:0:0:0:
475,192,420833,1,0,0:0:0:0:
36,192,420833,1,0,0:0:0:0:
256,192,420983,1,0,0:0:0:0:
402,192,421133,1,0,0:0:0:0:
36,192,421133,1,0,0:0:0:0:
182,192,421283,1,0,0:0:0:0:
329,192,421433,1,0,0:0:0:0:
36,192,421433,1,0,0:0:0:0:
475,192,421583,1,0,0:0:0:0:
256,192,421733,1,0,0:0:0:0:
36,192,421733,1,0,0:0:0:0:
329,192,421883,1,0,0:0:0:0:
182,192,422033,1,0,0:0:0:0:
36,192,422033,1,0,0:0:0:0:
256,192,422183,1,0,0:0:0:0:
329,192,422333,1,0,0:0:0:0:
36,192,422333,1,0,0:0:0:0:
402,192,422483,1,0,0:0:0:0:
475,192,422633,1,0,0:0:0:0:
36,192,422633,1,0,0:0:0:0:
329,192,422783,1,0,0:0:0:0:
256,192,422933,1,0,0:0:0:0:
36,192,422933,1,0,0:0:0:0:
402,192,423083,1,0,0:0:0:0:
329,192,423233,1,0,0:0:0:0:
36,192,423233,1,0,0:0:0:0:
182,192,423383,1,0,0:0:0:0:
329,192,423533,1,0,0:0:0:0:
256,192,423533,1,0,0:0:0:0:
36,192,423533,1,0,0:0:0:0:
402,192,423683,1,0,0:0:0:0:
329,192,423683,1,0,0:0:0:0:
109,192,423683,1,0,0:0:0:0:
475,192,423833,1,0,0:0:0:0:
402,192,423833,1,0,0:0:0:0:
182,192,423833,1,0,0:0:0:0:
329,192,423983,1,0,0:0:0:0:
256,192,423983,1,0,0:0:0:0:
36,192,423983,1,0,0:0:0:0:
402,192,424133,1,0,0:0:0:0:
329,192,424133,1,0,0:0:0:0:
109,192,424133,1,0,0:0:0:0:
475,192,424283,1,0,0:0:0:0:
402,192,424283,1,0,0:0:0:0:
182,192,424283,1,0,0:0:0:0:
36,192,424433,1,0,0:0:0:0:
475,192,424433,1,0,0:0:0:0:
256,192,424433,1,0,0:0:0:0:
475,192,424583,1,0,0:0:0:0:
402,192,424583,1,0,0:0:0:0:
182,192,424583,1,0,0:0:0:0:
402,192,424733,1,0,0:0:0:0:
329,192,424733,1,0,0:0:0:0:
109,192,424733,1,0,0:0:0:0:
329,192,424883,1,0,0:0:0:0:
256,192,424883,1,0,0:0:0:0:
36,192,424883,1,0,0:0:0:0:
475,192,425033,1,0,0:0:0:0:
402,192,425033,1,0,0:0:0:0:
182,192,425033,1,0,0:0:0:0:
402,192,425183,1,0,0:0:0:0:
329,192,425183,1,0,0:0:0:0:
109,192,425183,1,0,0:0:0:0:
329,192,425333,1,0,0:0:0:0:
475,192,425333,1,0,0:0:0:0:
36,192,425333,1,0,0:0:0:0:
256,192,425333,1,0,0:0:0:0:
182,192,425483,1,0,0:0:0:0:
109,192,425633,1,0,0:0:0:0:
36,192,425633,1,0,0:0:0:0:
329,192,425633,1,0,0:0:0:0:
402,192,425783,1,0,0:0:0:0:
329,192,425933,1,0,0:0:0:0:
109,192,425933,1,0,0:0:0:0:
475,192,425933,1,0,0:0:0:0:
256,192,426008,1,0,0:0:0:0:
402,192,426083,1,0,0:0:0:0:
182,192,426083,1,0,0:0:0:0:
36,192,426158,1,0,0:0:0:0:
329,192,426233,1,0,0:0:0:0:
475,192,426233,1,0,0:0:0:0:
109,192,426233,1,0,0:0:0:0:
256,192,426233,1,0,0:0:0:0:
182,192,426308,1,0,0:0:0:0:
402,192,426383,1,0,0:0:0:0:
36,192,426383,1,0,0:0:0:0:
329,192,426458,1,0,0:0:0:0:
475,192,426533,1,0,0:0:0:0:
256,192,426533,1,0,0:0:0:0:
182,192,426608,1,0,0:0:0:0:
36,192,426683,1,0,0:0:0:0:
329,192,426683,1,0,0:0:0:0:
109,192,426683,1,0,0:0:0:0:
402,192,426758,1,0,0:0:0:0:
182,192,426833,1,0,0:0:0:0:
475,192,426833,1,0,0:0:0:0:
256,192,426908,1,0,0:0:0:0:
109,192,426983,1,0,0:0:0:0:
329,192,426983,1,0,0:0:0:0:
402,192,427058,1,0,0:0:0:0:
36,192,427133,1,0,0:0:0:0:
256,192,427133,1,0,0:0:0:0:
475,192,427133,1,0,0:0:0:0:
182,192,427133,1,0,0:0:0:0:
402,192,427283,1,0,0:0:0:0:
329,192,427283,1,0,0:0:0:0:
256,192,427433,1,0,0:0:0:0:
475,192,427433,1,0,0:0:0:0:
109,192,427433,1,0,0:0:0:0:
182,192,427433,1,0,0:0:0:0:
329,192,427583,1,0,0:0:0:0:
109,192,427733,1,0,0:0:0:0:
329,192,427883,1,0,0:0:0:0:
402,192,427883,1,0,0:0:0:0:
109,192,428033,1,0,0:0:0:0:
182,192,428033,1,0,0:0:0:0:
256,192,428183,1,0,0:0:0:0:
475,192,428333,1,0,0:0:0:0:
329,192,428333,1,0,0:0:0:0:
182,192,428483,1,0,0:0:0:0:
402,192,428633,1,0,0:0:0:0:
256,192,428633,1,0,0:0:0:0:
109,192,428783,1,0,0:0:0:0:
329,192,428933,1,0,0:0:0:0:
182,192,428933,1,0,0:0:0:0:
36,192,428933,1,0,0:0:0:0:
256,192,429083,1,0,0:0:0:0:
329,192,429158,1,0,0:0:0:0:
36,192,429233,1,0,0:0:0:0:
182,192,429233,1,0,0:0:0:0:
402,192,429233,1,0,0:0:0:0:
475,192,429308,1,0,0:0:0:0:
329,192,429383,1,0,0:0:0:0:
256,192,429383,1,0,0:0:0:0:
109,192,429383,1,0,0:0:0:0:
36,192,429458,1,0,0:0:0:0:
182,192,429533,1,0,0:0:0:0:
475,192,429533,1,0,0:0:0:0:
402,192,429608,1,0,0:0:0:0:
109,192,429683,1,0,0:0:0:0:
256,192,429683,1,0,0:0:0:0:
329,192,429683,1,0,0:0:0:0:
36,192,429758,1,0,0:0:0:0:
182,192,429833,1,0,0:0:0:0:
475,192,429833,1,0,0:0:0:0:
402,192,429908,1,0,0:0:0:0:
329,192,429983,1,0,0:0:0:0:
109,192,429983,1,0,0:0:0:0:
182,192,430058,1,0,0:0:0:0:
402,192,430133,1,0,0:0:0:0:
475,192,430133,1,0,0:0:0:0:
36,192,430133,1,0,0:0:0:0:
256,192,430133,1,0,0:0:0:0:
329,192,430208,1,0,0:0:0:0:
182,192,430283,1,0,0:0:0:0:
109,192,430283,1,0,0:0:0:0:
256,192,430358,1,0,0:0:0:0:
36,192,430433,1,0,0:0:0:0:
109,192,430433,1,0,0:0:0:0:
329,192,430433,1,0,0:0:0:0:
475,192,430433,1,0,0:0:0:0:
256,192,430508,1,0,0:0:0:0:
182,192,430508,1,0,0:0:0:0:
402,192,430583,1,0,0:0:0:0:
329,192,430583,1,0,0:0:0:0:
36,192,430658,1,0,0:0:0:0:
475,192,430658,1,0,0:0:0:0:
329,192,430733,1,0,0:0:0:0:
402,192,430733,1,0,0:0:0:0:
256,192,430733,1,0,0:0:0:0:
109,192,430733,1,0,0:0:0:0:
182,192,430733,1,0,0:0:0:0:
182,192,430883,1,0,0:0:0:0:
329,192,430883,1,0,0:0:0:0:
402,192,430958,1,0,0:0:0:0:
256,192,430958,1,0,0:0:0:0:
475,192,431033,1,0,0:0:0:0:
329,192,431033,1,0,0:0:0:0:
402,192,431183,1,0,0:0:0:0:
109,192,431183,1,0,0:0:0:0:
256,192,431183,1,0,0:0:0:0:
36,192,431183,1,0,0:0:0:0:
182,192,431183,1,0,0:0:0:0:
329,192,431333,1,0,0:0:0:0:
109,192,431333,1,0,0:0:0:0:
402,192,431408,1,0,0:0:0:0:
182,192,431408,1,0,0:0:0:0:
475,192,431483,1,0,0:0:0:0:
256,192,431483,1,0,0:0:0:0:
402,192,431633,1,0,0:0:0:0:
109,192,431633,1,0,0:0:0:0:
329,192,431633,1,0,0:0:0:0:
36,192,431633,1,0,0:0:0:0:
182,192,431633,1,0,0:0:0:0:
256,192,431783,1,0,0:0:0:0:
109,192,431783,1,0,0:0:0:0:
329,192,431858,1,0,0:0:0:0:
182,192,431858,1,0,0:0:0:0:
402,192,431933,1,0,0:0:0:0:
256,192,431933,1,0,0:0:0:0:
329,192,432083,1,0,0:0:0:0:
109,192,432083,1,0,0:0:0:0:
475,192,432083,1,0,0:0:0:0:
36,192,432083,1,0,0:0:0:0:
182,192,432083,1,0,0:0:0:0:
329,192,432233,1,0,0:0:0:0:
109,192,432233,1,0,0:0:0:0:
402,192,432308,1,0,0:0:0:0:
182,192,432308,1,0,0:0:0:0:
475,192,432383,1,0,0:0:0:0:
256,192,432383,1,0,0:0:0:0:
329,192,432533,1,0,0:0:0:0:
402,192,432533,1,0,0:0:0:0:
182,192,432533,1,0,0:0:0:0:
36,192,432533,1,0,0:0:0:0:
109,192,432533,1,0,0:0:0:0:
256,192,432683,1,0,0:0:0:0:
182,192,432833,1,0,0:0:0:0:
329,192,432983,1,0,0:0:0:0:
256,192,433133,1,0,0:0:0:0:
182,192,433283,1,0,0:0:0:0:
402,192,433433,1,0,0:0:0:0:
109,192,433433,1,0,0:0:0:0:
329,192,433733,1,0,0:0:0:0:
109,192,434033,1,0,0:0:0:0:
182,192,434108,1,0,0:0:0:0:
329,192,434183,1,0,0:0:0:0:
256,192,434258,1,0,0:0:0:0:
182,192,434333,1,0,0:0:0:0:
329,192,434333,1,0,0:0:0:0:
36,192,434333,1,0,0:0:0:0:
402,192,434333,1,0,0:0:0:0:
475,192,434333,1,0,0:0:0:0:
109,192,434408,1,0,0:0:0:0:
256,192,434408,1,0,0:0:0:0:
182,192,434483,1,0,0:0:0:0:
329,192,434483,1,0,0:0:0:0:
402,192,434558,1,0,0:0:0:0:
109,192,434558,1,0,0:0:0:0:
329,192,434633,1,0,0:0:0:0:
182,192,434633,1,0,0:0:0:0:
36,192,434633,1,0,0:0:0:0:
475,192,434633,1,0,0:0:0:0:
256,192,434708,1,0,0:0:0:0:
109,192,434708,1,0,0:0:0:0:
36,192,434783,1,0,0:0:0:0:
329,192,434783,1,0,0:0:0:0:
182,192,434783,1,0,0:0:0:0:
256,192,434858,1,0,0:0:0:0:
402,192,434858,1,0,0:0:0:0:
475,192,434933,1,0,0:0:0:0:
329,192,434933,1,0,0:0:0:0:
109,192,434933,1,0,0:0:0:0:
36,192,434933,1,0,0:0:0:0:
256,192,435008,1,0,0:0:0:0:
182,192,435008,1,0,0:0:0:0:
402,192,435083,1,0,0:0:0:0:
329,192,435083,1,0,0:0:0:0:
36,192,435158,1,0,0:0:0:0:
475,192,435158,1,0,0:0:0:0:
256,192,435233,1,0,0:0:0:0:
182,192,435233,1,0,0:0:0:0:
109,192,435233,1,0,0:0:0:0:
402,192,435308,1,0,0:0:0:0:
329,192,435308,1,0,0:0:0:0:
36,192,435383,1,0,0:0:0:0:
475,192,435383,1,0,0:0:0:0:
256,192,435458,1,0,0:0:0:0:
109,192,435458,1,0,0:0:0:0:
475,192,435533,1,0,0:0:0:0:
36,192,435533,1,0,0:0:0:0:
182,192,435533,1,0,0:0:0:0:
329,192,435533,1,0,0:0:0:0:
402,192,435608,1,0,0:0:0:0:
256,192,435608,1,0,0:0:0:0:
109,192,435683,1,0,0:0:0:0:
36,192,435683,1,0,0:0:0:0:
256,192,435758,1,0,0:0:0:0:
182,192,435758,1,0,0:0:0:0:
475,192,435833,1,0,0:0:0:0:
36,192,435833,1,0,0:0:0:0:
329,192,435833,1,0,0:0:0:0:
402,192,435833,1,0,0:0:0:0:
182,192,435908,1,0,0:0:0:0:
109,192,435908,1,0,0:0:0:0:
329,192,435983,1,0,0:0:0:0:
256,192,435983,1,0,0:0:0:0:
475,192,436058,1,0,0:0:0:0:
402,192,436058,1,0,0:0:0:0:
256,192,436133,1,0,0:0:0:0:
182,192,436133,1,0,0:0:0:0:
36,192,436133,1,0,0:0:0:0:
109,192,436133,1,0,0:0:0:0:
475,192,436208,1,0,0:0:0:0:
329,192,436208,1,0,0:0:0:0:
182,192,436283,1,0,0:0:0:0:
109,192,436283,1,0,0:0:0:0:
402,192,436358,1,0,0:0:0:0:
256,192,436358,1,0,0:0:0:0:
475,192,436433,1,0,0:0:0:0:
109,192,436433,1,0,0:0:0:0:
36,192,436433,1,0,0:0:0:0:
329,192,436508,1,0,0:0:0:0:
182,192,436508,1,0,0:0:0:0:
402,192,436583,1,0,0:0:0:0:
256,192,436583,1,0,0:0:0:0:
475,192,436658,1,0,0:0:0:0:
329,192,436658,1,0,0:0:0:0:
109,192,436733,1,0,0:0:0:0:
402,192,436733,1,0,0:0:0:0:
36,192,436733,1,0,0:0:0:0:
182,192,436733,1,0,0:0:0:0:
329,192,436808,1,0,0:0:0:0:
256,192,436808,1,0,0:0:0:0:
36,192,436883,1,0,0:0:0:0:
475,192,436883,1,0,0:0:0:0:
402,192,436883,1,0,0:0:0:0:
182,192,436958,1,0,0:0:0:0:
109,192,436958,1,0,0:0:0:0:
329,192,437033,1,0,0:0:0:0:
256,192,437033,1,0,0:0:0:0:
475,192,437033,1,0,0:0:0:0:
402,192,437033,1,0,0:0:0:0:
109,192,437108,1,0,0:0:0:0:
36,192,437108,1,0,0:0:0:0:
256,192,437183,1,0,0:0:0:0:
182,192,437183,1,0,0:0:0:0:
402,192,437258,1,0,0:0:0:0:
475,192,437258,1,0,0:0:0:0:
109,192,437333,1,0,0:0:0:0:
36,192,437333,1,0,0:0:0:0:
329,192,437333,1,0,0:0:0:0:
256,192,437333,1,0,0:0:0:0:
402,192,437408,1,0,0:0:0:0:
182,192,437408,1,0,0:0:0:0:
475,192,437483,1,0,0:0:0:0:
256,192,437483,1,0,0:0:0:0:
329,192,437558,1,0,0:0:0:0:
109,192,437558,1,0,0:0:0:0:
402,192,437633,1,0,0:0:0:0:
475,192,437633,1,0,0:0:0:0:
36,192,437633,1,0,0:0:0:0:
182,192,437633,1,0,0:0:0:0:
256,192,437708,1,0,0:0:0:0:
109,192,437708,1,0,0:0:0:0:
329,192,437783,1,0,0:0:0:0:
182,192,437783,1,0,0:0:0:0:
109,192,437858,1,0,0:0:0:0:
402,192,437858,1,0,0:0:0:0:
256,192,437933,1,0,0:0:0:0:
329,192,437933,1,0,0:0:0:0:
475,192,437933,1,0,0:0:0:0:
36,192,437933,1,0,0:0:0:0:
109,192,438008,1,0,0:0:0:0:
182,192,438008,1,0,0:0:0:0:
329,192,438083,1,0,0:0:0:0:
402,192,438083,1,0,0:0:0:0:
182,192,438158,1,0,0:0:0:0:
256,192,438158,1,0,0:0:0:0:
402,192,438233,1,0,0:0:0:0:
475,192,438233,1,0,0:0:0:0:
109,192,438233,1,0,0:0:0:0:
36,192,438233,1,0,0:0:0:0:
256,192,438308,1,0,0:0:0:0:
329,192,438308,1,0,0:0:0:0:
109,192,438383,1,0,0:0:0:0:
182,192,438383,1,0,0:0:0:0:
402,192,438458,1,0,0:0:0:0:
475,192,438458,1,0,0:0:0:0:
109,192,438533,1,0,0:0:0:0:
36,192,438533,1,0,0:0:0:0:
329,192,438533,1,0,0:0:0:0:
256,192,438533,1,0,0:0:0:0:
402,192,438608,1,0,0:0:0:0:
182,192,438608,1,0,0:0:0:0:
475,192,438683,1,0,0:0:0:0:
256,192,438683,1,0,0:0:0:0:
329,192,438758,1,0,0:0:0:0:
36,192,438758,1,0,0:0:0:0:
475,192,438833,1,0,0:0:0:0:
182,192,438833,1,0,0:0:0:0:
109,192,438833,1,0,0:0:0:0:
402,192,438833,1,0,0:0:0:0:
329,192,438908,1,0,0:0:0:0:
256,192,438908,1,0,0:0:0:0:
109,192,438983,1,0,0:0:0:0:
36,192,438983,1,0,0:0:0:0:
256,192,439058,1,0,0:0:0:0:
182,192,439058,1,0,0:0:0:0:
329,192,439133,1,0,0:0:0:0:
36,192,439133,1,0,0:0:0:0:
475,192,439133,1,0,0:0:0:0:
402,192,439133,1,0,0:0:0:0:
182,192,439208,1,0,0:0:0:0:
109,192,439208,1,0,0:0:0:0:
329,192,439283,1,0,0:0:0:0:
256,192,439283,1,0,0:0:0:0:
402,192,439358,1,0,0:0:0:0:
475,192,439358,1,0,0:0:0:0:
329,192,439433,1,0,0:0:0:0:
109,192,439433,1,0,0:0:0:0:
36,192,439433,1,0,0:0:0:0:
182,192,439433,1,0,0:0:0:0:
402,192,439508,1,0,0:0:0:0:
256,192,439508,1,0,0:0:0:0:
475,192,439583,1,0,0:0:0:0:
329,192,439583,1,0,0:0:0:0:
402,192,439658,1,0,0:0:0:0:
256,192,439658,1,0,0:0:0:0:
109,192,439733,1,0,0:0:0:0:
36,192,439733,1,0,0:0:0:0:
329,192,439733,1,0,0:0:0:0:
182,192,439733,1,0,0:0:0:0:
256,192,439808,1,0,0:0:0:0:
402,192,439808,1,0,0:0:0:0:
182,192,439883,1,0,0:0:0:0:
475,192,439883,1,0,0:0:0:0:
109,192,439958,1,0,0:0:0:0:
329,192,439958,1,0,0:0:0:0:
402,192,440033,1,0,0:0:0:0:
475,192,440033,1,0,0:0:0:0:
256,192,440033,1,0,0:0:0:0:
36,192,440033,1,0,0:0:0:0:
329,192,440108,1,0,0:0:0:0:
182,192,440108,1,0,0:0:0:0:
402,192,440183,1,0,0:0:0:0:
109,192,440183,1,0,0:0:0:0:
475,192,440258,1,0,0:0:0:0:
256,192,440258,1,0,0:0:0:0:
109,192,440333,1,0,0:0:0:0:
182,192,440333,1,0,0:0:0:0:
329,192,440333,1,0,0:0:0:0:
36,192,440333,1,0,0:0:0:0:
256,192,440408,1,0,0:0:0:0:
402,192,440408,1,0,0:0:0:0:
109,192,440483,1,0,0:0:0:0:
475,192,440483,1,0,0:0:0:0:
182,192,440558,1,0,0:0:0:0:
402,192,440558,1,0,0:0:0:0:
36,192,440633,1,0,0:0:0:0:
475,192,440633,1,0,0:0:0:0:
329,192,440633,1,0,0:0:0:0:
256,192,440633,1,0,0:0:0:0:
402,192,440708,1,0,0:0:0:0:
109,192,440708,1,0,0:0:0:0:
329,192,440783,1,0,0:0:0:0:
182,192,440783,1,0,0:0:0:0:
475,192,440858,1,0,0:0:0:0:
256,192,440858,1,0,0:0:0:0:
109,192,440933,1,0,0:0:0:0:
36,192,440933,1,0,0:0:0:0:
329,192,440933,1,0,0:0:0:0:
402,192,440933,1,0,0:0:0:0:
475,192,441008,1,0,0:0:0:0:
182,192,441008,1,0,0:0:0:0:
36,192,441083,1,0,0:0:0:0:
256,192,441083,1,0,0:0:0:0:
109,192,441158,1,0,0:0:0:0:
329,192,441158,1,0,0:0:0:0:
36,192,441233,1,0,0:0:0:0:
475,192,441233,1,0,0:0:0:0:
402,192,441233,1,0,0:0:0:0:
182,192,441233,1,0,0:0:0:0:
109,192,441308,1,0,0:0:0:0:
256,192,441308,1,0,0:0:0:0:
182,192,441383,1,0,0:0:0:0:
329,192,441383,1,0,0:0:0:0:
109,192,441458,1,0,0:0:0:0:
402,192,441458,1,0,0:0:0:0:
329,192,441533,1,0,0:0:0:0:
182,192,441533,1,0,0:0:0:0:
256,192,441533,1,0,0:0:0:0:
475,192,441533,1,0,0:0:0:0:
36,192,441533,1,0,0:0:0:0:
109,192,441608,1,0,0:0:0:0:
402,192,441608,1,0,0:0:0:0:
36,192,441683,1,0,0:0:0:0:
329,192,441683,1,0,0:0:0:0:
475,192,441758,1,0,0:0:0:0:
182,192,441758,1,0,0:0:0:0:
109,192,441833,1,0,0:0:0:0:
36,192,441833,1,0,0:0:0:0:
256,192,441833,1,0,0:0:0:0:
402,192,441833,1,0,0:0:0:0:
182,192,441908,1,0,0:0:0:0:
329,192,441908,1,0,0:0:0:0:
256,192,441983,1,0,0:0:0:0:
475,192,441983,1,0,0:0:0:0:
109,192,442058,1,0,0:0:0:0:
402,192,442058,1,0,0:0:0:0:
36,192,442133,1,0,0:0:0:0:
475,192,442133,1,0,0:0:0:0:
329,192,442133,1,0,0:0:0:0:
182,192,442133,1,0,0:0:0:0:
402,192,442208,1,0,0:0:0:0:
109,192,442208,1,0,0:0:0:0:
329,192,442283,1,0,0:0:0:0:
182,192,442283,1,0,0:0:0:0:
402,192,442358,1,0,0:0:0:0:
256,192,442358,1,0,0:0:0:0:
475,192,442433,1,0,0:0:0:0:
109,192,442433,1,0,0:0:0:0:
329,192,442433,1,0,0:0:0:0:
36,192,442433,1,0,0:0:0:0:
256,192,442508,1,0,0:0:0:0:
182,192,442508,1,0,0:0:0:0:
329,192,442583,1,0,0:0:0:0:
109,192,442583,1,0,0:0:0:0:
402,192,442658,1,0,0:0:0:0:
36,192,442658,1,0,0:0:0:0:
109,192,442733,1,0,0:0:0:0:
329,192,442733,1,0,0:0:0:0:
256,192,442733,1,0,0:0:0:0:
475,192,442733,1,0,0:0:0:0:
402,192,442808,1,0,0:0:0:0:
182,192,442808,1,0,0:0:0:0:
475,192,442883,1,0,0:0:0:0:
109,192,442883,1,0,0:0:0:0:
256,192,442958,1,0,0:0:0:0:
36,192,442958,1,0,0:0:0:0:
475,192,443033,1,0,0:0:0:0:
182,192,443033,1,0,0:0:0:0:
329,192,443033,1,0,0:0:0:0:
402,192,443033,1,0,0:0:0:0:
256,192,443108,1,0,0:0:0:0:
109,192,443108,1,0,0:0:0:0:
329,192,443183,1,0,0:0:0:0:
182,192,443183,1,0,0:0:0:0:
402,192,443258,1,0,0:0:0:0:
109,192,443258,1,0,0:0:0:0:
329,192,443333,1,0,0:0:0:0:
182,192,443333,1,0,0:0:0:0:
36,192,443333,1,0,0:0:0:0:
475,192,443333,1,0,0:0:0:0:
402,192,443408,1,0,0:0:0:0:
109,192,443408,1,0,0:0:0:0:
329,192,443483,1,0,0:0:0:0:
256,192,443483,1,0,0:0:0:0:
475,192,443558,1,0,0:0:0:0:
182,192,443558,1,0,0:0:0:0:
109,192,443633,1,0,0:0:0:0:
36,192,443633,1,0,0:0:0:0:
329,192,443633,1,0,0:0:0:0:
402,192,443633,1,0,0:0:0:0:
182,192,443708,1,0,0:0:0:0:
256,192,443708,1,0,0:0:0:0:
109,192,443783,1,0,0:0:0:0:
475,192,443783,1,0,0:0:0:0:
402,192,443783,1,0,0:0:0:0:
36,192,443858,1,0,0:0:0:0:
329,192,443858,1,0,0:0:0:0:
182,192,443933,1,0,0:0:0:0:
109,192,443933,1,0,0:0:0:0:
475,192,443933,1,0,0:0:0:0:
256,192,443933,1,0,0:0:0:0:
36,192,444008,1,0,0:0:0:0:
402,192,444008,1,0,0:0:0:0:
182,192,444083,1,0,0:0:0:0:
329,192,444083,1,0,0:0:0:0:
36,192,444158,1,0,0:0:0:0:
256,192,444158,1,0,0:0:0:0:
475,192,444233,1,0,0:0:0:0:
402,192,444233,1,0,0:0:0:0:
109,192,444233,1,0,0:0:0:0:
329,192,444233,1,0,0:0:0:0:
256,192,444308,1,0,0:0:0:0:
182,192,444308,1,0,0:0:0:0:
109,192,444383,1,0,0:0:0:0:
475,192,444383,1,0,0:0:0:0:
36,192,444458,1,0,0:0:0:0:
402,192,444458,1,0,0:0:0:0:
475,192,444533,1,0,0:0:0:0:
256,192,444533,1,0,0:0:0:0:
329,192,444533,1,0,0:0:0:0:
109,192,444533,1,0,0:0:0:0:
182,192,444608,1,0,0:0:0:0:
256,192,444683,1,0,0:0:0:0:
402,192,444683,1,0,0:0:0:0:
182,192,444758,1,0,0:0:0:0:
329,192,444758,1,0,0:0:0:0:
256,192,444833,1,0,0:0:0:0:
475,192,444833,1,0,0:0:0:0:
109,192,444833,1,0,0:0:0:0:
402,192,444833,1,0,0:0:0:0:
36,192,444833,1,0,0:0:0:0:
182,192,444908,1,0,0:0:0:0:
329,192,444908,1,0,0:0:0:0:
402,192,444983,1,0,0:0:0:0:
256,192,444983,1,0,0:0:0:0:
329,192,445058,1,0,0:0:0:0:
109,192,445058,1,0,0:0:0:0:
475,192,445133,1,0,0:0:0:0:
402,192,445133,1,0,0:0:0:0:
36,192,445133,1,0,0:0:0:0:
182,192,445133,1,0,0:0:0:0:
256,192,445133,1,0,0:0:0:0:
109,192,445208,1,0,0:0:0:0:
329,192,445208,1,0,0:0:0:0:
182,192,445283,1,0,0:0:0:0:
402,192,445283,1,0,0:0:0:0:
36,192,445358,1,0,0:0:0:0:
256,192,445358,1,0,0:0:0:0:
182,192,445433,1,0,0:0:0:0:
475,192,445433,1,0,0:0:0:0:
329,192,445433,1,0,0:0:0:0:
109,192,445433,1,0,0:0:0:0:
256,192,445508,1,0,0:0:0:0:
402,192,445508,1,0,0:0:0:0:
36,192,445583,1,0,0:0:0:0:
329,192,445583,1,0,0:0:0:0:
475,192,445583,1,0,0:0:0:0:
182,192,445658,1,0,0:0:0:0:
402,192,445658,1,0,0:0:0:0:
256,192,445733,1,0,0:0:0:0:
475,192,445733,1,0,0:0:0:0:
329,192,445733,1,0,0:0:0:0:
36,192,445733,1,0,0:0:0:0:
402,192,445808,1,0,0:0:0:0:
109,192,445808,1,0,0:0:0:0:
475,192,445883,1,0,0:0:0:0:
182,192,445883,1,0,0:0:0:0:
109,192,445958,1,0,0:0:0:0:
256,192,445958,1,0,0:0:0:0:
402,192,446033,1,0,0:0:0:0:
475,192,446033,1,0,0:0:0:0:
329,192,446033,1,0,0:0:0:0:
182,192,446033,1,0,0:0:0:0:
256,192,446108,1,0,0:0:0:0:
36,192,446108,1,0,0:0:0:0:
329,192,446183,1,0,0:0:0:0:
109,192,446183,1,0,0:0:0:0:
402,192,446258,1,0,0:0:0:0:
182,192,446258,1,0,0:0:0:0:
36,192,446333,1,0,0:0:0:0:
109,192,446333,1,0,0:0:0:0:
256,192,446333,1,0,0:0:0:0:
475,192,446333,1,0,0:0:0:0:
182,192,446408,1,0,0:0:0:0:
402,192,446408,1,0,0:0:0:0:
109,192,446483,1,0,0:0:0:0:
329,192,446483,1,0,0:0:0:0:
36,192,446558,1,0,0:0:0:0:
256,192,446558,1,0,0:0:0:0:
402,192,446633,1,0,0:0:0:0:
109,192,446633,1,0,0:0:0:0:
182,192,446633,1,0,0:0:0:0:
329,192,446633,1,0,0:0:0:0:
36,192,446708,1,0,0:0:0:0:
475,192,446708,1,0,0:0:0:0:
109,192,446783,1,0,0:0:0:0:
402,192,446783,1,0,0:0:0:0:
182,192,446858,1,0,0:0:0:0:
329,192,446858,1,0,0:0:0:0:
475,192,446933,1,0,0:0:0:0:
36,192,446933,1,0,0:0:0:0:
256,192,446933,1,0,0:0:0:0:
402,192,447008,1,0,0:0:0:0:
109,192,447008,1,0,0:0:0:0:
329,192,447083,1,0,0:0:0:0:
182,192,447083,1,0,0:0:0:0:
256,192,447158,1,0,0:0:0:0:
182,192,447233,1,0,0:0:0:0:
329,192,447233,1,0,0:0:0:0:
36,192,447233,1,0,0:0:0:0:
475,192,447233,1,0,0:0:0:0:
402,192,447308,1,0,0:0:0:0:
109,192,447308,1,0,0:0:0:0:
329,192,447383,1,0,0:0:0:0:
182,192,447383,1,0,0:0:0:0:
256,192,447458,1,0,0:0:0:0:
182,192,447533,1,0,0:0:0:0:
329,192,447533,1,0,0:0:0:0:
36,192,447533,1,0,0:0:0:0:
475,192,447533,1,0,0:0:0:0:
402,192,447608,1,0,0:0:0:0:
109,192,447608,1,0,0:0:0:0:
329,192,447683,1,0,0:0:0:0:
182,192,447683,1,0,0:0:0:0:
256,192,447758,1,0,0:0:0:0:
402,192,447833,1,0,0:0:0:0:
109,192,447833,1,0,0:0:0:0:
36,192,447833,1,0,0:0:0:0:
475,192,447833,1,0,0:0:0:0:
182,192,447870,1,0,0:0:0:0:
256,192,447908,1,0,0:0:0:0:
329,192,447945,1,0,0:0:0:0:
402,192,447983,1,0,0:0:0:0:
109,192,448020,1,0,0:0:0:0:
182,192,448058,1,0,0:0:0:0:
256,192,448095,1,0,0:0:0:0:
475,192,448133,1,0,0:0:0:0:
329,192,448133,1,0,0:0:0:0:
36,192,448170,1,0,0:0:0:0:
109,192,448208,1,0,0:0:0:0:
182,192,448245,1,0,0:0:0:0:
256,192,448283,1,0,0:0:0:0:
475,192,448320,1,0,0:0:0:0:
402,192,448358,1,0,0:0:0:0:
329,192,448395,1,0,0:0:0:0:
36,192,448433,1,0,0:0:0:0:
256,192,448433,1,0,0:0:0:0:
109,192,448470,1,0,0:0:0:0:
182,192,448508,1,0,0:0:0:0:
329,192,448545,1,0,0:0:0:0:
256,192,448583,1,0,0:0:0:0:
475,192,448620,1,0,0:0:0:0:
402,192,448658,1,0,0:0:0:0:
329,192,448695,1,0,0:0:0:0:
182,192,448733,1,0,0:0:0:0:
36,192,448733,1,0,0:0:0:0:
256,192,448733,1,0,0:0:0:0:
109,192,448733,1,0,0:0:0:0:
402,192,449033,1,0,0:0:0:0:
109,192,449033,1,0,0:0:0:0:
256,192,449033,1,0,0:0:0:0:
475,192,449033,1,0,0:0:0:0:
36,192,449033,1,0,0:0:0:0:
182,192,449033,1,0,0:0:0:0:
329,192,449033,1,0,0:0:0:0:
329,192,449483,1,0,0:0:0:0:
109,192,449933,1,0,0:0:0:0:
402,192,450383,1,0,0:0:0:0:
182,192,450833,1,0,0:0:0:0:
256,192,451133,1,0,0:0:0:0:
329,192,451433,1,0,0:0:0:0:
182,192,451583,1,0,0:0:0:0:
36,192,451733,1,0,0:0:0:0:
402,192,451883,1,0,0:0:0:0:
182,192,452033,1,0,0:0:0:0:
256,192,452033,1,0,0:0:0:0:
182,192,452183,1,0,0:0:0:0:
109,192,452183,1,0,0:0:0:0:
329,192,452258,1,0,0:0:0:0:
402,192,452333,1,0,0:0:0:0:
475,192,452333,1,0,0:0:0:0:
256,192,452333,1,0,0:0:0:0:
36,192,452333,1,0,0:0:0:0:
109,192,452333,1,0,0:0:0:0:
182,192,452483,1,0,0:0:0:0:
256,192,452558,1,0,0:0:0:0:
36,192,452633,1,0,0:0:0:0:
109,192,452633,1,0,0:0:0:0:
329,192,452633,1,0,0:0:0:0:
475,192,452633,1,0,0:0:0:0:
256,192,452783,1,0,0:0:0:0:
329,192,452858,1,0,0:0:0:0:
182,192,452933,1,0,0:0:0:0:
36,192,452933,1,0,0:0:0:0:
402,192,452933,1,0,0:0:0:0:
475,192,452933,1,0,0:0:0:0:
329,192,453083,1,0,0:0:0:0:
402,192,453158,1,0,0:0:0:0:
36,192,453233,1,0,0:0:0:0:
256,192,453233,1,0,0:0:0:0:
475,192,453233,1,0,0:0:0:0:
109,192,453233,1,0,0:0:0:0:
402,192,453383,1,0,0:0:0:0:
475,192,453458,1,0,0:0:0:0:
182,192,453533,1,0,0:0:0:0:
329,192,453533,1,0,0:0:0:0:
36,192,453533,1,0,0:0:0:0:
109,192,453533,1,0,0:0:0:0:
475,192,453683,1,0,0:0:0:0:
36,192,453758,1,0,0:0:0:0:
256,192,453833,1,0,0:0:0:0:
402,192,453833,1,0,0:0:0:0:
109,192,453833,1,0,0:0:0:0:
182,192,453833,1,0,0:0:0:0:
36,192,453983,1,0,0:0:0:0:
109,192,454058,1,0,0:0:0:0:
329,192,454133,1,0,0:0:0:0:
475,192,454133,1,0,0:0:0:0:
182,192,454133,1,0,0:0:0:0:
256,192,454133,1,0,0:0:0:0:
329,192,454283,1,0,0:0:0:0:
402,192,454283,1,0,0:0:0:0:
109,192,454283,1,0,0:0:0:0:
182,192,454283,1,0,0:0:0:0:
256,192,454433,1,0,0:0:0:0:
329,192,454433,1,0,0:0:0:0:
36,192,454433,1,0,0:0:0:0:
109,192,454433,1,0,0:0:0:0:
256,192,454583,1,0,0:0:0:0:
182,192,454583,1,0,0:0:0:0:
475,192,454583,1,0,0:0:0:0:
402,192,454583,1,0,0:0:0:0:
329,192,454733,1,0,0:0:0:0:
402,192,454733,1,0,0:0:0:0:
109,192,454733,1,0,0:0:0:0:
182,192,454733,1,0,0:0:0:0:
329,192,454883,1,0,0:0:0:0:
256,192,454883,1,0,0:0:0:0:
36,192,454883,1,0,0:0:0:0:
109,192,454883,1,0,0:0:0:0:
402,192,455033,1,0,0:0:0:0:
475,192,455033,1,0,0:0:0:0:
182,192,455033,1,0,0:0:0:0:
36,192,455033,1,0,0:0:0:0:
256,192,455033,1,0,0:0:0:0:
109,192,455183,1,0,0:0:0:0:
182,192,455258,1,0,0:0:0:0:
475,192,455333,1,0,0:0:0:0:
36,192,455333,1,0,0:0:0:0:
256,192,455333,1,0,0:0:0:0:
329,192,455333,1,0,0:0:0:0:
402,192,455483,1,0,0:0:0:0:
36,192,455483,1,0,0:0:0:0:
109,192,455483,1,0,0:0:0:0:
329,192,455483,1,0,0:0:0:0:
256,192,455558,1,0,0:0:0:0:
402,192,455633,1,0,0:0:0:0:
475,192,455633,1,0,0:0:0:0:
109,192,455633,1,0,0:0:0:0:
182,192,455633,1,0,0:0:0:0:
329,192,455708,1,0,0:0:0:0:
475,192,455783,1,0,0:0:0:0:
36,192,455783,1,0,0:0:0:0:
256,192,455783,1,0,0:0:0:0:
182,192,455783,1,0,0:0:0:0:
402,192,455858,1,0,0:0:0:0:
109,192,455933,1,0,0:0:0:0:
36,192,455933,1,0,0:0:0:0:
256,192,455933,1,0,0:0:0:0:
329,192,455933,1,0,0:0:0:0:
182,192,455933,1,0,0:0:0:0:
402,192,456233,1,0,0:0:0:0:
475,192,456233,1,0,0:0:0:0:
256,192,456233,1,0,0:0:0:0:
329,192,456233,1,0,0:0:0:0:
36,192,456233,1,0,0:0:0:0:
109,192,456233,1,0,0:0:0:0:
182,192,456233,1,0,0:0:0:0:
329,192,456383,1,0,0:0:0:0:
256,192,456458,1,0,0:0:0:0:
36,192,456533,1,0,0:0:0:0:
182,192,456533,1,0,0:0:0:0:
109,192,456608,1,0,0:0:0:0:
36,192,456683,1,0,0:0:0:0:
182,192,456683,1,0,0:0:0:0:
402,192,456758,1,0,0:0:0:0:
256,192,456758,1,0,0:0:0:0:
109,192,456833,1,0,0:0:0:0:
36,192,456833,1,0,0:0:0:0:
329,192,456833,1,0,0:0:0:0:
475,192,456833,1,0,0:0:0:0:
182,192,456908,1,0,0:0:0:0:
36,192,456983,1,0,0:0:0:0:
402,192,456983,1,0,0:0:0:0:
256,192,456983,1,0,0:0:0:0:
109,192,457058,1,0,0:0:0:0:
475,192,457058,1,0,0:0:0:0:
329,192,457058,1,0,0:0:0:0:
36,192,457133,1,0,0:0:0:0:
256,192,457133,1,0,0:0:0:0:
182,192,457133,1,0,0:0:0:0:
402,192,457133,1,0,0:0:0:0:
109,192,457208,1,0,0:0:0:0:
329,192,457283,1,0,0:0:0:0:
182,192,457283,1,0,0:0:0:0:
402,192,457358,1,0,0:0:0:0:
256,192,457358,1,0,0:0:0:0:
109,192,457433,1,0,0:0:0:0:
36,192,457433,1,0,0:0:0:0:
329,192,457433,1,0,0:0:0:0:
475,192,457433,1,0,0:0:0:0:
182,192,457508,1,0,0:0:0:0:
402,192,457583,1,0,0:0:0:0:
256,192,457583,1,0,0:0:0:0:
329,192,457658,1,0,0:0:0:0:
182,192,457658,1,0,0:0:0:0:
475,192,457733,1,0,0:0:0:0:
36,192,457733,1,0,0:0:0:0:
109,192,457733,1,0,0:0:0:0:
256,192,457733,1,0,0:0:0:0:
402,192,457808,1,0,0:0:0:0:
109,192,457883,1,0,0:0:0:0:
329,192,457883,1,0,0:0:0:0:
182,192,457958,1,0,0:0:0:0:
475,192,458033,1,0,0:0:0:0:
36,192,458033,1,0,0:0:0:0:
256,192,458033,1,0,0:0:0:0:
402,192,458033,1,0,0:0:0:0:
109,192,458108,1,0,0:0:0:0:
329,192,458183,1,0,0:0:0:0:
182,192,458183,1,0,0:0:0:0:
402,192,458258,1,0,0:0:0:0:
256,192,458258,1,0,0:0:0:0:
36,192,458333,1,0,0:0:0:0:
109,192,458333,1,0,0:0:0:0:
329,192,458333,1,0,0:0:0:0:
475,192,458333,1,0,0:0:0:0:
256,192,458408,1,0,0:0:0:0:
182,192,458408,1,0,0:0:0:0:
402,192,458483,1,0,0:0:0:0:
329,192,458483,1,0,0:0:0:0:
109,192,458558,1,0,0:0:0:0:
182,192,458558,1,0,0:0:0:0:
256,192,458633,1,0,0:0:0:0:
329,192,458633,1,0,0:0:0:0:
475,192,458633,1,0,0:0:0:0:
402,192,458633,1,0,0:0:0:0:
36,192,458708,1,0,0:0:0:0:
182,192,458708,1,0,0:0:0:0:
329,192,458783,1,0,0:0:0:0:
109,192,458858,1,0,0:0:0:0:
402,192,458933,1,0,0:0:0:0:
475,192,458933,1,0,0:0:0:0:
182,192,458933,1,0,0:0:0:0:
329,192,458933,1,0,0:0:0:0:
256,192,459008,1,0,0:0:0:0:
109,192,459083,1,0,0:0:0:0:
402,192,459083,1,0,0:0:0:0:
329,192,459158,1,0,0:0:0:0:
475,192,459233,1,0,0:0:0:0:
36,192,459233,1,0,0:0:0:0:
256,192,459233,1,0,0:0:0:0:
182,192,459233,1,0,0:0:0:0:
402,192,459308,1,0,0:0:0:0:
109,192,459308,1,0,0:0:0:0:
256,192,459383,1,0,0:0:0:0:
329,192,459383,1,0,0:0:0:0:
36,192,459383,1,0,0:0:0:0:
182,192,459458,1,0,0:0:0:0:
475,192,459458,1,0,0:0:0:0:
402,192,459533,1,0,0:0:0:0:
109,192,459533,1,0,0:0:0:0:
36,192,459533,1,0,0:0:0:0:
329,192,459533,1,0,0:0:0:0:
256,192,459608,1,0,0:0:0:0:
475,192,459683,1,0,0:0:0:0:
182,192,459683,1,0,0:0:0:0:
109,192,459758,1,0,0:0:0:0:
402,192,459758,1,0,0:0:0:0:
256,192,459833,1,0,0:0:0:0:
182,192,459833,1,0,0:0:0:0:
36,192,459833,1,0,0:0:0:0:
329,192,459833,1,0,0:0:0:0:
402,192,459908,1,0,0:0:0:0:
182,192,459983,1,0,0:0:0:0:
109,192,459983,1,0,0:0:0:0:
475,192,459983,1,0,0:0:0:0:
256,192,460058,1,0,0:0:0:0:
36,192,460133,1,0,0:0:0:0:
109,192,460133,1,0,0:0:0:0:
475,192,460133,1,0,0:0:0:0:
329,192,460133,1,0,0:0:0:0:
402,192,460133,1,0,0:0:0:0:
182,192,460208,1,0,0:0:0:0:
402,192,460283,1,0,0:0:0:0:
256,192,460283,1,0,0:0:0:0:
329,192,460358,1,0,0:0:0:0:
182,192,460433,1,0,0:0:0:0:
109,192,460433,1,0,0:0:0:0:
402,192,460433,1,0,0:0:0:0:
36,192,460433,1,0,0:0:0:0:
256,192,460508,1,0,0:0:0:0:
475,192,460583,1,0,0:0:0:0:
329,192,460583,1,0,0:0:0:0:
256,192,460658,1,0,0:0:0:0:
402,192,460658,1,0,0:0:0:0:
109,192,460733,1,0,0:0:0:0:
36,192,460733,1,0,0:0:0:0:
182,192,460733,1,0,0:0:0:0:
329,192,460733,1,0,0:0:0:0:
402,192,460808,1,0,0:0:0:0:
475,192,460883,1,0,0:0:0:0:
182,192,460883,1,0,0:0:0:0:
329,192,460958,1,0,0:0:0:0:
109,192,460958,1,0,0:0:0:0:
402,192,461033,1,0,0:0:0:0:
475,192,461033,1,0,0:0:0:0:
256,192,461033,1,0,0:0:0:0:
36,192,461033,1,0,0:0:0:0:
182,192,461108,1,0,0:0:0:0:
329,192,461183,1,0,0:0:0:0:
109,192,461183,1,0,0:0:0:0:
402,192,461258,1,0,0:0:0:0:
182,192,461258,1,0,0:0:0:0:
36,192,461333,1,0,0:0:0:0:
109,192,461333,1,0,0:0:0:0:
256,192,461333,1,0,0:0:0:0:
475,192,461333,1,0,0:0:0:0:
329,192,461408,1,0,0:0:0:0:
36,192,461483,1,0,0:0:0:0:
182,192,461483,1,0,0:0:0:0:
109,192,461558,1,0,0:0:0:0:
256,192,461558,1,0,0:0:0:0:
402,192,461633,1,0,0:0:0:0:
475,192,461633,1,0,0:0:0:0:
182,192,461633,1,0,0:0:0:0:
329,192,461633,1,0,0:0:0:0:
109,192,461708,1,0,0:0:0:0:
256,192,461783,1,0,0:0:0:0:
36,192,461783,1,0,0:0:0:0:
109,192,461858,1,0,0:0:0:0:
329,192,461858,1,0,0:0:0:0:
475,192,461933,1,0,0:0:0:0:
36,192,461933,1,0,0:0:0:0:
182,192,461933,1,0,0:0:0:0:
402,192,461933,1,0,0:0:0:0:
256,192,462008,1,0,0:0:0:0:
109,192,462083,1,0,0:0:0:0:
329,192,462083,1,0,0:0:0:0:
402,192,462158,1,0,0:0:0:0:
182,192,462158,1,0,0:0:0:0:
36,192,462233,1,0,0:0:0:0:
109,192,462233,1,0,0:0:0:0:
256,192,462233,1,0,0:0:0:0:
475,192,462233,1,0,0:0:0:0:
402,192,462308,1,0,0:0:0:0:
182,192,462383,1,0,0:0:0:0:
329,192,462383,1,0,0:0:0:0:
402,192,462458,1,0,0:0:0:0:
36,192,462458,1,0,0:0:0:0:
475,192,462533,1,0,0:0:0:0:
182,192,462533,1,0,0:0:0:0:
109,192,462533,1,0,0:0:0:0:
256,192,462533,1,0,0:0:0:0:
329,192,462608,1,0,0:0:0:0:
402,192,462683,1,0,0:0:0:0:
182,192,462683,1,0,0:0:0:0:
36,192,462683,1,0,0:0:0:0:
109,192,462683,1,0,0:0:0:0:
256,192,462758,1,0,0:0:0:0:
329,192,462833,1,0,0:0:0:0:
36,192,462833,1,0,0:0:0:0:
475,192,462833,1,0,0:0:0:0:
109,192,462908,1,0,0:0:0:0:
182,192,462983,1,0,0:0:0:0:
475,192,462983,1,0,0:0:0:0:
402,192,462983,1,0,0:0:0:0:
256,192,463058,1,0,0:0:0:0:
109,192,463133,1,0,0:0:0:0:
36,192,463133,1,0,0:0:0:0:
182,192,463133,1,0,0:0:0:0:
329,192,463133,1,0,0:0:0:0:
402,192,463133,1,0,0:0:0:0:
475,192,463208,1,0,0:0:0:0:
256,192,463283,1,0,0:0:0:0:
109,192,463283,1,0,0:0:0:0:
329,192,463358,1,0,0:0:0:0:
36,192,463433,1,0,0:0:0:0:
475,192,463433,1,0,0:0:0:0:
402,192,463433,1,0,0:0:0:0:
182,192,463433,1,0,0:0:0:0:
256,192,463508,1,0,0:0:0:0:
109,192,463583,1,0,0:0:0:0:
329,192,463583,1,0,0:0:0:0:
475,192,463658,1,0,0:0:0:0:
182,192,463658,1,0,0:0:0:0:
402,192,463733,1,0,0:0:0:0:
329,192,463733,1,0,0:0:0:0:
256,192,463733,1,0,0:0:0:0:
36,192,463733,1,0,0:0:0:0:
109,192,463808,1,0,0:0:0:0:
402,192,463883,1,0,0:0:0:0:
182,192,463883,1,0,0:0:0:0:
256,192,463958,1,0,0:0:0:0:
475,192,463958,1,0,0:0:0:0:
329,192,464033,1,0,0:0:0:0:
402,192,464033,1,0,0:0:0:0:
36,192,464033,1,0,0:0:0:0:
109,192,464033,1,0,0:0:0:0:
182,192,464108,1,0,0:0:0:0:
475,192,464108,1,0,0:0:0:0:
402,192,464183,1,0,0:0:0:0:
256,192,464183,1,0,0:0:0:0:
329,192,464258,1,0,0:0:0:0:
109,192,464258,1,0,0:0:0:0:
475,192,464333,1,0,0:0:0:0:
36,192,464333,1,0,0:0:0:0:
182,192,464333,1,0,0:0:0:0:
256,192,464333,1,0,0:0:0:0:
402,192,464408,1,0,0:0:0:0:
109,192,464483,1,0,0:0:0:0:
329,192,464483,1,0,0:0:0:0:
475,192,464558,1,0,0:0:0:0:
182,192,464558,1,0,0:0:0:0:
36,192,464633,1,0,0:0:0:0:
329,192,464633,1,0,0:0:0:0:
256,192,464633,1,0,0:0:0:0:
402,192,464633,1,0,0:0:0:0:
109,192,464708,1,0,0:0:0:0:
475,192,464783,1,0,0:0:0:0:
182,192,464783,1,0,0:0:0:0:
36,192,464858,1,0,0:0:0:0:
402,192,464858,1,0,0:0:0:0:
182,192,464933,1,0,0:0:0:0:
256,192,464933,1,0,0:0:0:0:
329,192,464933,1,0,0:0:0:0:
109,192,464933,1,0,0:0:0:0:
475,192,465008,1,0,0:0:0:0:
36,192,465083,1,0,0:0:0:0:
256,192,465083,1,0,0:0:0:0:
182,192,465158,1,0,0:0:0:0:
402,192,465158,1,0,0:0:0:0:
329,192,465233,1,0,0:0:0:0:
36,192,465233,1,0,0:0:0:0:
109,192,465233,1,0,0:0:0:0:
475,192,465233,1,0,0:0:0:0:
256,192,465308,1,0,0:0:0:0:
402,192,465383,1,0,0:0:0:0:
182,192,465383,1,0,0:0:0:0:
36,192,465458,1,0,0:0:0:0:
329,192,465458,1,0,0:0:0:0:
109,192,465533,1,0,0:0:0:0:
182,192,465533,1,0,0:0:0:0:
256,192,465533,1,0,0:0:0:0:
475,192,465533,1,0,0:0:0:0:
36,192,465608,1,0,0:0:0:0:
402,192,465608,1,0,0:0:0:0:
182,192,465683,1,0,0:0:0:0:
329,192,465683,1,0,0:0:0:0:
256,192,465758,1,0,0:0:0:0:
109,192,465758,1,0,0:0:0:0:
402,192,465833,1,0,0:0:0:0:
475,192,465833,1,0,0:0:0:0:
36,192,465833,1,0,0:0:0:0:
182,192,465833,1,0,0:0:0:0:
256,192,465908,1,0,0:0:0:0:
109,192,465983,1,0,0:0:0:0:
329,192,465983,1,0,0:0:0:0:
182,192,466058,1,0,0:0:0:0:
475,192,466133,1,0,0:0:0:0:
36,192,466133,1,0,0:0:0:0:
256,192,466133,1,0,0:0:0:0:
402,192,466133,1,0,0:0:0:0:
109,192,466208,1,0,0:0:0:0:
329,192,466283,1,0,0:0:0:0:
182,192,466283,1,0,0:0:0:0:
256,192,466358,1,0,0:0:0:0:
402,192,466358,1,0,0:0:0:0:
36,192,466433,1,0,0:0:0:0:
329,192,466433,1,0,0:0:0:0:
475,192,466433,1,0,0:0:0:0:
109,192,466433,1,0,0:0:0:0:
182,192,466508,1,0,0:0:0:0:
402,192,466583,1,0,0:0:0:0:
256,192,466583,1,0,0:0:0:0:
475,192,466658,1,0,0:0:0:0:
329,192,466658,1,0,0:0:0:0:
256,192,466733,1,0,0:0:0:0:
402,192,466733,1,0,0:0:0:0:
182,192,466733,1,0,0:0:0:0:
36,192,466733,1,0,0:0:0:0:
109,192,466733,1,0,0:0:0:0:
256,192,466958,1,0,0:0:0:0:
402,192,466958,1,0,0:0:0:0:
182,192,466958,1,0,0:0:0:0:
36,192,466958,1,0,0:0:0:0:
109,192,466958,1,0,0:0:0:0:
475,192,467033,1,0,0:0:0:0:
329,192,467033,1,0,0:0:0:0:
256,192,467033,1,0,0:0:0:0:
109,192,467033,1,0,0:0:0:0:
182,192,467033,1,0,0:0:0:0:
402,192,467183,1,0,0:0:0:0:
36,192,467183,1,0,0:0:0:0:
329,192,467183,1,0,0:0:0:0:
182,192,467183,1,0,0:0:0:0:
256,192,467183,1,0,0:0:0:0:
475,192,467483,1,0,0:0:0:0:
109,192,467483,1,0,0:0:0:0:
402,192,467483,1,0,0:0:0:0:
256,192,467483,1,0,0:0:0:0:
329,192,467483,1,0,0:0:0:0:
182,192,467558,1,0,0:0:0:0:
109,192,467633,1,0,0:0:0:0:
256,192,467633,1,0,0:0:0:0:
36,192,467633,1,0,0:0:0:0:
402,192,467633,1,0,0:0:0:0:
475,192,467633,1,0,0:0:0:0:
182,192,467783,1,0,0:0:0:0:
109,192,467783,1,0,0:0:0:0:
329,192,467783,1,0,0:0:0:0:
475,192,467783,1,0,0:0:0:0:
402,192,467783,1,0,0:0:0:0:
256,192,467858,1,0,0:0:0:0:
36,192,467933,1,0,0:0:0:0:
109,192,467933,1,0,0:0:0:0:
475,192,467933,1,0,0:0:0:0:
182,192,467933,1,0,0:0:0:0:
329,192,467933,1,0,0:0:0:0:
475,192,468233,1,0,0:0:0:0:
182,192,468233,1,0,0:0:0:0:
402,192,468233,1,0,0:0:0:0:
256,192,468233,1,0,0:0:0:0:
329,192,468233,1,0,0:0:0:0:
256,192,468533,1,0,0:0:0:0:
329,192,468533,1,0,0:0:0:0:
109,192,468533,1,0,0:0:0:0:
36,192,468533,1,0,0:0:0:0:
182,192,468533,1,0,0:0:0:0:
402,192,468683,1,0,0:0:0:0:
182,192,468683,1,0,0:0:0:0:
329,192,468683,1,0,0:0:0:0:
109,192,468683,1,0,0:0:0:0:
256,192,468683,1,0,0:0:0:0:
402,192,468833,1,0,0:0:0:0:
475,192,468833,1,0,0:0:0:0:
36,192,468833,1,0,0:0:0:0:
182,192,468833,1,0,0:0:0:0:
256,192,468833,1,0,0:0:0:0:
329,192,468833,1,0,0:0:0:0:
256,192,469133,1,0,0:0:0:0:
36,192,469133,1,0,0:0:0:0:
329,192,469133,1,0,0:0:0:0:
475,192,469133,1,0,0:0:0:0:
402,192,469133,1,0,0:0:0:0:
109,192,469208,1,0,0:0:0:0:
182,192,469283,1,0,0:0:0:0:
475,192,469358,1,0,0:0:0:0:
109,192,469433,1,0,0:0:0:0:
36,192,469433,1,0,0:0:0:0:
182,192,469433,1,0,0:0:0:0:
402,192,469433,1,0,0:0:0:0:
329,192,469433,1,0,0:0:0:0:
256,192,469433,1,0,0:0:0:0:
475,192,469733,1,0,0:0:0:0:
109,192,469733,1,0,0:0:0:0:
256,192,469733,1,0,0:0:0:0:
402,192,469733,1,0,0:0:0:0:
182,192,470033,1,0,0:0:0:0:
329,192,470033,1,0,0:0:0:0:
36,192,470033,1,0,0:0:0:0:
109,192,470033,1,0,0:0:0:0:
36,192,470333,1,0,0:0:0:0:
109,192,470333,1,0,0:0:0:0:
475,192,470333,1,0,0:0:0:0:
256,192,470333,1,0,0:0:0:0:
402,192,470333,1,0,0:0:0:0:
182,192,470633,1,0,0:0:0:0:
182,192,470933,1,0,0:0:0:0:
475,192,471233,1,0,0:0:0:0:
329,192,471233,1,0,0:0:0:0:
402,192,471533,1,0,0:0:0:0:
109,192,471533,1,0,0:0:0:0:
402,192,471833,1,0,0:0:0:0:
182,192,471833,1,0,0:0:0:0:
475,192,472133,1,0,0:0:0:0:
256,192,472133,1,0,0:0:0:0:
329,192,472433,1,0,0:0:0:0:
109,192,472433,1,0,0:0:0:0:
329,192,472733,1,0,0:0:0:0:
36,192,472733,1,0,0:0:0:0:
475,192,473033,1,0,0:0:0:0:
182,192,473033,1,0,0:0:0:0:
329,192,473333,1,0,0:0:0:0:
475,192,473633,1,0,0:0:0:0:
109,192,473633,1,0,0:0:0:0:
329,192,473933,1,0,0:0:0:0:
182,192,473933,1,0,0:0:0:0:
475,192,473933,1,0,0:0:0:0:
36,192,474233,1,0,0:0:0:0:
402,192,474383,1,0,0:0:0:0:
329,192,474533,1,0,0:0:0:0:
182,192,474533,1,0,0:0:0:0:
475,192,474683,1,0,0:0:0:0:
182,192,474795,1,0,0:0:0:0:
36,192,474833,1,0,0:0:0:0:
402,192,474833,1,0,0:0:0:0:
475,192,475133,1,0,0:0:0:0:
256,192,475133,1,0,0:0:0:0:
402,192,475433,1,0,0:0:0:0:
182,192,475433,1,0,0:0:0:0:
109,192,475695,1,0,0:0:0:0:
36,192,475733,128,0,476483:0:0:0:0:
475,192,475733,128,0,476483:0:0:0:0:
329,192,475733,128,0,476483:0:0:0:0:
402,192,476633,1,0,0:0:0:0:
475,192,476633,1,0,0:0:0:0:
329,192,476633,1,0,0:0:0:0:
36,192,476633,1,0,0:0:0:0:
182,192,476633,1,0,0:0:0:0:
256,192,476783,1,0,0:0:0:0:
109,192,476783,1,0,0:0:0:0:
329,192,476933,1,0,0:0:0:0:
182,192,476933,1,0,0:0:0:0:
402,192,477083,1,0,0:0:0:0:
256,192,477083,1,0,0:0:0:0:
475,192,477233,1,0,0:0:0:0:
329,192,477233,1,0,0:0:0:0:
36,192,477383,1,0,0:0:0:0:
402,192,477383,1,0,0:0:0:0:
182,192,477533,1,0,0:0:0:0:
475,192,477533,1,0,0:0:0:0:
329,192,477533,1,0,0:0:0:0:
109,192,477533,1,0,0:0:0:0:
256,192,477533,1,0,0:0:0:0:
329,192,478395,1,0,0:0:0:0:
182,192,478433,1,0,0:0:0:0:
402,192,478433,1,0,0:0:0:0:
329,192,478583,1,0,0:0:0:0:
109,192,478583,1,0,0:0:0:0:
475,192,478733,1,0,0:0:0:0:
256,192,478733,1,0,0:0:0:0:
36,192,478733,1,0,0:0:0:0:
329,192,478883,1,0,0:0:0:0:
109,192,478883,1,0,0:0:0:0:
36,192,479033,1,0,0:0:0:0:
182,192,479033,1,0,0:0:0:0:
402,192,479033,1,0,0:0:0:0:
475,192,479183,1,0,0:0:0:0:
256,192,479183,1,0,0:0:0:0:
182,192,479333,1,0,0:0:0:0:
36,192,479333,1,0,0:0:0:0:
329,192,479333,1,0,0:0:0:0:
402,192,479633,1,0,0:0:0:0:
256,192,479633,1,0,0:0:0:0:
475,192,479933,1,0,0:0:0:0:
329,192,479933,1,0,0:0:0:0:
329,192,480233,1,0,0:0:0:0:
402,192,480233,1,0,0:0:0:0:
36,192,480233,1,0,0:0:0:0:
182,192,480233,1,0,0:0:0:0:
109,192,480383,1,0,0:0:0:0:
256,192,480533,1,0,0:0:0:0:
182,192,480683,1,0,0:0:0:0:
475,192,480833,1,0,0:0:0:0:
329,192,480833,1,0,0:0:0:0:
402,192,480983,1,0,0:0:0:0:
256,192,480983,1,0,0:0:0:0:
36,192,481133,1,0,0:0:0:0:
329,192,481133,1,0,0:0:0:0:
475,192,481133,1,0,0:0:0:0:
109,192,481433,1,0,0:0:0:0:
475,192,481733,1,0,0:0:0:0:
402,192,481733,1,0,0:0:0:0:
182,192,481733,1,0,0:0:0:0:
256,192,482033,1,0,0:0:0:0:
329,192,482033,1,0,0:0:0:0:
36,192,482033,1,0,0:0:0:0:
109,192,482033,1,0,0:0:0:0:
402,192,482333,1,0,0:0:0:0:
475,192,482333,1,0,0:0:0:0:
182,192,482333,1,0,0:0:0:0:
256,192,482333,1,0,0:0:0:0:
329,192,482633,1,0,0:0:0:0:
402,192,482633,1,0,0:0:0:0:
109,192,482633,1,0,0:0:0:0:
182,192,482633,1,0,0:0:0:0:
329,192,482933,1,0,0:0:0:0:
475,192,482933,1,0,0:0:0:0:
256,192,482933,1,0,0:0:0:0:
109,192,482933,1,0,0:0:0:0:
36,192,482933,1,0,0:0:0:0:
402,192,483458,1,0,0:0:0:0:
475,192,483533,1,0,0:0:0:0:
329,192,483683,1,0,0:0:0:0:
36,192,483833,1,0,0:0:0:0:
182,192,483833,1,0,0:0:0:0:
402,192,483833,1,0,0:0:0:0:
109,192,483983,1,0,0:0:0:0:
256,192,483983,1,0,0:0:0:0:
329,192,484133,1,0,0:0:0:0:
182,192,484133,1,0,0:0:0:0:
402,192,484283,1,0,0:0:0:0:
256,192,484283,1,0,0:0:0:0:
329,192,484433,1,0,0:0:0:0:
475,192,484433,1,0,0:0:0:0:
36,192,484433,1,0,0:0:0:0:
182,192,484433,1,0,0:0:0:0:
402,192,484583,1,0,0:0:0:0:
256,192,484583,1,0,0:0:0:0:
475,192,484733,1,0,0:0:0:0:
109,192,484733,1,0,0:0:0:0:
36,192,484733,1,0,0:0:0:0:
182,192,484733,1,0,0:0:0:0:
329,192,484733,1,0,0:0:0:0:
256,192,485033,1,0,0:0:0:0:
109,192,485033,1,0,0:0:0:0:
329,192,485183,1,0,0:0:0:0:
182,192,485333,1,0,0:0:0:0:
402,192,485333,1,0,0:0:0:0:
475,192,485483,1,0,0:0:0:0:
256,192,485595,1,0,0:0:0:0:
109,192,485633,1,0,0:0:0:0:
36,192,485633,1,0,0:0:0:0:
329,192,485633,1,0,0:0:0:0:
402,192,485783,1,0,0:0:0:0:
475,192,485933,1,0,0:0:0:0:
329,192,485933,1,0,0:0:0:0:
109,192,485933,1,0,0:0:0:0:
182,192,485933,1,0,0:0:0:0:
402,192,486083,1,0,0:0:0:0:
36,192,486233,1,0,0:0:0:0:
475,192,486233,1,0,0:0:0:0:
182,192,486233,1,0,0:0:0:0:
256,192,486233,1,0,0:0:0:0:
182,192,486383,1,0,0:0:0:0:
109,192,486383,1,0,0:0:0:0:
475,192,486533,1,0,0:0:0:0:
109,192,486533,1,0,0:0:0:0:
36,192,486533,1,0,0:0:0:0:
256,192,486533,1,0,0:0:0:0:
329,192,486533,1,0,0:0:0:0:
402,192,486795,1,0,0:0:0:0:
109,192,486833,1,0,0:0:0:0:
256,192,486833,1,0,0:0:0:0:
475,192,486833,1,0,0:0:0:0:
329,192,487095,1,0,0:0:0:0:
36,192,487133,1,0,0:0:0:0:
182,192,487133,1,0,0:0:0:0:
402,192,487133,1,0,0:0:0:0:
182,192,487283,1,0,0:0:0:0:
329,192,487395,1,0,0:0:0:0:
475,192,487433,1,0,0:0:0:0:
36,192,487433,1,0,0:0:0:0:
256,192,487433,1,0,0:0:0:0:
109,192,487433,1,0,0:0:0:0:
329,192,487733,1,0,0:0:0:0:
256,192,488033,1,0,0:0:0:0:
475,192,488033,1,0,0:0:0:0:
402,192,488183,1,0,0:0:0:0:
182,192,488183,1,0,0:0:0:0:
36,192,488333,1,0,0:0:0:0:
109,192,488333,1,0,0:0:0:0:
475,192,488333,1,0,0:0:0:0:
256,192,488333,1,0,0:0:0:0:
182,192,488633,1,0,0:0:0:0:
109,192,488783,1,0,0:0:0:0:
256,192,488933,1,0,0:0:0:0:
182,192,489083,1,0,0:0:0:0:
402,192,489195,1,0,0:0:0:0:
475,192,489233,1,0,0:0:0:0:
256,192,489233,1,0,0:0:0:0:
109,192,489233,1,0,0:0:0:0:
36,192,489233,1,0,0:0:0:0:
329,192,489495,1,0,0:0:0:0:
475,192,489533,1,0,0:0:0:0:
402,192,489533,1,0,0:0:0:0:
256,192,489795,1,0,0:0:0:0:
475,192,489833,1,0,0:0:0:0:
329,192,489833,1,0,0:0:0:0:
475,192,490133,1,0,0:0:0:0:
329,192,490133,1,0,0:0:0:0:
182,192,490133,1,0,0:0:0:0:
109,192,490208,1,0,0:0:0:0:
36,192,490283,128,0,491783:0:0:0:0:
402,192,490283,128,0,491783:0:0:0:0:
256,192,490283,128,0,491783:0:0:0:0:
402,192,491933,1,0,0:0:0:0:
475,192,491933,1,0,0:0:0:0:
36,192,491933,1,0,0:0:0:0:
256,192,491933,1,0,0:0:0:0:
329,192,492233,1,0,0:0:0:0:
182,192,492533,1,0,0:0:0:0:
329,192,492683,1,0,0:0:0:0:
182,192,492833,1,0,0:0:0:0:
36,192,492833,1,0,0:0:0:0:
329,192,493058,1,0,0:0:0:0:
182,192,493133,1,0,0:0:0:0:
36,192,493133,1,0,0:0:0:0:
402,192,493283,1,0,0:0:0:0:
109,192,493433,1,0,0:0:0:0:
256,192,493433,1,0,0:0:0:0:
329,192,493508,1,0,0:0:0:0:
182,192,493583,1,0,0:0:0:0:
402,192,493583,1,0,0:0:0:0:
256,192,493658,1,0,0:0:0:0:
109,192,493733,1,0,0:0:0:0:
36,192,493733,1,0,0:0:0:0:
329,192,493733,1,0,0:0:0:0:
475,192,493733,1,0,0:0:0:0:
402,192,493883,1,0,0:0:0:0:
182,192,493883,1,0,0:0:0:0:
109,192,493958,1,0,0:0:0:0:
475,192,494033,1,0,0:0:0:0:
256,192,494033,1,0,0:0:0:0:
36,192,494033,1,0,0:0:0:0:
329,192,494108,1,0,0:0:0:0:
182,192,494183,1,0,0:0:0:0:
402,192,494183,1,0,0:0:0:0:
109,192,494258,1,0,0:0:0:0:
329,192,494333,1,0,0:0:0:0:
475,192,494333,1,0,0:0:0:0:
36,192,494333,1,0,0:0:0:0:
256,192,494333,1,0,0:0:0:0:
182,192,494408,1,0,0:0:0:0:
402,192,494483,1,0,0:0:0:0:
109,192,494483,1,0,0:0:0:0:
329,192,494558,1,0,0:0:0:0:
36,192,494633,1,0,0:0:0:0:
475,192,494633,1,0,0:0:0:0:
256,192,494633,1,0,0:0:0:0:
182,192,494633,1,0,0:0:0:0:
402,192,494708,1,0,0:0:0:0:
109,192,494783,1,0,0:0:0:0:
329,192,494783,1,0,0:0:0:0:
182,192,494858,1,0,0:0:0:0:
475,192,494933,1,0,0:0:0:0:
36,192,494933,1,0,0:0:0:0:
256,192,494933,1,0,0:0:0:0:
402,192,494933,1,0,0:0:0:0:
109,192,495008,1,0,0:0:0:0:
329,192,495083,1,0,0:0:0:0:
182,192,495083,1,0,0:0:0:0:
402,192,495158,1,0,0:0:0:0:
109,192,495233,1,0,0:0:0:0:
36,192,495233,1,0,0:0:0:0:
475,192,495233,1,0,0:0:0:0:
256,192,495233,1,0,0:0:0:0:
329,192,495308,1,0,0:0:0:0:
182,192,495383,1,0,0:0:0:0:
402,192,495383,1,0,0:0:0:0:
256,192,495458,1,0,0:0:0:0:
109,192,495533,1,0,0:0:0:0:
36,192,495533,1,0,0:0:0:0:
329,192,495533,1,0,0:0:0:0:
475,192,495533,1,0,0:0:0:0:
182,192,495608,1,0,0:0:0:0:
402,192,495683,1,0,0:0:0:0:
256,192,495683,1,0,0:0:0:0:
475,192,495758,1,0,0:0:0:0:
329,192,495758,1,0,0:0:0:0:
182,192,495833,1,0,0:0:0:0:
402,192,495833,1,0,0:0:0:0:
36,192,495833,1,0,0:0:0:0:
109,192,495833,1,0,0:0:0:0:
329,192,495908,1,0,0:0:0:0:
256,192,495908,1,0,0:0:0:0:
475,192,495983,1,0,0:0:0:0:
402,192,495983,1,0,0:0:0:0:
109,192,496058,1,0,0:0:0:0:
36,192,496058,1,0,0:0:0:0:
329,192,496133,1,0,0:0:0:0:
402,192,496133,1,0,0:0:0:0:
182,192,496133,1,0,0:0:0:0:
256,192,496133,1,0,0:0:0:0:
36,192,496208,1,0,0:0:0:0:
475,192,496208,1,0,0:0:0:0:
256,192,496283,1,0,0:0:0:0:
109,192,496283,1,0,0:0:0:0:
329,192,496358,1,0,0:0:0:0:
182,192,496358,1,0,0:0:0:0:
475,192,496433,1,0,0:0:0:0:
36,192,496433,1,0,0:0:0:0:
256,192,496433,1,0,0:0:0:0:
402,192,496433,1,0,0:0:0:0:
329,192,496508,1,0,0:0:0:0:
109,192,496508,1,0,0:0:0:0:
402,192,496583,1,0,0:0:0:0:
182,192,496583,1,0,0:0:0:0:
475,192,496658,1,0,0:0:0:0:
256,192,496658,1,0,0:0:0:0:
36,192,496733,1,0,0:0:0:0:
402,192,496733,1,0,0:0:0:0:
329,192,496733,1,0,0:0:0:0:
109,192,496733,1,0,0:0:0:0:
256,192,496808,1,0,0:0:0:0:
182,192,496808,1,0,0:0:0:0:
475,192,496883,1,0,0:0:0:0:
402,192,496883,1,0,0:0:0:0:
256,192,496958,1,0,0:0:0:0:
329,192,496958,1,0,0:0:0:0:
36,192,497033,1,0,0:0:0:0:
475,192,497033,1,0,0:0:0:0:
182,192,497033,1,0,0:0:0:0:
109,192,497033,1,0,0:0:0:0:
329,192,497108,1,0,0:0:0:0:
402,192,497108,1,0,0:0:0:0:
182,192,497183,1,0,0:0:0:0:
256,192,497183,1,0,0:0:0:0:
36,192,497258,1,0,0:0:0:0:
109,192,497258,1,0,0:0:0:0:
256,192,497333,1,0,0:0:0:0:
329,192,497333,1,0,0:0:0:0:
475,192,497333,1,0,0:0:0:0:
402,192,497333,1,0,0:0:0:0:
182,192,497408,1,0,0:0:0:0:
109,192,497408,1,0,0:0:0:0:
475,192,497483,1,0,0:0:0:0:
36,192,497483,1,0,0:0:0:0:
329,192,497558,1,0,0:0:0:0:
402,192,497558,1,0,0:0:0:0:
109,192,497633,1,0,0:0:0:0:
36,192,497633,1,0,0:0:0:0:
256,192,497633,1,0,0:0:0:0:
182,192,497633,1,0,0:0:0:0:
402,192,497708,1,0,0:0:0:0:
475,192,497708,1,0,0:0:0:0:
256,192,497783,1,0,0:0:0:0:
329,192,497783,1,0,0:0:0:0:
109,192,497858,1,0,0:0:0:0:
182,192,497858,1,0,0:0:0:0:
402,192,497933,1,0,0:0:0:0:
329,192,497933,1,0,0:0:0:0:
36,192,497933,1,0,0:0:0:0:
475,192,497933,1,0,0:0:0:0:
182,192,498008,1,0,0:0:0:0:
256,192,498008,1,0,0:0:0:0:
36,192,498083,1,0,0:0:0:0:
109,192,498083,1,0,0:0:0:0:
402,192,498158,1,0,0:0:0:0:
475,192,498158,1,0,0:0:0:0:
256,192,498233,1,0,0:0:0:0:
36,192,498233,1,0,0:0:0:0:
109,192,498233,1,0,0:0:0:0:
182,192,498233,1,0,0:0:0:0:
402,192,498308,1,0,0:0:0:0:
329,192,498308,1,0,0:0:0:0:
36,192,498383,1,0,0:0:0:0:
475,192,498383,1,0,0:0:0:0:
182,192,498458,1,0,0:0:0:0:
109,192,498458,1,0,0:0:0:0:
402,192,498533,1,0,0:0:0:0:
475,192,498533,1,0,0:0:0:0:
256,192,498533,1,0,0:0:0:0:
329,192,498533,1,0,0:0:0:0:
182,192,498608,1,0,0:0:0:0:
36,192,498608,1,0,0:0:0:0:
256,192,498683,1,0,0:0:0:0:
109,192,498683,1,0,0:0:0:0:
329,192,498758,1,0,0:0:0:0:
182,192,498758,1,0,0:0:0:0:
402,192,498833,1,0,0:0:0:0:
36,192,498833,1,0,0:0:0:0:
256,192,498833,1,0,0:0:0:0:
475,192,498833,1,0,0:0:0:0:
182,192,498908,1,0,0:0:0:0:
109,192,498908,1,0,0:0:0:0:
329,192,498983,1,0,0:0:0:0:
256,192,498983,1,0,0:0:0:0:
475,192,499058,1,0,0:0:0:0:
402,192,499058,1,0,0:0:0:0:
256,192,499133,128,0,499976:0:0:0:0:
329,192,499133,128,0,499958:0:0:0:0:
182,192,499133,128,0,499995:0:0:0:0:
36,192,499133,128,0,500033:0:0:0:0:
109,192,499133,128,0,500014:0:0:0:0:
475,192,500033,1,0,0:0:0:0:
402,192,500183,1,0,0:0:0:0:
329,192,500333,1,0,0:0:0:0:
256,192,500483,1,0,0:0:0:0:
182,192,500633,1,0,0:0:0:0:
402,192,500633,1,0,0:0:0:0:
109,192,500783,1,0,0:0:0:0:
329,192,500783,1,0,0:0:0:0:
475,192,500933,1,0,0:0:0:0:
182,192,500933,1,0,0:0:0:0:
402,192,500933,1,0,0:0:0:0:
36,192,500933,1,0,0:0:0:0:
256,192,500933,1,0,0:0:0:0:
329,192,501008,1,0,0:0:0:0:
109,192,501008,1,0,0:0:0:0:
36,192,501083,1,0,0:0:0:0:
402,192,501083,1,0,0:0:0:0:
182,192,501083,1,0,0:0:0:0:
475,192,501158,1,0,0:0:0:0:
256,192,501158,1,0,0:0:0:0:
329,192,501233,1,0,0:0:0:0:
402,192,501233,1,0,0:0:0:0:
36,192,501233,1,0,0:0:0:0:
182,192,501233,1,0,0:0:0:0:
109,192,501308,1,0,0:0:0:0:
256,192,501308,1,0,0:0:0:0:
329,192,501383,1,0,0:0:0:0:
475,192,501383,1,0,0:0:0:0:
36,192,501458,1,0,0:0:0:0:
182,192,501458,1,0,0:0:0:0:
402,192,501533,1,0,0:0:0:0:
475,192,501533,1,0,0:0:0:0:
109,192,501533,1,0,0:0:0:0:
256,192,501533,1,0,0:0:0:0:
329,192,501608,1,0,0:0:0:0:
182,192,501608,1,0,0:0:0:0:
256,192,501683,1,0,0:0:0:0:
475,192,501683,1,0,0:0:0:0:
182,192,501720,1,0,0:0:0:0:
402,192,501720,1,0,0:0:0:0:
109,192,501758,1,0,0:0:0:0:
329,192,501758,1,0,0:0:0:0:
36,192,501795,1,0,0:0:0:0:
256,192,501795,1,0,0:0:0:0:
402,192,501833,1,0,0:0:0:0:
475,192,501833,1,0,0:0:0:0:
182,192,501833,1,0,0:0:0:0:
329,192,501908,1,0,0:0:0:0:
109,192,501908,1,0,0:0:0:0:
475,192,501983,1,0,0:0:0:0:
36,192,501983,1,0,0:0:0:0:
256,192,501983,1,0,0:0:0:0:
329,192,502020,1,0,0:0:0:0:
109,192,502020,1,0,0:0:0:0:
182,192,502058,1,0,0:0:0:0:
402,192,502058,1,0,0:0:0:0:
256,192,502095,1,0,0:0:0:0:
475,192,502095,1,0,0:0:0:0:
109,192,502133,1,0,0:0:0:0:
329,192,502133,1,0,0:0:0:0:
36,192,502133,1,0,0:0:0:0:
402,192,502208,1,0,0:0:0:0:
182,192,502208,1,0,0:0:0:0:
36,192,502283,1,0,0:0:0:0:
475,192,502283,1,0,0:0:0:0:
256,192,502283,1,0,0:0:0:0:
329,192,502358,1,0,0:0:0:0:
109,192,502358,1,0,0:0:0:0:
475,192,502433,1,0,0:0:0:0:
36,192,502433,1,0,0:0:0:0:
182,192,502433,1,0,0:0:0:0:
402,192,502433,1,0,0:0:0:0:
256,192,502508,1,0,0:0:0:0:
329,192,502508,1,0,0:0:0:0:
182,192,502583,1,0,0:0:0:0:
109,192,502583,1,0,0:0:0:0:
402,192,502658,1,0,0:0:0:0:
475,192,502658,1,0,0:0:0:0:
109,192,502733,1,0,0:0:0:0:
256,192,502733,1,0,0:0:0:0:
329,192,502733,1,0,0:0:0:0:
36,192,502733,1,0,0:0:0:0:
402,192,502808,1,0,0:0:0:0:
182,192,502808,1,0,0:0:0:0:
329,192,502883,1,0,0:0:0:0:
475,192,502883,1,0,0:0:0:0:
109,192,502920,1,0,0:0:0:0:
36,192,502920,1,0,0:0:0:0:
256,192,502958,1,0,0:0:0:0:
182,192,502958,1,0,0:0:0:0:
402,192,502995,1,0,0:0:0:0:
329,192,502995,1,0,0:0:0:0:
36,192,503033,1,0,0:0:0:0:
182,192,503033,1,0,0:0:0:0:
475,192,503033,1,0,0:0:0:0:
109,192,503033,1,0,0:0:0:0:
329,192,503108,1,0,0:0:0:0:
256,192,503108,1,0,0:0:0:0:
36,192,503183,1,0,0:0:0:0:
475,192,503183,1,0,0:0:0:0:
402,192,503183,1,0,0:0:0:0:
256,192,503258,1,0,0:0:0:0:
109,192,503258,1,0,0:0:0:0:
402,192,503333,1,0,0:0:0:0:
475,192,503333,1,0,0:0:0:0:
182,192,503333,1,0,0:0:0:0:
329,192,503333,1,0,0:0:0:0:
256,192,503408,1,0,0:0:0:0:
109,192,503408,1,0,0:0:0:0:
475,192,503483,1,0,0:0:0:0:
182,192,503483,1,0,0:0:0:0:
36,192,503483,1,0,0:0:0:0:
402,192,503520,1,0,0:0:0:0:
256,192,503520,1,0,0:0:0:0:
329,192,503558,1,0,0:0:0:0:
182,192,503595,1,0,0:0:0:0:
475,192,503595,1,0,0:0:0:0:
402,192,503633,1,0,0:0:0:0:
256,192,503633,1,0,0:0:0:0:
109,192,503633,1,0,0:0:0:0:
36,192,503633,1,0,0:0:0:0:
329,192,503708,1,0,0:0:0:0:
182,192,503708,1,0,0:0:0:0:
475,192,503783,1,0,0:0:0:0:
256,192,503783,1,0,0:0:0:0:
402,192,503820,1,0,0:0:0:0:
36,192,503820,1,0,0:0:0:0:
329,192,503858,1,0,0:0:0:0:
109,192,503858,1,0,0:0:0:0:
475,192,503895,1,0,0:0:0:0:
182,192,503895,1,0,0:0:0:0:
36,192,503933,1,0,0:0:0:0:
402,192,503933,1,0,0:0:0:0:
256,192,503933,1,0,0:0:0:0:
329,192,504008,1,0,0:0:0:0:
109,192,504008,1,0,0:0:0:0:
256,192,504083,1,0,0:0:0:0:
182,192,504083,1,0,0:0:0:0:
402,192,504158,1,0,0:0:0:0:
475,192,504158,1,0,0:0:0:0:
109,192,504233,1,0,0:0:0:0:
36,192,504233,1,0,0:0:0:0:
329,192,504233,1,0,0:0:0:0:
182,192,504233,1,0,0:0:0:0:
402,192,504308,1,0,0:0:0:0:
256,192,504308,1,0,0:0:0:0:
36,192,504383,1,0,0:0:0:0:
475,192,504383,1,0,0:0:0:0:
402,192,504420,1,0,0:0:0:0:
109,192,504420,1,0,0:0:0:0:
329,192,504458,1,0,0:0:0:0:
182,192,504458,1,0,0:0:0:0:
36,192,504495,1,0,0:0:0:0:
475,192,504495,1,0,0:0:0:0:
402,192,504533,1,0,0:0:0:0:
256,192,504533,1,0,0:0:0:0:
109,192,504533,1,0,0:0:0:0:
329,192,504608,1,0,0:0:0:0:
182,192,504608,1,0,0:0:0:0:
256,192,504683,1,0,0:0:0:0:
36,192,504683,1,0,0:0:0:0:
475,192,504683,1,0,0:0:0:0:
256,192,504758,1,0,0:0:0:0:
109,192,504758,1,0,0:0:0:0:
402,192,504833,1,0,0:0:0:0:
475,192,504833,1,0,0:0:0:0:
182,192,504833,1,0,0:0:0:0:
329,192,504833,1,0,0:0:0:0:
256,192,504908,1,0,0:0:0:0:
109,192,504908,1,0,0:0:0:0:
402,192,504983,1,0,0:0:0:0:
182,192,504983,1,0,0:0:0:0:
36,192,504983,1,0,0:0:0:0:
475,192,505058,1,0,0:0:0:0:
329,192,505058,1,0,0:0:0:0:
402,192,505133,1,0,0:0:0:0:
109,192,505133,1,0,0:0:0:0:
256,192,505133,1,0,0:0:0:0:
36,192,505133,1,0,0:0:0:0:
182,192,505208,1,0,0:0:0:0:
329,192,505208,1,0,0:0:0:0:
256,192,505283,1,0,0:0:0:0:
475,192,505283,1,0,0:0:0:0:
402,192,505320,1,0,0:0:0:0:
182,192,505320,1,0,0:0:0:0:
329,192,505358,1,0,0:0:0:0:
109,192,505358,1,0,0:0:0:0:
256,192,505395,1,0,0:0:0:0:
36,192,505395,1,0,0:0:0:0:
475,192,505433,1,0,0:0:0:0:
402,192,505433,1,0,0:0:0:0:
182,192,505433,1,0,0:0:0:0:
329,192,505508,1,0,0:0:0:0:
109,192,505508,1,0,0:0:0:0:
475,192,505583,1,0,0:0:0:0:
36,192,505583,1,0,0:0:0:0:
256,192,505583,1,0,0:0:0:0:
329,192,505658,1,0,0:0:0:0:
109,192,505658,1,0,0:0:0:0:
475,192,505733,1,0,0:0:0:0:
36,192,505733,1,0,0:0:0:0:
182,192,505733,1,0,0:0:0:0:
402,192,505733,1,0,0:0:0:0:
109,192,505808,1,0,0:0:0:0:
256,192,505808,1,0,0:0:0:0:
475,192,505883,1,0,0:0:0:0:
329,192,505883,1,0,0:0:0:0:
182,192,505883,1,0,0:0:0:0:
256,192,505958,1,0,0:0:0:0:
402,192,505958,1,0,0:0:0:0:
36,192,506033,1,0,0:0:0:0:
109,192,506033,1,0,0:0:0:0:
182,192,506033,1,0,0:0:0:0:
329,192,506033,1,0,0:0:0:0:
402,192,506108,1,0,0:0:0:0:
256,192,506108,1,0,0:0:0:0:
475,192,506183,1,0,0:0:0:0:
109,192,506183,1,0,0:0:0:0:
36,192,506183,1,0,0:0:0:0:
402,192,506220,1,0,0:0:0:0:
182,192,506220,1,0,0:0:0:0:
256,192,506258,1,0,0:0:0:0:
36,192,506295,1,0,0:0:0:0:
329,192,506295,1,0,0:0:0:0:
109,192,506333,1,0,0:0:0:0:
475,192,506333,1,0,0:0:0:0:
402,192,506333,1,0,0:0:0:0:
329,192,506408,1,0,0:0:0:0:
182,192,506408,1,0,0:0:0:0:
36,192,506483,1,0,0:0:0:0:
402,192,506483,1,0,0:0:0:0:
329,192,506520,1,0,0:0:0:0:
109,192,506520,1,0,0:0:0:0:
475,192,506558,1,0,0:0:0:0:
182,192,506558,1,0,0:0:0:0:
402,192,506595,1,0,0:0:0:0:
256,192,506595,1,0,0:0:0:0:
36,192,506633,1,0,0:0:0:0:
109,192,506633,1,0,0:0:0:0:
329,192,506633,1,0,0:0:0:0:
256,192,506708,1,0,0:0:0:0:
475,192,506708,1,0,0:0:0:0:
36,192,506783,1,0,0:0:0:0:
182,192,506783,1,0,0:0:0:0:
402,192,506783,1,0,0:0:0:0:
329,192,506858,1,0,0:0:0:0:
109,192,506858,1,0,0:0:0:0:
475,192,506933,1,0,0:0:0:0:
36,192,506933,1,0,0:0:0:0:
182,192,506933,1,0,0:0:0:0:
402,192,506933,1,0,0:0:0:0:
109,192,507008,1,0,0:0:0:0:
256,192,507008,1,0,0:0:0:0:
182,192,507083,1,0,0:0:0:0:
329,192,507083,1,0,0:0:0:0:
36,192,507120,1,0,0:0:0:0:
402,192,507120,1,0,0:0:0:0:
109,192,507158,1,0,0:0:0:0:
475,192,507158,1,0,0:0:0:0:
329,192,507195,1,0,0:0:0:0:
182,192,507195,1,0,0:0:0:0:
36,192,507233,1,0,0:0:0:0:
402,192,507233,1,0,0:0:0:0:
256,192,507233,1,0,0:0:0:0:
475,192,507308,1,0,0:0:0:0:
109,192,507308,1,0,0:0:0:0:
36,192,507383,1,0,0:0:0:0:
402,192,507383,1,0,0:0:0:0:
182,192,507383,1,0,0:0:0:0:
109,192,507420,1,0,0:0:0:0:
329,192,507420,1,0,0:0:0:0:
475,192,507458,1,0,0:0:0:0:
256,192,507458,1,0,0:0:0:0:
36,192,507495,1,0,0:0:0:0:
402,192,507495,1,0,0:0:0:0:
329,192,507533,1,0,0:0:0:0:
182,192,507533,1,0,0:0:0:0:
109,192,507533,1,0,0:0:0:0:
402,192,507608,1,0,0:0:0:0:
256,192,507608,1,0,0:0:0:0:
36,192,507683,1,0,0:0:0:0:
475,192,507683,1,0,0:0:0:0:
329,192,507683,1,0,0:0:0:0:
256,192,507758,1,0,0:0:0:0:
109,192,507758,1,0,0:0:0:0:
329,192,507833,1,0,0:0:0:0:
182,192,507833,1,0,0:0:0:0:
109,192,507908,1,0,0:0:0:0:
329,192,507908,1,0,0:0:0:0:
402,192,507983,1,0,0:0:0:0:
256,192,507983,1,0,0:0:0:0:
36,192,507983,1,0,0:0:0:0:
475,192,508020,1,0,0:0:0:0:
109,192,508020,1,0,0:0:0:0:
329,192,508058,1,0,0:0:0:0:
182,192,508058,1,0,0:0:0:0:
36,192,508095,1,0,0:0:0:0:
402,192,508095,1,0,0:0:0:0:
475,192,508133,1,0,0:0:0:0:
256,192,508133,1,0,0:0:0:0:
109,192,508133,1,0,0:0:0:0:
329,192,508208,1,0,0:0:0:0:
182,192,508208,1,0,0:0:0:0:
36,192,508283,1,0,0:0:0:0:
402,192,508283,1,0,0:0:0:0:
256,192,508283,1,0,0:0:0:0:
329,192,508358,1,0,0:0:0:0:
182,192,508358,1,0,0:0:0:0:
402,192,508433,1,0,0:0:0:0:
475,192,508433,1,0,0:0:0:0:
109,192,508433,1,0,0:0:0:0:
256,192,508433,1,0,0:0:0:0:
182,192,508508,1,0,0:0:0:0:
36,192,508508,1,0,0:0:0:0:
329,192,508583,1,0,0:0:0:0:
402,192,508583,1,0,0:0:0:0:
182,192,508658,1,0,0:0:0:0:
256,192,508658,1,0,0:0:0:0:
402,192,508733,1,0,0:0:0:0:
475,192,508733,1,0,0:0:0:0:
109,192,508733,1,0,0:0:0:0:
36,192,508733,1,0,0:0:0:0:
256,192,508808,1,0,0:0:0:0:
329,192,508808,1,0,0:0:0:0:
475,192,508883,1,0,0:0:0:0:
109,192,508883,1,0,0:0:0:0:
182,192,508883,1,0,0:0:0:0:
329,192,508920,1,0,0:0:0:0:
402,192,508920,1,0,0:0:0:0:
36,192,508920,1,0,0:0:0:0:
182,192,508958,1,0,0:0:0:0:
256,192,508958,1,0,0:0:0:0:
36,192,508995,1,0,0:0:0:0:
109,192,508995,1,0,0:0:0:0:
329,192,509033,1,0,0:0:0:0:
402,192,509033,1,0,0:0:0:0:
475,192,509033,1,0,0:0:0:0:
182,192,509108,1,0,0:0:0:0:
256,192,509108,1,0,0:0:0:0:
329,192,509183,1,0,0:0:0:0:
36,192,509183,1,0,0:0:0:0:
109,192,509183,1,0,0:0:0:0:
182,192,509220,1,0,0:0:0:0:
402,192,509220,1,0,0:0:0:0:
256,192,509258,1,0,0:0:0:0:
475,192,509258,1,0,0:0:0:0:
36,192,509295,1,0,0:0:0:0:
329,192,509295,1,0,0:0:0:0:
402,192,509333,1,0,0:0:0:0:
182,192,509333,1,0,0:0:0:0:
109,192,509333,1,0,0:0:0:0:
475,192,509408,1,0,0:0:0:0:
256,192,509408,1,0,0:0:0:0:
36,192,509483,1,0,0:0:0:0:
182,192,509483,1,0,0:0:0:0:
402,192,509483,1,0,0:0:0:0:
329,192,509558,1,0,0:0:0:0:
109,192,509558,1,0,0:0:0:0:
475,192,509633,1,0,0:0:0:0:
36,192,509633,1,0,0:0:0:0:
182,192,509633,1,0,0:0:0:0:
256,192,509633,1,0,0:0:0:0:
109,192,509708,1,0,0:0:0:0:
402,192,509708,1,0,0:0:0:0:
329,192,509783,1,0,0:0:0:0:
182,192,509783,1,0,0:0:0:0:
109,192,509858,1,0,0:0:0:0:
475,192,509858,1,0,0:0:0:0:
329,192,509933,1,0,0:0:0:0:
402,192,509933,1,0,0:0:0:0:
36,192,509933,1,0,0:0:0:0:
256,192,509933,1,0,0:0:0:0:
475,192,510008,1,0,0:0:0:0:
182,192,510008,1,0,0:0:0:0:
402,192,510083,1,0,0:0:0:0:
109,192,510083,1,0,0:0:0:0:
329,192,510120,1,0,0:0:0:0:
36,192,510120,1,0,0:0:0:0:
475,192,510158,1,0,0:0:0:0:
256,192,510158,1,0,0:0:0:0:
402,192,510195,1,0,0:0:0:0:
182,192,510195,1,0,0:0:0:0:
36,192,510233,1,0,0:0:0:0:
329,192,510233,1,0,0:0:0:0:
109,192,510233,1,0,0:0:0:0:
402,192,510308,1,0,0:0:0:0:
182,192,510308,1,0,0:0:0:0:
109,192,510383,1,0,0:0:0:0:
475,192,510383,1,0,0:0:0:0:
256,192,510383,1,0,0:0:0:0:
329,192,510458,1,0,0:0:0:0:
36,192,510458,1,0,0:0:0:0:
109,192,510533,1,0,0:0:0:0:
182,192,510533,1,0,0:0:0:0:
402,192,510533,1,0,0:0:0:0:
475,192,510533,1,0,0:0:0:0:
36,192,510608,1,0,0:0:0:0:
256,192,510608,1,0,0:0:0:0:
329,192,510683,1,0,0:0:0:0:
109,192,510683,1,0,0:0:0:0:
256,192,510720,1,0,0:0:0:0:
475,192,510720,1,0,0:0:0:0:
402,192,510758,1,0,0:0:0:0:
182,192,510758,1,0,0:0:0:0:
329,192,510795,1,0,0:0:0:0:
36,192,510833,1,0,0:0:0:0:
109,192,510833,1,0,0:0:0:0:
256,192,510833,1,0,0:0:0:0:
402,192,510908,1,0,0:0:0:0:
475,192,510908,1,0,0:0:0:0:
256,192,510983,1,0,0:0:0:0:
329,192,510983,1,0,0:0:0:0:
109,192,511020,1,0,0:0:0:0:
182,192,511020,1,0,0:0:0:0:
475,192,511058,1,0,0:0:0:0:
36,192,511058,1,0,0:0:0:0:
329,192,511095,1,0,0:0:0:0:
402,192,511095,1,0,0:0:0:0:
109,192,511133,1,0,0:0:0:0:
182,192,511133,1,0,0:0:0:0:
256,192,511133,1,0,0:0:0:0:
475,192,511208,1,0,0:0:0:0:
36,192,511208,1,0,0:0:0:0:
256,192,511283,1,0,0:0:0:0:
402,192,511283,1,0,0:0:0:0:
182,192,511358,1,0,0:0:0:0:
329,192,511358,1,0,0:0:0:0:
402,192,511433,1,0,0:0:0:0:
256,192,511433,1,0,0:0:0:0:
36,192,511433,1,0,0:0:0:0:
109,192,511433,1,0,0:0:0:0:
182,192,511508,1,0,0:0:0:0:
402,192,511508,1,0,0:0:0:0:
109,192,511583,1,0,0:0:0:0:
475,192,511583,1,0,0:0:0:0:
256,192,511583,1,0,0:0:0:0:
109,192,511658,1,0,0:0:0:0:
402,192,511733,1,0,0:0:0:0:
475,192,511733,1,0,0:0:0:0:
329,192,511733,1,0,0:0:0:0:
36,192,511733,1,0,0:0:0:0:
182,192,511733,1,0,0:0:0:0:
109,192,511808,1,0,0:0:0:0:
256,192,511808,1,0,0:0:0:0:
329,192,511883,1,0,0:0:0:0:
182,192,511883,1,0,0:0:0:0:
256,192,511958,1,0,0:0:0:0:
402,192,511958,1,0,0:0:0:0:
109,192,512033,1,0,0:0:0:0:
36,192,512033,1,0,0:0:0:0:
329,192,512033,1,0,0:0:0:0:
475,192,512033,1,0,0:0:0:0:
402,192,512108,1,0,0:0:0:0:
256,192,512108,1,0,0:0:0:0:
182,192,512183,1,0,0:0:0:0:
329,192,512183,1,0,0:0:0:0:
256,192,512258,1,0,0:0:0:0:
109,192,512258,1,0,0:0:0:0:
402,192,512333,1,0,0:0:0:0:
475,192,512333,1,0,0:0:0:0:
36,192,512333,1,0,0:0:0:0:
182,192,512333,1,0,0:0:0:0:
256,192,512408,1,0,0:0:0:0:
109,192,512408,1,0,0:0:0:0:
182,192,512483,1,0,0:0:0:0:
329,192,512483,1,0,0:0:0:0:
36,192,512520,1,0,0:0:0:0:
402,192,512520,1,0,0:0:0:0:
109,192,512558,1,0,0:0:0:0:
475,192,512558,1,0,0:0:0:0:
329,192,512595,1,0,0:0:0:0:
182,192,512595,1,0,0:0:0:0:
36,192,512633,1,0,0:0:0:0:
402,192,512633,1,0,0:0:0:0:
256,192,512633,1,0,0:0:0:0:
329,192,512708,1,0,0:0:0:0:
475,192,512708,1,0,0:0:0:0:
402,192,512783,1,0,0:0:0:0:
256,192,512783,1,0,0:0:0:0:
182,192,512858,1,0,0:0:0:0:
329,192,512858,1,0,0:0:0:0:
256,192,512933,1,0,0:0:0:0:
475,192,512933,1,0,0:0:0:0:
109,192,512933,1,0,0:0:0:0:
36,192,512933,1,0,0:0:0:0:
182,192,513008,1,0,0:0:0:0:
402,192,513008,1,0,0:0:0:0:
329,192,513083,1,0,0:0:0:0:
256,192,513083,1,0,0:0:0:0:
109,192,513158,1,0,0:0:0:0:
36,192,513158,1,0,0:0:0:0:
475,192,513233,1,0,0:0:0:0:
256,192,513233,1,0,0:0:0:0:
182,192,513233,1,0,0:0:0:0:
402,192,513233,1,0,0:0:0:0:
36,192,513308,1,0,0:0:0:0:
329,192,513308,1,0,0:0:0:0:
182,192,513383,1,0,0:0:0:0:
109,192,513383,1,0,0:0:0:0:
402,192,513420,1,0,0:0:0:0:
256,192,513420,1,0,0:0:0:0:
475,192,513458,1,0,0:0:0:0:
329,192,513458,1,0,0:0:0:0:
182,192,513495,1,0,0:0:0:0:
36,192,513495,1,0,0:0:0:0:
402,192,513533,1,0,0:0:0:0:
475,192,513533,1,0,0:0:0:0:
109,192,513533,1,0,0:0:0:0:
256,192,513533,1,0,0:0:0:0:
182,192,513608,1,0,0:0:0:0:
329,192,513608,1,0,0:0:0:0:
256,192,513683,1,0,0:0:0:0:
109,192,513683,1,0,0:0:0:0:
475,192,513720,1,0,0:0:0:0:
36,192,513720,1,0,0:0:0:0:
182,192,513758,1,0,0:0:0:0:
402,192,513758,1,0,0:0:0:0:
329,192,513795,1,0,0:0:0:0:
109,192,513795,1,0,0:0:0:0:
475,192,513833,1,0,0:0:0:0:
36,192,513833,1,0,0:0:0:0:
256,192,513833,1,0,0:0:0:0:
329,192,513908,1,0,0:0:0:0:
109,192,513908,1,0,0:0:0:0:
36,192,513983,1,0,0:0:0:0:
402,192,513983,1,0,0:0:0:0:
182,192,513983,1,0,0:0:0:0:
475,192,514058,1,0,0:0:0:0:
256,192,514058,1,0,0:0:0:0:
329,192,514133,1,0,0:0:0:0:
402,192,514133,1,0,0:0:0:0:
36,192,514133,1,0,0:0:0:0:
109,192,514133,1,0,0:0:0:0:
256,192,514170,1,0,0:0:0:0:
182,192,514170,1,0,0:0:0:0:
402,192,514208,1,0,0:0:0:0:
475,192,514208,1,0,0:0:0:0:
109,192,514245,1,0,0:0:0:0:
329,192,514245,1,0,0:0:0:0:
256,192,514283,1,0,0:0:0:0:
36,192,514283,1,0,0:0:0:0:
182,192,514320,1,0,0:0:0:0:
475,192,514320,1,0,0:0:0:0:
109,192,514358,1,0,0:0:0:0:
402,192,514358,1,0,0:0:0:0:
329,192,514395,1,0,0:0:0:0:
36,192,514395,1,0,0:0:0:0:
475,192,514433,1,0,0:0:0:0:
182,192,514433,1,0,0:0:0:0:
256,192,514433,1,0,0:0:0:0:
402,192,514508,1,0,0:0:0:0:
109,192,514508,1,0,0:0:0:0:
329,192,514583,1,0,0:0:0:0:
36,192,514583,1,0,0:0:0:0:
402,192,514620,1,0,0:0:0:0:
109,192,514620,1,0,0:0:0:0:
182,192,514658,1,0,0:0:0:0:
475,192,514658,1,0,0:0:0:0:
256,192,514695,1,0,0:0:0:0:
36,192,514695,1,0,0:0:0:0:
402,192,514733,1,0,0:0:0:0:
109,192,514733,1,0,0:0:0:0:
329,192,514733,1,0,0:0:0:0:
475,192,514808,1,0,0:0:0:0:
182,192,514808,1,0,0:0:0:0:
256,192,514883,1,0,0:0:0:0:
402,192,514883,1,0,0:0:0:0:
182,192,514958,1,0,0:0:0:0:
36,192,514958,1,0,0:0:0:0:
402,192,515033,1,0,0:0:0:0:
329,192,515033,1,0,0:0:0:0:
109,192,515033,1,0,0:0:0:0:
475,192,515033,1,0,0:0:0:0:
256,192,515108,1,0,0:0:0:0:
109,192,515108,1,0,0:0:0:0:
36,192,515183,1,0,0:0:0:0:
182,192,515183,1,0,0:0:0:0:
402,192,515183,1,0,0:0:0:0:
256,192,515258,1,0,0:0:0:0:
402,192,515258,1,0,0:0:0:0:
109,192,515333,1,0,0:0:0:0:
36,192,515333,1,0,0:0:0:0:
182,192,515333,1,0,0:0:0:0:
329,192,515333,1,0,0:0:0:0:
475,192,515333,1,0,0:0:0:0:
329,192,515783,1,0,0:0:0:0:
475,192,515783,1,0,0:0:0:0:
36,192,515783,1,0,0:0:0:0:
182,192,515783,1,0,0:0:0:0:
109,192,515783,1,0,0:0:0:0:
402,192,516233,1,0,0:0:0:0:
475,192,516233,1,0,0:0:0:0:
329,192,516233,1,0,0:0:0:0:
36,192,516233,1,0,0:0:0:0:
182,192,516233,1,0,0:0:0:0:
402,192,516683,1,0,0:0:0:0:
475,192,516683,1,0,0:0:0:0:
329,192,516683,1,0,0:0:0:0:
182,192,516683,1,0,0:0:0:0:
36,192,516683,1,0,0:0:0:0:
182,192,516983,1,0,0:0:0:0:
256,192,516983,1,0,0:0:0:0:
329,192,516983,1,0,0:0:0:0:
329,192,517133,1,0,0:0:0:0:
402,192,517133,1,0,0:0:0:0:
475,192,517133,1,0,0:0:0:0:
109,192,517133,1,0,0:0:0:0:
182,192,517133,1,0,0:0:0:0:
36,192,517133,1,0,0:0:0:0:
182,192,518033,1,0,0:0:0:0:
36,192,518033,1,0,0:0:0:0:
329,192,518033,1,0,0:0:0:0:
475,192,518033,1,0,0:0:0:0:
109,192,518108,1,0,0:0:0:0:
256,192,518108,1,0,0:0:0:0:
329,192,518183,1,0,0:0:0:0:
182,192,518183,1,0,0:0:0:0:
402,192,518258,1,0,0:0:0:0:
256,192,518258,1,0,0:0:0:0:
475,192,518333,1,0,0:0:0:0:
329,192,518333,1,0,0:0:0:0:
402,192,518408,1,0,0:0:0:0:
256,192,518408,1,0,0:0:0:0:
182,192,518483,1,0,0:0:0:0:
329,192,518483,1,0,0:0:0:0:
256,192,518558,1,0,0:0:0:0:
109,192,518558,1,0,0:0:0:0:
182,192,518633,1,0,0:0:0:0:
36,192,518633,1,0,0:0:0:0:
329,192,518708,1,0,0:0:0:0:
475,192,518708,1,0,0:0:0:0:
256,192,518783,1,0,0:0:0:0:
402,192,518783,1,0,0:0:0:0:
182,192,518858,1,0,0:0:0:0:
329,192,518858,1,0,0:0:0:0:
402,192,518933,1,0,0:0:0:0:
475,192,518933,1,0,0:0:0:0:
36,192,518933,1,0,0:0:0:0:
109,192,518933,1,0,0:0:0:0:
256,192,518933,1,0,0:0:0:0:
182,192,519233,1,0,0:0:0:0:
182,192,519533,1,0,0:0:0:0:
256,192,519833,1,0,0:0:0:0:
109,192,519833,1,0,0:0:0:0:
329,192,520133,1,0,0:0:0:0:
182,192,520133,1,0,0:0:0:0:
402,192,520433,1,0,0:0:0:0:
256,192,520433,1,0,0:0:0:0:
475,192,520733,1,0,0:0:0:0:
329,192,520733,1,0,0:0:0:0:
182,192,521033,1,0,0:0:0:0:
182,192,521333,1,0,0:0:0:0:
475,192,521633,1,0,0:0:0:0:
329,192,521633,1,0,0:0:0:0:
109,192,521633,1,0,0:0:0:0:
182,192,521933,1,0,0:0:0:0:
402,192,522233,1,0,0:0:0:0:
256,192,522233,1,0,0:0:0:0:
182,192,522533,1,0,0:0:0:0:
36,192,522533,1,0,0:0:0:0:
329,192,522533,1,0,0:0:0:0:
475,192,522533,1,0,0:0:0:0:
402,192,522833,1,0,0:0:0:0:
402,192,523133,1,0,0:0:0:0:
329,192,523433,1,0,0:0:0:0:
475,192,523433,1,0,0:0:0:0:
182,192,523733,1,0,0:0:0:0:
402,192,524033,1,0,0:0:0:0:
256,192,524033,1,0,0:0:0:0:
36,192,524333,1,0,0:0:0:0:
109,192,524333,1,0,0:0:0:0:
329,192,524333,1,0,0:0:0:0:
475,192,524333,1,0,0:0:0:0:
182,192,524633,1,0,0:0:0:0:
256,192,524933,1,0,0:0:0:0:
182,192,525233,1,0,0:0:0:0:
109,192,525233,1,0,0:0:0:0:
329,192,525233,1,0,0:0:0:0:
475,192,525233,1,0,0:0:0:0:
475,192,525833,1,0,0:0:0:0:
402,192,525833,1,0,0:0:0:0:
182,192,525833,1,0,0:0:0:0:
256,192,525833,1,0,0:0:0:0:
36,192,526133,1,0,0:0:0:0:
109,192,526133,1,0,0:0:0:0:
475,192,526133,1,0,0:0:0:0:
256,192,526133,1,0,0:0:0:0:
329,192,526133,1,0,0:0:0:0:
402,192,526283,1,0,0:0:0:0:
182,192,526283,1,0,0:0:0:0:
109,192,526358,1,0,0:0:0:0:
329,192,526358,1,0,0:0:0:0:
475,192,526433,1,0,0:0:0:0:
402,192,526433,1,0,0:0:0:0:
36,192,526433,1,0,0:0:0:0:
256,192,526433,1,0,0:0:0:0:
329,192,526508,1,0,0:0:0:0:
109,192,526508,1,0,0:0:0:0:
402,192,526583,1,0,0:0:0:0:
182,192,526583,1,0,0:0:0:0:
475,192,526658,1,0,0:0:0:0:
256,192,526658,1,0,0:0:0:0:
402,192,526733,1,0,0:0:0:0:
182,192,526733,1,0,0:0:0:0:
329,192,526733,1,0,0:0:0:0:
36,192,526733,1,0,0:0:0:0:
109,192,526733,1,0,0:0:0:0:
256,192,526883,1,0,0:0:0:0:
402,192,526883,1,0,0:0:0:0:
109,192,526883,1,0,0:0:0:0:
182,192,526883,1,0,0:0:0:0:
475,192,527033,1,0,0:0:0:0:
36,192,527033,1,0,0:0:0:0:
329,192,527033,1,0,0:0:0:0:
182,192,527033,1,0,0:0:0:0:
256,192,527033,1,0,0:0:0:0:
402,192,527183,1,0,0:0:0:0:
329,192,527183,1,0,0:0:0:0:
256,192,527258,1,0,0:0:0:0:
475,192,527333,1,0,0:0:0:0:
402,192,527333,1,0,0:0:0:0:
182,192,527333,1,0,0:0:0:0:
109,192,527333,1,0,0:0:0:0:
402,192,527483,1,0,0:0:0:0:
256,192,527483,1,0,0:0:0:0:
329,192,527483,1,0,0:0:0:0:
36,192,527483,1,0,0:0:0:0:
109,192,527483,1,0,0:0:0:0:
256,192,527633,1,0,0:0:0:0:
475,192,527633,1,0,0:0:0:0:
36,192,527633,1,0,0:0:0:0:
182,192,527633,1,0,0:0:0:0:
329,192,527708,1,0,0:0:0:0:
182,192,527783,1,0,0:0:0:0:
475,192,527783,1,0,0:0:0:0:
402,192,527783,1,0,0:0:0:0:
109,192,527783,1,0,0:0:0:0:
329,192,527933,1,0,0:0:0:0:
402,192,527933,1,0,0:0:0:0:
256,192,527933,1,0,0:0:0:0:
36,192,527933,1,0,0:0:0:0:
109,192,527933,1,0,0:0:0:0:
36,192,528083,1,0,0:0:0:0:
475,192,528083,1,0,0:0:0:0:
182,192,528083,1,0,0:0:0:0:
109,192,528158,1,0,0:0:0:0:
475,192,528233,1,0,0:0:0:0:
329,192,528233,1,0,0:0:0:0:
402,192,528233,1,0,0:0:0:0:
36,192,528233,1,0,0:0:0:0:
182,192,528233,1,0,0:0:0:0:
256,192,528308,1,0,0:0:0:0:
402,192,528383,1,0,0:0:0:0:
109,192,528383,1,0,0:0:0:0:
329,192,528383,1,0,0:0:0:0:
182,192,528458,1,0,0:0:0:0:
109,192,528533,1,0,0:0:0:0:
475,192,528533,1,0,0:0:0:0:
256,192,528533,1,0,0:0:0:0:
36,192,528533,1,0,0:0:0:0:
182,192,528608,1,0,0:0:0:0:
402,192,528608,1,0,0:0:0:0:
36,192,528683,1,0,0:0:0:0:
109,192,528683,1,0,0:0:0:0:
475,192,528683,1,0,0:0:0:0:
256,192,528683,1,0,0:0:0:0:
329,192,528683,1,0,0:0:0:0:
402,192,528833,1,0,0:0:0:0:
475,192,528833,1,0,0:0:0:0:
329,192,528833,1,0,0:0:0:0:
182,192,528833,1,0,0:0:0:0:
109,192,528833,1,0,0:0:0:0:
36,192,528983,1,0,0:0:0:0:
475,192,529133,1,0,0:0:0:0:
329,192,529133,1,0,0:0:0:0:
182,192,529133,1,0,0:0:0:0:
36,192,529283,1,0,0:0:0:0:
475,192,529283,1,0,0:0:0:0:
402,192,529283,1,0,0:0:0:0:
109,192,529283,1,0,0:0:0:0:
256,192,529283,1,0,0:0:0:0:
109,192,529433,1,0,0:0:0:0:
329,192,529433,1,0,0:0:0:0:
182,192,529433,1,0,0:0:0:0:
182,192,529583,1,0,0:0:0:0:
402,192,529583,1,0,0:0:0:0:
256,192,529583,1,0,0:0:0:0:
36,192,529733,1,0,0:0:0:0:
109,192,529733,1,0,0:0:0:0:
475,192,529733,1,0,0:0:0:0:
256,192,529733,1,0,0:0:0:0:
329,192,529733,1,0,0:0:0:0:
402,192,529808,1,0,0:0:0:0:
182,192,529808,1,0,0:0:0:0:
475,192,529883,1,0,0:0:0:0:
256,192,529883,1,0,0:0:0:0:
329,192,529958,1,0,0:0:0:0:
109,192,529958,1,0,0:0:0:0:
36,192,530033,1,0,0:0:0:0:
402,192,530033,1,0,0:0:0:0:
182,192,530033,1,0,0:0:0:0:
256,192,530108,1,0,0:0:0:0:
109,192,530108,1,0,0:0:0:0:
475,192,530183,1,0,0:0:0:0:
36,192,530183,1,0,0:0:0:0:
182,192,530183,1,0,0:0:0:0:
329,192,530183,1,0,0:0:0:0:
402,192,530258,1,0,0:0:0:0:
256,192,530258,1,0,0:0:0:0:
109,192,530333,1,0,0:0:0:0:
182,192,530333,1,0,0:0:0:0:
329,192,530333,1,0,0:0:0:0:
475,192,530408,1,0,0:0:0:0:
36,192,530408,1,0,0:0:0:0:
182,192,530483,1,0,0:0:0:0:
256,192,530483,1,0,0:0:0:0:
402,192,530483,1,0,0:0:0:0:
329,192,530558,1,0,0:0:0:0:
109,192,530558,1,0,0:0:0:0:
182,192,530633,1,0,0:0:0:0:
402,192,530633,1,0,0:0:0:0:
475,192,530633,1,0,0:0:0:0:
256,192,530633,1,0,0:0:0:0:
36,192,530633,1,0,0:0:0:0:
329,192,530708,1,0,0:0:0:0:
109,192,530708,1,0,0:0:0:0:
402,192,530783,1,0,0:0:0:0:
36,192,530783,1,0,0:0:0:0:
182,192,530783,1,0,0:0:0:0:
256,192,530858,1,0,0:0:0:0:
109,192,530858,1,0,0:0:0:0:
329,192,530933,1,0,0:0:0:0:
36,192,530933,1,0,0:0:0:0:
182,192,530933,1,0,0:0:0:0:
402,192,531008,1,0,0:0:0:0:
256,192,531008,1,0,0:0:0:0:
109,192,531083,1,0,0:0:0:0:
182,192,531083,1,0,0:0:0:0:
36,192,531083,1,0,0:0:0:0:
329,192,531083,1,0,0:0:0:0:
475,192,531083,1,0,0:0:0:0:
402,192,531158,1,0,0:0:0:0:
256,192,531158,1,0,0:0:0:0:
475,192,531233,1,0,0:0:0:0:
36,192,531233,1,0,0:0:0:0:
329,192,531233,1,0,0:0:0:0:
182,192,531233,1,0,0:0:0:0:
109,192,531308,1,0,0:0:0:0:
256,192,531308,1,0,0:0:0:0:
402,192,531383,1,0,0:0:0:0:
182,192,531383,1,0,0:0:0:0:
36,192,531383,1,0,0:0:0:0:
329,192,531458,1,0,0:0:0:0:
475,192,531458,1,0,0:0:0:0:
109,192,531533,1,0,0:0:0:0:
182,192,531533,1,0,0:0:0:0:
36,192,531533,1,0,0:0:0:0:
402,192,531533,1,0,0:0:0:0:
256,192,531533,1,0,0:0:0:0:
329,192,531608,1,0,0:0:0:0:
475,192,531683,1,0,0:0:0:0:
256,192,531758,1,0,0:0:0:0:
402,192,531833,1,0,0:0:0:0:
36,192,531833,1,0,0:0:0:0:
109,192,531833,1,0,0:0:0:0:
182,192,531833,1,0,0:0:0:0:
329,192,531908,1,0,0:0:0:0:
256,192,531983,1,0,0:0:0:0:
182,192,532058,1,0,0:0:0:0:
475,192,532133,1,0,0:0:0:0:
36,192,532133,1,0,0:0:0:0:
402,192,532133,1,0,0:0:0:0:
109,192,532133,1,0,0:0:0:0:
329,192,532133,1,0,0:0:0:0:
256,192,532208,1,0,0:0:0:0:
182,192,532283,1,0,0:0:0:0:
109,192,532358,1,0,0:0:0:0:
402,192,532433,1,0,0:0:0:0:
475,192,532433,1,0,0:0:0:0:
329,192,532433,1,0,0:0:0:0:
36,192,532433,1,0,0:0:0:0:
256,192,532433,1,0,0:0:0:0:
182,192,532508,1,0,0:0:0:0:
109,192,532508,1,0,0:0:0:0:
329,192,532583,1,0,0:0:0:0:
256,192,532583,1,0,0:0:0:0:
475,192,532658,1,0,0:0:0:0:
402,192,532658,1,0,0:0:0:0:
182,192,532733,1,0,0:0:0:0:
109,192,532733,1,0,0:0:0:0:
36,192,532733,1,0,0:0:0:0:
329,192,532808,1,0,0:0:0:0:
256,192,532808,1,0,0:0:0:0:
475,192,532883,1,0,0:0:0:0:
402,192,532883,1,0,0:0:0:0:
109,192,532958,1,0,0:0:0:0:
36,192,532958,1,0,0:0:0:0:
475,192,533033,1,0,0:0:0:0:
329,192,533033,1,0,0:0:0:0:
182,192,533033,1,0,0:0:0:0:
329,192,533108,1,0,0:0:0:0:
475,192,533108,1,0,0:0:0:0:
109,192,533183,1,0,0:0:0:0:
402,192,533183,1,0,0:0:0:0:
256,192,533183,1,0,0:0:0:0:
402,192,533258,1,0,0:0:0:0:
256,192,533258,1,0,0:0:0:0:
182,192,533333,1,0,0:0:0:0:
109,192,533333,1,0,0:0:0:0:
475,192,533333,1,0,0:0:0:0:
36,192,533333,1,0,0:0:0:0:
329,192,533333,1,0,0:0:0:0:
402,192,533408,1,0,0:0:0:0:
256,192,533408,1,0,0:0:0:0:
329,192,533483,1,0,0:0:0:0:
475,192,533483,1,0,0:0:0:0:
402,192,533558,1,0,0:0:0:0:
182,192,533558,1,0,0:0:0:0:
475,192,533633,1,0,0:0:0:0:
256,192,533633,1,0,0:0:0:0:
109,192,533633,1,0,0:0:0:0:
329,192,533708,1,0,0:0:0:0:
36,192,533708,1,0,0:0:0:0:
256,192,533783,1,0,0:0:0:0:
475,192,533783,1,0,0:0:0:0:
182,192,533858,1,0,0:0:0:0:
402,192,533858,1,0,0:0:0:0:
329,192,533933,1,0,0:0:0:0:
36,192,533933,1,0,0:0:0:0:
256,192,534008,1,0,0:0:0:0:
109,192,534008,1,0,0:0:0:0:
475,192,534083,1,0,0:0:0:0:
182,192,534083,1,0,0:0:0:0:
109,192,534158,1,0,0:0:0:0:
402,192,534158,1,0,0:0:0:0:
182,192,534233,1,0,0:0:0:0:
475,192,534233,1,0,0:0:0:0:
329,192,534233,1,0,0:0:0:0:
36,192,534233,1,0,0:0:0:0:
256,192,534308,1,0,0:0:0:0:
402,192,534383,1,0,0:0:0:0:
182,192,534383,1,0,0:0:0:0:
109,192,534458,1,0,0:0:0:0:
256,192,534533,1,0,0:0:0:0:
329,192,534533,1,0,0:0:0:0:
36,192,534533,1,0,0:0:0:0:
182,192,534608,1,0,0:0:0:0:
475,192,534608,1,0,0:0:0:0:
109,192,534683,1,0,0:0:0:0:
402,192,534683,1,0,0:0:0:0:
36,192,534758,1,0,0:0:0:0:
329,192,534758,1,0,0:0:0:0:
402,192,534833,1,0,0:0:0:0:
475,192,534833,1,0,0:0:0:0:
256,192,534833,1,0,0:0:0:0:
36,192,534908,1,0,0:0:0:0:
109,192,534908,1,0,0:0:0:0:
329,192,534983,1,0,0:0:0:0:
182,192,534983,1,0,0:0:0:0:
402,192,535058,1,0,0:0:0:0:
256,192,535058,1,0,0:0:0:0:
109,192,535133,1,0,0:0:0:0:
182,192,535133,1,0,0:0:0:0:
329,192,535133,1,0,0:0:0:0:
475,192,535133,1,0,0:0:0:0:
402,192,535208,1,0,0:0:0:0:
36,192,535208,1,0,0:0:0:0:
329,192,535283,1,0,0:0:0:0:
109,192,535283,1,0,0:0:0:0:
475,192,535358,1,0,0:0:0:0:
182,192,535358,1,0,0:0:0:0:
36,192,535433,1,0,0:0:0:0:
402,192,535433,1,0,0:0:0:0:
256,192,535433,1,0,0:0:0:0:
329,192,535508,1,0,0:0:0:0:
109,192,535508,1,0,0:0:0:0:
36,192,535583,1,0,0:0:0:0:
402,192,535583,1,0,0:0:0:0:
182,192,535583,1,0,0:0:0:0:
475,192,535658,1,0,0:0:0:0:
256,192,535658,1,0,0:0:0:0:
109,192,535733,1,0,0:0:0:0:
329,192,535733,1,0,0:0:0:0:
36,192,535808,1,0,0:0:0:0:
182,192,535808,1,0,0:0:0:0:
475,192,535883,1,0,0:0:0:0:
402,192,535883,1,0,0:0:0:0:
256,192,535883,1,0,0:0:0:0:
109,192,535958,1,0,0:0:0:0:
329,192,535958,1,0,0:0:0:0:
182,192,536033,1,0,0:0:0:0:
256,192,536033,1,0,0:0:0:0:
475,192,536033,1,0,0:0:0:0:
36,192,536033,1,0,0:0:0:0:
109,192,536108,1,0,0:0:0:0:
402,192,536108,1,0,0:0:0:0:
182,192,536183,1,0,0:0:0:0:
329,192,536183,1,0,0:0:0:0:
36,192,536258,1,0,0:0:0:0:
256,192,536258,1,0,0:0:0:0:
402,192,536333,1,0,0:0:0:0:
475,192,536333,1,0,0:0:0:0:
182,192,536333,1,0,0:0:0:0:
109,192,536408,1,0,0:0:0:0:
329,192,536408,1,0,0:0:0:0:
36,192,536483,1,0,0:0:0:0:
402,192,536483,1,0,0:0:0:0:
329,192,536558,1,0,0:0:0:0:
182,192,536558,1,0,0:0:0:0:
475,192,536558,1,0,0:0:0:0:
402,192,536633,1,0,0:0:0:0:
109,192,536633,1,0,0:0:0:0:
256,192,536633,1,0,0:0:0:0:
36,192,536708,1,0,0:0:0:0:
329,192,536708,1,0,0:0:0:0:
182,192,536783,1,0,0:0:0:0:
402,192,536783,1,0,0:0:0:0:
109,192,536858,1,0,0:0:0:0:
475,192,536858,1,0,0:0:0:0:
402,192,536933,1,0,0:0:0:0:
36,192,536933,1,0,0:0:0:0:
256,192,536933,1,0,0:0:0:0:
329,192,536933,1,0,0:0:0:0:
475,192,537008,1,0,0:0:0:0:
182,192,537008,1,0,0:0:0:0:
329,192,537083,1,0,0:0:0:0:
36,192,537083,1,0,0:0:0:0:
402,192,537158,1,0,0:0:0:0:
109,192,537158,1,0,0:0:0:0:
475,192,537233,1,0,0:0:0:0:
182,192,537233,1,0,0:0:0:0:
329,192,537308,1,0,0:0:0:0:
109,192,537308,1,0,0:0:0:0:
36,192,537383,1,0,0:0:0:0:
402,192,537383,1,0,0:0:0:0:
256,192,537383,1,0,0:0:0:0:
182,192,537458,1,0,0:0:0:0:
329,192,537458,1,0,0:0:0:0:
109,192,537533,1,0,0:0:0:0:
402,192,537533,1,0,0:0:0:0:
36,192,537608,1,0,0:0:0:0:
329,192,537608,1,0,0:0:0:0:
256,192,537683,1,0,0:0:0:0:
182,192,537683,1,0,0:0:0:0:
402,192,537683,1,0,0:0:0:0:
109,192,537758,1,0,0:0:0:0:
475,192,537758,1,0,0:0:0:0:
402,192,537833,1,0,0:0:0:0:
182,192,537833,1,0,0:0:0:0:
256,192,537833,1,0,0:0:0:0:
36,192,537833,1,0,0:0:0:0:
109,192,537908,1,0,0:0:0:0:
329,192,537908,1,0,0:0:0:0:
182,192,537983,1,0,0:0:0:0:
402,192,537983,1,0,0:0:0:0:
256,192,538058,1,0,0:0:0:0:
475,192,538058,1,0,0:0:0:0:
182,192,538133,1,0,0:0:0:0:
329,192,538133,1,0,0:0:0:0:
36,192,538133,1,0,0:0:0:0:
402,192,538208,1,0,0:0:0:0:
109,192,538208,1,0,0:0:0:0:
475,192,538283,1,0,0:0:0:0:
182,192,538283,1,0,0:0:0:0:
109,192,538358,1,0,0:0:0:0:
402,192,538358,1,0,0:0:0:0:
182,192,538433,1,0,0:0:0:0:
36,192,538433,1,0,0:0:0:0:
329,192,538433,1,0,0:0:0:0:
402,192,538508,1,0,0:0:0:0:
256,192,538508,1,0,0:0:0:0:
329,192,538583,1,0,0:0:0:0:
475,192,538583,1,0,0:0:0:0:
182,192,538583,1,0,0:0:0:0:
256,192,538658,1,0,0:0:0:0:
109,192,538658,1,0,0:0:0:0:
475,192,538733,1,0,0:0:0:0:
182,192,538733,1,0,0:0:0:0:
36,192,538733,1,0,0:0:0:0:
329,192,538733,1,0,0:0:0:0:
109,192,538808,1,0,0:0:0:0:
402,192,538808,1,0,0:0:0:0:
36,192,538883,1,0,0:0:0:0:
329,192,538883,1,0,0:0:0:0:
402,192,538958,1,0,0:0:0:0:
256,192,538958,1,0,0:0:0:0:
329,192,539033,1,0,0:0:0:0:
182,192,539033,1,0,0:0:0:0:
36,192,539108,1,0,0:0:0:0:
475,192,539108,1,0,0:0:0:0:
256,192,539183,1,0,0:0:0:0:
109,192,539183,1,0,0:0:0:0:
402,192,539183,1,0,0:0:0:0:
182,192,539258,1,0,0:0:0:0:
329,192,539258,1,0,0:0:0:0:
475,192,539333,1,0,0:0:0:0:
256,192,539333,1,0,0:0:0:0:
402,192,539408,1,0,0:0:0:0:
36,192,539408,1,0,0:0:0:0:
475,192,539483,1,0,0:0:0:0:
329,192,539483,1,0,0:0:0:0:
109,192,539483,1,0,0:0:0:0:
402,192,539558,1,0,0:0:0:0:
182,192,539558,1,0,0:0:0:0:
109,192,539633,1,0,0:0:0:0:
329,192,539633,1,0,0:0:0:0:
256,192,539633,1,0,0:0:0:0:
36,192,539633,1,0,0:0:0:0:
402,192,539708,1,0,0:0:0:0:
182,192,539708,1,0,0:0:0:0:
475,192,539783,1,0,0:0:0:0:
256,192,539783,1,0,0:0:0:0:
36,192,539858,1,0,0:0:0:0:
329,192,539858,1,0,0:0:0:0:
182,192,539933,1,0,0:0:0:0:
109,192,539933,1,0,0:0:0:0:
402,192,539933,1,0,0:0:0:0:
36,192,540008,1,0,0:0:0:0:
329,192,540008,1,0,0:0:0:0:
475,192,540083,1,0,0:0:0:0:
109,192,540083,1,0,0:0:0:0:
402,192,540158,1,0,0:0:0:0:
182,192,540158,1,0,0:0:0:0:
475,192,540233,1,0,0:0:0:0:
329,192,540233,1,0,0:0:0:0:
256,192,540233,1,0,0:0:0:0:
36,192,540233,1,0,0:0:0:0:
402,192,540308,1,0,0:0:0:0:
109,192,540308,1,0,0:0:0:0:
329,192,540383,1,0,0:0:0:0:
182,192,540383,1,0,0:0:0:0:
475,192,540458,1,0,0:0:0:0:
256,192,540458,1,0,0:0:0:0:
109,192,540533,1,0,0:0:0:0:
36,192,540533,1,0,0:0:0:0:
182,192,540533,1,0,0:0:0:0:
329,192,540533,1,0,0:0:0:0:
402,192,540533,1,0,0:0:0:0:
256,192,540608,1,0,0:0:0:0:
182,192,540683,1,0,0:0:0:0:
475,192,540683,1,0,0:0:0:0:
109,192,540758,1,0,0:0:0:0:
402,192,540758,1,0,0:0:0:0:
329,192,540833,1,0,0:0:0:0:
256,192,540833,1,0,0:0:0:0:
36,192,540833,1,0,0:0:0:0:
109,192,540908,1,0,0:0:0:0:
402,192,540908,1,0,0:0:0:0:
329,192,540983,1,0,0:0:0:0:
182,192,540983,1,0,0:0:0:0:
475,192,540983,1,0,0:0:0:0:
402,192,541058,1,0,0:0:0:0:
256,192,541058,1,0,0:0:0:0:
36,192,541133,1,0,0:0:0:0:
475,192,541133,1,0,0:0:0:0:
329,192,541133,1,0,0:0:0:0:
256,192,541208,1,0,0:0:0:0:
109,192,541208,1,0,0:0:0:0:
402,192,541283,1,0,0:0:0:0:
182,192,541283,1,0,0:0:0:0:
475,192,541358,1,0,0:0:0:0:
256,192,541358,1,0,0:0:0:0:
109,192,541433,1,0,0:0:0:0:
402,192,541433,1,0,0:0:0:0:
329,192,541433,1,0,0:0:0:0:
36,192,541433,1,0,0:0:0:0:
475,192,541508,1,0,0:0:0:0:
182,192,541508,1,0,0:0:0:0:
256,192,541583,1,0,0:0:0:0:
109,192,541583,1,0,0:0:0:0:
402,192,541658,1,0,0:0:0:0:
36,192,541658,1,0,0:0:0:0:
182,192,541733,1,0,0:0:0:0:
475,192,541733,1,0,0:0:0:0:
329,192,541733,1,0,0:0:0:0:
109,192,541808,1,0,0:0:0:0:
256,192,541808,1,0,0:0:0:0:
36,192,541883,1,0,0:0:0:0:
182,192,541883,1,0,0:0:0:0:
256,192,541958,1,0,0:0:0:0:
109,192,541958,1,0,0:0:0:0:
475,192,542033,1,0,0:0:0:0:
182,192,542033,1,0,0:0:0:0:
329,192,542033,1,0,0:0:0:0:
109,192,542108,1,0,0:0:0:0:
402,192,542108,1,0,0:0:0:0:
256,192,542183,1,0,0:0:0:0:
475,192,542183,1,0,0:0:0:0:
329,192,542258,1,0,0:0:0:0:
36,192,542258,1,0,0:0:0:0:
256,192,542333,1,0,0:0:0:0:
475,192,542333,1,0,0:0:0:0:
109,192,542333,1,0,0:0:0:0:
402,192,542333,1,0,0:0:0:0:
329,192,542408,1,0,0:0:0:0:
182,192,542408,1,0,0:0:0:0:
36,192,542483,1,0,0:0:0:0:
256,192,542483,1,0,0:0:0:0:
109,192,542558,1,0,0:0:0:0:
402,192,542558,1,0,0:0:0:0:
475,192,542633,1,0,0:0:0:0:
182,192,542633,1,0,0:0:0:0:
329,192,542633,1,0,0:0:0:0:
402,192,542708,1,0,0:0:0:0:
109,192,542708,1,0,0:0:0:0:
329,192,542783,1,0,0:0:0:0:
475,192,542783,1,0,0:0:0:0:
256,192,542783,1,0,0:0:0:0:
109,192,542858,1,0,0:0:0:0:
36,192,542858,1,0,0:0:0:0:
402,192,542933,1,0,0:0:0:0:
256,192,542933,1,0,0:0:0:0:
182,192,542933,1,0,0:0:0:0:
36,192,543008,1,0,0:0:0:0:
329,192,543008,1,0,0:0:0:0:
109,192,543083,1,0,0:0:0:0:
402,192,543083,1,0,0:0:0:0:
256,192,543158,1,0,0:0:0:0:
475,192,543158,1,0,0:0:0:0:
109,192,543233,1,0,0:0:0:0:
402,192,543233,1,0,0:0:0:0:
182,192,543233,1,0,0:0:0:0:
36,192,543233,1,0,0:0:0:0:
475,192,543308,1,0,0:0:0:0:
256,192,543308,1,0,0:0:0:0:
182,192,543383,1,0,0:0:0:0:
329,192,543383,1,0,0:0:0:0:
256,192,543458,1,0,0:0:0:0:
36,192,543458,1,0,0:0:0:0:
182,192,543533,1,0,0:0:0:0:
402,192,543533,1,0,0:0:0:0:
109,192,543533,1,0,0:0:0:0:
475,192,543608,1,0,0:0:0:0:
329,192,543608,1,0,0:0:0:0:
402,192,543683,1,0,0:0:0:0:
256,192,543683,1,0,0:0:0:0:
329,192,543758,1,0,0:0:0:0:
182,192,543758,1,0,0:0:0:0:
36,192,543833,1,0,0:0:0:0:
256,192,543833,1,0,0:0:0:0:
109,192,543833,1,0,0:0:0:0:
182,192,543908,1,0,0:0:0:0:
475,192,543908,1,0,0:0:0:0:
256,192,543983,1,0,0:0:0:0:
402,192,543983,1,0,0:0:0:0:
109,192,544058,1,0,0:0:0:0:
329,192,544058,1,0,0:0:0:0:
475,192,544133,1,0,0:0:0:0:
402,192,544133,1,0,0:0:0:0:
256,192,544133,1,0,0:0:0:0:
182,192,544133,1,0,0:0:0:0:
329,192,544208,1,0,0:0:0:0:
36,192,544208,1,0,0:0:0:0:
402,192,544283,1,0,0:0:0:0:
109,192,544283,1,0,0:0:0:0:
475,192,544358,1,0,0:0:0:0:
182,192,544358,1,0,0:0:0:0:
402,192,544433,1,0,0:0:0:0:
36,192,544433,1,0,0:0:0:0:
256,192,544433,1,0,0:0:0:0:
329,192,544508,1,0,0:0:0:0:
109,192,544508,1,0,0:0:0:0:
402,192,544583,1,0,0:0:0:0:
182,192,544583,1,0,0:0:0:0:
475,192,544658,1,0,0:0:0:0:
256,192,544658,1,0,0:0:0:0:
36,192,544733,1,0,0:0:0:0:
109,192,544733,1,0,0:0:0:0:
329,192,544733,1,0,0:0:0:0:
402,192,544808,1,0,0:0:0:0:
182,192,544808,1,0,0:0:0:0:
475,192,544883,1,0,0:0:0:0:
256,192,544883,1,0,0:0:0:0:
109,192,544958,1,0,0:0:0:0:
329,192,544958,1,0,0:0:0:0:
36,192,545033,1,0,0:0:0:0:
182,192,545033,1,0,0:0:0:0:
402,192,545033,1,0,0:0:0:0:
475,192,545108,1,0,0:0:0:0:
256,192,545108,1,0,0:0:0:0:
36,192,545183,1,0,0:0:0:0:
329,192,545183,1,0,0:0:0:0:
109,192,545258,1,0,0:0:0:0:
402,192,545258,1,0,0:0:0:0:
256,192,545333,1,0,0:0:0:0:
182,192,545333,1,0,0:0:0:0:
475,192,545333,1,0,0:0:0:0:
109,192,545408,1,0,0:0:0:0:
402,192,545408,1,0,0:0:0:0:
36,192,545483,1,0,0:0:0:0:
329,192,545483,1,0,0:0:0:0:
475,192,545558,1,0,0:0:0:0:
256,192,545558,1,0,0:0:0:0:
36,192,545633,1,0,0:0:0:0:
182,192,545633,1,0,0:0:0:0:
402,192,545633,1,0,0:0:0:0:
109,192,545708,1,0,0:0:0:0:
329,192,545708,1,0,0:0:0:0:
36,192,545783,1,0,0:0:0:0:
256,192,545783,1,0,0:0:0:0:
475,192,545858,1,0,0:0:0:0:
182,192,545858,1,0,0:0:0:0:
402,192,545933,1,0,0:0:0:0:
109,192,545933,1,0,0:0:0:0:
329,192,545933,1,0,0:0:0:0:
36,192,546008,1,0,0:0:0:0:
256,192,546008,1,0,0:0:0:0:
402,192,546083,1,0,0:0:0:0:
182,192,546083,1,0,0:0:0:0:
475,192,546158,1,0,0:0:0:0:
329,192,546158,1,0,0:0:0:0:
109,192,546158,1,0,0:0:0:0:
402,192,546233,1,0,0:0:0:0:
256,192,546233,1,0,0:0:0:0:
36,192,546233,1,0,0:0:0:0:
329,192,546308,1,0,0:0:0:0:
182,192,546308,1,0,0:0:0:0:
256,192,546383,1,0,0:0:0:0:
109,192,546383,1,0,0:0:0:0:
182,192,546458,1,0,0:0:0:0:
36,192,546458,1,0,0:0:0:0:
329,192,546533,1,0,0:0:0:0:
475,192,546533,1,0,0:0:0:0:
109,192,546533,1,0,0:0:0:0:
256,192,546608,1,0,0:0:0:0:
402,192,546608,1,0,0:0:0:0:
182,192,546683,1,0,0:0:0:0:
329,192,546683,1,0,0:0:0:0:
109,192,546758,1,0,0:0:0:0:
256,192,546758,1,0,0:0:0:0:
402,192,546833,1,0,0:0:0:0:
36,192,546833,1,0,0:0:0:0:
182,192,546833,1,0,0:0:0:0:
256,192,546908,1,0,0:0:0:0:
475,192,546908,1,0,0:0:0:0:
109,192,546983,1,0,0:0:0:0:
402,192,546983,1,0,0:0:0:0:
182,192,547058,1,0,0:0:0:0:
329,192,547058,1,0,0:0:0:0:
475,192,547133,1,0,0:0:0:0:
109,192,547133,1,0,0:0:0:0:
256,192,547133,1,0,0:0:0:0:
402,192,547208,1,0,0:0:0:0:
36,192,547208,1,0,0:0:0:0:
182,192,547283,1,0,0:0:0:0:
475,192,547283,1,0,0:0:0:0:
256,192,547358,1,0,0:0:0:0:
402,192,547358,1,0,0:0:0:0:
182,192,547433,1,0,0:0:0:0:
329,192,547433,1,0,0:0:0:0:
402,192,547508,1,0,0:0:0:0:
109,192,547508,1,0,0:0:0:0:
256,192,547583,1,0,0:0:0:0:
36,192,547583,1,0,0:0:0:0:
329,192,547658,1,0,0:0:0:0:
475,192,547658,1,0,0:0:0:0:
36,192,547733,1,0,0:0:0:0:
182,192,547733,1,0,0:0:0:0:
109,192,547733,1,0,0:0:0:0:
402,192,547733,1,0,0:0:0:0:
256,192,547733,1,0,0:0:0:0:
182,192,548633,1,0,0:0:0:0:
109,192,548633,1,0,0:0:0:0:
402,192,548933,1,0,0:0:0:0:
329,192,549233,1,0,0:0:0:0:
109,192,549533,1,0,0:0:0:0:
256,192,549533,1,0,0:0:0:0:
182,192,549833,1,0,0:0:0:0:
36,192,550133,1,0,0:0:0:0:
256,192,550433,1,0,0:0:0:0:
109,192,550433,1,0,0:0:0:0:
329,192,550958,1,0,0:0:0:0:
402,192,551033,1,0,0:0:0:0:
402,192,551295,1,0,0:0:0:0:
256,192,551333,1,0,0:0:0:0:
475,192,551333,1,0,0:0:0:0:
182,192,552195,1,0,0:0:0:0:
256,192,552233,1,0,0:0:0:0:
36,192,552233,1,0,0:0:0:0:
475,192,552533,1,0,0:0:0:0:
402,192,552833,1,0,0:0:0:0:
182,192,553095,1,0,0:0:0:0:
36,192,553133,1,0,0:0:0:0:
329,192,553133,1,0,0:0:0:0:
329,192,554895,1,0,0:0:0:0:
475,192,554933,1,0,0:0:0:0:
109,192,555833,1,0,0:0:0:0:
256,192,555833,1,0,0:0:0:0:
475,192,556133,1,0,0:0:0:0:
329,192,556133,1,0,0:0:0:0:
256,192,556433,1,0,0:0:0:0:
36,192,556733,1,0,0:0:0:0:
182,192,556733,1,0,0:0:0:0:
109,192,557033,1,0,0:0:0:0:
36,192,557333,1,0,0:0:0:0:
329,192,557608,1,0,0:0:0:0:
182,192,557608,1,0,0:0:0:0:
256,192,558195,1,0,0:0:0:0:
402,192,558233,1,0,0:0:0:0:
329,192,558495,1,0,0:0:0:0:
182,192,558533,1,0,0:0:0:0:
475,192,558533,1,0,0:0:0:0:
182,192,559395,1,0,0:0:0:0:
36,192,559433,1,0,0:0:0:0:
475,192,559733,1,0,0:0:0:0:
402,192,560033,1,0,0:0:0:0:
182,192,560295,1,0,0:0:0:0:
36,192,560333,1,0,0:0:0:0:
329,192,560333,1,0,0:0:0:0:
