osu file format v14

[General]
AudioFilename: audio.mp3
AudioLeadIn: 0
PreviewTime: 13157
Countdown: 0
SampleSet: Soft
StackLeniency: 0.5
Mode: 0
LetterboxInBreaks: 1
EpilepsyWarning: 1
WidescreenStoryboard: 1

[Editor]
DistanceSpacing: 1.2
BeatDivisor: 4
GridSize: 32
TimelineZoom: 0.9999996

[Metadata]
Title:Quintuplets On My Line (feat. Kariyu)
TitleUnicode:Quintuplets On My Line (feat. Kariyu)
Artist:osu! virgin gang
ArtistUnicode:osu! virgin gang
Creator:Azunyan-
Version:Nino Gang
Source:五等分の花嫁∬
Tags:Gotoubun no Hanayome season 2 two the quintessential 五等分の花嫁 中野家の五つ子 Nakanoke Itsutsugo anime opening 五等分のカタチ Katachi english japanese girls thighs hip hop rap pop jump map meme ovg! Kinori kinori3 Pinecone thepinecone461 Kariyu Mayu Sakuma Xexyz
BeatmapID:3237842
BeatmapSetID:1585183

[Difficulty]
HPDrainRate:5.5
CircleSize:4
OverallDifficulty:8.5
ApproachRate:9.3
SliderMultiplier:3.4
SliderTickRate:1

[Events]
//Background and Video events
0,0,"nino my mommy.jpg",0,0
//Break Periods
2,88191,91103
//Storyboard Layer 0 (Background)
//Storyboard Layer 1 (Fail)
//Storyboard Layer 2 (Pass)
//Storyboard Layer 3 (Foreground)
//Storyboard Layer 4 (Overlay)
//Storyboard Sound Samples

[TimingPoints]
2658,666.666666666667,4,2,1,60,1,0
17324,-111.111111111111,4,2,1,55,0,0
17657,-125,4,2,1,50,0,0
17991,-142.857142857143,4,2,1,45,0,0
18657,-100,4,2,1,60,0,0
27991,-111.111111111111,4,2,1,55,0,0
28324,-125,4,2,1,50,0,0
28657,-142.857142857143,4,2,1,45,0,0
29324,-100,4,2,1,60,0,0
34574,-100,4,2,99,5,0,0
34657,-100,4,2,1,60,0,0
38657,-71.4285714285714,4,2,1,60,0,0
38907,-71.4285714285714,4,2,99,5,0,0
38991,-71.4285714285714,4,2,1,60,0,0
39241,-71.4285714285714,4,2,99,5,0,0
39324,-71.4285714285714,4,2,1,60,0,0
39574,-71.4285714285714,4,2,99,5,0,0
39657,-71.4285714285714,4,2,1,60,0,0
39991,-100,4,2,1,60,0,0
45657,-125,4,2,1,60,0,0
46824,-125,4,2,1,40,0,0
46907,-125,4,2,1,60,0,0
47074,-125,4,2,1,40,0,0
47157,-125,4,2,1,60,0,0
47574,-125,4,2,1,40,0,0
47657,-125,4,2,1,60,0,0
47907,-125,4,2,1,40,0,0
47991,-125,4,2,1,60,0,0
50241,-125,4,2,1,40,0,0
50324,-125,4,2,1,60,0,0
50574,-125,4,2,1,40,0,0
50657,-125,4,2,1,60,0,0
52907,-125,4,2,1,40,0,0
52991,-125,4,2,1,60,0,0
53241,-125,4,2,1,40,0,0
53324,-125,4,2,1,60,0,0
55991,-100,4,2,1,60,0,0
61907,-100,4,2,99,5,0,0
61991,-100,4,2,1,60,0,0
63907,-100,4,2,99,5,0,0
63991,-100,4,2,1,60,0,0
68657,-71.4285714285714,4,2,1,60,0,0
68907,-71.4285714285714,4,2,99,5,0,0
68991,-71.4285714285714,4,2,1,60,0,0
69241,-71.4285714285714,4,2,99,5,0,0
69324,-100,4,2,1,60,0,0
78657,-166.666666666667,4,2,1,60,0,0
79324,-100,4,2,1,60,0,0

[Colours]
Combo1 : 255,168,255
Combo2 : 255,85,170
Combo3 : 204,113,102
Combo4 : 255,128,64
Combo5 : 255,100,100

[HitObjects]
182,372,13324,5,6,0:3:0:0:
156,229,13490,1,0,0:0:0:0:
260,330,13657,1,2,0:0:0:0:
117,309,13824,1,4,0:3:0:0:
245,241,13991,2,0,P|324:214|356:208,1,85,8|0,0:0|0:0,0:0:0:0:
429,264,14324,1,2,0:0:0:0:
335,235,14491,1,0,0:0:0:0:
439,77,14657,5,2,0:0:0:0:
478,184,14824,1,8,0:0:0:0:
456,64,14991,1,6,0:3:0:0:
495,171,15158,1,0,0:0:0:0:
340,101,15324,2,0,P|216:75|158:69,1,170,8|0,0:0|0:0,0:0:0:0:
173,70,15824,1,0,0:0:0:0:
21,51,15991,5,6,0:3:0:0:
156,164,16157,1,0,0:0:0:0:
0,141,16324,1,2,0:0:0:0:
177,74,16491,1,8,0:3:0:0:
129,275,16657,1,10,0:0:0:0:
129,275,16824,1,0,0:0:0:0:
278,168,16991,1,2,0:0:0:0:
156,164,17157,1,8,0:0:0:0:
278,168,17324,6,0,L|356:150,1,76.4999976654053,2|0,0:0|0:0,0:0:0:0:
195,259,17657,2,0,L|120:276,1,68,2|0,0:0|0:0,0:0:0:0:
277,333,17991,2,0,L|355:315,1,59.4999981842042,2|0,0:0|0:0,0:0:0:0:
193,352,18324,1,2,0:0:0:0:
193,352,18491,1,2,0:0:0:0:
32,220,18657,5,6,0:3:0:0:
82,339,18824,1,0,0:0:0:0:
8,121,18991,1,2,0:0:0:0:
59,241,19157,1,4,0:3:0:0:
8,121,19324,1,10,0:0:0:0:
194,172,19491,5,2,0:0:0:0:
161,73,19657,1,8,0:3:0:0:
244,11,19824,1,0,0:0:0:0:
298,170,19991,5,2,0:0:0:0:
161,73,20157,1,0,0:0:0:0:
328,71,20324,1,6,0:3:0:0:
194,172,20491,1,0,0:0:0:0:
244,11,20657,1,8,0:0:0:0:
298,170,20824,5,2,0:0:0:0:
411,147,20991,1,0,0:0:0:0:
286,191,21157,1,8,0:0:0:0:
422,326,21324,5,6,0:3:0:0:
286,191,21491,1,0,0:0:0:0:
393,219,21657,1,2,0:0:0:0:
208,268,21824,1,4,0:3:0:0:
130,345,21991,6,0,P|56:344|7:253,1,170,8|4,0:0|0:3,0:0:0:0:
6,269,22491,1,2,0:0:0:0:
34,57,22657,5,0,0:0:0:0:
19,169,22824,1,0,0:0:0:0:
279,63,22991,1,6,0:3:0:0:
159,168,23157,1,0,0:0:0:0:
363,298,23324,1,10,0:0:0:0:
363,298,23657,2,0,L|404:188,1,85
261,38,23991,5,6,0:3:0:0:
261,260,24158,1,0,0:0:0:0:
392,81,24324,1,2,0:0:0:0:
181,149,24491,1,4,0:3:0:0:
392,218,24657,2,0,L|491:198,1,85,8|0,0:0|0:0,0:0:0:0:
164,172,24991,1,10,0:1:0:0:
297,136,25157,1,8,0:1:0:0:
62,10,25324,5,2,0:0:0:0:
94,106,25491,1,0,0:0:0:0:
40,274,25657,1,6,0:3:0:0:
8,178,25824,1,0,0:0:0:0:
161,32,25991,2,0,P|230:10|260:6,1,85,8|4,0:0|0:3,0:0:0:0:
346,34,26324,1,2,0:0:0:0:
446,64,26491,1,0,0:0:0:0:
225,154,26657,5,6,0:3:0:0:
377,129,26824,1,0,0:0:0:0:
223,140,26991,1,2,0:0:0:0:
378,142,27158,1,4,0:3:0:0:
133,137,27324,2,0,P|143:177|161:216,1,85,8|0,0:0|0:0,0:0:0:0:
221,328,27657,1,10,0:1:0:0:
284,221,27824,1,0,0:0:0:0:
100,318,27991,6,0,L|7:294,1,76.4999976654053,2|0,0:0|0:0,0:0:0:0:
95,199,28324,2,0,L|169:218,1,68,2|0,0:0|0:0,0:0:0:0:
57,111,28657,2,0,L|-8:94,1,59.4999981842042,2|0,0:0|0:0,0:0:0:0:
116,27,28991,1,0,0:0:0:0:
116,27,29157,1,2,0:0:0:0:
254,244,29324,5,6,0:3:0:0:
160,215,29490,1,0,0:0:0:0:
303,81,29657,1,2,0:0:0:0:
325,177,29823,1,4,0:3:0:0:
138,119,29991,1,10,0:0:0:0:
209,52,30157,1,0,0:0:0:0:
397,110,30324,5,10,0:1:0:0:
231,148,30491,1,8,0:1:0:0:
477,227,30657,2,0,L|500:119,1,85,0|8,0:0|0:0,0:0:0:0:
322,301,30991,2,0,L|304:384,1,85,6|0,0:3|0:0,0:0:0:0:
70,221,31324,1,10,0:0:0:0:
232,267,31491,1,4,0:3:0:0:
66,242,31657,1,2,0:0:0:0:
235,245,31824,1,8,0:0:0:0:
90,26,31991,5,6,0:3:0:0:
26,138,32157,1,0,0:0:0:0:
191,16,32324,1,2,0:0:0:0:
127,128,32490,1,8,0:3:0:0:
380,148,32657,5,10,0:0:0:0:
230,95,32824,1,0,0:0:0:0:
462,108,32991,1,2,0:0:0:0:
279,195,33157,1,8,0:0:0:0:
319,16,33324,6,0,L|440:40,1,85
179,262,33657,2,0,L|300:286,1,85,4|0,0:3|0:0,0:0:0:0:
389,302,33991,1,8,0:0:0:0:
389,302,34157,1,8,0:1:0:0:
101,343,34324,2,0,P|67:276|71:208,1,127.5,2|0,0:0|0:0,0:0:0:0:
69,227,34657,38,0,L|86:126,1,85,4|0,0:3|0:0,0:0:0:0:
175,23,34991,1,2,0:0:0:0:
234,171,35157,1,4,0:3:0:0:
0,162,35324,2,0,L|121:134,1,85,8|0,0:0|0:0,0:0:0:0:
333,46,35657,1,8,0:1:0:0:
175,23,35824,1,8,0:1:0:0:
324,67,35991,6,0,P|379:62|430:34,1,85,2|0,0:0|0:0,0:0:0:0:
289,233,36324,2,0,P|257:187|207:157,1,85,4|0,0:3|0:0,0:0:0:0:
451,181,36657,2,0,P|427:231|426:289,1,85,8|4,0:0|0:3,0:0:0:0:
339,374,36991,1,0,0:0:0:0:
339,374,37157,1,0,0:0:0:0:
142,294,37324,53,6,0:3:0:0:
289,233,37491,1,0,0:0:0:0:
14,331,37657,1,2,0:0:0:0:
161,270,37824,1,4,0:3:0:0:
25,133,37991,2,0,P|7:167|-6:231,1,85,8|0,0:0|0:0,0:0:0:0:
182,90,38324,2,0,P|161:57|112:14,1,85,8|0,0:1|0:0,0:0:0:0:
161,270,38657,6,0,B|191:326|254:329|254:329|250:299|280:261,1,178.499994552612,4|0,0:3|0:0,0:0:0:0:
350,90,38991,2,0,B|286:87|252:141|252:141|280:152|298:197,1,178.499994552612,4|0,0:3|0:0,0:0:0:0:
411,343,39324,2,0,B|444:289|415:232|415:232|391:251|343:244,1,178.499994552612,4|0,0:3|0:0,0:0:0:0:
272,270,39657,1,4,0:3:0:0:
272,270,39824,1,0,0:0:0:0:
429,139,39991,54,0,L|550:164,1,85,4|0,0:3|0:0,0:0:0:0:
296,22,40324,2,0,L|212:4,1,85,2|0,0:0|0:0,0:0:0:0:
49,181,40657,2,0,P|123:94|94:70,1,170,8|8,0:0|0:1,0:0:0:0:
17,0,41157,1,8,0:1:0:0:
32,198,41324,6,0,L|63:310,1,85
262,118,41657,1,4,0:3:0:0:
238,230,41824,1,0,0:0:0:0:
262,118,41991,1,8,0:0:0:0:
348,310,42158,2,0,P|410:289|533:253,1,170,4|0,0:3|0:0,0:0:0:0:
491,91,42657,53,6,0:3:0:0:
410,271,42824,1,0,0:0:0:0:
300,0,42991,1,2,0:0:0:0:
332,195,43157,1,4,0:3:0:0:
506,85,43324,1,10,0:0:0:0:
425,265,43491,1,0,0:0:0:0:
389,34,43657,1,10,0:1:0:0:
389,34,43824,1,10,0:1:0:0:
229,136,43991,6,0,L|124:120,1,85,2|0,0:0|0:0,0:0:0:0:
0,102,44324,1,4,0:3:0:0:
84,0,44491,1,0,0:0:0:0:
155,147,44657,2,0,P|150:197|133:261,1,85,8|4,0:0|0:3,0:0:0:0:
113,379,44991,1,0,0:0:0:0:
113,379,45157,1,0,0:0:0:0:
11,267,45324,5,2,0:0:0:0:
11,267,45657,2,0,L|161:225,1,136,2|8,0:0|0:0,0:0:0:0:
160,211,46324,1,0,0:0:0:0:
160,211,46491,1,0,0:0:0:0:
264,312,46657,6,0,P|301:324|354:325,1,68,2|0,0:0|0:0,0:0:0:0:
431,191,46907,54,0,P|401:217|374:261,1,68,2|0,0:0|0:0,0:0:0:0:
430,327,47157,5,2,0:0:0:0:
295,143,47324,54,0,L|315:21,1,102,8|0,0:0|0:0,0:0:0:0:
328,31,47657,2,0,L|306:156,1,102
260,234,47991,6,0,P|197:229|175:220,1,68,2|0,0:0|0:0,0:0:0:0:
111,52,48324,2,0,P|141:116|145:142,1,68,2|0,0:0|0:0,0:0:0:0:
26,269,48657,2,0,P|67:208|88:191,1,68,10|0,0:0|0:0,0:0:0:0:
140,112,48991,1,2,0:0:0:0:
140,112,49157,1,0,0:0:0:0:
192,227,49324,54,0,L|170:338,1,68,2|0,0:0|0:0,0:0:0:0:
272,345,49657,2,0,L|288:261,1,68,2|0,0:0|0:0,0:0:0:0:
351,129,49991,2,0,P|391:196|442:209,1,102,8|0,0:0|0:0,0:0:0:0:
446,116,50324,2,0,P|367:117|331:154,1,102,2|0,0:0|0:0,0:0:0:0:
265,164,50657,6,0,L|158:133,1,68,2|0,0:0|0:0,0:0:0:0:
104,70,50991,1,2,0:0:0:0:
104,70,51157,1,0,0:0:0:0:
59,241,51324,2,0,P|40:176|39:136,1,68,10|0,0:0|0:0,0:0:0:0:
104,70,51657,1,2,0:0:0:0:
104,70,51823,1,0,0:0:0:0:
199,145,51991,54,0,L|213:61,1,68,2|0,0:0|0:0,0:0:0:0:
334,30,52324,2,0,L|319:113,1,68,2|0,0:0|0:0,0:0:0:0:
372,280,52657,2,0,P|317:239|293:196,1,102,8|0,0:0|0:0,0:0:0:0:
395,182,52991,2,0,P|386:249|361:292,1,102,2|0,0:0|0:0,0:0:0:0:
314,348,53324,6,0,L|210:322,1,68,2|0,0:0|0:0,0:0:0:0:
158,255,53657,1,2,0:0:0:0:
158,255,53824,1,0,0:0:0:0:
92,357,53991,2,0,P|35:327|-4:296,1,68,10|0,0:0|0:0,0:0:0:0:
43,192,54324,1,2,0:0:0:0:
43,192,54491,1,0,0:0:0:0:
158,255,54657,54,0,L|252:278,1,68,2|0,0:0|0:0,0:0:0:0:
223,134,54907,6,0,L|156:117,1,68,2|0,0:0|0:0,0:0:0:0:
169,238,55157,54,0,L|216:249,1,34,2|0,0:0|0:0,0:0:0:0:
302,199,55324,2,0,P|323:153|330:116,1,68,8|0,0:0|0:0,0:0:0:0:
393,296,55657,2,0,P|403:328|418:358,1,68,2|0,0:0|0:0,0:0:0:0:
512,111,55991,6,0,P|453:89|408:84,1,85,4|0,0:3|0:0,0:0:0:0:
223,134,56324,1,2,0:0:0:0:
327,136,56491,1,4,0:3:0:0:
109,55,56657,53,10,0:0:0:0:
156,230,56824,1,0,0:0:0:0:
124,52,56991,1,2,0:0:0:0:
140,232,57158,1,0,0:0:0:0:
213,37,57324,5,2,0:0:0:0:
38,84,57491,1,0,0:0:0:0:
216,52,57657,1,6,0:3:0:0:
36,68,57824,1,0,0:0:0:0:
234,158,57991,54,0,L|340:181,1,85,8|4,0:0|0:3,0:0:0:0:
83,288,58324,2,0,L|0:269,1,85
247,376,58657,5,6,0:3:0:0:
199,253,58824,1,0,0:0:0:0:
429,166,58991,1,2,0:0:0:0:
364,305,59157,1,4,0:3:0:0:
429,166,59324,2,0,L|403:57,1,85,10|0,0:0|0:0,0:0:0:0:
289,1,59657,1,2,0:0:0:0:
289,1,59824,1,0,0:0:0:0:
142,163,59991,54,0,P|201:138|238:128,1,85,2|0,0:0|0:0,0:0:0:0:
39,14,60324,1,6,0:3:0:0:
187,50,60491,1,0,0:0:0:0:
23,117,60657,1,10,0:0:0:0:
206,48,60824,1,4,0:3:0:0:
8,110,60991,2,0,L|32:217,1,85,2|0,0:0|0:0,0:0:0:0:
94,365,61324,5,6,0:3:0:0:
254,193,61491,1,0,0:0:0:0:
338,349,61657,2,0,B|302:321|302:321|195:341,1,127.5
115,247,61991,2,0,L|298:209,1,170,8|4,0:0|0:3,0:0:0:0:
433,238,62491,1,0,0:0:0:0:
393,67,62657,53,2,0:0:0:0:
290,235,62824,1,0,0:0:0:0:
208,0,62991,1,6,0:3:0:0:
338,149,63157,1,0,0:0:0:0:
84,195,63324,1,10,0:0:0:0:
273,76,63491,1,4,0:3:0:0:
23,0,63657,2,0,B|-3:42|-3:42|21:136,1,127.5,2|0,0:0|0:0,0:0:0:0:
84,195,63991,6,0,L|118:305,1,85,4|0,0:3|0:0,0:0:0:0:
304,2,64324,1,2,0:0:0:0:
244,154,64491,1,4,0:3:0:0:
290,0,64657,1,10,0:0:0:0:
257,158,64824,1,0,0:0:0:0:
449,81,64991,1,4,0:3:0:0:
449,81,65074,1,8,0:1:0:0:
449,81,65158,1,8,0:1:0:0:
412,231,65324,54,0,L|387:343,1,85,2|0,0:0|0:0,0:0:0:0:
158,200,65657,1,6,0:3:0:0:
361,123,65824,1,0,0:0:0:0:
135,49,65991,1,10,0:0:0:0:
181,290,66157,1,4,0:3:0:0:
138,52,66324,2,0,L|117:162,1,85,2|0,0:0|0:0,0:0:0:0:
152,381,66657,5,4,0:3:0:0:
122,135,66824,1,0,0:0:0:0:
289,317,66991,1,2,0:0:0:0:
46,268,67157,1,4,0:3:0:0:
270,166,67324,2,0,P|309:167|375:187,1,85,10|0,0:0|0:0,0:0:0:0:
487,247,67657,1,10,0:1:0:0:
289,317,67824,1,8,0:1:0:0:
368,94,67991,6,0,L|347:213,1,85
289,317,68324,1,4,0:3:0:0:
289,317,68491,1,0,0:0:0:0:
50,181,68657,38,0,B|70:120|131:118|131:118|144:149|188:164,1,178.499994552612,4|0,0:3|0:0,0:0:0:0:
224,380,68991,2,0,B|161:393|128:341|128:341|149:314|140:268,1,178.499994552612,4|0,0:3|0:0,0:0:0:0:
261,253,69324,5,6,0:3:0:0:
261,253,69491,1,0,0:0:0:0:
181,162,69657,1,2,0:0:0:0:
141,277,69824,1,4,0:3:0:0:
318,135,69991,2,0,L|427:169,1,85,8|0,0:0|0:0,0:0:0:0:
220,48,70324,1,8,0:1:0:0:
320,158,70491,1,0,0:0:0:0:
121,78,70657,5,2,0:0:0:0:
311,16,70824,1,0,0:0:0:0:
117,61,70991,1,6,0:3:0:0:
314,32,71158,1,0,0:0:0:0:
42,146,71324,2,0,P|11:91|-2:44,1,85,8|4,0:0|0:3,0:0:0:0:
219,228,71657,2,0,P|186:282|152:317,1,85,2|0,0:0|0:0,0:0:0:0:
18,256,71991,37,4,0:3:0:0:
172,298,72157,1,0,0:0:0:0:
346,169,72324,1,2,0:0:0:0:
192,127,72490,1,4,0:3:0:0:
326,340,72657,1,10,0:0:0:0:
326,340,72824,1,0,0:0:0:0:
219,228,72991,1,10,0:1:0:0:
421,130,73157,1,8,0:1:0:0:
231,33,73324,5,2,0:0:0:0:
308,245,73491,1,0,0:0:0:0:
142,16,73657,1,6,0:3:0:0:
219,228,73824,1,0,0:0:0:0:
54,2,73991,2,0,L|31:92,1,85,8|4,0:0|0:3,0:0:0:0:
219,228,74324,2,0,L|240:145,1,85
0,233,74657,5,6,0:3:0:0:
140,112,74824,1,0,0:0:0:0:
279,320,74991,1,2,0:0:0:0:
73,171,75157,1,4,0:3:0:0:
0,356,75324,2,0,L|95:322,1,85,8|0,0:0|0:0,0:0:0:0:
215,224,75657,1,2,0:0:0:0:
215,224,75824,1,0,0:0:0:0:
279,320,75991,38,0,P|332:297|395:285,1,85,2|0,0:0|0:0,0:0:0:0:
248,116,76324,2,0,P|241:173|220:233,1,85,4|0,0:3|0:0,0:0:0:0:
440,191,76657,2,0,P|393:156|351:108,1,85,8|4,0:0|0:3,0:0:0:0:
279,320,76991,2,0,P|332:297|395:285,1,85,2|0,0:0|0:0,0:0:0:0:
428,74,77324,5,6,0:3:0:0:
379,270,77491,1,0,0:0:0:0:
231,25,77657,1,2,0:0:0:0:
182,221,77824,1,4,0:3:0:0:
231,25,77991,1,8,0:0:0:0:
13,125,78157,5,2,0:0:0:0:
216,120,78324,1,10,0:1:0:0:
216,120,78491,1,10,0:1:0:0:
71,326,78657,38,0,L|115:111,1,203.999993774414,2|0,0:0|0:0,0:0:0:0:
231,25,79491,2,0,B|181:0|181:0|132:19,2,85,2|0|0,0:0|0:0|0:0,0:0:0:0:
328,174,79991,5,6,0:3:0:0:
209,118,80157,1,0,0:0:0:0:
331,163,80324,1,2,0:0:0:0:
205,128,80491,1,4,0:3:0:0:
363,26,80657,1,8,0:0:0:0:
455,212,80824,5,2,0:0:0:0:
287,80,80991,1,8,0:1:0:0:
477,204,81157,1,0,0:0:0:0:
259,269,81324,37,2,0:0:0:0:
280,265,81490,1,0,0:0:0:0:
162,196,81657,1,6,0:3:0:0:
157,358,81824,1,0,0:0:0:0:
178,355,81990,1,8,0:0:0:0:
17,261,82157,5,4,0:3:0:0:
143,275,82324,1,0,0:0:0:0:
6,277,82491,1,0,0:0:0:0:
10,67,82657,5,4,0:3:0:0:
143,275,82824,1,0,0:0:0:0:
252,69,82991,1,8,0:1:0:0:
231,72,83075,1,8,0:1:0:0:
210,75,83157,1,4,0:3:0:0:
85,166,83324,1,10,0:0:0:0:
275,66,83491,1,0,0:0:0:0:
376,273,83657,1,10,0:1:0:0:
153,134,83824,1,8,0:1:0:0:
373,12,83991,6,0,L|353:134,1,85,2|0,0:0|0:0,0:0:0:0:
248,180,84324,1,4,0:3:0:0:
392,27,84491,1,2,0:0:0:0:
376,121,84657,1,8,0:0:0:0:
307,283,84824,37,6,0:3:0:0:
475,257,84991,1,0,0:0:0:0:
307,283,85157,1,0,0:0:0:0:
490,275,85324,6,0,L|513:152,1,85,4|0,0:3|0:0,0:0:0:0:
322,366,85657,2,0,L|299:243,1,85,2|4,0:3|0:3,0:0:0:0:
199,134,85991,1,8,0:0:0:0:
83,253,86157,1,0,0:0:0:0:
306,282,86324,1,8,0:1:0:0:
174,263,86491,1,8,0:1:0:0:
66,113,86657,5,2,0:0:0:0:
155,59,86824,1,0,0:0:0:0:
276,145,86991,1,4,0:3:0:0:
368,188,87157,1,0,0:0:0:0:
276,145,87324,1,8,0:0:0:0:
421,45,87491,37,6,0:3:0:0:
368,188,87657,1,2,0:0:0:0:
158,36,87824,1,2,0:0:0:0:
83,253,87991,1,2,0:0:0:0:
256,192,91657,5,4,0:3:0:0:
