osu file format v14

[General]
AudioFilename: audio.mp3
AudioLeadIn: 0
PreviewTime: 13157
Countdown: 0
SampleSet: Soft
StackLeniency: 0.7
Mode: 0
LetterboxInBreaks: 1
EpilepsyWarning: 1
WidescreenStoryboard: 1

[Editor]
Bookmarks: 87991
DistanceSpacing: 1.2
BeatDivisor: 4
GridSize: 32
TimelineZoom: 2.2

[Metadata]
Title:Quintuplets On My Line (feat. Kariyu)
TitleUnicode:Quintuplets On My Line (feat. Kariyu)
Artist:osu! virgin gang
ArtistUnicode:osu! virgin gang
Creator:Azunyan-
Version:Insane
Source:五等分の花嫁∬
Tags:Gotoubun no Hanayome season 2 two the quintessential 五等分の花嫁 中野家の五つ子 Nakanoke Itsutsugo anime opening 五等分のカタチ Katachi english japanese girls thighs hip hop rap pop jump map meme ovg! Kinori kinori3 Pinecone thepinecone461 Kariyu Mayu Sakuma Xexyz
BeatmapID:3246628
BeatmapSetID:1585183

[Difficulty]
HPDrainRate:5
CircleSize:3.6
OverallDifficulty:8
ApproachRate:9
SliderMultiplier:3.2
SliderTickRate:1

[Events]
//Background and Video events
0,0,"nino my mommy.jpg",0,0
//Break Periods
2,88191,91058
//Storyboard Layer 0 (Background)
//Storyboard Layer 1 (Fail)
//Storyboard Layer 2 (Pass)
//Storyboard Layer 3 (Foreground)
//Storyboard Layer 4 (Overlay)
//Storyboard Sound Samples

[TimingPoints]
2658,666.666666666667,4,2,1,60,1,0
17324,-125,4,2,1,55,0,0
17658,-142.857142857143,4,2,1,50,0,0
17991,-166.666666666667,4,2,1,45,0,0
18658,-100,4,2,1,60,0,0
27991,-125,4,2,1,55,0,0
28324,-142.857142857143,4,2,1,50,0,0
28658,-166.666666666667,4,2,1,45,0,0
29324,-100,4,2,1,60,0,0
34574,-100,4,2,99,5,0,0
34658,-100,4,2,1,60,0,0
38908,-100,4,2,99,5,0,0
38991,-100,4,2,1,60,0,0
39241,-100,4,2,99,5,0,0
39324,-100,4,2,1,60,0,0
39574,-100,4,2,99,5,0,0
39658,-100,4,2,1,60,0,0
45658,-125,4,2,1,60,0,0
46824,-125,4,2,1,40,0,0
46907,-125,4,2,1,60,0,0
47074,-125,4,2,1,40,0,0
47157,-125,4,2,1,60,0,0
47324,-125,4,2,1,60,0,0
47574,-125,4,2,1,40,0,0
47657,-125,4,2,1,60,0,0
47907,-125,4,2,1,40,0,0
47991,-125,4,2,1,60,0,0
50241,-125,4,2,1,40,0,0
50324,-125,4,2,1,60,0,0
50574,-125,4,2,1,40,0,0
50657,-125,4,2,1,60,0,0
52907,-125,4,2,1,40,0,0
52991,-125,4,2,1,60,0,0
53241,-125,4,2,1,40,0,0
53324,-125,4,2,1,60,0,0
55991,-100,4,2,1,60,0,0
61907,-100,4,2,99,5,0,0
61991,-100,4,2,1,60,0,0
63907,-100,4,2,99,5,0,0
63991,-100,4,2,1,60,0,0
68908,-100,4,2,99,5,0,0
68991,-100,4,2,1,60,0,0
69241,-100,4,2,99,5,0,0
69324,-100,4,2,1,60,0,0
78658,-142.857142857143,4,2,1,60,0,0
79491,-100,4,2,1,60,0,0

[Colours]
Combo1 : 255,168,255
Combo2 : 255,85,170
Combo3 : 204,113,102
Combo4 : 255,128,64
Combo5 : 255,100,100

[HitObjects]
446,356,13324,6,0,L|474:244,1,80,6|0,0:3|0:0,0:0:0:0:
410,192,13658,1,2,0:0:0:0:
465,278,13824,1,4,0:3:0:0:
392,176,13991,2,0,P|330:189|236:215,1,160,8|2,0:0|0:0,0:0:0:0:
136,173,14491,5,0,0:0:0:0:
45,225,14658,1,2,0:0:0:0:
138,283,14824,1,8,0:0:0:0:
45,225,14991,2,0,L|25:147,1,80,6|0,0:3|0:0,0:0:0:0:
113,44,15324,2,0,B|205:22|176:85|303:68,1,160,8|0,0:0|0:0,0:0:0:0:
351,9,15824,1,0,0:0:0:0:
409,136,15991,5,6,0:3:0:0:
445,46,16158,1,0,0:0:0:0:
425,151,16324,1,2,0:0:0:0:
461,61,16491,1,8,0:3:0:0:
484,227,16658,1,10,0:0:0:0:
484,227,16824,1,0,0:0:0:0:
328,163,16991,2,0,L|233:183,1,80,2|8,0:0|0:0,0:0:0:0:
123,220,17324,6,0,L|184:236,1,64,2|0,0:0|0:0,0:0:0:0:
286,294,17658,2,0,L|207:308,1,55.9999982910157,2|0,0:0|0:0,0:0:0:0:
151,346,17991,2,0,L|257:324,1,95.9999970703126,2|2,0:0|0:0,0:0:0:0:
358,260,18491,1,2,0:0:0:0:
460,345,18658,5,6,0:3:0:0:
460,345,18824,1,0,0:0:0:0:
491,145,18991,1,2,0:0:0:0:
447,236,19158,1,4,0:3:0:0:
504,162,19324,1,10,0:0:0:0:
376,96,19491,2,0,L|399:172,2,80,2|8|0,0:0|0:3|0:0,0:0:0:0:
301,20,19991,5,2,0:0:0:0:
301,20,20158,1,0,0:0:0:0:
194,169,20324,1,6,0:3:0:0:
287,121,20491,1,0,0:0:0:0:
201,41,20658,2,0,L|114:26,1,80,8|2,0:0|0:0,0:0:0:0:
16,155,20991,2,0,L|94:168,1,80,0|8,0:0|0:0,0:0:0:0:
194,169,21324,5,6,0:3:0:0:
110,195,21490,1,0,0:0:0:0:
225,251,21658,1,2,0:0:0:0:
141,277,21824,1,4,0:3:0:0:
256,333,21991,6,0,P|335:344|421:361,1,160,8|4,0:0|0:3,0:0:0:0:
512,255,22491,1,2,0:0:0:0:
392,282,22658,2,0,L|422:393,1,80
492,229,22991,2,0,L|512:151,1,80,6|0,0:3|0:0,0:0:0:0:
418,61,23324,2,0,P|341:59|254:100,1,160,10|0,0:0|0:0,0:0:0:0:
99,247,23991,5,6,0:3:0:0:
7,121,24158,1,0,0:0:0:0:
155,169,24324,1,2,0:0:0:0:
7,217,24491,1,4,0:3:0:0:
99,91,24658,2,0,L|121:-15,1,80,8|0,0:0|0:0,0:0:0:0:
155,169,24991,5,10,0:1:0:0:
155,169,25158,1,8,0:1:0:0:
265,90,25324,2,0,L|360:64,1,80,2|0,0:0|0:0,0:0:0:0:
485,172,25658,2,0,L|407:193,1,80,6|0,0:3|0:0,0:0:0:0:
315,324,25991,2,0,P|201:290|130:278,1,160,8|2,0:0|0:0,0:0:0:0:
59,326,26491,1,0,0:0:0:0:
38,147,26658,5,6,0:3:0:0:
134,193,26824,1,0,0:0:0:0:
24,159,26991,1,2,0:0:0:0:
120,205,27157,1,4,0:3:0:0:
0,244,27324,1,8,0:0:0:0:
134,193,27491,2,0,P|150:144|156:101,2,80,0|10|0,0:0|0:1|0:0,0:0:0:0:
173,93,27991,6,0,L|151:-4,1,64,2|0,0:0|0:0,0:0:0:0:
257,98,28324,2,0,L|270:160,1,55.9999982910157,2|0,0:0|0:0,0:0:0:0:
313,221,28658,2,0,L|291:123,1,95.9999970703126,2|0,0:0|0:0,0:0:0:0:
322,22,29158,1,2,0:0:0:0:
511,119,29324,5,6,0:3:0:0:
451,37,29491,1,0,0:0:0:0:
497,142,29658,1,2,0:0:0:0:
437,60,29825,1,4,0:3:0:0:
313,221,29991,2,0,P|360:215|423:210,1,80,10|0,0:0|0:0,0:0:0:0:
485,293,30324,1,10,0:1:0:0:
485,293,30491,1,8,0:1:0:0:
350,322,30658,5,0,0:0:0:0:
392,211,30824,1,8,0:0:0:0:
248,276,30991,1,6,0:3:0:0:
206,165,31157,1,0,0:0:0:0:
89,265,31324,1,10,0:0:0:0:
89,265,31491,1,4,0:3:0:0:
206,165,31658,2,0,L|311:192,1,80,2|8,0:0|0:0,0:0:0:0:
97,24,31991,6,0,P|44:50|30:64,1,80,6|0,0:3|0:0,0:0:0:0:
206,165,32324,2,0,P|209:106|204:86,1,80,2|8,0:0|0:3,0:0:0:0:
29,188,32658,2,0,P|78:220|97:226,2,80,10|0|2,0:0|0:0|0:0,0:0:0:0:
110,127,33158,1,8,0:0:0:0:
187,248,33324,6,0,L|162:352,1,80
310,221,33658,2,0,L|328:143,1,80,4|0,0:3|0:0,0:0:0:0:
403,326,33991,1,8,0:0:0:0:
403,326,34158,1,8,0:1:0:0:
483,167,34324,2,0,B|503:215|503:215|477:292,1,120,2|0,0:0|0:0,0:0:0:0:
403,326,34658,22,0,L|307:306,1,80,4|0,0:3|0:0,0:0:0:0:
229,342,34991,1,2,0:0:0:0:
324,309,35158,1,4,0:3:0:0:
173,217,35324,6,0,L|209:384,1,160,8|8,0:0|0:1,0:0:0:0:
91,295,35824,1,8,0:1:0:0:
173,217,35991,2,0,B|198:189|234:184|234:184|272:227|342:228,2,160,2|4|8,0:0|0:3|0:0,0:0:0:0:
7,76,36991,2,0,L|110:48,1,80
273,32,37324,53,6,0:3:0:0:
173,1,37491,1,0,0:0:0:0:
284,52,37658,1,2,0:0:0:0:
184,21,37825,1,4,0:3:0:0:
351,139,37991,2,0,P|382:114|405:82,1,80,8|0,0:0|0:0,0:0:0:0:
237,149,38324,2,0,P|242:188|258:224,1,80,8|0,0:1|0:0,0:0:0:0:
418,305,38658,6,0,L|268:326,1,120,4|0,0:3|0:0,0:0:0:0:
292,343,38991,54,0,L|410:326,1,120,4|0,0:3|0:0,0:0:0:0:
402,346,39324,6,0,L|284:363,1,120,4|0,0:3|0:0,0:0:0:0:
211,318,39658,2,0,L|96:291,1,80,4|0,0:3|0:0,0:0:0:0:
46,136,39991,53,4,0:3:0:0:
130,183,40158,1,0,0:0:0:0:
21,298,40324,2,0,L|-12:182,1,80,2|0,0:0|0:0,0:0:0:0:
35,45,40658,2,0,B|132:42|85:99|212:94,1,160,8|8,0:0|0:1,0:0:0:0:
271,6,41158,1,8,0:1:0:0:
343,105,41324,6,0,P|334:142|319:181,1,80
456,69,41658,2,0,P|428:42|401:10,1,80,4|0,0:3|0:0,0:0:0:0:
430,184,41991,1,8,0:0:0:0:
430,184,42158,2,0,P|466:173|507:165,1,80,4|0,0:3|0:0,0:0:0:0:
204,244,42658,53,6,0:3:0:0:
319,181,42824,1,0,0:0:0:0:
196,222,42991,1,2,0:0:0:0:
326,202,43157,1,4,0:3:0:0:
155,100,43324,5,10,0:0:0:0:
218,215,43490,1,0,0:0:0:0:
176,92,43657,1,10,0:1:0:0:
196,222,43823,1,10,0:1:0:0:
20,165,43991,54,0,L|129:187,1,80,2|0,0:0|0:0,0:0:0:0:
211,317,44324,1,4,0:3:0:0:
91,338,44491,1,0,0:0:0:0:
211,317,44658,2,0,L|416:348,1,160,8|0,0:0|0:0,0:0:0:0:
446,281,45158,1,0,0:0:0:0:
358,243,45324,21,2,0:0:0:0:
358,243,45658,6,0,L|334:60,1,128,2|8,0:0|0:0,0:0:0:0:
139,31,46324,2,0,L|130:94,1,64
97,199,46658,2,0,L|5:220,1,64,2|0,0:0|0:0,0:0:0:0:
27,198,46908,2,0,L|89:183,1,64,2|0,0:0|0:0,0:0:0:0:
178,166,47158,1,2,0:0:0:0:
234,295,47324,2,0,B|199:324|199:324|83:289,1,128,8|0,0:0|0:0,0:0:0:0:
293,155,47991,54,0,P|255:116|238:105,1,64,2|0,0:0|0:0,0:0:0:0:
339,232,48324,2,0,P|391:218|409:209,1,64,2|0,0:0|0:0,0:0:0:0:
249,233,48658,2,0,P|234:285|233:305,1,64,10|0,0:0|0:0,0:0:0:0:
296,373,48991,1,2,0:0:0:0:
296,373,49158,1,0,0:0:0:0:
378,322,49324,5,2,0:0:0:0:
378,322,49491,1,0,0:0:0:0:
464,360,49658,2,0,L|490:277,1,64,2|0,0:0|0:0,0:0:0:0:
510,200,49991,2,0,B|431:179|431:179|400:213,1,128,8|2,0:0|0:0,0:0:0:0:
346,14,50658,54,0,L|334:88,1,64,2|0,0:0|0:0,0:0:0:0:
257,131,50991,1,2,0:0:0:0:
257,131,51158,1,0,0:0:0:0:
138,73,51324,2,0,P|165:57|196:48,1,64,10|0,0:0|0:0,0:0:0:0:
63,156,51658,2,0,P|35:139|12:117,1,64,2|0,0:0|0:0,0:0:0:0:
173,180,51991,2,0,L|164:242,1,64,2|0,0:0|0:0,0:0:0:0:
54,219,52324,2,0,L|62:156,1,64,2|0,0:0|0:0,0:0:0:0:
28,384,52658,6,0,P|108:355|171:348,1,128,8|2,0:0|0:0,0:0:0:0:
313,261,53324,54,0,L|382:278,1,64,2|0,0:0|0:0,0:0:0:0:
235,195,53658,2,0,L|172:179,1,64,2|0,0:0|0:0,0:0:0:0:
323,124,53991,2,0,P|423:98|467:92,1,128,10|2,0:0|0:0,0:0:0:0:
464,111,54491,1,0,0:0:0:0:
331,60,54658,6,0,L|319:146,1,64,2|0,0:0|0:0,0:0:0:0:
304,106,54908,2,0,L|312:42,1,64,2|0,0:0|0:0,0:0:0:0:
292,26,55158,1,2,0:0:0:0:
198,88,55324,2,0,L|60:54,1,128,8|2,0:0|0:0,0:0:0:0:
60,79,55991,54,0,L|86:192,1,80,4|0,0:3|0:0,0:0:0:0:
151,246,56324,1,2,0:0:0:0:
225,191,56491,1,4,0:3:0:0:
76,293,56658,2,0,L|-11:268,1,80,10|0,0:0|0:0,0:0:0:0:
188,381,56991,2,0,L|264:358,1,80,2|0,0:0|0:0,0:0:0:0:
335,284,57324,5,2,0:0:0:0:
264,358,57491,1,0,0:0:0:0:
429,329,57658,2,0,P|441:285|452:218,1,80,6|0,0:3|0:0,0:0:0:0:
287,127,57991,1,8,0:0:0:0:
361,199,58158,1,4,0:3:0:0:
464,67,58324,2,0,L|376:50,1,80
178,67,58658,53,6,0:3:0:0:
268,13,58824,1,0,0:0:0:0:
199,79,58991,1,2,0:0:0:0:
289,25,59157,1,4,0:3:0:0:
91,16,59324,5,10,0:0:0:0:
91,16,59491,2,0,P|82:65|77:115,1,80,0|2,0:0|0:0,0:0:0:0:
157,209,59824,1,0,0:0:0:0:
23,217,59991,2,0,L|207:165,1,160,2|6,0:0|0:3,0:0:0:0:
221,79,60491,1,0,0:0:0:0:
392,120,60658,1,10,0:0:0:0:
289,153,60824,1,4,0:3:0:0:
477,208,60991,2,0,L|495:130,1,80,2|0,0:0|0:0,0:0:0:0:
339,332,61324,54,0,P|424:340|453:338,1,80,6|0,0:3|0:0,0:0:0:0:
289,153,61658,2,0,P|238:222|226:248,1,80
158,337,61991,2,0,P|108:271|21:274,1,160,8|4,0:0|0:3,0:0:0:0:
35,267,62491,1,0,0:0:0:0:
105,185,62658,2,0,L|82:89,1,80,2|0,0:0|0:0,0:0:0:0:
139,10,62991,5,6,0:3:0:0:
84,107,63158,1,0,0:0:0:0:
249,21,63324,1,10,0:0:0:0:
194,118,63491,1,4,0:3:0:0:
355,29,63658,2,0,L|433:42,1,80,2|0,0:0|0:0,0:0:0:0:
272,131,63991,54,0,L|193:117,2,80,4|0|2,0:3|0:0|0:0,0:0:0:0:
424,208,64491,1,4,0:3:0:0:
287,150,64658,1,10,0:0:0:0:
417,67,64824,1,0,0:0:0:0:
440,225,64991,2,0,L|429:320,1,80,4|0,0:3|0:0,0:0:0:0:
287,150,65324,6,0,L|296:70,1,80,2|0,0:0|0:0,0:0:0:0:
197,276,65658,1,6,0:3:0:0:
197,276,65824,1,0,0:0:0:0:
86,167,65991,2,0,P|46:173|8:186,1,80,10|4,0:0|0:3,0:0:0:0:
87,21,66324,2,0,P|126:27|164:40,1,80,2|0,0:0|0:0,0:0:0:0:
398,119,66658,53,4,0:3:0:0:
287,150,66824,1,0,0:0:0:0:
404,100,66991,1,2,0:0:0:0:
293,131,67157,1,4,0:3:0:0:
470,189,67324,6,0,P|484:151|493:112,1,80,10|0,0:0|0:0,0:0:0:0:
401,0,67658,1,10,0:1:0:0:
401,0,67824,1,8,0:1:0:0:
293,131,67991,2,0,L|184:106,1,80
57,150,68324,1,4,0:3:0:0:
112,29,68491,1,0,0:0:0:0:
198,231,68658,6,0,L|215:113,1,120,4|0,0:3|0:0,0:0:0:0:
196,127,68991,38,0,L|180:246,1,120,4|0,0:3|0:0,0:0:0:0:
128,339,69324,6,0,P|75:341|27:332,1,80,6|0,0:3|0:0,0:0:0:0:
280,263,69658,2,0,P|333:261|381:270,1,80,2|4,0:0|0:3,0:0:0:0:
478,321,69991,1,8,0:0:0:0:
359,264,70158,1,0,0:0:0:0:
478,321,70324,2,0,L|497:214,1,80,8|0,0:1|0:0,0:0:0:0:
473,108,70658,5,2,0:0:0:0:
473,108,70825,1,0,0:0:0:0:
368,174,70991,2,0,P|275:162|257:157,1,80,6|0,0:3|0:0,0:0:0:0:
189,12,71324,2,0,P|225:98|229:116,1,80,8|4,0:0|0:3,0:0:0:0:
139,249,71658,2,0,P|195:174|209:161,1,80,2|0,0:0|0:0,0:0:0:0:
288,165,71991,37,4,0:3:0:0:
221,85,72158,1,0,0:0:0:0:
364,34,72324,2,0,L|444:57,1,80,2|4,0:0|0:3,0:0:0:0:
507,237,72658,2,0,L|430:214,1,80,10|0,0:0|0:0,0:0:0:0:
274,183,72991,5,10,0:1:0:0:
361,124,73158,1,8,0:1:0:0:
414,235,73324,2,0,L|389:343,1,80,2|0,0:0|0:0,0:0:0:0:
273,340,73658,1,6,0:3:0:0:
364,296,73824,1,0,0:0:0:0:
188,384,73991,2,0,P|80:350|3:331,1,160,8|0,0:0|0:0,0:0:0:0:
137,137,74658,5,6,0:3:0:0:
157,239,74824,1,0,0:0:0:0:
22,99,74991,1,2,0:0:0:0:
42,201,75157,1,4,0:3:0:0:
157,117,75324,2,0,L|270:87,1,80,8|0,0:0|0:0,0:0:0:0:
323,10,75658,37,2,0:0:0:0:
323,10,75824,1,0,0:0:0:0:
403,108,75991,2,0,P|439:92|478:80,1,80,2|0,0:0|0:0,0:0:0:0:
322,217,76324,2,0,P|283:228|246:244,1,80,4|0,0:3|0:0,0:0:0:0:
435,359,76658,2,0,P|478:288|471:194,1,160,8|2,0:0|0:0,0:0:0:0:
259,15,77324,5,6,0:3:0:0:
403,108,77491,1,0,0:0:0:0:
231,117,77658,1,2,0:0:0:0:
365,9,77824,1,4,0:3:0:0:
320,175,77991,2,0,L|304:284,1,80,8|2,0:0|0:0,0:0:0:0:
206,364,78324,1,10,0:1:0:0:
206,364,78491,1,10,0:1:0:0:
65,270,78658,6,0,P|55:184|21:43,1,223.999993164063,2|0,0:0|0:0,0:0:0:0:
182,0,79491,2,0,L|164:91,2,80,2|0|0,0:0|0:0|0:0,0:0:0:0:
306,126,79991,37,6,0:3:0:0:
166,78,80158,1,0,0:0:0:0:
312,101,80324,1,2,0:0:0:0:
159,102,80491,1,4,0:3:0:0:
365,23,80658,2,0,P|394:54|418:104,1,80,8|2,0:0|0:0,0:0:0:0:
227,272,80991,2,0,P|239:231|270:185,1,80,8|0,0:1|0:0,0:0:0:0:
512,268,81324,2,0,P|470:277|415:273,2,80,2|0|6,0:0|0:0|0:3,0:0:0:0:
364,183,81824,1,0,0:0:0:0:
304,293,81991,2,0,L|200:264,1,80,8|4,0:0|0:3,0:0:0:0:
106,166,82324,5,0,0:0:0:0:
226,271,82491,1,0,0:0:0:0:
73,322,82658,1,4,0:3:0:0:
197,184,82824,1,0,0:0:0:0:
44,235,82991,1,8,0:1:0:0:
44,235,83074,1,8,0:1:0:0:
44,235,83158,6,0,P|22:194|12:147,1,80,4|10,0:3|0:0,0:0:0:0:
58,54,83491,1,0,0:0:0:0:
167,92,83658,2,0,L|249:75,1,80,10|8,0:1|0:1,0:0:0:0:
342,11,83991,1,2,0:0:0:0:
342,11,84157,1,0,0:0:0:0:
430,114,84324,2,0,P|441:74|446:35,2,80,4|2|8,0:3|0:0|0:0,0:0:0:0:
395,212,84824,1,6,0:3:0:0:
319,138,84991,1,0,0:0:0:0:
395,212,85158,1,0,0:0:0:0:
207,263,85324,38,0,L|127:244,1,80,4|0,0:3|0:0,0:0:0:0:
379,348,85658,2,0,L|456:366,1,80,2|4,0:3|0:3,0:0:0:0:
303,244,85991,1,8,0:0:0:0:
303,244,86157,1,0,0:0:0:0:
234,353,86324,2,0,P|178:353|121:340,1,80,8|8,0:1|0:1,0:0:0:0:
29,197,86658,1,2,0:0:0:0:
0,307,86824,1,0,0:0:0:0:
148,166,86991,2,0,L|128:243,2,80,4|0|8,0:3|0:0|0:0,0:0:0:0:
239,25,87491,5,6,0:3:0:0:
133,139,87658,1,2,0:0:0:0:
285,174,87824,1,2,0:0:0:0:
220,113,87991,1,2,0:0:0:0:
256,192,91658,5,4,0:3:0:0:
