osu file format v14

[General]
AudioFilename: audio.mp3
AudioLeadIn: 0
PreviewTime: 13157
Countdown: 0
SampleSet: Soft
StackLeniency: 0.7
Mode: 0
LetterboxInBreaks: 1
EpilepsyWarning: 1
WidescreenStoryboard: 1

[Editor]
Bookmarks: 87991
DistanceSpacing: 1
BeatDivisor: 8
GridSize: 32
TimelineZoom: 2.2

[Metadata]
Title:Quintuplets On My Line (feat. Kariyu)
TitleUnicode:Quintuplets On My Line (feat. Kariyu)
Artist:osu! virgin gang
ArtistUnicode:osu! virgin gang
Creator:Azunyan-
Version:Hard
Source:五等分の花嫁∬
Tags:Gotoubun no Hanayome season 2 two the quintessential 五等分の花嫁 中野家の五つ子 Nakanoke Itsutsugo anime opening 五等分のカタチ Katachi english japanese girls thighs hip hop rap pop jump map meme ovg! Kinori kinori3 Pinecone thepinecone461 Kariyu Mayu Sakuma Xexyz
BeatmapID:3244581
BeatmapSetID:1585183

[Difficulty]
HPDrainRate:4
CircleSize:3.4
OverallDifficulty:6
ApproachRate:8
SliderMultiplier:2.8
SliderTickRate:1

[Events]
//Background and Video events
0,0,"nino my mommy.jpg",0,0
//Break Periods
2,88191,90908
//Storyboard Layer 0 (Background)
//Storyboard Layer 1 (Fail)
//Storyboard Layer 2 (Pass)
//Storyboard Layer 3 (Foreground)
//Storyboard Layer 4 (Overlay)
//Storyboard Sound Samples

[TimingPoints]
2658,666.666666666667,4,2,1,60,1,0
17324,-125,4,2,1,55,0,0
17658,-125,4,2,1,50,0,0
17991,-125,4,2,1,45,0,0
18658,-100,4,2,1,60,0,0
27991,-125,4,2,1,55,0,0
28324,-125,4,2,1,50,0,0
28658,-125,4,2,1,45,0,0
29324,-125,4,2,1,60,0,0
29658,-100,4,2,1,60,0,0
45658,-111.111111111111,4,2,1,60,0,0
55991,-100,4,2,1,60,0,0

[Colours]
Combo1 : 255,168,255
Combo2 : 255,85,170
Combo3 : 204,113,102
Combo4 : 255,128,64
Combo5 : 255,100,100

[HitObjects]
488,349,13324,6,0,L|504:280,1,70,6|0,2:3|2:0,2:0:0:0:
456,205,13658,1,2,2:0:0:0:
456,205,13824,1,4,2:3:0:0:
380,262,13991,2,0,P|317:274|252:283,1,70,8|0,2:0|2:0,2:0:0:0:
229,296,14324,1,2,2:0:0:0:
229,296,14491,1,0,2:0:0:0:
138,304,14658,6,0,P|105:293|57:291,1,70,2|8,2:0|2:0,2:0:0:0:
13,216,14991,2,0,P|2:183|0:135,1,70,6|0,2:3|2:0,2:0:0:0:
59,67,15324,2,0,B|101:41|101:41|188:65,1,140,8|0,2:0|2:0,2:0:0:0:
275,102,15824,1,0,2:0:0:0:
350,46,15991,6,0,L|432:28,1,70,6|0,2:3|2:0,2:0:0:0:
506,104,16324,2,0,P|512:143|505:214,1,70,2|8,2:0|2:3,2:0:0:0:
454,256,16658,1,10,2:0:0:0:
454,256,16824,1,0,2:0:0:0:
361,199,16991,2,0,L|282:187,1,70,2|8,2:0|2:0,2:0:0:0:
196,141,17324,6,0,P|140:192|131:204,1,56,2|0,2:0|2:0,2:0:0:0:
79,247,17658,2,0,L|98:317,1,56,2|0,2:0|2:0,2:0:0:0:
172,369,17991,2,0,L|319:339,1,112,2|2,2:0|2:0,2:0:0:0:
362,301,18491,1,2,2:0:0:0:
442,354,18658,6,0,P|462:282|459:264,1,70,6|0,2:3|2:0,2:0:0:0:
397,204,18991,1,2,2:0:0:0:
397,204,19158,1,4,2:3:0:0:
478,156,19324,2,0,L|495:68,1,70,10|2,2:0|2:0,2:0:0:0:
426,18,19658,2,0,P|375:8|344:12,1,70,8|0,2:3|2:0,2:0:0:0:
272,64,19991,5,2,2:0:0:0:
272,64,20158,1,0,2:0:0:0:
188,4,20324,1,6,2:3:0:0:
188,4,20491,1,0,2:0:0:0:
127,72,20658,2,0,L|114:170,1,70,8|2,2:0|2:0,2:0:0:0:
166,223,20991,2,0,P|238:231|253:228,1,70,0|8,2:0|2:0,2:0:0:0:
311,162,21324,5,6,2:3:0:0:
311,162,21491,1,0,2:0:0:0:
382,233,21658,2,0,L|456:245,1,70,2|4,2:0|2:3,2:0:0:0:
510,321,21991,2,0,B|476:337|464:368|464:368|439:350|357:363,1,140,8|4,2:0|2:3,2:0:0:0:
309,310,22491,1,2,2:0:0:0:
250,380,22658,2,0,L|172:366,1,70,0|0,2:0|2:0,2:0:0:0:
95,319,22991,2,0,P|78:250|83:228,1,70,6|0,2:3|2:0,2:0:0:0:
109,160,23324,2,0,B|177:137|177:137|271:187,1,140,10|0,2:0|2:0,2:0:0:0:
399,236,23992,5,6,2:3:0:0:
475,216,24158,1,0,2:0:0:0:
508,144,24325,1,2,2:0:0:0:
471,74,24492,1,4,2:3:0:0:
393,60,24658,2,0,L|220:23,1,140,8|10,2:0|2:1,2:0:0:0:
157,2,25158,1,8,2:1:0:0:
93,74,25324,6,0,L|73:151,1,70,2|0,2:0|2:0,2:0:0:0:
118,231,25658,2,0,P|149:216|207:197,1,70,6|0,2:3|2:0,2:0:0:0:
275,172,25991,2,0,P|362:214|412:206,1,140,8|2,2:0|2:0,2:0:0:0:
485,160,26491,1,0,2:0:0:0:
512,251,26658,6,0,L|493:340,1,70,6|0,2:3|2:0,2:0:0:0:
419,382,26991,1,2,2:0:0:0:
419,382,27158,1,4,2:3:0:0:
345,310,27324,2,0,P|303:296|239:293,1,70,8|0,2:0|2:0,2:0:0:0:
193,348,27658,2,0,P|159:357|124:361,1,70,10|0,2:1|2:0,2:0:0:0:
44,313,27991,6,0,L|23:242,1,56,2|0,2:0|2:0,2:0:0:0:
62,171,28324,2,0,B|90:157|90:157|119:159,1,56,2|0,2:0|2:0,2:0:0:0:
203,194,28658,2,0,P|257:208|328:220,1,112,2|0,2:0|2:0,2:0:0:0:
374,158,29158,1,2,2:0:0:0:
452,210,29324,5,6,2:3:0:0:
452,210,29491,1,0,2:0:0:0:
503,143,29658,2,0,L|514:58,1,70,2|4,2:0|2:3,2:0:0:0:
432,17,29991,1,10,2:0:0:0:
432,17,30158,1,0,2:0:0:0:
347,65,30324,1,10,2:1:0:0:
347,65,30491,1,8,2:1:0:0:
248,41,30658,6,0,L|168:27,1,70,0|8,2:0|2:0,2:0:0:0:
86,0,30991,1,6,2:3:0:0:
29,76,31158,1,0,2:0:0:0:
87,150,31324,2,0,L|102:238,1,70,10|4,2:0|2:3,2:0:0:0:
75,315,31658,1,2,2:0:0:0:
75,315,31824,1,8,2:0:0:0:
141,379,31991,6,0,P|224:359|251:355,1,70,6|0,2:3|2:0,2:0:0:0:
275,296,32324,2,0,L|357:318,1,70,2|8,2:0|2:3,2:0:0:0:
436,335,32658,1,10,2:0:0:0:
436,335,32824,1,0,2:0:0:0:
486,257,32991,1,2,2:0:0:0:
486,257,33158,1,8,2:0:0:0:
427,173,33324,6,0,L|346:152,1,70,0|0,2:0|2:0,2:0:0:0:
270,192,33658,2,0,L|202:209,1,70,4|0,2:3|2:0,2:0:0:0:
112,206,33991,1,8,2:0:0:0:
112,206,34158,1,8,2:1:0:0:
19,200,34324,2,0,P|2:124|1:101,1,70,2|0,2:0|2:0,2:0:0:0:
41,32,34658,37,4,2:3:0:0:
117,0,34824,1,0,2:0:0:0:
200,4,34991,1,2,2:0:0:0:
275,42,35157,1,4,2:3:0:0:
325,108,35324,6,0,P|393:116|497:99,1,140,8|8,2:0|2:1,2:0:0:0:
512,179,35824,1,8,2:1:0:0:
482,260,35991,2,0,P|412:267|343:259,1,140,2|4,2:0|2:3,2:0:0:0:
149,141,36658,2,0,P|123:181|118:284,1,140,8|0,2:0|2:0,2:0:0:0:
129,358,37158,1,0,2:0:0:0:
213,328,37324,2,0,L|314:309,1,70,6|0,2:3|2:0,2:0:0:0:
343,259,37658,2,0,L|411:271,1,70,2|4,2:0|2:3,2:0:0:0:
509,201,37991,2,0,P|411:164|368:136,1,140,8|8,2:0|2:1,2:0:0:0:
325,50,38491,1,0,2:0:0:0:
227,98,38658,54,0,P|237:149|250:251,2,140,4|4|4,2:3|2:3|2:3,2:0:0:0:
69,9,39658,1,4,2:3:0:0:
69,9,39824,1,0,2:0:0:0:
26,94,39991,6,0,L|49:194,1,70,4|0,2:3|2:0,2:0:0:0:
130,202,40324,2,0,L|107:302,1,70,2|0,2:0|2:0,2:0:0:0:
69,368,40658,2,0,P|179:352|209:351,1,140,8|8,2:0|2:1,2:0:0:0:
295,384,41158,1,8,2:1:0:0:
362,303,41324,2,0,L|375:214,1,70,0|0,2:0|2:0,2:0:0:0:
330,143,41658,2,0,P|254:134|229:143,1,70,4|0,2:3|2:0,2:0:0:0:
185,197,41991,2,0,P|120:199|35:179,1,140,8|0,2:0|2:0,2:0:0:0:
68,12,42658,53,6,2:3:0:0:
68,12,42824,1,0,2:0:0:0:
150,66,42991,1,2,2:0:0:0:
150,66,43158,1,4,2:3:0:0:
241,16,43324,2,0,L|326:0,1,70,10|0,2:0|2:0,2:0:0:0:
398,34,43658,1,10,2:1:0:0:
398,34,43824,1,10,2:1:0:0:
485,71,43991,6,0,P|457:159|445:246,1,140,2|4,2:0|2:3,2:0:0:0:
470,305,44491,1,0,2:0:0:0:
383,356,44658,2,0,P|325:326|213:297,1,140,8|0,2:0|2:0,2:0:0:0:
163,286,45158,1,0,2:0:0:0:
89,335,45324,5,2,2:0:0:0:
60,180,45658,2,0,P|128:154|202:140,1,125.999996154785,2|8,2:0|2:0,2:0:0:0:
359,188,46324,1,0,2:0:0:0:
359,188,46491,1,0,2:0:0:0:
421,128,46658,2,0,B|460:130|483:157|483:157|509:159|531:142,2,94.499997116089,2|2|2,2:0|2:0|2:0,2:0:0:0:
338,94,47324,2,0,L|324:16,1,62.9999980773926,8|0,2:0|2:0,2:0:0:0:
240,11,47658,2,0,P|181:0|158:1,1,62.9999980773926,0|0,2:0|2:0,2:0:0:0:
97,35,47991,5,2,2:0:0:0:
97,35,48158,1,0,2:0:0:0:
146,107,48324,2,0,L|142:185,1,62.9999980773926,2|0,2:0|2:0,2:0:0:0:
100,242,48658,54,0,L|108:322,1,62.9999980773926,10|0,2:0|2:0,2:0:0:0:
169,359,48991,2,0,P|250:359|276:351,1,62.9999980773926,2|0,2:0|2:0,2:0:0:0:
304,314,49324,1,2,2:0:0:0:
304,314,49491,1,0,2:0:0:0:
389,337,49658,2,0,L|411:236,1,62.9999980773926,2|0,2:0|2:0,2:0:0:0:
397,189,49991,2,0,P|325:168|239:183,1,125.999996154785,8|2,2:0|2:0,2:0:0:0:
210,224,50491,1,0,2:0:0:0:
133,190,50658,6,0,L|59:169,1,62.9999980773926,2|0,2:0|2:0,2:0:0:0:
20,107,50991,2,0,P|28:69|48:33,1,62.9999980773926,2|0,2:0|2:0,2:0:0:0:
116,6,51324,2,0,L|176:23,1,62.9999980773926,10|0,2:0|2:0,2:0:0:0:
255,69,51658,1,2,2:0:0:0:
255,69,51824,1,0,2:0:0:0:
326,25,51991,54,0,L|387:8,1,62.9999980773926,2|0,2:0|2:0,2:0:0:0:
448,72,52324,2,0,P|454:144|452:163,1,62.9999980773926,2|0,2:0|2:0,2:0:0:0:
422,210,52658,2,0,B|380:231|380:231|261:202,1,125.999996154785,8|2,2:0|2:0,2:0:0:0:
96,176,53324,5,2,2:0:0:0:
96,176,53491,1,0,2:0:0:0:
40,240,53658,2,0,P|30:275|24:326,1,62.9999980773926,2|0,2:0|2:0,2:0:0:0:
70,373,53991,2,0,L|198:333,1,125.999996154785,10|2,2:0|2:0,2:0:0:0:
258,291,54491,1,0,2:0:0:0:
335,333,54658,54,0,B|365:351|365:351|405:339|439:356,2,94.499997116089,2|2|2,2:0|2:0|2:0,2:0:0:0:
258,291,55324,2,0,L|249:207,1,62.9999980773926,8|0,2:0|2:0,2:0:0:0:
318,163,55658,2,0,P|381:142|412:137,1,62.9999980773926,2|0,2:0|2:0,2:0:0:0:
495,98,55991,6,0,P|398:52|346:22,1,140,4|2,2:3|2:0,2:0:0:0:
271,2,56491,1,4,2:3:0:0:
235,86,56658,1,10,2:0:0:0:
235,86,56824,1,0,2:0:0:0:
151,40,56991,2,0,L|56:26,1,70,2|0,2:0|2:0,2:0:0:0:
17,96,57324,54,0,P|19:140|38:203,1,70,2|0,2:0|2:0,2:0:0:0:
73,253,57658,1,6,2:3:0:0:
73,253,57824,1,0,2:0:0:0:
155,198,57991,2,0,L|227:179,1,70,8|4,2:0|2:3,2:0:0:0:
307,221,58324,2,0,L|374:238,1,70,0|0,2:0|2:0,2:0:0:0:
459,192,58658,5,6,2:3:0:0:
459,192,58824,1,0,2:0:0:0:
484,99,58991,1,2,2:0:0:0:
484,99,59158,1,4,2:3:0:0:
426,21,59324,2,0,L|357:3,1,70,10|0,2:0|2:0,2:0:0:0:
263,43,59658,2,0,L|194:60,1,70,2|0,2:0|2:0,2:0:0:0:
110,3,59991,54,0,P|91:74|87:175,1,140,2|6,2:0|2:3,2:0:0:0:
131,216,60491,1,0,2:0:0:0:
226,185,60658,1,10,2:0:0:0:
226,185,60824,1,4,2:3:0:0:
290,253,60991,2,0,L|378:228,1,70,2|0,2:0|2:0,2:0:0:0:
451,173,61324,6,0,P|469:243|485:334,1,140,6|0,2:3|2:0,2:0:0:0:
407,384,61824,1,0,2:0:0:0:
318,337,61991,2,0,L|241:322,1,70,8|0,2:0|2:0,2:0:0:0:
157,301,62324,1,4,2:3:0:0:
157,301,62491,1,0,2:0:0:0:
76,349,62658,54,0,P|41:294|31:269,1,70,2|0,2:0|2:0,2:0:0:0:
96,208,62991,2,0,L|108:131,1,70,6|0,2:3|2:0,2:0:0:0:
186,68,63324,1,10,2:0:0:0:
186,68,63491,1,4,2:3:0:0:
252,139,63658,2,0,L|362:169,1,70,2|0,2:0|2:0,2:0:0:0:
409,100,63991,6,0,P|422:43|425:3,2,70,4|0|2,2:3|2:0|2:0,2:0:0:0:
472,174,64491,1,4,2:3:0:0:
459,265,64658,2,0,L|479:362,1,70,10|0,2:0|2:0,2:0:0:0:
385,369,64991,2,0,P|317:342|266:341,1,70,4|0,2:3|2:0,2:0:0:0:
228,313,65324,53,2,2:0:0:0:
228,313,65491,1,0,2:0:0:0:
150,375,65658,2,0,L|77:355,1,70,6|0,2:3|2:0,2:0:0:0:
42,265,65991,2,0,L|33:175,1,70,10|4,2:0|2:3,2:0:0:0:
96,111,66324,1,2,2:0:0:0:
254,205,66658,5,4,2:3:0:0:
254,205,66824,1,0,2:0:0:0:
326,157,66991,2,0,L|396:173,1,70,2|4,2:0|2:3,2:0:0:0:
475,128,67324,2,0,P|485:88|479:52,1,70,10|0,2:0|2:0,2:0:0:0:
414,0,67658,1,10,2:1:0:0:
414,0,67824,1,8,2:1:0:0:
334,56,67991,2,0,L|247:38,1,70,0|0,2:0|2:0,2:0:0:0:
187,4,68324,1,4,2:3:0:0:
187,4,68491,1,0,2:0:0:0:
117,79,68658,5,4,2:3:0:0:
191,206,68991,37,4,2:3:0:0:
112,331,69324,6,0,P|54:340|33:336,2,70,6|0|2,2:3|2:0|2:0,2:0:0:0:
190,294,69824,1,4,2:3:0:0:
256,354,69991,1,8,2:0:0:0:
256,354,70158,1,0,2:0:0:0:
331,314,70324,2,0,L|419:301,1,70,8|0,2:1|2:0,2:0:0:0:
482,257,70658,2,0,P|490:212|483:176,1,70,2|0,2:0|2:0,2:0:0:0:
409,124,70991,2,0,L|339:134,1,70,6|0,2:3|2:0,2:0:0:0:
268,205,71324,2,0,B|232:187|216:162|216:162|181:166|143:217,1,140,8|2,2:0|2:0,2:0:0:0:
58,269,71991,5,4,2:3:0:0:
58,269,72158,1,0,2:0:0:0:
10,186,72324,2,0,L|-3:92,1,70,2|4,2:0|2:3,2:0:0:0:
58,43,72658,2,0,P|136:23|170:24,1,70,10|0,2:0|2:0,2:0:0:0:
206,73,72991,1,10,2:1:0:0:
206,73,73158,1,8,2:1:0:0:
285,22,73324,38,0,L|370:7,1,70,2|0,2:0|2:0,2:0:0:0:
448,56,73658,2,0,P|456:128|454:137,1,70,6|0,2:3|2:0,2:0:0:0:
419,211,73991,2,0,B|350:214|363:165|279:172,1,140,8|0,2:0|2:0,2:0:0:0:
147,217,74658,5,6,2:3:0:0:
147,217,74824,1,0,2:0:0:0:
80,155,74991,2,0,P|42:166|0:189,1,70,2|4,2:0|2:3,2:0:0:0:
0,269,75324,2,0,P|64:360|108:378,1,140,8|2,2:0|2:0,2:0:0:0:
163,309,75824,1,0,2:0:0:0:
250,349,75991,2,0,L|348:371,1,70,2|0,2:0|2:0,2:0:0:0:
386,301,76324,2,0,L|466:287,1,70,4|0,2:3|2:0,2:0:0:0:
502,207,76658,2,0,P|418:160|347:163,1,140,8|2,2:0|2:0,2:0:0:0:
251,255,77324,5,6,2:3:0:0:
251,255,77491,1,0,2:0:0:0:
198,177,77658,1,2,2:0:0:0:
198,177,77824,1,4,2:3:0:0:
117,229,77991,2,0,L|23:243,1,70,8|2,2:0|2:0,2:0:0:0:
9,151,78324,2,0,L|-2:71,1,70,10|10,2:1|2:1,2:0:0:0:
50,2,78658,1,2,2:0:0:0:
215,109,79491,38,0,P|205:142|194:198,2,70,2|0|0,2:0|2:0|2:0,2:0:0:0:
282,38,79991,6,0,L|393:14,1,70,6|0,2:3|2:0,2:0:0:0:
436,55,80324,1,2,2:0:0:0:
436,55,80491,1,4,2:3:0:0:
512,91,80658,2,0,L|484:186,1,70,8|2,2:0|2:0,2:0:0:0:
430,229,80991,1,8,2:1:0:0:
430,229,81158,1,0,2:0:0:0:
488,301,81324,6,0,L|518:382,2,70,2|0|6,2:0|2:0|2:3,2:0:0:0:
430,229,81824,2,0,P|401:223|341:220,1,70,0|8,2:0|2:0,2:0:0:0:
273,165,82158,2,0,P|267:130|266:95,2,70,4|0|0,2:3|2:0|2:0,2:0:0:0:
221,261,82658,38,0,L|208:355,1,70,4|0,2:3|2:0,2:0:0:0:
117,352,82991,2,0,L|102:394,2,35,8|8|4,0:1|0:1|0:3,0:0:0:0:
42,305,83324,2,0,L|32:235,1,70,10|0,2:0|2:0,2:0:0:0:
81,142,83658,1,10,2:1:0:0:
81,142,83825,1,8,2:1:0:0:
183,165,83992,6,0,L|277:184,1,70,2|0,2:0|2:0,2:0:0:0:
351,222,84324,2,0,P|359:307|356:320,2,70,4|2|8,2:3|2:0|2:0,2:0:0:0:
420,149,84824,1,6,2:3:0:0:
401,56,84991,1,0,2:0:0:0:
401,56,85158,1,0,2:0:0:0:
302,23,85324,6,0,L|227:3,1,70,4|0,2:3|2:0,2:0:0:0:
135,11,85658,2,0,P|110:79|107:96,1,70,2|4,2:3|2:3,2:0:0:0:
92,176,85991,1,8,2:0:0:0:
92,176,86158,1,0,2:0:0:0:
128,268,86324,38,0,L|206:253,1,70,8|8,2:1|2:1,2:0:0:0:
268,197,86658,2,0,P|262:164|250:123,2,70,2|0|4,2:0|2:0|2:3,2:0:0:0:
324,282,87158,1,0,2:0:0:0:
324,282,87324,1,8,2:0:0:0:
407,240,87491,2,0,L|475:252,1,70,6|2,2:3|2:0,2:0:0:0:
512,178,87824,1,2,2:0:0:0:
477,102,87991,1,2,2:0:0:0:
256,192,91658,5,4,2:3:0:0:
