osu file format v14

[General]
AudioFilename: audio.mp3
AudioLeadIn: 0
PreviewTime: 18182
Countdown: 0
SampleSet: Soft
StackLeniency: 0.7
Mode: 0
LetterboxInBreaks: 0
WidescreenStoryboard: 1

[Editor]
DistanceSpacing: 0.9
BeatDivisor: 16
GridSize: 32
TimelineZoom: 3.399999

[Metadata]
Title:bad idea w/ blackwinterwells
TitleUnicode:bad idea w/ blackwinterwells
Artist:osquinn
ArtistUnicode:osquinn
Creator:Parad0xa
Version:zombie
Source:
Tags:p4rkr english hyperpop hyper pop hip hop hip-hop rap glitch electronic cirnop GIGAROBLOXIAN21 [Poke] xandeez nuts Pokey Paradoxa Ryxliee A3THER_XX xx my fuckin bedroom lol f*ckin fckn fucking
BeatmapID:3447758
BeatmapSetID:1686988

[Difficulty]
HPDrainRate:5.6
CircleSize:4
OverallDifficulty:9
ApproachRate:9.2
SliderMultiplier:2.8
SliderTickRate:1

[Events]
//Background and Video events
0,0,"bgggggggggggggggg.jpg",0,0
//Break Periods
//Storyboard Layer 0 (Background)
//Storyboard Layer 1 (Fail)
//Storyboard Layer 2 (Pass)
//Storyboard Layer 3 (Foreground)
//Storyboard Layer 4 (Overlay)
//Storyboard Sound Samples

[TimingPoints]
-1761,565.770862800566,4,2,1,50,1,0
289,-133.333333333333,4,2,1,50,0,0
502,-23.4332727887151,4,2,1,70,0,0
1067,-133.333333333333,4,2,1,50,0,0
1633,-24.0018364840114,4,2,1,70,0,0
2199,-133.333333333333,4,2,1,50,0,0
2765,-23.9743757372282,4,2,1,70,0,0
3330,-133.333333333333,4,2,1,50,0,0
5028,-23.5296805937169,4,2,1,70,0,0
5594,-133.333333333333,4,2,1,50,0,0
6159,-23.8500161886819,4,2,1,70,0,0
6725,-133.333333333333,4,2,1,50,0,0
7291,-23.88558312985,4,2,1,70,0,0
7715,-133.333333333333,4,2,1,50,0,0
8422,-66.6666666666667,4,2,2,80,0,0
9271,-80,4,2,2,75,0,0
9554,-24.0627275156003,4,2,1,70,0,0
10120,-133.333333333333,4,2,1,50,0,0
10685,-23.9808153477218,4,2,1,70,0,0
11251,-133.333333333333,4,2,1,50,0,0
11817,-24.1203774230518,4,2,1,70,0,0
12383,-133.333333333333,4,2,1,50,0,0
14080,-23.5000390405147,4,2,1,70,0,0
14646,-133.333333333333,4,2,1,50,0,0
15212,-23.7976315838556,4,2,1,70,0,0
15777,-133.333333333333,4,2,1,50,0,0
16343,-23.4192037470726,4,2,1,70,0,0
16720,-100,4,2,1,50,0,0
17475,-66.6666666666667,4,2,2,80,0,0
18323,-66.6666666666667,4,2,2,50,0,0
18606,-14.3400673508053,4,2,1,80,0,0
18818,-14.3400673508053,4,2,1,5,0,0
18889,-52.6315789473684,4,2,1,60,0,0
19384,-52.6315789473684,4,2,1,5,0,0
19455,-52.6315789473684,4,2,1,60,0,0
19738,-14.1497352872222,4,2,1,80,0,0
19950,-14.1497352872222,4,2,1,5,0,0
20021,-52.6315789473684,4,2,1,60,0,0
20657,-52.6315789473684,4,2,1,5,0,0
20728,-52.6315789473684,4,2,1,60,0,0
20869,-14.3255262022307,4,2,1,80,0,0
21081,-14.3255262022307,4,2,1,5,0,0
21152,-52.6315789473684,4,2,1,60,0,0
21647,-52.6315789473684,4,2,1,5,0,0
21718,-52.6315789473684,4,2,1,60,0,0
22496,-52.6315789473684,4,2,1,5,0,0
22567,-52.6315789473684,4,2,1,60,0,0
23062,-52.6315789473684,4,2,1,5,0,0
23132,-14.4151026900476,4,2,1,80,0,0
23345,-14.4151026900476,4,2,1,5,0,0
23415,-52.6315789473684,4,2,1,60,0,0
23910,-52.6315789473684,4,2,1,5,0,0
23981,-52.6315789473684,4,2,1,60,0,0
24264,-14.3344119727433,4,2,1,80,0,0
24476,-14.3344119727433,4,2,1,5,0,0
24547,-52.6315789473684,4,2,1,60,0,0
25113,-52.6315789473684,4,2,1,60,0,0
25396,-14.3772220808896,4,2,1,80,0,0
25608,-14.3772220808896,4,2,1,5,0,0
25678,-52.6315789473684,4,2,1,60,0,0
26527,-50,4,2,2,80,0,0
27376,-57.1428571428571,4,2,2,75,0,0
27659,-14.3679829965368,4,2,1,80,0,0
27871,-14.3679829965368,4,2,1,5,0,0
27941,-52.6315789473684,4,2,1,60,0,0
28437,-52.6315789473684,4,2,1,5,0,0
28507,-52.6315789473684,4,2,1,60,0,0
28790,-14.3821485960165,4,2,1,80,0,0
29002,-14.3821485960165,4,2,1,5,0,0
29073,-52.6315789473684,4,2,1,60,0,0
29710,-52.6315789473684,4,2,1,5,0,0
29780,-52.6315789473684,4,2,1,60,0,0
29922,-14.4286870425794,4,2,1,80,0,0
30134,-14.4286870425794,4,2,1,5,0,0
30205,-52.6315789473684,4,2,1,60,0,0
30700,-52.6315789473684,4,2,1,5,0,0
30770,-52.6315789473684,4,2,1,60,0,0
31548,-52.6315789473684,4,2,1,5,0,0
31619,-52.6315789473684,4,2,1,60,0,0
32114,-52.6315789473684,4,2,1,5,0,0
32185,-14.367816091954,4,2,1,80,0,0
32397,-14.367816091954,4,2,1,5,0,0
32468,-52.6315789473684,4,2,1,60,0,0
32963,-52.6315789473684,4,2,1,5,0,0
33033,-52.6315789473684,4,2,1,60,0,0
33316,-14.4092219020173,4,2,1,80,0,0
33528,-14.4092219020173,4,2,1,5,0,0
33599,-52.6315789473684,4,2,1,60,0,0
34448,-15.8963714804757,4,2,1,80,0,0
35014,-16.9365107722702,4,2,1,80,0,0
35296,-16.8711822474424,4,2,1,80,0,0
35862,-16.2736034054665,4,2,1,80,0,0
36004,-15.8775080528822,4,2,1,80,0,0
36145,-15.9589885474324,4,2,1,80,0,0
36428,-15.9589885474324,4,2,1,50,0,0
36499,-15.9589885474324,4,2,1,55,0,0
36569,-15.9589885474324,4,2,1,60,0,0
36640,-15.9589885474324,4,2,1,65,0,0
36711,-100,4,2,3,70,0,0
38903,-100,4,2,3,5,0,0
38974,-100,4,2,3,70,0,0
44137,-100,4,2,3,5,0,0
44207,-100,4,2,3,70,0,0
44278,-100,4,2,3,5,0,0
44349,-100,4,2,3,70,0,0
45480,-100,4,2,3,50,0,0
45551,-100,4,2,3,55,0,0
45622,-100,4,2,3,60,0,0
45693,-100,4,2,3,65,0,0
45763,-83.3333333333333,4,2,3,70,0,0
46824,-83.3333333333333,4,2,3,5,0,0
46895,-83.3333333333333,4,2,3,70,0,0
47956,-83.3333333333333,4,2,3,5,0,0
48026,-83.3333333333333,4,2,3,70,0,0
49087,-83.3333333333333,4,2,3,5,0,0
49158,-83.3333333333333,4,2,3,70,0,0
51350,-83.3333333333333,4,2,3,5,0,0
51421,-83.3333333333333,4,2,3,70,0,0
52482,-83.3333333333333,4,2,3,5,0,0
52553,-83.3333333333333,4,2,3,70,0,0
54250,-66.6666666666667,4,2,3,75,0,0
54816,-66.6666666666667,4,2,1,80,0,0
63868,-66.6666666666667,4,2,1,5,0,0

[Colours]
Combo1 : 255,230,253
Combo2 : 245,206,247

[HitObjects]
74,66,289,6,0,P|69:45|66:29,1,26.2500010013581
80,73,502,6,0,B|81:72|83:71|83:71|82:68|82:68|85:70|85:70|86:69|86:69|88:72|88:72|88:69|88:69|89:68|90:68|90:68|89:64|89:64|92:67|92:67|93:66|94:66|94:66|95:68|95:68|95:65|95:65|96:65|97:64|97:64|97:61|97:61|99:64|99:64|100:63|101:63|101:63|103:65|103:65|103:62|103:62|104:62|105:62|105:62|105:59|105:59|107:61|107:61|108:61|108:61|110:64|110:64|111:60|111:60|112:60|112:60|113:57|113:57|114:60|114:60|116:59|116:59|118:62|118:62|118:59|118:59|119:59|120:59|120:59|121:56|121:56|122:59|122:59|123:59|124:59|124:59|125:62|125:62|126:59|126:59|127:59|128:59|128:59|130:56|130:56|130:59|130:59|131:59|132:60|132:60|133:63|133:63|134:60|134:60|136:60|136:60|138:58|138:58|138:61|138:61|140:61|140:61|140:64|140:64|142:62|142:62|143:62|144:63|144:63|146:60|146:60|146:63|146:63|147:64|148:64|148:64|147:67|147:67|149:65|149:65|151:66|151:66|153:64|153:64|153:67|153:67|154:68|155:68|155:68|154:71|154:71|156:69|156:69|157:70|158:70|158:70|160:69|160:69|159:71|159:71|161:72|161:73|161:73|160:76|160:76|163:74|163:74|164:75|164:75|167:74|167:74|166:77|166:77|167:78|167:78|166:81|166:81|168:79|168:79|169:80|170:81|170:81|173:79|173:79|171:82|171:82|172:83|173:84|173:84|171:87|171:87|174:85|174:85|175:87|175:87|178:86|178:86|176:88|176:88|177:90|178:90|178:90|176:92|176:92|179:91|179:91|180:93|180:93|183:92|183:92|181:95|181:95|182:96|182:96|180:99|180:99|184:98|184:98|185:100|185:100|187:99|187:99|186:101|186:101|187:103|187:103|185:105|185:105|188:105|188:105|189:106|189:107|189:107|192:106|192:106|190:108|190:108|191:109|191:110|191:110|188:113|188:113|192:112|192:112|193:114|193:114|197:113|197:113|194:116|194:116|194:117|195:117|195:117|192:119|192:119|196:119|196:119|196:120|197:121|197:121|199:120|199:120|198:122|198:122|198:123|199:124|199:124|197:127|197:127|200:126|200:126|200:127|201:127|201:127|204:126|204:126|202:129|202:129|202:130|203:131|203:131|201:133|201:133|204:132|204:132|205:133|205:134|205:134|209:133|209:133|206:136|206:136|207:137|208:137|208:137|206:140|206:140|209:139|209:139|209:140|210:140|210:140|213:139|213:139|211:142|211:142|212:143|212:143|211:146|211:146|214:145|214:145|215:146|215:147|215:147|218:145|218:145|216:148|216:148|217:149|218:149|218:149|216:152|216:152|219:151|219:151|220:152|221:152|221:152|223:151|223:151|222:154|222:154|223:154|224:155|224:155|222:158|222:158|225:156|225:156|226:157|227:158|227:158|229:156|229:156|228:159|228:159|229:159|230:160|230:160|229:163|229:163|231:161|231:161|232:162|233:162|233:162|236:160|236:160|235:163|235:163|236:164|236:164|236:168|236:168|238:165|238:165|239:166|240:166|240:166|242:164|242:164|242:167|242:167|243:168|244:168|244:168|243:171|243:171|245:169|245:169|246:169|247:170|247:170|249:167|249:167|249:170|249:170|250:171|251:171|251:171|251:174|251:174|253:171|253:171|254:172|255:172|255:172|256:169|256:169|257:172|257:172|258:173|259:173|259:173|259:176|259:176|261:173|261:173|262:173|263:173|263:173|264:171|264:171|265:174|265:174|266:174|267:174|267:174|268:177|268:177|269:174|269:174|270:174|271:174|271:174|272:171|272:171|273:174|273:174|274:174|275:174|275:174|276:177|276:177|277:174|277:174|278:174|279:173|279:173|279:170|279:170|281:173|281:173|282:173|283:173|283:173|284:176|284:176|285:173|285:173|286:172|287:172|287:172|287:169|287:169|289:172|289:172|290:172|291:171|291:171|292:174|292:174|293:171|293:171|294:171|295:170|295:170|295:167|295:167|296:170|296:170|298:169|298:169|300:172|300:172|300:168|300:168|302:168|302:168|302:165|302:165|304:167|304:167|306:166|307:166,1,597.441088414336,0|0,3:0|0:0,0:0:0:0:
307,165,1067,6,0,P|312:136|317:114,1,52.5000020027161
397,128,1350,2,0,P|391:154|387:180,1,52.5000020027161,0|2,0:0|0:0,0:0:0:0:
438,343,1633,6,0,B|440:343|441:343|441:343|442:340|442:340|443:343|443:343|444:343|445:343|445:343|447:346|447:346|447:343|447:343|448:343|449:342|449:342|449:339|449:339|451:342|451:342|452:342|453:341|453:341|455:344|455:344|455:341|455:341|456:340|457:340|457:340|456:337|456:337|458:339|458:339|459:338|460:338|460:338|463:340|463:340|462:337|462:337|463:336|463:336|462:333|462:333|465:334|465:334|466:333|466:333|469:334|469:334|468:331|468:331|469:331|469:330|469:330|467:327|467:327|470:328|470:328|471:327|471:327|475:327|475:327|473:325|473:325|473:324|473:323|473:323|471:321|471:321|474:322|474:322|475:321|475:320|475:320|478:320|478:320|476:318|476:318|476:317|477:316|477:316|474:314|474:314|477:314|477:314|478:313|478:312|478:312|481:312|481:312|478:310|478:310|478:309|479:308|479:308|476:307|476:307|479:306|479:306|479:305|479:304|479:304|482:303|482:303|479:302|479:302|479:301|479:300|479:300|476:299|476:299|479:298|479:298|479:297|479:296|479:296|481:295|481:295|478:294|478:294|478:293|478:292|478:292|475:292|475:292|478:290|478:290|477:289|477:288|477:288|479:286|479:286|476:286|476:286|476:285|476:285|472:285|472:285|475:283|475:283|474:282|474:281|474:281|476:279|476:279|473:279|473:279|472:278|472:278|469:279|469:279|471:276|471:276|470:275|470:274|470:274|471:272|471:272|468:273|468:273|467:272|467:271|467:271|464:273|464:273|466:270|466:270|465:269|464:269|464:269|465:266|465:266|463:267|463:267|462:267|461:266|461:266|458:268|458:268|459:265|459:265|458:264|458:264|458:261|458:261|456:263|456:263|455:262|454:262|454:262|452:264|452:264|452:261|452:261|451:261|450:260|450:260|450:257|450:257|449:260|449:260|447:259|447:259|445:261|445:261|445:258|445:258|443:258|443:258|442:255|442:255|441:258|441:258|440:257|439:257|439:257|437:260|437:260|437:257|437:257|435:257|435:257|434:254|434:254|433:257|433:257|432:257|431:257|431:257|430:260|430:260|429:257|429:257|427:257|427:257|426:253|426:253|425:257|425:257|423:257|423:257|422:260|422:260|421:257|421:257|419:257|419:257|417:255|417:255|417:258|417:258|416:258|416:258|415:258|415:258|415:261|415:261|413:259|413:259|411:259|411:259|410:256|410:256|409:260|409:260|407:260|407:260|407:263|407:263|405:260|405:260|403:261|403:261|402:258|402:258|401:261|401:261|399:262|399:262|399:265|399:265|397:262|397:262|396:263|396:263|394:260|394:260|394:263|394:263|392:263|392:263|391:267|391:267|390:264|390:264|388:264|388:264|386:262|386:262|386:265|386:265|384:265|384:265|383:268|383:268|382:266|382:266|379:266|379:266|378:263|378:263|377:266|377:266|376:267|376:267|375:270|375:270|374:267|374:267|372:268|372:268|370:265|370:265|370:268|370:268|368:269|368:269|367:272|367:272|366:269|366:269|364:270|364:270|362:267|362:267|362:270|362:270|360:270|360:270|360:274|360:274|358:271|358:271|356:271|356:271|354:269|354:269|354:272|354:272|352:272|352:272|352:275|352:275|350:273|350:273|348:273|348:273|347:270|347:270|346:273|346:273|344:274|344:274|344:277|344:277|342:274|342:274|340:275|340:275|339:272|339:272|338:275|338:275|337:276|337:276|336:279|336:279|335:276|335:276|333:276|333:276|331:274|331:274|331:277|331:277|329:277|329:277|328:280|328:280|327:278|327:278|325:278|325:278|323:275|323:275|323:279|323:279|321:279|321:279|321:282|321:282|319:279|319:279|317:280|317:280|315:277|315:277|315:280|315:280|313:281|313:281|313:284|313:284|311:281|311:281|309:282|309:282|308:279|308:279|307:282|307:282|305:282|305:282|305:286|305:286|303:283|303:283|301:283|301:283|300:281|300:281|299:284|299:284|298:284|298:284|297:287|297:287|296:285|296:285|293:285,1,583.288699984518,0|0,3:0|0:0,0:0:0:0:
292,285,2199,6,0,P|306:306|306:332,1,52.5000020027161
228,360,2482,2,0,P|213:338|213:312,1,52.5000020027161,0|2,0:0|0:0,0:0:0:0:
307,165,2765,6,0,B|308:164|310:163|310:163|309:160|309:160|311:162|311:162|312:162|313:161|313:161|315:163|315:163|314:160|314:160|315:159|316:158|316:158|315:156|315:156|318:157|318:157|318:156|319:156|319:156|322:157|322:157|320:155|320:155|321:154|322:153|322:153|320:150|320:150|323:152|323:152|324:151|324:150|324:150|328:151|328:151|326:149|326:149|327:148|327:147|327:147|325:144|325:144|328:145|328:145|329:144|329:144|332:145|332:145|331:142|331:142|331:141|332:140|332:140|330:138|330:138|333:139|333:139|333:138|334:137|334:137|337:138|337:138|335:135|335:135|335:134|336:134|336:134|333:131|333:131|337:132|337:132|337:131|337:130|337:130|340:130|340:130|338:128|338:128|339:127|339:126|339:126|337:124|337:124|340:124|340:124|340:123|340:123|343:123|343:123|341:121|341:121|341:120|342:119|342:119|339:117|339:117|342:117|342:117|343:116|343:115|343:115|346:115|346:115|343:113|343:113|344:112|344:111|344:111|341:109|341:109|344:109|344:109|344:108|345:107|345:107|348:107|348:107|345:105|345:105|345:104|345:103|345:103|342:102|342:102|345:101|345:101|346:100|346:99|346:99|349:98|349:98|346:97|346:97|346:96|346:95|346:95|343:94|343:94|346:93|346:93|346:92|346:91|346:91|349:90|349:90|346:89|346:89|346:88|346:87|346:87|343:86|343:86|346:85|346:85|346:84|346:83|346:83|349:82|349:82|346:81|346:81|346:80|345:79|345:79|342:79|342:79|345:77|345:77|345:76|345:75|345:75|348:74|348:74|345:73|345:73|344:72|344:71|344:71|341:71|341:71|344:69|344:69|343:68|343:67|343:67|346:66|346:66|343:65|343:65|342:64|342:64|339:64|339:64|341:62|341:62|341:61|341:60|341:60|343:58|343:58|340:58|340:58|340:57|339:56|339:56|336:57|336:57|338:54|338:54|338:53|338:53|340:50|340:50|337:51|337:51|336:50|336:49|336:49|333:50|333:50|335:47|335:47|334:47|334:46|334:46|336:43|336:43|332:44|332:44|332:43|331:42|331:42|328:44|328:44|330:41|330:41|329:40|329:39|329:39|330:37|330:37|327:38|327:38|327:37|326:36|326:36|323:38|323:38|324:35|324:35|324:34|323:34|323:34|324:31|324:31|321:32|321:32|320:31|320:31|317:33|317:33|318:30|318:30|317:30|317:29|317:29|317:26|317:26|315:28|315:28|314:27|313:27|313:27|311:29|311:29|311:26|311:26|310:26|309:25|309:25|310:22|310:22|308:25|308:25|307:24|306:24|306:24|304:26|304:26|304:23|304:23|303:23|302:23|302:23|301:20|301:20|300:23|300:23|299:22|298:22|298:22|297:25|297:25|296:22|296:22|295:22|294:22|294:22|293:19|293:19|292:22|292:22|291:22|290:22|290:22|289:25|289:25|288:22|288:22|287:22|286:22|286:22|284:20|284:20|284:23|284:23|283:23|282:23|282:23|282:26|282:26|280:24|280:24|279:24|278:24|278:24|276:22|276:22|276:25|276:25|275:26|275:26|275:29|275:29|273:27|273:27|272:27|271:28|271:28|269:26|269:26|269:29|269:29|268:30|268:30|269:33|269:33|266:31|266:31|265:32|265:33|265:33|262:31|262:31|263:34|263:34|262:35|262:36|262:36|263:38|263:38|260:37|260:37|260:38|259:39|259:39|256:38|256:38|258:40|258:40|257:41|257:42|257:42|259:44|259:44|256:44|256:44|256:45|255:46|255:46|252:45|252:45|255:47|255:47|254:49|254:49|256:51|256:51|253:51|253:51|253:52|253:53|253:53|250:53|250:53|252:55|252:55|252:56|252:57|252:57|255:58|255:58|252:59|252:59|252:60|252:61|252:61|249:62|249:62|252:63|252:63|252:64|252:65|252:65|255:66|255:66|252:67|252:67|252:68|252:69|252:69|249:71|249:71|253:71|253:71|253:72|253:73|253:73|256:73|256:73|253:75|253:75|254:76|254:77|254:77|252:79|252:79|255:79|255:79|255:80|255:81|255:81|258:80|258:80|256:82|256:82|257:84|257:84|255:86|255:86|258:86|258:86|258:87|259:88|259:88|262:87|262:87|260:90|260:90|261:91|262:92,1,583.956810948796,0|0,3:0|0:0,0:0:0:0:
262,92,3330,6,0,P|236:86|210:81,1,52.5000020027161
173,12,3613,2,0,P|147:6|121:1,1,52.5000020027161,0|2,0:0|0:0,0:0:0:0:
49,47,3896,2,0,P|60:97|69:149,1,105.000004005432
69,150,4462,6,0,P|90:136|116:136,1,52.5000020027161,0|2,0:0|0:0,0:0:0:0:
144,215,4745,2,0,P|123:229|97:229,1,52.5000020027161
262,92,5028,6,0,B|264:92|265:91|265:91|265:88|265:88|267:91|267:91|268:90|269:90|269:90|271:93|271:93|271:89|271:89|272:89|273:89|273:89|273:86|273:86|275:88|275:88|276:87|276:87|278:90|278:90|278:86|278:86|279:86|280:86|280:86|280:83|280:83|282:85|282:85|283:84|283:84|286:86|286:86|285:83|285:83|286:82|287:82|287:82|286:79|286:79|289:81|289:81|290:80|290:80|293:82|293:82|292:79|292:79|293:78|294:77|294:77|293:74|293:74|295:76|295:76|296:75|297:75|297:75|300:77|300:77|298:74|298:74|300:73|300:72|300:72|299:70|299:70|301:71|301:71|302:70|303:70|303:70|306:71|306:71|304:68|304:68|305:67|306:67|306:67|304:64|304:64|307:65|307:65|308:64|308:64|311:65|311:65|310:62|310:62|311:61|311:61|309:58|309:58|312:59|312:59|313:58|313:58|316:59|316:59|314:56|314:56|315:55|316:54|316:54|314:52|314:52|317:53|317:53|317:52|318:51|318:51|321:52|321:52|319:49|319:49|320:48|320:48|318:45|318:45|321:46|321:46|322:44|322:44|325:44|325:44|323:42|323:42|323:41|324:40|324:40|321:38|321:38|325:39|325:39|325:37|325:37|329:37|329:37|326:35|326:35|327:34|327:33|327:33|325:31|325:31|328:31|328:31|328:30|329:30|329:30|332:30|332:30|329:28|329:28|330:26|330:26|327:24|327:24|331:24|331:24|331:23|331:23|331:24|331:24|328:24|328:24|330:26|330:26|330:28|330:28|333:29|333:29|330:30|330:30|329:32|329:32|326:32|326:32|329:34|329:34|328:36|328:36|331:37|331:37|328:38|328:38|327:40|327:40|324:40|324:40|327:42|327:42|327:44|327:44|329:45|329:45|326:45|326:45|326:47|326:47|323:48|323:48|325:49|325:49|325:51|325:51|328:53|328:53|325:53|325:53|324:55|324:55|321:56|321:56|324:57|324:57|323:59|323:59|326:61|326:61|323:61|323:61|323:63|323:63|319:63|319:63|322:65|322:65|322:67|322:67|324:69|324:69|321:69|321:69|321:71|321:71|318:71|318:71|320:73|320:73|320:75|320:75|323:76|323:76|320:77|320:77|319:79|319:79|316:79|316:79|319:81|319:81|318:83|318:83|321:84|321:84|318:85|318:85|318:87|318:87|314:87|314:87|317:89|317:89|317:90|317:90|319:92|319:92|316:92|316:92|316:94|316:94|313:95|313:95|315:96|315:96|315:98|315:98|318:100|318:100|315:100|315:100|314:102|314:102|311:103|311:103|314:104|314:104|313:106|313:106|316:108|316:108|313:108|313:108|313:110|313:110|309:110|309:110|312:112|312:112|312:114|312:114|315:116|315:116|311:116|311:116|311:118|311:118|308:118|308:118|311:120|311:120|310:122|310:122|313:123|313:123|310:124|310:124|309:126|309:126|306:126|306:126|309:128|309:128|308:130|308:130|311:131|311:131|308:132|308:132|308:133|308:133|305:134|305:134|307:135|307:135|307:137|307:137|310:139|310:139|306:139|306:139|306:141|306:141|303:142|303:142|306:143|306:143|305:145|305:145|308:147|308:147|305:147|305:147|304:149|304:149|301:149|301:149|304:151|304:151|304:153|304:153|306:155|306:155|303:155|303:155|303:157|303:157|300:157|300:157|302:159|302:159|302:161|302:161|304:163|304:163|301:163|301:163|301:165|301:165|298:166|298:166|301:167|301:167|300:169|300:169|303:171|303:171|300:171|300:171|299:173|299:173|296:173|296:173|299:175|299:175|298:177|298:177|301:179|301:179|298:179|298:179|298:181|298:181|294:181|294:181|297:183|297:183|297:185|297:185|300:186|300:186|296:187|296:187|296:189|296:189|293:189|293:189|296:191|296:191|295:193|295:193|298:194|298:194|295:195|295:195|294:198,1,594.993202064052,0|0,3:0|0:0,0:0:0:0:
293,198,5594,6,0,P|318:198|340:213,1,52.5000020027161
323,298,5876,2,0,P|297:297|275:282,1,52.5000020027161,0|2,0:0|0:0,0:0:0:0:
144,215,6159,6,0,B|145:213|145:212|145:212|143:210|143:210|146:210|146:210|147:209|147:209|150:209|150:209|148:207|148:207|148:206|149:205|149:205|146:203|146:203|149:203|149:203|150:202|150:201|150:201|153:201|153:201|150:199|150:199|151:198|151:197|151:197|148:196|148:196|151:195|151:195|152:194|152:193|152:193|155:193|155:193|152:191|152:191|152:190|152:189|152:189|150:188|150:188|153:187|153:187|153:186|153:185|153:185|156:184|156:184|153:183|153:183|153:182|153:181|153:181|150:180|150:180|153:179|153:179|153:178|153:177|153:177|156:176|156:176|153:175|153:175|152:174|152:173|152:173|149:173|149:173|152:171|152:171|152:170|152:169|152:169|154:168|154:168|151:168|151:168|151:166|151:166|147:165|147:165|150:164|150:164|150:162|150:162|152:160|152:160|149:160|149:160|148:158|148:158|145:158|145:158|148:156|148:156|147:155|147:154|147:154|149:152|149:152|146:152|146:152|145:151|145:151|142:151|142:151|144:149|144:149|144:148|143:147|143:147|145:145|145:145|142:145|142:145|142:144|141:144|141:144|138:144|138:144|140:142|140:142|139:141|139:140|139:140|138:144|138:144|141:142|141:142|142:142|142:142|145:140|145:140|144:143|144:143|145:144|146:144|146:144|145:147|145:147|147:145|147:145|148:146|149:147|149:147|151:145|151:145|150:148|150:148|151:149|152:149|152:149|151:152|151:152|154:150|154:150|154:151|155:152|155:152|158:150|158:150|157:153|157:153|158:154|158:154|157:157|157:157|160:155|160:155|160:156|161:157|161:157|164:155|164:155|163:158|163:158|163:159|164:159|164:159|163:162|163:162|166:161|166:161|167:162|167:162|170:161|170:161|168:164|168:164|169:164|170:165|170:165|168:168|168:168|171:166|171:166|172:167|172:168|172:168|175:166|175:166|174:169|174:169|175:170|175:171|175:171|174:173|174:173|176:172|176:172|177:173|178:174|178:174|181:173|181:173|179:175|179:175|180:176|180:177|180:177|179:180|179:180|181:179|181:179|182:179|183:180|183:180|186:179|186:179|184:182|184:182|184:183|185:183|185:183|183:186|183:186|186:185|186:185|187:186|187:187|187:187|190:186|190:186|188:189|188:189|189:190|189:190|187:193|187:193|190:192|190:192|190:193|191:194|191:194|194:193|194:193|192:196|192:196|192:197|193:198|193:198|190:200|190:200|193:199|193:199|194:200|194:201|194:201|197:201|197:201|195:203|195:203|195:204|195:205|195:205|193:207|193:207|196:207|196:207|196:208|197:209|197:209|200:209|200:209|197:211|197:211|197:212|198:213|198:213|195:214|195:214|198:215|198:215|198:216|199:216|199:216|202:217|202:217|199:218|199:218|199:220|199:220|196:222|196:222|199:222|199:222|200:224|200:224|203:225|203:225|200:226|200:226|200:228|200:228|197:230|197:230|200:230|200:230|200:232|200:232|203:234|203:234|200:235|200:235|200:236|200:237|200:237|197:237|197:237|200:238|200:238|200:240|200:240|203:242|203:242|200:243|200:243|200:244|200:244|196:245|196:245|199:246|199:246|199:248|199:248|202:250|202:250|199:250|199:250|199:252|198:252|198:252|195:253|195:253|198:254|198:254|198:256|198:256|200:258|200:258|197:258|197:258|197:259|197:260|197:260|193:260|193:260|196:262|196:262|196:263|196:264|196:264|198:266|198:266|195:266|195:266|195:267|194:268|194:268|192:268|192:268|194:270|194:270|193:271|193:272|193:272|196:274|196:274|192:274|192:274|192:275|192:275|189:275|189:275|191:277|191:277|191:278|190:279|190:279|192:281|192:281|189:281|189:281|189:282|189:283|189:283|186:282|186:282|188:285|188:285|187:286|187:287|187:287|189:289|189:289|186:288|186:288|185:290|185:290|182:289|182:289|184:292|184:292|184:293|183:294|183:294|185:296|185:296|182:295|182:295|182:297|181:297|181:297|178:297|178:297|180:299|180:299|180:300|179:301|179:301|182:303|182:303|178:302|178:302|178:303|177:304|177:304|174:303|174:303|176:306|176:306|175:307|175:307|177:310|177:310|174:309|174:309|173:311|173:311|173:312,1,587.001697996487,0|0,3:0|0:0,0:0:0:0:
173,312,6725,6,0,P|167:338|162:364,1,52.5000020027161
75,344,7008,2,0,P|79:318|85:292,1,52.5000020027161,0|2,0:0|0:0,0:0:0:0:
140,140,7291,6,0,B|141:139|142:138|142:138|141:135|141:135|144:137|144:137|145:136|145:135|145:135|148:137|148:137|147:134|147:134|148:133|149:133|149:133|148:130|148:130|150:132|150:132|151:131|152:131|152:131|154:133|154:133|154:130|154:130|154:129|155:129|155:129|155:126|155:126|157:128|157:128|158:127|159:127|159:127|161:129|161:129|161:126|161:126|162:125|162:125|162:122|162:122|164:124|164:124|165:124|166:123|166:123|168:126|168:126|168:123|168:123|169:122|170:122|170:122|170:119|170:119|172:121|172:121|173:121|174:121|174:121|175:124|175:124|176:121|176:121|177:120|178:120|178:120|178:117|178:117|179:120|179:120|181:120|182:120|182:120|183:122|183:122|184:119|184:119|185:119|186:119|186:119|187:116|187:116|188:119|188:119|189:119|190:119|190:119|190:122|190:122|192:120|192:120|193:120|194:120|194:120|195:117|195:117|196:120|196:120|197:120|198:120|198:120|198:124|198:124|199:121|199:121|201:121|201:121|203:119|203:119|203:122|203:122|205:122|205:122|205:125|205:125|207:123|207:123|209:124|209:124|211:122|211:122|211:125|211:125|212:125|213:125|213:125|212:128|212:128|214:126|214:126|216:127|216:127|218:125|218:125|218:128|218:128|219:129|220:129|220:129|219:132|219:132|221:130|221:130|223:131|223:131|226:129|226:129|225:132|225:132|226:133|226:133|225:137|225:137|228:135|228:135|229:136|230:136|230:136|233:134|233:134|231:137|231:137|233:138|233:138|232:141|232:141|234:140|234:140|236:141|236:141|239:139|239:139|237:142|237:142|239:143|239:143|238:146|238:146|240:145|240:145|242:146|242:146|245:145|245:145|243:148|243:148|244:149|245:149|245:149|243:152|243:152|246:151|246:151|247:151|247:152|247:152|251:150|251:150|249:153|249:153|250:154|250:155|250:155|249:157|249:157|251:156|251:156|253:158|253:158|256:157|256:157|254:159|254:159|255:160|255:161|255:161|254:164|254:164|257:162|257:162|258:164|258:164|261:163|261:163|259:166|259:166|260:166|261:167|261:167|259:170|259:170|262:169|262:169|262:170|263:170|263:170|266:169|266:169|264:172|264:172|265:172|266:173|266:173|264:176|264:176|267:175|267:175|268:175|268:176|268:176|271:175|271:175|270:178|270:178|271:178|271:179|271:179|270:182|270:182|273:181|273:181|274:182|274:182|277:180|277:180|276:183|276:183|276:184|277:184|277:184|276:188|276:188|278:186|278:186|279:187|280:187|280:187|283:186|283:186|282:189|282:189|283:189|283:190|283:190|282:193|282:193|285:191|285:191|286:192|286:192|289:190|289:190|288:193|288:193|289:194|290:194|290:194|289:197|289:197|291:196|291:196|292:196|293:197|293:197|295:194|295:194|295:198|295:198|296:198|296:199|296:199|296:202|296:202|298:200|298:200|299:200|300:201|300:201|302:198|302:198|302:202|302:202|303:202|303:202|303:205|303:205|305:203|305:203|306:204|307:204|307:204|309:201|309:201|309:205|309:205|310:205|311:205|311:205|311:209|311:209|313:206|313:206|314:206|315:207|315:207|316:204|316:204|317:207|317:207|318:208|318:208|319:211|319:211|320:208|320:208|321:208|322:209|322:209|324:206|324:206|324:209|324:209|325:209|326:209|326:209|327:212|327:212|328:209|328:209|330:210|330:210|331:207|331:207|332:210|332:210|334:210|334:210|335:213|335:213|336:210|336:210|338:210|338:210|339:207|339:207|340:210|340:210|342:210|342:210|343:213|343:213|344:209|344:209|346:209|346:209|347:206|347:206|348:209|348:209|349:209|350:209|350:209|352:212|352:212|352:208|352:208|354:208|354:208|354:205|354:205|356:207|356:207|358:207|358:207|360:209|360:209|360:206|360:206|361:206|362:206|362:206|362:203|362:203|364:205|364:205|365:205|366:205|366:205|368:207|368:207|368:204|368:204|369:204|369:203|369:203|369:200|369:200|371:203|371:203|372:202|373:202|373:202|375:204|375:204|375:201|375:201|376:200|377:200|377:200|376:197|376:197|379:199|379:199|381:198,1,586.12762032609,0|0,3:0|0:0,0:0:0:0:
430,138,7715,6,0,B|419:89|419:89|421:83|421:83|411:35,1,105.000004005432
497,67,8139,2,0,B|502:91|502:91|501:93|501:93|506:118,1,52.5000020027161,0|2,0:0|0:0,0:0:0:0:
490,250,8422,6,0,L|438:239,1,52.5000020027161,0|0,1:0|0:0,0:0:0:0:
378,384,8564,2,0,L|413:344,1,52.5000020027161,0|0,1:0|0:0,0:0:0:0:
317,220,8705,2,0,L|333:269,1,52.5000020027161,0|0,1:0|0:0,0:0:0:0:
211,343,8847,5,0,1:0:0:0:
214,333,8917,1,0,1:0:0:0:
217,323,8988,2,0,L|233:273,1,52.5000020027161,0|0,1:0|0:0,0:0:0:0:
105,237,9130,2,0,L|121:286,1,52.5000020027161,0|0,1:0|0:0,0:0:0:0:
233,172,9271,6,0,P|211:182|191:184,1,43.75,0|0,1:0|0:0,0:0:0:0:
170,110,9412,2,0,P|191:99|211:97,1,43.75,0|0,1:0|0:0,0:0:0:0:
317,220,9554,6,0,B|318:217|318:217|315:215|315:215|318:215|318:215|319:213|319:213|322:212|322:212|319:211|319:211|319:209|319:209|317:207|317:207|320:207|320:207|320:205|320:205|323:204|323:204|321:203|321:203|321:201|321:201|318:199|318:199|321:199|321:199|322:197|322:197|325:197|325:197|322:195|322:195|323:193|323:193|320:192|320:192|323:191|323:191|323:189|323:189|327:189|327:189|324:187|324:187|324:185|324:185|322:184|322:184|325:183|325:183|325:181|325:181|328:181|328:181|325:179|325:179|326:177|326:177|323:176|323:176|326:175|326:175|327:174|327:174|330:173|330:173|327:172|327:172|328:170|328:170|325:168|325:168|328:168|328:168|328:166|328:166|331:165|331:165|329:164|329:164|329:162|329:162|326:160|326:160|330:160|330:160|330:158|330:158|333:157|333:157|330:156|330:156|331:154|331:154|328:152|328:152|331:152|331:152|332:150|332:150|335:150|335:150|332:148|332:148|332:146|332:146|330:145|330:145|333:144|333:144|333:142|333:142|336:142|336:142|334:140|334:140|334:138|334:138|331:137|331:137|334:136|334:136|335:134|335:134|338:134|338:134|335:132|335:132|336:130|336:130|333:129|333:129|336:129|336:129|337:127|337:127|340:126|340:126|337:125|337:125|337:123|337:123|335:121|335:121|338:121|338:121|338:119|338:119|341:118|341:118|339:117|339:117|339:115|339:115|336:113|336:113|339:113|339:113|340:111|340:111|343:111|343:111|340:109|340:109|341:107|341:107|338:105|338:105|341:105|341:105|341:103|341:103|345:103|345:103|342:101|342:101|342:99|342:99|339:98|339:98|343:97|343:97|343:95|343:95|346:95|346:95|343:93|343:93|344:91|344:91|341:90|341:90|344:89|344:89|345:87|345:87|348:87|348:87|345:85|345:85|345:84|345:84|343:82|343:82|346:82|346:82|346:80|346:80|349:79|349:79|347:78|347:78|347:76|347:76|344:74|344:74|348:74|348:74|348:72|348:72|351:71|351:71|348:70|348:70|349:68|349:68|346:66|346:66|349:66|349:66|350:64|350:64|353:64|353:64|350:62|350:62|350:60|350:60|348:58|348:58|351:58|351:58|351:56|351:56|354:56|354:56|352:54|352:54|352:52|352:52|349:51|349:51|352:50|352:50|353:48|353:48|356:48|356:48|353:46|353:46|354:44|354:44|351:43|351:43|354:42|354:42|354:40|354:40|358:40|358:40|355:38|355:38|355:39|355:39|358:40|358:40|355:41|355:41|355:42|355:43|355:43|352:44|352:44|355:45|355:45|355:47|355:47|358:48|358:48|355:49|355:49|355:50|355:51|355:51|352:52|352:52|355:53|355:53|355:54|355:55|355:55|358:56|358:56|355:57|355:57|355:58|355:59|355:59|353:60|353:60|356:61|356:61|356:62|356:63|356:63|359:64|359:64|356:65|356:65|356:66|356:67|356:67|354:69|354:69|357:69|357:69|357:70|357:71|357:71|360:71|360:71|358:73|358:73|358:74|358:75|358:75|356:77|356:77|358:77|358:77|359:78|359:79|359:79|362:79|362:79|360:81|360:81|360:82|360:83|360:83|358:84|358:84|361:84|361:84|361:85|361:86|361:86|365:86|365:86|362:88|362:88|363:89|363:90|363:90|361:92|361:92|364:92|364:92|364:93|364:94|364:94|368:93|368:93|365:96|365:96|366:97|366:97|364:100|364:100|367:99|367:99|368:100|368:101|368:101|371:100|371:100|369:103|369:103|370:104|370:105|370:105|368:107|368:107|371:106|371:106|372:108|372:108|375:107|375:107|373:109|373:109|374:111|374:111|373:114|373:114|376:113|376:113|376:114|377:114|377:114|380:113|380:113|378:116|378:116|379:117|379:118|379:118|378:120|378:120|381:119|381:119|381:120|382:120|382:120|385:119|385:119|383:122|383:122|385:124,1,581.812680666543,0|0,3:0|0:0,0:0:0:0:
385,124,10120,6,0,P|410:118|436:113,1,52.5000020027161
461,196,10403,2,0,P|435:200|409:206,1,52.5000020027161,0|2,0:0|0:0,0:0:0:0:
264,338,10685,6,0,B|264:340|264:341|264:341|267:342|267:342|264:343|264:343|264:344|264:345|264:345|261:347|261:347|264:347|264:347|264:348|265:349|265:349|268:349|268:349|265:351|265:351|265:352|266:353|266:353|263:355|263:355|266:355|266:355|267:356|267:357|267:357|270:356|270:356|268:358|268:358|269:359|269:360|269:360|267:363|267:363|270:362|270:362|271:363|271:363|274:362|274:362|273:365|273:365|274:366|274:366|273:369|273:369|276:368|276:368|276:369|277:369|277:369|280:367|280:367|279:370|279:370|280:371|280:371|280:375|280:375|282:373|282:373|283:373|284:373|284:373|286:371|286:371|285:374|285:374|286:375|287:375|287:375|287:378|287:378|289:376|289:376|290:376|291:377|291:377|293:374|293:374|293:377|293:377|294:378|295:378|295:378|295:381|295:381|297:378|297:378|298:378|299:379|299:379|300:376|300:376|301:379|301:379|302:379|303:379|303:379|304:382|304:382|305:379|305:379|306:379|307:379|307:379|308:376|308:376|309:379|309:379|310:379|311:379|311:379|312:381|312:381|313:378|313:378|314:378|315:378|315:378|315:375|315:375|317:378|317:378|318:377|319:377|319:377|321:379|321:379|321:376|321:376|322:376|322:376|322:372|322:372|324:375|324:375|325:374|326:374|326:374|328:376|328:376|328:373|328:373|329:372|329:372|328:369|328:369|331:371|331:371|332:370|333:370|333:370|335:371|335:371|334:368|334:368|335:367|336:367|336:367|334:364|334:364|337:366|337:366|338:365|338:364|338:364|341:365|341:365|340:363|340:363|340:362|341:361|341:361|339:358|339:358|342:359|342:359|343:358|343:358|346:358|346:358|344:356|344:356|345:355|345:354|345:354|343:352|343:352|346:352|346:352|346:351|347:350|347:350|350:350|350:350|347:349|347:349|348:347|348:347|346:345|346:345|349:345|349:345|349:343|349:343|352:342|352:342|349:341|349:341|350:340|350:339|350:339|347:337|347:337|350:337|350:337|350:335|350:335|353:334|353:334|350:333|350:333|350:332|350:331|350:331|347:330|347:330|350:329|350:329|350:327|350:327|354:326|354:326|350:325|350:325|350:323|350:323|347:322|347:322|350:321|350:321|350:319|350:319|352:317|352:317|349:317|349:317|349:316|349:316|349:315|349:315|346:315|346:315|348:313|348:313|348:311|348:311|351:310|351:310|347:309|347:309|347:307|347:307|344:307|344:307|347:305|347:305|346:303|346:303|349:302|349:302|346:301|346:301|345:299|345:299|342:299|342:299|345:297|345:297|344:296|344:296|347:294|347:294|344:294|344:294|344:292|344:292|340:291|340:291|343:290|343:290|343:288|343:288|345:286|345:286|342:286|342:286|342:284|342:284|339:283|339:283|341:282|341:282|341:279|341:279|344:278|344:278|341:277|341:277|340:276|340:276|337:275|337:275|340:274|340:274|339:272|339:272|342:270|342:270|339:270|339:270|338:268|338:268|335:267|335:267|338:266|338:266|337:264|337:264|340:262|340:262|337:262|337:262|337:260|337:260|333:260|333:260|336:258|336:258|336:256|336:256|338:254|338:254|335:254|335:254|335:252|335:252|332:252|332:252|334:250|334:250|334:248|334:248|337:247|337:247|334:246|334:246|333:244|333:244|330:244|330:244|333:242|333:242|332:240|332:240|335:239|335:239|332:238|332:238|331:237|331:237|328:236|328:236|331:235|331:235|331:233|331:233|333:231|333:231|330:231|330:231|330:229|330:229|327:228|327:228|329:227|329:227|329:225|329:225|332:223|332:223|328:223|328:223|328:221|328:221|325:221|325:221|328:219|328:219|327:217|327:217|330:215|330:215|327:215|327:215|326:213|326:213|323:213|323:213|326:211|326:211|325:209|325:209|328:208|328:208|325:207|325:207|325:205|325:205|321:205|321:205|324:203|324:203|324:201|324:201|326:200|326:200|323:199|323:199|323:198|323:198|320:197|320:197|322:196|322:196|322:193,1,583.288699984518,0|0,3:0|0:0,0:0:0:0:
322,192,11251,6,0,P|296:191|274:176,1,52.5000020027161
236,108,11534,2,0,P|210:109|188:124,1,52.5000020027161,0|2,0:0|0:0,0:0:0:0:
35,338,11817,6,0,B|36:339|38:339|38:339|40:337|40:337|40:340|40:340|41:340|42:340|42:340|42:343|42:343|44:341|44:341|45:341|46:341|46:341|47:338|47:338|48:341|48:341|49:341|50:342|50:342|50:345|50:345|52:342|52:342|53:342|54:342|54:342|55:339|55:339|56:342|56:342|57:342|58:342|58:342|59:345|59:345|60:342|60:342|61:342|62:342|62:342|62:339|62:339|64:341|64:341|65:341|66:341|66:341|67:344|67:344|67:341|67:341|69:340|69:340|70:337|70:337|71:340|71:340|72:339|73:339|73:339|75:342|75:342|75:338|75:338|76:338|77:338|77:338|77:335|77:335|79:337|79:337|80:336|81:336|81:336|83:338|83:338|82:335|82:335|83:334|84:334|84:334|83:331|83:331|86:333|86:333|87:332|87:332|90:333|90:333|89:330|89:330|90:330|90:329|90:329|89:326|89:326|92:328|92:328|93:327|93:326|93:326|96:328|96:328|95:325|95:325|95:324|96:323|96:323|94:321|94:321|97:322|97:322|98:321|99:320|99:320|101:321|101:321|100:319|100:319|100:318|101:317|101:317|99:315|99:315|102:315|102:315|102:314|103:313|103:313|106:314|106:314|104:312|104:312|104:311|105:310|105:310|102:308|102:308|105:308|105:308|106:307|106:306|106:306|109:306|109:306|107:304|107:304|107:303|108:303|108:303|105:301|105:301|108:301|108:301|109:300|109:299|109:299|112:299|112:299|110:297|110:297|110:296|110:295|110:295|108:293|108:293|111:293|111:293|111:292|111:291|111:291|114:291|114:291|112:289|112:289|112:288|112:287|112:287|110:286|110:286|113:285|113:285|113:284|113:283|113:283|116:283|116:283|114:281|114:281|114:280|114:279|114:279|111:278|111:278|114:277|114:277|115:276|115:275|115:275|118:275|118:275|115:274|115:274|115:272|116:272|116:272|113:270|113:270|116:270|116:270|116:269|116:268|116:268|119:267|119:267|117:266|117:266|117:265|117:264|117:264|114:262|114:262|117:262|117:262|118:261|118:260|118:260|121:259|121:259|118:258|118:258|118:257|119:256|119:256|116:254|116:254|119:254|119:254|119:253|120:252|120:252|123:252|123:252|120:250|120:250|120:249|121:248|121:248|118:246|118:246|121:246|121:246|121:245|122:244|122:244|125:244|125:244|122:242|122:242|123:241|123:240|123:240|121:239|121:239|124:239|124:239|124:238|124:237|124:237|128:237|128:237|125:235|125:235|126:234|126:233|126:233|124:231|124:231|127:231|127:231|127:230|128:229|128:229|131:230|131:230|129:228|129:228|129:227|130:226|130:226|128:224|128:224|131:224|131:224|131:223|132:223|132:223|135:224|135:224|133:221|133:221|134:220|134:219|134:219|133:217|133:217|136:218|136:218|136:217|137:216|137:216|140:218|140:218|138:215|138:215|139:214|140:214|140:214|138:211|138:211|141:212|141:212|142:211|143:211|143:211|145:213|145:213|144:210|144:210|145:209|146:208|146:208|145:205|145:205|147:207|147:207|148:207|149:206|149:206|152:208|152:208|151:205|151:205|152:205|153:204|153:204|152:201|152:201|154:203|154:203|155:203|156:202|156:202|158:205|158:205|158:202|158:202|159:201|160:201|160:201|160:198|160:198|162:200|162:200|163:200|164:200|164:200|165:202|165:202|166:199|166:199|167:199|168:199|168:199|168:196|168:196|170:198|170:198|171:198|171:198|173:201|173:201|173:198|173:198|175:198|175:198|176:194|176:194|177:197|177:197|179:197|180:197|180:197|181:200|181:200|181:197|181:197|183:197|184:197|184:197|185:194|185:194|185:198|185:198|186:198|187:198|187:198|188:201|188:201|189:198|189:198|190:198|191:198|191:198|193:196|193:196|193:199|193:199|194:199|195:200|195:200|195:203|195:203|197:200|197:200|198:201|199:201|199:201|201:199|201:199|201:202|201:202|202:203|202:203|201:206|201:206|204:205|204:205|205:206|205:206|208:206|208:206|206:208|206:208|206:209|206:210|206:210|203:211|203:211|206:212|206:212|206:213|206:214|206:214|208:216|208:216|205:216|205:216|204:217|204:217|201:216|201:216|202:219|202:219|202:220|201:220|201:220|202:223|202:223|199:221|199:221|198:222|197:223,1,580.422095162584,0|0,3:0|0:0,0:0:0:0:
196,223,12383,6,0,P|171:217|145:212,1,52.5000020027161
88,155,12666,2,0,P|62:159|36:166,1,52.5000020027161,0|2,0:0|0:0,0:0:0:0:
0,89,12949,2,0,P|32:49|83:50,1,105.000004005432,0|2,0:0|0:0,0:0:0:0:
83,49,13514,6,0,P|104:63|130:64,1,52.5000020027161,0|2,0:0|0:0,0:0:0:0:
197,18,13797,2,0,P|218:3|244:2,1,52.5000020027161
326,143,14080,6,0,B|329:142|329:142|330:139|330:139|331:142|331:142|333:142|333:142|335:144|335:144|335:141|335:141|337:141|337:141|338:138|338:138|339:141|339:141|341:140|341:140|343:143|343:143|343:140|343:140|345:139|345:139|346:136|346:136|347:139|347:139|349:139|349:139|351:141|351:141|351:138|351:138|353:138|353:138|353:135|353:135|355:138|355:138|357:137|357:137|358:140|358:140|359:137|359:137|361:136|361:136|361:133|361:133|363:136|363:136|365:136|365:136|366:139|366:139|367:135|367:135|369:135|369:135|369:132|369:132|371:135|371:135|373:134|373:134|374:137|374:137|374:134|374:134|376:134|376:134|377:130|377:130|378:133|378:133|380:133|380:133|382:136|382:136|382:132|382:132|384:132|384:132|385:129|385:129|386:132|386:132|388:131|388:131|390:134|390:134|390:131|390:131|392:131|392:131|393:127|393:127|394:130|394:130|396:130|396:130|398:133|398:133|398:129|398:129|400:129|400:129|400:126|400:126|402:129|402:129|404:128|404:128|405:131|405:131|406:128|406:128|408:128|408:128|408:125|408:125|410:127|410:127|412:127|412:127|413:130|413:130|414:127|414:127|416:126|416:126|416:123|416:123|418:126|418:126|420:125|420:125|421:128|421:128|422:125|422:125|421:125|421:125|419:127|419:127|419:124|419:124|417:124|417:124|416:121|416:121|415:123|415:123|413:123|413:123|411:126|411:126|411:123|411:123|409:122|409:122|408:119|408:119|407:122|407:122|405:121|405:121|403:124|403:124|403:121|403:121|401:121|401:121|401:117|401:117|399:120|399:120|397:120|397:120|395:123|395:123|395:119|395:119|393:119|393:119|393:116|393:116|391:119|391:119|389:118|389:118|388:121|388:121|387:118|387:118|385:117|385:117|385:114|385:114|383:117|383:117|381:117|381:117|380:119|380:119|379:116|379:116|377:116|377:116|377:113|377:113|376:115|376:115|374:115|374:115|372:118|372:118|372:115|372:115|370:114|370:114|369:111|369:111|368:114|368:114|366:113|366:113|364:116|364:116|364:113|364:113|362:112|362:112|361:109|361:109|360:112|360:112|358:112|358:112|356:114|356:114|356:111|356:111|354:111|354:111|354:108|354:108|352:110|352:110|350:110|350:110|349:113|349:113|348:110|348:110|346:109|346:109|346:106|346:106|344:109|344:109|342:108|342:108|341:111|341:111|340:108|340:108|338:108|338:108|338:104|338:104|336:107|336:107|334:107|334:107|333:110|333:110|333:106|333:106|331:106|331:106|330:103|330:103|329:106|329:106|327:105|327:105|325:108|325:108|325:105|325:105|323:104|323:104|322:101|322:101|321:104|321:104|319:104|319:104|317:106|317:106|317:103|317:103|315:103|315:103|315:100|315:100|313:102|313:102|311:102|311:102|309:105|309:105|309:102|309:102|307:101|307:101|307:98|307:98|305:101|305:101|303:100|303:100|302:103|302:103|301:100|301:100|299:99|299:99|299:96|299:96|297:99|297:99|295:99|295:99|294:101|294:101|293:98|293:98|291:98|291:98|291:95|291:95|289:97|289:97|288:97|288:97|286:100|286:100|286:97|286:97|284:96|284:96|283:93|283:93|282:96|282:96|280:95|280:95|278:98|278:98|278:95|278:95|276:95|276:95|275:91|275:91|274:94|274:94|272:94|272:94|270:97|270:97|270:93|270:93|268:93|268:93|268:90|268:90|266:93|266:93|264:92|264:92|262:95|262:95|262:92|262:92|260:91|260:91|259:88|259:88|258:91|258:91|256:90|256:90|254:93|254:93|254:90|254:90|252:90|252:90|251:86|251:86|250:89|250:89|248:89|248:89|246:92|246:92|246:88|246:88|244:88|244:88|243:88,1,595.743691142964,0|0,3:0|0:0,0:0:0:0:
243,88,14646,6,0,P|229:109|228:135,1,52.5000020027161
270,202,14929,2,0,P|284:223|285:249,1,52.5000020027161,0|2,0:0|0:0,0:0:0:0:
115,374,15212,6,0,B|119:373|119:373|120:376|120:376|121:373|121:373|123:372|123:372|123:369|123:369|125:372|125:372|127:372|127:372|128:374|128:374|129:371|129:371|131:371|131:371|131:368|131:368|133:370|133:370|135:370|135:370|136:373|136:373|136:370|136:370|138:369|138:369|139:366|139:366|140:369|140:369|142:368|142:368|144:371|144:371|144:368|144:368|146:368|146:368|147:365|147:365|148:367|148:367|150:367|150:367|152:370|152:370|152:366|152:366|154:366|154:366|154:363|154:363|156:366|156:366|158:365|158:365|160:368|160:368|160:365|160:365|162:364|162:364|162:361|162:361|164:364|164:364|166:364|166:364|167:366|167:366|168:363|168:363|170:363|170:363|170:360|170:360|172:362|172:362|174:362|174:362|175:365|175:365|176:362|176:362|178:361|178:361|178:358|178:358|179:361|179:361|181:360|181:360|183:363|183:363|183:360|183:360|185:360|185:360|186:357|186:357|187:359|187:359|189:359|189:359|191:362|191:362|191:358|191:358|193:358|193:358|193:355|193:355|195:358|195:358|197:357|197:357|199:360|199:360|199:357|199:357|201:356|201:356|201:353|201:353|203:356|203:356|205:356|205:356|206:358|206:358|207:355|207:355|209:355|209:355|209:352|209:352|211:354|211:354|213:354|213:354|214:357|214:357|215:354|215:354|217:353|217:353|217:350|217:350|218:353|218:353|220:352|220:352|222:355|222:355|222:352|222:352|224:352|224:352|225:348|225:348|226:351|226:351|228:351|228:351|230:353|230:353|230:350|230:350|232:350|232:350|233:347|233:347|234:349|234:349|236:349|236:349|238:352|238:352|238:349|238:349|240:348|240:348|240:345|240:345|242:348|242:348|244:347|244:347|245:350|245:350|246:347|246:347|248:347|248:347|248:343|248:343|250:346|250:346|252:346|252:346|253:348|253:348|254:345|254:345|256:345|256:345|256:342|256:342|258:345|258:345|259:344|259:344|261:347|261:347|261:344|261:344|263:343|263:343|264:340|264:340|265:343|265:343|267:342|267:342|269:345|269:345|269:342|269:342|271:342|271:342|272:338|272:338|273:341|273:341|275:341|275:341|277:344|277:344|277:340|277:340|279:340|279:340|279:337|279:337|281:340|281:340|283:339|283:339|284:342|284:342|285:339|285:339|287:338|287:338|287:335|287:335|289:338|289:338|291:337|291:337|292:340|292:340|293:337|293:337|295:337|295:337|295:333|295:333|296:336|296:336|298:336|298:336|300:338|300:338|300:335|300:335|302:335|302:335|303:332|303:332|304:335|304:335|306:334|306:334|308:337|308:337|308:334|308:334|310:333|310:333|310:330|310:330|312:333|312:333|314:332|314:332|316:335|316:335|316:332|316:332|318:332|318:332|318:328|318:328|320:331|320:331|322:331|322:331|323:333|323:333|324:330|324:330|326:330|326:330|326:327|326:327|328:329|328:329|330:329|330:329|331:332|331:332|332:329|332:329|334:328|334:328|334:325|334:325|335:328|335:328|337:327|337:327|339:330|339:330|339:327|339:327|341:326|341:326|342:323|342:323|343:326|343:326|345:326|345:326|347:328|347:328|347:325|347:325|349:325|349:325|349:322|349:322|351:324|351:324|353:324|353:324|355:327|355:327|355:324|355:324|357:323|357:323|357:320|357:320|359:323|359:323|361:322|361:322|362:325|362:325|363:322|363:322|365:321|365:321|365:318|365:318|367:321|367:321|369:321|369:321|370:323|370:323|371:320|371:320|372:320|372:320|373:317|373:317|374:319|374:319|376:319|376:319|378:322|378:322|378:318|378:318|380:318|380:318|381:315|381:315|382:318|382:318|384:317|384:317|386:320|386:320|386:317|386:317|389:316,1,588.293837168975,0|0,3:0|0:0,0:0:0:0:
389,316,15777,6,0,P|395:291|400:265,1,52.5000020027161
459,208,16060,2,0,P|453:183|448:157,1,52.5000020027161,0|2,0:0|0:0,0:0:0:0:
362,0,16343,6,0,B|363:1|364:3|364:3|367:2|367:2|365:5|365:5|366:6|366:6|363:8|363:8|366:8|366:8|367:9|367:10|367:10|371:9|371:9|368:12|368:12|369:13|369:14|369:14|367:15|367:15|370:15|370:15|370:16|371:17|371:17|374:17|374:17|371:19|371:19|372:20|372:21|372:21|370:23|370:23|373:23|373:23|373:24|373:25|373:25|376:25|376:25|374:27|374:27|374:28|374:28|371:30|371:30|375:31|375:31|375:32|375:32|378:33|378:33|375:34|375:34|376:36|376:36|373:38|373:38|376:38|376:38|376:39|376:40|376:40|379:41|379:41|376:42|376:42|376:43|376:44|376:44|373:45|373:45|376:46|376:46|376:47|376:48|376:48|379:50|379:50|376:50|376:50|376:51|375:52|375:52|372:53|372:53|375:54|375:54|375:56|375:56|377:58|377:58|374:58|374:58|374:60|374:60|371:60|371:60|373:62|373:62|373:63|372:64|372:64|375:66|375:66|372:66|372:66|371:67|371:68|371:68|368:67|368:67|370:69|370:69|369:71|369:71|371:73|371:73|368:73|368:73|367:74|367:75|367:75|364:74|364:74|366:76|366:76|365:77|365:78|365:78|366:80|366:80|364:79|364:79|363:81|362:81|362:81|359:80|359:80|361:83|361:83|360:84|360:84|361:87|361:87|358:86|358:86|357:87|357:87|354:86|354:86|356:88|356:88|355:89|354:90|354:90|356:93|356:93|353:91|353:91|352:92|351:93|351:93|348:91|348:91|350:94|350:94|348:95|348:95|349:98|349:98|347:96|347:96|345:97|345:98|345:98|343:96|343:96|344:99|344:99|342:100|342:100|343:103|343:103|340:101|340:101|339:102|339:102|336:100|336:100|337:104|337:104|335:105|335:105|336:107|336:107|334:106|334:106|332:107|332:107|330:105|330:105|330:108|330:108|329:109|328:109|328:109|329:112|329:112|327:110|327:110|326:111|325:111|325:111|322:108|322:108|323:112|323:112|321:113|321:113|322:117|322:117|319:114|319:114|318:114|318:115|318:115|316:112|316:112|316:116|316:116|315:116|314:117|314:117|315:119|315:119|313:118|313:118|312:118|311:119|311:119|308:117|308:117|309:120|309:120|308:120|308:121|308:121|309:124|309:124|306:122|306:122|305:122|304:123|304:123|302:121|302:121|303:124|303:124|302:125|301:125|301:125|302:129|302:129|299:126|299:126|298:127|298:128|298:128|295:126|295:126|296:129|296:129|295:129|295:130|295:130|296:133|296:133|293:131|293:131|292:132|292:132|289:131|289:131|290:134|290:134|289:135|288:135|288:135|290:138|290:138|287:136|287:136|286:137|286:138|286:138|283:136|283:136|284:139|284:139|283:140|283:141|283:141|284:143|284:143|281:142|281:142|281:143|280:144|280:144|277:142|277:142|279:145|279:145|278:146|277:147|277:147|279:149|279:149|276:148|276:148|276:149|275:150|275:150|272:149|272:149|274:151|274:151|273:152|273:153|273:153|275:156|275:156|272:155|272:155|271:156|271:156|267:156|267:156|270:158|270:158|269:159|269:160|269:160|271:162|271:162|268:162|268:162|267:163|267:164|267:164|264:163|264:163|266:165|266:165|266:166|265:167|265:167|268:169|268:169|265:169|265:169|264:170|264:171|264:171|261:171|261:171|264:173|264:173|263:174|263:175|263:175|266:176|266:176|263:177|263:177|262:178|262:179|262:179|259:179|259:179|262:181|262:181|262:182|262:183|262:183|264:184|264:184|261:185|261:185|261:186|261:187|261:187|258:188|258:188|261:189|261:189|261:190|261:191|261:191|264:192|264:192|261:193|261:193|261:194|261:195|261:195|258:196|258:196|261:197|261:197|261:198|262:199|262:199|265:199|265:199|262:201|262:201|262:202|262:203|262:203|259:204|259:204|262:205|262:205|263:206|263:207|263:207|266:207|266:207|263:209|263:209|263:210|264:211|264:211|261:212|261:212|264:213|264:213|264:214|265:215|265:215|268:215|268:215|265:216|265:216|266:218|266:218|263:220|263:220|267:220|267:220|267:222|267:222|270:222|270:222|268:224|268:224|269:226|269:227,1,597.800024058496,0|0,3:0|0:0,0:0:0:0:
271,314,16720,6,0,P|226:302|194:268,2,93.3333333333333
269,227,17286,1,0,0:0:0:0:
118,314,17475,6,0,L|129:366,1,52.5000020027161,0|0,1:0|0:0,0:0:0:0:
47,215,17616,2,0,L|36:267,1,52.5000020027161,0|0,1:0|0:0,0:0:0:0:
113,103,17758,2,0,L|124:155,1,52.5000020027161,0|0,1:0|0:0,0:0:0:0:
17,32,17899,5,0,1:0:0:0:
14,42,17970,1,0,1:0:0:0:
11,52,18040,1,0,1:0:0:0:
200,90,18323,6,0,L|205:115,6,26.2500010013581,2|2|2|2|2|2|2,1:3|1:3|1:3|1:3|1:3|1:3|1:3,0:0:0:0:
264,32,18606,6,0,B|266:33|266:33|268:29|268:29|268:33|268:33|269:33|269:33|270:37|270:37|271:34|271:34|272:34|272:34|274:30|274:30|274:34|274:34|275:34|275:34|275:38|275:38|277:35|277:35|278:35|278:35|280:31|280:31|280:35|280:35|281:36|281:36|281:40|281:40|283:36|283:36|284:36|284:36|286:33|286:33|286:37|286:37|287:37|287:37|287:41|287:41|289:37|289:37|290:38|290:38|292:34|292:34|292:38|292:38|293:38|293:38|293:42|293:42|295:39|295:39|296:39|296:39|297:35|297:35|298:39|298:39|299:39|299:39|299:43|299:43|301:40|301:40|302:40|302:40|303:36|303:36|303:40|303:40|304:41|304:41|305:45|305:45|306:41|306:41|307:41|307:41|309:38|309:38|309:42|309:42|310:42|310:42|310:46|310:46|312:42|312:42|313:42|313:42|315:39|315:39|315:43|315:43|316:43|316:43|316:47|316:47|318:44|318:44|319:44|319:44|321:40|321:40|321:44|321:44|322:44|322:44|322:48|322:48|324:45|324:45|325:45|325:45|327:41|327:41|327:45|327:45|328:46|328:46|328:50|328:50|330:46|330:46|331:46|331:46|333:43|333:43|333:47|333:47|334:47|334:47|334:51|334:51|336:47|336:47|337:47|337:47|338:44|338:44|339:48|339:48|336:51|336:51|340:50|340:50|340:51|340:51|344:51|344:51|341:53|341:53|341:54|341:54|338:56|338:56|342:56|342:56|343:57|343:57|347:56|347:56|343:59|343:59|344:60|344:60|340:62|340:62|345:61|345:61|345:62|345:62|349:62|349:62|346:64|346:64|346:65|346:65|343:67|343:67|347:67|347:67|347:68|347:68|351:67|351:67|348:70|348:70|348:71|348:71|345:73|345:73|349:72|349:72|349:73|349:73|354:73|354:73|350:75|350:75|351:76|351:76|347:79|347:79|351:78|351:78|352:79|352:79|356:78|356:78|353:81|353:81|353:82|353:82|350:84|350:84|354:83|354:83|354:84|354:84|358:84|358:84|355:86|355:86|355:87|355:87|352:90|352:90|356:89|356:89|356:90|356:90|360:89|360:89|357:92|357:92|358:93|358:93|354:95|354:95|358:95|358:95|359:95|359:95|363:95|363:95|359:97|359:97|360:98|360:98|356:101|356:101|361:100|361:100|361:101|361:101|365:100|365:100|362:103|362:103|362:104|362:104|358:107|358:107|363:106|363:106|363:107|363:107|367:106|367:106|364:109|364:109|365:110|365:110|361:112|361:112|365:112|365:112|366:112|366:112|370:112|370:112|366:114|366:114|367:115|367:115|364:118|364:118|368:117|368:117|368:118|368:118|370:114|370:114|370:118|370:118|371:119|371:119|371:123|371:123|373:119|373:119|374:119|374:119|376:116|376:116|376:120|376:120|377:120|377:120|377:124|377:124|379:120|379:120|380:120|380:120|382:117|382:117|382:121|382:121|383:121|383:121|383:125|383:125|385:121|385:121|386:122|386:122|387:118|387:118|388:122|388:122|389:126|389:126|390:123|390:123|391:123|391:123|393:119|393:119|393:123|393:123|394:124|394:124|395:128|395:128|396:124|396:124|397:124|397:124|399:120|399:120|399:125|399:125|400:125|400:125|400:129|400:129|402:125|402:125|403:125|403:125|405:122|405:122|405:126|405:126|406:126|406:126|406:130|406:130|408:126|408:126|409:127|409:127|411:123|411:123|411:127|411:127|412:127|412:127|412:131|412:131|414:128|414:128|415:128|415:128|417:124|417:124|417:128|417:128|418:128|418:128|418:133|418:133|420:129|420:129|421:129|421:129|422:125|422:125|423:129|423:129|424:130|424:130|424:134|424:134|426:130|426:130|427:130|427:130|428:127|428:127|429:131|429:131|430:135|430:135|431:131|431:131|432:132|432:132|434:128|434:128|434:132|434:132|435:132|435:132|435:136|435:136|437:133|437:133|438:133|438:133|440:129|440:129|440:133|440:133|441:133|441:133|441:137|441:137|443:134|443:134|444:134|444:134|446:130|446:130|446:134|446:134|449:135|449:135|447:135|447:135|447:139|447:139|449:135|449:135|450:135,1,732.214162156887,0|0,3:0|0:0,0:0:0:0:
462,127,18889,5,0,0:0:0:0:
403,0,19031,1,0,0:0:0:0:
282,153,19172,6,0,P|302:242|324:359,1,199.499994672775,8|0,0:1|0:0,0:0:0:0:
401,384,19455,2,0,P|428:326|396:270,1,132.999996448517,2|0,0:3|0:0,0:0:0:0:
212,207,19738,6,0,B|211:206|210:206|210:206|207:209|207:209|208:205|208:205|207:205|207:205|208:200|208:200|205:204|205:204|205:203|205:203|202:206|202:206|203:203|203:203|202:202|202:202|202:198|202:198|200:201|200:201|199:201|199:201|197:204|197:204|197:200|197:200|196:200|196:200|197:196|197:196|194:199|194:199|193:199|193:199|191:203|191:203|192:199|192:199|191:198|191:198|191:194|191:194|189:198|189:198|188:198|188:198|186:202|186:202|186:197|186:197|185:197|185:197|184:193|184:193|183:197|183:197|182:197|182:197|180:201|180:201|180:197|180:197|179:197|179:197|178:192|178:192|177:196|177:196|176:196|176:196|175:200|175:200|174:196|174:196|173:196|173:197|173:197|171:193|171:193|171:197|171:197|170:197|170:197|169:201|169:201|168:197|168:197|167:197|167:197|165:194|165:194|165:198|165:198|164:198|164:198|164:202|164:202|162:198|162:198|161:199|161:199|159:195|159:195|159:199|159:199|158:199|158:199|159:204|159:204|156:200|156:200|155:201|155:201|153:197|153:197|154:201|154:201|153:202|153:202|154:206|154:206|151:203|151:203|150:203|150:203|147:200|147:200|148:204|148:204|148:205|147:205|147:205|149:209|149:209|146:206|146:206|145:207|145:207|142:204|142:204|143:208|143:208|142:208|142:208|144:212|144:212|141:209|141:209|140:210|140:210|137:208|137:208|139:211|139:211|138:212|138:212|140:216|140:216|136:213|136:213|136:214|136:214|132:212|132:212|134:216|134:216|136:220|136:220|132:218|132:218|131:219|131:219|128:217|128:217|130:220|130:220|129:221|129:221|132:224|132:224|128:222|128:222|128:223|128:223|124:221|124:221|126:225|126:225|129:229|129:229|125:227|125:227|124:228|124:228|120:226|120:226|123:230|123:230|122:230|122:230|125:233|125:233|121:232|121:232|121:233|121:233|117:231|117:231|120:235|120:235|119:235|119:235|122:238|122:238|118:237|118:237|118:238|117:238|117:238|113:237|113:237|116:240|116:240|116:241|116:240|116:240|119:244|119:244|115:242|115:242|114:243|114:244|114:244|110:243|110:243|113:246|113:246|116:248|116:248|112:248|112:248|108:247|108:247|111:250|111:250|110:251|110:251|113:254|113:254|109:253|109:253|109:254|109:254|105:252|105:252|108:255|108:255|107:256|107:256|110:259|110:259|106:258|106:258|105:259|105:259|102:257|102:257|104:260|104:260|104:261|104:261|106:264|106:264|103:263|103:263|102:263|102:264|102:264|98:262|98:262|101:265|101:265|101:266|100:266|100:266|102:269|102:269|99:268|99:268|98:268|98:268|94:266|94:266|97:270|97:270|96:271|96:271|99:274|99:274|95:272|95:272|95:273|95:273|91:271|91:271|93:274|93:274|93:275|92:275|92:275|94:279|94:279|91:277|91:277|90:277|90:277|87:275|87:275|89:278|89:278|88:279|88:279|90:283|90:283|87:280|87:280|86:281|86:281|83:279|83:279|84:282|84:282|84:283|83:283|83:283|85:287|85:287|82:284|82:284|81:285|81:285|78:282|78:282|79:286|79:286|80:291|80:291|77:288|77:288|76:288|76:288|73:285|73:285|74:289|74:289|73:290|73:290|74:294|74:294|71:290|71:290|71:291|71:291|68:288|68:288|69:292|69:292|68:292|68:292|68:296|68:296|66:293|66:293|65:293|65:293|63:289|63:289|63:293|63:293|63:294|62:294|62:294|62:298|62:298|60:294|60:294|59:295|59:295|57:291|57:291|57:295|57:295|56:295|56:295|56:299|56:299|54:295|54:295|53:295|53:295|52:292|52:292|51:296|51:296|50:296|50:296|50:300|50:300|48:296|48:296|47:296|47:296|46:292|46:292|45:296|45:296|44:296|44:296|43:300|43:300|42:296|42:296|41:295|41:295|41:292|41:292|39:295|39:295|38:295|38:295|37:299|37:299|36:295|36:295|35:295|35:295|35:291|35:291|33:294|33:294|32:294|32:294|31:298|31:298|30:294|30:294|29:293|29:293|29:289|29:289|28:293|28:293|27:293|27:293|25:296|25:296|25:292|25:292|24:292|24:292|24:288|24:288|22:291|22:291|21:291,1,742.063380508978,0|0,3:0|0:0,0:0:0:0:
0,211,20021,2,0,P|5:147|61:114,1,132.999996448517
212,207,20304,6,0,P|184:187|170:155,1,66.4999982242585,8|0,0:1|0:0,0:0:0:0:
262,125,20445,2,0,B|241:217|241:217|248:228|248:228|229:318,1,199.499994672775
237,332,20728,1,0,0:0:0:0:
383,184,20869,6,0,B|385:183|385:183|386:179|386:179|387:183|387:183|388:183|388:183|390:187|390:187|390:182|390:182|391:182|391:182|391:178|391:178|393:182|393:182|394:182|394:182|396:185|396:185|396:181|396:181|397:181|397:181|397:177|397:177|399:180|399:180|400:180|400:180|402:184|402:184|402:180|402:180|403:180|403:180|403:176|403:176|405:179|405:179|406:179|406:179|408:183|408:183|408:179|408:179|409:178|409:178|409:174|409:174|411:178|411:178|412:178|412:178|414:181|414:181|414:177|414:177|415:177|415:177|415:173|415:173|417:177|417:177|418:176|418:176|420:180|420:180|420:176|420:176|421:176|421:176|421:172|421:172|423:175|423:175|424:175|424:175|425:179|425:179|425:175|425:175|426:175|426:175|427:170|427:170|428:174|428:174|429:174|429:174|431:178|431:178|431:173|431:173|432:173|432:173|432:169|432:169|434:173|434:173|435:173|435:173|437:176|437:176|437:172|437:172|438:172|438:172|438:168|438:168|440:172|440:172|441:171|441:171|443:175|443:175|443:171|443:171|444:171|444:171|444:167|444:167|446:170|446:170|447:170|447:170|449:174|449:174|449:170|449:170|450:169|450:169|450:165|450:165|452:169|452:169|453:169|453:169|455:172|455:172|455:168|455:168|456:168|456:168|456:164|456:164|458:168|458:168|459:168|459:168|461:171|461:171|461:167|461:167|462:167|462:167|462:163|462:163|464:166|464:166|465:166|465:166|466:170|466:170|467:166|467:166|468:161|468:161|469:165|469:165|470:165|470:165|472:169|472:169|472:165|472:165|473:164|473:164|473:160|473:160|475:164|475:164|476:164|476:164|478:167|478:167|478:163|478:163|479:163|479:163|479:159|479:159|481:163|481:163|482:162|482:162|484:166|484:166|484:162|484:162|485:162|485:162|485:158|485:158|487:161|487:161|488:161|488:161|490:165|490:165|490:161|490:161|491:161|491:161|491:156|491:156|493:160|493:160|494:160|494:160|496:164|496:164|496:159|496:159|497:159|497:159|497:155|497:155|499:159|499:159|500:159|500:159|502:162|502:162|502:158|502:158|503:158|503:158|503:154|503:154|505:158|505:158|506:157|506:157|507:161|507:161|508:157|508:157|509:157|509:157|509:153|509:153|510:156|510:156|511:156|511:156|513:160|513:160|513:156|513:156|514:155|514:155|514:151|514:151|516:155|516:155|517:155|517:155|519:158|519:158|519:154|519:154|520:154|520:154|520:150|520:150|522:154|522:154|523:153|523:153|525:157|525:157|525:153|525:153|526:153|526:153|526:149|526:149|528:152|528:152|530:152|530:152|529:149|529:149|528:152|528:152|528:156|528:156|526:153|526:153|525:153|525:153|524:149|524:149|523:153|523:153|522:153|522:153|522:158|522:158|520:154|520:154|519:154|519:154|518:150|518:150|517:154|517:154|516:158|516:158|515:154|515:154|514:155|513:155|513:155|512:151|512:151|511:155|511:155|510:159|510:159|509:155|509:155|508:155|507:155|507:155|506:151|506:151|506:155|506:155|505:155|504:155|504:155|503:159|503:159|503:155|503:155|502:155|501:155|501:155|501:151|501:151|500:155|500:155|499:155|499:155|497:159|497:159|497:155|497:155|496:155|496:155|495:150|495:150|494:155|494:155|493:154|493:154|491:158|491:158|490:154|490:154|489:150|489:150|488:154|488:154|487:154|487:154|485:157|485:157|485:153|485:153|484:153|484:153|484:149|484:149|482:152|482:152|481:152|481:152|479:156|479:156|479:152|479:152|478:151|478:151|478:147|478:147|476:151|476:151|475:150|475:150|473:154|473:154|473:150|473:150|473:149|472:149|472:149|473:145|473:145|471:149|471:149|470:148|469:148|469:148|467:151|467:151|468:147|468:147|467:147|467:147|468:143|468:143|465:146|465:146|464:145|464:145|461:149|461:149|462:144|462:144|463:140|463:140|460:143|460:143|459:142|459:142|456:145|456:145|458:141|458:141|457:141|457:140|457:140|458:137|458:137|455:139|455:139|454:139|454:139|451:141|451:141|453:137|453:137|452:137|452:137|454:133|454:133|450:135,1,732.957397328153,0|0,3:0|0:0,0:0:0:0:
392,73,21152,2,0,B|336:61|336:61|330:50|330:50|267:37,1,132.999996448517
109,238,21435,6,0,B|72:255|55:183|112:178|142:201|142:201|178:225|212:206,1,199.499994672775,8|0,0:1|0:0,0:0:0:0:
262,125,21718,2,0,P|249:181|235:254,1,132.999996448517,0|2,0:0|0:3,0:0:0:0:
451,226,22001,5,0,0:0:0:0:
383,184,22142,1,2,0:3:0:0:
354,330,22284,2,0,B|473:304|473:304|426:314|391:283,1,199.499994672775
392,277,22567,5,8,0:1:0:0:
262,384,22708,1,0,0:0:0:0:
109,238,22850,2,0,B|162:255|191:201|191:201|221:148|274:164,1,199.499994672775,2|0,0:3|0:0,0:0:0:0:
329,243,23132,6,0,B|328:242|328:241|328:241|324:243|324:243|327:240|327:240|326:239|326:239|329:236|329:236|325:237|325:237|324:236|324:236|320:238|320:238|323:235|323:235|323:234|323:234|326:231|326:231|322:232|322:232|321:231|321:231|317:232|317:232|321:229|321:229|320:229|320:228|320:228|323:226|323:226|319:227|319:227|319:226|319:226|315:226|315:226|318:224|318:224|318:223|318:223|321:221|321:221|317:221|317:221|317:220|317:220|313:220|313:220|316:218|316:218|316:217|316:217|320:215|320:215|315:215|315:215|315:214|315:214|311:214|311:214|315:212|315:212|315:211|315:211|318:210|318:210|314:209|314:209|314:208|314:208|310:208|310:208|314:206|314:206|313:206|313:206|317:204|317:204|313:203|313:203|309:202|309:202|313:200|313:200|316:198|316:198|313:198|313:198|313:197|313:196|313:196|309:196|309:196|312:195|312:195|312:194|312:194|317:192|317:192|312:191|312:191|312:190|312:190|308:189|308:189|312:189|312:189|312:188|312:188|316:187|316:187|312:186|312:186|312:185|312:184|312:184|309:183|309:183|313:182|313:182|317:181|317:181|313:180|313:180|313:179|313:179|309:177|309:177|313:176|313:176|313:175|313:175|317:175|317:175|314:174|314:174|314:173|314:173|310:171|310:171|314:171|314:171|314:170|314:170|318:170|318:170|315:168|315:168|315:167|315:167|311:165|311:165|316:165|316:165|316:164|316:164|320:164|320:164|316:162|316:162|316:161|317:161|317:161|313:159|313:159|317:159|317:159|317:158|317:158|322:159|322:159|318:156|318:156|318:155|318:155|315:153|315:153|319:153|319:153|320:152|320:152|324:153|324:153|320:151|320:151|321:150|321:150|318:147|318:147|321:148|321:148|322:147|322:147|326:148|326:148|323:145|323:145|323:144|323:144|320:142|320:142|324:143|324:143|325:142|325:142|329:143|329:143|326:140|326:140|326:139|326:139|324:136|324:136|327:137|327:137|328:137|328:137|332:138|332:138|329:135|329:135|329:134|330:134|330:134|327:131|327:131|331:132|331:132|332:132|332:132|335:133|335:133|333:130|333:130|333:129|333:129|331:126|331:126|335:128|335:128|335:127|335:127|339:129|339:129|337:126|337:126|337:125|337:125|335:121|335:121|339:124|339:124|340:123|340:123|343:125|343:125|341:122|341:122|342:121|342:121|340:117|340:117|344:120|344:120|344:119|344:119|348:122|348:122|346:118|346:118|346:117|347:117|347:117|345:113|345:113|348:116|348:116|349:116|349:116|352:118|352:118|351:115|351:115|351:114|352:114|352:114|351:110|351:110|353:113|353:113|354:113|354:113|357:115|357:115|356:112|356:112|357:111|357:111|356:107|356:107|359:110|359:110|360:110|360:110|362:114|362:114|362:109|362:109|362:104|362:104|364:108|364:108|365:108|365:108|367:111|367:111|367:107|367:107|368:107|368:107|371:110|371:110|367:109|367:109|366:110|366:110|362:109|362:109|365:112|365:112|365:113|365:113|368:115|368:115|364:114|364:114|364:115|364:115|360:114|360:114|363:117|363:117|362:118|362:118|365:120|365:120|362:120|362:120|361:120|361:121|361:121|357:120|357:120|360:123|360:123|363:126|363:126|359:125|359:125|359:126|359:126|355:126|355:126|358:128|358:128|358:129|358:129|362:131|362:131|358:131|358:131|357:132|357:132|354:132|354:132|357:134|357:134|357:135|357:135|360:137|360:137|356:137|356:137|356:138|356:138|352:138|352:138|356:140|356:140|355:140|355:141|355:141|359:142|359:142|355:143|355:143|355:144|355:144|351:144|351:144|355:146|355:146|355:147|355:147|359:148|359:148|355:149|355:149|355:150|355:150|350:150|350:150|354:152|354:152|354:153|354:153|358:154|358:154|354:155|354:155|354:156|354:156|350:157|350:157|355:158|355:158|355:159|355:159|359:159|359:159|355:161|355:161|355:162|355:162|351:163|351:163|355:164|355:164|355:165|355:165|359:165|359:165|355:167|355:167|356:168|356:168|352:169|352:169|356:169|356:169|356:170|356:170|360:171|360:171|357:173|357:173|357:174|357:174|353:176|353:176|357:176|357:176|358:177,1,728.402747196007,0|0,3:0|0:0,0:0:0:0:
416,240,23415,2,0,P|479:234|512:178,1,132.999996448517
404,32,23698,6,0,B|360:-2|314:38|314:38|267:78|223:45,1,199.499994672775,8|0,0:1|0:0,0:0:0:0:
214,30,23981,5,2,0:3:0:0:
363,104,24123,1,0,0:0:0:0:
164,189,24264,6,0,B|162:191|162:191|164:194|164:194|161:192|161:192|160:193|160:193|157:190|157:190|158:194|158:194|158:195|158:195|160:198|160:198|156:196|156:196|155:197|155:197|152:194|152:194|154:198|154:198|153:199|153:199|155:202|155:202|152:200|152:200|151:201|151:201|148:198|148:198|150:202|150:202|149:203|149:203|151:206|151:206|147:204|147:204|147:205|147:205|143:202|143:202|145:206|145:206|144:207|144:207|146:210|146:210|143:208|143:208|142:209|142:209|139:206|139:206|141:210|141:210|140:211|140:211|142:214|142:214|138:212|138:212|138:213|138:213|134:210|134:210|136:214|136:214|135:214|135:214|137:218|137:218|134:216|134:216|133:216|133:216|130:214|130:214|132:218|132:218|131:218|131:218|133:222|133:222|129:220|129:220|125:218|125:218|127:222|127:222|126:222|126:222|128:226|128:226|125:224|125:224|124:224|124:224|121:222|121:222|123:226|123:226|122:226|122:226|124:230|124:230|121:228|121:228|120:228|120:228|116:226|116:226|118:230|118:230|119:234|119:234|116:232|116:232|115:232|115:232|112:230|112:230|114:234|114:234|113:234|113:234|115:238|115:238|112:236|112:236|111:236|111:236|107:234|107:234|109:238|109:238|105:236|105:236|110:236|110:236|110:235|110:235|114:234|114:234|110:233|110:233|110:232|110:232|107:230|107:230|111:230|111:230|111:229|111:229|115:229|115:229|111:227|111:227|112:226|112:226|108:224|108:224|112:224|112:224|112:223|112:223|116:223|116:223|113:221|113:221|113:220|113:220|109:218|109:218|113:218|113:218|113:217|113:217|117:217|117:217|114:215|114:215|114:214|114:214|110:212|110:212|114:212|114:212|115:211|115:211|119:211|119:211|115:209|115:209|115:208|115:208|111:206|111:206|116:206|116:206|116:205|116:205|120:205|120:205|116:203|116:203|116:202|116:202|113:200|113:200|117:200|117:200|117:199|117:199|121:199|121:199|117:197|117:197|118:196|118:196|114:195|114:195|118:194|118:194|118:193|118:193|122:193|122:193|119:192|119:192|119:191|119:191|115:189|115:189|119:189|119:189|119:188|119:188|124:187|124:187|120:186|120:186|120:185|120:185|116:183|116:183|120:183|120:183|121:182|121:182|125:182|125:182|121:180|121:180|121:179|121:179|118:177|118:177|122:177|122:177|122:176|122:176|126:176|126:176|122:174|122:174|123:173|123:173|119:171|119:171|123:171|123:171|123:170|123:170|127:170|127:170|124:168|124:168|124:167|124:167|120:165|120:165|124:165|124:165|124:164|124:164|128:164|128:164|125:162|125:162|125:161|125:161|121:159|121:159|125:159|125:159|126:158|126:158|130:158|130:158|126:156|126:156|126:155|126:155|122:154|122:154|127:153|127:153|127:152|127:152|131:152|131:152|127:150|127:150|127:149|127:149|124:148|124:148|128:147|128:147|132:146|132:146|128:145|128:145|129:144|129:144|125:142|125:142|129:142|129:142|129:141|129:141|133:140|133:140|130:139|130:139|130:138|130:138|126:136|126:136|130:136|130:136|130:135|130:135|135:135|135:135|131:133|131:133|131:132|131:132|127:130|127:130|131:130|131:130|132:129|132:129|136:129|136:129|132:127|132:127|132:126|132:126|129:124|129:124|133:124|133:124|133:123|133:123|137:123|137:123|133:121|133:121|133:120|133:120|130:118|130:118|134:118|134:118|134:117|134:117|138:117|138:117|134:115|134:115|135:114|135:114|131:112|131:112|135:112|135:112|135:111|135:111|139:111|139:111|136:109|136:109|136:108|136:108|132:107|132:107|136:106|136:106|137:105|137:105|141:105|141:105|137:103|137:103|137:102|137:102|133:101|133:101|138:101|138:101|138:100|138:100|142:99|142:99|138:98|138:98|138:97|138:97|135:95|135:95|139:95|139:95|139:94|139:94|143:94|143:94|139:92|139:92|140:91|140:91|136:89|136:89|140:89|140:89|140:88|140:88|144:88|144:88|141:86|141:86|141:85|141:85|137:83|137:83|141:83|141:83|141:82|141:82|146:82|146:82|142:80|142:80|142:79,1,732.503043759929,0|0,3:0|0:0,0:0:0:0:
74,26,24547,2,0,P|61:82|47:155,1,132.999996448517
90,327,24830,6,0,P|58:318|36:295,1,66.4999982242585,8|0,0:1|0:0,0:0:0:0:
105,236,24971,1,0,0:0:0:0:
192,384,25113,2,0,B|205:321|205:321|198:312|198:312|210:256,1,132.999996448517,2|0,0:3|0:0,0:0:0:0:
363,104,25396,6,0,B|363:103|364:102|364:102|361:99|361:99|365:100|365:100|365:99|365:99|369:101|369:101|366:98|366:98|367:97|367:97|364:94|364:94|368:95|368:95|368:94|368:94|372:96|372:96|370:93|370:93|370:92|370:92|368:89|368:89|371:91|371:91|372:90|372:90|376:92|376:92|374:88|374:88|372:84|372:84|376:86|376:86|377:86|377:86|380:88|380:88|378:84|378:84|379:84|379:84|377:80|377:80|380:82|380:82|381:82|381:82|384:84|384:84|383:81|383:81|384:80|384:80|383:76|383:76|385:79|385:79|386:79|386:79|389:82|389:82|388:78|388:78|389:77|389:77|388:73|388:73|391:76|391:76|392:76|392:76|394:79|394:79|393:75|393:75|394:75|394:75|394:70|394:70|396:74|396:74|397:74|397:74|399:77|399:77|399:73|399:73|400:73|400:73|400:68|400:68|402:72|402:72|403:72|403:72|405:75|405:75|405:71|405:71|406:71|406:71|406:67|406:67|408:70|408:70|409:70|409:70|410:74|410:74|411:70|411:70|412:70|412:70|412:66|412:66|414:69|414:69|415:69|415:69|416:73|416:73|417:69|417:69|418:69|418:69|418:65|418:65|420:69|420:69|421:69|421:69|422:73|422:73|422:69|422:69|423:69|424:69|424:69|425:65|425:65|426:69|426:69|427:69|427:69|427:73|427:73|429:69|429:69|430:69|430:69|431:65|431:65|431:69|431:69|432:69|433:69|433:69|433:73|433:73|435:69|435:69|436:70|436:70|437:66|437:66|438:70|438:70|439:74|439:74|440:70|440:70|441:71|441:71|443:67|443:67|443:71|443:71|444:71|444:71|444:76|444:76|446:72|446:72|447:72|447:72|449:69|449:69|449:73|449:73|450:73|450:73|449:78|449:78|452:74|452:74|453:74|453:74|455:71|455:71|455:75|455:75|456:76|456:76|455:79|455:79|457:77|457:77|458:77|458:77|461:74|461:74|460:78|460:78|461:79|461:79|459:82|459:82|462:80|462:80|463:80|463:80|466:78|466:78|465:81|465:81|465:82|466:82|466:82|464:86|464:86|467:83|467:83|468:84|468:84|472:81|472:81|470:85|470:85|470:86|470:86|468:90|468:90|472:87|472:87|472:88|472:88|476:86|476:86|474:90|474:90|472:94|472:94|475:92|475:92|476:92|476:93|476:93|480:91|480:91|477:94|477:94|478:95|478:95|475:98|475:98|479:97|479:97|479:98|479:98|483:97|483:97|480:100|480:100|480:101|480:101|477:103|477:103|481:102|481:102|481:103|482:103|482:103|485:103|485:103|482:105|482:105|482:106|482:106|479:108|479:108|483:108|483:108|483:109|483:109|487:109|487:109|483:111|483:111|483:112|483:112|479:113|479:113|484:114|484:114|484:115|484:115|487:116|487:116|484:117|484:117|484:118|484:118|479:119|479:119|483:120|483:120|483:121|483:121|487:123|487:123|483:123|483:123|483:124|483:124|478:124|478:124|482:126|482:126|482:127|482:127|485:129|485:129|481:129|481:129|481:130|481:130|477:129|477:129|480:131|480:131|480:132|480:132|482:135|482:135|479:134|479:134|478:135|478:135|474:134|474:134|477:137|477:137|476:137|476:137|479:141|479:141|475:139|475:139|474:140|474:140|471:138|471:138|473:141|473:141|472:142|472:142|474:146|474:146|471:143|471:143|470:144|470:144|467:141|467:141|468:145|468:145|468:146|468:146|469:149|469:149|466:147|466:147|465:147|465:147|462:144|462:144|463:148|463:148|463:149|462:149|462:149|463:153|463:153|461:150|461:150|460:150|460:150|457:146|457:146|458:151|458:151|457:151|457:151|457:155|457:155|455:152|455:152|454:152|454:152|452:148|452:148|452:152|452:152|451:152|451:153|451:153|451:157|451:157|449:153|449:153|448:153|448:153|446:149|446:149|446:153|446:153|445:153|445:153|444:158|444:158|443:154|443:154|442:154|442:154|441:150|441:150|440:154|440:154|439:154|439:154|438:158|438:158|437:154|437:154|436:154|436:154|435:150|435:150|434:154|434:154|433:154|433:154|432:158|432:158|431:154|431:154|430:153|430:153|430:149|430:149|428:153|428:153|427:153,1,730.321917646385,0|0,3:0|0:0,0:0:0:0:
354,97,25678,2,0,B|319:88|310:45|310:45|319:88|287:116,1,132.999996448517
396,304,25961,6,0,P|404:266|410:235,1,66.4999982242585,8|0,0:1|0:0,0:0:0:0:
329,213,26103,2,0,P|321:243|315:278,1,66.4999982242585
426,153,26244,5,0,0:0:0:0:
480,284,26386,1,2,0:3:0:0:
300,346,26527,6,0,P|308:308|314:277,1,70,0|0,1:0|0:0,0:0:0:0:
225,201,26668,2,0,P|191:211|158:222,1,70,0|0,1:0|0:0,0:0:0:0:
137,338,26810,2,0,P|164:361|190:384,1,70,0|0,1:0|0:0,0:0:0:0:
69,184,26951,5,0,1:0:0:0:
65,201,27022,1,0,1:0:0:0:
60,219,27093,2,0,P|52:253|45:287,1,70,0|0,1:0|0:0,0:0:0:0:
225,201,27234,2,0,P|217:166|210:132,1,70,0|0,1:0|0:0,0:0:0:0:
80,79,27376,6,0,P|109:92|146:85,1,61.2500005841255,2|0,1:3|0:0,0:0:0:0:
246,9,27517,5,2,1:2:0:0:
261,5,27588,1,0,0:0:0:0:
277,6,27659,6,0,B|278:8|278:8|282:9|282:9|278:10|278:10|278:11|278:11|274:13|274:13|279:13|279:13|279:14|279:14|283:14|283:14|279:16|279:16|279:17|279:17|276:19|276:19|280:19|280:19|280:20|280:20|284:20|284:20|280:22|280:22|281:23|281:23|277:25|277:25|281:25|281:25|281:26|281:26|285:26|285:26|282:28|282:28|282:29|282:29|278:31|278:31|282:31|282:31|282:32|282:32|287:32|287:32|283:34|283:34|283:35|283:35|279:37|279:37|284:37|284:37|284:38|284:38|288:38|288:38|284:40|284:40|284:41|284:41|281:42|281:42|285:43|285:43|285:44|285:44|289:44|289:44|285:45|285:45|286:46|286:46|282:48|282:48|286:48|286:48|286:49|286:49|290:50|290:50|287:51|287:51|287:52|287:52|283:54|283:54|287:54|287:54|287:55|287:55|292:55|292:55|288:57|288:57|288:58|288:58|284:60|284:60|288:60|288:60|289:61|289:61|293:61|293:61|289:63|289:63|289:64|289:64|286:66|286:66|290:66|290:66|290:67|290:67|294:67|294:67|290:69|290:69|291:70|291:70|287:72|287:72|291:72|291:72|291:73|291:73|295:73|295:73|292:75|292:75|292:76|292:76|288:78|288:78|292:78|292:78|292:79|292:79|296:79|296:79|293:81|293:81|293:82|293:82|289:83|289:83|293:84|293:84|294:84|294:84|298:85|298:85|294:86|294:86|294:87|294:87|291:89|291:89|295:89|295:89|295:90|295:90|299:90|299:90|295:92|295:92|295:93|295:93|292:95|292:95|296:95|296:95|296:96|296:96|300:96|300:96|297:98|297:98|297:99|297:99|293:101|293:101|297:101|297:101|297:102|297:102|301:102|301:102|298:104|298:104|298:105|298:105|294:107|294:107|298:107|298:107|299:108|299:108|303:108|303:108|299:110|299:110|299:111|299:111|295:113|295:113|300:113|300:113|300:114|300:114|304:114|304:114|300:116|300:116|300:117|300:117|297:118|297:118|301:119|301:119|301:120|301:120|305:120|305:120|301:122|301:122|302:123|302:123|298:124|298:124|302:124|302:124|302:125|302:125|306:126|306:126|303:127|303:127|303:128|303:128|299:130|299:130|303:130|303:130|304:131|304:131|308:131|308:131|304:133|304:133|304:134|304:134|300:136|300:136|305:136|305:136|305:137|305:137|309:137|309:137|305:139|305:139|305:140|305:140|302:142|302:142|306:142|306:142|306:143|306:143|302:143|302:143|306:141|306:141|305:140|305:140|309:138|309:138|305:138|305:138|305:137|305:137|301:137|301:137|304:135|304:135|304:134|304:134|308:133|308:133|304:132|304:132|304:131|304:131|300:130|300:130|304:129|304:129|304:128|304:128|307:127|307:127|303:126|303:126|303:125|303:125|299:124|299:124|303:123|303:123|303:122|303:122|307:121|307:121|303:120|303:120|303:119|303:119|299:118|299:118|303:117|303:117|303:116|303:116|307:115|307:115|303:114|303:114|303:113|303:113|299:112|299:112|303:111|303:111|303:110|303:110|307:109|307:109|303:108|303:108|303:107|303:107|299:106|299:106|304:105|304:105|304:104|304:104|308:104|308:104|304:102|304:102|304:101|304:101|300:100|300:100|304:99|304:99|305:99|305:98|305:98|309:98|309:98|305:96|305:96|305:95|305:95|302:93|302:93|306:93|306:93|306:92|306:92|310:93|310:93|307:91|307:91|307:90|307:90|303:87|303:87|308:88|308:88|308:87|308:87|312:87|312:87|309:85|309:85|309:84|309:84|306:82|306:82|310:82|310:82|310:81|310:81|314:82|314:82|311:79|311:79|308:76|308:76|312:77|312:77|313:76|313:76|317:77|317:77|314:74|314:74|314:73|314:73|311:70|311:70|315:71|315:71|316:71|316:71|320:72|320:72|317:69|317:69|317:68|317:68|315:65|315:65|318:66|318:66|319:66|319:66|323:67|323:67|320:64|320:64|321:63|321:63|319:60|319:60|322:62|322:62|323:61|323:61|327:63|327:63|324:59|324:59|325:59|325:59|323:55|323:55|326:57|326:57|328:55|328:55|327:56|327:56|330:58|330:58|328:55|328:55|329:54,1,730.791538594816,0|0,3:0|0:0,0:0:0:0:
342,49,27941,5,0,0:0:0:0:
225,201,28083,1,0,0:0:0:0:
406,384,28224,6,0,P|424:285|446:188,1,199.499994672775,8|0,0:1|0:0,0:0:0:0:
392,125,28507,2,0,P|328:131|296:186,1,132.999996448517,2|0,0:3|0:0,0:0:0:0:
168,323,28790,6,0,B|168:324|168:325|168:325|172:325|172:325|169:327|169:327|169:328|169:328|166:330|166:330|170:330|170:330|170:331|170:331|174:330|174:330|171:333|171:333|168:336|168:336|172:335|172:335|173:336|173:336|176:335|176:335|174:338|174:338|174:339|174:339|172:342|172:342|175:340|175:340|176:341|176:341|180:340|180:340|177:343|177:343|178:343|178:344|178:344|176:347|176:347|179:345|179:345|180:345|180:346|180:346|183:343|183:343|181:347|181:347|182:347|182:348|182:348|181:352|181:352|184:349|184:349|185:349|185:349|188:346|188:346|186:351|186:351|187:351|187:351|186:355|186:355|189:352|189:352|190:352|190:352|192:349|192:349|192:353|192:353|193:354|193:354|192:357|192:357|195:354|195:354|196:354|196:354|197:351|197:351|198:355|198:355|199:355|199:355|199:359|199:359|201:355|201:355|201:356|201:356|203:352|203:352|203:356|203:356|204:356|204:356|205:360|205:360|206:356|206:356|207:356|208:356|208:356|208:352|208:352|209:356|209:356|210:356|210:356|212:360|212:360|212:355|212:355|213:355|213:355|214:351|214:351|215:355|215:355|216:355|216:355|218:358|218:358|218:354|218:354|219:354|219:354|219:350|219:350|221:353|221:353|222:353|222:353|225:356|225:356|224:352|224:352|225:352|225:352|224:348|224:348|227:351|227:351|228:350|228:350|231:354|231:354|229:349|229:349|230:349|230:349|229:345|229:345|232:348|232:348|232:347|233:347|233:347|236:350|236:350|234:346|234:346|235:346|235:345|235:345|233:342|233:342|236:344|236:344|237:343|237:343|241:345|241:345|238:342|238:342|239:341|239:341|237:338|237:338|240:339|240:339|241:339|241:339|245:340|245:340|242:337|242:337|242:336|243:336|243:336|240:333|240:333|244:334|244:334|244:333|244:333|248:334|248:334|245:332|245:332|245:331|245:331|242:328|242:328|246:329|246:329|246:328|246:328|250:328|250:328|247:326|247:326|247:325|247:325|244:323|244:323|247:323|247:323|248:322|248:322|252:322|252:322|248:320|248:320|248:319|248:319|244:318|244:318|248:317|248:317|248:316|248:316|252:315|252:315|248:314|248:314|248:313|248:313|244:312|244:312|248:311|248:311|248:310|248:310|252:309|252:309|248:308|248:308|248:307|248:307|243:307|243:307|247:305|247:305|247:304|247:304|253:301|253:301|246:301|246:301|243:300|243:300|246:299|246:299|246:298|246:298|249:296|249:296|245:296|245:296|245:295|245:295|241:295|241:295|245:293|245:293|244:292|244:292|248:290|248:290|244:290|244:290|244:289|244:289|240:289|240:289|243:287|243:287|243:286|243:286|247:285|247:285|243:284|243:284|238:283|238:283|242:282|242:282|242:281|242:281|246:279|246:279|242:279|242:279|241:278|241:278|237:278|237:278|241:276|241:276|241:275|241:275|244:273|244:273|240:273|240:273|240:272|240:272|236:272|236:272|240:270|240:270|239:269|239:269|243:267|243:267|239:267|239:267|239:266|239:266|235:266|235:266|238:264|238:264|238:263|238:263|242:261|242:261|238:261|238:261|238:260|238:260|233:260|233:260|237:258|237:258|237:257|237:257|241:255|241:255|236:255|236:255|236:254|236:254|232:254|232:254|236:252|236:252|236:251|236:251|239:249|239:249|235:249|235:249|235:248|235:248|231:248|231:248|235:246|235:246|234:245|234:245|238:244|238:244|234:243|234:243|230:242|230:242|233:241|233:241|233:240|233:240|237:238|237:238|233:238|233:238|232:237|232:237|228:237|228:237|232:235|232:235|232:234|232:234|236:232|236:232|231:232|231:232|231:231|231:231|227:231|227:231|231:229|231:229|231:228|231:228|234:226|234:226|230:226|230:226|230:225|230:225|226:225|226:225|230:223|230:223|229:222|229:222|233:220|233:220|229:220|229:220|229:219|229:219|225:219|225:219|228:217|228:217|228:216|228:216|232:214|232:214|228:214|228:214|227:213|227:213|223:213|223:213|227:211|227:211|227:210|227:210|230:208|230:208|226:208|226:208|226:207|226:207|222:207|222:207|226:205|226:205|226:204|226:204|229:203|229:203|225:202|225:202|225:201,1,730.071750437307,0|0,3:0|0:0,0:0:0:0:
229,115,29073,2,0,B|202:106|192:62|192:62|202:106|181:124,1,132.999996448517
40,220,29356,6,0,B|26:222|10:217|10:217|24:233|44:228,1,66.4999982242585,8|0,0:1|0:0,0:0:0:0:
38,122,29497,2,0,P|60:220|78:319,1,199.499994672775
69,330,29780,1,0,0:0:0:0:
223,199,29922,6,0,B|224:199|225:199|225:199|226:195|226:195|227:199|227:199|228:199|228:199|229:203|229:203|230:199|230:199|231:199|231:199|232:195|232:195|233:199|233:199|234:199|234:199|235:203|235:203|236:200|236:200|237:200|237:200|239:196|239:196|239:200|239:200|240:200|240:200|241:204|241:204|242:200|242:200|243:201|243:201|245:197|245:197|245:201|245:201|246:201|246:201|246:205|246:205|248:202|248:202|249:202|249:202|251:198|251:198|251:202|251:202|252:203|252:203|252:207|252:207|254:203|254:203|255:204|255:204|257:200|257:200|257:204|257:204|258:205|258:205|257:208|257:208|259:205|259:205|260:206|260:206|263:203|263:203|262:207|262:207|263:207|263:207|262:211|262:211|265:208|265:208|266:208|266:208|269:205|269:205|267:209|267:209|268:210|268:210|267:214|267:214|270:211|270:211|271:212|271:212|274:209|274:209|272:213|272:213|273:213|273:213|271:217|271:217|275:215|275:215|279:213|279:213|277:217|277:217|278:218|278:218|275:221|275:221|279:219|279:219|280:220|280:220|283:218|283:218|281:221|281:221|281:222|281:222|279:225|279:225|283:224|283:224|283:225|283:225|287:223|287:223|284:226|284:226|285:227|285:227|282:230|282:230|286:229|286:229|286:230|286:230|290:229|290:229|287:231|287:231|288:232|288:232|284:235|284:235|288:234|288:234|289:235|289:235|293:235|293:235|290:237|290:237|290:238|290:238|287:240|287:240|291:240|291:240|291:241|291:241|295:240|295:240|291:242|291:242|292:244|292:244|288:246|288:246|292:246|292:246|297:247|297:247|293:248|293:248|293:249|293:249|289:251|289:251|293:251|293:251|294:252|294:252|298:253|298:253|294:254|294:254|294:255|294:255|290:257|290:257|294:257|294:257|294:258|294:258|298:259|298:259|295:260|295:260|295:261|295:261|291:263|291:263|295:263|295:263|295:264|295:264|298:265|298:265|295:266|295:266|295:267|295:267|291:268|291:268|295:269|295:269|295:270|295:271|295:271|300:272|300:272|295:273|295:273|295:274|295:274|292:275|292:275|295:275|295:275|295:276|295:276|299:277|299:277|295:278|295:278|295:279|295:279|291:281|291:281|295:281|295:281|295:282|295:282|299:283|299:283|296:284|296:284|296:285|296:285|292:287|292:287|296:287|296:287|296:288|296:288|300:289|300:289|296:290|296:290|297:291|297:291|293:293|293:293|297:293|297:293|297:294|297:294|301:294|301:294|298:296|298:296|298:297|298:297|294:299|294:299|298:299|298:299|299:300|299:300|303:300|303:300|299:302|299:302|300:303|300:303|296:305|296:305|300:305|300:305|301:306|301:306|304:305|304:305|301:308|301:308|302:309|302:309|299:311|299:311|302:310|302:310|303:311|303:311|307:310|307:310|304:313|304:313|304:314|304:314|301:317|301:317|305:316|305:316|306:316|306:316|310:315|310:315|307:318|307:318|307:319|308:319|308:319|305:322|305:322|309:321|309:321|313:320|313:320|311:323|311:323|311:324|311:324|309:327|309:327|313:325|313:325|313:326|313:326|317:324|317:324|315:327|315:327|316:328|316:328|314:331|314:331|317:329|317:329|318:330|318:330|321:327|321:327|319:331|319:331|320:331|320:331|319:335|319:335|322:333|322:333|323:333|323:333|326:330|326:330|324:334|324:334|325:335|325:335|324:338|324:338|327:336|327:336|328:336|328:336|331:333|331:333|330:337|330:337|330:342|330:342|332:338|332:338|334:339|334:339|336:335|336:335|335:339|335:339|336:339|336:339|336:344|336:344|338:340|338:340|339:340|339:340|341:337|341:337|341:341|341:341|342:341|342:341|342:345|342:345|344:342|344:342|345:342|345:342|347:338|347:338|347:342|347:342|348:342|348:342|348:347|348:347|350:343|350:343|351:343|351:343|352:339|352:339|353:343|353:343|354:343|354:343|354:347|354:347|356:343|356:343|357:344|357:344|358:340|358:340|359:344|359:344|360:344|360:344|361:348|361:348|362:344|362:344|363:344|363:344|364:340|364:340|365:344|365:344|366:344|366:344|367:347|367:347|368:344|368:344|369:344,1,727.716968949256,0|0,3:0|0:0,0:0:0:0:
437,295,30205,2,0,P|453:233|412:183,1,132.999996448517
229,115,30487,6,0,B|177:68|177:68|304:95,1,199.499994672775,8|0,0:1|0:0,0:0:0:0:
383,106,30770,2,0,B|410:48|410:48|361:0,1,132.999996448517,0|2,0:0|0:3,0:0:0:0:
266,185,31053,5,0,0:0:0:0:
229,115,31194,1,2,0:3:0:0:
130,251,31336,2,0,B|193:237|193:237|245:278|245:278|311:264,1,199.499994672775
321,254,31619,5,8,0:1:0:0:
169,165,31760,1,0,0:0:0:0:
341,86,31902,2,0,B|399:50|399:50|366:95|352:171,1,199.499994672775,2|0,0:3|0:0,0:0:0:0:
321,254,32185,6,0,B|320:253|320:251|320:251|316:250|316:250|320:249|320:249|320:248|320:248|324:248|324:248|320:247|320:247|320:245|320:245|316:244|316:244|320:243|320:243|320:242|320:242|324:242|324:242|321:240|321:240|321:240|321:240|317:238|317:238|321:238|321:238|321:237|321:237|326:237|326:237|322:234|322:234|318:232|318:232|323:231|323:231|324:231|324:231|327:231|327:231|323:229|323:229|324:228|324:228|321:226|321:226|324:226|324:226|325:225|325:225|329:226|329:226|326:224|326:224|327:222|327:222|324:219|324:219|327:221|327:221|328:220|328:220|332:221|332:221|329:218|329:218|330:217|330:217|327:214|327:214|331:215|331:215|332:215|332:215|335:216|335:216|332:213|332:213|333:213|333:213|330:209|330:209|334:211|334:211|335:211|335:211|338:212|338:212|336:209|336:209|337:208|337:208|335:204|335:204|338:206|338:206|339:206|339:206|342:207|342:207|340:204|340:204|341:203|341:203|339:200|339:200|342:202|342:202|343:201|343:201|346:204|346:204|345:200|345:200|346:200|346:200|344:196|344:196|347:198|347:198|348:197|348:197|351:200|351:200|350:196|350:196|351:196|351:196|349:192|349:192|352:195|352:195|353:194|353:194|356:197|356:197|354:194|354:194|355:193|356:193|356:193|355:189|355:189|358:192|358:192|358:191|358:191|360:195|360:195|360:190|360:190|361:190|361:190|360:186|360:186|362:189|362:189|363:189|364:188|364:188|366:192|366:192|365:187|365:187|367:188|367:188|366:184|366:184|368:187|368:187|371:190|371:190|370:186|370:186|372:186|372:186|371:181|371:181|373:185|373:185|374:184|374:184|377:189|377:189|376:184|376:184|377:184|377:184|377:180|377:180|379:184|379:184|380:183|380:183|382:188|382:188|383:183|383:183|383:183|383:183|384:179|384:179|386:182|386:182|387:183|387:183|388:186|388:186|388:183|388:183|389:183|389:183|390:179|390:179|392:182|392:182|393:183|393:183|393:186|393:186|394:183|394:183|395:183|395:183|397:179|397:179|397:183|397:183|398:183|399:183|399:183|399:187|399:187|400:183|400:183|401:184|401:184|403:179|403:179|404:184|404:184|404:184|404:184|404:189|404:189|406:184|406:184|407:185|407:185|409:181|409:181|410:186|410:186|410:190|410:190|411:187|411:187|412:187|413:187|413:187|415:184|415:184|414:188|414:188|416:188|416:188|414:192|414:192|417:189|417:189|418:190|418:190|421:187|421:187|420:192|420:192|420:192|420:192|419:196|419:196|422:193|422:193|422:194|423:193|423:193|426:192|426:192|424:195|424:195|425:196|425:196|423:199|423:199|426:197|426:197|427:198|427:198|430:196|430:196|428:200|428:200|428:200|428:200|425:203|425:203|430:202|430:202|431:203|431:203|434:202|434:202|432:204|432:204|432:205|432:205|428:208|428:208|432:207|432:207|433:208|433:208|437:208|437:208|434:210|434:210|434:211|434:211|430:213|430:213|435:213|435:213|435:214|435:214|439:214|439:214|435:216|435:216|436:217|436:217|432:218|432:218|435:218|435:218|436:219|436:219|439:221|439:221|436:221|436:221|436:223|436:223|432:224|432:224|436:225|436:225|435:226|435:226|439:228|439:228|435:228|435:228|435:229|435:229|431:229|431:229|434:231|434:231|434:232|434:232|438:234|438:234|434:233|434:233|433:235|433:235|429:234|429:234|432:237|432:237|432:237|432:237|435:239|435:239|431:239|431:239|430:240|430:240|426:239|426:239|429:242|429:242|430:242|429:243|429:243|432:246|432:246|428:244|428:244|428:245|428:245|423:243|423:243|426:247|426:247|425:247|425:247|427:251|427:251|424:249|424:249|423:250|423:250|420:247|420:247|422:251|422:251|421:251|421:252|421:252|423:255|423:255|419:253|419:253|419:253|419:253|415:251|415:251|417:254|417:254|416:255|416:255|418:260|418:260|415:257|415:257|414:257|414:257|411:254|411:254|412:258|412:258|411:259|411:259|412:263|412:263|410:260|410:260|409:260|409:260|406:257|406:257|407:261|407:261|406:262|406:262|407:266|407:266|404:263|404:263|403:262|403:262|401:259|401:259|401:263|401:263|400:264,1,730.321917646385,0|0,3:0|0:0,0:0:0:0:
354,335,32468,2,0,P|288:346|223:361,1,132.999996448517
12,250,32751,6,0,B|56:284|102:244|102:244|149:204|193:237,1,199.499994672775,8|0,0:1|0:0,0:0:0:0:
203,246,33033,5,2,0:3:0:0:
49,166,33175,1,0,0:0:0:0:
165,45,33316,6,0,B|167:43|167:43|165:40|165:40|168:42|168:42|169:41|169:41|172:44|172:44|171:40|171:40|171:39|171:39|169:36|169:36|173:38|173:38|174:37|174:37|177:40|177:40|175:36|175:36|176:35|176:35|174:32|174:32|177:34|177:34|178:33|178:33|181:36|181:36|179:32|179:32|180:31|180:31|178:28|178:28|182:30|182:30|182:29|182:29|186:32|186:32|184:28|184:28|185:27|185:27|183:24|183:24|186:26|186:26|187:25|187:25|190:28|190:28|188:24|188:24|189:23|189:23|187:20|187:20|191:22|191:22|191:21|191:21|195:24|195:24|193:20|193:20|194:20|194:20|192:16|192:16|195:18|195:18|196:18|196:18|199:20|199:20|197:16|197:16|198:16|198:16|196:12|196:12|200:14|200:14|204:16|204:16|202:12|202:12|203:12|203:12|201:8|201:8|204:10|204:10|205:10|205:10|208:12|208:12|206:8|206:8|207:8|207:8|205:4|205:4|208:6|208:6|209:6|209:6|213:8|213:8|211:4|211:4|210:0|210:0|213:2|213:2|214:2|214:2|217:4|217:4|215:0|215:0|216:0|216:0|214:-4|214:-4|217:-2|217:-2|218:-2|218:-2|222:0|222:0|220:-4|220:-4|224:-2|224:-2|219:-2|219:-2|219:-1|219:-1|215:0|215:0|219:1|219:1|219:2|219:2|222:4|222:4|218:4|218:4|218:5|218:5|214:5|214:5|218:7|218:7|217:8|217:8|221:10|221:10|217:10|217:10|217:11|217:11|213:11|213:11|216:13|216:13|216:14|216:14|220:16|220:16|216:16|216:16|216:17|216:17|212:17|212:17|215:19|215:19|215:20|215:20|219:22|219:22|215:22|215:22|214:23|214:23|210:23|210:23|214:25|214:25|214:26|214:26|218:28|218:28|213:28|213:28|213:29|213:29|209:29|209:29|213:31|213:31|213:32|213:32|216:34|216:34|212:34|212:34|212:35|212:35|208:35|208:35|212:37|212:37|211:38|211:38|215:39|215:39|211:40|211:40|211:41|211:41|207:41|207:41|210:42|210:42|210:43|210:43|214:45|214:45|210:45|210:45|210:46|210:46|205:47|205:47|209:48|209:48|209:49|209:49|213:51|213:51|209:51|209:51|208:52|208:52|204:52|204:52|208:54|208:54|208:55|208:55|211:57|211:57|207:57|207:57|207:58|207:58|203:58|203:58|207:60|207:60|206:61|206:61|210:63|210:63|206:63|206:63|206:64|206:64|202:64|202:64|205:66|205:66|205:67|205:67|209:69|209:69|205:69|205:69|205:70|205:70|201:70|201:70|204:72|204:72|204:73|204:73|208:75|208:75|204:75|204:75|203:76|203:76|199:76|199:76|203:78|203:78|203:79|203:79|207:80|207:80|202:81|202:81|202:82|202:82|198:82|198:82|202:84|202:84|202:85|202:85|205:86|205:86|201:87|201:87|197:88|197:88|201:89|201:89|200:90|200:90|204:92|204:92|200:92|200:92|200:93|200:93|196:94|196:94|199:95|199:95|199:96|199:96|203:98|203:98|199:98|199:98|199:99|199:99|194:99|194:99|198:101|198:101|198:102|198:102|202:104|202:104|198:104|198:104|197:105|197:105|193:105|193:105|197:107|197:107|197:108|197:108|200:110|200:110|196:110|196:110|196:111|196:111|192:111|192:111|196:113|196:113|196:114|196:114|199:116|199:116|195:116|195:116|195:117|195:117|191:117|191:117|195:119|195:119|194:120|194:120|198:122|198:122|194:122|194:122|194:123|194:123|190:123|190:123|193:125|193:125|193:126|193:126|197:127|197:127|193:128|193:128|192:129|192:129|188:129|188:129|192:131|192:131|192:132|192:132|196:133|196:133|191:133|191:133|191:134|191:134|187:135|187:135|191:136|191:136|191:137|191:137|194:139|194:139|190:139|190:139|190:140|190:140|186:140|186:140|190:142|190:142|189:143|189:143|193:145|193:145|189:145|189:145|189:146|189:146|185:146|185:146|188:148|188:148|188:149|188:149|192:151|192:151|188:151|188:151|188:152|188:152|183:152|183:152|187:154|187:154|187:155,1,732.503043759929,0|0,3:0|0:0,0:0:0:0:
263,193,33599,2,0,P|274:127|289:62,1,132.999996448517
482,132,33882,6,0,P|474:164|469:197,1,66.4999982242585,8|0,0:1|0:0,0:0:0:0:
410,275,34024,1,0,0:0:0:0:
407,62,34165,2,0,B|394:125|394:125|401:134|401:134|389:190,1,132.999996448517,2|0,0:3|0:0,0:0:0:0:
512,384,34448,6,0,B|510:383|510:383|507:386|507:386|508:382|508:382|507:381|507:381|508:377|508:377|505:380|505:380|502:383|502:383|503:379|503:379|502:378|502:378|503:374|503:374|500:377|500:377|499:377|499:377|497:380|497:380|498:376|498:376|497:375|497:375|498:371|498:371|495:374|495:374|494:374|494:374|491:377|491:377|492:373|492:373|492:372|492:372|493:369|493:369|490:371|490:371|489:371|489:371|487:375|487:375|487:371|487:371|486:370|486:370|486:366|486:366|484:370|484:370|483:370|483:370|481:373|481:373|481:369|481:369|480:369|480:369|480:365|480:365|478:369|478:369|478:368|478:368|476:372|476:372|476:368|476:368|475:368|475:368|475:364|475:364|473:367|473:367|472:367|472:367|470:371|470:371|470:367|470:367|469:367|469:367|469:362|469:362|466:366|466:366|464:370|464:370|464:366|464:366|463:365|463:365|462:361|462:361|461:365|461:365|460:365|460:365|458:369|458:369|458:365|458:365|457:364|457:364|456:360|456:360|455:364|455:364|454:364|454:364|452:368|452:368|452:364|452:364|451:364|451:364|450:359|450:359|449:363|449:363|448:363|448:363|446:367|446:367|446:363|446:363|445:363|445:363|444:358|444:358|443:362|443:362|442:362|442:362|440:366|440:366|440:362|440:362|439:362|439:362|439:357|439:357|437:361|437:361|436:361|436:361|434:365|434:365|434:361|434:361|433:361|433:361|433:357|433:357|431:360|431:360|429:360|429:360|428:364|428:364|427:360|427:360|426:357|426:357|425:360|425:360|424:360|424:360|423:364|423:364|422:360|422:360|421:360|421:360|420:356|420:356|419:360|419:360|418:360|418:360|417:364|417:364|416:360|416:360|415:360|415:360|414:357|414:357|413:361|413:361|412:361|412:361|411:365|411:365|410:361|410:361|409:361|409:361|408:357|408:357|407:361|407:361|406:361|406:361|406:365|406:365|404:361|404:361|401:361|401:361|403:361|403:361|402:356|402:356|401:361|401:361|400:361|400:361|398:364|398:364|398:360|398:360|398:359|398:359|398:355|398:355|396:358|396:358|395:358|395:358|393:362|393:362|393:358|393:358|392:357|392:357|392:353|392:353|390:357|390:357|389:357|389:357|387:361|387:361|387:356|387:356|386:356|386:356|386:352|386:352|384:356|384:356|383:356|383:356|381:360|381:360|381:355|381:355|380:355|380:355|380:351|380:351|378:355|378:355|377:354|377:354|375:358|375:358|375:354|375:354|374:354|374:354|374:350|374:350|372:353|372:353|371:353|371:353|370:357|370:357|369:353|369:353|368:353|368:353|368:349|368:349|366:352|366:352|365:352|365:352|364:350|364:350|365:352|365:352|360:353|360:353|364:350|364:350|364:346|364:346|362:349|362:349|361:349|361:349|358:352|358:352|359:348|359:348|358:347|358:347|359:343|359:343|356:347|356:347|355:346|355:346|353:349|353:349|354:345|354:345|353:345|353:345|353:341|353:341|351:344|351:344|350:344|350:344|347:347|347:347|348:343|348:343|347:342|347:342|348:338|348:338|345:342|345:342|344:341|344:341|342:344|342:344|343:340|343:340|342:340|342:340|342:336|342:336|340:339|340:339|339:339|339:339|336:342|336:342|337:338|337:338|336:338|336:338|337:333|337:333|334:337|334:337|334:336|334:336|331:340|331:340|332:335|332:335|331:335|331:335|332:331|332:331|329:334|329:334|328:334|328:334|326:337|326:337|326:333|326:333|324:332|324:332|325:333|325:333|326:330|326:330|324:332|324:332|323:332|323:332|322:336|322:336|321:333|321:333|320:333|320:333|318:329|318:329|318:333|318:333|317:333|317:333|316:337|316:337|315:334|315:334|314:334|314:334|312:330|312:330|312:334|312:334|311:334|311:334|310:338|310:338|309:335|309:335|308:335|308:335|306:331|306:331|306:335|306:335|305:335|305:335|304:339|304:339|303:336|303:336|302:336|302:336|300:332|300:332|300:336|300:336|299:336|299:336|299:340|299:340|297:337|297:337|296:337|296:337|294:333|294:333|294:337|294:337|293:337|293:337|293:341|293:341|291:338|291:338|288:338|288:338|290:338|290:338|288:334|288:334|288:338|288:338|287:338|287:338|286:342|286:342|285:338|285:338|284:337|284:337|284:333|284:333|282:337|282:337|281:337|281:337|280:341|280:341|279:337|279:337|278:337|278:337|278:333|278:333|276:336|276:336|275:336|275:336|274:340|274:340|273:336|273:336|272:336|272:336|272:332|272:332|270:336|270:336|269:336|269:336|268:339|268:339|267:335|267:335|266:335|266:335|266:331|266:331|264:335|264:335|263:335|263:335|262:339|262:339|261:335|261:335|260:334|260:334|260:330|260:330|258:334|258:334|257:334|257:334|256:338|256:338|255:334|255:334|254:334|254:334|254:330|254:330|252:333|252:333|251:333|251:333|250:337|250:337|249:333|249:333|246:330|246:330|247:334|247:334|244:335|246:334|246:334|246:338|246:338|244:335,1,880.704129064618,0|0,3:0|0:0,0:0:0:0:
53,345,35014,6,0,B|50:345|49:345|49:345|49:349|49:349|47:346|47:346|46:346|46:346|43:342|43:342|44:347|44:347|44:348|44:348|46:351|46:351|42:349|42:349|42:350|42:350|38:349|38:349|41:352|41:352|40:353|40:353|44:355|44:355|40:355|40:355|40:356|40:356|36:357|36:357|40:358|40:358|40:359|40:359|44:359|44:359|40:360|40:360|41:361|41:361|38:364|38:364|42:363|42:363|42:364|42:364|46:362|46:362|44:366|44:366|44:367|44:367|43:371|43:371|46:368|46:368|47:368|47:368|49:364|49:364|49:369|49:369|50:369|50:369|51:373|51:373|53:369|53:369|54:369|54:369|54:364|54:364|56:369|56:369|57:368|57:368|59:371|59:371|59:367|59:367|57:362|57:362|61:364|61:364|65:366|65:366|63:362|63:362|63:361|63:361|59:359|59:359|64:359|64:359|64:358|64:358|68:357|68:357|64:356|64:356|64:355|64:355|60:355|60:355|63:353|63:353|63:352|63:352|66:350|66:350|62:351|62:351|62:350|62:350|58:352|58:352|60:348|60:348|59:347,1,206.654144343518,0|0,3:0|0:0,0:0:0:0:
204,241,35296,2,0,B|206:241|207:241|207:241|209:237|209:237|209:242|209:242|210:242|210:242|209:246|209:246|212:243|212:243|212:244|212:244|216:242|216:242|214:245|214:245|214:246|214:246|211:249|211:249|215:248|215:248|216:249|216:249|220:249|220:249|216:251|216:251|216:252|216:252|212:253|212:253|216:254|216:254|216:255|216:255|220:256|220:256|216:256|216:256|215:257|215:257|211:256|211:256|214:259|214:259|214:260|214:260|216:264|216:264|212:262|212:262|212:263|212:263|209:259|209:259|210:264|210:264|209:264|209:264|209:269|209:269|207:265|207:265|206:265|206:265|205:260|205:260|204:265|204:265|202:265|202:265|200:269|200:269|200:265|200:265|199:264|199:264|200:259|200:259|197:263|197:263|193:265|193:265|195:260|195:260|197:257|197:257|193:258|193:258|193:257|193:257|189:257|189:257|192:255|192:255|192:254|192:254|196:253|196:253|192:252|192:252|192:251|192:251|189:249|189:249|193:249|193:249|193:248|193:248|197:249|197:249|194:247|194:247|194:246|194:246|192:242|192:242|196:244|196:244|197:243,1,207.454350632275,0|0,3:0|0:0,0:0:0:0:
4,39,35862,6,0,B|6:39|7:39|7:39|8:35|8:35|9:39|9:39|10:39|10:39|11:43|11:43|12:39|12:39|13:39|13:39|14:35|14:35|15:39|15:39|16:39|16:39|16:43|16:43|18:39|18:39|19:39|19:39|20:36|20:36|21:40|21:40|22:40|22:40|22:44|22:44|24:40|24:40|25:40|25:40|27:37|27:37|27:41|27:41|28:41|28:41|28:45|28:45|30:42|30:42|31:42|31:42|33:38|33:38|32:42|32:42|33:43|33:43|33:47|33:47|35:43|35:43|36:44|36:44|39:40|39:40|38:44|38:44|39:45|39:45|38:49|38:49|41:46|41:46|42:46|42:46|44:43|44:43|44:47|44:47|43:51|43:51|46:48|46:48|47:49|47:49|50:46|50:46|49:50|49:50|50:50|50:50|48:54|48:54|51:51|51:51|52:52|52:52|55:49|55:49|54:53|54:53|55:53|55:53|53:57|53:57|56:55|56:55|57:55|57:55|60:53|60:53|59:56|59:56|59:57|59:57|58:61|58:61|61:58|61:58|62:59|62:59|65:57|65:57|63:60|63:60|64:61|64:61|62:64|62:64|65:62|65:62|66:63|66:63|67:64|66:63|66:63|70:61|70:61|67:64,1,215.072219274086,0|0,3:0|0:0,0:0:0:0:
138,19,36004,2,0,B|139:21|140:22|140:22|144:20|144:20|141:23|141:23|141:24|141:24|138:27|138:27|142:26|142:26|142:27|142:27|147:26|147:26|143:29|143:29|144:29|144:29|141:32|141:32|145:31|145:31|145:32|145:32|149:32|149:32|146:34|146:34|146:35|146:35|143:37|143:37|147:37|147:37|147:38|147:38|151:38|151:38|148:40|148:40|148:41|148:41|144:43|144:43|148:43|148:43|149:44|149:44|153:44|153:44|149:46|149:46|149:47|149:47|146:48|146:48|150:49|150:49|154:50|154:50|150:51|150:51|150:52|150:52|146:54|146:54|150:54|150:54|150:55|150:55|155:56|155:56|151:57|151:57|151:58|151:58|147:60|147:60|151:60|151:60|151:61|151:61|155:62|155:62|151:63|151:63|151:64|151:64|147:65|147:65|151:66|151:66|150:67|150:67|154:69|154:69|150:69|150:69|150:70|150:70|146:71|146:71|150:72|150:72|150:73|150:73|154:75|154:75|149:75|149:75|149:76|149:76|145:76|145:76|149:78|149:78|149:79|149:79|152:81|152:81|148:81|148:81|148:82|148:82|144:82|144:82|147:84|147:84|147:85|147:85|146:87|147:85|147:85|151:87|151:87|146:87,1,220.43761453893,0|0,3:0|0:0,0:0:0:0:
222,125,36145,2,0,B|221:127|221:128|221:128|223:131|223:131|219:129|219:129|219:130|219:130|215:129|215:129|218:132|218:132|217:133|217:133|220:136|220:136|216:134|216:134|216:135|216:135|212:133|212:133|214:137|214:137|216:141|216:141|212:139|212:139|212:140|212:140|208:138|208:138|210:141|210:141|210:142|210:142|212:146|212:146|208:143|208:143|208:144|208:144|204:142|204:142|206:146|206:146|208:150|208:150|204:148|204:148|203:148|203:148|200:146|200:146|202:150|202:150|201:150|201:150|203:154|203:154|199:151|199:151|199:152|199:152|195:149|195:149|197:153|197:153|196:154|196:154|198:158|198:158|195:155|195:155|194:155|194:155|191:153|191:153|192:156|192:156|191:157|191:157|192:161|192:161|189:158|189:158|186:155|186:155|187:159|187:159|186:160|186:160|187:164|187:164|184:161|184:161|183:161|183:161|181:158|181:158|181:162|181:162|180:162|180:162|181:166|181:166|179:163|179:163|178:163|178:163|175:160|175:160|176:164|176:164|175:164|175:164|175:168|175:168|173:165|173:165|172:165|172:165|170:162|170:162|170:166|170:166|169:166|169:166|167:166|169:166|169:166|169:170|169:170|167:166,1,219.312144350345,0|0,3:0|0:0,0:0:0:0:
7,133,36428,5,0,0:0:0:0:
2,127,36499,5,0,0:0:0:0:
7,123,36569,5,0,0:0:0:0:
11,128,36640,5,0,0:0:0:0:
7,133,36711,6,0,B|71:133|71:197|71:197|71:262|136:262,1,210,0|0,3:0|0:0,0:0:0:0:
236,193,37277,2,0,P|227:156|218:111,1,70
317,170,37560,2,0,P|308:133|299:88,1,70,0|0,3:0|0:0,0:0:0:0:
356,18,37842,2,0,P|390:18|422:32,1,70
438,132,38125,2,0,P|370:115|301:101,1,140,0|0,3:0|0:0,0:0:0:0:
291,85,38479,1,0,0:0:0:0:
291,85,38550,1,0,3:0:0:0:
291,85,38620,1,0,0:0:0:0:
291,85,38691,2,0,B|276:18|276:18|255:51,1,105
226,150,38974,6,0,B|246:245|246:245|248:247|248:247|271:354,1,210,0|0,3:0|0:0,0:0:0:0:
323,279,39540,2,0,P|291:264|256:264,1,70
154,357,39823,2,0,B|191:384|191:384|168:274,1,140,0|0,3:0|0:0,0:0:0:0:
109,211,40247,2,0,B|62:220|72:267|72:267|88:346,1,140,0|0,3:0|0:0,0:0:0:0:
179,327,40671,2,0,L|172:293,3,35,0|0|0|0,3:0|0:0|0:0|0:0,0:0:0:0:
271,354,40954,1,0,3:0:0:0:
271,354,41025,1,0,3:0:0:0:
271,354,41096,1,0,3:0:0:0:
271,354,41166,1,0,3:0:0:0:
271,354,41237,6,0,B|334:340|334:340|364:279|364:279|440:263,1,210,0|0,3:0|0:0,0:0:0:0:
346,197,41803,2,0,P|316:213|295:242,1,70
288,136,42086,2,0,P|258:152|237:181,1,70,0|0,3:0|0:0,0:0:0:0:
109,211,42369,2,0,P|138:228|173:231,1,70
164,145,42652,2,0,P|147:213|133:282,1,140,0|0,3:0|0:0,0:0:0:0:
149,365,43076,2,0,P|115:365|83:351,1,70,0|0,3:0|3:0,0:0:0:0:
133,281,43359,1,0,0:0:0:0:
251,352,43500,6,0,B|324:383|324:383|318:380|318:380|290:257,1,210,0|0,3:0|0:0,0:0:0:0:
350,199,44066,2,0,P|372:202|400:209,1,35
355,204,44207,2,0,P|377:207|405:214,1,35
489,275,44349,2,0,P|475:206|459:138,1,140,0|0,3:0|0:0,0:0:0:0:
359,73,44773,2,0,P|375:141|388:209,1,140,0|0,3:0|0:0,0:0:0:0:
290,259,45197,2,0,P|272:255|255:253,3,35,0|0|0|0,3:0|0:0|0:0|0:0,0:0:0:0:
382,344,45480,5,0,0:0:0:0:
377,349,45551,5,0,0:0:0:0:
382,354,45621,5,0,0:0:0:0:
386,349,45692,5,0,0:0:0:0:
382,344,45763,6,0,B|327:332|327:332|300:194|300:194|245:183,1,251.999992309571,0|0,3:0|0:0,0:0:0:0:
166,301,46329,2,0,L|211:291,1,41.9999987182618,8|0,0:1|0:0,0:0:0:0:
216,290,46470,1,0,0:0:0:0:
57,384,46612,2,0,P|69:327|83:259,1,125.999996154785,0|0,3:0|0:0,0:0:0:0:
80,253,46895,2,0,B|50:221|50:221|58:174,1,83.9999974365235,0|0,0:0|3:0,0:0:0:0:
195,214,47178,2,0,B|201:174|201:174|171:142,1,83.9999974365235,0|0,3:0|0:0,0:0:0:0:
0,98,47461,2,0,L|46:108,1,41.9999987182618,8|0,0:1|0:0,0:0:0:0:
68,0,47602,2,0,L|76:41,1,41.9999987182618
185,30,47743,2,0,B|149:65|149:65|183:143,1,125.999996154785,0|0,3:0|0:0,0:0:0:0:
195,214,48026,6,0,B|271:200|258:123|258:123|244:47|321:33,1,251.999992309571,0|0,3:0|0:0,0:0:0:0:
383,116,48592,2,0,P|359:125|336:120,1,41.9999987182618,8|0,0:1|0:0,0:0:0:0:
336,115,48734,1,0,0:0:0:0:
476,49,48875,2,0,B|462:113|462:113|463:115|463:115|451:171,1,125.999996154785,0|0,3:0|0:0,0:0:0:0:
449,180,49158,2,0,P|458:223|467:266,1,83.9999974365235,0|0,0:0|3:0,0:0:0:0:
328,205,49441,2,0,P|337:248|346:291,1,83.9999974365235,0|0,3:0|0:0,0:0:0:0:
251,384,49724,2,0,P|253:363|258:342,3,41.9999987182618,8|0|0|0,3:1|0:0|0:0|0:0,0:0:0:0:
195,260,50007,1,0,3:0:0:0:
193,249,50077,1,0,3:0:0:0:
191,240,50148,1,0,3:0:0:0:
189,229,50219,1,0,3:0:0:0:
187,219,50289,6,0,B|207:121|207:121|221:58|127:38|113:101,1,251.999992309571,0|0,3:0|0:0,0:0:0:0:
44,191,50855,2,0,L|90:181,1,41.9999987182618,8|0,0:1|0:0,0:0:0:0:
95,185,50996,1,0,0:0:0:0:
40,307,51138,2,0,P|98:318|163:332,1,125.999996154785,0|0,3:0|0:0,0:0:0:0:
171,331,51421,2,0,B|164:291|164:291|194:259,1,83.9999974365235
281,365,51704,2,0,B|311:333|311:333|304:293,1,83.9999974365235,0|0,3:0|0:0,0:0:0:0:
258,176,51987,2,0,L|266:217,1,41.9999987182618,8|0,0:1|0:0,0:0:0:0:
345,205,52128,2,0,L|336:163,1,41.9999987182618,0|0,3:0|0:0,0:0:0:0:
418,44,52270,2,0,B|367:85|367:85|304:52,1,125.999996154785,0|0,3:0|0:0,0:0:0:0:
243,0,52553,6,0,B|179:13|179:13|165:130|165:130|99:145,1,251.999992309571,0|0,3:0|0:0,0:0:0:0:
36,25,53118,2,0,P|61:29|78:45,1,41.9999987182618,8|0,0:1|0:0,0:0:0:0:
76,49,53260,1,0,0:0:0:0:
0,164,53401,2,0,B|91:144|91:144|95:146|95:146|164:131,1,167.999994873047,0|0,3:0|0:0,0:0:0:0:
264,79,53825,2,0,B|257:110|257:110|251:124|251:124|237:189|237:189|239:209|239:209|233:248,1,167.999994873047,0|0,3:0|0:0,0:0:0:0:
311,298,54250,6,0,B|338:292|338:292|354:273,1,52.5000020027161,8|0,3:1|3:0,0:0:0:0:
376,180,54391,2,0,B|357:159|357:159|332:154,1,52.5000020027161,0|0,3:0|3:0,0:0:0:0:
264,79,54533,6,0,L|273:34,2,26.2500010013581,2|2|2,3:2|3:2|3:2,0:0:0:0:
171,78,54674,2,0,L|175:51,2,26.2500010013581,2|2|2,3:2|3:2|3:2,0:0:0:0:
97,145,54816,5,6,3:2:0:0:
256,192,54886,12,0,63868,0:0:0:0:
