osu file format v14

[General]
AudioFilename: audio.mp3
AudioLeadIn: 0
PreviewTime: 18182
Countdown: 0
SampleSet: Soft
StackLeniency: 0.7
Mode: 0
LetterboxInBreaks: 0
WidescreenStoryboard: 1

[Editor]
DistanceSpacing: 1
BeatDivisor: 8
GridSize: 32
TimelineZoom: 3.399999

[Metadata]
Title:bad idea w/ blackwinterwells
TitleUnicode:bad idea w/ blackwinterwells
Artist:osquinn
ArtistUnicode:osquinn
Creator:Parad0xa
Version:normal
Source:
Tags:p4rkr english hyperpop hyper pop hip hop hip-hop rap glitch electronic cirnop GIGAROBLOXIAN21 [Poke] xandeez nuts Pokey Paradoxa Ryxliee A3THER_XX xx my fuckin bedroom lol f*ckin fckn fucking
BeatmapID:3447757
BeatmapSetID:1686988

[Difficulty]
HPDrainRate:3
CircleSize:3
OverallDifficulty:4.2
ApproachRate:5.4
SliderMultiplier:1.6
SliderTickRate:1

[Events]
//Background and Video events
0,0,"bgggggggggggggggg.jpg",0,0
//Break Periods
//Storyboard Layer 0 (Background)
//Storyboard Layer 1 (Fail)
//Storyboard Layer 2 (Pass)
//Storyboard Layer 3 (Foreground)
//Storyboard Layer 4 (Overlay)
//Storyboard Sound Samples

[TimingPoints]
-1761,565.770862800566,4,2,1,50,1,0
502,-100,4,2,1,70,0,0
1067,-100,4,2,1,50,0,0
1633,-100,4,2,1,70,0,0
2199,-100,4,2,1,50,0,0
2765,-100,4,2,1,70,0,0
3330,-100,4,2,1,50,0,0
5028,-100,4,2,1,70,0,0
5594,-100,4,2,1,50,0,0
6159,-100,4,2,1,70,0,0
6725,-100,4,2,1,50,0,0
7291,-100,4,2,1,70,0,0
7715,-100,4,2,1,50,0,0
8422,-90.9090909090909,4,2,2,80,0,0
9271,-90.9090909090909,4,2,2,75,0,0
9554,-100,4,2,1,70,0,0
10120,-100,4,2,1,50,0,0
10685,-100,4,2,1,70,0,0
11251,-100,4,2,1,50,0,0
11817,-100,4,2,1,70,0,0
12383,-100,4,2,1,50,0,0
14080,-100,4,2,1,70,0,0
14646,-100,4,2,1,50,0,0
15212,-100,4,2,1,70,0,0
15777,-100,4,2,1,50,0,0
16343,-100,4,2,1,70,0,0
16909,-100,4,2,1,50,0,0
17475,-90.9090909090909,4,2,2,80,0,0
18606,-86.9565217391304,4,2,1,80,0,0
19031,-86.9565217391304,4,2,1,60,0,0
19738,-86.9565217391304,4,2,1,80,0,0
20021,-86.9565217391304,4,2,1,60,0,0
20869,-86.9565217391304,4,2,1,80,0,0
21294,-86.9565217391304,4,2,1,60,0,0
23132,-86.9565217391304,4,2,1,80,0,0
23557,-86.9565217391304,4,2,1,60,0,0
24264,-86.9565217391304,4,2,1,80,0,0
24547,-86.9565217391304,4,2,1,60,0,0
25396,-86.9565217391304,4,2,1,80,0,0
25820,-86.9565217391304,4,2,1,60,0,0
26527,-86.9565217391304,4,2,2,80,0,0
27376,-86.9565217391304,4,2,2,75,0,0
27659,-86.9565217391304,4,2,1,80,0,0
28083,-86.9565217391304,4,2,1,60,0,0
28790,-86.9565217391304,4,2,1,80,0,0
29073,-86.9565217391304,4,2,1,60,0,0
29922,-86.9565217391304,4,2,1,80,0,0
30346,-86.9565217391304,4,2,1,60,0,0
32185,-86.9565217391304,4,2,1,80,0,0
32609,-86.9565217391304,4,2,1,60,0,0
33316,-86.9565217391304,4,2,1,80,0,0
33599,-86.9565217391304,4,2,1,60,0,0
34448,-86.9565217391304,4,2,1,80,0,0
36428,-86.9565217391304,4,2,1,50,0,0
36569,-86.9565217391304,4,2,1,60,0,0
36711,-90.9090909090909,4,2,3,70,0,0
45480,-90.9090909090909,4,2,3,50,0,0
45622,-90.9090909090909,4,2,3,60,0,0
45763,-90.9090909090909,4,2,3,70,0,0
54250,-90.9090909090909,4,2,3,75,0,0
54816,-90.9090909090909,4,2,1,80,0,0
63868,-90.9090909090909,4,2,1,5,0,0

[Colours]
Combo1 : 255,230,253
Combo2 : 245,206,247

[HitObjects]
512,384,502,5,0,3:0:0:0:
362,326,1067,2,0,P|355:289|332:245,1,80
275,198,1633,1,0,3:0:0:0:
146,102,2199,2,0,P|109:109|65:132,1,80
29,196,2765,1,0,3:0:0:0:
135,314,3330,2,0,P|148:270|166:228,1,80
223,188,3896,2,0,P|236:144|254:102,1,80
304,54,4462,1,0,0:0:0:0:
432,149,5028,5,0,3:0:0:0:
307,250,5594,2,0,P|338:301|349:331,1,80
416,355,6159,1,0,3:0:0:0:
497,217,6725,2,0,P|484:178|469:141,1,80
391,123,7291,2,0,B|337:108|332:150|262:142,2,120,0|0|0,3:0|0:0|0:0,0:0:0:0:
398,210,8422,2,0,P|393:231|387:252,1,44.0000013427735,0|0,1:0|1:0,0:0:0:0:
352,279,8705,2,0,P|345:306|338:335,1,44.0000013427735,0|0,1:0|1:0,0:0:0:0:
310,353,8988,1,0,1:0:0:0:
234,384,9271,1,0,1:0:0:0:
165,341,9554,5,0,3:0:0:0:
46,233,10120,2,0,P|53:196|76:152,1,80
30,88,10686,1,0,3:0:0:0:
168,7,11252,2,0,P|205:14|249:37,1,80
298,90,11818,1,0,3:0:0:0:
181,199,12383,2,0,P|166:236|155:274,1,80
215,327,12949,2,0,P|250:344|284:365,1,80,0|2,0:0|0:0,0:0:0:0:
361,342,13515,1,0,0:0:0:0:
451,209,14081,5,0,3:0:0:0:
365,73,14647,2,0,P|314:42|284:31,1,80
232,84,15212,1,0,3:0:0:0:
320,217,15778,2,0,P|357:201|395:189,1,80
473,173,16343,2,0,P|444:255|434:336,2,160,0|0|0,3:0|0:0|1:0,0:0:0:0:
469,123,17616,5,0,1:0:0:0:
469,123,17758,2,0,P|459:92|449:68,1,44.0000013427735,0|0,1:0|1:0,0:0:0:0:
425,48,18040,1,0,1:0:0:0:
331,228,18606,6,0,P|290:246|214:183,1,138.000002632141,0|0,3:0|0:0,0:0:0:0:
214,153,19172,1,8,0:1:0:0:
171,71,19455,2,0,P|150:55|124:48,1,46.0000008773804,2|0,0:3|0:0,0:0:0:0:
87,63,19738,2,0,P|99:109|110:169,1,92.0000017547608,0|0,3:0|0:0,0:0:0:0:
51,225,20304,1,8,0:1:0:0:
51,225,20445,2,0,P|98:245|137:268,1,92.0000017547608
159,303,20869,6,0,B|199:279|230:313|220:318|248:349|293:330,1,138.000002632141,0|0,3:0|0:0,0:0:0:0:
323,310,21435,1,8,0:1:0:0:
411,286,21718,2,0,P|417:262|425:241,1,46.0000008773804,0|2,0:0|0:3,0:0:0:0:
453,206,22001,2,0,B|446:176|446:176|462:147|462:147|451:103,1,92.0000017547608
389,54,22567,1,8,0:1:0:0:
389,54,22708,2,0,P|337:45|289:69,1,92.0000017547608
265,87,23132,6,0,P|282:145|304:241,1,138.000002632141,0|0,3:0|0:0,0:0:0:0:
324,259,23698,1,8,0:1:0:0:
273,335,23981,2,0,P|249:333|225:316,1,46.0000008773804,2|0,0:3|0:0,0:0:0:0:
192,295,24264,2,0,P|141:281|94:274,1,92.0000017547608,0|0,3:0|0:0,0:0:0:0:
28,219,24830,2,0,P|22:187|10:159,1,46.0000008773804,8|0,0:1|0:0,0:0:0:0:
37,132,25113,2,0,P|43:100|54:76,1,46.0000008773804,2|0,0:3|0:0,0:0:0:0:
74,50,25396,6,0,B|116:35|133:90|118:80|131:130|182:130,1,138.000002632141,0|0,3:0|0:0,0:0:0:0:
211,106,25961,1,8,0:1:0:0:
285,52,26244,1,0,0:0:0:0:
373,75,26527,2,0,P|395:67|428:55,2,46.0000008773804,0|0|0,1:0|1:0|1:0,0:0:0:0:
353,117,26951,1,0,1:0:0:0:
353,117,27093,2,0,P|345:139|336:172,1,46.0000008773804,0|0,1:0|1:0,0:0:0:0:
365,198,27376,1,2,1:3:0:0:
333,284,27659,6,0,B|283:296|283:296|255:331|255:331|197:342,1,138.000002632141,0|0,3:0|0:0,0:0:0:0:
168,332,28224,1,8,0:1:0:0:
102,267,28507,2,0,P|106:241|119:222,1,46.0000008773804,2|0,0:3|0:0,0:0:0:0:
148,191,28790,2,0,P|194:179|245:172,1,92.0000017547608,0|0,3:0|0:0,0:0:0:0:
308,232,29356,1,8,0:1:0:0:
308,232,29497,2,0,P|361:243|410:262,1,92.0000017547608
441,242,29922,6,0,B|476:181|476:181|434:121,1,138.000002632141,0|0,3:0|0:0,0:0:0:0:
415,85,30487,1,8,0:1:0:0:
343,26,30770,2,0,P|319:24|292:37,1,46.0000008773804,0|2,0:0|0:3,0:0:0:0:
268,66,31053,2,0,P|280:97|292:159,1,92.0000017547608
359,217,31619,1,8,0:1:0:0:
359,217,31760,2,0,P|348:251|337:311,1,92.0000017547608
307,341,32185,6,0,B|265:358|236:330|253:323|221:292|171:312,1,138.000002632141,0|0,3:0|0:0,0:0:0:0:
147,339,32751,1,8,0:1:0:0:
62,302,33033,2,0,P|58:276|48:254,1,46.0000008773804,2|0,0:3|0:0,0:0:0:0:
45,212,33316,2,0,P|87:184|134:184,1,92.0000017547608,0|0,3:0|0:0,0:0:0:0:
213,216,33882,2,0,P|238:217|263:205,1,46.0000008773804,8|0,0:1|0:0,0:0:0:0:
288,175,34165,2,0,P|291:149|297:128,1,46.0000008773804,2|0,0:3|0:0,0:0:0:0:
283,85,34448,6,0,P|227:47|153:65,1,138.000002632141,0|0,3:0|0:0,0:0:0:0:
124,87,35014,1,0,3:0:0:0:
61,153,35296,1,0,3:0:0:0:
198,275,35862,2,0,P|189:299|184:323,2,46.0000008773804,0|0|0,3:0|3:0|3:0,0:0:0:0:
278,230,36428,2,0,P|271:204|262:182,1,46.0000008773804
265,142,36711,6,0,P|283:74|390:66,1,176.000005371094,0|0,3:0|0:0,0:0:0:0:
447,111,37560,1,0,3:0:0:0:
491,186,37842,2,0,P|477:227|465:270,1,88.000002685547,0|0,0:0|3:0,0:0:0:0:
408,337,38408,2,0,P|365:348|323:362,1,88.000002685547
251,313,38974,6,0,B|201:285|162:327|178:337|141:371|94:356,1,176.000005371094,0|0,3:0|0:0,0:0:0:0:
24,301,39823,1,0,3:0:0:0:
70,226,40106,2,0,P|81:183|95:141,1,88.000002685547
160,82,40671,2,0,P|210:81|244:107,1,88.000002685547,0|0,3:0|3:0,0:0:0:0:
268,136,41096,1,0,3:0:0:0:
268,136,41237,6,0,B|253:194|253:194|276:239|276:239|259:302,1,176.000005371094,0|0,3:0|0:0,0:0:0:0:
327,358,42086,1,0,3:0:0:0:
414,353,42369,2,0,P|441:314|439:268,1,88.000002685547,0|0,0:0|3:0,0:0:0:0:
377,214,42934,2,0,P|378:170|404:135,1,88.000002685547,0|0,0:0|3:0,0:0:0:0:
357,60,43500,6,0,B|313:22|267:55|280:68|237:93|194:69,1,176.000005371094,0|0,3:0|0:0,0:0:0:0:
170,32,44207,1,0,0:0:0:0:
170,32,44349,2,0,P|126:33|91:59,1,88.000002685547,0|0,3:0|0:0,0:0:0:0:
73,99,44773,1,0,3:0:0:0:
3,211,45197,2,0,P|16:252|27:295,1,88.000002685547,0|0,3:0|0:0,0:0:0:0:
63,321,45622,1,0,0:0:0:0:
63,321,45763,6,0,B|122:330|122:330|137:315|149:314|164:304|164:304|229:315,1,176.000005371094,0|8,3:0|0:1,0:0:0:0:
297,370,46612,1,0,3:0:0:0:
372,325,46895,2,0,P|393:318|414:314,1,44.0000013427735,0|0,0:0|3:0,0:0:0:0:
443,281,47178,1,0,3:0:0:0:
483,202,47461,2,0,P|478:180|472:159,1,44.0000013427735,8|0,0:1|0:0,0:0:0:0:
479,116,47743,2,0,P|475:94|469:73,1,44.0000013427735,0|0,3:0|0:0,0:0:0:0:
426,60,48026,6,0,P|370:108|385:208,1,176.000005371094,0|8,3:0|0:1,0:0:0:0:
434,272,48875,1,0,3:0:0:0:
381,342,49158,2,0,P|360:338|339:332,1,44.0000013427735,0|0,0:0|3:0,0:0:0:0:
302,305,49441,1,0,3:0:0:0:
224,346,49724,2,0,P|181:357|139:371,1,88.000002685547,8|0,3:1|3:0,0:0:0:0:
105,343,50148,1,0,3:0:0:0:
105,343,50289,6,0,P|98:260|170:219,1,176.000005371094,0|8,3:0|0:1,0:0:0:0:
251,257,51138,1,0,3:0:0:0:
318,200,51421,2,0,P|336:187|357:181,1,44.0000013427735
398,195,51704,1,0,3:0:0:0:
471,146,51987,2,0,P|481:103|495:61,1,88.000002685547,8|0,0:1|3:0,0:0:0:0:
454,44,52411,1,0,0:0:0:0:
454,44,52553,6,0,B|406:0|406:0|301:37,1,176.000005371094,0|8,3:0|0:1,0:0:0:0:
268,66,53260,1,0,0:0:0:0:
268,66,53401,1,0,3:0:0:0:
138,42,53825,1,0,3:0:0:0:
55,145,54250,2,0,P|63:168|67:201,1,44.0000013427735,8|0,3:1|3:0,0:0:0:0:
101,213,54533,2,0,P|89:240|79:272,1,44.0000013427735,2|2,3:2|3:2,0:0:0:0:
59,290,54816,5,6,3:2:0:0:
256,192,54957,12,0,63868,0:0:0:0:
