osu file format v14

[General]
AudioFilename: Habits.mp3
AudioLeadIn: 0
PreviewTime: 31592
Countdown: 0
SampleSet: Normal
StackLeniency: 0.7
Mode: 1
LetterboxInBreaks: 0
WidescreenStoryboard: 0

[Editor]
Bookmarks: 11596,17149,67522,90670
DistanceSpacing: 1.7
BeatDivisor: 4
GridSize: 32
TimelineZoom: 1.5

[Metadata]
Title:Habits
TitleUnicode:Habits
Artist:organic742
ArtistUnicode:organic742
Creator:Jona
Version:Oni
Source:pop'n music ラピストリア
Tags:742 BEMANI KONAMI 22 lapistoria Wolfgang Eiuh Raphalge newyams99
BeatmapID:908540
BeatmapSetID:419863

[Difficulty]
HPDrainRate:6
CircleSize:2
OverallDifficulty:5
ApproachRate:5
SliderMultiplier:1.4
SliderTickRate:1

[Events]
//Background and Video events
0,0,"HABITS BG.png",0,-100
//Break Periods
//Storyboard Layer 0 (Background)
//Storyboard Layer 1 (Fail)
//Storyboard Layer 2 (Pass)
//Storyboard Layer 3 (Foreground)
//Storyboard Sound Samples

[TimingPoints]
2705,370.37037037037,4,1,0,75,1,0
29370,-80,4,1,0,100,0,0
30852,-80,4,1,0,100,0,0
30944,-80,4,1,0,100,0,0
31592,-100,4,1,0,75,0,0
31958,370.37037037037,4,1,0,80,1,1
43809,-100,4,1,0,75,0,0
90661,-133.333333333333,4,1,0,70,0,0
101772,-100,4,1,0,75,0,0
103809,-100,4,1,0,80,0,1
114179,-100,4,1,0,80,0,0

[HitObjects]
256,192,2519,5,0,0:0:0:0:
256,192,2611,1,0,0:0:0:0:
256,192,2704,1,2,0:0:0:0:
256,192,3075,1,0,0:0:0:0:
256,192,3260,1,0,0:0:0:0:
256,192,3631,1,0,0:0:0:0:
256,192,3816,1,2,0:0:0:0:
256,192,4372,1,0,0:0:0:0:
256,192,4742,1,0,0:0:0:0:
256,192,4927,1,0,0:0:0:0:
256,192,5297,1,0,0:0:0:0:
256,192,5667,1,2,0:0:0:0:
256,192,6222,1,0,0:0:0:0:
256,192,6593,1,0,0:0:0:0:
256,192,6778,1,0,0:0:0:0:
256,192,7148,1,2,0:0:0:0:
256,192,7518,1,0,0:0:0:0:
256,192,7704,1,0,0:0:0:0:
256,192,7889,1,2,0:0:0:0:
256,192,8259,1,0,0:0:0:0:
256,192,8630,1,2,0:0:0:0:
256,192,9000,1,0,0:0:0:0:
256,192,9185,1,2,0:0:0:0:
256,192,9741,1,2,0:0:0:0:
256,192,10111,1,4,0:0:0:0:
256,192,10667,1,4,0:0:0:0:
256,192,11593,1,2,0:0:0:0:
256,192,11685,1,2,0:0:0:0:
256,192,11778,1,2,0:0:0:0:
256,192,11963,1,0,0:0:0:0:
256,192,12148,1,0,0:0:0:0:
256,192,12333,1,2,0:0:0:0:
256,192,12519,1,0,0:0:0:0:
256,192,12704,1,2,0:0:0:0:
256,192,12796,1,2,0:0:0:0:
256,192,12889,1,2,0:0:0:0:
256,192,13074,1,0,0:0:0:0:
256,192,13259,1,0,0:0:0:0:
256,192,13445,1,2,0:0:0:0:
256,192,13630,1,0,0:0:0:0:
256,192,13815,1,2,0:0:0:0:
256,192,13908,1,2,0:0:0:0:
256,192,14000,1,2,0:0:0:0:
256,192,14185,1,0,0:0:0:0:
256,192,14371,1,0,0:0:0:0:
256,192,14556,1,2,0:0:0:0:
256,192,14741,12,0,17148,0:0:0:0:
256,192,17518,5,2,0:0:0:0:
256,192,17703,1,2,0:0:0:0:
256,192,17888,1,0,0:0:0:0:
256,192,18258,1,2,0:0:0:0:
256,192,18629,1,0,0:0:0:0:
256,192,18999,1,2,0:0:0:0:
256,192,19741,1,2,0:0:0:0:
256,192,20111,1,0,0:0:0:0:
256,192,20481,1,2,0:0:0:0:
256,192,20851,1,0,0:0:0:0:
256,192,21036,1,0,0:0:0:0:
256,192,21221,1,2,0:0:0:0:
256,192,21407,1,2,0:0:0:0:
256,192,21592,1,0,0:0:0:0:
256,192,21963,1,2,0:0:0:0:
256,192,22149,1,2,0:0:0:0:
256,192,22334,1,0,0:0:0:0:
256,192,22705,1,2,0:0:0:0:
256,192,23075,1,0,0:0:0:0:
256,192,23260,1,2,0:0:0:0:
256,192,23445,1,0,0:0:0:0:
256,192,23815,1,0,0:0:0:0:
256,192,24185,1,2,0:0:0:0:
256,192,24371,1,2,0:0:0:0:
256,192,24556,1,0,0:0:0:0:
256,192,24741,1,0,0:0:0:0:
256,192,24926,1,2,0:0:0:0:
256,192,25667,1,0,0:0:0:0:
256,192,26038,1,0,0:0:0:0:
256,192,26408,1,2,0:0:0:0:
256,192,26778,1,0,0:0:0:0:
256,192,26963,1,0,0:0:0:0:
256,192,27148,1,2,0:0:0:0:
256,192,27519,1,2,0:0:0:0:
256,192,27704,1,0,0:0:0:0:
256,192,27889,1,2,0:0:0:0:
256,192,28259,1,2,0:0:0:0:
256,192,28445,1,0,0:0:0:0:
256,192,28630,1,2,0:0:0:0:
256,192,28815,1,2,0:0:0:0:
256,192,29000,1,2,0:0:0:0:
256,192,29185,1,0,0:0:0:0:
256,192,29370,5,2,0:0:0:0:
256,192,29555,1,2,0:0:0:0:
256,192,29925,1,2,0:0:0:0:
256,192,30018,1,2,0:0:0:0:
256,192,30110,1,2,0:0:0:0:
256,192,30295,1,2,0:0:0:0:
256,192,30481,1,2,0:0:0:0:
256,192,30666,1,0,0:0:0:0:
256,192,30851,1,2,0:0:0:0:
256,192,30944,1,2,0:0:0:0:
256,192,31036,1,2,0:0:0:0:
256,192,31592,1,0,0:0:0:0:
256,192,31778,1,2,0:0:0:0:
256,192,31958,1,4,0:0:0:0:
256,192,32142,1,2,0:0:0:0:
256,192,32235,1,2,0:0:0:0:
256,192,32327,1,0,0:0:0:0:
256,192,32513,1,0,0:0:0:0:
256,192,32698,1,2,0:0:0:0:
256,192,32883,1,0,0:0:0:0:
256,192,32976,1,0,0:0:0:0:
256,192,33068,1,2,0:0:0:0:
256,192,33253,1,0,0:0:0:0:
256,192,33439,1,2,0:0:0:0:
256,192,33809,1,2,0:0:0:0:
256,192,34179,1,0,0:0:0:0:
256,192,34550,1,0,0:0:0:0:
256,192,34735,1,2,0:0:0:0:
256,192,34920,1,0,0:0:0:0:
256,192,35105,1,2,0:0:0:0:
256,192,35198,1,2,0:0:0:0:
256,192,35291,1,0,0:0:0:0:
256,192,35476,1,0,0:0:0:0:
256,192,35661,1,2,0:0:0:0:
256,192,35846,1,0,0:0:0:0:
256,192,35939,1,0,0:0:0:0:
256,192,36031,1,2,0:0:0:0:
256,192,36216,1,2,0:0:0:0:
256,192,36402,1,0,0:0:0:0:
256,192,36679,1,2,0:0:0:0:
256,192,36772,1,0,0:0:0:0:
256,192,36957,1,2,0:0:0:0:
256,192,37142,1,0,0:0:0:0:
256,192,37327,1,2,0:0:0:0:
256,192,37420,1,2,0:0:0:0:
256,192,37513,1,0,0:0:0:0:
256,192,37698,1,2,0:0:0:0:
256,192,37883,1,0,0:0:0:0:
256,192,38068,1,2,0:0:0:0:
256,192,38161,1,2,0:0:0:0:
256,192,38253,1,2,0:0:0:0:
256,192,38439,1,0,0:0:0:0:
256,192,38624,1,2,0:0:0:0:
256,192,38809,1,0,0:0:0:0:
256,192,38902,1,2,0:0:0:0:
256,192,38994,1,0,0:0:0:0:
256,192,39179,1,0,0:0:0:0:
256,192,39364,1,2,0:0:0:0:
256,192,39735,1,2,0:0:0:0:
256,192,40105,1,0,0:0:0:0:
256,192,40290,1,2,0:0:0:0:
256,192,40383,1,2,0:0:0:0:
256,192,40476,1,0,0:0:0:0:
256,192,40661,1,0,0:0:0:0:
256,192,40846,1,2,0:0:0:0:
256,192,41031,1,0,0:0:0:0:
256,192,41124,1,0,0:0:0:0:
256,192,41216,1,2,0:0:0:0:
256,192,41402,1,0,0:0:0:0:
256,192,41587,1,2,0:0:0:0:
256,192,41772,1,2,0:0:0:0:
256,192,41865,1,2,0:0:0:0:
256,192,41957,1,0,0:0:0:0:
256,192,42327,1,2,0:0:0:0:
256,192,42420,1,2,0:0:0:0:
256,192,42513,1,2,0:0:0:0:
256,192,42605,1,2,0:0:0:0:
256,192,42698,1,2,0:0:0:0:
256,192,42883,1,0,0:0:0:0:
256,192,43068,1,2,0:0:0:0:
256,192,43253,1,0,0:0:0:0:
256,192,43346,1,0,0:0:0:0:
256,192,43439,1,2,0:0:0:0:
256,192,43624,1,0,0:0:0:0:
256,192,43809,1,2,0:0:0:0:
256,192,44087,1,0,0:0:0:0:
256,192,44179,1,2,0:0:0:0:
256,192,44365,1,2,0:0:0:0:
256,192,44735,1,0,0:0:0:0:
256,192,44827,1,0,0:0:0:0:
256,192,44920,1,2,0:0:0:0:
256,192,45105,1,0,0:0:0:0:
256,192,45290,1,2,0:0:0:0:
256,192,45568,1,0,0:0:0:0:
256,192,45661,1,2,0:0:0:0:
256,192,45846,1,2,0:0:0:0:
256,192,46216,1,0,0:0:0:0:
256,192,46309,1,0,0:0:0:0:
256,192,46402,1,2,0:0:0:0:
256,192,46587,1,0,0:0:0:0:
256,192,46772,1,2,0:0:0:0:
256,192,47142,1,0,0:0:0:0:
256,192,47327,1,2,0:0:0:0:
256,192,47698,1,0,0:0:0:0:
256,192,47883,1,2,0:0:0:0:
256,192,48253,1,0,0:0:0:0:
256,192,48439,1,2,0:0:0:0:
256,192,48531,1,2,0:0:0:0:
256,192,48624,1,0,0:0:0:0:
256,192,48809,1,2,0:0:0:0:
256,192,49179,1,0,0:0:0:0:
256,192,49365,1,2,0:0:0:0:
256,192,49735,1,0,0:0:0:0:
256,192,50013,1,2,0:0:0:0:
256,192,50290,1,0,0:0:0:0:
256,192,50661,1,0,0:0:0:0:
256,192,50753,1,0,0:0:0:0:
256,192,50846,1,2,0:0:0:0:
256,192,51031,1,0,0:0:0:0:
256,192,51216,1,2,0:0:0:0:
256,192,51494,1,0,0:0:0:0:
256,192,51587,1,2,0:0:0:0:
256,192,51772,1,0,0:0:0:0:
256,192,52142,1,0,0:0:0:0:
256,192,52235,1,0,0:0:0:0:
256,192,52328,1,2,0:0:0:0:
256,192,52513,1,0,0:0:0:0:
256,192,52698,1,0,0:0:0:0:
256,192,52790,1,2,0:0:0:0:
256,192,52883,1,2,0:0:0:0:
256,192,52976,1,2,0:0:0:0:
256,192,53068,1,0,0:0:0:0:
256,192,53253,1,2,0:0:0:0:
256,192,53624,1,0,0:0:0:0:
256,192,53809,1,2,0:0:0:0:
256,192,54179,1,2,0:0:0:0:
256,192,54365,1,0,0:0:0:0:
256,192,54457,1,0,0:0:0:0:
256,192,54550,1,2,0:0:0:0:
256,192,54735,1,2,0:0:0:0:
256,192,55105,1,2,0:0:0:0:
256,192,55290,1,2,0:0:0:0:
256,192,55476,1,0,0:0:0:0:
256,192,55568,1,0,0:0:0:0:
256,192,55661,1,2,0:0:0:0:
256,192,55939,1,0,0:0:0:0:
256,192,56031,1,2,0:0:0:0:
256,192,56216,1,0,0:0:0:0:
256,192,56587,1,0,0:0:0:0:
256,192,56679,1,0,0:0:0:0:
256,192,56772,1,2,0:0:0:0:
256,192,56957,1,0,0:0:0:0:
256,192,57142,1,2,0:0:0:0:
256,192,57420,1,0,0:0:0:0:
256,192,57513,1,2,0:0:0:0:
256,192,57698,1,2,0:0:0:0:
256,192,58069,1,0,0:0:0:0:
256,192,58161,1,2,0:0:0:0:
256,192,58253,1,2,0:0:0:0:
256,192,58439,1,0,0:0:0:0:
256,192,58624,1,0,0:0:0:0:
256,192,58994,1,0,0:0:0:0:
256,192,59179,1,2,0:0:0:0:
256,192,59550,1,0,0:0:0:0:
256,192,59735,1,2,0:0:0:0:
256,192,59920,1,0,0:0:0:0:
256,192,60105,1,0,0:0:0:0:
256,192,60291,1,2,0:0:0:0:
256,192,60661,1,0,0:0:0:0:
256,192,60846,1,2,0:0:0:0:
256,192,60939,1,2,0:0:0:0:
256,192,61124,1,2,0:0:0:0:
256,192,61216,1,2,0:0:0:0:
256,192,61402,1,2,0:0:0:0:
256,192,61587,1,0,0:0:0:0:
256,192,61865,1,0,0:0:0:0:
256,192,61957,1,2,0:0:0:0:
256,192,62142,1,2,0:0:0:0:
256,192,62513,1,0,0:0:0:0:
256,192,62605,1,0,0:0:0:0:
256,192,62698,1,2,0:0:0:0:
256,192,62883,1,0,0:0:0:0:
256,192,63068,1,2,0:0:0:0:
256,192,63346,1,0,0:0:0:0:
256,192,63439,1,2,0:0:0:0:
256,192,63624,1,0,0:0:0:0:
256,192,63994,1,0,0:0:0:0:
256,192,64087,1,0,0:0:0:0:
256,192,64179,1,2,0:0:0:0:
256,192,64365,1,0,0:0:0:0:
256,192,64550,1,2,0:0:0:0:
256,192,64920,1,0,0:0:0:0:
256,192,65105,1,2,0:0:0:0:
256,192,65476,1,2,0:0:0:0:
256,192,65661,1,2,0:0:0:0:
256,192,65846,1,0,0:0:0:0:
256,192,66216,1,6,0:0:0:0:
256,192,66402,1,4,0:0:0:0:
256,192,66587,1,4,0:0:0:0:
256,192,66772,1,6,0:0:0:0:
256,192,67142,1,0,0:0:0:0:
256,192,67513,5,0,0:0:0:0:
256,192,67698,1,2,0:0:0:0:
256,192,67883,1,0,0:0:0:0:
256,192,68068,1,2,0:0:0:0:
256,192,68161,1,2,0:0:0:0:
256,192,68253,1,0,0:0:0:0:
256,192,68346,1,0,0:0:0:0:
256,192,68439,1,2,0:0:0:0:
256,192,68531,1,2,0:0:0:0:
256,192,68624,1,0,0:0:0:0:
256,192,68809,1,2,0:0:0:0:
256,192,68994,1,0,0:0:0:0:
256,192,69180,1,2,0:0:0:0:
256,192,69365,1,2,0:0:0:0:
256,192,69550,1,0,0:0:0:0:
256,192,69642,1,0,0:0:0:0:
256,192,69735,1,2,0:0:0:0:
256,192,69920,1,2,0:0:0:0:
256,192,70013,1,2,0:0:0:0:
256,192,70106,1,0,0:0:0:0:
256,192,70476,1,0,0:0:0:0:
256,192,70661,1,2,0:0:0:0:
256,192,70846,1,0,0:0:0:0:
256,192,71031,1,2,0:0:0:0:
256,192,71124,1,2,0:0:0:0:
256,192,71216,1,0,0:0:0:0:
256,192,71402,1,2,0:0:0:0:
256,192,71494,1,0,0:0:0:0:
256,192,71587,1,0,0:0:0:0:
256,192,71772,1,2,0:0:0:0:
256,192,71957,1,0,0:0:0:0:
256,192,72050,1,0,0:0:0:0:
256,192,72142,1,2,0:0:0:0:
256,192,72327,1,0,0:0:0:0:
256,192,72513,1,2,0:0:0:0:
256,192,72605,1,2,0:0:0:0:
256,192,72698,1,0,0:0:0:0:
256,192,72883,1,0,0:0:0:0:
256,192,72976,1,0,0:0:0:0:
256,192,73068,1,2,0:0:0:0:
256,192,73253,1,0,0:0:0:0:
256,192,73439,1,2,0:0:0:0:
256,192,73809,1,2,0:0:0:0:
256,192,73994,1,2,0:0:0:0:
256,192,74179,1,0,0:0:0:0:
256,192,74272,1,0,0:0:0:0:
256,192,74365,1,2,0:0:0:0:
256,192,74457,1,2,0:0:0:0:
256,192,74550,1,0,0:0:0:0:
256,192,74735,1,2,0:0:0:0:
256,192,74920,1,0,0:0:0:0:
256,192,75105,1,2,0:0:0:0:
256,192,75290,1,0,0:0:0:0:
256,192,75476,1,2,0:0:0:0:
256,192,75568,1,2,0:0:0:0:
256,192,75661,1,0,0:0:0:0:
256,192,75753,1,0,0:0:0:0:
256,192,75846,1,0,0:0:0:0:
256,192,76031,1,2,0:0:0:0:
256,192,76402,1,0,0:0:0:0:
256,192,76494,1,2,0:0:0:0:
256,192,76587,1,2,0:0:0:0:
256,192,76772,1,0,0:0:0:0:
256,192,76957,1,2,0:0:0:0:
256,192,77142,1,0,0:0:0:0:
256,192,77327,1,2,0:0:0:0:
256,192,77420,1,2,0:0:0:0:
256,192,77513,1,0,0:0:0:0:
256,192,77698,1,2,0:0:0:0:
256,192,77883,1,0,0:0:0:0:
256,192,78068,1,2,0:0:0:0:
256,192,78161,1,2,0:0:0:0:
256,192,78253,1,0,0:0:0:0:
256,192,78439,1,0,0:0:0:0:
256,192,78624,1,2,0:0:0:0:
256,192,78716,1,2,0:0:0:0:
256,192,78809,1,0,0:0:0:0:
256,192,78902,1,0,0:0:0:0:
256,192,78994,1,2,0:0:0:0:
256,192,79365,1,4,0:0:0:0:
256,192,79920,1,2,0:0:0:0:
256,192,80013,1,2,0:0:0:0:
256,192,80105,1,0,0:0:0:0:
256,192,80476,1,2,0:0:0:0:
256,192,80661,1,2,0:0:0:0:
256,192,80846,1,0,0:0:0:0:
256,192,81216,1,0,0:0:0:0:
256,192,81587,1,2,0:0:0:0:
256,192,81957,1,0,0:0:0:0:
256,192,82142,1,2,0:0:0:0:
256,192,82327,1,0,0:0:0:0:
256,192,82883,1,2,0:0:0:0:
256,192,82976,1,2,0:0:0:0:
256,192,83068,1,0,0:0:0:0:
256,192,83439,1,2,0:0:0:0:
256,192,83624,1,2,0:0:0:0:
256,192,83809,1,0,0:0:0:0:
256,192,84180,1,0,0:0:0:0:
256,192,84550,1,2,0:0:0:0:
256,192,84920,1,0,0:0:0:0:
256,192,85105,1,2,0:0:0:0:
256,192,85290,1,0,0:0:0:0:
256,192,85846,1,2,0:0:0:0:
256,192,85939,1,2,0:0:0:0:
256,192,86031,1,0,0:0:0:0:
256,192,86402,1,2,0:0:0:0:
256,192,86587,1,2,0:0:0:0:
256,192,86772,1,0,0:0:0:0:
256,192,87142,1,0,0:0:0:0:
256,192,87513,1,2,0:0:0:0:
256,192,87883,1,0,0:0:0:0:
256,192,88069,1,0,0:0:0:0:
256,192,88253,1,2,0:0:0:0:
256,192,88624,1,2,0:0:0:0:
256,192,88994,1,0,0:0:0:0:
256,192,89179,1,2,0:0:0:0:
256,192,89550,1,0,0:0:0:0:
256,192,89735,1,4,0:0:0:0:
256,192,90661,1,0,0:0:0:0:
256,192,90846,1,2,0:0:0:0:
256,192,91031,1,2,0:0:0:0:
256,192,91216,1,0,0:0:0:0:
256,192,91402,1,2,0:0:0:0:
256,192,91772,1,2,0:0:0:0:
256,192,92142,1,0,0:0:0:0:
256,192,92327,1,0,0:0:0:0:
256,192,92513,1,2,0:0:0:0:
256,192,93068,1,2,0:0:0:0:
256,192,93160,1,2,0:0:0:0:
256,192,93253,1,0,0:0:0:0:
256,192,94179,1,2,0:0:0:0:
256,192,94365,1,2,0:0:0:0:
256,192,94735,1,0,0:0:0:0:
256,192,95105,1,2,0:0:0:0:
256,192,95198,1,0,0:0:0:0:
256,192,95290,1,2,0:0:0:0:
256,192,95476,1,0,0:0:0:0:
256,192,95846,1,0,0:0:0:0:
256,192,96031,1,0,0:0:0:0:
256,192,96216,1,2,0:0:0:0:
256,192,96402,1,0,0:0:0:0:
256,192,96772,1,0,0:0:0:0:
256,192,97142,1,2,0:0:0:0:
256,192,97327,1,2,0:0:0:0:
256,192,97698,1,2,0:0:0:0:
256,192,98068,1,0,0:0:0:0:
256,192,98161,1,0,0:0:0:0:
256,192,98253,1,2,0:0:0:0:
256,192,98439,1,2,0:0:0:0:
256,192,98994,1,2,0:0:0:0:
256,192,99087,1,2,0:0:0:0:
256,192,99179,1,0,0:0:0:0:
256,192,99735,1,0,0:0:0:0:
256,192,100105,1,2,0:0:0:0:
256,192,100290,1,2,0:0:0:0:
256,192,100661,1,2,0:0:0:0:
256,192,101032,1,2,0:0:0:0:
256,192,101124,1,0,0:0:0:0:
256,192,101216,1,2,0:0:0:0:
256,192,101402,1,0,0:0:0:0:
256,192,101772,5,2,0:0:0:0:
256,192,101957,1,2,0:0:0:0:
256,192,102142,1,0,0:0:0:0:
256,192,102327,1,2,0:0:0:0:
256,192,102698,1,0,0:0:0:0:
256,192,103068,1,2,0:0:0:0:
256,192,103253,1,2,0:0:0:0:
256,192,103346,1,2,0:0:0:0:
256,192,103439,1,0,0:0:0:0:
256,192,103624,1,0,0:0:0:0:
256,192,103809,1,6,0:0:0:0:
256,192,103994,1,0,0:0:0:0:
256,192,104087,1,0,0:0:0:0:
256,192,104179,1,2,0:0:0:0:
256,192,104365,1,0,0:0:0:0:
256,192,104550,1,2,0:0:0:0:
256,192,104920,1,2,0:0:0:0:
256,192,105290,1,0,0:0:0:0:
256,192,105661,1,0,0:0:0:0:
256,192,105846,1,2,0:0:0:0:
256,192,106031,1,0,0:0:0:0:
256,192,106124,1,0,0:0:0:0:
256,192,106216,1,2,0:0:0:0:
256,192,106309,1,2,0:0:0:0:
256,192,106402,1,0,0:0:0:0:
256,192,106587,1,0,0:0:0:0:
256,192,106772,1,2,0:0:0:0:
256,192,106957,1,0,0:0:0:0:
256,192,107050,1,0,0:0:0:0:
256,192,107142,1,2,0:0:0:0:
256,192,107327,1,2,0:0:0:0:
256,192,107513,1,0,0:0:0:0:
256,192,107790,1,2,0:0:0:0:
256,192,107883,1,0,0:0:0:0:
256,192,108068,1,2,0:0:0:0:
256,192,108253,1,0,0:0:0:0:
256,192,108346,1,2,0:0:0:0:
256,192,108439,1,2,0:0:0:0:
256,192,108531,1,2,0:0:0:0:
256,192,108624,1,0,0:0:0:0:
256,192,108809,1,2,0:0:0:0:
256,192,108994,1,0,0:0:0:0:
256,192,109179,1,2,0:0:0:0:
256,192,109272,1,2,0:0:0:0:
256,192,109365,1,0,0:0:0:0:
256,192,109550,1,0,0:0:0:0:
256,192,109735,1,2,0:0:0:0:
256,192,109920,1,0,0:0:0:0:
256,192,110013,1,0,0:0:0:0:
256,192,110105,1,2,0:0:0:0:
256,192,110290,1,0,0:0:0:0:
256,192,110476,1,2,0:0:0:0:
256,192,110846,1,2,0:0:0:0:
256,192,111216,1,0,0:0:0:0:
256,192,111402,1,2,0:0:0:0:
256,192,111494,1,2,0:0:0:0:
256,192,111587,1,0,0:0:0:0:
256,192,111772,1,0,0:0:0:0:
256,192,111957,1,2,0:0:0:0:
256,192,112142,1,0,0:0:0:0:
256,192,112235,1,0,0:0:0:0:
256,192,112327,1,2,0:0:0:0:
256,192,112513,1,0,0:0:0:0:
256,192,112698,1,2,0:0:0:0:
256,192,112883,1,0,0:0:0:0:
256,192,112976,1,2,0:0:0:0:
256,192,113068,1,0,0:0:0:0:
256,192,113253,1,0,0:0:0:0:
256,192,113439,1,2,0:0:0:0:
256,192,113624,1,2,0:0:0:0:
256,192,113716,1,2,0:0:0:0:
256,192,113809,1,2,0:0:0:0:
256,192,113994,1,0,0:0:0:0:
256,192,114179,1,6,0:0:0:0:
256,192,114920,1,0,0:0:0:0:
256,192,115291,1,2,0:0:0:0:
256,192,115661,1,0,0:0:0:0:
256,192,115846,1,2,0:0:0:0:
256,192,116032,1,0,0:0:0:0:
256,192,116402,1,2,0:0:0:0:
256,192,117143,1,0,0:0:0:0:
256,192,117883,12,0,118995,0:0:0:0:
256,192,119365,5,6,0:0:0:0:
